  0
SECTION
  2
HEADER
  9
$ACADVER
  1
AC1015
  9
$ACADMAINTVER
 70
     6
  9
$DWGCODEPAGE
  3
ANSI_1252
  9
$INSBASE
 10
0.0
 20
0.0
 30
0.0
  9
$EXTMIN
 10
0.0
 20
0.0
 30
0.0
  9
$EXTMAX
 10
44.0
 20
34.0
 30
0.0
  9
$LIMMIN
 10
0.0
 20
0.0
  9
$LIMMAX
 10
44.0
 20
34.0
  9
$ORTHOMODE
 70
     0
  9
$REGENMODE
 70
     1
  9
$FILLMODE
 70
     1
  9
$QTEXTMODE
 70
     0
  9
$MIRRTEXT
 70
     1
  9
$LTSCALE
 40
4.0
  9
$ATTMODE
 70
     1
  9
$TEXTSIZE
 40
0.5
  9
$TRACEWID
 40
0.05
  9
$TEXTSTYLE
  7
Standard
  9
$CLAYER
  8
0
  9
$CELTYPE
  6
ByLayer
  9
$CECOLOR
 62
   256
  9
$CELTSCALE
 40
1.0
  9
$DISPSILH
 70
     0
  9
$DIMSCALE
 40
1.0
  9
$DIMASZ
 40
0.52
  9
$DIMEXO
 40
0.2
  9
$DIMDLI
 40
0.38
  9
$DIMRND
 40
0.0
  9
$DIMDLE
 40
0.0
  9
$DIMEXE
 40
0.5
  9
$DIMTP
 40
0.0
  9
$DIMTM
 40
0.0
  9
$DIMTXT
 40
0.5
  9
$DIMCEN
 40
0.09
  9
$DIMTSZ
 40
0.0
  9
$DIMTOL
 70
     0
  9
$DIMLIM
 70
     0
  9
$DIMTIH
 70
     1
  9
$DIMTOH
 70
     1
  9
$DIMSE1
 70
     0
  9
$DIMSE2
 70
     0
  9
$DIMTAD
 70
     0
  9
$DIMZIN
 70
     1
  9
$DIMBLK
  1

  9
$DIMASO
 70
     1
  9
$DIMSHO
 70
     1
  9
$DIMPOST
  1

  9
$DIMAPOST
  1

  9
$DIMALT
 70
     0
  9
$DIMALTD
 70
     2
  9
$DIMALTF
 40
25.4
  9
$DIMLFAC
 40
1.0
  9
$DIMTOFL
 70
     0
  9
$DIMTVP
 40
0.0
  9
$DIMTIX
 70
     0
  9
$DIMSOXD
 70
     0
  9
$DIMSAH
 70
     0
  9
$DIMBLK1
  1

  9
$DIMBLK2
  1

  9
$DIMSTYLE
  2
Standard
  9
$DIMCLRD
 70
     0
  9
$DIMCLRE
 70
     0
  9
$DIMCLRT
 70
     0
  9
$DIMTFAC
 40
1.0
  9
$DIMGAP
 40
0.24
  9
$DIMJUST
 70
     0
  9
$DIMSD1
 70
     0
  9
$DIMSD2
 70
     0
  9
$DIMTOLJ
 70
     1
  9
$DIMTZIN
 70
     1
  9
$DIMALTZ
 70
     0
  9
$DIMALTTZ
 70
     0
  9
$DIMUPT
 70
     0
  9
$DIMDEC
 70
     0
  9
$DIMTDEC
 70
     0
  9
$DIMALTU
 70
     2
  9
$DIMALTTD
 70
     2
  9
$DIMTXSTY
  7
Standard
  9
$DIMAUNIT
 70
     0
  9
$DIMADEC
 70
     0
  9
$DIMALTRND
 40
0.0
  9
$DIMAZIN
 70
     0
  9
$DIMDSEP
 70
    46
  9
$DIMATFIT
 70
     3
  9
$DIMFRAC
 70
     0
  9
$DIMLDRBLK
  1

  9
$DIMLUNIT
 70
     2
  9
$DIMLWD
 70
    -2
  9
$DIMLWE
 70
    -2
  9
$DIMTMOVE
 70
     0
  9
$LUNITS
 70
     2
  9
$LUPREC
 70
     6
  9
$SKETCHINC
 40
0.1
  9
$FILLETRAD
 40
0.0
  9
$AUNITS
 70
     0
  9
$AUPREC
 70
     2
  9
$MENU
  1
.
  9
$ELEVATION
 40
0.0
  9
$PELEVATION
 40
0.0
  9
$THICKNESS
 40
0.0
  9
$LIMCHECK
 70
     0
  9
$CHAMFERA
 40
0.0
  9
$CHAMFERB
 40
0.0
  9
$CHAMFERC
 40
0.0
  9
$CHAMFERD
 40
0.0
  9
$SKPOLY
 70
     0
  9
$TDCREATE
 40
2460887.593576262
  9
$TDUCREATE
 40
2460887.885242929
  9
$TDUPDATE
 40
2460887.593577118
  9
$TDUUPDATE
 40
2460887.885243785
  9
$TDINDWG
 40
0.0000000116
  9
$TDUSRTIMER
 40
0.0000000116
  9
$USRTIMER
 70
     1
  9
$ANGBASE
 50
0.0
  9
$ANGDIR
 70
     0
  9
$PDMODE
 70
     0
  9
$PDSIZE
 40
-1.0
  9
$PLINEWID
 40
0.0
  9
$SPLFRAME
 70
     0
  9
$SPLINETYPE
 70
     6
  9
$SPLINESEGS
 70
     8
  9
$HANDSEED
  5
363
  9
$SURFTAB1
 70
     6
  9
$SURFTAB2
 70
     6
  9
$SURFTYPE
 70
     6
  9
$SURFU
 70
     6
  9
$SURFV
 70
     6
  9
$UCSBASE
  2

  9
$UCSNAME
  2

  9
$UCSORG
 10
0.0
 20
0.0
 30
0.0
  9
$UCSXDIR
 10
1.0
 20
0.0
 30
0.0
  9
$UCSYDIR
 10
0.0
 20
1.0
 30
0.0
  9
$UCSORTHOREF
  2

  9
$UCSORTHOVIEW
 70
     0
  9
$UCSORGTOP
 10
0.0
 20
0.0
 30
0.0
  9
$UCSORGBOTTOM
 10
0.0
 20
0.0
 30
0.0
  9
$UCSORGLEFT
 10
0.0
 20
0.0
 30
0.0
  9
$UCSORGRIGHT
 10
0.0
 20
0.0
 30
0.0
  9
$UCSORGFRONT
 10
0.0
 20
0.0
 30
0.0
  9
$UCSORGBACK
 10
0.0
 20
0.0
 30
0.0
  9
$PUCSBASE
  2

  9
$PUCSNAME
  2

  9
$PUCSORG
 10
0.0
 20
0.0
 30
0.0
  9
$PUCSXDIR
 10
1.0
 20
0.0
 30
0.0
  9
$PUCSYDIR
 10
0.0
 20
1.0
 30
0.0
  9
$PUCSORTHOREF
  2

  9
$PUCSORTHOVIEW
 70
     0
  9
$PUCSORGTOP
 10
0.0
 20
0.0
 30
0.0
  9
$PUCSORGBOTTOM
 10
0.0
 20
0.0
 30
0.0
  9
$PUCSORGLEFT
 10
0.0
 20
0.0
 30
0.0
  9
$PUCSORGRIGHT
 10
0.0
 20
0.0
 30
0.0
  9
$PUCSORGFRONT
 10
0.0
 20
0.0
 30
0.0
  9
$PUCSORGBACK
 10
0.0
 20
0.0
 30
0.0
  9
$USERI1
 70
     0
  9
$USERI2
 70
     0
  9
$USERI3
 70
     0
  9
$USERI4
 70
     0
  9
$USERI5
 70
     0
  9
$USERR1
 40
0.0
  9
$USERR2
 40
0.0
  9
$USERR3
 40
0.0
  9
$USERR4
 40
0.0
  9
$USERR5
 40
0.0
  9
$WORLDVIEW
 70
     1
  9
$SHADEDGE
 70
     3
  9
$SHADEDIF
 70
    70
  9
$TILEMODE
 70
     1
  9
$MAXACTVP
 70
    64
  9
$PINSBASE
 10
0.0
 20
0.0
 30
0.0
  9
$PLIMCHECK
 70
     0
  9
$PEXTMIN
 10
1.0000000000E+20
 20
1.0000000000E+20
 30
1.0000000000E+20
  9
$PEXTMAX
 10
-1.0000000000E+20
 20
-1.0000000000E+20
 30
-1.0000000000E+20
  9
$PLIMMIN
 10
0.0
 20
0.0
  9
$PLIMMAX
 10
12.0
 20
9.0
  9
$UNITMODE
 70
     0
  9
$VISRETAIN
 70
     1
  9
$PLINEGEN
 70
     0
  9
$PSLTSCALE
 70
     1
  9
$TREEDEPTH
 70
  3020
  9
$CMLSTYLE
  2
Standard
  9
$CMLJUST
 70
     0
  9
$CMLSCALE
 40
1.0
  9
$PROXYGRAPHICS
 70
     1
  9
$MEASUREMENT
 70
     0
  9
$CELWEIGHT
370
    -1
  9
$ENDCAPS
280
     0
  9
$JOINSTYLE
280
     0
  9
$LWDISPLAY
290
     1
  9
$INSUNITS
 70
     1
  9
$HYPERLINKBASE
  1

  9
$STYLESHEET
  1

  9
$XEDIT
290
     1
  9
$CEPSNTYPE
380
     0
  9
$PSTYLEMODE
290
     1
  9
$FINGERPRINTGUID
  2
{5fe71492-2d8f-4048-9a5d-5e91ad9cee7b}
  9
$VERSIONGUID
  2
{FAEB1C32-E019-11D5-929B-00C0DF256EC4}
  9
$EXTNAMES
290
     1
  9
$PSVPSCALE
 40
0.0
  9
$OLESTARTUP
290
     0
  0
ENDSEC
  0
SECTION
  2
CLASSES
  0
CLASS
  1
ACDBDICTIONARYWDFLT
  2
AcDbDictionaryWithDefault
  3
ObjectDBX Classes
 90
        0
280
     0
281
     0
  0
CLASS
  1
VISUALSTYLE
  2
AcDbVisualStyle
  3
ObjectDBX Classes
 90
     4095
280
     0
281
     0
  0
CLASS
  1
MATERIAL
  2
AcDbMaterial
  3
ObjectDBX Classes
 90
     1153
280
     0
281
     0
  0
CLASS
  1
SCALE
  2
AcDbScale
  3
ObjectDBX Classes
 90
     1153
280
     0
281
     0
  0
CLASS
  1
TABLESTYLE
  2
AcDbTableStyle
  3
ObjectDBX Classes
 90
     4095
280
     0
281
     0
  0
CLASS
  1
MLEADERSTYLE
  2
AcDbMLeaderStyle
  3
ACDB_MLEADERSTYLE_CLASS
 90
     4095
280
     0
281
     0
  0
CLASS
  1
SUN
  2
AcDbSun
  3
SCENEOE
 90
     1153
280
     0
281
     0
  0
CLASS
  1
ACDBPLACEHOLDER
  2
AcDbPlaceHolder
  3
ObjectDBX Classes
 90
        0
280
     0
281
     0
  0
CLASS
  1
LAYOUT
  2
AcDbLayout
  3
ObjectDBX Classes
 90
        0
280
     0
281
     0
  0
ENDSEC
  0
SECTION
  2
TABLES
  0
TABLE
  2
VPORT
  5
8
330
0
100
AcDbSymbolTable
 70
     1
  0
VPORT
  5
29
330
8
100
AcDbSymbolTableRecord
100
AcDbViewportTableRecord
  2
*Active
 70
     0
 10
0.0
 20
0.0
 11
1.0
 21
1.0
 12
22.0
 22
17.0
 13
0.0
 23
0.0
 14
0.5
 24
0.5
 15
0.5
 25
0.5
 16
0.0
 26
0.0
 36
1.0
 17
0.0
 27
0.0
 37
0.0
 40
34.0
 41
1.2941176471
 42
50.0
 43
0.0
 44
0.0
 50
0.0
 51
0.0
 71
     0
 72
  2000
 73
     1
 74
     3
 75
     0
 76
     0
 77
     0
 78
     0
281
     0
 65
     1
110
0.0
120
0.0
130
0.0
111
1.0
121
0.0
131
0.0
112
0.0
122
1.0
132
0.0
 79
     0
146
0.0
  0
ENDTAB
  0
TABLE
  2
LTYPE
  5
5
330
0
100
AcDbSymbolTable
 70
     6
  0
LTYPE
  5
14
330
5
100
AcDbSymbolTableRecord
100
AcDbLinetypeTableRecord
  2
ByBlock
 70
     0
  3

 72
    65
 73
     0
 40
0.0
  0
LTYPE
  5
15
330
5
100
AcDbSymbolTableRecord
100
AcDbLinetypeTableRecord
  2
ByLayer
 70
     0
  3

 72
    65
 73
     0
 40
0.0
  0
LTYPE
  5
16
330
5
100
AcDbSymbolTableRecord
100
AcDbLinetypeTableRecord
  2
Continuous
 70
     0
  3
Solid line
 72
    65
 73
     0
 40
0.0
  0
LTYPE
  5
5E
330
5
100
AcDbSymbolTableRecord
100
AcDbLinetypeTableRecord
  2
HIDDEN
 70
     0
  3
Hidden __ __ __ __ __ __ __ __ __ __ __ __ __ __
 72
    65
 73
     2
 40
0.075
 49
0.05
 74
     0
 49
-0.025
 74
     0
  0
LTYPE
  5
5F
330
5
100
AcDbSymbolTableRecord
100
AcDbLinetypeTableRecord
  2
PHANTOM
 70
     0
  3
Phantom ______  __  __  ______  __  __  ______
 72
    65
 73
     6
 40
0.5
 49
0.25
 74
     0
 49
-0.05
 74
     0
 49
0.05
 74
     0
 49
-0.05
 74
     0
 49
0.05
 74
     0
 49
-0.05
 74
     0
  0
LTYPE
  5
60
330
5
100
AcDbSymbolTableRecord
100
AcDbLinetypeTableRecord
  2
CENTER
 70
     0
  3
Center ____ _ ____ _ ____ _ ____ _ ____ _ ____
 72
    65
 73
     4
 40
0.4
 49
0.25
 74
     0
 49
-0.05
 74
     0
 49
0.05
 74
     0
 49
-0.05
 74
     0
  0
LTYPE
  5
61
330
5
100
AcDbSymbolTableRecord
100
AcDbLinetypeTableRecord
  2
CENTERX2
 70
     0
  3
Center (2x) ________  __  ________  __  _____
 72
    65
 73
     4
 40
0.8
 49
0.5
 74
     0
 49
-0.1
 74
     0
 49
0.1
 74
     0
 49
-0.1
 74
     0
  0
LTYPE
  5
62
330
5
100
AcDbSymbolTableRecord
100
AcDbLinetypeTableRecord
  2
DOT2
 70
     0
  3
Dot (.5x) ........................................
 72
    65
 73
     2
 40
0.025
 49
0.0
 74
     0
 49
-0.025
 74
     0
  0
ENDTAB
  0
TABLE
  2
LAYER
  5
2
330
0
100
AcDbSymbolTable
 70
    11
  0
LAYER
  5
10
330
2
100
AcDbSymbolTableRecord
100
AcDbLayerTableRecord
  2
0
 70
     0
 62
     7
  6
Continuous
370
    -3
390
F
  0
LAYER
  5
63
330
2
100
AcDbSymbolTableRecord
100
AcDbLayerTableRecord
  2
SLD-0
 70
     0
 62
     7
  6
Continuous
370
    -3
390
F
  0
LAYER
  5
64
330
2
100
AcDbSymbolTableRecord
100
AcDbLayerTableRecord
  2
DIM
 70
     0
 62
     7
  6
Continuous
370
    -3
390
F
  0
LAYER
  5
65
330
2
100
AcDbSymbolTableRecord
100
AcDbLayerTableRecord
  2
CEN
 70
     0
 62
     1
  6
CENTER
370
    -3
390
F
  0
LAYER
  5
66
330
2
100
AcDbSymbolTableRecord
100
AcDbLayerTableRecord
  2
HAT
 70
     0
 62
     4
  6
Continuous
370
    -3
390
F
  0
LAYER
  5
67
330
2
100
AcDbSymbolTableRecord
100
AcDbLayerTableRecord
  2
OBJ
 70
     0
 62
     5
  6
Continuous
370
    -3
390
F
  0
LAYER
  5
68
330
2
100
AcDbSymbolTableRecord
100
AcDbLayerTableRecord
  2
SLD-DEFPOINTS
 70
     0
 62
     7
  6
Continuous
370
    -3
390
F
  0
LAYER
  5
69
330
2
100
AcDbSymbolTableRecord
100
AcDbLayerTableRecord
  2
HID
 70
     0
 62
     4
  6
HIDDEN
370
    -3
390
F
  0
LAYER
  5
6A
330
2
100
AcDbSymbolTableRecord
100
AcDbLayerTableRecord
  2
NOTE
 70
     0
 62
     7
  6
Continuous
370
    -3
390
F
  0
LAYER
  5
6B
330
2
100
AcDbSymbolTableRecord
100
AcDbLayerTableRecord
  2
TITLE
 70
     0
 62
     7
  6
Continuous
370
    -3
390
F
  0
LAYER
  5
6C
330
2
100
AcDbSymbolTableRecord
100
AcDbLayerTableRecord
  2
THICK_TITLE
 70
     0
 62
     7
  6
Continuous
370
   100
390
F
  0
ENDTAB
  0
TABLE
  2
STYLE
  5
3
330
0
100
AcDbSymbolTable
 70
     3
  0
STYLE
  5
11
330
3
100
AcDbSymbolTableRecord
100
AcDbTextStyleTableRecord
  2
Standard
 70
     0
 40
0.0
 41
1.0
 50
0.0
 71
     0
 42
0.5
  3
txt
  4

  0
STYLE
  5
73
330
3
100
AcDbSymbolTableRecord
100
AcDbTextStyleTableRecord
  2
SLDTEXTSTYLE0
 70
     0
 40
0.0
 41
0.75
 50
0.0
 71
     0
 42
0.5
  3
TXT
  4

  0
STYLE
  5
110
330
3
100
AcDbSymbolTableRecord
100
AcDbTextStyleTableRecord
  2
SLDTEXTSTYLE1
 70
     0
 40
0.0
 41
0.7
 50
0.0
 71
     0
 42
0.5
  3
TXT
  4

  0
ENDTAB
  0
TABLE
  2
VIEW
  5
6
330
0
100
AcDbSymbolTable
 70
     0
  0
ENDTAB
  0
TABLE
  2
UCS
  5
7
330
0
100
AcDbSymbolTable
 70
     0
  0
ENDTAB
  0
TABLE
  2
APPID
  5
9
330
0
100
AcDbSymbolTable
 70
     1
  0
APPID
  5
12
330
9
100
AcDbSymbolTableRecord
100
AcDbRegAppTableRecord
  2
ACAD
 70
     0
  0
ENDTAB
  0
TABLE
  2
DIMSTYLE
  5
A
330
0
100
AcDbSymbolTable
 70
     8
100
AcDbDimStyleTable
  0
DIMSTYLE
105
27
330
A
100
AcDbSymbolTableRecord
100
AcDbDimStyleTableRecord
  2
Standard
 70
     0
178
     0
340
11
  0
DIMSTYLE
105
105
102
{ACAD_REACTORS
330
104
102
}
330
A
100
AcDbSymbolTableRecord
100
AcDbDimStyleTableRecord
  2
SLDDIMSTYLE0
 70
     0
 41
0.52
 44
0.0
 45
0.000000001
 78
    12
 79
     3
140
0.5
147
0.125
148
0.000000001
170
     1
173
     1
178
     0
271
     0
272
     0
276
     2
277
     5
284
    12
340
73
  0
DIMSTYLE
105
114
102
{ACAD_REACTORS
330
113
102
}
330
A
100
AcDbSymbolTableRecord
100
AcDbDimStyleTableRecord
  2
SLDDIMSTYLE1
 70
     0
 41
0.52
 44
0.0
 45
0.000000001
 78
    12
 79
     3
140
0.5
147
0.125
148
0.000000001
170
     1
172
     1
173
     1
178
     0
271
     0
272
     0
276
     2
277
     5
284
    12
289
     0
340
73
  0
DIMSTYLE
105
128
102
{ACAD_REACTORS
330
127
330
13B
330
166
102
}
330
A
100
AcDbSymbolTableRecord
100
AcDbDimStyleTableRecord
  2
SLDDIMSTYLE2
 70
     0
 41
0.52
 44
0.0
 45
0.000000001
 78
    12
 79
     3
140
0.5
147
0.125
148
0.000000001
170
     1
172
     1
173
     1
178
     0
271
     6
272
     0
276
     2
277
     5
284
    12
289
     0
340
73
  0
DIMSTYLE
105
151
102
{ACAD_REACTORS
330
150
330
303
102
}
330
A
100
AcDbSymbolTableRecord
100
AcDbDimStyleTableRecord
  2
SLDDIMSTYLE3
 70
     0
 41
0.52
 44
0.0
 45
0.000000001
 78
    12
 79
     3
140
0.5
147
0.125
148
0.000000001
170
     1
173
     1
178
     0
271
     6
272
     0
276
     2
277
     5
284
    12
340
73
  0
DIMSTYLE
105
179
330
A
100
AcDbSymbolTableRecord
100
AcDbDimStyleTableRecord
  2
SLDDIMSTYLE4
 70
     0
 41
0.52
 44
0.0
 45
0.000000001
146
0.52
147
0.0
173
     1
178
     0
271
     0
272
     0
276
     2
277
     5
340
11
  0
DIMSTYLE
105
2C5
102
{ACAD_REACTORS
330
2C4
102
}
330
A
100
AcDbSymbolTableRecord
100
AcDbDimStyleTableRecord
  2
SLDDIMSTYLE5
 70
     0
 41
0.52
 44
0.0
 45
0.000000001
 78
    12
 79
     3
140
0.5
141
0.0
147
0.125
148
0.000000001
170
     1
173
     1
178
     0
271
     0
272
     0
276
     2
277
     5
284
    12
340
73
  0
DIMSTYLE
105
2D8
102
{ACAD_REACTORS
330
2D7
330
34F
102
}
330
A
100
AcDbSymbolTableRecord
100
AcDbDimStyleTableRecord
  2
SLDDIMSTYLE6
 70
     0
 41
0.52
 44
0.0
 45
0.000000001
 78
    12
 79
     3
140
0.5
141
0.0
147
0.125
148
0.000000001
170
     1
173
     1
178
     0
271
     0
272
     0
276
     2
277
     5
284
    12
340
73
  0
ENDTAB
  0
TABLE
  2
BLOCK_RECORD
  5
1
330
0
100
AcDbSymbolTable
 70
    20
  0
BLOCK_RECORD
  5
1F
330
1
100
AcDbSymbolTableRecord
100
AcDbBlockTableRecord
  2
*Model_Space
340
22
  0
BLOCK_RECORD
  5
1B
330
1
100
AcDbSymbolTableRecord
100
AcDbBlockTableRecord
  2
*Paper_Space
340
1E
  0
BLOCK_RECORD
  5
23
330
1
100
AcDbSymbolTableRecord
100
AcDbBlockTableRecord
  2
*Paper_Space0
340
26
  0
BLOCK_RECORD
  5
6D
330
1
100
AcDbSymbolTableRecord
100
AcDbBlockTableRecord
  2
Block1
340
0
  0
BLOCK_RECORD
  5
70
330
1
100
AcDbSymbolTableRecord
100
AcDbBlockTableRecord
  2
SW_NOTE_0
340
0
102
{BLKREFS
331
75
102
}
  0
BLOCK_RECORD
  5
76
330
1
100
AcDbSymbolTableRecord
100
AcDbBlockTableRecord
  2
Block2
340
0
  0
BLOCK_RECORD
  5
79
330
1
100
AcDbSymbolTableRecord
100
AcDbBlockTableRecord
  2
SW_NOTE_0_1
340
0
102
{BLKREFS
331
7D
102
}
  0
BLOCK_RECORD
  5
7E
330
1
100
AcDbSymbolTableRecord
100
AcDbBlockTableRecord
  2
Block3
340
0
  0
BLOCK_RECORD
  5
81
330
1
100
AcDbSymbolTableRecord
100
AcDbBlockTableRecord
  2
SW_NOTE_0_2
340
0
102
{BLKREFS
331
85
102
}
  0
BLOCK_RECORD
  5
86
330
1
100
AcDbSymbolTableRecord
100
AcDbBlockTableRecord
  2
Block4
340
0
  0
BLOCK_RECORD
  5
89
330
1
100
AcDbSymbolTableRecord
100
AcDbBlockTableRecord
  2
SW_NOTE_0_3
340
0
102
{BLKREFS
331
8D
102
}
  0
BLOCK_RECORD
  5
106
330
1
100
AcDbSymbolTableRecord
100
AcDbBlockTableRecord
  2
_D
340
0
  0
BLOCK_RECORD
  5
115
330
1
100
AcDbSymbolTableRecord
100
AcDbBlockTableRecord
  2
_D_1
340
0
  0
BLOCK_RECORD
  5
129
330
1
100
AcDbSymbolTableRecord
100
AcDbBlockTableRecord
  2
_D_2
340
0
  0
BLOCK_RECORD
  5
13C
330
1
100
AcDbSymbolTableRecord
100
AcDbBlockTableRecord
  2
_D_3
340
0
  0
BLOCK_RECORD
  5
152
330
1
100
AcDbSymbolTableRecord
100
AcDbBlockTableRecord
  2
_D_4
340
0
  0
BLOCK_RECORD
  5
167
330
1
100
AcDbSymbolTableRecord
100
AcDbBlockTableRecord
  2
_D_5
340
0
  0
BLOCK_RECORD
  5
2C6
330
1
100
AcDbSymbolTableRecord
100
AcDbBlockTableRecord
  2
_D_6
340
0
  0
BLOCK_RECORD
  5
2D9
330
1
100
AcDbSymbolTableRecord
100
AcDbBlockTableRecord
  2
_D_7
340
0
  0
BLOCK_RECORD
  5
2E8
330
1
100
AcDbSymbolTableRecord
100
AcDbBlockTableRecord
  2
SW_CENTERMARKSYMBOL_0
340
0
102
{BLKREFS
331
2F3
102
}
  0
BLOCK_RECORD
  5
304
330
1
100
AcDbSymbolTableRecord
100
AcDbBlockTableRecord
  2
_D_8
340
0
  0
BLOCK_RECORD
  5
350
330
1
100
AcDbSymbolTableRecord
100
AcDbBlockTableRecord
  2
_D_9
340
0
  0
ENDTAB
  0
ENDSEC
  0
SECTION
  2
BLOCKS
  0
BLOCK
  5
20
330
1F
100
AcDbEntity
  8
0
100
AcDbBlockBegin
  2
*Model_Space
 70
     0
 10
0.0
 20
0.0
 30
0.0
  3
*Model_Space
  1

  0
ENDBLK
  5
21
330
1F
100
AcDbEntity
  8
0
100
AcDbBlockEnd
  0
BLOCK
  5
1C
330
1B
100
AcDbEntity
 67
     1
  8
0
100
AcDbBlockBegin
  2
*Paper_Space
 70
     0
 10
0.0
 20
0.0
 30
0.0
  3
*Paper_Space
  1

  0
ENDBLK
  5
1D
330
1B
100
AcDbEntity
 67
     1
  8
0
100
AcDbBlockEnd
  0
BLOCK
  5
24
330
23
100
AcDbEntity
  8
0
100
AcDbBlockBegin
  2
*Paper_Space0
 70
     0
 10
0.0
 20
0.0
 30
0.0
  3
*Paper_Space0
  1

  0
ENDBLK
  5
25
330
23
100
AcDbEntity
  8
0
100
AcDbBlockEnd
  0
BLOCK
  5
6E
330
6D
100
AcDbEntity
  8
0
100
AcDbBlockBegin
  2
Block1
 70
     0
 10
0.0
 20
0.0
 30
0.0
  3
Block1
  1

  0
INSERT
  5
75
330
6D
100
AcDbEntity
  8
0
  6
Continuous
 62
     7
370
     0
100
AcDbBlockReference
  2
SW_NOTE_0
 10
-0.0782181578
 20
-0.069528387
 30
0.0
  0
ENDBLK
  5
6F
330
6D
100
AcDbEntity
  8
0
100
AcDbBlockEnd
  0
BLOCK
  5
71
330
70
100
AcDbEntity
  8
0
100
AcDbBlockBegin
  2
SW_NOTE_0
 70
     0
 10
0.0
 20
0.0
 30
0.0
  3
SW_NOTE_0
  1

  0
MTEXT
  5
74
330
70
100
AcDbEntity
  8
0
  6
Continuous
 62
     0
370
     0
100
AcDbMText
 10
2.4348958333
 20
1.0742231165
 30
0.0
 40
0.8333333333
 41
0.0
 71
     2
 72
     1
  1
12" STAKE
  7
SLDTEXTSTYLE0
 73
     1
 44
1.0
  0
ENDBLK
  5
72
330
70
100
AcDbEntity
  8
0
100
AcDbBlockEnd
  0
BLOCK
  5
77
330
76
100
AcDbEntity
  8
0
100
AcDbBlockBegin
  2
Block2
 70
     0
 10
0.0
 20
0.0
 30
0.0
  3
Block2
  1

  0
INSERT
  5
7D
330
76
100
AcDbEntity
  8
0
  6
Continuous
 62
     7
370
     0
100
AcDbBlockReference
  2
SW_NOTE_0_1
 10
-0.2712713872
 20
1.1367231226
 30
0.0
  0
ENDBLK
  5
78
330
76
100
AcDbEntity
  8
0
100
AcDbBlockEnd
  0
BLOCK
  5
7A
330
79
100
AcDbEntity
  8
0
100
AcDbBlockBegin
  2
SW_NOTE_0_1
 70
     0
 10
0.0
 20
0.0
 30
0.0
  3
SW_NOTE_0_1
  1

  0
MTEXT
  5
7C
330
79
100
AcDbEntity
  8
0
  6
Continuous
 62
     0
370
     0
100
AcDbMText
 10
2.4348958333
 20
1.0742231165
 30
0.0
 40
0.8333333333
 41
0.0
 71
     2
 72
     1
  1
18" STAKE
  7
SLDTEXTSTYLE0
 73
     1
 44
1.0
  0
ENDBLK
  5
7B
330
79
100
AcDbEntity
  8
0
100
AcDbBlockEnd
  0
BLOCK
  5
7F
330
7E
100
AcDbEntity
  8
0
100
AcDbBlockBegin
  2
Block3
 70
     0
 10
0.0
 20
0.0
 30
0.0
  3
Block3
  1

  0
INSERT
  5
85
330
7E
100
AcDbEntity
  8
0
  6
Continuous
 62
     7
370
     0
100
AcDbBlockReference
  2
SW_NOTE_0_2
 10
-3.1439827449
 20
-0.0370986524
 30
0.0
  0
ENDBLK
  5
80
330
7E
100
AcDbEntity
  8
0
100
AcDbBlockEnd
  0
BLOCK
  5
82
330
81
100
AcDbEntity
  8
0
100
AcDbBlockBegin
  2
SW_NOTE_0_2
 70
     0
 10
0.0
 20
0.0
 30
0.0
  3
SW_NOTE_0_2
  1

  0
MTEXT
  5
84
330
81
100
AcDbEntity
  8
0
  6
Continuous
 62
     0
370
     0
100
AcDbMText
 10
4.9479166667
 20
1.0742231165
 30
0.0
 40
0.8333333333
 41
0.0
 71
     2
 72
     1
  1
12" JUNCTION BOX
  7
SLDTEXTSTYLE0
 73
     1
 44
1.0
  0
ENDBLK
  5
83
330
81
100
AcDbEntity
  8
0
100
AcDbBlockEnd
  0
BLOCK
  5
87
330
86
100
AcDbEntity
  8
0
100
AcDbBlockBegin
  2
Block4
 70
     0
 10
0.0
 20
0.0
 30
0.0
  3
Block4
  1

  0
INSERT
  5
8D
330
86
100
AcDbEntity
  8
0
  6
Continuous
 62
     7
370
     0
100
AcDbBlockReference
  2
SW_NOTE_0_3
 10
-3.3387829808
 20
-0.0132146679
 30
0.0
  0
ENDBLK
  5
88
330
86
100
AcDbEntity
  8
0
100
AcDbBlockEnd
  0
BLOCK
  5
8A
330
89
100
AcDbEntity
  8
0
100
AcDbBlockBegin
  2
SW_NOTE_0_3
 70
     0
 10
0.0
 20
0.0
 30
0.0
  3
SW_NOTE_0_3
  1

  0
MTEXT
  5
8C
330
89
100
AcDbEntity
  8
0
  6
Continuous
 62
     0
370
     0
100
AcDbMText
 10
4.9479166667
 20
1.0742231165
 30
0.0
 40
0.8333333333
 41
0.0
 71
     2
 72
     1
  1
18" JUNCTION BOX
  7
SLDTEXTSTYLE0
 73
     1
 44
1.0
  0
ENDBLK
  5
8B
330
89
100
AcDbEntity
  8
0
100
AcDbBlockEnd
  0
BLOCK
  5
107
330
106
100
AcDbEntity
  8
0
100
AcDbBlockBegin
  2
_D
 70
     0
 10
0.0
 20
0.0
 30
0.0
  3
_D
  1

  0
SOLID
  5
109
330
106
100
AcDbEntity
  8
0
  6
Continuous
 62
     7
370
    18
100
AcDbTrace
 10
6.9091341546
 20
26.9800518027
 30
0.0
 11
6.8291341546
 21
26.4600518027
 31
0.0
 12
6.9891341546
 22
26.4600518027
 32
0.0
 13
6.9891341546
 23
26.4600518027
 33
0.0
  0
SOLID
  5
10A
330
106
100
AcDbEntity
  8
0
  6
Continuous
 62
     7
370
    18
100
AcDbTrace
 10
6.9091341546
 20
9.2850518027
 30
0.0
 11
6.9891341546
 21
9.8050518027
 31
0.0
 12
6.8291341546
 22
9.8050518027
 32
0.0
 13
6.8291341546
 23
9.8050518027
 33
0.0
  0
LINE
  5
10B
330
106
100
AcDbEntity
  8
0
  6
Continuous
 62
     7
370
     0
100
AcDbLine
 10
11.6362010837
 20
26.9800518027
 30
0.0
 11
6.4091341546
 21
26.9800518027
 31
0.0
  0
LINE
  5
10C
330
106
100
AcDbEntity
  8
0
  6
Continuous
 62
     7
370
     0
100
AcDbLine
 10
11.818783294
 20
9.2850518027
 30
0.0
 11
6.4091341546
 21
9.2850518027
 31
0.0
  0
LINE
  5
10D
330
106
100
AcDbEntity
  8
0
  6
Continuous
 62
     7
370
     0
100
AcDbLine
 10
6.9091341546
 20
26.9800518027
 30
0.0
 11
6.9091341546
 21
19.3231768751
 31
0.0
  0
LINE
  5
10E
330
106
100
AcDbEntity
  8
0
  6
Continuous
 62
     7
370
     0
100
AcDbLine
 10
6.9091341546
 20
9.2850518027
 30
0.0
 11
6.9091341546
 21
16.9419267302
 31
0.0
  0
MTEXT
  5
10F
330
106
100
AcDbEntity
  8
0
  6
Continuous
 62
     7
370
    18
100
AcDbMText
 10
4.3303145587
 20
19.1739607761
 30
0.0
 40
0.5
 41
0.0
 71
     1
 72
     1
  1
SPECIFY LENGTH
  7
SLDTEXTSTYLE0
 73
     1
 44
1.0
  0
MTEXT
  5
111
330
106
100
AcDbEntity
  8
0
  6
Continuous
 62
     7
370
    18
100
AcDbMText
 10
5.2872593573
 20
18.3802107523
 30
0.0
 40
0.5
 41
0.0
 71
     1
 72
     1
  1
12" OR 18"
  7
SLDTEXTSTYLE1
 73
     1
 44
1.0
  0
MTEXT
  5
112
330
106
100
AcDbEntity
  8
0
  6
Continuous
 62
     7
370
    18
100
AcDbMText
 10
3.6400370395
 20
17.5864607284
 30
0.0
 40
0.5
 41
0.0
 71
     1
 72
     1
  1
[305mm OR 457mm]
  7
SLDTEXTSTYLE0
 73
     1
 44
1.0
  0
ENDBLK
  5
108
330
106
100
AcDbEntity
  8
0
100
AcDbBlockEnd
  0
BLOCK
  5
116
330
115
100
AcDbEntity
  8
0
100
AcDbBlockBegin
  2
_D_1
 70
     0
 10
0.0
 20
0.0
 30
0.0
  3
_D_1
  1

  0
SOLID
  5
118
330
115
100
AcDbEntity
  8
0
  6
Continuous
 62
     7
370
    18
100
AcDbTrace
 10
11.8362010837
 20
30.3791836891
 30
0.0
 11
11.3162010837
 21
30.4591836891
 31
0.0
 12
11.3162010837
 22
30.2991836891
 32
0.0
 13
11.3162010837
 23
30.2991836891
 33
0.0
  0
SOLID
  5
119
330
115
100
AcDbEntity
  8
0
  6
Continuous
 62
     7
370
    18
100
AcDbTrace
 10
14.8362010837
 20
30.3791836891
 30
0.0
 11
15.3562010837
 21
30.2991836891
 31
0.0
 12
15.3562010837
 22
30.4591836891
 32
0.0
 13
15.3562010837
 23
30.4591836891
 33
0.0
  0
LINE
  5
11A
330
115
100
AcDbEntity
  8
0
  6
Continuous
 62
     7
370
     0
100
AcDbLine
 10
12.341756655
 20
30.3791836158
 30
0.0
 11
12.1894129065
 21
30.3791836158
 31
0.0
  0
LINE
  5
11B
330
115
100
AcDbEntity
  8
0
  6
Continuous
 62
     7
370
     0
100
AcDbLine
 10
12.1894129065
 20
30.3791836158
 30
0.0
 11
12.1894129065
 21
29.5854335919
 31
0.0
  0
LINE
  5
11C
330
115
100
AcDbEntity
  8
0
  6
Continuous
 62
     7
370
     0
100
AcDbLine
 10
12.1894129065
 20
29.5854335919
 30
0.0
 11
12.341756655
 21
29.5854335919
 31
0.0
  0
LINE
  5
11D
330
115
100
AcDbEntity
  8
0
  6
Continuous
 62
     7
370
     0
100
AcDbLine
 10
14.3306455858
 20
30.3791836158
 30
0.0
 11
14.4829893343
 21
30.3791836158
 31
0.0
  0
LINE
  5
11E
330
115
100
AcDbEntity
  8
0
  6
Continuous
 62
     7
370
     0
100
AcDbLine
 10
14.4829893343
 20
30.3791836158
 30
0.0
 11
14.4829893343
 21
29.5854335919
 31
0.0
  0
LINE
  5
11F
330
115
100
AcDbEntity
  8
0
  6
Continuous
 62
     7
370
     0
100
AcDbLine
 10
14.4829893343
 20
29.5854335919
 30
0.0
 11
14.3306455858
 21
29.5854335919
 31
0.0
  0
LINE
  5
120
330
115
100
AcDbEntity
  8
0
  6
Continuous
 62
     7
370
     0
100
AcDbLine
 10
11.8362010837
 20
28.6500518027
 30
0.0
 11
11.8362010837
 21
30.8791836891
 31
0.0
  0
LINE
  5
121
330
115
100
AcDbEntity
  8
0
  6
Continuous
 62
     7
370
     0
100
AcDbLine
 10
14.8362010837
 20
28.6500518027
 30
0.0
 11
14.8362010837
 21
30.8791836891
 31
0.0
  0
LINE
  5
122
330
115
100
AcDbEntity
  8
0
  6
Continuous
 62
     7
370
     0
100
AcDbLine
 10
11.8362010837
 20
30.3791836891
 30
0.0
 11
10.8362010837
 21
30.3791836891
 31
0.0
  0
LINE
  5
123
330
115
100
AcDbEntity
  8
0
  6
Continuous
 62
     7
370
     0
100
AcDbLine
 10
14.8362010837
 20
30.3791836891
 30
0.0
 11
15.8362010837
 21
30.3791836891
 31
0.0
  0
MTEXT
  5
124
330
115
100
AcDbEntity
  8
0
  6
Continuous
 62
     7
370
    18
100
AcDbMText
 10
12.6713226378
 20
31.1252800366
 30
0.0
 40
0.5
 41
0.0
 71
     1
 72
     1
  1
%%c
  7
SLDTEXTSTYLE0
 73
     1
 44
1.0
  0
MTEXT
  5
125
330
115
100
AcDbEntity
  8
0
  6
Continuous
 62
     7
370
    18
100
AcDbMText
 10
13.4253851201
 20
31.1252800366
 30
0.0
 40
0.5
 41
0.0
 71
     1
 72
     1
  1
3"
  7
SLDTEXTSTYLE0
 73
     1
 44
1.0
  0
MTEXT
  5
126
330
115
100
AcDbEntity
  8
0
  6
Continuous
 62
     7
370
    18
100
AcDbMText
 10
12.341756655
 20
30.2299675168
 30
0.0
 40
0.5
 41
0.0
 71
     1
 72
     1
  1
76mm
  7
SLDTEXTSTYLE0
 73
     1
 44
1.0
  0
ENDBLK
  5
117
330
115
100
AcDbEntity
  8
0
100
AcDbBlockEnd
  0
BLOCK
  5
12A
330
129
100
AcDbEntity
  8
0
100
AcDbBlockBegin
  2
_D_2
 70
     0
 10
0.0
 20
0.0
 30
0.0
  3
_D_2
  1

  0
SOLID
  5
12C
330
129
100
AcDbEntity
  8
0
  6
Continuous
 62
     7
370
    18
100
AcDbTrace
 10
10.3737010837
 20
26.2316377906
 30
0.0
 11
9.8537010837
 21
26.3116377906
 31
0.0
 12
9.8537010837
 22
26.1516377906
 32
0.0
 13
9.8537010837
 23
26.1516377906
 33
0.0
  0
SOLID
  5
12D
330
129
100
AcDbEntity
  8
0
  6
Continuous
 62
     7
370
    18
100
AcDbTrace
 10
16.2987010837
 20
26.2316377906
 30
0.0
 11
16.8187010837
 21
26.1516377906
 31
0.0
 12
16.8187010837
 22
26.3116377906
 32
0.0
 13
16.8187010837
 23
26.3116377906
 33
0.0
  0
LINE
  5
12E
330
129
100
AcDbEntity
  8
0
  6
Continuous
 62
     7
370
     0
100
AcDbLine
 10
18.584101398
 20
26.2316377172
 30
0.0
 11
18.4317576496
 21
26.2316377172
 31
0.0
  0
LINE
  5
12F
330
129
100
AcDbEntity
  8
0
  6
Continuous
 62
     7
370
     0
100
AcDbLine
 10
18.4317576496
 20
26.2316377172
 30
0.0
 11
18.4317576496
 21
25.4378876934
 31
0.0
  0
LINE
  5
130
330
129
100
AcDbEntity
  8
0
  6
Continuous
 62
     7
370
     0
100
AcDbLine
 10
18.4317576496
 20
25.4378876934
 30
0.0
 11
18.584101398
 21
25.4378876934
 31
0.0
  0
LINE
  5
131
330
129
100
AcDbEntity
  8
0
  6
Continuous
 62
     7
370
     0
100
AcDbLine
 10
20.942434701
 20
26.2316377172
 30
0.0
 11
21.0947784495
 21
26.2316377172
 31
0.0
  0
LINE
  5
132
330
129
100
AcDbEntity
  8
0
  6
Continuous
 62
     7
370
     0
100
AcDbLine
 10
21.0947784495
 20
26.2316377172
 30
0.0
 11
21.0947784495
 21
25.4378876934
 31
0.0
  0
LINE
  5
133
330
129
100
AcDbEntity
  8
0
  6
Continuous
 62
     7
370
     0
100
AcDbLine
 10
21.0947784495
 20
25.4378876934
 30
0.0
 11
20.942434701
 21
25.4378876934
 31
0.0
  0
LINE
  5
134
330
129
100
AcDbEntity
  8
0
  6
Continuous
 62
     7
370
     0
100
AcDbLine
 10
10.3737010837
 20
23.3050518027
 30
0.0
 11
10.3737010837
 21
26.7316377906
 31
0.0
  0
LINE
  5
135
330
129
100
AcDbEntity
  8
0
  6
Continuous
 62
     7
370
     0
100
AcDbLine
 10
16.2987010837
 20
23.3050518027
 30
0.0
 11
16.2987010837
 21
26.7316377906
 31
0.0
  0
LINE
  5
136
330
129
100
AcDbEntity
  8
0
  6
Continuous
 62
     7
370
     0
100
AcDbLine
 10
10.3737010837
 20
26.2316377906
 30
0.0
 11
9.3737010837
 21
26.2316377906
 31
0.0
  0
LINE
  5
137
330
129
100
AcDbEntity
  8
0
  6
Continuous
 62
     7
370
     0
100
AcDbLine
 10
16.2987010837
 20
26.2316377906
 30
0.0
 11
18.0199174313
 21
26.2316377906
 31
0.0
  0
MTEXT
  5
138
330
129
100
AcDbEntity
  8
0
  6
Continuous
 62
     7
370
    18
100
AcDbMText
 10
18.1213062743
 20
26.977734138
 30
0.0
 40
0.5
 41
0.0
 71
     1
 72
     1
  1
%%c
  7
SLDTEXTSTYLE0
 73
     1
 44
1.0
  0
MTEXT
  5
139
330
129
100
AcDbEntity
  8
0
  6
Continuous
 62
     7
370
    18
100
AcDbMText
 10
18.8753687566
 20
26.977734138
 30
0.0
 40
0.5
 41
0.0
 71
     1
 72
     1
  1
5 15/16"
  7
SLDTEXTSTYLE0
 73
     1
 44
1.0
  0
MTEXT
  5
13A
330
129
100
AcDbEntity
  8
0
  6
Continuous
 62
     7
370
    18
100
AcDbMText
 10
18.584101398
 20
26.0824216182
 30
0.0
 40
0.5
 41
0.0
 71
     1
 72
     1
  1
150mm
  7
SLDTEXTSTYLE0
 73
     1
 44
1.0
  0
ENDBLK
  5
12B
330
129
100
AcDbEntity
  8
0
100
AcDbBlockEnd
  0
BLOCK
  5
13D
330
13C
100
AcDbEntity
  8
0
100
AcDbBlockBegin
  2
_D_3
 70
     0
 10
0.0
 20
0.0
 30
0.0
  3
_D_3
  1

  0
SOLID
  5
13F
330
13C
100
AcDbEntity
  8
0
  6
Continuous
 62
     7
370
    18
100
AcDbTrace
 10
17.8735042333
 20
23.1050518027
 30
0.0
 11
17.7935042333
 21
22.5850518027
 31
0.0
 12
17.9535042333
 22
22.5850518027
 32
0.0
 13
17.9535042333
 23
22.5850518027
 33
0.0
  0
SOLID
  5
140
330
13C
100
AcDbEntity
  8
0
  6
Continuous
 62
     7
370
    18
100
AcDbTrace
 10
17.8735042333
 20
23.9800518027
 30
0.0
 11
17.9535042333
 21
24.5000518027
 31
0.0
 12
17.7935042333
 22
24.5000518027
 32
0.0
 13
17.7935042333
 23
24.5000518027
 33
0.0
  0
LINE
  5
141
330
13C
100
AcDbEntity
  8
0
  6
Continuous
 62
     7
370
     0
100
AcDbLine
 10
19.6670804819
 20
21.6404934792
 30
0.0
 11
19.5147367335
 21
21.6404934792
 31
0.0
  0
LINE
  5
142
330
13C
100
AcDbEntity
  8
0
  6
Continuous
 62
     7
370
     0
100
AcDbLine
 10
19.5147367335
 20
21.6404934792
 30
0.0
 11
19.5147367335
 21
20.8467434553
 31
0.0
  0
LINE
  5
143
330
13C
100
AcDbEntity
  8
0
  6
Continuous
 62
     7
370
     0
100
AcDbLine
 10
19.5147367335
 20
20.8467434553
 30
0.0
 11
19.6670804819
 21
20.8467434553
 31
0.0
  0
LINE
  5
144
330
13C
100
AcDbEntity
  8
0
  6
Continuous
 62
     7
370
     0
100
AcDbLine
 10
21.6559694128
 20
21.6404934792
 30
0.0
 11
21.8083131612
 21
21.6404934792
 31
0.0
  0
LINE
  5
145
330
13C
100
AcDbEntity
  8
0
  6
Continuous
 62
     7
370
     0
100
AcDbLine
 10
21.8083131612
 20
21.6404934792
 30
0.0
 11
21.8083131612
 21
20.8467434553
 31
0.0
  0
LINE
  5
146
330
13C
100
AcDbEntity
  8
0
  6
Continuous
 62
     7
370
     0
100
AcDbLine
 10
21.8083131612
 20
20.8467434553
 30
0.0
 11
21.6559694128
 21
20.8467434553
 31
0.0
  0
LINE
  5
147
330
13C
100
AcDbEntity
  8
0
  6
Continuous
 62
     7
370
     0
100
AcDbLine
 10
16.4987010837
 20
23.1050518027
 30
0.0
 11
18.3735042333
 21
23.1050518027
 31
0.0
  0
LINE
  5
148
330
13C
100
AcDbEntity
  8
0
  6
Continuous
 62
     7
370
     0
100
AcDbLine
 10
16.4681454104
 20
23.9800518027
 30
0.0
 11
18.3735042333
 21
23.9800518027
 31
0.0
  0
LINE
  5
149
330
13C
100
AcDbEntity
  8
0
  6
Continuous
 62
     7
370
     0
100
AcDbLine
 10
18.8735042333
 20
21.6443130017
 30
0.0
 11
17.8735042333
 21
21.6443130017
 31
0.0
  0
LINE
  5
14A
330
13C
100
AcDbEntity
  8
0
  6
Continuous
 62
     7
370
     0
100
AcDbLine
 10
17.8735042333
 20
21.6443130017
 30
0.0
 11
17.8735042333
 21
23.1050518027
 31
0.0
  0
LINE
  5
14B
330
13C
100
AcDbEntity
  8
0
  6
Continuous
 62
     7
370
     0
100
AcDbLine
 10
17.8735042333
 20
23.9800518027
 30
0.0
 11
17.8735042333
 21
24.9800518027
 31
0.0
  0
MTEXT
  5
14C
330
13C
100
AcDbEntity
  8
0
  6
Continuous
 62
     7
370
    18
100
AcDbMText
 10
19.3651707623
 20
22.3942287892
 30
0.0
 40
0.5
 41
0.0
 71
     1
 72
     1
  1

  7
SLDTEXTSTYLE0
 73
     1
 44
1.0
  0
MTEXT
  5
14D
330
13C
100
AcDbEntity
  8
0
  6
Continuous
 62
     7
370
    18
100
AcDbMText
 10
20.0431221012
 20
22.3865898633
 30
0.0
 40
0.5
 41
0.0
 71
     1
 72
     1
  1
7/8"
  7
SLDTEXTSTYLE0
 73
     1
 44
1.0
  0
MTEXT
  5
14E
330
13C
100
AcDbEntity
  8
0
  6
Continuous
 62
     7
370
    18
100
AcDbMText
 10
19.6670804819
 20
21.4912773802
 30
0.0
 40
0.5
 41
0.0
 71
     1
 72
     1
  1
22mm
  7
SLDTEXTSTYLE0
 73
     1
 44
1.0
  0
MTEXT
  5
14F
330
13C
100
AcDbEntity
  8
0
  6
Continuous
 62
     7
370
    18
100
AcDbMText
 10
22.1481567996
 20
22.3942287892
 30
0.0
 40
0.5
 41
0.0
 71
     1
 72
     1
  1

  7
SLDTEXTSTYLE0
 73
     1
 44
1.0
  0
ENDBLK
  5
13E
330
13C
100
AcDbEntity
  8
0
100
AcDbBlockEnd
  0
BLOCK
  5
153
330
152
100
AcDbEntity
  8
0
100
AcDbBlockBegin
  2
_D_4
 70
     0
 10
0.0
 20
0.0
 30
0.0
  3
_D_4
  1

  0
SOLID
  5
155
330
152
100
AcDbEntity
  8
0
  6
Continuous
 62
     7
370
    18
100
AcDbTrace
 10
6.9091341546
 20
28.4800518027
 30
0.0
 11
6.8291341546
 21
27.9600518027
 31
0.0
 12
6.9891341546
 22
27.9600518027
 32
0.0
 13
6.9891341546
 23
27.9600518027
 33
0.0
  0
SOLID
  5
156
330
152
100
AcDbEntity
  8
0
  6
Continuous
 62
     7
370
    18
100
AcDbTrace
 10
6.9091341546
 20
26.9800518027
 30
0.0
 11
6.9891341546
 21
27.5000518027
 31
0.0
 12
6.8291341546
 22
27.5000518027
 32
0.0
 13
6.8291341546
 23
27.5000518027
 33
0.0
  0
LINE
  5
157
330
152
100
AcDbEntity
  8
0
  6
Continuous
 62
     7
370
     0
100
AcDbLine
 10
3.1266691219
 20
30.3753641666
 30
0.0
 11
2.9743253734
 21
30.3753641666
 31
0.0
  0
LINE
  5
158
330
152
100
AcDbEntity
  8
0
  6
Continuous
 62
     7
370
     0
100
AcDbLine
 10
2.9743253734
 20
30.3753641666
 30
0.0
 11
2.9743253734
 21
29.5816141427
 31
0.0
  0
LINE
  5
159
330
152
100
AcDbEntity
  8
0
  6
Continuous
 62
     7
370
     0
100
AcDbLine
 10
2.9743253734
 20
29.5816141427
 30
0.0
 11
3.1266691219
 21
29.5816141427
 31
0.0
  0
LINE
  5
15A
330
152
100
AcDbEntity
  8
0
  6
Continuous
 62
     7
370
     0
100
AcDbLine
 10
5.1155580527
 20
30.3753641666
 30
0.0
 11
5.2679018012
 21
30.3753641666
 31
0.0
  0
LINE
  5
15B
330
152
100
AcDbEntity
  8
0
  6
Continuous
 62
     7
370
     0
100
AcDbLine
 10
5.2679018012
 20
30.3753641666
 30
0.0
 11
5.2679018012
 21
29.5816141427
 31
0.0
  0
LINE
  5
15C
330
152
100
AcDbEntity
  8
0
  6
Continuous
 62
     7
370
     0
100
AcDbLine
 10
5.2679018012
 20
29.5816141427
 30
0.0
 11
5.1155580527
 21
29.5816141427
 31
0.0
  0
LINE
  5
15D
330
152
100
AcDbEntity
  8
0
  6
Continuous
 62
     7
370
     0
100
AcDbLine
 10
11.6662010837
 20
28.4800518027
 30
0.0
 11
6.4091341546
 21
28.4800518027
 31
0.0
  0
LINE
  5
15E
330
152
100
AcDbEntity
  8
0
  6
Continuous
 62
     7
370
     0
100
AcDbLine
 10
11.6362010837
 20
26.9800518027
 30
0.0
 11
6.4091341546
 21
26.9800518027
 31
0.0
  0
LINE
  5
15F
330
152
100
AcDbEntity
  8
0
  6
Continuous
 62
     7
370
     0
100
AcDbLine
 10
5.9091341546
 20
30.3791836891
 30
0.0
 11
6.9091341546
 21
30.3791836891
 31
0.0
  0
LINE
  5
160
330
152
100
AcDbEntity
  8
0
  6
Continuous
 62
     7
370
     0
100
AcDbLine
 10
6.9091341546
 20
30.3791836891
 30
0.0
 11
6.9091341546
 21
28.4800518027
 31
0.0
  0
LINE
  5
161
330
152
100
AcDbEntity
  8
0
  6
Continuous
 62
     7
370
     0
100
AcDbLine
 10
6.9091341546
 20
28.4800518027
 30
0.0
 11
6.9091341546
 21
26.9800518027
 31
0.0
  0
MTEXT
  5
162
330
152
100
AcDbEntity
  8
0
  6
Continuous
 62
     7
370
    18
100
AcDbMText
 10
2.8247594022
 20
31.1290994766
 30
0.0
 40
0.5
 41
0.0
 71
     1
 72
     1
  1

  7
SLDTEXTSTYLE0
 73
     1
 44
1.0
  0
MTEXT
  5
163
330
152
100
AcDbEntity
  8
0
  6
Continuous
 62
     7
370
    18
100
AcDbMText
 10
3.225627462
 20
31.1214605507
 30
0.0
 40
0.5
 41
0.0
 71
     1
 72
     1
  1
1 1/2"
  7
SLDTEXTSTYLE0
 73
     1
 44
1.0
  0
MTEXT
  5
164
330
152
100
AcDbEntity
  8
0
  6
Continuous
 62
     7
370
    18
100
AcDbMText
 10
3.1266691219
 20
30.2261480676
 30
0.0
 40
0.5
 41
0.0
 71
     1
 72
     1
  1
38mm
  7
SLDTEXTSTYLE0
 73
     1
 44
1.0
  0
MTEXT
  5
165
330
152
100
AcDbEntity
  8
0
  6
Continuous
 62
     7
370
    18
100
AcDbMText
 10
5.6077454396
 20
31.1290994766
 30
0.0
 40
0.5
 41
0.0
 71
     1
 72
     1
  1

  7
SLDTEXTSTYLE0
 73
     1
 44
1.0
  0
ENDBLK
  5
154
330
152
100
AcDbEntity
  8
0
100
AcDbBlockEnd
  0
BLOCK
  5
168
330
167
100
AcDbEntity
  8
0
100
AcDbBlockBegin
  2
_D_5
 70
     0
 10
0.0
 20
0.0
 30
0.0
  3
_D_5
  1

  0
SOLID
  5
16A
330
167
100
AcDbEntity
  8
0
  6
Continuous
 62
     7
370
    18
100
AcDbTrace
 10
11.9012010837
 20
14.6293369028
 30
0.0
 11
11.3812010837
 21
14.7093369028
 31
0.0
 12
11.3812010837
 22
14.5493369028
 32
0.0
 13
11.3812010837
 23
14.5493369028
 33
0.0
  0
SOLID
  5
16B
330
167
100
AcDbEntity
  8
0
  6
Continuous
 62
     7
370
    18
100
AcDbTrace
 10
14.7712010837
 20
14.6293369028
 30
0.0
 11
15.2912010837
 21
14.5493369028
 31
0.0
 12
15.2912010837
 22
14.7093369028
 32
0.0
 13
15.2912010837
 23
14.7093369028
 33
0.0
  0
LINE
  5
16C
330
167
100
AcDbEntity
  8
0
  6
Continuous
 62
     7
370
     0
100
AcDbLine
 10
17.2575893297
 20
14.6293368294
 30
0.0
 11
17.1052455812
 21
14.6293368294
 31
0.0
  0
LINE
  5
16D
330
167
100
AcDbEntity
  8
0
  6
Continuous
 62
     7
370
     0
100
AcDbLine
 10
17.1052455812
 20
14.6293368294
 30
0.0
 11
17.1052455812
 21
13.8355868056
 31
0.0
  0
LINE
  5
16E
330
167
100
AcDbEntity
  8
0
  6
Continuous
 62
     7
370
     0
100
AcDbLine
 10
17.1052455812
 20
13.8355868056
 30
0.0
 11
17.2575893297
 21
13.8355868056
 31
0.0
  0
LINE
  5
16F
330
167
100
AcDbEntity
  8
0
  6
Continuous
 62
     7
370
     0
100
AcDbLine
 10
19.2464782605
 20
14.6293368294
 30
0.0
 11
19.398822009
 21
14.6293368294
 31
0.0
  0
LINE
  5
170
330
167
100
AcDbEntity
  8
0
  6
Continuous
 62
     7
370
     0
100
AcDbLine
 10
19.398822009
 20
14.6293368294
 30
0.0
 11
19.398822009
 21
13.8355868056
 31
0.0
  0
LINE
  5
171
330
167
100
AcDbEntity
  8
0
  6
Continuous
 62
     7
370
     0
100
AcDbLine
 10
19.398822009
 20
13.8355868056
 30
0.0
 11
19.2464782605
 21
13.8355868056
 31
0.0
  0
LINE
  5
172
330
167
100
AcDbEntity
  8
0
  6
Continuous
 62
     7
370
     0
100
AcDbLine
 10
11.9012010837
 20
14.6293369028
 30
0.0
 11
10.9012010837
 21
14.6293369028
 31
0.0
  0
LINE
  5
173
330
167
100
AcDbEntity
  8
0
  6
Continuous
 62
     7
370
     0
100
AcDbLine
 10
14.7712010837
 20
14.6293369028
 30
0.0
 11
16.8515129898
 21
14.6293369028
 31
0.0
  0
MTEXT
  5
174
330
167
100
AcDbEntity
  8
0
  6
Continuous
 62
     7
370
    18
100
AcDbMText
 10
16.979516392
 20
15.3754332502
 30
0.0
 40
0.5
 41
0.0
 71
     1
 72
     1
  1
%%c
  7
SLDTEXTSTYLE0
 73
     1
 44
1.0
  0
MTEXT
  5
175
330
167
100
AcDbEntity
  8
0
  6
Continuous
 62
     7
370
    18
100
AcDbMText
 10
17.7335788744
 20
15.3754332502
 30
0.0
 40
0.5
 41
0.0
 71
     1
 72
     1
  1
2 7/8"
  7
SLDTEXTSTYLE0
 73
     1
 44
1.0
  0
MTEXT
  5
176
330
167
100
AcDbEntity
  8
0
  6
Continuous
 62
     7
370
    18
100
AcDbMText
 10
17.2575893297
 20
14.4801207305
 30
0.0
 40
0.5
 41
0.0
 71
     1
 72
     1
  1
73mm
  7
SLDTEXTSTYLE0
 73
     1
 44
1.0
  0
ENDBLK
  5
169
330
167
100
AcDbEntity
  8
0
100
AcDbBlockEnd
  0
BLOCK
  5
2C7
330
2C6
100
AcDbEntity
  8
0
100
AcDbBlockBegin
  2
_D_6
 70
     0
 10
0.0
 20
0.0
 30
0.0
  3
_D_6
  1

  0
SOLID
  5
2C9
330
2C6
100
AcDbEntity
  8
0
  6
Continuous
 62
     7
370
    18
100
AcDbTrace
 10
25.8998062347
 20
11.5793003549
 30
0.0
 11
25.5705242024
 21
11.1689671449
 31
0.0
 12
25.709088267
 22
11.0889671449
 32
0.0
 13
25.709088267
 23
11.0889671449
 33
0.0
  0
LINE
  5
2CA
330
2C6
100
AcDbEntity
  8
0
  6
Continuous
 62
     7
370
     0
100
AcDbLine
 10
19.2299020235
 20
10.3257216031
 30
0.0
 11
19.0775582751
 21
10.3257216031
 31
0.0
  0
LINE
  5
2CB
330
2C6
100
AcDbEntity
  8
0
  6
Continuous
 62
     7
370
     0
100
AcDbLine
 10
19.0775582751
 20
10.3257216031
 30
0.0
 11
19.0775582751
 21
9.5319715792
 31
0.0
  0
LINE
  5
2CC
330
2C6
100
AcDbEntity
  8
0
  6
Continuous
 62
     7
370
     0
100
AcDbLine
 10
19.0775582751
 20
9.5319715792
 30
0.0
 11
19.2299020235
 21
9.5319715792
 31
0.0
  0
LINE
  5
2CD
330
2C6
100
AcDbEntity
  8
0
  6
Continuous
 62
     7
370
     0
100
AcDbLine
 10
21.2187909544
 20
10.3257216031
 30
0.0
 11
21.3711347028
 21
10.3257216031
 31
0.0
  0
LINE
  5
2CE
330
2C6
100
AcDbEntity
  8
0
  6
Continuous
 62
     7
370
     0
100
AcDbLine
 10
21.3711347028
 20
10.3257216031
 30
0.0
 11
21.3711347028
 21
9.5319715792
 31
0.0
  0
LINE
  5
2CF
330
2C6
100
AcDbEntity
  8
0
  6
Continuous
 62
     7
370
     0
100
AcDbLine
 10
21.3711347028
 20
9.5319715792
 30
0.0
 11
21.2187909544
 21
9.5319715792
 31
0.0
  0
LINE
  5
2D0
330
2C6
100
AcDbEntity
  8
0
  6
Continuous
 62
     7
370
     0
100
AcDbLine
 10
25.8998062347
 20
11.5793003549
 30
0.0
 11
24.5309435382
 21
9.2083606159
 31
0.0
  0
LINE
  5
2D1
330
2C6
100
AcDbEntity
  8
0
  6
Continuous
 62
     7
370
     0
100
AcDbLine
 10
24.5309435382
 20
9.2083606159
 30
0.0
 11
23.6559435382
 21
9.2083606159
 31
0.0
  0
MTEXT
  5
2D2
330
2C6
100
AcDbEntity
  8
0
  6
Continuous
 62
     7
370
    18
100
AcDbMText
 10
18.8594679928
 20
11.0718179872
 30
0.0
 40
0.5
 41
0.0
 71
     1
 72
     1
  1
%%c
  7
SLDTEXTSTYLE0
 73
     1
 44
1.0
  0
MTEXT
  5
2D3
330
2C6
100
AcDbEntity
  8
0
  6
Continuous
 62
     7
370
    18
100
AcDbMText
 10
19.6135304751
 20
11.0718179872
 30
0.0
 40
0.5
 41
0.0
 71
     1
 72
     1
  1
13/16"
  7
SLDTEXTSTYLE0
 73
     1
 44
1.0
  0
MTEXT
  5
2D4
330
2C6
100
AcDbEntity
  8
0
  6
Continuous
 62
     7
370
    18
100
AcDbMText
 10
19.2299020235
 20
10.1765055041
 30
0.0
 40
0.5
 41
0.0
 71
     1
 72
     1
  1
21mm
  7
SLDTEXTSTYLE0
 73
     1
 44
1.0
  0
MTEXT
  5
2D5
330
2C6
100
AcDbEntity
  8
0
  6
Continuous
 62
     7
370
    18
100
AcDbMText
 10
17.0427493664
 20
9.2811931035
 30
0.0
 40
0.5
 41
0.0
 71
     1
 72
     1
  1
FIXTURE MOUNTING
  7
SLDTEXTSTYLE0
 73
     1
 44
1.0
  0
MTEXT
  5
2D6
330
2C6
100
AcDbEntity
  8
0
  6
Continuous
 62
     7
370
    18
100
AcDbMText
 10
19.3743464515
 20
8.4874430796
 30
0.0
 40
0.5
 41
0.0
 71
     1
 72
     1
  1
HOLE
  7
SLDTEXTSTYLE0
 73
     1
 44
1.0
  0
ENDBLK
  5
2C8
330
2C6
100
AcDbEntity
  8
0
100
AcDbBlockEnd
  0
BLOCK
  5
2DA
330
2D9
100
AcDbEntity
  8
0
100
AcDbBlockBegin
  2
_D_7
 70
     0
 10
0.0
 20
0.0
 30
0.0
  3
_D_7
  1

  0
SOLID
  5
2DC
330
2D9
100
AcDbEntity
  8
0
  6
Continuous
 62
     7
370
    18
100
AcDbTrace
 10
27.4058443404
 20
11.187834872
 30
0.0
 11
27.8161775503
 21
10.8585528397
 31
0.0
 12
27.8961775503
 22
10.9971169043
 32
0.0
 13
27.8961775503
 23
10.9971169043
 33
0.0
  0
LINE
  5
2DD
330
2D9
100
AcDbEntity
  8
0
  6
Continuous
 62
     7
370
     0
100
AcDbLine
 10
29.896341967
 20
10.5032070011
 30
0.0
 11
29.7439982186
 21
10.5032070011
 31
0.0
  0
LINE
  5
2DE
330
2D9
100
AcDbEntity
  8
0
  6
Continuous
 62
     7
370
     0
100
AcDbLine
 10
29.7439982186
 20
10.5032070011
 30
0.0
 11
29.7439982186
 21
9.7094569772
 31
0.0
  0
LINE
  5
2DF
330
2D9
100
AcDbEntity
  8
0
  6
Continuous
 62
     7
370
     0
100
AcDbLine
 10
29.7439982186
 20
9.7094569772
 30
0.0
 11
29.896341967
 21
9.7094569772
 31
0.0
  0
LINE
  5
2E0
330
2D9
100
AcDbEntity
  8
0
  6
Continuous
 62
     7
370
     0
100
AcDbLine
 10
31.8852308979
 20
10.5032070011
 30
0.0
 11
32.0375746463
 21
10.5032070011
 31
0.0
  0
LINE
  5
2E1
330
2D9
100
AcDbEntity
  8
0
  6
Continuous
 62
     7
370
     0
100
AcDbLine
 10
32.0375746463
 20
10.5032070011
 30
0.0
 11
32.0375746463
 21
9.7094569772
 31
0.0
  0
LINE
  5
2E2
330
2D9
100
AcDbEntity
  8
0
  6
Continuous
 62
     7
370
     0
100
AcDbLine
 10
32.0375746463
 20
9.7094569772
 30
0.0
 11
31.8852308979
 21
9.7094569772
 31
0.0
  0
LINE
  5
2E3
330
2D9
100
AcDbEntity
  8
0
  6
Continuous
 62
     7
370
     0
100
AcDbLine
 10
27.4058443404
 20
11.187834872
 30
0.0
 11
28.5916544701
 21
10.5032070744
 31
0.0
  0
LINE
  5
2E4
330
2D9
100
AcDbEntity
  8
0
  6
Continuous
 62
     7
370
     0
100
AcDbLine
 10
28.5916544701
 20
10.5032070744
 30
0.0
 11
29.5916544701
 21
10.5032070744
 31
0.0
  0
MTEXT
  5
2E5
330
2D9
100
AcDbEntity
  8
0
  6
Continuous
 62
     7
370
    18
100
AcDbMText
 10
30.2259079498
 20
11.2493034219
 30
0.0
 40
0.5
 41
0.0
 71
     1
 72
     1
  1
%%c
  7
SLDTEXTSTYLE0
 73
     1
 44
1.0
  0
MTEXT
  5
2E6
330
2D9
100
AcDbEntity
  8
0
  6
Continuous
 62
     7
370
    18
100
AcDbMText
 10
30.9799704322
 20
11.2493034219
 30
0.0
 40
0.5
 41
0.0
 71
     1
 72
     1
  1
3"
  7
SLDTEXTSTYLE0
 73
     1
 44
1.0
  0
MTEXT
  5
2E7
330
2D9
100
AcDbEntity
  8
0
  6
Continuous
 62
     7
370
    18
100
AcDbMText
 10
29.896341967
 20
10.3539909021
 30
0.0
 40
0.5
 41
0.0
 71
     1
 72
     1
  1
76mm
  7
SLDTEXTSTYLE0
 73
     1
 44
1.0
  0
ENDBLK
  5
2DB
330
2D9
100
AcDbEntity
  8
0
100
AcDbBlockEnd
  0
BLOCK
  5
2E9
330
2E8
100
AcDbEntity
  8
0
100
AcDbBlockBegin
  2
SW_CENTERMARKSYMBOL_0
 70
     0
 10
0.0
 20
0.0
 30
0.0
  3
SW_CENTERMARKSYMBOL_0
  1

  0
LINE
  5
2EB
330
2E8
100
AcDbEntity
  8
0
  6
Continuous
 62
     0
370
    18
100
AcDbLine
 10
0.0
 20
0.0
 30
0.0
 11
0.0
 21
0.1
 31
0.0
  0
LINE
  5
2EC
330
2E8
100
AcDbEntity
  8
0
  6
Continuous
 62
     0
370
    18
100
AcDbLine
 10
0.0
 20
0.0
 30
0.0
 11
-0.1
 21
0.0
 31
0.0
  0
LINE
  5
2ED
330
2E8
100
AcDbEntity
  8
0
  6
Continuous
 62
     0
370
    18
100
AcDbLine
 10
0.0
 20
0.0
 30
0.0
 11
0.0
 21
-0.1
 31
0.0
  0
LINE
  5
2EE
330
2E8
100
AcDbEntity
  8
0
  6
Continuous
 62
     0
370
    18
100
AcDbLine
 10
0.0
 20
0.0
 30
0.0
 11
0.1
 21
0.0
 31
0.0
  0
LINE
  5
2EF
330
2E8
100
AcDbEntity
  8
0
  6
Continuous
 62
     0
370
    18
100
AcDbLine
 10
0.0
 20
0.2
 30
0.0
 11
0.0
 21
1.6
 31
0.0
  0
LINE
  5
2F0
330
2E8
100
AcDbEntity
  8
0
  6
Continuous
 62
     0
370
    18
100
AcDbLine
 10
-0.2
 20
0.0
 30
0.0
 11
-1.6
 21
0.0
 31
0.0
  0
LINE
  5
2F1
330
2E8
100
AcDbEntity
  8
0
  6
Continuous
 62
     0
370
    18
100
AcDbLine
 10
0.0
 20
-0.2
 30
0.0
 11
0.0
 21
-1.6
 31
0.0
  0
LINE
  5
2F2
330
2E8
100
AcDbEntity
  8
0
  6
Continuous
 62
     0
370
    18
100
AcDbLine
 10
0.2
 20
0.0
 30
0.0
 11
1.6
 21
0.0
 31
0.0
  0
ENDBLK
  5
2EA
330
2E8
100
AcDbEntity
  8
0
100
AcDbBlockEnd
  0
BLOCK
  5
305
330
304
100
AcDbEntity
  8
0
100
AcDbBlockBegin
  2
_D_8
 70
     0
 10
0.0
 20
0.0
 30
0.0
  3
_D_8
  1

  0
SOLID
  5
307
330
304
100
AcDbEntity
  8
0
  6
Continuous
 62
     7
370
    18
100
AcDbTrace
 10
28.2304149712
 20
6.6935407652
 30
0.0
 11
28.1504149712
 21
6.1735407652
 31
0.0
 12
28.3104149712
 22
6.1735407652
 32
0.0
 13
28.3104149712
 23
6.1735407652
 33
0.0
  0
SOLID
  5
308
330
304
100
AcDbEntity
  8
0
  6
Continuous
 62
     7
370
    18
100
AcDbTrace
 10
28.2304149712
 20
5.1935407652
 30
0.0
 11
28.3104149712
 21
5.7135407652
 31
0.0
 12
28.1504149712
 22
5.7135407652
 32
0.0
 13
28.1504149712
 23
5.7135407652
 33
0.0
  0
LINE
  5
309
330
304
100
AcDbEntity
  8
0
  6
Continuous
 62
     7
370
     0
100
AcDbLine
 10
30.0239912197
 20
7.482445335
 30
0.0
 11
29.8716474713
 21
7.482445335
 31
0.0
  0
LINE
  5
30A
330
304
100
AcDbEntity
  8
0
  6
Continuous
 62
     7
370
     0
100
AcDbLine
 10
29.8716474713
 20
7.482445335
 30
0.0
 11
29.8716474713
 21
6.6886953111
 31
0.0
  0
LINE
  5
30B
330
304
100
AcDbEntity
  8
0
  6
Continuous
 62
     7
370
     0
100
AcDbLine
 10
29.8716474713
 20
6.6886953111
 30
0.0
 11
30.0239912197
 21
6.6886953111
 31
0.0
  0
LINE
  5
30C
330
304
100
AcDbEntity
  8
0
  6
Continuous
 62
     7
370
     0
100
AcDbLine
 10
32.0128801506
 20
7.482445335
 30
0.0
 11
32.165223899
 21
7.482445335
 31
0.0
  0
LINE
  5
30D
330
304
100
AcDbEntity
  8
0
  6
Continuous
 62
     7
370
     0
100
AcDbLine
 10
32.165223899
 20
7.482445335
 30
0.0
 11
32.165223899
 21
6.6886953111
 31
0.0
  0
LINE
  5
30E
330
304
100
AcDbEntity
  8
0
  6
Continuous
 62
     7
370
     0
100
AcDbLine
 10
32.165223899
 20
6.6886953111
 30
0.0
 11
32.0128801506
 21
6.6886953111
 31
0.0
  0
LINE
  5
30F
330
304
100
AcDbEntity
  8
0
  6
Continuous
 62
     7
370
     0
100
AcDbLine
 10
27.7768062347
 20
6.6935407652
 30
0.0
 11
28.7304149712
 21
6.6935407652
 31
0.0
  0
LINE
  5
310
330
304
100
AcDbEntity
  8
0
  6
Continuous
 62
     7
370
     0
100
AcDbLine
 10
27.8068062347
 20
5.1935407652
 30
0.0
 11
28.7304149712
 21
5.1935407652
 31
0.0
  0
LINE
  5
311
330
304
100
AcDbEntity
  8
0
  6
Continuous
 62
     7
370
     0
100
AcDbLine
 10
29.2304149712
 20
7.4862648575
 30
0.0
 11
28.2304149712
 21
7.4862648575
 31
0.0
  0
LINE
  5
312
330
304
100
AcDbEntity
  8
0
  6
Continuous
 62
     7
370
     0
100
AcDbLine
 10
28.2304149712
 20
7.4862648575
 30
0.0
 11
28.2304149712
 21
6.6935407652
 31
0.0
  0
LINE
  5
313
330
304
100
AcDbEntity
  8
0
  6
Continuous
 62
     7
370
     0
100
AcDbLine
 10
28.2304149712
 20
6.6935407652
 30
0.0
 11
28.2304149712
 21
5.1935407652
 31
0.0
  0
MTEXT
  5
314
330
304
100
AcDbEntity
  8
0
  6
Continuous
 62
     7
370
    18
100
AcDbMText
 10
29.7220815001
 20
8.2361806451
 30
0.0
 40
0.5
 41
0.0
 71
     1
 72
     1
  1

  7
SLDTEXTSTYLE0
 73
     1
 44
1.0
  0
MTEXT
  5
315
330
304
100
AcDbEntity
  8
0
  6
Continuous
 62
     7
370
    18
100
AcDbMText
 10
30.1229495599
 20
8.2285417191
 30
0.0
 40
0.5
 41
0.0
 71
     1
 72
     1
  1
1 1/2"
  7
SLDTEXTSTYLE0
 73
     1
 44
1.0
  0
MTEXT
  5
316
330
304
100
AcDbEntity
  8
0
  6
Continuous
 62
     7
370
    18
100
AcDbMText
 10
30.0239912197
 20
7.333229236
 30
0.0
 40
0.5
 41
0.0
 71
     1
 72
     1
  1
38mm
  7
SLDTEXTSTYLE0
 73
     1
 44
1.0
  0
MTEXT
  5
317
330
304
100
AcDbEntity
  8
0
  6
Continuous
 62
     7
370
    18
100
AcDbMText
 10
32.5050675375
 20
8.2361806451
 30
0.0
 40
0.5
 41
0.0
 71
     1
 72
     1
  1

  7
SLDTEXTSTYLE0
 73
     1
 44
1.0
  0
ENDBLK
  5
306
330
304
100
AcDbEntity
  8
0
100
AcDbBlockEnd
  0
BLOCK
  5
351
330
350
100
AcDbEntity
  8
0
100
AcDbBlockBegin
  2
_D_9
 70
     0
 10
0.0
 20
0.0
 30
0.0
  3
_D_9
  1

  0
SOLID
  5
353
330
350
100
AcDbEntity
  8
0
  6
Continuous
 62
     7
370
    18
100
AcDbTrace
 10
12.1730104287
 20
6.1551173951
 30
0.0
 11
11.861883445
 21
6.5793814638
 31
0.0
 12
11.74874636
 22
6.4662443788
 32
0.0
 13
11.74874636
 23
6.4662443788
 33
0.0
  0
LINE
  5
354
330
350
100
AcDbEntity
  8
0
  6
Continuous
 62
     7
370
     0
100
AcDbLine
 10
7.6533013827
 20
7.2231423865
 30
0.0
 11
7.5009576342
 21
7.2231423865
 31
0.0
  0
LINE
  5
355
330
350
100
AcDbEntity
  8
0
  6
Continuous
 62
     7
370
     0
100
AcDbLine
 10
7.5009576342
 20
7.2231423865
 30
0.0
 11
7.5009576342
 21
6.4293923626
 31
0.0
  0
LINE
  5
356
330
350
100
AcDbEntity
  8
0
  6
Continuous
 62
     7
370
     0
100
AcDbLine
 10
7.5009576342
 20
6.4293923626
 30
0.0
 11
7.6533013827
 21
6.4293923626
 31
0.0
  0
LINE
  5
357
330
350
100
AcDbEntity
  8
0
  6
Continuous
 62
     7
370
     0
100
AcDbLine
 10
9.6421903135
 20
7.2231423865
 30
0.0
 11
9.794534062
 21
7.2231423865
 31
0.0
  0
LINE
  5
358
330
350
100
AcDbEntity
  8
0
  6
Continuous
 62
     7
370
     0
100
AcDbLine
 10
9.794534062
 20
7.2231423865
 30
0.0
 11
9.794534062
 21
6.4293923626
 31
0.0
  0
LINE
  5
359
330
350
100
AcDbEntity
  8
0
  6
Continuous
 62
     7
370
     0
100
AcDbLine
 10
9.794534062
 20
6.4293923626
 30
0.0
 11
9.6421903135
 21
6.4293923626
 31
0.0
  0
LINE
  5
35A
330
350
100
AcDbEntity
  8
0
  6
Continuous
 62
     7
370
     0
100
AcDbLine
 10
12.1730104287
 20
6.1551173951
 30
0.0
 11
11.1049853639
 21
7.2231424598
 31
0.0
  0
LINE
  5
35B
330
350
100
AcDbEntity
  8
0
  6
Continuous
 62
     7
370
     0
100
AcDbLine
 10
11.1049853639
 20
7.2231424598
 30
0.0
 11
10.1049853639
 21
7.2231424598
 31
0.0
  0
MTEXT
  5
35C
330
350
100
AcDbEntity
  8
0
  6
Continuous
 62
     7
370
    18
100
AcDbMText
 10
7.1905062589
 20
7.9692388073
 30
0.0
 40
0.5
 41
0.0
 71
     1
 72
     1
  1
%%c
  7
SLDTEXTSTYLE0
 73
     1
 44
1.0
  0
MTEXT
  5
35D
330
350
100
AcDbEntity
  8
0
  6
Continuous
 62
     7
370
    18
100
AcDbMText
 10
7.9445687413
 20
7.9692388073
 30
0.0
 40
0.5
 41
0.0
 71
     1
 72
     1
  1
3 5/16"
  7
SLDTEXTSTYLE0
 73
     1
 44
1.0
  0
MTEXT
  5
35E
330
350
100
AcDbEntity
  8
0
  6
Continuous
 62
     7
370
    18
100
AcDbMText
 10
7.6533013827
 20
7.0739262875
 30
0.0
 40
0.5
 41
0.0
 71
     1
 72
     1
  1
84mm
  7
SLDTEXTSTYLE0
 73
     1
 44
1.0
  0
ENDBLK
  5
352
330
350
100
AcDbEntity
  8
0
100
AcDbBlockEnd
  0
ENDSEC
  0
SECTION
  2
ENTITIES
  0
MTEXT
  5
8E
330
1F
100
AcDbEntity
  8
SLD-0
100
AcDbMText
 10
35.0169421488
 20
3.373003985
 30
0.0
 40
0.5
 41
0.0
 71
     1
 72
     1
  1
PI2-J12/18-CB
  7
SLDTEXTSTYLE0
 73
     1
 44
1.0
  0
LINE
  5
8F
330
1F
100
AcDbEntity
  8
0
  6
Continuous
 62
     7
370
    25
100
AcDbLine
 10
16.2987010837
 20
23.1050518027
 30
0.0
 11
16.2681454104
 21
23.9800518027
 31
0.0
  0
LINE
  5
90
330
1F
100
AcDbEntity
  8
0
  6
Continuous
 62
     7
370
    25
100
AcDbLine
 10
10.404256757
 20
23.9800518027
 30
0.0
 11
10.3737010837
 21
23.1050518027
 31
0.0
  0
LINE
  5
91
330
1F
100
AcDbEntity
  8
0
  6
Continuous
 62
     7
370
    25
100
AcDbLine
 10
11.9012010837
 20
26.9800518027
 30
0.0
 11
11.9012010837
 21
23.9800518027
 31
0.0
  0
LINE
  5
92
330
1F
100
AcDbEntity
  8
0
  6
Continuous
 62
     7
370
    25
100
AcDbLine
 10
11.9012010837
 20
23.1050518027
 30
0.0
 11
11.9012010837
 21
12.2000518027
 31
0.0
  0
LINE
  5
93
330
1F
100
AcDbEntity
  8
0
  6
Continuous
 62
     7
370
    25
100
AcDbLine
 10
14.7712010837
 20
12.2000518027
 30
0.0
 11
14.7712010837
 21
23.1050518027
 31
0.0
  0
LINE
  5
94
330
1F
100
AcDbEntity
  8
0
  6
Continuous
 62
     7
370
    25
100
AcDbLine
 10
14.7712010837
 20
23.9800518027
 30
0.0
 11
14.7712010837
 21
25.4800518027
 31
0.0
  0
LINE
  5
95
330
1F
100
AcDbEntity
  8
0
  6
Continuous
 62
     7
370
    25
100
AcDbLine
 10
13.531652804
 20
10.2500518027
 30
0.0
 11
13.531652804
 21
9.4100518027
 31
0.0
  0
LINE
  5
96
330
1F
100
AcDbEntity
  8
0
  6
Continuous
 62
     7
370
    25
100
AcDbLine
 10
14.621652804
 20
9.4100518027
 30
0.0
 11
14.621652804
 21
10.2500518027
 31
0.0
  0
LINE
  5
97
330
1F
100
AcDbEntity
  8
0
  6
Continuous
 62
     7
370
    25
100
AcDbLine
 10
12.0507493635
 20
10.2500518027
 30
0.0
 11
12.0507493635
 21
9.4100518027
 31
0.0
  0
LINE
  5
98
330
1F
100
AcDbEntity
  8
0
  6
Continuous
 62
     7
370
    25
100
AcDbLine
 10
13.1407493635
 20
9.4100518027
 30
0.0
 11
13.1407493635
 21
10.2500518027
 31
0.0
  0
LINE
  5
99
330
1F
100
AcDbEntity
  8
0
  6
Continuous
 62
     7
370
    25
100
AcDbLine
 10
14.9812010837
 20
10.5000518027
 30
0.0
 11
14.9812010837
 21
12.2000518027
 31
0.0
  0
LINE
  5
9A
330
1F
100
AcDbEntity
  8
0
  6
Continuous
 62
     7
370
    25
100
AcDbLine
 10
11.6912010837
 20
12.2000518027
 30
0.0
 11
11.6912010837
 21
10.5000518027
 31
0.0
  0
ARC
  5
9B
330
1F
100
AcDbEntity
  8
0
  6
Continuous
 62
     7
370
    25
100
AcDbCircle
 10
11.9412010837
 20
10.5000518027
 30
0.0
 40
0.25
100
AcDbArc
 50
180.0
 51
270.0
  0
ARC
  5
9C
330
1F
100
AcDbEntity
  8
0
  6
Continuous
 62
     7
370
    25
100
AcDbCircle
 10
14.7312010837
 20
10.5000518027
 30
0.0
 40
0.25
100
AcDbArc
 50
270.0
 51
0.0
  0
LINE
  5
9D
330
1F
100
AcDbEntity
  8
0
  6
Continuous
 62
     7
370
    25
100
AcDbLine
 10
14.8362010837
 20
28.4500518027
 30
0.0
 11
14.8062010837
 21
28.4800518027
 31
0.0
  0
LINE
  5
9E
330
1F
100
AcDbEntity
  8
0
  6
Continuous
 62
     7
370
    25
100
AcDbLine
 10
11.8662010837
 20
28.4800518027
 30
0.0
 11
11.8362010837
 21
28.4500518027
 31
0.0
  0
LINE
  5
9F
330
1F
100
AcDbEntity
  8
0
  6
Continuous
 62
     7
370
    25
100
AcDbLine
 10
14.8362010837
 20
27.4221816982
 30
0.0
 11
14.8362010837
 21
28.4500518027
 31
0.0
  0
LINE
  5
A0
330
1F
100
AcDbEntity
  8
0
  6
Continuous
 62
     7
370
    25
100
AcDbLine
 10
14.8362010837
 20
26.9800518027
 30
0.0
 11
14.8362010837
 21
27.2871548067
 31
0.0
  0
LINE
  5
A1
330
1F
100
AcDbEntity
  8
0
  6
Continuous
 62
     7
370
    25
100
AcDbLine
 10
11.8362010837
 20
28.4500518027
 30
0.0
 11
11.8362010837
 21
26.9800518027
 31
0.0
  0
LINE
  5
A2
330
1F
100
AcDbEntity
  8
0
  6
Continuous
 62
     7
370
    25
100
AcDbLine
 10
16.2681454104
 20
23.9800518027
 30
0.0
 11
10.404256757
 21
23.9800518027
 31
0.0
  0
LINE
  5
A3
330
1F
100
AcDbEntity
  8
0
  6
Continuous
 62
     7
370
    25
100
AcDbLine
 10
16.2987010837
 20
23.1050518027
 30
0.0
 11
10.3737010837
 21
23.1050518027
 31
0.0
  0
LINE
  5
A4
330
1F
100
AcDbEntity
  8
0
  6
Continuous
 62
     7
370
    25
100
AcDbLine
 10
14.8362010837
 20
27.4184518027
 30
0.0
 11
14.8362010837
 21
27.2916518027
 31
0.0
  0
LWPOLYLINE
  5
A5
330
1F
100
AcDbEntity
  8
0
  6
Continuous
 62
     7
370
    25
100
AcDbPolyline
 90
       35
 70
   128
 43
0.0
 10
12.5793951209
 20
27.417962839
 10
12.5694998621
 20
27.4154475994
 10
12.5601733433
 20
27.4108756533
 10
12.5517331679
 20
27.404402693
 10
12.5444667561
 20
27.3962491472
 10
12.5386215568
 20
27.3866926754
 10
12.5343966212
 20
27.3760587115
 10
12.5319358245
 20
27.3647093826
 10
12.531322966
 20
27.3530311763
 10
12.5325789161
 20
27.3414217801
 10
12.5356609047
 20
27.3302765379
 10
12.5404639786
 20
27.3199749877
 10
12.5468245747
 20
27.3108679363
 10
12.5545260905
 20
27.3032655135
 10
12.5633062603
 20
27.2974266107
 10
12.5728660859
 20
27.2935500647
 10
12.5828800187
 20
27.2917678866
 10
12.5930070465
 20
27.2921407663
 10
12.6029023054
 20
27.294656006
 10
12.6122288242
 20
27.299227952
 10
12.6206689995
 20
27.3057009124
 10
12.6279354113
 20
27.3138544581
 10
12.6337806106
 20
27.32341093
 10
12.6380055462
 20
27.3340448938
 10
12.640466343
 20
27.3453942227
 10
12.6410792014
 20
27.357072429
 10
12.6398232514
 20
27.3686818252
 10
12.6367412627
 20
27.3798270674
 10
12.6319381889
 20
27.3901286176
 10
12.6255775928
 20
27.399235669
 10
12.6178760769
 20
27.4068380918
 10
12.6090959072
 20
27.4126769946
 10
12.5995360816
 20
27.4165535406
 10
12.5895221487
 20
27.4183357188
 10
12.5793951209
 20
27.417962839
  0
LINE
  5
A6
330
1F
100
AcDbEntity
  8
0
  6
Continuous
 62
     7
370
    25
100
AcDbLine
 10
12.5551037317
 20
27.3278744911
 30
0.0
 11
12.5910353914
 21
27.3103657949
 31
0.0
  0
LINE
  5
A7
330
1F
100
AcDbEntity
  8
0
  6
Continuous
 62
     7
370
    25
100
AcDbLine
 10
12.6221327434
 20
27.3375431064
 30
0.0
 11
12.5910353914
 21
27.3103657949
 31
0.0
  0
LINE
  5
A8
330
1F
100
AcDbEntity
  8
0
  6
Continuous
 62
     7
370
    25
100
AcDbLine
 10
12.6172984357
 20
27.3822291142
 30
0.0
 11
12.6221327434
 21
27.3375431064
 31
0.0
  0
LINE
  5
A9
330
1F
100
AcDbEntity
  8
0
  6
Continuous
 62
     7
370
    25
100
AcDbLine
 10
12.6172984357
 20
27.3822291142
 30
0.0
 11
12.5813667761
 21
27.3997378104
 31
0.0
  0
LINE
  5
AA
330
1F
100
AcDbEntity
  8
0
  6
Continuous
 62
     7
370
    25
100
AcDbLine
 10
12.5502694241
 20
27.3725604989
 30
0.0
 11
12.5813667761
 21
27.3997378104
 31
0.0
  0
LINE
  5
AB
330
1F
100
AcDbEntity
  8
0
  6
Continuous
 62
     7
370
    25
100
AcDbLine
 10
12.5502694241
 20
27.3725604989
 30
0.0
 11
12.5551037317
 21
27.3278744911
 31
0.0
  0
LINE
  5
AC
330
1F
100
AcDbEntity
  8
0
  6
Continuous
 62
     7
370
    25
100
AcDbLine
 10
12.6001037317
 20
27.3278744911
 30
0.0
 11
12.5551037317
 21
27.3278744911
 31
0.0
  0
LINE
  5
AD
330
1F
100
AcDbEntity
  8
0
  6
Continuous
 62
     7
370
    25
100
AcDbLine
 10
12.6001037317
 20
27.3278744911
 30
0.0
 11
12.6071440923
 21
27.3244438804
 31
0.0
  0
LINE
  5
AE
330
1F
100
AcDbEntity
  8
0
  6
Continuous
 62
     7
370
    25
100
AcDbLine
 10
12.5952694241
 20
27.3725604989
 30
0.0
 11
12.6102580752
 21
27.3856597249
 31
0.0
  0
LINE
  5
AF
330
1F
100
AcDbEntity
  8
0
  6
Continuous
 62
     7
370
    25
100
AcDbLine
 10
12.5952694241
 20
27.3725604989
 30
0.0
 11
12.5502694241
 21
27.3725604989
 31
0.0
  0
LINE
  5
B0
330
1F
100
AcDbEntity
  8
0
  6
Continuous
 62
     7
370
    25
100
AcDbLine
 10
12.5952694241
 20
27.3725604989
 30
0.0
 11
12.6001037317
 21
27.3278744911
 31
0.0
  0
LINE
  5
B1
330
1F
100
AcDbEntity
  8
0
  6
Continuous
 62
     7
370
    25
100
AcDbLine
 10
14.3653279386
 20
9.4100518027
 30
0.0
 11
14.3653279386
 21
9.2850518027
 31
0.0
  0
LINE
  5
B2
330
1F
100
AcDbEntity
  8
0
  6
Continuous
 62
     7
370
    25
100
AcDbLine
 10
14.6540030732
 20
9.4100518027
 30
0.0
 11
14.6180917481
 21
9.4100518027
 31
0.0
  0
LINE
  5
B3
330
1F
100
AcDbEntity
  8
0
  6
Continuous
 62
     7
370
    25
100
AcDbLine
 10
14.4012392637
 20
9.4100518027
 30
0.0
 11
14.3653279386
 21
9.4100518027
 31
0.0
  0
LINE
  5
B4
330
1F
100
AcDbEntity
  8
0
  6
Continuous
 62
     7
370
    25
100
AcDbLine
 10
14.6540030732
 20
9.4100518027
 30
0.0
 11
14.6540030732
 21
9.2850518027
 31
0.0
  0
LINE
  5
B5
330
1F
100
AcDbEntity
  8
0
  6
Continuous
 62
     7
370
    25
100
AcDbLine
 10
14.6540030732
 20
9.2850518027
 30
0.0
 11
14.3653279386
 21
9.2850518027
 31
0.0
  0
LINE
  5
B6
330
1F
100
AcDbEntity
  8
0
  6
Continuous
 62
     7
370
    25
100
AcDbLine
 10
13.7879776694
 20
9.4100518027
 30
0.0
 11
13.7879776694
 21
9.2850518027
 31
0.0
  0
LINE
  5
B7
330
1F
100
AcDbEntity
  8
0
  6
Continuous
 62
     7
370
    25
100
AcDbLine
 10
14.3653279386
 20
9.4100518027
 30
0.0
 11
14.2935052884
 21
9.4100518027
 31
0.0
  0
LINE
  5
B8
330
1F
100
AcDbEntity
  8
0
  6
Continuous
 62
     7
370
    25
100
AcDbLine
 10
13.8598003196
 20
9.4100518027
 30
0.0
 11
13.7879776694
 21
9.4100518027
 31
0.0
  0
LINE
  5
B9
330
1F
100
AcDbEntity
  8
0
  6
Continuous
 62
     7
370
    25
100
AcDbLine
 10
14.3653279386
 20
9.2850518027
 30
0.0
 11
13.7879776694
 21
9.2850518027
 31
0.0
  0
LINE
  5
BA
330
1F
100
AcDbEntity
  8
0
  6
Continuous
 62
     7
370
    25
100
AcDbLine
 10
13.4993025348
 20
9.4100518027
 30
0.0
 11
13.4993025348
 21
9.2850518027
 31
0.0
  0
LINE
  5
BB
330
1F
100
AcDbEntity
  8
0
  6
Continuous
 62
     7
370
    25
100
AcDbLine
 10
13.7879776694
 20
9.4100518027
 30
0.0
 11
13.7520663443
 21
9.4100518027
 31
0.0
  0
LINE
  5
BC
330
1F
100
AcDbEntity
  8
0
  6
Continuous
 62
     7
370
    25
100
AcDbLine
 10
13.5352138599
 20
9.4100518027
 30
0.0
 11
13.4993025348
 21
9.4100518027
 31
0.0
  0
LINE
  5
BD
330
1F
100
AcDbEntity
  8
0
  6
Continuous
 62
     7
370
    25
100
AcDbLine
 10
13.7879776694
 20
9.2850518027
 30
0.0
 11
13.4993025348
 21
9.2850518027
 31
0.0
  0
LINE
  5
BE
330
1F
100
AcDbEntity
  8
0
  6
Continuous
 62
     7
370
    25
100
AcDbLine
 10
12.018783294
 20
9.4100518027
 30
0.0
 11
12.018783294
 21
9.2850518027
 31
0.0
  0
LINE
  5
BF
330
1F
100
AcDbEntity
  8
0
  6
Continuous
 62
     7
370
    25
100
AcDbLine
 10
12.3255040919
 20
9.4100518027
 30
0.0
 11
12.3255040919
 21
9.2850518027
 31
0.0
  0
LINE
  5
C0
330
1F
100
AcDbEntity
  8
0
  6
Continuous
 62
     7
370
    25
100
AcDbLine
 10
12.3255040919
 20
9.4100518027
 30
0.0
 11
12.2873478777
 21
9.4100518027
 31
0.0
  0
LINE
  5
C1
330
1F
100
AcDbEntity
  8
0
  6
Continuous
 62
     7
370
    25
100
AcDbLine
 10
12.0569395083
 20
9.4100518027
 30
0.0
 11
12.018783294
 21
9.4100518027
 31
0.0
  0
LINE
  5
C2
330
1F
100
AcDbEntity
  8
0
  6
Continuous
 62
     7
370
    25
100
AcDbLine
 10
12.3255040919
 20
9.2850518027
 30
0.0
 11
12.018783294
 21
9.2850518027
 31
0.0
  0
LINE
  5
C3
330
1F
100
AcDbEntity
  8
0
  6
Continuous
 62
     7
370
    25
100
AcDbLine
 10
12.9024701614
 20
9.4100518027
 30
0.0
 11
12.9024701614
 21
9.2850518027
 31
0.0
  0
LINE
  5
C4
330
1F
100
AcDbEntity
  8
0
  6
Continuous
 62
     7
370
    25
100
AcDbLine
 10
12.9024701614
 20
9.4100518027
 30
0.0
 11
12.8306953058
 21
9.4100518027
 31
0.0
  0
LINE
  5
C5
330
1F
100
AcDbEntity
  8
0
  6
Continuous
 62
     7
370
    25
100
AcDbLine
 10
12.3972789475
 20
9.4100518027
 30
0.0
 11
12.3255040919
 21
9.4100518027
 31
0.0
  0
LINE
  5
C6
330
1F
100
AcDbEntity
  8
0
  6
Continuous
 62
     7
370
    25
100
AcDbLine
 10
12.9024701614
 20
9.2850518027
 30
0.0
 11
12.3255040919
 21
9.2850518027
 31
0.0
  0
LINE
  5
C7
330
1F
100
AcDbEntity
  8
0
  6
Continuous
 62
     7
370
    25
100
AcDbLine
 10
13.172715433
 20
9.4100518027
 30
0.0
 11
13.172715433
 21
9.2850518027
 31
0.0
  0
LINE
  5
C8
330
1F
100
AcDbEntity
  8
0
  6
Continuous
 62
     7
370
    25
100
AcDbLine
 10
13.172715433
 20
9.4100518027
 30
0.0
 11
13.1390967917
 21
9.4100518027
 31
0.0
  0
LINE
  5
C9
330
1F
100
AcDbEntity
  8
0
  6
Continuous
 62
     7
370
    25
100
AcDbLine
 10
12.9360888027
 20
9.4100518027
 30
0.0
 11
12.9024701614
 21
9.4100518027
 31
0.0
  0
LINE
  5
CA
330
1F
100
AcDbEntity
  8
0
  6
Continuous
 62
     7
370
    25
100
AcDbLine
 10
13.172715433
 20
9.2850518027
 30
0.0
 11
12.9024701614
 21
9.2850518027
 31
0.0
  0
LINE
  5
CB
330
1F
100
AcDbEntity
  8
0
  6
Continuous
 62
     7
370
    25
100
AcDbLine
 10
13.4993025348
 20
9.4100518027
 30
0.0
 11
13.172715433
 21
9.4100518027
 31
0.0
  0
LINE
  5
CC
330
1F
100
AcDbEntity
  8
0
  6
Continuous
 62
     7
370
    25
100
AcDbLine
 10
14.588573007
 20
10.2500518027
 30
0.0
 11
14.4945450806
 21
10.2500518027
 31
0.0
  0
LINE
  5
CD
330
1F
100
AcDbEntity
  8
0
  6
Continuous
 62
     7
370
    25
100
AcDbLine
 10
14.6180917481
 20
9.4100518027
 30
0.0
 11
14.4012392637
 21
9.4100518027
 31
0.0
  0
LINE
  5
CE
330
1F
100
AcDbEntity
  8
0
  6
Continuous
 62
     7
370
    25
100
AcDbLine
 10
14.2935052884
 20
9.4100518027
 30
0.0
 11
13.8598003196
 21
9.4100518027
 31
0.0
  0
LINE
  5
CF
330
1F
100
AcDbEntity
  8
0
  6
Continuous
 62
     7
370
    25
100
AcDbLine
 10
13.7520663443
 20
9.4100518027
 30
0.0
 11
13.5352138599
 21
9.4100518027
 31
0.0
  0
LINE
  5
D0
330
1F
100
AcDbEntity
  8
0
  6
Continuous
 62
     7
370
    25
100
AcDbLine
 10
12.1778570869
 20
10.2500518027
 30
0.0
 11
12.0838291605
 21
10.2500518027
 31
0.0
  0
LINE
  5
D1
330
1F
100
AcDbEntity
  8
0
  6
Continuous
 62
     7
370
    25
100
AcDbLine
 10
12.8306953058
 20
9.4100518027
 30
0.0
 11
12.3972789475
 21
9.4100518027
 31
0.0
  0
LINE
  5
D2
330
1F
100
AcDbEntity
  8
0
  6
Continuous
 62
     7
370
    25
100
AcDbLine
 10
12.2873478777
 20
9.4100518027
 30
0.0
 11
12.0569395083
 21
9.4100518027
 31
0.0
  0
LINE
  5
D3
330
1F
100
AcDbEntity
  8
0
  6
Continuous
 62
     7
370
    25
100
AcDbLine
 10
13.1390967917
 20
9.4100518027
 30
0.0
 11
12.9360888027
 21
9.4100518027
 31
0.0
  0
LINE
  5
D4
330
1F
100
AcDbEntity
  8
0
  6
Continuous
 62
     7
370
    25
100
AcDbLine
 10
13.3362010837
 20
12.2000518027
 30
0.0
 11
14.9812010837
 21
12.2000518027
 31
0.0
  0
LINE
  5
D5
330
1F
100
AcDbEntity
  8
0
  6
Continuous
 62
     7
370
    25
100
AcDbLine
 10
11.6912010837
 20
12.2000518027
 30
0.0
 11
13.3362010837
 21
12.2000518027
 31
0.0
  0
LINE
  5
D6
330
1F
100
AcDbEntity
  8
0
  6
Continuous
 62
     7
370
    25
100
AcDbLine
 10
13.3362010837
 20
10.2500518027
 30
0.0
 11
12.1778570869
 21
10.2500518027
 31
0.0
  0
LINE
  5
D7
330
1F
100
AcDbEntity
  8
0
  6
Continuous
 62
     7
370
    25
100
AcDbLine
 10
12.0838291605
 20
10.2500518027
 30
0.0
 11
11.9412010837
 21
10.2500518027
 31
0.0
  0
LINE
  5
D8
330
1F
100
AcDbEntity
  8
0
  6
Continuous
 62
     7
370
    25
100
AcDbLine
 10
14.7312010837
 20
10.2500518027
 30
0.0
 11
14.588573007
 21
10.2500518027
 31
0.0
  0
LINE
  5
D9
330
1F
100
AcDbEntity
  8
0
  6
Continuous
 62
     7
370
    25
100
AcDbLine
 10
14.4945450806
 20
10.2500518027
 30
0.0
 11
13.3362010837
 21
10.2500518027
 31
0.0
  0
ARC
  5
DA
330
1F
100
AcDbEntity
  8
0
  6
Continuous
 62
     7
370
    25
100
AcDbCircle
 10
13.2403390458
 20
26.4583224919
 30
0.0
 40
0.2578774518142313
100
AcDbArc
 50
52.9481150538
 51
60.7366456643
  0
ARC
  5
DB
330
1F
100
AcDbEntity
  8
0
  6
Continuous
 62
     7
370
    25
100
AcDbCircle
 10
14.6642438445
 20
25.743314812
 30
0.0
 40
1.602486502119846
100
AcDbArc
 50
144.0858052115
 51
146.3290063933
  0
ARC
  5
DC
330
1F
100
AcDbEntity
  8
0
  6
Continuous
 62
     7
370
    25
100
AcDbCircle
 10
12.4661834538
 20
25.2824189966
 30
0.0
 40
1.602486502241275
100
AcDbArc
 50
57.3557543249
 51
59.5989555065
  0
ARC
  5
DD
330
1F
100
AcDbEntity
  8
0
  6
Continuous
 62
     7
370
    25
100
AcDbCircle
 10
13.4829303945
 20
26.5091897647
 30
0.0
 40
0.2578774518098434
100
AcDbArc
 50
142.9481150538
 51
150.7366456644
  0
ARC
  5
DE
330
1F
100
AcDbEntity
  8
0
  6
Continuous
 62
     7
370
    25
100
AcDbCircle
 10
14.1979380745
 20
27.9330945635
 30
0.0
 40
1.602486502199852
100
AcDbArc
 50
234.0858052116
 51
236.3290063933
  0
ARC
  5
DF
330
1F
100
AcDbEntity
  8
0
  6
Continuous
 62
     7
370
    25
100
AcDbCircle
 10
14.6588338899
 20
25.7350341727
 30
0.0
 40
1.602486502367971
100
AcDbArc
 50
147.355754325
 51
149.5989555064
  0
ARC
  5
E0
330
1F
100
AcDbEntity
  8
0
  6
Continuous
 62
     7
370
    25
100
AcDbCircle
 10
13.4320631217
 20
26.7517811134
 30
0.0
 40
0.2578774518072586
100
AcDbArc
 50
232.9481150538
 51
240.7366456644
  0
ARC
  5
E1
330
1F
100
AcDbEntity
  8
0
  6
Continuous
 62
     7
370
    25
100
AcDbCircle
 10
12.0081583227
 20
27.4667887935
 30
0.0
 40
1.602486502398294
100
AcDbArc
 50
324.0858052118
 51
326.3290063932
  0
ARC
  5
E2
330
1F
100
AcDbEntity
  8
0
  6
Continuous
 62
     7
370
    25
100
AcDbCircle
 10
14.2062187137
 20
27.9276846088
 30
0.0
 40
1.602486502348916
100
AcDbArc
 50
237.355754325
 51
239.5989555064
  0
ARC
  5
E3
330
1F
100
AcDbEntity
  8
0
  6
Continuous
 62
     7
370
    25
100
AcDbCircle
 10
13.189471773
 20
26.7009138406
 30
0.0
 40
0.25787745180759
100
AcDbArc
 50
322.9481150538
 51
330.7366456644
  0
ARC
  5
E4
330
1F
100
AcDbEntity
  8
0
  6
Continuous
 62
     7
370
    25
100
AcDbCircle
 10
12.474464093
 20
25.2770090417
 30
0.0
 40
1.602486502323312
100
AcDbArc
 50
54.0858052117
 51
56.3290063932
  0
ARC
  5
E5
330
1F
100
AcDbEntity
  8
0
  6
Continuous
 62
     7
370
    25
100
AcDbCircle
 10
12.0135682778
 20
27.4750694325
 30
0.0
 40
1.602486502149492
100
AcDbArc
 50
327.3557543248
 51
329.5989555065
  0
CIRCLE
  5
E6
330
1F
100
AcDbEntity
  8
0
  6
Continuous
 62
     7
370
    25
100
AcDbCircle
 10
13.3362010837
 20
26.6050518027
 30
0.0
 40
0.154499999999987
  0
LINE
  5
E7
330
1F
100
AcDbEntity
  8
0
  6
Continuous
 62
     7
370
    25
100
AcDbLine
 10
13.3305986356
 20
26.6317704643
 30
0.0
 11
13.3333713903
 21
26.6185469068
 31
0.0
  0
LINE
  5
E8
330
1F
100
AcDbEntity
  8
0
  6
Continuous
 62
     7
370
    25
100
AcDbLine
 10
13.2771209271
 20
26.6645707265
 30
0.0
 11
13.3333713903
 21
26.6185469068
 31
0.0
  0
LINE
  5
E9
330
1F
100
AcDbEntity
  8
0
  6
Continuous
 62
     7
370
    25
100
AcDbLine
 10
13.3663958847
 20
26.6832901641
 30
0.0
 11
13.3333713903
 21
26.6185469068
 31
0.0
  0
LINE
  5
EA
330
1F
100
AcDbEntity
  8
0
  6
Continuous
 62
     7
370
    25
100
AcDbLine
 10
13.3496961879
 20
26.6078814961
 30
0.0
 11
13.3629197454
 21
26.6106542508
 31
0.0
  0
LINE
  5
EB
330
1F
100
AcDbEntity
  8
0
  6
Continuous
 62
     7
370
    25
100
AcDbLine
 10
13.3957200076
 20
26.6641319593
 30
0.0
 11
13.3496961879
 21
26.6078814961
 31
0.0
  0
LINE
  5
EC
330
1F
100
AcDbEntity
  8
0
  6
Continuous
 62
     7
370
    25
100
AcDbLine
 10
13.4144394452
 20
26.5748570017
 30
0.0
 11
13.3496961879
 21
26.6078814961
 31
0.0
  0
LINE
  5
ED
330
1F
100
AcDbEntity
  8
0
  6
Continuous
 62
     7
370
    25
100
AcDbLine
 10
13.3227059796
 20
26.6022221092
 30
0.0
 11
13.3094824221
 21
26.5994493545
 31
0.0
  0
LINE
  5
EE
330
1F
100
AcDbEntity
  8
0
  6
Continuous
 62
     7
370
    25
100
AcDbLine
 10
13.2766821599
 20
26.545971646
 30
0.0
 11
13.3227059796
 21
26.6022221092
 31
0.0
  0
LINE
  5
EF
330
1F
100
AcDbEntity
  8
0
  6
Continuous
 62
     7
370
    25
100
AcDbLine
 10
13.2579627223
 20
26.6352466036
 30
0.0
 11
13.3227059796
 21
26.6022221092
 31
0.0
  0
LINE
  5
F0
330
1F
100
AcDbEntity
  8
0
  6
Continuous
 62
     7
370
    25
100
AcDbLine
 10
13.3060062828
 20
26.5268134412
 30
0.0
 11
13.3390307772
 21
26.5915566985
 31
0.0
  0
LINE
  5
F1
330
1F
100
AcDbEntity
  8
0
  6
Continuous
 62
     7
370
    25
100
AcDbLine
 10
13.3418035319
 20
26.578333141
 30
0.0
 11
13.3390307772
 21
26.5915566985
 31
0.0
  0
LINE
  5
F2
330
1F
100
AcDbEntity
  8
0
  6
Continuous
 62
     7
370
    25
100
AcDbLine
 10
13.3952812404
 20
26.5455328788
 30
0.0
 11
13.3390307772
 21
26.5915566985
 31
0.0
  0
LINE
  5
F3
330
1F
100
AcDbEntity
  8
0
  6
Continuous
 62
     7
370
    25
100
AcDbLine
 10
13.3227059796
 20
26.6022221092
 30
0.0
 11
13.3390307772
 21
26.5915566985
 31
0.0
  0
LINE
  5
F4
330
1F
100
AcDbEntity
  8
0
  6
Continuous
 62
     7
370
    25
100
AcDbLine
 10
13.3227059796
 20
26.6022221092
 30
0.0
 11
13.3333713903
 21
26.6185469068
 31
0.0
  0
LINE
  5
F5
330
1F
100
AcDbEntity
  8
0
  6
Continuous
 62
     7
370
    25
100
AcDbLine
 10
13.3496961879
 20
26.6078814961
 30
0.0
 11
13.3390307772
 21
26.5915566985
 31
0.0
  0
LINE
  5
F6
330
1F
100
AcDbEntity
  8
0
  6
Continuous
 62
     7
370
    25
100
AcDbLine
 10
13.3496961879
 20
26.6078814961
 30
0.0
 11
13.3333713903
 21
26.6185469068
 31
0.0
  0
LINE
  5
F7
330
1F
100
AcDbEntity
  8
0
  6
Continuous
 62
     7
370
    25
100
AcDbLine
 10
14.7812010837
 20
26.9800518027
 30
0.0
 11
14.7812010837
 21
25.4800518027
 31
0.0
  0
LINE
  5
F8
330
1F
100
AcDbEntity
  8
0
  6
Continuous
 62
     7
370
    25
100
AcDbLine
 10
14.7812010837
 20
25.4800518027
 30
0.0
 11
14.7712010837
 21
25.4800518027
 31
0.0
  0
LINE
  5
F9
330
1F
100
AcDbEntity
  8
0
  6
Continuous
 62
     7
370
    25
100
AcDbLine
 10
14.7812010837
 20
26.9800518027
 30
0.0
 11
14.7712010837
 21
26.9800518027
 31
0.0
  0
LINE
  5
FA
330
1F
100
AcDbEntity
  8
0
  6
Continuous
 62
     7
370
    25
100
AcDbLine
 10
14.7712010837
 20
26.9800518027
 30
0.0
 11
14.7712010837
 21
25.4800518027
 31
0.0
  0
LINE
  5
FB
330
1F
100
AcDbEntity
  8
0
  6
Continuous
 62
     7
370
    25
100
AcDbLine
 10
11.8662010837
 20
28.4800518027
 30
0.0
 11
14.8062010837
 21
28.4800518027
 31
0.0
  0
LINE
  5
FC
330
1F
100
AcDbEntity
  8
0
  6
Continuous
 62
     7
370
    25
100
AcDbLine
 10
14.8362010837
 20
28.4500518027
 30
0.0
 11
11.8362010837
 21
28.4500518027
 31
0.0
  0
SPLINE
  5
FD
330
1F
100
AcDbEntity
  8
0
  6
Continuous
 62
     7
370
    25
100
AcDbSpline
210
0.0
220
0.0
230
1.0
 70
    11
 71
     3
 72
    26
 73
    22
 74
     0
 42
0.00000001
 43
0.00000001
 40
0.0
 40
0.0
 40
0.0
 40
0.0
 40
0.053651132443631
 40
0.1073009288976515
 40
0.160985390604423
 40
0.2146924617187527
 40
0.2683618919345555
 40
0.3219922396893459
 40
0.3756429374091472
 40
0.4293417151240054
 40
0.48304134485721
 40
0.5366931356201615
 40
0.5903231046261513
 40
0.6439912868904136
 40
0.697698097356346
 40
0.7513836883134175
 40
0.8050213889394591
 40
0.8586592039104789
 40
0.9123449137982117
 40
0.9660517000346343
 40
1.0
 40
1.0
 40
1.0
 40
1.0
 10
12.64586187422122
 20
27.35505180265792
 30
0.0
 10
12.64519392185542
 20
27.36269389686308
 30
0.0
 10
12.6438580337568
 20
27.37797789497436
 30
0.0
 10
12.6334745963499
 20
27.39832221662373
 30
0.0
 10
12.6182662402219
 20
27.41379836577251
 30
0.0
 10
12.59940948941755
 20
27.42265623544961
 30
0.0
 10
12.57926831749547
 20
27.42389097448525
 30
0.0
 10
12.56008313077437
 20
27.41737327920193
 30
0.0
 10
12.54396739687579
 20
27.40384076013527
 30
0.0
 10
12.53264388869573
 20
27.38480494959493
 30
0.0
 10
12.52731510882797
 20
27.36240994808354
 30
0.0
 10
12.52853559609379
 20
27.3391942668394
 30
0.0
 10
12.53616949219289
 20
27.31777279907249
 30
0.0
 10
12.54942433535145
 20
27.30054382056115
 30
0.0
 10
12.56690579057099
 20
27.28945004807034
 30
0.0
 10
12.58671560466706
 20
27.28575340719602
 30
0.0
 10
12.60662921580744
 20
27.28986428955134
 30
0.0
 10
12.62441375647681
 20
27.30131409464724
 30
0.0
 10
12.63787114888728
 20
27.31881096613989
 30
0.0
 10
12.64488969075374
 20
27.33778801742269
 30
0.0
 10
12.64559046750291
 20
27.35023223160669
 30
0.0
 10
12.64586187422122
 20
27.35505180265792
 30
0.0
  0
SPLINE
  5
FE
330
1F
100
AcDbEntity
  8
0
  6
Continuous
 62
     7
370
    25
100
AcDbSpline
210
0.0
220
0.0
230
1.0
 70
     8
 71
     3
 72
    17
 73
    13
 74
     0
 42
0.00000001
 43
0.00000001
 40
0.0
 40
0.0
 40
0.0
 40
0.0
 40
0.0369173466590892
 40
0.1441784507287217
 40
0.2514802548834117
 40
0.3588782193944988
 40
0.4662778879487575
 40
0.5735818781980591
 40
0.6808422247672191
 40
0.788178998144024
 40
0.8955930282184242
 40
1.0
 40
1.0
 40
1.0
 40
1.0
 10
14.83616200100976
 20
27.4221816981513
 30
0.0
 10
14.83617268623874
 20
27.42241991096969
 30
0.0
 10
14.83621441675025
 20
27.42335023663519
 30
0.0
 10
14.83592907562551
 20
27.41704507634769
 30
0.0
 10
14.83542693950102
 20
27.4039286758648
 30
0.0
 10
14.83490387378703
 20
27.38478186065264
 30
0.0
 10
14.83461730920751
 20
27.36241434527252
 30
0.0
 10
14.83468501219824
 20
27.33919973733857
 30
0.0
 10
14.8350810997448
 20
27.3177465265866
 30
0.0
 10
14.83562296221767
 20
27.30064355281429
 30
0.0
 10
14.83610178477442
 20
27.28918364265598
 30
0.0
 10
14.83616525211011
 20
27.28782465449948
 30
0.0
 10
14.8361965352797
 20
27.28715480667107
 30
0.0
  0
LINE
  5
FF
330
1F
100
AcDbEntity
  8
0
  6
Continuous
 62
     7
370
    25
100
AcDbLine
 10
13.3362010837
 20
26.9800518027
 30
0.0
 11
11.8362010837
 21
26.9800518027
 31
0.0
  0
LINE
  5
100
330
1F
100
AcDbEntity
  8
0
  6
Continuous
 62
     7
370
    25
100
AcDbLine
 10
14.8362010837
 20
26.9800518027
 30
0.0
 11
14.7812010837
 21
26.9800518027
 31
0.0
  0
LINE
  5
101
330
1F
100
AcDbEntity
  8
0
  6
Continuous
 62
     7
370
    25
100
AcDbLine
 10
14.7712010837
 20
26.9800518027
 30
0.0
 11
13.3362010837
 21
26.9800518027
 31
0.0
  0
LINE
  5
102
330
1F
100
AcDbEntity
  8
0
  6
Continuous
 62
     7
370
    25
100
AcDbLine
 10
13.3362010837
 20
10.5000518027
 30
0.0
 11
14.9812010837
 21
10.5000518027
 31
0.0
  0
LINE
  5
103
330
1F
100
AcDbEntity
  8
0
  6
Continuous
 62
     7
370
    25
100
AcDbLine
 10
11.6912010837
 20
10.5000518027
 30
0.0
 11
13.3362010837
 21
10.5000518027
 31
0.0
  0
DIMENSION
  5
104
330
1F
100
AcDbEntity
  8
0
  6
Continuous
 62
     7
370
    18
100
AcDbDimension
  2
_D
 10
6.9091341546
 20
9.2850518027
 30
0.0
 11
6.9091341546
 21
18.1325518027
 31
0.0
 70
   160
  1
SPECIFY LENGTH\P12" OR 18"\P[305mm OR 457mm]
 71
     2
 42
-1.0
  3
SLDDIMSTYLE0
100
AcDbAlignedDimension
 13
11.8362010837
 23
26.9800518027
 33
0.0
 14
12.018783294
 24
9.2850518027
 34
0.0
 50
90.0
100
AcDbRotatedDimension
  0
DIMENSION
  5
113
330
1F
100
AcDbEntity
  8
0
  6
Continuous
 62
     7
370
    18
100
AcDbDimension
  2
_D_1
 10
14.8362010837
 20
30.3791836891
 30
0.0
 11
13.3362010837
 21
30.3791836891
 31
0.0
 70
   160
  1
%%c<>
 71
     2
 42
-1.0
  3
SLDDIMSTYLE1
100
AcDbAlignedDimension
 13
11.8362010837
 23
28.4500518027
 33
0.0
 14
14.8362010837
 24
28.4500518027
 34
0.0
100
AcDbRotatedDimension
  0
DIMENSION
  5
127
330
1F
100
AcDbEntity
  8
0
  6
Continuous
 62
     7
370
    18
100
AcDbDimension
  2
_D_2
 10
16.2987010837
 20
26.2316377906
 30
0.0
 11
19.7632680129
 21
26.2316377906
 31
0.0
 70
   160
  1
%%c<>
 71
     2
 42
-1.0
  3
SLDDIMSTYLE2
100
AcDbAlignedDimension
 13
10.3737010837
 23
23.1050518027
 33
0.0
 14
16.2987010837
 24
23.1050518027
 34
0.0
 50
0.0
100
AcDbRotatedDimension
  0
DIMENSION
  5
13B
330
1F
100
AcDbEntity
  8
0
  6
Continuous
 62
     7
370
    18
100
AcDbDimension
  2
_D_3
 10
17.8735042333
 20
23.9800518027
 30
0.0
 11
17.8735042333
 21
21.6443130017
 31
0.0
 70
   160
  1
<>
 71
     2
 42
-1.0
  3
SLDDIMSTYLE2
100
AcDbAlignedDimension
 13
16.2987010837
 23
23.1050518027
 33
0.0
 14
16.2681454104
 24
23.9800518027
 34
0.0
 50
90.0
100
AcDbRotatedDimension
  0
DIMENSION
  5
150
330
1F
100
AcDbEntity
  8
0
  6
Continuous
 62
     7
370
    18
100
AcDbDimension
  2
_D_4
 10
6.9091341546
 20
26.9800518027
 30
0.0
 11
6.9091341546
 21
30.3791836891
 31
0.0
 70
   160
  1
<>
 71
     2
 42
-1.0
  3
SLDDIMSTYLE3
100
AcDbAlignedDimension
 13
11.8662010837
 23
28.4800518027
 33
0.0
 14
11.8362010837
 24
26.9800518027
 34
0.0
 50
90.0
100
AcDbRotatedDimension
  0
DIMENSION
  5
166
330
1F
100
AcDbEntity
  8
0
  6
Continuous
 62
     7
370
    18
100
AcDbDimension
  2
_D_5
 10
14.7712010837
 20
14.6293369028
 30
0.0
 11
18.2520337585
 21
14.6293369028
 31
0.0
 70
   160
  1
%%c<>
 71
     2
 42
-1.0
  3
SLDDIMSTYLE2
100
AcDbAlignedDimension
 13
11.9012010837
 23
10.6050518027
 33
0.0
 14
14.7712010837
 24
10.6050518027
 34
0.0
 50
0.0
100
AcDbRotatedDimension
  0
MTEXT
  5
177
330
1F
100
AcDbEntity
  8
0
  6
Continuous
 62
     7
370
     0
100
AcDbMText
 10
18.2520337585
 20
19.9121147424
 30
0.0
 40
0.5
 41
0.0
 71
     1
 72
     1
  1
STABILITY FLANGE
  7
SLDTEXTSTYLE0
 73
     1
 44
1.0
  0
MTEXT
  5
178
330
1F
100
AcDbEntity
  8
0
  6
Continuous
 62
     7
370
     0
100
AcDbMText
 10
18.2520337585
 20
19.2546344443
 30
0.0
 40
0.5
 41
0.0
 71
     1
 72
     1
  1
(OPTIONAL)
  7
SLDTEXTSTYLE0
 73
     1
 44
1.0
  0
LEADER
  5
17A
330
1F
100
AcDbEntity
  8
0
  6
Continuous
 62
     7
370
     0
100
AcDbLeader
  3
SLDDIMSTYLE4
 76
     3
 10
16.2987010837
 20
23.1050518027
 30
0.0
 10
17.1529684822
 20
19.6573238908
 30
0.0
 10
18.1529684822
 20
19.6573238908
 30
0.0
  0
LINE
  5
17B
330
1F
100
AcDbEntity
  8
0
  6
Continuous
 62
     7
370
    25
100
AcDbLine
 10
38.7617325755
 20
24.6101154556
 30
0.0
 11
38.7311862159
 21
25.3241531717
 31
0.0
  0
LINE
  5
17C
330
1F
100
AcDbEntity
  8
0
  6
Continuous
 62
     7
370
    25
100
AcDbLine
 10
32.8690849486
 20
25.3241531717
 30
0.0
 11
32.838538589
 21
24.6101154556
 31
0.0
  0
LINE
  5
17D
330
1F
100
AcDbEntity
  8
0
  6
Continuous
 62
     7
370
    25
100
AcDbLine
 10
34.8337600925
 20
24.5848687366
 30
0.0
 11
34.8291729347
 21
24.6602591154
 31
0.0
  0
LINE
  5
17E
330
1F
100
AcDbEntity
  8
0
  6
Continuous
 62
     7
370
    25
100
AcDbLine
 10
36.7711232145
 20
24.6602827757
 30
0.0
 11
36.7665299868
 21
24.5849461256
 31
0.0
  0
LINE
  5
17F
330
1F
100
AcDbEntity
  8
0
  6
Continuous
 62
     7
370
    25
100
AcDbLine
 10
34.6946448405
 20
27.4555204554
 30
0.0
 11
34.6946448405
 21
27.4517649781
 31
0.0
  0
LINE
  5
180
330
1F
100
AcDbEntity
  8
0
  6
Continuous
 62
     7
370
    25
100
AcDbLine
 10
34.7394681242
 20
27.3741203604
 30
0.0
 11
34.7427202868
 21
27.3722423166
 31
0.0
  0
LINE
  5
181
330
1F
100
AcDbEntity
  8
0
  6
Continuous
 62
     7
370
    25
100
AcDbLine
 10
37.2375028338
 20
27.7486725117
 30
0.0
 11
37.242424914
 21
27.7524557441
 31
0.0
  0
LINE
  5
182
330
1F
100
AcDbEntity
  8
0
  6
Continuous
 62
     7
370
    25
100
AcDbLine
 10
37.2613497737
 20
27.8748012162
 30
0.0
 11
37.2578007905
 21
27.8798947847
 31
0.0
  0
LINE
  5
183
330
1F
100
AcDbEntity
  8
0
  6
Continuous
 62
     7
370
    25
100
AcDbLine
 10
34.3651355822
 20
27.4798415621
 30
0.0
 11
34.3651355822
 21
25.2823656847
 31
0.0
  0
LINE
  5
184
330
1F
100
AcDbEntity
  8
0
  6
Continuous
 62
     7
370
    25
100
AcDbLine
 10
34.3651355822
 20
23.0717055778
 30
0.0
 11
34.3651355822
 21
15.5703314883
 31
0.0
  0
LINE
  5
185
330
1F
100
AcDbEntity
  8
0
  6
Continuous
 62
     7
370
    25
100
AcDbLine
 10
37.2351355822
 20
15.570622573
 30
0.0
 11
37.2351355822
 21
23.0717055778
 31
0.0
  0
LINE
  5
186
330
1F
100
AcDbEntity
  8
0
  6
Continuous
 62
     7
370
    25
100
AcDbLine
 10
37.2351355822
 20
25.2823656847
 30
0.0
 11
37.2351355822
 21
27.4798415621
 31
0.0
  0
LINE
  5
187
330
1F
100
AcDbEntity
  8
0
  6
Continuous
 62
     7
370
    25
100
AcDbLine
 10
35.8597118802
 20
13.2209154505
 30
0.0
 11
35.8597118802
 21
13.0363515877
 31
0.0
  0
LINE
  5
188
330
1F
100
AcDbEntity
  8
0
  6
Continuous
 62
     7
370
    25
100
AcDbLine
 10
36.9497118802
 20
13.0363515877
 30
0.0
 11
36.9497118802
 21
13.5124807563
 31
0.0
  0
LINE
  5
189
330
1F
100
AcDbEntity
  8
0
  6
Continuous
 62
     7
370
    25
100
AcDbLine
 10
34.4292690008
 20
13.6823365713
 30
0.0
 11
34.4292690008
 21
13.257617894
 31
0.0
  0
LINE
  5
18A
330
1F
100
AcDbEntity
  8
0
  6
Continuous
 62
     7
370
    25
100
AcDbLine
 10
37.4451355822
 20
14.2753955405
 30
0.0
 11
37.4451355822
 21
15.6635149207
 31
0.0
  0
LINE
  5
18B
330
1F
100
AcDbEntity
  8
0
  6
Continuous
 62
     7
370
    25
100
AcDbLine
 10
34.1551355822
 20
15.6635149207
 30
0.0
 11
34.1551355822
 21
14.2753955405
 31
0.0
  0
SPLINE
  5
18C
330
1F
100
AcDbEntity
  8
0
  6
Continuous
 62
     7
370
    25
100
AcDbSpline
210
0.0
220
0.0
230
1.0
 70
     8
 71
     3
 72
    83
 73
    79
 74
     0
 42
0.00000001
 43
0.00000001
 40
0.0
 40
0.0
 40
0.0
 40
0.0
 40
0.0092334602870518
 40
0.0230589298278694
 40
0.0368610645665344
 40
0.0506150604122532
 40
0.0643028380564769
 40
0.0779143256916335
 40
0.0914469500414196
 40
0.1049040108148269
 40
0.1182926999134488
 40
0.1316222950021522
 40
0.1449027679778984
 40
0.1581438425759014
 40
0.1713544327223482
 40
0.1845423629943787
 40
0.1977142790377504
 40
0.2108756753325731
 40
0.2240309883667422
 40
0.2371837205089741
 40
0.2503361366345612
 40
0.2634900878750038
 40
0.2766472220713476
 40
0.2898087024500657
 40
0.3029753015227639
 40
0.3161474805305798
 40
0.3293254553990818
 40
0.3425092507292594
 40
0.3556987434649592
 40
0.3688936978294753
 40
0.3820937929913129
 40
0.3952986447487409
 40
0.408507822343786
 40
0.4217208613449788
 40
0.4349372733829083
 40
0.4481565533870732
 40
0.4613781848576326
 40
0.4746016436102143
 40
0.487826400354779
 40
0.5010519224086191
 40
0.514277674797203
 40
0.5275030153754391
 40
0.5407273333992396
 40
0.5539500910037608
 40
0.5671707507922126
 40
0.5803887770721377
 40
0.5936036377842369
 40
0.6068148073801979
 40
0.6200217709678879
 40
0.6332240301082986
 40
0.6464211107315594
 40
0.6596125737407459
 40
0.672798028993478
 40
0.6859771534925646
 40
0.6991497147764005
 40
0.712315600671955
 40
0.7254748567467499
 40
0.7386277329503514
 40
0.7517747410356388
 40
0.7649167243386331
 40
0.7780549412848956
 40
0.7911911634467012
 40
0.8043272253106477
 40
0.8174657111550065
 40
0.8306103453084096
 40
0.8437658196523661
 40
0.8569379098849446
 40
0.8701335540582956
 40
0.883360857411157
 40
0.896628971780853
 40
0.9099477804577419
 40
0.9233273050157682
 40
0.9367767503154695
 40
0.9503031373544587
 40
0.9639095690193812
 40
0.9775933547447476
 40
0.991344470552504
 40
1.0
 40
1.0
 40
1.0
 40
1.0
 10
37.23735287860706
 20
15.61284234666935
 30
0.0
 10
37.23732636992995
 20
15.60542769456116
 30
0.0
 10
37.23726016920927
 20
15.58691091565643
 30
0.0
 10
37.23426671105813
 20
15.55731984804206
 30
0.0
 10
37.22874570006186
 20
15.52412898263015
 30
0.0
 10
37.22062337216539
 20
15.49110182144126
 30
0.0
 10
37.21005263377366
 20
15.45831173121756
 30
0.0
 10
37.19703593645448
 20
15.42582222973951
 30
0.0
 10
37.18162008374171
 20
15.39368708567494
 30
0.0
 10
37.16384054922933
 20
15.36195257489946
 30
0.0
 10
37.14373438862675
 20
15.33066044392457
 30
0.0
 10
37.12133661303316
 20
15.29985067224166
 30
0.0
 10
37.09668206542096
 20
15.26956351459371
 30
0.0
 10
37.06980634540898
 20
15.23984072188314
 30
0.0
 10
37.04074705919564
 20
15.21072605725315
 30
0.0
 10
37.00954480079954
 20
15.18226530286418
 30
0.0
 10
36.97624391266445
 20
15.15450594639883
 30
0.0
 10
36.94089299377503
 20
15.1274966968526
 30
0.0
 10
36.90354519286316
 20
15.10128693435418
 30
0.0
 10
36.86425875948084
 20
15.07592644073235
 30
0.0
 10
36.82309687142747
 20
15.05146467378031
 30
0.0
 10
36.78012717041005
 20
15.02795007267326
 30
0.0
 10
36.73542103974978
 20
15.00542947113974
 30
0.0
 10
36.68905359604386
 20
14.98394799893874
 30
0.0
 10
36.64110385707087
 20
14.96354903899328
 30
0.0
 10
36.59165448535541
 20
14.9442739937581
 30
0.0
 10
36.54079152419599
 20
14.92616209565687
 30
0.0
 10
36.48860413308164
 20
14.90925025472251
 30
0.0
 10
36.43518432672349
 20
14.89357293695786
 30
0.0
 10
36.38062672014141
 20
14.87916206770161
 30
0.0
 10
36.32502828098622
 20
14.86604695512468
 30
0.0
 10
36.26848808943111
 20
14.85425422980679
 30
0.0
 10
36.21110710542306
 20
14.84380779709524
 30
0.0
 10
36.15298794275925
 20
14.83472879960432
 30
0.0
 10
36.09423464927993
 20
14.82703558776974
 30
0.0
 10
36.03495249239657
 20
14.82074369683087
 30
0.0
 10
35.97524774916578
 20
14.81586582898547
 30
0.0
 10
35.91522750014985
 20
14.81241183975822
 30
0.0
 10
35.85499942634585
 20
14.81038872785863
 30
0.0
 10
35.7946716085405
 20
14.80980062798678
 30
0.0
 10
35.73435248893012
 20
14.81064880393613
 30
0.0
 10
35.67415062268667
 20
14.81293162708425
 30
0.0
 10
35.61417436375622
 20
14.81664456863889
 30
0.0
 10
35.55453150450498
 20
14.82178022130456
 30
0.0
 10
35.49532912842476
 20
14.82832831735774
 30
0.0
 10
35.4366735223038
 20
14.83627573077491
 30
0.0
 10
35.37866997542491
 20
14.8456064859269
 30
0.0
 10
35.32142257609976
 20
14.85630176898736
 30
0.0
 10
35.2650340047627
 20
14.86833994258216
 30
0.0
 10
35.20960532272932
 20
14.8816965644308
 30
0.0
 10
35.15523575564082
 20
14.89634441102224
 30
0.0
 10
35.10202247054374
 20
14.91225350774156
 30
0.0
 10
35.05006034552223
 20
14.92939116734352
 30
0.0
 10
34.99944173083515
 20
14.94772203927196
 30
0.0
 10
34.95025620065843
 20
14.96720817307298
 30
0.0
 10
34.90259029485132
 20
14.98780910005985
 30
0.0
 10
34.85652725073722
 20
15.00948193846752
 30
0.0
 10
34.81214672581783
 20
15.032181528574
 30
0.0
 10
34.76952451376679
 20
15.05586060561851
 30
0.0
 10
34.72873225811183
 20
15.08047001973818
 30
0.0
 10
34.68983717101008
 20
15.10595901331071
 30
0.0
 10
34.65290229550379
 20
15.13227519137909
 30
0.0
 10
34.61798611571471
 20
15.15936488598497
 30
0.0
 10
34.58514199011532
 20
15.18717380864385
 30
0.0
 10
34.55441759424002
 20
15.21564804122308
 30
0.0
 10
34.52585503464717
 20
15.24473474588883
 30
0.0
 10
34.49949126743144
 20
15.2743827480882
 30
0.0
 10
34.47535847249044
 20
15.30454337629063
 30
0.0
 10
34.45348467401145
 20
15.33517127960503
 30
0.0
 10
34.4338947697633
 20
15.36622510537174
 30
0.0
 10
34.41661152598223
 20
15.39766786012174
 30
0.0
 10
34.40165816861141
 20
15.42946671898704
 30
0.0
 10
34.38905603776487
 20
15.46159200924605
 30
0.0
 10
34.37884087830151
 20
15.4940151467863
 30
0.0
 10
34.37100731874931
 20
15.52670541838189
 30
0.0
 10
34.36571952031929
 20
15.55962610083717
 30
0.0
 10
34.36291374000368
 20
15.58859961143523
 30
0.0
 10
34.36292619871754
 20
15.60659257646931
 30
0.0
 10
34.36293101143107
 20
15.61354313229442
 30
0.0
  0
SPLINE
  5
18D
330
1F
100
AcDbEntity
  8
0
  6
Continuous
 62
     7
370
    25
100
AcDbSpline
210
0.0
220
0.0
230
1.0
 70
     8
 71
     3
 72
    87
 73
    83
 74
     0
 42
0.00000001
 43
0.00000001
 40
0.0
 40
0.0
 40
0.0
 40
0.0
 40
0.0111573886974732
 40
0.0226957296313498
 40
0.0342435679154393
 40
0.0458207849064674
 40
0.057446542584204
 40
0.0691388773289498
 40
0.0809142561518778
 40
0.0927870952085072
 40
0.104769254842756
 40
0.1168695434529595
 40
0.1290932811015316
 40
0.1414419884654952
 40
0.1539132711289133
 40
0.166500957126083
 40
0.1791955142620376
 40
0.1919847271200314
 40
0.2048545636432819
 40
0.2177901237656312
 40
0.230776550744122
 40
0.2437998029314644
 40
0.2568472218870098
 40
0.2699078776135525
 40
0.2829715623300637
 40
0.2960302231407168
 40
0.3090789037699256
 40
0.3221140936742993
 40
0.3351335043823483
 40
0.3481358515678628
 40
0.3611206576310137
 40
0.3740880808246944
 40
0.3870387722744517
 40
0.3999737594516626
 40
0.4128943532312228
 40
0.4258020751218862
 40
0.4386986012400261
 40
0.451585719856858
 40
0.4644652997261607
 40
0.4773392667989149
 40
0.4902095873008345
 40
0.5030782554620088
 40
0.515947284434117
 40
0.5288181932868743
 40
0.5416928448693743
 40
0.5545732710774997
 40
0.5674614964963496
 40
0.5803595281222872
 40
0.5932693412768241
 40
0.6061928600832461
 40
0.6191319305961644
 40
0.632088284301358
 40
0.645063489269173
 40
0.6580588857791256
 40
0.6710755027969572
 40
0.6841139513889276
 40
0.6971742911877179
 40
0.7102558666716505
 40
0.7233571117087381
 40
0.7364753241130131
 40
0.7496064175131665
 40
0.7627445614017345
 40
0.7758792752980129
 40
0.7890002209046153
 40
0.8020949838407019
 40
0.8151492616868017
 40
0.8281473005062663
 40
0.8410725954393266
 40
0.8539088249478468
 40
0.8666409304952487
 40
0.8792562062667592
 40
0.8917452469095234
 40
0.9041026250751159
 40
0.9163272277359369
 40
0.9284222499411542
 40
0.9403949033430965
 40
0.9522559294832967
 40
0.9640190123509552
 40
0.9757001686521126
 40
0.987317168409219
 40
0.9988890120579107
 40
1.0
 40
1.0
 40
1.0
 40
1.0
 10
34.15517681103544
 20
14.27488815082276
 30
0.0
 10
34.15539709582033
 20
14.26119343742178
 30
0.0
 10
34.15584518668238
 20
14.23333642525209
 30
0.0
 10
34.15968772559401
 20
14.19142999403185
 30
0.0
 10
34.16588057800708
 20
14.14926221542513
 30
0.0
 10
34.17461619225291
 20
14.10736262346729
 30
0.0
 10
34.18581666442442
 20
14.06577875016902
 30
0.0
 10
34.19949239561431
 20
14.02455717217049
 30
0.0
 10
34.21563341494819
 20
13.98374435292718
 30
0.0
 10
34.23423763731395
 20
13.94338792941682
 30
0.0
 10
34.25530157007456
 20
13.90353797986837
 30
0.0
 10
34.27882052608745
 20
13.86424822745427
 30
0.0
 10
34.3047857188382
 20
13.82557697139402
 30
0.0
 10
34.33318187764426
 20
13.78758756128646
 30
0.0
 10
34.36398473437195
 20
13.75034825253404
 30
0.0
 10
34.39715897561979
 20
13.71393136197104
 30
0.0
 10
34.43265691757604
 20
13.678411760037
 30
0.0
 10
34.47041815239388
 20
13.64386486704503
 30
0.0
 10
34.5103702266759
 20
13.6103644269526
 30
0.0
 10
34.55243022955165
 20
13.57798037718391
 30
0.0
 10
34.59650700805009
 20
13.54677710121242
 30
0.0
 10
34.64250364748539
 20
13.5168122537575
 30
0.0
 10
34.6903198663453
 20
13.48813622116156
 30
0.0
 10
34.73985261069682
 20
13.46079296240368
 30
0.0
 10
34.79099774524694
 20
13.4348200709575
 30
0.0
 10
34.8436527830474
 20
13.41024850433086
 30
0.0
 10
34.89771914197634
 20
13.38710299938554
 30
0.0
 10
34.95310209939401
 20
13.36540348003266
 30
0.0
 10
35.00970875499287
 20
13.3451667980091
 30
0.0
 10
35.06744775109917
 20
13.32640738237395
 30
0.0
 10
35.1262289399429
 20
13.30913774851783
 30
0.0
 10
35.18596305001599
 20
13.2933688767743
 30
0.0
 10
35.2465613827496
 20
13.27911047956589
 30
0.0
 10
35.30793555637594
 20
13.26637117860081
 30
0.0
 10
35.36999730383804
 20
13.25515861296657
 30
0.0
 10
35.43265832511332
 20
13.24547949665204
 30
0.0
 10
35.49583019043672
 20
13.23733964107987
 30
0.0
 10
35.559424288831
 20
13.23074395525149
 30
0.0
 10
35.62335181543803
 20
13.22569643340034
 30
0.0
 10
35.68752379091485
 20
13.22220013773623
 30
0.0
 10
35.75185110634063
 20
13.22025718196036
 30
0.0
 10
35.81624458726871
 20
13.21986871968581
 30
0.0
 10
35.88061422801827
 20
13.22103492539981
 30
0.0
 10
35.94486984808116
 20
13.22375491225046
 30
0.0
 10
36.00892148618802
 20
13.22802673114616
 30
0.0
 10
36.07268033555347
 20
13.23384750732486
 30
0.0
 10
36.13605825685563
 20
13.24121350784911
 30
0.0
 10
36.19896756192687
 20
13.2501201796336
 30
0.0
 10
36.26132105854209
 20
13.26056220668505
 30
0.0
 10
36.32303206926637
 20
13.27253357126323
 30
0.0
 10
36.38401441714474
 20
13.28602761394781
 30
0.0
 10
36.44418237054979
 20
13.3010370855742
 30
0.0
 10
36.50345053917832
 20
13.31755418143523
 30
0.0
 10
36.56173371329894
 20
13.33557054495289
 30
0.0
 10
36.61894663926839
 20
13.35507722418303
 30
0.0
 10
36.67500372661009
 20
13.37606456012306
 30
0.0
 10
36.72981868633968
 20
13.39852198116973
 30
0.0
 10
36.78330410771824
 20
13.42243767392422
 30
0.0
 10
36.83537099228055
 20
13.44779809809011
 30
0.0
 10
36.8859282810112
 20
13.47458731458749
 30
0.0
 10
36.93488230239306
 20
13.50278602858935
 30
0.0
 10
36.98213318544387
 20
13.53236838954653
 30
0.0
 10
37.02757807362975
 20
13.56330187867257
 30
0.0
 10
37.07111187442046
 20
13.59554591324592
 30
0.0
 10
37.11263118716403
 20
13.62905297163303
 30
0.0
 10
37.15203336389347
 20
13.66376598244979
 30
0.0
 10
37.1892188315176
 20
13.6996178948962
 30
0.0
 10
37.22409386803579
 20
13.73653197024021
 30
0.0
 10
37.25657352936908
 20
13.77442289630168
 30
0.0
 10
37.28658432203039
 20
13.8131986801016
 30
0.0
 10
37.31406621192083
 20
13.85276310622729
 30
0.0
 10
37.33897362459422
 20
13.89301841864981
 30
0.0
 10
37.36127540493746
 20
13.93386784371181
 30
0.0
 10
37.38095347035782
 20
13.97521762771343
 30
0.0
 10
37.39800173202664
 20
14.01697842537297
 30
0.0
 10
37.41242083043379
 20
14.05906595341675
 30
0.0
 10
37.42422668651834
 20
14.10140126992022
 30
0.0
 10
37.43340811308565
 20
14.14390995718716
 30
0.0
 10
37.44007321698192
 20
14.18652374217402
 30
0.0
 10
37.44389995141341
 20
14.22917235923395
 30
0.0
 10
37.44548409445104
 20
14.25900143849185
 30
0.0
 10
37.44506242512257
 20
14.27456201740185
 30
0.0
 10
37.44502548782382
 20
14.27592508963199
 30
0.0
  0
ARC
  5
18E
330
1F
100
AcDbEntity
  8
0
  6
Continuous
 62
     7
370
    25
100
AcDbCircle
 10
36.7869318216
 20
26.8561199726
 30
0.0
 40
0.1594593750000393
100
AcDbArc
 50
257.6453884855
 51
336.9029589698
  0
ARC
  5
18F
330
1F
100
AcDbEntity
  8
0
  6
Continuous
 62
     7
370
    25
100
AcDbCircle
 10
36.7869318216
 20
26.8561199726
 30
0.0
 40
0.1594593749999964
100
AcDbArc
 50
336.9029589698
 51
42.3599880472
  0
LINE
  5
190
330
1F
100
AcDbEntity
  8
0
  6
Continuous
 62
     7
370
    25
100
AcDbLine
 10
34.9981799098
 20
26.8790488738
 30
0.0
 11
35.0025993272
 21
26.8816001491
 31
0.0
  0
LINE
  5
191
330
1F
100
AcDbEntity
  8
0
  6
Continuous
 62
     7
370
    25
100
AcDbLine
 10
34.8641873952
 20
26.9990746463
 30
0.0
 11
34.8686068126
 21
27.0016259216
 31
0.0
  0
LINE
  5
192
330
1F
100
AcDbEntity
  8
0
  6
Continuous
 62
     7
370
    25
100
AcDbLine
 10
34.7635435605
 20
27.0835958197
 30
0.0
 11
34.7591241431
 21
27.0810445444
 31
0.0
  0
LINE
  5
193
330
1F
100
AcDbEntity
  8
0
  6
Continuous
 62
     7
370
    25
100
AcDbLine
 10
36.8609680991
 20
29.5445096888
 30
0.0
 11
36.8397514488
 21
29.5567617817
 31
0.0
  0
LINE
  5
194
330
1F
100
AcDbEntity
  8
0
  6
Continuous
 62
     7
370
    25
100
AcDbLine
 10
34.7605197157
 20
29.5567617817
 30
0.0
 11
34.7393030654
 21
29.5445096888
 31
0.0
  0
LINE
  5
195
330
1F
100
AcDbEntity
  8
0
  6
Continuous
 62
     7
370
    25
100
AcDbLine
 10
37.3001355822
 20
27.7319881204
 30
0.0
 11
37.3001355822
 21
28.9323031138
 31
0.0
  0
LINE
  5
196
330
1F
100
AcDbEntity
  8
0
  6
Continuous
 62
     7
370
    25
100
AcDbLine
 10
34.3001355822
 20
28.9323031138
 30
0.0
 11
34.3001355822
 21
27.7319881204
 31
0.0
  0
LWPOLYLINE
  5
197
330
1F
100
AcDbEntity
  8
0
  6
Continuous
 62
     7
370
    25
100
AcDbPolyline
 90
      163
 70
   128
 43
0.0
 10
37.8733332977
 20
26.4791972506
 10
37.9364989589
 20
26.4415860118
 10
37.9976181372
 20
26.402864323
 10
38.0566322848
 20
26.363069277
 10
38.1134848705
 20
26.3222389944
 10
38.1681214335
 20
26.2804125878
 10
38.2204896359
 20
26.2376301238
 10
38.2705393128
 20
26.1939325851
 10
38.31822252
 20
26.1493618306
 10
38.3634935807
 20
26.103960556
 10
38.4063091282
 20
26.0577722525
 10
38.4466281484
 20
26.0108411651
 10
38.4844120186
 20
25.9632122504
 10
38.5196245445
 20
25.9149311336
 10
38.552231995
 20
25.8660440645
 10
38.5822031346
 20
25.8165978733
 10
38.6095092531
 20
25.766639926
 10
38.6341241931
 20
25.7162180787
 10
38.6560243753
 20
25.665380632
 10
38.6751888208
 20
25.6141762844
 10
38.6915991717
 20
25.562654086
 10
38.7052397078
 20
25.5108633915
 10
38.7160973625
 20
25.4588538126
 10
38.724161735
 20
25.4066751707
 10
38.7294251003
 20
25.3543774492
 10
38.7318824162
 20
25.3020107456
 10
38.7315313291
 20
25.2496252235
 10
38.728372175
 20
25.1972710643
 10
38.7224079804
 20
25.1449984198
 10
38.7136444584
 20
25.0928573632
 10
38.7020900039
 20
25.0408978419
 10
38.6877556853
 20
24.9891696296
 10
38.6706552337
 20
24.937722278
 10
38.6508050302
 20
24.8866050701
 10
38.6282240898
 20
24.8358669725
 10
38.6029340435
 20
24.7855565886
 10
38.5749591174
 20
24.7357221122
 10
38.5443261093
 20
24.6864112812
 10
38.5110643636
 20
24.6376713317
 10
38.4752057426
 20
24.5895489531
 10
38.4367845962
 20
24.5420902433
 10
38.3958377292
 20
24.4953406642
 10
38.3524043657
 20
24.4493449987
 10
38.3065261119
 20
24.4041473072
 10
38.2582469157
 20
24.3597908859
 10
38.2076130251
 20
24.3163182251
 10
38.1546729439
 20
24.2737709685
 10
38.0994773847
 20
24.2321898733
 10
38.0420792211
 20
24.1916147712
 10
37.9825334363
 20
24.1520845302
 10
37.9208970708
 20
24.1136370174
 10
37.857229168
 20
24.0763090629
 10
37.7915907171
 20
24.0401364242
 10
37.724044595
 20
24.0051537519
 10
37.6546555061
 20
23.9713945571
 10
37.5834899202
 20
23.9388911786
 10
37.5106160087
 20
23.9076747522
 10
37.4361035796
 20
23.8777751812
 10
37.3600240106
 20
23.8492211071
 10
37.2824501803
 20
23.8220398828
 10
37.203456399
 20
23.7962575458
 10
37.123118337
 20
23.7718987938
 10
37.0415129525
 20
23.7489869607
 10
36.9587184174
 20
23.7275439944
 10
36.8748140431
 20
23.7075904358
 10
36.789880204
 20
23.689145399
 10
36.7039982605
 20
23.6722265528
 10
36.6172504813
 20
23.6568501045
 10
36.5297199647
 20
23.6430307835
 10
36.4414905586
 20
23.6307818277
 10
36.3526467805
 20
23.6201149708
 10
36.2632737362
 20
23.6110404308
 10
36.1734570388
 20
23.6035669006
 10
36.0832827263
 20
23.5977015392
 10
35.9928371791
 20
23.5934499651
 10
35.9022070376
 20
23.5908162512
 10
35.8114791189
 20
23.5898029203
 10
35.720740334
 20
23.5904109431
 10
35.630077604
 20
23.5926397372
 10
35.5395777773
 20
23.5964871675
 10
35.4493275464
 20
23.6019495486
 10
35.3594133643
 20
23.6090216477
 10
35.2699213626
 20
23.6176966904
 10
35.180937268
 20
23.6279663666
 10
35.092546321
 20
23.6398208387
 10
35.0048331938
 20
23.6532487509
 10
34.9178819092
 20
23.6682372402
 10
34.8317757603
 20
23.6847719488
 10
34.7465972307
 20
23.7028370377
 10
34.6624279152
 20
23.7224152016
 10
34.5793484421
 20
23.7434876863
 10
34.4974383955
 20
23.7660343056
 10
34.4167762394
 20
23.7900334617
 10
34.3374392422
 20
23.815462165
 10
34.2595034033
 20
23.8422960566
 10
34.1830433794
 20
23.8705094317
 10
34.1081324139
 20
23.9000752637
 10
34.0348422661
 20
23.9309652308
 10
33.9632431426
 20
23.9631497426
 10
33.8934036303
 20
23.9965979687
 10
33.8253906305
 20
24.031277868
 10
33.7592692946
 20
24.0671562197
 10
33.6951029623
 20
24.1041986549
 10
33.6329531002
 20
24.1423696895
 10
33.5728792435
 20
24.1816327586
 10
33.5149389386
 20
24.2219502509
 10
33.4591876882
 20
24.2632835451
 10
33.4056788979
 20
24.3055930468
 10
33.3544638254
 20
24.3488382267
 10
33.3055915309
 20
24.3929776589
 10
33.2591088308
 20
24.4379690611
 10
33.2150602519
 20
24.4837693347
 10
33.1734879899
 20
24.5303346062
 10
33.1344318678
 20
24.5776202696
 10
33.0979292986
 20
24.6255810286
 10
33.0640152492
 20
24.6741709401
 10
33.0327222069
 20
24.7233434586
 10
33.004080148
 20
24.7730514803
 10
32.9781165097
 20
24.8232473885
 10
32.9548561632
 20
24.873883099
 10
32.9343213903
 20
24.9249101066
 10
32.9165318619
 20
24.9762795309
 10
32.9015046189
 20
25.0279421639
 10
32.8892540565
 20
25.0798485163
 10
32.8797919098
 20
25.1319488656
 10
32.8731272429
 20
25.1841933035
 10
32.8692664399
 20
25.2365317835
 10
32.8682131994
 20
25.288914169
 10
32.8699685302
 20
25.3412902816
 10
32.8745307509
 20
25.3936099487
 10
32.8818954911
 20
25.4458230517
 10
32.892055696
 20
25.4978795743
 10
32.9050016328
 20
25.54972965
 10
32.9207209003
 20
25.6013236102
 10
32.9391984405
 20
25.6526120317
 10
32.9604165532
 20
25.7035457836
 10
32.9843549131
 20
25.7540760753
 10
33.0109905889
 20
25.8041545022
 10
33.0402980655
 20
25.8537330929
 10
33.0722492685
 20
25.9027643546
 10
33.1068135909
 20
25.9512013189
 10
33.1439579226
 20
25.9989975866
 10
33.183646682
 20
26.0461073723
 10
33.22584185
 20
26.0924855483
 10
33.2705030067
 20
26.1380876876
 10
33.31758737
 20
26.1828701066
 10
33.3670498365
 20
26.226789907
 10
33.4188430245
 20
26.2698050166
 10
33.47291732
 20
26.3118742303
 10
33.5292209236
 20
26.3529572486
 10
33.5876999006
 20
26.393014717
 10
33.6482982323
 20
26.4320082632
 10
33.7109578698
 20
26.4699005344
 10
33.7756187897
 20
26.5066552323
 10
33.8422190514
 20
26.5422371487
 10
33.9106948568
 20
26.5766121986
 10
33.9809806108
 20
26.6097474532
 10
34.0530089848
 20
26.6416111712
 10
34.1267109807
 20
26.6721728296
 10
34.2020159974
 20
26.7014031524
 10
34.278851898
 20
26.7292741391
 10
34.3571450793
 20
26.7557590913
 10
34.3651355822
 20
26.7583575547
  0
ARC
  5
198
330
1F
100
AcDbEntity
  8
0
  6
Continuous
 62
     7
370
    25
100
AcDbCircle
 10
36.2271480236
 20
23.584880725
 30
0.0
 40
3.329713817544367
100
AcDbArc
 50
60.3703061582
 51
72.3786543362
  0
LWPOLYLINE
  5
199
330
1F
100
AcDbEntity
  8
0
  6
Continuous
 62
     7
370
    25
100
AcDbPolyline
 90
      106
 70
   128
 43
0.0
 10
38.7617325755
 20
24.6101154556
 10
38.7622842976
 20
24.5942286803
 10
38.7622842976
 20
24.5415562682
 10
38.7594745201
 20
24.4889088376
 10
38.7538576304
 20
24.4363363278
 10
38.7454389564
 20
24.3838886069
 10
38.7342264837
 20
24.3316154248
 10
38.7202308481
 20
24.2795663659
 10
38.7034653253
 20
24.2277908017
 10
38.6839458183
 20
24.1763378445
 10
38.6616908426
 20
24.1252563007
 10
38.6367215085
 20
24.074594624
 10
38.6090615007
 20
24.0244008703
 10
38.5787370566
 20
23.9747226512
 10
38.5457769407
 20
23.9256070897
 10
38.5102124176
 20
23.8771007747
 10
38.4720772225
 20
23.8292497176
 10
38.431407529
 20
23.7820993078
 10
38.3882419145
 20
23.7356942704
 10
38.3426213245
 20
23.6900786235
 10
38.2945890327
 20
23.6452956361
 10
38.2441906007
 20
23.6013877877
 10
38.1914738345
 20
23.5583967276
 10
38.1364887392
 20
23.5163632354
 10
38.0792874713
 20
23.4753271823
 10
38.0199242898
 20
23.4353274936
 10
37.9584555042
 20
23.3964021113
 10
37.8949394215
 20
23.3585879587
 10
37.8294362904
 20
23.3219209046
 10
37.7620082447
 20
23.28643573
 10
37.692719244
 20
23.2521660948
 10
37.621635013
 20
23.2191445057
 10
37.5488229794
 20
23.1874022858
 10
37.47435221
 20
23.1569695445
 10
37.3982933446
 20
23.127875149
 10
37.3207185298
 20
23.1001466971
 10
37.24170135
 20
23.0738104911
 10
37.1613167577
 20
23.0488915123
 10
37.0796410026
 20
23.0254133979
 10
36.9967515592
 20
23.0033984184
 10
36.912727053
 20
22.9828674563
 10
36.8276471864
 20
22.9638399864
 10
36.7415926628
 20
22.9463340574
 10
36.6546451101
 20
22.9303662748
 10
36.5668870034
 20
22.915951785
 10
36.4784015865
 20
22.903104261
 10
36.3892727932
 20
22.8918358895
 10
36.2995851676
 20
22.8821573592
 10
36.2094237838
 20
22.8740778507
 10
36.1188741653
 20
22.8676050281
 10
36.028022204
 20
22.862745031
 10
35.9369540785
 20
22.8595024696
 10
35.8457561723
 20
22.8578804196
 10
35.7545149922
 20
22.8578804196
 10
35.663317086
 20
22.8595024696
 10
35.5722489604
 20
22.862745031
 10
35.4813969991
 20
22.8676050281
 10
35.3908473807
 20
22.8740778507
 10
35.3006859969
 20
22.8821573592
 10
35.2109983713
 20
22.8918358895
 10
35.121869578
 20
22.903104261
 10
35.0333841611
 20
22.915951785
 10
34.9456260544
 20
22.9303662748
 10
34.8586785017
 20
22.9463340574
 10
34.7726239781
 20
22.9638399864
 10
34.6875441115
 20
22.9828674563
 10
34.6035196053
 20
23.0033984184
 10
34.5206301618
 20
23.0254133979
 10
34.4389544068
 20
23.0488915123
 10
34.3585698145
 20
23.0738104911
 10
34.2795526347
 20
23.1001466971
 10
34.2019778199
 20
23.127875149
 10
34.1259189545
 20
23.1569695445
 10
34.051448185
 20
23.1874022858
 10
33.9786361515
 20
23.2191445057
 10
33.9075519205
 20
23.2521660948
 10
33.8382629197
 20
23.28643573
 10
33.770834874
 20
23.3219209046
 10
33.705331743
 20
23.3585879587
 10
33.6418156602
 20
23.3964021113
 10
33.5803468747
 20
23.4353274936
 10
33.5209836932
 20
23.4753271823
 10
33.4637824253
 20
23.5163632354
 10
33.4087973299
 20
23.5583967276
 10
33.3560805637
 20
23.6013877877
 10
33.3056821318
 20
23.6452956361
 10
33.25764984
 20
23.6900786235
 10
33.21202925
 20
23.7356942704
 10
33.1688636355
 20
23.7820993078
 10
33.1281939419
 20
23.8292497176
 10
33.0900587468
 20
23.8771007747
 10
33.0544942238
 20
23.9256070897
 10
33.0215341079
 20
23.9747226512
 10
32.9912096638
 20
24.0244008703
 10
32.963549656
 20
24.074594624
 10
32.9385803219
 20
24.1252563007
 10
32.9163253462
 20
24.1763378445
 10
32.8968058392
 20
24.2277908017
 10
32.8800403164
 20
24.2795663659
 10
32.8660446808
 20
24.3316154248
 10
32.8548322081
 20
24.3838886069
 10
32.8464135341
 20
24.4363363278
 10
32.8407966444
 20
24.4889088376
 10
32.8379868669
 20
24.5415562682
 10
32.8379868669
 20
24.5942286803
 10
32.838538589
 20
24.6101154556
  0
LWPOLYLINE
  5
19A
330
1F
100
AcDbEntity
  8
0
  6
Continuous
 62
     7
370
    25
100
AcDbPolyline
 90
       68
 70
   128
 43
0.0
 10
38.258471533
 20
24.8837596065
 10
38.2357482476
 20
24.895701576
 10
38.2111877092
 20
24.906362695
 10
38.1850057566
 20
24.9156492732
 10
38.1574324777
 20
24.9234797
 10
38.1287101875
 20
24.9297851611
 10
38.0990912986
 20
24.9345102441
 10
38.0688361027
 20
24.9376134246
 10
38.0382104837
 20
24.9390674319
 10
38.0074835806
 20
24.9388594881
 10
37.9769254225
 20
24.9369914205
 10
37.9468045556
 20
24.9334796459
 10
37.9173856831
 20
24.9283550258
 10
37.8889273392
 20
24.9216625955
 10
37.8616796169
 20
24.9134611685
 10
37.83588197
 20
24.9038228191
 10
37.8117611093
 20
24.8928322495
 10
37.7895290097
 20
24.8805860452
 10
37.7693810477
 20
24.8671918262
 10
37.7514942843
 20
24.8527673016
 10
37.7360259091
 20
24.8374392345
 10
37.7231118587
 20
24.8213423285
 10
37.7128656222
 20
24.8046180438
 10
37.7053772439
 20
24.787413354
 10
37.700712532
 20
24.7698794546
 10
37.6989124801
 20
24.752170434
 10
37.6999929071
 20
24.7344419199
 10
37.7039443183
 20
24.716849711
 10
37.7107319884
 20
24.6995484083
 10
37.7202962671
 20
24.6826900562
 10
37.7325531034
 20
24.6664228066
 10
37.7473947835
 20
24.6508896166
 10
37.7646908784
 20
24.6362269926
 10
37.7842893893
 20
24.62256379
 10
37.8060180837
 20
24.6100200817
 10
37.8296860092
 20
24.5987061022
 10
37.8550851712
 20
24.5887212791
 10
37.8819923609
 20
24.5801533596
 10
37.9101711169
 20
24.5730776386
 10
37.9393738034
 20
24.567556298
 10
37.969343786
 20
24.5636378595
 10
37.9998176876
 20
24.5613567584
 10
38.0305277023
 20
24.5607330411
 10
38.0612039494
 20
24.561772189
 10
38.0915768451
 20
24.5644650698
 10
38.1213794711
 20
24.5687880186
 10
38.1503499209
 20
24.574703045
 10
38.1782336012
 20
24.5821581676
 10
38.2047854692
 20
24.5910878706
 10
38.2297721861
 20
24.6014136793
 10
38.2529741678
 20
24.6130448502
 10
38.2741875144
 20
24.6258791681
 10
38.2932258022
 20
24.6398038446
 10
38.3099217221
 20
24.6546965091
 10
38.3241285498
 20
24.6704262844
 10
38.3357214351
 20
24.6868549366
 10
38.3445984993
 20
24.7038380902
 10
38.3506817305
 20
24.7212264966
 10
38.3539176691
 20
24.7388673458
 10
38.3542778774
 20
24.7566056094
 10
38.35175919
 20
24.7742854029
 10
38.3463837412
 20
24.7917513557
 10
38.3381987706
 20
24.8088499763
 10
38.327276208
 20
24.8254310015
 10
38.3137120413
 20
24.8413487166
 10
38.2976254729
 20
24.8564632361
 10
38.2791578722
 20
24.8706417331
 10
38.258471533
 20
24.8837596065
  0
LWPOLYLINE
  5
19B
330
1F
100
AcDbEntity
  8
0
  6
Continuous
 62
     7
370
    25
100
AcDbPolyline
 90
       68
 70
   128
 43
0.0
 10
38.258471533
 20
25.9485865024
 10
38.2357482476
 20
25.9605284718
 10
38.2111877092
 20
25.9711895908
 10
38.1850057566
 20
25.9804761691
 10
38.1574324777
 20
25.9883065958
 10
38.1287101875
 20
25.994612057
 10
38.0990912986
 20
25.9993371399
 10
38.0688361027
 20
26.0024403205
 10
38.0382104837
 20
26.0038943278
 10
38.0074835806
 20
26.0036863839
 10
37.9769254225
 20
26.0018183164
 10
37.9468045556
 20
25.9983065417
 10
37.9173856831
 20
25.9931819216
 10
37.8889273392
 20
25.9864894914
 10
37.8616796169
 20
25.9782880644
 10
37.83588197
 20
25.9686497149
 10
37.8117611093
 20
25.9576591453
 10
37.7895290097
 20
25.945412941
 10
37.7693810477
 20
25.9320187221
 10
37.7514942843
 20
25.9175941975
 10
37.7360259091
 20
25.9022661303
 10
37.7231118587
 20
25.8861692243
 10
37.7128656222
 20
25.8694449396
 10
37.7053772439
 20
25.8522402498
 10
37.700712532
 20
25.8347063504
 10
37.6989124801
 20
25.8169973299
 10
37.6999929071
 20
25.7992688158
 10
37.7039443183
 20
25.7816766068
 10
37.7107319884
 20
25.7643753041
 10
37.7202962671
 20
25.7475169521
 10
37.7325531034
 20
25.7312497025
 10
37.7473947835
 20
25.7157165125
 10
37.7646908784
 20
25.7010538884
 10
37.7842893893
 20
25.6873906858
 10
37.8060180837
 20
25.6748469775
 10
37.8296860092
 20
25.663532998
 10
37.8550851712
 20
25.653548175
 10
37.8819923609
 20
25.6449802554
 10
37.9101711169
 20
25.6379045345
 10
37.9393738034
 20
25.6323831939
 10
37.969343786
 20
25.6284647553
 10
37.9998176876
 20
25.6261836542
 10
38.0305277023
 20
25.625559937
 10
38.0612039494
 20
25.6265990848
 10
38.0915768451
 20
25.6292919657
 10
38.1213794711
 20
25.6336149144
 10
38.1503499209
 20
25.6395299409
 10
38.1782336012
 20
25.6469850635
 10
38.2047854692
 20
25.6559147664
 10
38.2297721861
 20
25.6662405751
 10
38.2529741678
 20
25.677871746
 10
38.2741875144
 20
25.6907060639
 10
38.2932258022
 20
25.7046307404
 10
38.3099217221
 20
25.719523405
 10
38.3241285498
 20
25.7352531803
 10
38.3357214351
 20
25.7516818325
 10
38.3445984993
 20
25.7686649861
 10
38.3506817305
 20
25.7860533924
 10
38.3539176691
 20
25.8036942416
 10
38.3542778774
 20
25.8214325052
 10
38.35175919
 20
25.8391122987
 10
38.3463837412
 20
25.8565782515
 10
38.3381987706
 20
25.8736768722
 10
38.327276208
 20
25.8902578973
 10
38.3137120413
 20
25.9061756124
 10
38.2976254729
 20
25.9212901319
 10
38.2791578722
 20
25.935468629
 10
38.258471533
 20
25.9485865024
  0
LWPOLYLINE
  5
19C
330
1F
100
AcDbEntity
  8
0
  6
Continuous
 62
     7
370
    25
100
AcDbPolyline
 90
       68
 70
   128
 43
0.0
 10
33.8053721863
 20
25.9485865024
 10
33.7826489009
 20
25.9605284718
 10
33.7580883625
 20
25.9711895908
 10
33.7319064099
 20
25.9804761691
 10
33.704333131
 20
25.9883065958
 10
33.6756108408
 20
25.994612057
 10
33.6459919519
 20
25.9993371399
 10
33.615736756
 20
26.0024403205
 10
33.585111137
 20
26.0038943278
 10
33.5543842339
 20
26.0036863839
 10
33.5238260758
 20
26.0018183164
 10
33.4937052089
 20
25.9983065417
 10
33.4642863364
 20
25.9931819216
 10
33.4358279925
 20
25.9864894914
 10
33.4085802702
 20
25.9782880644
 10
33.3827826233
 20
25.9686497149
 10
33.3586617626
 20
25.9576591453
 10
33.336429663
 20
25.945412941
 10
33.316281701
 20
25.9320187221
 10
33.2983949376
 20
25.9175941975
 10
33.2829265624
 20
25.9022661303
 10
33.270012512
 20
25.8861692243
 10
33.2597662755
 20
25.8694449396
 10
33.2522778972
 20
25.8522402498
 10
33.2476131853
 20
25.8347063504
 10
33.2458131334
 20
25.8169973299
 10
33.2468935604
 20
25.7992688158
 10
33.2508449716
 20
25.7816766068
 10
33.2576326417
 20
25.7643753041
 10
33.2671969204
 20
25.7475169521
 10
33.2794537567
 20
25.7312497025
 10
33.2942954368
 20
25.7157165125
 10
33.3115915317
 20
25.7010538884
 10
33.3311900426
 20
25.6873906858
 10
33.352918737
 20
25.6748469775
 10
33.3765866625
 20
25.663532998
 10
33.4019858245
 20
25.653548175
 10
33.4288930142
 20
25.6449802554
 10
33.4570717702
 20
25.6379045345
 10
33.4862744567
 20
25.6323831939
 10
33.5162444393
 20
25.6284647553
 10
33.5467183409
 20
25.6261836542
 10
33.5774283556
 20
25.625559937
 10
33.6081046027
 20
25.6265990848
 10
33.6384774984
 20
25.6292919657
 10
33.6682801244
 20
25.6336149144
 10
33.6972505742
 20
25.6395299409
 10
33.7251342545
 20
25.6469850635
 10
33.7516861225
 20
25.6559147664
 10
33.7766728394
 20
25.6662405751
 10
33.7998748211
 20
25.677871746
 10
33.8210881677
 20
25.6907060639
 10
33.8401264555
 20
25.7046307404
 10
33.8568223754
 20
25.719523405
 10
33.8710292031
 20
25.7352531803
 10
33.8826220884
 20
25.7516818325
 10
33.8914991526
 20
25.7686649861
 10
33.8975823838
 20
25.7860533924
 10
33.9008183224
 20
25.8036942416
 10
33.9011785307
 20
25.8214325052
 10
33.8986598433
 20
25.8391122987
 10
33.8932843945
 20
25.8565782515
 10
33.8850994239
 20
25.8736768722
 10
33.8741768613
 20
25.8902578973
 10
33.8606126946
 20
25.9061756124
 10
33.8445261262
 20
25.9212901319
 10
33.8260585255
 20
25.935468629
 10
33.8053721863
 20
25.9485865024
  0
LWPOLYLINE
  5
19D
330
1F
100
AcDbEntity
  8
0
  6
Continuous
 62
     7
370
    25
100
AcDbPolyline
 90
       68
 70
   128
 43
0.0
 10
33.8053721863
 20
24.8837596065
 10
33.7826489009
 20
24.895701576
 10
33.7580883625
 20
24.906362695
 10
33.7319064099
 20
24.9156492732
 10
33.704333131
 20
24.9234797
 10
33.6756108408
 20
24.9297851611
 10
33.6459919519
 20
24.9345102441
 10
33.615736756
 20
24.9376134246
 10
33.585111137
 20
24.9390674319
 10
33.5543842339
 20
24.9388594881
 10
33.5238260758
 20
24.9369914205
 10
33.4937052089
 20
24.9334796459
 10
33.4642863364
 20
24.9283550258
 10
33.4358279925
 20
24.9216625955
 10
33.4085802702
 20
24.9134611685
 10
33.3827826233
 20
24.9038228191
 10
33.3586617626
 20
24.8928322495
 10
33.336429663
 20
24.8805860452
 10
33.316281701
 20
24.8671918262
 10
33.2983949376
 20
24.8527673016
 10
33.2829265624
 20
24.8374392345
 10
33.270012512
 20
24.8213423285
 10
33.2597662755
 20
24.8046180438
 10
33.2522778972
 20
24.787413354
 10
33.2476131853
 20
24.7698794546
 10
33.2458131334
 20
24.752170434
 10
33.2468935604
 20
24.7344419199
 10
33.2508449716
 20
24.716849711
 10
33.2576326417
 20
24.6995484083
 10
33.2671969204
 20
24.6826900562
 10
33.2794537567
 20
24.6664228066
 10
33.2942954368
 20
24.6508896166
 10
33.3115915317
 20
24.6362269926
 10
33.3311900426
 20
24.62256379
 10
33.352918737
 20
24.6100200817
 10
33.3765866625
 20
24.5987061022
 10
33.4019858245
 20
24.5887212791
 10
33.4288930142
 20
24.5801533596
 10
33.4570717702
 20
24.5730776386
 10
33.4862744567
 20
24.567556298
 10
33.5162444393
 20
24.5636378595
 10
33.5467183409
 20
24.5613567584
 10
33.5774283556
 20
24.5607330411
 10
33.6081046027
 20
24.561772189
 10
33.6384774984
 20
24.5644650698
 10
33.6682801244
 20
24.5687880186
 10
33.6972505742
 20
24.574703045
 10
33.7251342545
 20
24.5821581676
 10
33.7516861225
 20
24.5910878706
 10
33.7766728394
 20
24.6014136793
 10
33.7998748211
 20
24.6130448502
 10
33.8210881677
 20
24.6258791681
 10
33.8401264555
 20
24.6398038446
 10
33.8568223754
 20
24.6546965091
 10
33.8710292031
 20
24.6704262844
 10
33.8826220884
 20
24.6868549366
 10
33.8914991526
 20
24.7038380902
 10
33.8975823838
 20
24.7212264966
 10
33.9008183224
 20
24.7388673458
 10
33.9011785307
 20
24.7566056094
 10
33.8986598433
 20
24.7742854029
 10
33.8932843945
 20
24.7917513557
 10
33.8850994239
 20
24.8088499763
 10
33.8741768613
 20
24.8254310015
 10
33.8606126946
 20
24.8413487166
 10
33.8445261262
 20
24.8564632361
 10
33.8260585255
 20
24.8706417331
 10
33.8053721863
 20
24.8837596065
  0
LWPOLYLINE
  5
19E
330
1F
100
AcDbEntity
  8
0
  6
Continuous
 62
     7
370
    25
100
AcDbPolyline
 90
       68
 70
   128
 43
0.0
 10
35.1096547876
 20
24.1308132877
 10
35.0869315023
 20
24.1427552571
 10
35.0623709639
 20
24.1534163761
 10
35.0361890112
 20
24.1627029544
 10
35.0086157324
 20
24.1705333811
 10
34.9798934422
 20
24.1768388423
 10
34.9502745532
 20
24.1815639252
 10
34.9200193574
 20
24.1846671058
 10
34.8893937384
 20
24.1861211131
 10
34.8586668353
 20
24.1859131692
 10
34.8281086771
 20
24.1840451017
 10
34.7979878102
 20
24.180533327
 10
34.7685689378
 20
24.1754087069
 10
34.7401105939
 20
24.1687162767
 10
34.7128628715
 20
24.1605148496
 10
34.6870652247
 20
24.1508765002
 10
34.6629443639
 20
24.1398859306
 10
34.6407122643
 20
24.1276397263
 10
34.6205643023
 20
24.1142455074
 10
34.602677539
 20
24.0998209828
 10
34.5872091637
 20
24.0844929156
 10
34.5742951133
 20
24.0683960096
 10
34.5640488768
 20
24.0516717249
 10
34.5565604986
 20
24.0344670351
 10
34.5518957866
 20
24.0169331357
 10
34.5500957347
 20
23.9992241152
 10
34.5511761618
 20
23.9814956011
 10
34.5551275729
 20
23.9639033921
 10
34.561915243
 20
23.9466020894
 10
34.5714795218
 20
23.9297437374
 10
34.583736358
 20
23.9134764878
 10
34.5985780382
 20
23.8979432978
 10
34.615874133
 20
23.8832806737
 10
34.6354726439
 20
23.8696174711
 10
34.6572013384
 20
23.8570737628
 10
34.6808692639
 20
23.8457597833
 10
34.7062684258
 20
23.8357749603
 10
34.7331756155
 20
23.8272070407
 10
34.7613543715
 20
23.8201313198
 10
34.790557058
 20
23.8146099792
 10
34.8205270407
 20
23.8106915406
 10
34.8510009422
 20
23.8084104395
 10
34.8817109569
 20
23.8077867223
 10
34.9123872041
 20
23.8088258701
 10
34.9427600997
 20
23.811518751
 10
34.9725627257
 20
23.8158416997
 10
35.0015331755
 20
23.8217567262
 10
35.0294168558
 20
23.8292118488
 10
35.0559687238
 20
23.8381415517
 10
35.0809554408
 20
23.8484673604
 10
35.1041574224
 20
23.8600985313
 10
35.125370769
 20
23.8729328492
 10
35.1444090568
 20
23.8868575257
 10
35.1611049767
 20
23.9017501903
 10
35.1753118044
 20
23.9174799656
 10
35.1869046897
 20
23.9339086178
 10
35.195781754
 20
23.9508917714
 10
35.2018649852
 20
23.9682801777
 10
35.2051009237
 20
23.9859210269
 10
35.2054611321
 20
24.0036592905
 10
35.2029424447
 20
24.021339084
 10
35.1975669958
 20
24.0388050368
 10
35.1893820252
 20
24.0559036575
 10
35.1784594627
 20
24.0724846826
 10
35.164895296
 20
24.0884023977
 10
35.1488087276
 20
24.1035169172
 10
35.1303411268
 20
24.1176954143
 10
35.1096547876
 20
24.1308132877
  0
LWPOLYLINE
  5
19F
330
1F
100
AcDbEntity
  8
0
  6
Continuous
 62
     7
370
    25
100
AcDbPolyline
 90
       68
 70
   128
 43
0.0
 10
36.9541889316
 20
24.1308132877
 10
36.9314656463
 20
24.1427552571
 10
36.9069051079
 20
24.1534163761
 10
36.8807231552
 20
24.1627029544
 10
36.8531498763
 20
24.1705333811
 10
36.8244275862
 20
24.1768388423
 10
36.7948086972
 20
24.1815639252
 10
36.7645535014
 20
24.1846671058
 10
36.7339278824
 20
24.1861211131
 10
36.7032009793
 20
24.1859131692
 10
36.6726428211
 20
24.1840451017
 10
36.6425219542
 20
24.180533327
 10
36.6131030818
 20
24.1754087069
 10
36.5846447379
 20
24.1687162767
 10
36.5573970155
 20
24.1605148496
 10
36.5315993687
 20
24.1508765002
 10
36.5074785079
 20
24.1398859306
 10
36.4852464083
 20
24.1276397263
 10
36.4650984463
 20
24.1142455074
 10
36.447211683
 20
24.0998209828
 10
36.4317433077
 20
24.0844929156
 10
36.4188292573
 20
24.0683960096
 10
36.4085830208
 20
24.0516717249
 10
36.4010946426
 20
24.0344670351
 10
36.3964299306
 20
24.0169331357
 10
36.3946298787
 20
23.9992241152
 10
36.3957103058
 20
23.9814956011
 10
36.3996617169
 20
23.9639033921
 10
36.406449387
 20
23.9466020894
 10
36.4160136658
 20
23.9297437374
 10
36.428270502
 20
23.9134764878
 10
36.4431121822
 20
23.8979432978
 10
36.460408277
 20
23.8832806737
 10
36.4800067879
 20
23.8696174711
 10
36.5017354824
 20
23.8570737628
 10
36.5254034079
 20
23.8457597833
 10
36.5508025698
 20
23.8357749603
 10
36.5777097595
 20
23.8272070407
 10
36.6058885155
 20
23.8201313198
 10
36.635091202
 20
23.8146099792
 10
36.6650611847
 20
23.8106915406
 10
36.6955350862
 20
23.8084104395
 10
36.7262451009
 20
23.8077867223
 10
36.7569213481
 20
23.8088258701
 10
36.7872942437
 20
23.811518751
 10
36.8170968697
 20
23.8158416997
 10
36.8460673195
 20
23.8217567262
 10
36.8739509998
 20
23.8292118488
 10
36.9005028678
 20
23.8381415517
 10
36.9254895848
 20
23.8484673604
 10
36.9486915664
 20
23.8600985313
 10
36.969904913
 20
23.8729328492
 10
36.9889432008
 20
23.8868575257
 10
37.0056391207
 20
23.9017501903
 10
37.0198459484
 20
23.9174799656
 10
37.0314388337
 20
23.9339086178
 10
37.0403158979
 20
23.9508917714
 10
37.0463991292
 20
23.9682801777
 10
37.0496350677
 20
23.9859210269
 10
37.0499952761
 20
24.0036592905
 10
37.0474765887
 20
24.021339084
 10
37.0421011398
 20
24.0388050368
 10
37.0339161692
 20
24.0559036575
 10
37.0229936067
 20
24.0724846826
 10
37.00942944
 20
24.0884023977
 10
36.9933428716
 20
24.1035169172
 10
36.9748752708
 20
24.1176954143
 10
36.9541889316
 20
24.1308132877
  0
LWPOLYLINE
  5
1A0
330
1F
100
AcDbEntity
  8
0
  6
Continuous
 62
     7
370
    25
100
AcDbPolyline
 90
       68
 70
   128
 43
0.0
 10
37.7360492023
 20
24.4324012797
 10
37.7133259169
 20
24.4443432491
 10
37.6887653785
 20
24.4550043681
 10
37.6625834259
 20
24.4642909464
 10
37.635010147
 20
24.4721213731
 10
37.6062878568
 20
24.4784268343
 10
37.5766689679
 20
24.4831519173
 10
37.5464137721
 20
24.4862550978
 10
37.515788153
 20
24.4877091051
 10
37.4850612499
 20
24.4875011613
 10
37.4545030918
 20
24.4856330937
 10
37.4243822249
 20
24.4821213191
 10
37.3949633524
 20
24.4769966989
 10
37.3665050086
 20
24.4703042687
 10
37.3392572862
 20
24.4621028417
 10
37.3134596393
 20
24.4524644923
 10
37.2893387786
 20
24.4414739226
 10
37.267106679
 20
24.4292277183
 10
37.246958717
 20
24.4158334994
 10
37.2290719536
 20
24.4014089748
 10
37.2136035784
 20
24.3860809077
 10
37.200689528
 20
24.3699840016
 10
37.1904432915
 20
24.3532597169
 10
37.1829549132
 20
24.3360550272
 10
37.1782902013
 20
24.3185211277
 10
37.1764901494
 20
24.3008121072
 10
37.1775705764
 20
24.2830835931
 10
37.1815219876
 20
24.2654913842
 10
37.1883096577
 20
24.2481900815
 10
37.1978739365
 20
24.2313317294
 10
37.2101307727
 20
24.2150644798
 10
37.2249724528
 20
24.1995312898
 10
37.2422685477
 20
24.1848686657
 10
37.2618670586
 20
24.1712054632
 10
37.283595753
 20
24.1586617549
 10
37.3072636785
 20
24.1473477754
 10
37.3326628405
 20
24.1373629523
 10
37.3595700302
 20
24.1287950327
 10
37.3877487862
 20
24.1217193118
 10
37.4169514727
 20
24.1161979712
 10
37.4469214553
 20
24.1122795326
 10
37.4773953569
 20
24.1099984315
 10
37.5081053716
 20
24.1093747143
 10
37.5387816187
 20
24.1104138621
 10
37.5691545144
 20
24.113106743
 10
37.5989571404
 20
24.1174296918
 10
37.6279275902
 20
24.1233447182
 10
37.6558112705
 20
24.1307998408
 10
37.6823631385
 20
24.1397295438
 10
37.7073498554
 20
24.1500553525
 10
37.7305518371
 20
24.1616865233
 10
37.7517651837
 20
24.1745208413
 10
37.7708034715
 20
24.1884455178
 10
37.7874993914
 20
24.2033381823
 10
37.8017062191
 20
24.2190679576
 10
37.8132991044
 20
24.2354966098
 10
37.8221761686
 20
24.2524797634
 10
37.8282593998
 20
24.2698681697
 10
37.8314953384
 20
24.2875090189
 10
37.8318555467
 20
24.3052472825
 10
37.8293368593
 20
24.3229270761
 10
37.8239614105
 20
24.3403930289
 10
37.8157764399
 20
24.3574916495
 10
37.8048538773
 20
24.3740726747
 10
37.7912897106
 20
24.3899903897
 10
37.7752031422
 20
24.4051049093
 10
37.7567355415
 20
24.4192834063
 10
37.7360492023
 20
24.4324012797
  0
SPLINE
  5
1A1
330
1F
100
AcDbEntity
  8
0
  6
Continuous
 62
     7
370
    25
100
AcDbSpline
210
0.0
220
0.0
230
1.0
 70
     8
 71
     3
 72
    11
 73
     7
 74
     0
 42
0.00000001
 43
0.00000001
 40
0.0
 40
0.0
 40
0.0
 40
0.0
 40
0.2751448623877922
 40
0.5502967132256107
 40
0.8253011558644865
 40
1.0
 40
1.0
 40
1.0
 40
1.0
 10
34.31411675305154
 20
25.2280446705588
 30
0.0
 10
34.32076366741227
 20
25.22884063515851
 30
0.0
 10
34.33405766495979
 20
25.23043258457476
 30
0.0
 10
34.35058030547781
 20
25.23750880340363
 30
0.0
 10
34.3617567894278
 20
25.24581659987104
 30
0.0
 10
34.36423730505987
 20
25.25203617231069
 30
0.0
 10
34.36520092535469
 20
25.25445232569045
 30
0.0
  0
SPLINE
  5
1A2
330
1F
100
AcDbEntity
  8
0
  6
Continuous
 62
     7
370
    25
100
AcDbSpline
210
0.0
220
0.0
230
1.0
 70
     8
 71
     3
 72
    12
 73
     8
 74
     0
 42
0.00000001
 43
0.00000001
 40
0.0
 40
0.0
 40
0.0
 40
0.0
 40
0.2153556630049279
 40
0.4307190018308171
 40
0.6459085053177296
 40
0.8610016209991114
 40
0.9999999999999999
 40
0.9999999999999999
 40
0.9999999999999999
 40
0.9999999999999999
 10
34.26091983086405
 20
25.19005176440811
 30
0.0
 10
34.26088184557763
 20
25.19396410942842
 30
0.0
 10
34.26080587365089
 20
25.20178893891491
 30
0.0
 10
34.26923321810379
 20
25.21272697827489
 30
0.0
 10
34.28296815768021
 20
25.22141875378497
 30
0.0
 10
34.29891930647818
 20
25.22652028257276
 30
0.0
 10
34.30983270555555
 20
25.22761495688927
 30
0.0
 10
34.31411675305154
 20
25.2280446705588
 30
0.0
  0
ARC
  5
1A3
330
1F
100
AcDbEntity
  8
0
  6
Continuous
 62
     7
370
    25
100
AcDbCircle
 10
35.0065327728
 20
25.3685077267
 30
0.0
 40
0.7666715004708591
100
AcDbArc
 50
193.4600420757
 51
237.8600988819
  0
SPLINE
  5
1A4
330
1F
100
AcDbEntity
  8
0
  6
Continuous
 62
     7
370
    25
100
AcDbSpline
210
0.0
220
0.0
230
1.0
 70
     8
 71
     3
 72
    12
 73
     8
 74
     0
 42
0.00000001
 43
0.00000001
 40
0.0
 40
0.0
 40
0.0
 40
0.0
 40
0.1470065690835984
 40
0.3623569944915245
 40
0.5775335854840982
 40
0.7926138039313094
 40
1.0
 40
1.0
 40
1.0
 40
1.0
 10
34.68282499829571
 20
24.71417752892148
 30
0.0
 10
34.67905312202955
 20
24.71265619076576
 30
0.0
 10
34.66975581133168
 20
24.70890623914695
 30
0.0
 10
34.65190169279657
 20
24.70609528390612
 30
0.0
 10
34.63155713420772
 20
24.70678619165548
 30
0.0
 10
34.6125505196148
 20
24.71116849207461
 30
0.0
 10
34.60324195324932
 20
24.71664096660253
 30
0.0
 10
34.59867243457741
 20
24.71932737109868
 30
0.0
  0
SPLINE
  5
1A5
330
1F
100
AcDbEntity
  8
0
  6
Continuous
 62
     7
370
    25
100
AcDbSpline
210
0.0
220
0.0
230
1.0
 70
     8
 71
     3
 72
    12
 73
     8
 74
     0
 42
0.00000001
 43
0.00000001
 40
0.0
 40
0.0
 40
0.0
 40
0.0
 40
0.0815509966077665
 40
0.3567966809077544
 40
0.6318538186393511
 40
0.90682822103785
 40
0.9999999999999999
 40
0.9999999999999999
 40
0.9999999999999999
 40
0.9999999999999999
 10
34.75126188592219
 20
24.71642119765262
 30
0.0
 10
34.74967290431176
 20
24.71711938032935
 30
0.0
 10
34.74272089405796
 20
24.72017402432006
 30
0.0
 10
34.72697989267343
 20
24.72213210722061
 30
0.0
 10
34.70676395906295
 20
24.72161582907759
 30
0.0
 10
34.6918335157048
 20
24.71807125461694
 30
0.0
 10
34.68464443665495
 20
24.71496393955588
 30
0.0
 10
34.68282499829571
 20
24.71417752892148
 30
0.0
  0
SPLINE
  5
1A6
330
1F
100
AcDbEntity
  8
0
  6
Continuous
 62
     7
370
    25
100
AcDbSpline
210
0.0
220
0.0
230
1.0
 70
     8
 71
     3
 72
    11
 73
     7
 74
     0
 42
0.00000001
 43
0.00000001
 40
0.0
 40
0.0
 40
0.0
 40
0.0
 40
0.2751448623905615
 40
0.5502967132311124
 40
0.8253011558727685
 40
1.0
 40
1.0
 40
1.0
 40
1.0
 10
34.81589818400602
 20
24.63735601400282
 30
0.0
 10
34.8196233030243
 20
24.6406321433702
 30
0.0
 10
34.82707363567575
 20
24.64718448531592
 30
0.0
 10
34.83008940496777
 20
24.65893273650879
 30
0.0
 10
34.82781633884824
 20
24.66936952180669
 30
0.0
 10
34.82195211337549
 20
24.6747799801965
 30
0.0
 10
34.8196740036931
 20
24.6768818123483
 30
0.0
  0
SPLINE
  5
1A7
330
1F
100
AcDbEntity
  8
0
  6
Continuous
 62
     7
370
    25
100
AcDbSpline
210
0.0
220
0.0
230
1.0
 70
     8
 71
     3
 72
    12
 73
     8
 74
     0
 42
0.00000001
 43
0.00000001
 40
0.0
 40
0.0
 40
0.0
 40
0.0
 40
0.2153556630049444
 40
0.4307190018308193
 40
0.6459085053177258
 40
0.861001620999105
 40
1.0
 40
1.0
 40
1.0
 40
1.0
 10
34.82481893889027
 20
24.58877577302777
 30
0.0
 10
34.81999993549918
 20
24.59152671297398
 30
0.0
 10
34.81036175695549
 20
24.59702869091688
 30
0.0
 10
34.8029230300812
 20
24.60820312890744
 30
0.0
 10
34.8019887379602
 20
24.61995580035396
 30
0.0
 10
34.80701915515897
 20
24.63007444959
 30
0.0
 10
34.81339525161436
 20
24.63530339498955
 30
0.0
 10
34.81589818400602
 20
24.63735601400282
 30
0.0
  0
ARC
  5
1A8
330
1F
100
AcDbEntity
  8
0
  6
Continuous
 62
     7
370
    25
100
AcDbCircle
 10
35.7483367985
 20
26.6484181243
 30
0.0
 40
2.257213293468881
100
AcDbArc
 50
245.8491327488
 51
267.2547248817
  0
SPLINE
  5
1A9
330
1F
100
AcDbEntity
  8
0
  6
Continuous
 62
     7
370
    25
100
AcDbSpline
210
0.0
220
0.0
230
1.0
 70
     8
 71
     3
 72
    12
 73
     8
 74
     0
 42
0.00000001
 43
0.00000001
 40
0.0
 40
0.0
 40
0.0
 40
0.0
 40
0.1470065690835836
 40
0.3623569944915123
 40
0.5775335854840967
 40
0.7926138039313292
 40
0.9999999999999999
 40
0.9999999999999999
 40
0.9999999999999999
 40
0.9999999999999999
 10
35.70603863023329
 20
24.42450527467875
 30
0.0
 10
35.70523496396057
 20
24.42188983096212
 30
0.0
 10
35.70325400421864
 20
24.41544301480739
 30
0.0
 10
35.69407231200974
 20
24.40616724569424
 30
0.0
 10
35.67884025925276
 20
24.3983510599173
 30
0.0
 10
35.66003277161317
 20
24.39369123709488
 30
0.0
 10
35.64674750980504
 20
24.39376106639834
 30
0.0
 10
35.64022585550189
 20
24.39379534517914
 30
0.0
  0
SPLINE
  5
1AA
330
1F
100
AcDbEntity
  8
0
  6
Continuous
 62
     7
370
    25
100
AcDbSpline
210
0.0
220
0.0
230
1.0
 70
     8
 71
     3
 72
    12
 73
     8
 74
     0
 42
0.00000001
 43
0.00000001
 40
0.0
 40
0.0
 40
0.0
 40
0.0
 40
0.0815509966082315
 40
0.3567966809080559
 40
0.6318538186395235
 40
0.9068282210378912
 40
1.0
 40
1.0
 40
1.0
 40
1.0
 10
35.75168259801042
 20
24.45402800315637
 30
0.0
 10
35.74970383002444
 20
24.45387306412344
 30
0.0
 10
35.74104645146319
 20
24.45319518482104
 30
0.0
 10
35.72751747077838
 20
24.44815421790886
 30
0.0
 10
35.71385502456169
 20
24.43953692803913
 30
0.0
 10
35.70763927663793
 20
24.43093586786623
 30
0.0
 10
35.70636191067289
 20
24.42580405308885
 30
0.0
 10
35.70603863023329
 20
24.42450527467875
 30
0.0
  0
SPLINE
  5
1AB
330
1F
100
AcDbEntity
  8
0
  6
Continuous
 62
     7
370
    25
100
AcDbSpline
210
0.0
220
0.0
230
1.0
 70
     8
 71
     3
 72
    11
 73
     7
 74
     0
 42
0.00000001
 43
0.00000001
 40
0.0
 40
0.0
 40
0.0
 40
0.0
 40
0.2751448623877771
 40
0.5502967132255708
 40
0.8253011558644695
 40
1.0
 40
1.0
 40
1.0
 40
1.0
 10
35.89423253425301
 20
24.42450527467875
 30
0.0
 10
35.89285373372938
 20
24.42834245666247
 30
0.0
 10
35.89009609766174
 20
24.43601691809115
 30
0.0
 10
35.87783839897749
 20
24.44555523543341
 30
0.0
 10
35.86344731409297
 20
24.45200728228206
 30
0.0
 10
35.85267353126432
 20
24.4534392534761
 30
0.0
 10
35.8484881773599
 20
24.45399553963142
 30
0.0
  0
SPLINE
  5
1AC
330
1F
100
AcDbEntity
  8
0
  6
Continuous
 62
     7
370
    25
100
AcDbSpline
210
0.0
220
0.0
230
1.0
 70
     8
 71
     3
 72
    12
 73
     8
 74
     0
 42
0.00000001
 43
0.00000001
 40
0.0
 40
0.0
 40
0.0
 40
0.0
 40
0.2153556630049362
 40
0.4307190018308154
 40
0.6459085053177143
 40
0.8610016209991017
 40
1.0
 40
1.0
 40
1.0
 40
1.0
 10
35.96004530898442
 20
24.39379534517914
 30
0.0
 10
35.95326819431802
 20
24.39377341674004
 30
0.0
 10
35.93971372343171
 20
24.39372955908028
 30
0.0
 10
35.9207664305464
 20
24.39859456147844
 30
0.0
 10
35.90571020238125
 20
24.40652357332215
 30
0.0
 10
35.89687313781018
 20
24.41573197551686
 30
0.0
 10
35.89497690081501
 20
24.42203214670132
 30
0.0
 10
35.89423253425301
 20
24.42450527467875
 30
0.0
  0
ARC
  5
1AD
330
1F
100
AcDbEntity
  8
0
  6
Continuous
 62
     7
370
    25
100
AcDbCircle
 10
35.8498643246
 20
26.6570750244
 30
0.0
 40
2.265960007476543
100
AcDbArc
 50
272.7870728754
 51
294.1090694941
  0
SPLINE
  5
1AE
330
1F
100
AcDbEntity
  8
0
  6
Continuous
 62
     7
370
    25
100
AcDbSpline
210
0.0
220
0.0
230
1.0
 70
     8
 71
     3
 72
    12
 73
     8
 74
     0
 42
0.00000001
 43
0.00000001
 40
0.0
 40
0.0
 40
0.0
 40
0.0
 40
0.1470065690835922
 40
0.3623569944915095
 40
0.577533585484111
 40
0.7926138039313242
 40
1.0
 40
1.0
 40
1.0
 40
1.0
 10
36.78437298048028
 20
24.63735601400282
 30
0.0
 10
36.78700830100394
 20
24.63517855618286
 30
0.0
 10
36.79350411156825
 20
24.62981133296153
 30
0.0
 10
36.798373356456
 20
24.6195043697211
 30
0.0
 10
36.79717653945315
 20
24.60775970603996
 30
0.0
 10
36.78958534995199
 20
24.59678742098711
 30
0.0
 10
36.78010571888874
 20
24.59141370000719
 30
0.0
 10
36.77545222559603
 20
24.58877577302775
 30
0.0
  0
SPLINE
  5
1AF
330
1F
100
AcDbEntity
  8
0
  6
Continuous
 62
     7
370
    25
100
AcDbSpline
210
0.0
220
0.0
230
1.0
 70
     8
 71
     3
 72
    12
 73
     8
 74
     0
 42
0.00000001
 43
0.00000001
 40
0.0
 40
0.0
 40
0.0
 40
0.0
 40
0.0815509966200142
 40
0.3567966809163215
 40
0.6318538186442475
 40
0.906828221039098
 40
1.0
 40
1.0
 40
1.0
 40
1.0
 10
36.78048641112524
 20
24.67686378828344
 30
0.0
 10
36.77927699221292
 20
24.67594648872486
 30
0.0
 10
36.77398562029059
 20
24.67193317863091
 30
0.0
 10
36.77059375370546
 20
24.66284609195553
 30
0.0
 10
36.77148807058112
 20
24.65117568189386
 30
0.0
 10
36.7776281189252
 20
24.6425565204072
 30
0.0
 10
36.78301072970318
 20
24.6384063534105
 30
0.0
 10
36.78437298048028
 20
24.63735601400282
 30
0.0
  0
SPLINE
  5
1B0
330
1F
100
AcDbEntity
  8
0
  6
Continuous
 62
     7
370
    25
100
AcDbSpline
210
0.0
220
0.0
230
1.0
 70
     8
 71
     3
 72
    11
 73
     7
 74
     0
 42
0.00000001
 43
0.00000001
 40
0.0
 40
0.0
 40
0.0
 40
0.0
 40
0.2751448623878417
 40
0.5502967132257023
 40
0.825301155864686
 40
0.9999999999999999
 40
0.9999999999999999
 40
0.9999999999999999
 40
0.9999999999999999
 10
36.91744616619059
 20
24.71417752892147
 30
0.0
 10
36.911771128772
 20
24.71632799435677
 30
0.0
 10
36.90042090979359
 20
24.7206289798474
 30
0.0
 10
36.88007013677881
 20
24.72236994640218
 30
0.0
 10
36.86199113547749
 20
24.72105773326257
 30
0.0
 10
36.85261893115604
 20
24.71767238795617
 30
0.0
 10
36.84897805658361
 20
24.71635726322967
 30
0.0
  0
SPLINE
  5
1B1
330
1F
100
AcDbEntity
  8
0
  6
Continuous
 62
     7
370
    25
100
AcDbSpline
210
0.0
220
0.0
230
1.0
 70
     8
 71
     3
 72
    12
 73
     8
 74
     0
 42
0.00000001
 43
0.00000001
 40
0.0
 40
0.0
 40
0.0
 40
0.0
 40
0.2153556630049385
 40
0.4307190018308091
 40
0.6459085053177138
 40
0.8610016209990864
 40
1.0
 40
1.0
 40
1.0
 40
1.0
 10
37.0015987299089
 20
24.71932737109868
 30
0.0
 10
36.99683344582503
 20
24.71654541965649
 30
0.0
 10
36.98730270781049
 20
24.71098141761634
 30
0.0
 10
36.96794591611613
 20
24.70668713199825
 30
0.0
 10
36.94758748616778
 20
24.7061477766373
 30
0.0
 10
36.93005957240104
 20
24.70905177467281
 30
0.0
 10
36.92100179186961
 20
24.71273261680758
 30
0.0
 10
36.91744616619059
 20
24.71417752892147
 30
0.0
  0
ARC
  5
1B2
330
1F
100
AcDbEntity
  8
0
  6
Continuous
 62
     7
370
    25
100
AcDbCircle
 10
36.5887408697
 20
25.3720935322
 30
0.0
 40
0.772369907331213
100
AcDbArc
 50
302.3123037926
 51
346.3675552498
  0
SPLINE
  5
1B3
330
1F
100
AcDbEntity
  8
0
  6
Continuous
 62
     7
370
    25
100
AcDbSpline
210
0.0
220
0.0
230
1.0
 70
     8
 71
     3
 72
    12
 73
     8
 74
     0
 42
0.00000001
 43
0.00000001
 40
0.0
 40
0.0
 40
0.0
 40
0.0
 40
0.1470065690835812
 40
0.362356994491509
 40
0.5775335854840928
 40
0.792613803931315
 40
1.0
 40
1.0
 40
1.0
 40
1.0
 10
37.28615441143477
 20
25.22804467055881
 30
0.0
 10
37.29068498373324
 20
25.22758072389495
 30
0.0
 10
37.30185240687384
 20
25.22643714017779
 30
0.0
 10
37.3179202512415
 20
25.22113666208945
 30
0.0
 10
37.33145974916137
 20
25.21234338520301
 30
0.0
 10
37.33953167365389
 20
25.20148605369346
 30
0.0
 10
37.33941071264606
 20
25.1938166352998
 30
0.0
 10
37.33935133362225
 20
25.19005176440812
 30
0.0
  0
SPLINE
  5
1B4
330
1F
100
AcDbEntity
  8
0
  6
Continuous
 62
     7
370
    25
100
AcDbSpline
210
0.0
220
0.0
230
1.0
 70
     8
 71
     3
 72
    12
 73
     8
 74
     0
 42
0.00000001
 43
0.00000001
 40
0.0
 40
0.0
 40
0.0
 40
0.0
 40
0.0815509966078856
 40
0.3567966809078241
 40
0.6318538186393765
 40
0.9068282210378605
 40
1.0
 40
1.0
 40
1.0
 40
1.0
 10
37.23501400456388
 20
25.25439437228736
 30
0.0
 10
37.23528239592174
 20
25.25325205384399
 30
0.0
 10
37.23645664454719
 20
25.24825425558171
 30
0.0
 10
37.24518880150574
 20
25.24044414127533
 30
0.0
 10
37.26011600277701
 20
25.23255697895741
 30
0.0
 10
37.2750150903426
 20
25.2289687040596
 30
0.0
 10
37.28390461747083
 20
25.22823129638414
 30
0.0
 10
37.28615441143477
 20
25.22804467055881
 30
0.0
  0
SPLINE
  5
1B5
330
1F
100
AcDbEntity
  8
0
  6
Continuous
 62
     7
370
    25
100
AcDbSpline
210
0.0
220
0.0
230
1.0
 70
     8
 71
     3
 72
    11
 73
     7
 74
     0
 42
0.00000001
 43
0.00000001
 40
0.0
 40
0.0
 40
0.0
 40
0.0
 40
0.2760292367099981
 40
0.5520654843324051
 40
0.827953849954504
 40
1.0
 40
1.0
 40
1.0
 40
1.0
 10
37.28615441143476
 20
25.3366866988388
 30
0.0
 10
37.27950720752987
 20
25.33589080350588
 30
0.0
 10
37.26621263088665
 20
25.33429899262497
 30
0.0
 10
37.24969433289532
 20
25.32722173494637
 30
0.0
 10
37.23855282563349
 20
25.31895411024315
 30
0.0
 10
37.23608387563615
 20
25.31278031012431
 30
0.0
 10
37.23513558224316
 20
25.31040902926863
 30
0.0
  0
SPLINE
  5
1B6
330
1F
100
AcDbEntity
  8
0
  6
Continuous
 62
     7
370
    25
100
AcDbSpline
210
0.0
220
0.0
230
1.0
 70
     8
 71
     3
 72
    12
 73
     8
 74
     0
 42
0.00000001
 43
0.00000001
 40
0.0
 40
0.0
 40
0.0
 40
0.0
 40
0.2153556630049352
 40
0.4307190018308036
 40
0.6459085053177165
 40
0.8610016209990904
 40
0.9999999999999999
 40
0.9999999999999999
 40
0.9999999999999999
 40
0.9999999999999999
 10
37.33935133362225
 20
25.37467960498949
 30
0.0
 10
37.33938931890867
 20
25.37076725996918
 30
0.0
 10
37.33946529083541
 20
25.36294243048269
 30
0.0
 10
37.33103794638252
 20
25.35200439112272
 30
0.0
 10
37.31730300680609
 20
25.34331261561264
 30
0.0
 10
37.30135185800813
 20
25.33821108682484
 30
0.0
 10
37.29043845893075
 20
25.33711641250833
 30
0.0
 10
37.28615441143476
 20
25.3366866988388
 30
0.0
  0
ARC
  5
1B7
330
1F
100
AcDbEntity
  8
0
  6
Continuous
 62
     7
370
    25
100
AcDbCircle
 10
36.7386706867
 20
25.2595588076
 30
0.0
 40
0.6116126532212599
100
AcDbArc
 50
10.8492158672
 51
35.7346076251
  0
ARC
  5
1B8
330
1F
100
AcDbEntity
  8
0
  6
Continuous
 62
     7
370
    25
100
AcDbCircle
 10
34.8723050593
 20
25.2549504777
 30
0.0
 40
0.6229983639589244
100
AcDbArc
 50
144.4963324114
 51
168.9198440963
  0
SPLINE
  5
1B9
330
1F
100
AcDbEntity
  8
0
  6
Continuous
 62
     7
370
    25
100
AcDbSpline
210
0.0
220
0.0
230
1.0
 70
     8
 71
     3
 72
    12
 73
     8
 74
     0
 42
0.00000001
 43
0.00000001
 40
0.0
 40
0.0
 40
0.0
 40
0.0
 40
0.1470065690835884
 40
0.3623569944915146
 40
0.5775335854840964
 40
0.7926138039313052
 40
1.0
 40
1.0
 40
1.0
 40
1.0
 10
34.31411675305154
 20
25.3366866988388
 30
0.0
 10
34.30958618075306
 20
25.33715064550265
 30
0.0
 10
34.29841875761247
 20
25.33829422921981
 30
0.0
 10
34.2823509132448
 20
25.34359470730816
 30
0.0
 10
34.26881141532494
 20
25.3523879841946
 30
0.0
 10
34.26073949083241
 20
25.36324531570414
 30
0.0
 10
34.26086045184024
 20
25.37091473409781
 30
0.0
 10
34.26091983086405
 20
25.37467960498948
 30
0.0
  0
SPLINE
  5
1BA
330
1F
100
AcDbEntity
  8
0
  6
Continuous
 62
     7
370
    25
100
AcDbSpline
210
0.0
220
0.0
230
1.0
 70
     8
 71
     3
 72
    12
 73
     8
 74
     0
 42
0.00000001
 43
0.00000001
 40
0.0
 40
0.0
 40
0.0
 40
0.0
 40
0.0723668271803782
 40
0.3503648722422754
 40
0.628172485335921
 40
0.9058965357720539
 40
0.9999999999999999
 40
0.9999999999999999
 40
0.9999999999999999
 40
0.9999999999999999
 10
34.36513558224316
 20
25.31074931793496
 30
0.0
 10
34.36489441010067
 20
25.31175211484924
 30
0.0
 10
34.36372677224529
 20
25.31660716828253
 30
0.0
 10
34.3550632013443
 20
25.32428423111307
 30
0.0
 10
34.34016044215314
 20
25.33217521633724
 30
0.0
 10
34.32525570052248
 20
25.33576260690112
 30
0.0
 10
34.31636647155569
 20
25.33650006121103
 30
0.0
 10
34.31411675305154
 20
25.3366866988388
 30
0.0
  0
LWPOLYLINE
  5
1BB
330
1F
100
AcDbEntity
  8
0
  6
Continuous
 62
     7
370
    25
100
AcDbPolyline
 90
       68
 70
   128
 43
0.0
 10
36.0319218596
 20
24.0249096683
 10
36.0091985743
 20
24.0368516378
 10
35.9846380359
 20
24.0475127568
 10
35.9584560832
 20
24.056799335
 10
35.9308828043
 20
24.0646297618
 10
35.9021605142
 20
24.0709352229
 10
35.8725416252
 20
24.0756603059
 10
35.8422864294
 20
24.0787634864
 10
35.8116608104
 20
24.0802174937
 10
35.7809339073
 20
24.0800095499
 10
35.7503757491
 20
24.0781414823
 10
35.7202548822
 20
24.0746297077
 10
35.6908360098
 20
24.0695050876
 10
35.6623776659
 20
24.0628126573
 10
35.6351299435
 20
24.0546112303
 10
35.6093322967
 20
24.0449728809
 10
35.5852114359
 20
24.0339823113
 10
35.5629793363
 20
24.021736107
 10
35.5428313743
 20
24.008341888
 10
35.524944611
 20
23.9939173634
 10
35.5094762357
 20
23.9785892963
 10
35.4965621853
 20
23.9624923903
 10
35.4863159488
 20
23.9457681056
 10
35.4788275706
 20
23.9285634158
 10
35.4741628586
 20
23.9110295164
 10
35.4723628067
 20
23.8933204958
 10
35.4734432338
 20
23.8755919817
 10
35.4773946449
 20
23.8579997728
 10
35.484182315
 20
23.8406984701
 10
35.4937465938
 20
23.823840118
 10
35.50600343
 20
23.8075728684
 10
35.5208451102
 20
23.7920396784
 10
35.538141205
 20
23.7773770544
 10
35.5577397159
 20
23.7637138518
 10
35.5794684104
 20
23.7511701435
 10
35.6031363359
 20
23.739856164
 10
35.6285354978
 20
23.7298713409
 10
35.6554426875
 20
23.7213034214
 10
35.6836214435
 20
23.7142277004
 10
35.71282413
 20
23.7087063598
 10
35.7427941127
 20
23.7047879213
 10
35.7732680142
 20
23.7025068202
 10
35.8039780289
 20
23.7018831029
 10
35.8346542761
 20
23.7029222508
 10
35.8650271717
 20
23.7056151316
 10
35.8948297977
 20
23.7099380804
 10
35.9238002475
 20
23.7158531068
 10
35.9516839278
 20
23.7233082294
 10
35.9782357958
 20
23.7322379324
 10
36.0032225128
 20
23.7425637411
 10
36.0264244944
 20
23.754194912
 10
36.047637841
 20
23.7670292299
 10
36.0666761288
 20
23.7809539064
 10
36.0833720487
 20
23.7958465709
 10
36.0975788764
 20
23.8115763462
 10
36.1091717617
 20
23.8280049984
 10
36.1180488259
 20
23.844988152
 10
36.1241320572
 20
23.8623765584
 10
36.1273679957
 20
23.8800174076
 10
36.1277282041
 20
23.8977556712
 10
36.1252095167
 20
23.9154354647
 10
36.1198340678
 20
23.9329014175
 10
36.1116490972
 20
23.9500000381
 10
36.1007265347
 20
23.9665810633
 10
36.087162368
 20
23.9824987784
 10
36.0710757996
 20
23.9976132979
 10
36.0526081988
 20
24.0117917949
 10
36.0319218596
 20
24.0249096683
  0
LWPOLYLINE
  5
1BC
330
1F
100
AcDbEntity
  8
0
  6
Continuous
 62
     7
370
    25
100
AcDbPolyline
 90
       68
 70
   128
 43
0.0
 10
34.327794517
 20
24.4324012797
 10
34.3050712316
 20
24.4443432491
 10
34.2805106932
 20
24.4550043681
 10
34.2543287406
 20
24.4642909464
 10
34.2267554617
 20
24.4721213731
 10
34.1980331715
 20
24.4784268343
 10
34.1684142826
 20
24.4831519173
 10
34.1381590867
 20
24.4862550978
 10
34.1075334677
 20
24.4877091051
 10
34.0768065646
 20
24.4875011613
 10
34.0462484065
 20
24.4856330937
 10
34.0161275396
 20
24.4821213191
 10
33.9867086671
 20
24.4769966989
 10
33.9582503232
 20
24.4703042687
 10
33.9310026009
 20
24.4621028417
 10
33.905204954
 20
24.4524644923
 10
33.8810840933
 20
24.4414739226
 10
33.8588519937
 20
24.4292277183
 10
33.8387040317
 20
24.4158334994
 10
33.8208172683
 20
24.4014089748
 10
33.8053488931
 20
24.3860809077
 10
33.7924348427
 20
24.3699840016
 10
33.7821886062
 20
24.3532597169
 10
33.7747002279
 20
24.3360550272
 10
33.770035516
 20
24.3185211277
 10
33.7682354641
 20
24.3008121072
 10
33.7693158911
 20
24.2830835931
 10
33.7732673023
 20
24.2654913842
 10
33.7800549724
 20
24.2481900815
 10
33.7896192511
 20
24.2313317294
 10
33.8018760874
 20
24.2150644798
 10
33.8167177675
 20
24.1995312898
 10
33.8340138624
 20
24.1848686657
 10
33.8536123732
 20
24.1712054632
 10
33.8753410677
 20
24.1586617549
 10
33.8990089932
 20
24.1473477754
 10
33.9244081552
 20
24.1373629523
 10
33.9513153448
 20
24.1287950327
 10
33.9794941009
 20
24.1217193118
 10
34.0086967874
 20
24.1161979712
 10
34.03866677
 20
24.1122795326
 10
34.0691406716
 20
24.1099984315
 10
34.0998506863
 20
24.1093747143
 10
34.1305269334
 20
24.1104138621
 10
34.160899829
 20
24.113106743
 10
34.190702455
 20
24.1174296918
 10
34.2196729049
 20
24.1233447182
 10
34.2475565852
 20
24.1307998408
 10
34.2741084532
 20
24.1397295438
 10
34.2990951701
 20
24.1500553525
 10
34.3222971518
 20
24.1616865233
 10
34.3435104983
 20
24.1745208413
 10
34.3625487862
 20
24.1884455178
 10
34.3792447061
 20
24.2033381823
 10
34.3934515337
 20
24.2190679576
 10
34.405044419
 20
24.2354966098
 10
34.4139214833
 20
24.2524797634
 10
34.4200047145
 20
24.2698681697
 10
34.4232406531
 20
24.2875090189
 10
34.4236008614
 20
24.3052472825
 10
34.421082174
 20
24.3229270761
 10
34.4157067252
 20
24.3403930289
 10
34.4075217546
 20
24.3574916495
 10
34.396599192
 20
24.3740726747
 10
34.3830350253
 20
24.3899903897
 10
34.3669484569
 20
24.4051049093
 10
34.3484808562
 20
24.4192834063
 10
34.327794517
 20
24.4324012797
  0
LWPOLYLINE
  5
1BD
330
1F
100
AcDbEntity
  8
0
  6
Continuous
 62
     7
370
    25
100
AcDbPolyline
 90
       68
 70
   128
 43
0.0
 10
33.6219218596
 20
25.4161730545
 10
33.5991985743
 20
25.4281150239
 10
33.5746380359
 20
25.4387761429
 10
33.5484560832
 20
25.4480627211
 10
33.5208828043
 20
25.4558931479
 10
33.4921605142
 20
25.4621986091
 10
33.4625416252
 20
25.466923692
 10
33.4322864294
 20
25.4700268726
 10
33.4016608104
 20
25.4714808798
 10
33.3709339073
 20
25.471272936
 10
33.3403757491
 20
25.4694048684
 10
33.3102548822
 20
25.4658930938
 10
33.2808360098
 20
25.4607684737
 10
33.2523776659
 20
25.4540760435
 10
33.2251299435
 20
25.4458746164
 10
33.1993322967
 20
25.436236267
 10
33.1752114359
 20
25.4252456974
 10
33.1529793363
 20
25.4129994931
 10
33.1328313743
 20
25.3996052742
 10
33.114944611
 20
25.3851807495
 10
33.0994762357
 20
25.3698526824
 10
33.0865621853
 20
25.3537557764
 10
33.0763159488
 20
25.3370314917
 10
33.0688275706
 20
25.3198268019
 10
33.0641628586
 20
25.3022929025
 10
33.0623628067
 20
25.284583882
 10
33.0634432338
 20
25.2668553678
 10
33.0673946449
 20
25.2492631589
 10
33.074182315
 20
25.2319618562
 10
33.0837465938
 20
25.2151035041
 10
33.09600343
 20
25.1988362545
 10
33.1108451102
 20
25.1833030646
 10
33.128141205
 20
25.1686404405
 10
33.1477397159
 20
25.1549772379
 10
33.1694684104
 20
25.1424335296
 10
33.1931363359
 20
25.1311195501
 10
33.2185354978
 20
25.1211347271
 10
33.2454426875
 20
25.1125668075
 10
33.2736214435
 20
25.1054910865
 10
33.30282413
 20
25.0999697459
 10
33.3327941127
 20
25.0960513074
 10
33.3632680142
 20
25.0937702063
 10
33.3939780289
 20
25.093146489
 10
33.4246542761
 20
25.0941856369
 10
33.4550271717
 20
25.0968785178
 10
33.4848297977
 20
25.1012014665
 10
33.5138002475
 20
25.1071164929
 10
33.5416839278
 20
25.1145716156
 10
33.5682357958
 20
25.1235013185
 10
33.5932225128
 20
25.1338271272
 10
33.6164244944
 20
25.1454582981
 10
33.637637841
 20
25.158292616
 10
33.6566761288
 20
25.1722172925
 10
33.6733720487
 20
25.187109957
 10
33.6875788764
 20
25.2028397323
 10
33.6991717617
 20
25.2192683846
 10
33.7080488259
 20
25.2362515381
 10
33.7141320572
 20
25.2536399445
 10
33.7173679957
 20
25.2712807937
 10
33.7177282041
 20
25.2890190573
 10
33.7152095167
 20
25.3066988508
 10
33.7098340678
 20
25.3241648036
 10
33.7016490972
 20
25.3412634242
 10
33.6907265347
 20
25.3578444494
 10
33.677162368
 20
25.3737621645
 10
33.6610757996
 20
25.388876684
 10
33.6426081988
 20
25.4030551811
 10
33.6219218596
 20
25.4161730545
  0
LWPOLYLINE
  5
1BE
330
1F
100
AcDbEntity
  8
0
  6
Continuous
 62
     7
370
    25
100
AcDbPolyline
 90
       54
 70
   128
 43
0.0
 10
34.327794517
 20
26.3999448292
 10
34.3050712316
 20
26.4118867986
 10
34.2805106932
 20
26.4225479176
 10
34.2543287406
 20
26.4318344959
 10
34.2267554617
 20
26.4396649226
 10
34.1980331715
 20
26.4459703838
 10
34.1684142826
 20
26.4506954668
 10
34.1381590867
 20
26.4537986473
 10
34.1075334677
 20
26.4552526546
 10
34.0768065646
 20
26.4550447107
 10
34.0462484065
 20
26.4531766432
 10
34.0161275396
 20
26.4496648685
 10
33.9867086671
 20
26.4445402484
 10
33.9582503232
 20
26.4378478182
 10
33.9310026009
 20
26.4296463912
 10
33.905204954
 20
26.4200080418
 10
33.8810840933
 20
26.4090174721
 10
33.8588519937
 20
26.3967712678
 10
33.8387040317
 20
26.3833770489
 10
33.8208172683
 20
26.3689525243
 10
33.8053488931
 20
26.3536244571
 10
33.7924348427
 20
26.3375275511
 10
33.7821886062
 20
26.3208032664
 10
33.7747002279
 20
26.3035985767
 10
33.770035516
 20
26.2860646772
 10
33.7682354641
 20
26.2683556567
 10
33.7693158911
 20
26.2506271426
 10
33.7732673023
 20
26.2330349337
 10
33.7800549724
 20
26.2157336309
 10
33.7896192511
 20
26.1988752789
 10
33.8018760874
 20
26.1826080293
 10
33.8167177675
 20
26.1670748393
 10
33.8340138624
 20
26.1524122152
 10
33.8536123732
 20
26.1387490127
 10
33.8753410677
 20
26.1262053043
 10
33.8990089932
 20
26.1148913248
 10
33.9244081552
 20
26.1049065018
 10
33.9513153448
 20
26.0963385822
 10
33.9794941009
 20
26.0892628613
 10
34.0086967874
 20
26.0837415207
 10
34.03866677
 20
26.0798230821
 10
34.0691406716
 20
26.077541981
 10
34.0998506863
 20
26.0769182638
 10
34.1305269334
 20
26.0779574116
 10
34.160899829
 20
26.0806502925
 10
34.190702455
 20
26.0849732413
 10
34.2196729049
 20
26.0908882677
 10
34.2475565852
 20
26.0983433903
 10
34.2741084532
 20
26.1072730932
 10
34.2990951701
 20
26.1175989019
 10
34.3222971518
 20
26.1292300728
 10
34.3435104983
 20
26.1420643907
 10
34.3625487862
 20
26.1559890673
 10
34.3651355822
 20
26.1581056099
  0
LWPOLYLINE
  5
1BF
330
1F
100
AcDbEntity
  8
0
  6
Continuous
 62
     7
370
    25
100
AcDbPolyline
 90
        3
 70
   128
 43
0.0
 10
34.3651355822
 20
26.374169309
 10
34.3484808562
 20
26.3868269558
 10
34.327794517
 20
26.3999448292
  0
ARC
  5
1C0
330
1F
100
AcDbEntity
  8
0
  6
Continuous
 62
     7
370
    25
100
AcDbCircle
 10
37.5067818184
 20
25.9752682054
 30
0.0
 40
0.48261140489159
100
AcDbArc
 50
61.6370118106
 51
124.2543317972
  0
LWPOLYLINE
  5
1C1
330
1F
100
AcDbEntity
  8
0
  6
Continuous
 62
     7
370
    25
100
AcDbPolyline
 90
       38
 70
   128
 43
0.0
 10
37.2351355822
 20
26.1581056099
 10
37.2422685477
 20
26.1524122152
 10
37.2618670586
 20
26.1387490127
 10
37.283595753
 20
26.1262053043
 10
37.3072636785
 20
26.1148913248
 10
37.3326628405
 20
26.1049065018
 10
37.3595700302
 20
26.0963385822
 10
37.3877487862
 20
26.0892628613
 10
37.4169514727
 20
26.0837415207
 10
37.4469214553
 20
26.0798230821
 10
37.4773953569
 20
26.077541981
 10
37.5081053716
 20
26.0769182638
 10
37.5387816187
 20
26.0779574116
 10
37.5691545144
 20
26.0806502925
 10
37.5989571404
 20
26.0849732413
 10
37.6279275902
 20
26.0908882677
 10
37.6558112705
 20
26.0983433903
 10
37.6823631385
 20
26.1072730932
 10
37.7073498554
 20
26.1175989019
 10
37.7305518371
 20
26.1292300728
 10
37.7517651837
 20
26.1420643907
 10
37.7708034715
 20
26.1559890673
 10
37.7874993914
 20
26.1708817318
 10
37.8017062191
 20
26.1866115071
 10
37.8132991044
 20
26.2030401593
 10
37.8221761686
 20
26.2200233129
 10
37.8282593998
 20
26.2374117192
 10
37.8314953384
 20
26.2550525684
 10
37.8318555467
 20
26.272790832
 10
37.8293368593
 20
26.2904706256
 10
37.8239614105
 20
26.3079365783
 10
37.8157764399
 20
26.325035199
 10
37.8048538773
 20
26.3416162242
 10
37.7912897106
 20
26.3575339392
 10
37.7752031422
 20
26.3726484588
 10
37.7567355415
 20
26.3868269558
 10
37.7360492023
 20
26.3999448292
 10
37.7360492023
 20
26.3999448292
  0
LWPOLYLINE
  5
1C2
330
1F
100
AcDbEntity
  8
0
  6
Continuous
 62
     7
370
    25
100
AcDbPolyline
 90
       68
 70
   128
 43
0.0
 10
38.4419218596
 20
25.4161730545
 10
38.4191985743
 20
25.4281150239
 10
38.3946380359
 20
25.4387761429
 10
38.3684560832
 20
25.4480627211
 10
38.3408828043
 20
25.4558931479
 10
38.3121605142
 20
25.4621986091
 10
38.2825416252
 20
25.466923692
 10
38.2522864294
 20
25.4700268726
 10
38.2216608104
 20
25.4714808798
 10
38.1909339073
 20
25.471272936
 10
38.1603757491
 20
25.4694048684
 10
38.1302548822
 20
25.4658930938
 10
38.1008360098
 20
25.4607684737
 10
38.0723776659
 20
25.4540760435
 10
38.0451299435
 20
25.4458746164
 10
38.0193322967
 20
25.436236267
 10
37.9952114359
 20
25.4252456974
 10
37.9729793363
 20
25.4129994931
 10
37.9528313743
 20
25.3996052742
 10
37.934944611
 20
25.3851807495
 10
37.9194762357
 20
25.3698526824
 10
37.9065621853
 20
25.3537557764
 10
37.8963159488
 20
25.3370314917
 10
37.8888275706
 20
25.3198268019
 10
37.8841628586
 20
25.3022929025
 10
37.8823628067
 20
25.284583882
 10
37.8834432338
 20
25.2668553678
 10
37.8873946449
 20
25.2492631589
 10
37.894182315
 20
25.2319618562
 10
37.9037465938
 20
25.2151035041
 10
37.91600343
 20
25.1988362545
 10
37.9308451102
 20
25.1833030646
 10
37.948141205
 20
25.1686404405
 10
37.9677397159
 20
25.1549772379
 10
37.9894684104
 20
25.1424335296
 10
38.0131363359
 20
25.1311195501
 10
38.0385354978
 20
25.1211347271
 10
38.0654426875
 20
25.1125668075
 10
38.0936214435
 20
25.1054910865
 10
38.12282413
 20
25.0999697459
 10
38.1527941127
 20
25.0960513074
 10
38.1832680142
 20
25.0937702063
 10
38.2139780289
 20
25.093146489
 10
38.2446542761
 20
25.0941856369
 10
38.2750271717
 20
25.0968785178
 10
38.3048297977
 20
25.1012014665
 10
38.3338002475
 20
25.1071164929
 10
38.3616839278
 20
25.1145716156
 10
38.3882357958
 20
25.1235013185
 10
38.4132225128
 20
25.1338271272
 10
38.4364244944
 20
25.1454582981
 10
38.457637841
 20
25.158292616
 10
38.4766761288
 20
25.1722172925
 10
38.4933720487
 20
25.187109957
 10
38.5075788764
 20
25.2028397323
 10
38.5191717617
 20
25.2192683846
 10
38.5280488259
 20
25.2362515381
 10
38.5341320572
 20
25.2536399445
 10
38.5373679957
 20
25.2712807937
 10
38.5377282041
 20
25.2890190573
 10
38.5352095167
 20
25.3066988508
 10
38.5298340678
 20
25.3241648036
 10
38.5216490972
 20
25.3412634242
 10
38.5107265347
 20
25.3578444494
 10
38.497162368
 20
25.3737621645
 10
38.4810757996
 20
25.388876684
 10
38.4626081988
 20
25.4030551811
 10
38.4419218596
 20
25.4161730545
  0
ARC
  5
1C3
330
1F
100
AcDbEntity
  8
0
  6
Continuous
 62
     7
370
    25
100
AcDbCircle
 10
35.8001355822
 20
23.1809047731
 30
0.0
 40
0.5329807002248123
100
AcDbArc
 50
81.2744696903
 51
98.7255303097
  0
ARC
  5
1C4
330
1F
100
AcDbEntity
  8
0
  6
Continuous
 62
     7
370
    25
100
AcDbCircle
 10
36.7224026542
 20
23.2868083924
 30
0.0
 40
0.5329807002243044
100
AcDbArc
 50
81.2744696903
 51
98.7255303097
  0
ARC
  5
1C5
330
1F
100
AcDbEntity
  8
0
  6
Continuous
 62
     7
370
    25
100
AcDbCircle
 10
34.8778685102
 20
23.2868083924
 30
0.0
 40
0.5329807002248831
100
AcDbArc
 50
81.2744696903
 51
98.7255303097
  0
ARC
  5
1C6
330
1F
100
AcDbEntity
  8
0
  6
Continuous
 62
     7
370
    25
100
AcDbCircle
 10
37.5042629249
 20
23.5883963844
 30
0.0
 40
0.5329807002245016
100
AcDbArc
 50
81.2744696903
 51
98.7255303097
  0
ARC
  5
1C7
330
1F
100
AcDbEntity
  8
0
  6
Continuous
 62
     7
370
    25
100
AcDbCircle
 10
34.0960082396
 20
23.5883963844
 30
0.0
 40
0.532980700224185
100
AcDbArc
 50
81.2744696903
 51
98.7255303097
  0
ARC
  5
1C8
330
1F
100
AcDbEntity
  8
0
  6
Continuous
 62
     7
370
    25
100
AcDbCircle
 10
38.0266852556
 20
24.0397547113
 30
0.0
 40
0.5329807002238935
100
AcDbArc
 50
81.2744696903
 51
98.7255303097
  0
ARC
  5
1C9
330
1F
100
AcDbEntity
  8
0
  6
Continuous
 62
     7
370
    25
100
AcDbCircle
 10
33.5735859089
 20
24.0397547113
 30
0.0
 40
0.5329807002250889
100
AcDbArc
 50
81.2744696903
 51
98.7255303097
  0
ARC
  5
1CA
330
1F
100
AcDbEntity
  8
0
  6
Continuous
 62
     7
370
    25
100
AcDbCircle
 10
38.2101355822
 20
24.5721681592
 30
0.0
 40
0.532980700224558
100
AcDbArc
 50
81.2744696903
 51
98.7255303097
  0
ARC
  5
1CB
330
1F
100
AcDbEntity
  8
0
  6
Continuous
 62
     7
370
    25
100
AcDbCircle
 10
33.3901355822
 20
24.5721681592
 30
0.0
 40
0.5329807002247288
100
AcDbArc
 50
81.2744696903
 51
98.7255303097
  0
ARC
  5
1CC
330
1F
100
AcDbEntity
  8
0
  6
Continuous
 62
     7
370
    25
100
AcDbCircle
 10
38.0266852556
 20
25.1045816071
 30
0.0
 40
0.5329807002246739
100
AcDbArc
 50
81.2744696903
 51
98.7255303097
  0
ARC
  5
1CD
330
1F
100
AcDbEntity
  8
0
  6
Continuous
 62
     7
370
    25
100
AcDbCircle
 10
33.5735859089
 20
25.1045816071
 30
0.0
 40
0.5329807002246884
100
AcDbArc
 50
81.2744696903
 51
98.7255303097
  0
ARC
  5
1CE
330
1F
100
AcDbEntity
  8
0
  6
Continuous
 62
     7
370
    25
100
AcDbCircle
 10
37.5042629249
 20
25.5559399339
 30
0.0
 40
0.5329807002245254
100
AcDbArc
 50
81.2744696903
 51
98.7255303097
  0
ARC
  5
1CF
330
1F
100
AcDbEntity
  8
0
  6
Continuous
 62
     7
370
    25
100
AcDbCircle
 10
34.0960082396
 20
25.5559399339
 30
0.0
 40
0.5329807002244343
100
AcDbArc
 50
81.2744696903
 51
98.7255303097
  0
LWPOLYLINE
  5
1D0
330
1F
100
AcDbEntity
  8
0
  6
Continuous
 62
     7
370
    25
100
AcDbPolyline
 90
       30
 70
   128
 43
0.0
 10
34.7339183651
 20
27.4804622836
 10
34.7244853643
 20
27.4833273698
 10
34.7157532814
 20
27.4835065072
 10
34.7081304189
 20
27.4809913196
 10
34.7019732134
 20
27.4758994142
 10
34.6975695689
 20
27.468468883
 10
34.695125395
 20
27.4590471692
 10
34.6947549785
 20
27.4480748219
 10
34.6964756397
 20
27.4360648958
 10
34.7002069224
 20
27.4235789615
 10
34.705774356
 20
27.4112008477
 10
34.7129176134
 20
27.399509341
 10
34.7213026839
 20
27.3890511234
 10
34.7305374909
 20
27.3803152095
 10
34.7401902251
 20
27.373710081
 10
34.7498095353
 20
27.3695445862
 10
34.7589456333
 20
27.3680134991
 10
34.7671713254
 20
27.3691884116
 10
34.7741019873
 20
27.3730143862
 10
34.7794135489
 20
27.3793125244
 10
34.7828576475
 20
27.3877883324
 10
34.784273241
 20
27.3980454908
 10
34.7835941377
 20
27.4096043863
 10
34.7808520917
 20
27.4219245378
 10
34.7761753181
 20
27.4344298686
 10
34.7697824977
 20
27.4465356434
 10
34.7619725515
 20
27.4576758097
 10
34.753110664
 20
27.4673294656
 10
34.7436112072
 20
27.4750452169
 10
34.7339183651
 20
27.4804622836
  0
LINE
  5
1D1
330
1F
100
AcDbEntity
  8
0
  6
Continuous
 62
     7
370
    25
100
AcDbLine
 10
34.7140845289
 20
27.4183513008
 30
0.0
 11
34.7434226062
 21
27.3871182243
 31
0.0
  0
LINE
  5
1D2
330
1F
100
AcDbEntity
  8
0
  6
Continuous
 62
     7
370
    25
100
AcDbLine
 10
34.7688134877
 20
27.3946517644
 30
0.0
 11
34.7434226062
 21
27.3871182243
 31
0.0
  0
LINE
  5
1D3
330
1F
100
AcDbEntity
  8
0
  6
Continuous
 62
     7
370
    25
100
AcDbLine
 10
34.764866292
 20
27.4334183811
 30
0.0
 11
34.7688134877
 21
27.3946517644
 31
0.0
  0
LINE
  5
1D4
330
1F
100
AcDbEntity
  8
0
  6
Continuous
 62
     7
370
    25
100
AcDbLine
 10
34.764866292
 20
27.4334183811
 30
0.0
 11
34.7355282148
 21
27.4646514576
 31
0.0
  0
LINE
  5
1D5
330
1F
100
AcDbEntity
  8
0
  6
Continuous
 62
     7
370
    25
100
AcDbLine
 10
34.7101373332
 20
27.4571179175
 30
0.0
 11
34.7355282148
 21
27.4646514576
 31
0.0
  0
LINE
  5
1D6
330
1F
100
AcDbEntity
  8
0
  6
Continuous
 62
     7
370
    25
100
AcDbLine
 10
34.7101373332
 20
27.4571179175
 30
0.0
 11
34.7140845289
 21
27.4183513008
 31
0.0
  0
LINE
  5
1D7
330
1F
100
AcDbEntity
  8
0
  6
Continuous
 62
     7
370
    25
100
AcDbLine
 10
34.7681283659
 20
27.4013805558
 30
0.0
 11
34.7434226062
 21
27.3871182243
 31
0.0
  0
LINE
  5
1D8
330
1F
100
AcDbEntity
  8
0
  6
Continuous
 62
     7
370
    25
100
AcDbLine
 10
34.7561880623
 20
27.4426571533
 30
0.0
 11
34.7140845289
 21
27.4183513008
 31
0.0
  0
LWPOLYLINE
  5
1D9
330
1F
100
AcDbEntity
  8
0
  6
Continuous
 62
     7
370
    25
100
AcDbPolyline
 90
       30
 70
   128
 43
0.0
 10
37.2469903019
 20
27.8610585433
 10
37.243537584
 20
27.851039307
 10
37.2403414198
 20
27.8392914898
 10
37.2375512585
 20
27.8263644065
 10
37.2352975648
 20
27.8128625133
 10
37.2336857191
 20
27.7994171436
 10
37.2327910894
 20
27.786656988
 10
37.2326555075
 20
27.7751786972
 10
37.2332853132
 20
27.7655189833
 10
37.2346510575
 20
27.7581295238
 10
37.2366888796
 20
27.7533558416
 10
37.2393034933
 20
27.7514211487
 10
37.2423726421
 20
27.7524159094
 10
37.2457528161
 20
27.7562936095
 10
37.249285962
 20
27.7628729323
 10
37.2528068739
 20
27.7718462359
 10
37.2561509179
 20
27.7827939386
 10
37.2591617301
 20
27.7952041379
 10
37.2616985284
 20
27.8084965468
 10
37.2636426949
 20
27.822049627
 10
37.2649033225
 20
27.8352296515
 10
37.2654214657
 20
27.847420337
 10
37.2651728966
 20
27.8580516607
 10
37.2641692381
 20
27.8666265136
 10
37.2624574202
 20
27.8727439451
 10
37.2601174855
 20
27.8761179109
 10
37.2572588468
 20
27.8765906483
 10
37.2540151708
 20
27.8741400524
 10
37.2505381283
 20
27.8688807104
 10
37.2469903019
 20
27.8610585433
  0
LINE
  5
1DA
330
1F
100
AcDbEntity
  8
0
  6
Continuous
 62
     7
370
    25
100
AcDbLine
 10
37.239730614
 20
27.771856972
 30
0.0
 11
37.2504690956
 21
27.7806961119
 31
0.0
  0
LINE
  5
1DB
330
1F
100
AcDbEntity
  8
0
  6
Continuous
 62
     7
370
    25
100
AcDbLine
 10
37.2597628033
 20
27.8229104832
 30
0.0
 11
37.2504690956
 21
27.7806961119
 31
0.0
  0
LINE
  5
1DC
330
1F
100
AcDbEntity
  8
0
  6
Continuous
 62
     7
370
    25
100
AcDbLine
 10
37.2583180294
 20
27.8562857145
 30
0.0
 11
37.2597628033
 21
27.8229104832
 31
0.0
  0
LINE
  5
1DD
330
1F
100
AcDbEntity
  8
0
  6
Continuous
 62
     7
370
    25
100
AcDbLine
 10
37.2583180294
 20
27.8562857145
 30
0.0
 11
37.2475795478
 21
27.8474465745
 31
0.0
  0
LINE
  5
1DE
330
1F
100
AcDbEntity
  8
0
  6
Continuous
 62
     7
370
    25
100
AcDbLine
 10
37.2382858401
 20
27.8052322033
 30
0.0
 11
37.2475795478
 21
27.8474465745
 31
0.0
  0
LINE
  5
1DF
330
1F
100
AcDbEntity
  8
0
  6
Continuous
 62
     7
370
    25
100
AcDbLine
 10
37.2382858401
 20
27.8052322033
 30
0.0
 11
37.239730614
 21
27.771856972
 31
0.0
  0
LINE
  5
1E0
330
1F
100
AcDbEntity
  8
0
  6
Continuous
 62
     7
370
    25
100
AcDbLine
 10
37.2392730083
 20
27.782427965
 30
0.0
 11
37.2504690956
 21
27.7806961119
 31
0.0
  0
LINE
  5
1E1
330
1F
100
AcDbEntity
  8
0
  6
Continuous
 62
     7
370
    25
100
AcDbLine
 10
37.2427569281
 20
27.8255410162
 30
0.0
 11
37.2597628033
 21
27.8229104832
 31
0.0
  0
LINE
  5
1E2
330
1F
100
AcDbEntity
  8
0
  6
Continuous
 62
     7
370
    25
100
AcDbLine
 10
35.5133574669
 20
13.2114037655
 30
0.0
 11
35.5319465366
 21
13.1713542268
 31
0.0
  0
LINE
  5
1E3
330
1F
100
AcDbEntity
  8
0
  6
Continuous
 62
     7
370
    25
100
AcDbLine
 10
35.5319465366
 20
13.1713542268
 30
0.0
 11
35.4811602536
 21
13.1420359297
 31
0.0
  0
LINE
  5
1E4
330
1F
100
AcDbEntity
  8
0
  6
Continuous
 62
     7
370
    25
100
AcDbLine
 10
35.1744845291
 20
12.9649958024
 30
0.0
 11
35.1236982461
 21
12.9356775053
 31
0.0
  0
LINE
  5
1E5
330
1F
100
AcDbEntity
  8
0
  6
Continuous
 62
     7
370
    25
100
AcDbLine
 10
35.1236982461
 20
12.9356775053
 30
0.0
 11
35.0543228934
 21
12.9464087468
 31
0.0
  0
LINE
  5
1E6
330
1F
100
AcDbEntity
  8
0
  6
Continuous
 62
     7
370
    25
100
AcDbLine
 10
34.635396063
 20
13.0112099309
 30
0.0
 11
34.5660207103
 21
13.0219411725
 31
0.0
  0
LINE
  5
1E7
330
1F
100
AcDbEntity
  8
0
  6
Continuous
 62
     7
370
    25
100
AcDbLine
 10
34.5660207103
 20
13.0219411725
 30
0.0
 11
34.5474316406
 21
13.0619907111
 31
0.0
  0
LINE
  5
1E8
330
1F
100
AcDbEntity
  8
0
  6
Continuous
 62
     7
370
    25
100
AcDbLine
 10
34.4292690008
 20
13.3165682277
 30
0.0
 11
34.4165914649
 21
13.3438815612
 31
0.0
  0
LINE
  5
1E9
330
1F
100
AcDbEntity
  8
0
  6
Continuous
 62
     7
370
    25
100
AcDbLine
 10
34.4165914649
 20
13.3438815612
 30
0.0
 11
34.4292690008
 21
13.3512001468
 31
0.0
  0
LINE
  5
1EA
330
1F
100
AcDbEntity
  8
0
  6
Continuous
 62
     7
370
    25
100
AcDbLine
 10
34.5660207103
 20
13.0219411725
 30
0.0
 11
34.5660207103
 21
12.919873571
 31
0.0
  0
LINE
  5
1EB
330
1F
100
AcDbEntity
  8
0
  6
Continuous
 62
     7
370
    25
100
AcDbLine
 10
35.1236982461
 20
12.9356775053
 30
0.0
 11
35.1236982461
 21
12.8336099038
 31
0.0
  0
LINE
  5
1EC
330
1F
100
AcDbEntity
  8
0
  6
Continuous
 62
     7
370
    25
100
AcDbLine
 10
35.1236982461
 20
12.8336099038
 30
0.0
 11
34.5660207103
 21
12.919873571
 31
0.0
  0
LINE
  5
1ED
330
1F
100
AcDbEntity
  8
0
  6
Continuous
 62
     7
370
    25
100
AcDbLine
 10
35.5319465366
 20
13.1713542268
 30
0.0
 11
35.5319465366
 21
13.0692866254
 31
0.0
  0
LINE
  5
1EE
330
1F
100
AcDbEntity
  8
0
  6
Continuous
 62
     7
370
    25
100
AcDbLine
 10
35.5319465366
 20
13.0692866254
 30
0.0
 11
35.1236982461
 21
12.8336099038
 31
0.0
  0
LINE
  5
1EF
330
1F
100
AcDbEntity
  8
0
  6
Continuous
 62
     7
370
    25
100
AcDbLine
 10
34.4165914649
 20
13.3438815612
 30
0.0
 11
34.4165914649
 21
13.2418139597
 31
0.0
  0
LINE
  5
1F0
330
1F
100
AcDbEntity
  8
0
  6
Continuous
 62
     7
370
    25
100
AcDbLine
 10
34.5660207103
 20
12.919873571
 30
0.0
 11
34.4165914649
 21
13.2418139597
 31
0.0
  0
LWPOLYLINE
  5
1F1
330
1F
100
AcDbEntity
  8
0
  6
Continuous
 62
     7
370
    25
100
AcDbPolyline
 90
       46
 70
   128
 43
0.0
 10
36.9497118802
 20
13.0363515877
 10
36.9496896724
 20
13.0335113575
 10
36.9479140285
 20
13.0108172832
 10
36.9433063801
 20
12.9882563329
 10
36.9358907493
 20
12.965946129
 10
36.9257057979
 20
12.9440029865
 10
36.9128046255
 20
12.9225413069
 10
36.8972544927
 20
12.9016729814
 10
36.8791364708
 20
12.8815068078
 10
36.8585450188
 20
12.8621479232
 10
36.8355874909
 20
12.8436972559
 10
36.8103835771
 20
12.826250999
 10
36.783064679
 20
12.8099001093
 10
36.7537732245
 20
12.7947298327
 10
36.7226619258
 20
12.7808192601
 10
36.6898929828
 20
12.7682409148
 10
36.6556372375
 20
12.7570603743
 10
36.6200732837
 20
12.7473359289
 10
36.5833865352
 20
12.7391182773
 10
36.5457682597
 20
12.7324502626
 10
36.5074145817
 20
12.7273666487
 10
36.4685254593
 20
12.7238939391
 10
36.4293036424
 20
12.7220502391
 10
36.3899536155
 20
12.7218451608
 10
36.3506805314
 20
12.7232797733
 10
36.3116891416
 20
12.7263465974
 10
36.2731827294
 20
12.7310296439
 10
36.2353620493
 20
12.7373044976
 10
36.1984242807
 20
12.7451384444
 10
36.1625620002
 20
12.7544906417
 10
36.127962177
 20
12.7653123315
 10
36.0948051987
 20
12.7775470944
 10
36.0632639302
 20
12.7911311441
 10
36.0335028133
 20
12.8059936597
 10
36.0056770086
 20
12.8220571548
 10
35.9799315869
 20
12.8392378819
 10
35.956400773
 20
12.8574462686
 10
35.9352072457
 20
12.8765873848
 10
35.916461498
 20
12.8965614375
 10
35.9002612618
 20
12.9172642914
 10
35.8866909976
 20
12.9385880113
 10
35.8758214544
 20
12.9604214252
 10
35.8677093009
 20
12.9826507038
 10
35.8623968303
 20
13.005159954
 10
35.8599117392
 20
13.0278318229
 10
35.8597118802
 20
13.0363515877
  0
LWPOLYLINE
  5
1F2
330
1F
100
AcDbEntity
  8
0
  6
Continuous
 62
     7
370
    25
100
AcDbPolyline
 90
       27
 70
   128
 43
0.0
 10
35.1153253803
 20
12.9537165689
 10
35.0769717023
 20
12.948632955
 10
35.0380825799
 20
12.9451602454
 10
34.998860763
 20
12.9433165454
 10
34.9595107361
 20
12.9431114671
 10
34.920237652
 20
12.9445460796
 10
34.8812462622
 20
12.9476129037
 10
34.84273985
 20
12.9522959502
 10
34.8049191699
 20
12.9585708039
 10
34.7679814013
 20
12.9664047507
 10
34.7321191208
 20
12.975756948
 10
34.6975192976
 20
12.9865786378
 10
34.6643623193
 20
12.9988134007
 10
34.6328210509
 20
13.0123974504
 10
34.6030599339
 20
13.027259966
 10
34.5752341292
 20
13.0433234611
 10
34.5494887076
 20
13.0605041882
 10
34.5259578936
 20
13.0787125749
 10
34.5047643663
 20
13.0978536911
 10
34.4860186187
 20
13.1178277438
 10
34.4698183825
 20
13.1385305977
 10
34.4562481182
 20
13.1598543176
 10
34.445378575
 20
13.1816877315
 10
34.4372664215
 20
13.2039170101
 10
34.4319539509
 20
13.2264262603
 10
34.4294688598
 20
13.2490981292
 10
34.4292690008
 20
13.257617894
  0
LWPOLYLINE
  5
1F3
330
1F
100
AcDbEntity
  8
0
  6
Continuous
 62
     7
370
    25
100
AcDbPolyline
 90
       19
 70
   128
 43
0.0
 10
35.5179026044
 20
13.2353529541
 10
35.5174711491
 20
13.2320835895
 10
35.5128635007
 20
13.2095226392
 10
35.5054478699
 20
13.1872124353
 10
35.4952629185
 20
13.1652692928
 10
35.4823617461
 20
13.1438076132
 10
35.4668116133
 20
13.1229392877
 10
35.4486935914
 20
13.1027731141
 10
35.4281021394
 20
13.0834142295
 10
35.4051446115
 20
13.0649635622
 10
35.3799406977
 20
13.0475173053
 10
35.3526217996
 20
13.0311664156
 10
35.3233303451
 20
13.015996139
 10
35.2922190464
 20
13.0020855664
 10
35.2594501034
 20
12.9895072211
 10
35.2251943581
 20
12.9783266806
 10
35.1896304043
 20
12.9686022352
 10
35.1529436558
 20
12.9603845836
 10
35.1153253803
 20
12.9537165689
  0
LWPOLYLINE
  5
1F4
330
1F
100
AcDbEntity
  8
0
  6
Continuous
 62
     7
370
    25
100
AcDbPolyline
 90
      103
 70
   128
 43
0.0
 10
34.3651355822
 20
16.1277920805
 10
34.3534012615
 20
16.1154927874
 10
34.322282417
 20
16.0805928167
 10
34.2936884599
 20
16.0449802754
 10
34.2676682424
 20
16.0087160069
 10
34.2442662196
 20
15.9718619682
 10
34.2235223736
 20
15.9344811237
 10
34.2054721448
 20
15.896637338
 10
34.1901463717
 20
15.8583952666
 10
34.1775712381
 20
15.8198202453
 10
34.1677682286
 20
15.7809781791
 10
34.1607540912
 20
15.7419354288
 10
34.1565408097
 20
15.7027586984
 10
34.1551355822
 20
15.6635149207
 10
34.1565408097
 20
15.624271143
 10
34.1607540912
 20
15.5850944126
 10
34.1677682286
 20
15.5460516623
 10
34.1775712381
 20
15.507209596
 10
34.1901463717
 20
15.4686345748
 10
34.2054721448
 20
15.4303925033
 10
34.2235223736
 20
15.3925487176
 10
34.2442662196
 20
15.3551678732
 10
34.2676682424
 20
15.3183138344
 10
34.2936884599
 20
15.282049566
 10
34.322282417
 20
15.2464370247
 10
34.3534012615
 20
15.211537054
 10
34.3869918273
 20
15.1774092798
 10
34.4229967255
 20
15.1441120091
 10
34.4613544423
 20
15.1117021295
 10
34.5019994443
 20
15.0802350127
 10
34.5448622901
 20
15.04976442
 10
34.5898697492
 20
15.0203424096
 10
34.6369449272
 20
14.9920192487
 10
34.6860073969
 20
14.9648433269
 10
34.736973336
 20
14.9388610738
 10
34.7897556699
 20
14.9141168796
 10
34.8442642209
 20
14.8906530194
 10
34.9004058621
 20
14.8685095809
 10
34.9580846765
 20
14.8477243955
 10
35.0172021207
 20
14.8283329747
 10
35.0776571936
 20
14.8103684481
 10
35.1393466087
 20
14.793861508
 10
35.2021649707
 20
14.7788403562
 10
35.2660049554
 20
14.765330656
 10
35.3307574934
 20
14.7533554886
 10
35.3963119559
 20
14.7429353133
 10
35.4625563443
 20
14.7340879328
 10
35.5293774812
 20
14.7268284628
 10
35.5966612038
 20
14.7211693058
 10
35.6642925589
 20
14.7171201305
 10
35.7321559996
 20
14.7146878548
 10
35.8001355822
 20
14.7138766343
 10
35.8681151649
 20
14.7146878548
 10
35.9359786055
 20
14.7171201305
 10
36.0036099607
 20
14.7211693058
 10
36.0708936833
 20
14.7268284628
 10
36.1377148202
 20
14.7340879328
 10
36.2039592086
 20
14.7429353133
 10
36.2695136711
 20
14.7533554886
 10
36.3342662091
 20
14.765330656
 10
36.3981061938
 20
14.7788403562
 10
36.4609245558
 20
14.793861508
 10
36.5226139709
 20
14.8103684481
 10
36.5830690438
 20
14.8283329747
 10
36.642186488
 20
14.8477243955
 10
36.6998653024
 20
14.8685095809
 10
36.7560069436
 20
14.8906530194
 10
36.8105154946
 20
14.9141168796
 10
36.8632978285
 20
14.9388610738
 10
36.9142637676
 20
14.9648433269
 10
36.9633262373
 20
14.9920192487
 10
37.0104014153
 20
15.0203424096
 10
37.0554088744
 20
15.04976442
 10
37.0982717202
 20
15.0802350127
 10
37.1389167222
 20
15.1117021295
 10
37.177274439
 20
15.1441120091
 10
37.2132793372
 20
15.1774092798
 10
37.246869903
 20
15.211537054
 10
37.2779887475
 20
15.2464370247
 10
37.3065827046
 20
15.282049566
 10
37.3326029221
 20
15.3183138344
 10
37.3560049448
 20
15.3551678732
 10
37.3767487909
 20
15.3925487176
 10
37.3947990197
 20
15.4303925033
 10
37.4101247928
 20
15.4686345748
 10
37.4226999263
 20
15.507209596
 10
37.4325029359
 20
15.5460516623
 10
37.4395170732
 20
15.5850944126
 10
37.4437303548
 20
15.624271143
 10
37.4451355822
 20
15.6635149207
 10
37.4437303548
 20
15.7027586984
 10
37.4395170732
 20
15.7419354288
 10
37.4325029359
 20
15.7809781791
 10
37.4226999263
 20
15.8198202453
 10
37.4101247928
 20
15.8583952666
 10
37.3947990197
 20
15.896637338
 10
37.3767487909
 20
15.9344811237
 10
37.3560049448
 20
15.9718619682
 10
37.3326029221
 20
16.0087160069
 10
37.3065827046
 20
16.0449802754
 10
37.2779887475
 20
16.0805928167
 10
37.246869903
 20
16.1154927874
 10
37.2351355822
 20
16.1277920805
  0
LINE
  5
1F5
330
1F
100
AcDbEntity
  8
0
  6
Continuous
 62
     7
370
    25
100
AcDbLine
 10
34.3626355822
 20
15.614522472
 30
0.0
 11
34.3626367665
 21
15.6134572435
 31
0.0
  0
LINE
  5
1F6
330
1F
100
AcDbEntity
  8
0
  6
Continuous
 62
     7
370
    25
100
AcDbLine
 10
37.2376320747
 20
15.6126892672
 30
0.0
 11
37.2376355822
 21
15.614522472
 31
0.0
  0
ARC
  5
1F7
330
1F
100
AcDbEntity
  8
0
  6
Continuous
 62
     7
370
    25
100
AcDbCircle
 10
36.8876790953
 20
26.7234326136
 30
0.0
 40
0.1544195120410074
100
AcDbArc
 50
76.0446070876
 51
83.8640765805
  0
ARC
  5
1F8
330
1F
100
AcDbEntity
  8
0
  6
Continuous
 62
     7
370
    25
100
AcDbCircle
 10
36.6932686672
 20
26.8760867196
 30
0.0
 40
0.2109177798738003
100
AcDbArc
 50
342.1739830339
 51
0.2392578451
  0
ARC
  5
1F9
330
1F
100
AcDbEntity
  8
0
  6
Continuous
 62
     7
370
    25
100
AcDbCircle
 10
37.0532387821
 20
27.5356434977
 30
0.0
 40
0.7414135855563527
100
AcDbArc
 50
253.3703330788
 51
257.6023178166
  0
ARC
  5
1FA
330
1F
100
AcDbEntity
  8
0
  6
Continuous
 62
     7
370
    25
100
AcDbCircle
 10
36.3332070418
 20
27.0230544395
 30
0.0
 40
0.5450163912168228
100
AcDbArc
 50
335.087490331
 51
338.7184276085
  0
ARC
  5
1FB
330
1F
100
AcDbEntity
  8
0
  6
Continuous
 62
     7
370
    25
100
AcDbCircle
 10
36.9784513252
 20
27.1656669596
 30
0.0
 40
0.4016339556107568
100
AcDbArc
 50
247.9252328895
 51
255.6824559308
  0
ARC
  5
1FC
330
1F
100
AcDbEntity
  8
0
  6
Continuous
 62
     7
370
    25
100
AcDbCircle
 10
36.7284750468
 20
26.8568569116
 30
0.0
 40
0.1707413094352689
100
AcDbArc
 50
311.1139254629
 51
331.9273885689
  0
ARC
  5
1FD
330
1F
100
AcDbEntity
  8
0
  6
Continuous
 62
     7
370
    25
100
AcDbCircle
 10
36.8633422705
 20
26.7954054105
 30
0.0
 40
0.0708832421372254
100
AcDbArc
 50
251.411960419
 51
268.4967232493
  0
ARC
  5
1FE
330
1F
100
AcDbEntity
  8
0
  6
Continuous
 62
     7
370
    25
100
AcDbCircle
 10
36.7622484058
 20
26.8495039071
 30
0.0
 40
0.1595674929425188
100
AcDbArc
 50
308.4546861947
 51
331.1292565608
  0
ARC
  5
1FF
330
1F
100
AcDbEntity
  8
0
  6
Continuous
 62
     7
370
    25
100
AcDbCircle
 10
36.9086133502
 20
26.8021415043
 30
0.0
 40
0.030413834366927
100
AcDbArc
 50
257.4090086675
 51
301.7325126974
  0
ARC
  5
200
330
1F
100
AcDbEntity
  8
0
  6
Continuous
 62
     7
370
    25
100
AcDbCircle
 10
36.790561173
 20
26.8522135902
 30
0.0
 40
0.1540642397130223
100
AcDbArc
 50
330.4681277296
 51
343.3377902104
  0
ARC
  5
201
330
1F
100
AcDbEntity
  8
0
  6
Continuous
 62
     7
370
    25
100
AcDbCircle
 10
36.9264667488
 20
26.8476862705
 30
0.0
 40
0.0413347457325333
100
AcDbArc
 50
256.6389749622
 51
286.4278522052
  0
ARC
  5
202
330
1F
100
AcDbEntity
  8
0
  6
Continuous
 62
     7
370
    25
100
AcDbCircle
 10
36.7371980864
 20
26.8627249
 30
0.0
 40
0.1880191166238291
100
AcDbArc
 50
342.9097629651
 51
3.2225354243
  0
LWPOLYLINE
  5
203
330
1F
100
AcDbEntity
  8
0
  6
Continuous
 62
     7
370
    25
100
AcDbPolyline
 90
       28
 70
   128
 43
0.0
 10
36.9047605082
 20
26.9635615516
 10
36.9017640786
 20
26.9666050678
 10
36.8919444794
 20
26.9738935923
 10
36.8806884544
 20
26.9786881653
 10
36.8682056821
 20
26.9808994729
 10
36.8547286928
 20
26.9804863227
 10
36.8405085373
 20
26.9774564109
 10
36.8258101104
 20
26.971866179
 10
36.8109072158
 20
26.9638197625
 10
36.7960774663
 20
26.9534670508
 10
36.781597112
 20
26.9410008954
 10
36.7677358946
 20
26.9266535172
 10
36.7547520223
 20
26.9106921808
 10
36.7428873601
 20
26.8934142155
 10
36.7323629242
 20
26.8751414772
 10
36.7233747649
 20
26.8562143525
 10
36.7160903146
 20
26.8369854178
 10
36.7106452689
 20
26.8178128719
 10
36.7071410586
 20
26.7990538629
 10
36.7056429606
 20
26.7810578358
 10
36.7061788816
 20
26.7641600224
 10
36.7087388383
 20
26.7486751971
 10
36.7132751438
 20
26.7348918129
 10
36.719703295
 20
26.7230666281
 10
36.7279035479
 20
26.7134199235
 10
36.7377231471
 20
26.706131399
 10
36.7489791721
 20
26.7013368261
 10
36.7528136448
 20
26.7003533449
  0
LINE
  5
204
330
1F
100
AcDbEntity
  8
0
  6
Continuous
 62
     7
370
    25
100
AcDbLine
 10
36.8348960821
 20
26.8100978569
 30
0.0
 11
36.8791289688
 21
26.7765077328
 31
0.0
  0
LINE
  5
205
330
1F
100
AcDbEntity
  8
0
  6
Continuous
 62
     7
370
    25
100
AcDbLine
 10
36.9249198943
 20
26.8732942451
 30
0.0
 11
36.9040252708
 21
26.8676287011
 31
0.0
  0
LINE
  5
206
330
1F
100
AcDbEntity
  8
0
  6
Continuous
 62
     7
370
    25
100
AcDbLine
 10
36.8956439757
 20
26.8166773701
 30
0.0
 11
36.9169148624
 21
26.80747032
 31
0.0
  0
LINE
  5
207
330
1F
100
AcDbEntity
  8
0
  6
Continuous
 62
     7
370
    25
100
AcDbLine
 10
36.8614827111
 20
26.7245465646
 30
0.0
 11
36.8545249027
 21
26.7416237473
 31
0.0
  0
LINE
  5
208
330
1F
100
AcDbEntity
  8
0
  6
Continuous
 62
     7
370
    25
100
AcDbLine
 10
36.9019834447
 20
26.7724590908
 30
0.0
 11
36.8374901633
 21
26.8163191354
 31
0.0
  0
LINE
  5
209
330
1F
100
AcDbEntity
  8
0
  6
Continuous
 62
     7
370
    25
100
AcDbLine
 10
36.924609639
 20
26.7762741491
 30
0.0
 11
36.8386293219
 21
26.8191200369
 31
0.0
  0
LINE
  5
20A
330
1F
100
AcDbEntity
  8
0
  6
Continuous
 62
     7
370
    25
100
AcDbLine
 10
35.0379072411
 20
26.85078252
 30
0.0
 11
35.0813637991
 21
26.825695583
 31
0.0
  0
LINE
  5
20B
330
1F
100
AcDbEntity
  8
0
  6
Continuous
 62
     7
370
    25
100
AcDbLine
 10
35.0379072411
 20
26.8842372061
 30
0.0
 11
35.0379072411
 21
26.85078252
 31
0.0
  0
LINE
  5
20C
330
1F
100
AcDbEntity
  8
0
  6
Continuous
 62
     7
370
    25
100
AcDbLine
 10
35.0780209869
 20
26.8610800335
 30
0.0
 11
35.0379072411
 21
26.8842372061
 31
0.0
  0
LINE
  5
20D
330
1F
100
AcDbEntity
  8
0
  6
Continuous
 62
     7
370
    25
100
AcDbLine
 10
35.0780209869
 20
26.8726605018
 30
0.0
 11
35.0780209869
 21
26.8610800335
 31
0.0
  0
LINE
  5
20E
330
1F
100
AcDbEntity
  8
0
  6
Continuous
 62
     7
370
    25
100
AcDbLine
 10
35.0379072411
 20
26.8958176744
 30
0.0
 11
35.0780209869
 21
26.8726605018
 31
0.0
  0
LINE
  5
20F
330
1F
100
AcDbEntity
  8
0
  6
Continuous
 62
     7
370
    25
100
AcDbLine
 10
35.0379072411
 20
26.9266989231
 30
0.0
 11
35.0379072411
 21
26.8958176744
 31
0.0
  0
LINE
  5
210
330
1F
100
AcDbEntity
  8
0
  6
Continuous
 62
     7
370
    25
100
AcDbLine
 10
35.0802495284
 20
26.902255241
 30
0.0
 11
35.0379072411
 21
26.9266989231
 31
0.0
  0
LINE
  5
211
330
1F
100
AcDbEntity
  8
0
  6
Continuous
 62
     7
370
    25
100
AcDbLine
 10
35.0802495284
 20
26.9138357093
 30
0.0
 11
35.0802495284
 21
26.902255241
 31
0.0
  0
LINE
  5
212
330
1F
100
AcDbEntity
  8
0
  6
Continuous
 62
     7
370
    25
100
AcDbLine
 10
35.0289930754
 20
26.9434254298
 30
0.0
 11
35.0802495284
 21
26.9138357093
 31
0.0
  0
LINE
  5
213
330
1F
100
AcDbEntity
  8
0
  6
Continuous
 62
     7
370
    25
100
AcDbLine
 10
35.0289930754
 20
26.84434809
 30
0.0
 11
35.0289930754
 21
26.9434254298
 31
0.0
  0
LINE
  5
214
330
1F
100
AcDbEntity
  8
0
  6
Continuous
 62
     7
370
    25
100
AcDbLine
 10
35.0813637991
 20
26.8141151147
 30
0.0
 11
35.0289930754
 21
26.84434809
 31
0.0
  0
LINE
  5
215
330
1F
100
AcDbEntity
  8
0
  6
Continuous
 62
     7
370
    25
100
AcDbLine
 10
35.0813637991
 20
26.825695583
 30
0.0
 11
35.0813637991
 21
26.8141151147
 31
0.0
  0
LINE
  5
216
330
1F
100
AcDbEntity
  8
0
  6
Continuous
 62
     7
370
    25
100
AcDbLine
 10
34.9308850207
 20
26.9305791945
 30
0.0
 11
34.9009041742
 21
26.9478867688
 31
0.0
  0
LINE
  5
217
330
1F
100
AcDbEntity
  8
0
  6
Continuous
 62
     7
370
    25
100
AcDbLine
 10
34.9383889376
 20
26.8966527454
 30
0.0
 11
34.9308850207
 21
26.9305791945
 31
0.0
  0
LINE
  5
218
330
1F
100
AcDbEntity
  8
0
  6
Continuous
 62
     7
370
    25
100
AcDbLine
 10
34.947651313
 20
26.89130569
 30
0.0
 11
34.9383889376
 21
26.8966527454
 31
0.0
  0
LINE
  5
219
330
1F
100
AcDbEntity
  8
0
  6
Continuous
 62
     7
370
    25
100
AcDbLine
 10
34.920229807
 20
27.0062131281
 30
0.0
 11
34.947651313
 21
26.89130569
 31
0.0
  0
LINE
  5
21A
330
1F
100
AcDbEntity
  8
0
  6
Continuous
 62
     7
370
    25
100
AcDbLine
 10
34.9115419775
 20
27.0112285053
 30
0.0
 11
34.920229807
 21
27.0062131281
 31
0.0
  0
LINE
  5
21B
330
1F
100
AcDbEntity
  8
0
  6
Continuous
 62
     7
370
    25
100
AcDbLine
 10
34.884137882
 20
26.9279712132
 30
0.0
 11
34.9115419775
 21
27.0112285053
 31
0.0
  0
LINE
  5
21C
330
1F
100
AcDbEntity
  8
0
  6
Continuous
 62
     7
370
    25
100
AcDbLine
 10
34.8934176679
 20
26.9226141068
 30
0.0
 11
34.884137882
 21
26.9279712132
 31
0.0
  0
LINE
  5
21D
330
1F
100
AcDbEntity
  8
0
  6
Continuous
 62
     7
370
    25
100
AcDbLine
 10
34.9009041742
 20
26.9478867688
 30
0.0
 11
34.8934176679
 21
26.9226141068
 31
0.0
  0
SPLINE
  5
21E
330
1F
100
AcDbEntity
  8
0
  6
Continuous
 62
     7
370
    25
100
AcDbSpline
210
0.0
220
0.0
230
1.0
 70
     8
 71
     3
 72
     9
 73
     5
 74
     0
 42
0.00000001
 43
0.00000001
 40
0.0
 40
0.0
 40
0.0
 40
0.0
 40
0.5592944490097235
 40
1.0
 40
1.0
 40
1.0
 40
1.0
 10
34.7772201245584
 20
26.99998727034909
 30
0.0
 10
34.78160641747717
 20
26.99816814916387
 30
0.0
 10
34.7894489643262
 20
26.99491562057459
 30
0.0
 10
34.79561960233455
 20
26.99700686747195
 30
0.0
 10
34.79833903675799
 20
26.9979284915881
 30
0.0
  0
SPLINE
  5
21F
330
1F
100
AcDbEntity
  8
0
  6
Continuous
 62
     7
370
    25
100
AcDbSpline
210
0.0
220
0.0
230
1.0
 70
     8
 71
     3
 72
    12
 73
     8
 74
     0
 42
0.00000001
 43
0.00000001
 40
0.0
 40
0.0
 40
0.0
 40
0.0
 40
0.1873866643658131
 40
0.3745247755265383
 40
0.5611348086399874
 40
0.7804237117493332
 40
0.9999999999999999
 40
0.9999999999999999
 40
0.9999999999999999
 40
0.9999999999999999
 10
34.75042539588968
 20
27.05466024827897
 30
0.0
 10
34.75052994249217
 20
27.05108516982454
 30
0.0
 10
34.75073889702457
 20
27.04393975496714
 30
0.0
 10
34.75291525928894
 20
27.0323367489286
 30
0.0
 10
34.75787767520988
 20
27.01976021100387
 30
0.0
 10
34.76641600300687
 20
27.00743588926647
 30
0.0
 10
34.77361717884256
 20
27.00247122700298
 30
0.0
 10
34.7772201245584
 20
26.99998727034909
 30
0.0
  0
SPLINE
  5
220
330
1F
100
AcDbEntity
  8
0
  6
Continuous
 62
     7
370
    25
100
AcDbSpline
210
0.0
220
0.0
230
1.0
 70
     8
 71
     3
 72
    12
 73
     8
 74
     0
 42
0.00000001
 43
0.00000001
 40
0.0
 40
0.0
 40
0.0
 40
0.0
 40
0.186580392471735
 40
0.3726487887473061
 40
0.5592349108679955
 40
0.7794037906267498
 40
0.9999999999999999
 40
0.9999999999999999
 40
0.9999999999999999
 40
0.9999999999999999
 10
34.7763321900801
 20
27.07898970457268
 30
0.0
 10
34.77331614295131
 20
27.08046517493759
 30
0.0
 10
34.76729232504387
 20
27.08341206682174
 30
0.0
 10
34.75937832021244
 20
27.08221914821395
 30
0.0
 10
34.75397546169783
 20
27.07610053255587
 30
0.0
 10
34.75084083543448
 20
27.0666909099279
 30
0.0
 10
34.75056396521482
 20
27.05867305997812
 30
0.0
 10
34.75042539588968
 20
27.05466024827897
 30
0.0
  0
SPLINE
  5
221
330
1F
100
AcDbEntity
  8
0
  6
Continuous
 62
     7
370
    25
100
AcDbSpline
210
0.0
220
0.0
230
1.0
 70
     8
 71
     3
 72
    11
 73
     7
 74
     0
 42
0.00000001
 43
0.00000001
 40
0.0
 40
0.0
 40
0.0
 40
0.0
 40
0.2808041604286829
 40
0.5593155177302145
 40
0.7795669277145764
 40
1.0
 40
1.0
 40
1.0
 40
1.0
 10
34.79722476604012
 20
27.04634117803383
 30
0.0
 10
34.79648564429272
 20
27.04992593663986
 30
0.0
 10
34.79501343582479
 20
27.05706618382353
 30
0.0
 10
34.789680144049
 20
27.06723549709718
 30
0.0
 10
34.78296536658567
 20
27.07462576430861
 30
0.0
 10
34.77854385647144
 20
27.07753465810924
 30
0.0
 10
34.7763321900801
 20
27.07898970457268
 30
0.0
  0
LINE
  5
222
330
1F
100
AcDbEntity
  8
0
  6
Continuous
 62
     7
370
    25
100
AcDbLine
 10
34.8061389318
 20
27.0437685771
 30
0.0
 11
34.797224766
 21
27.046341178
 31
0.0
  0
SPLINE
  5
223
330
1F
100
AcDbEntity
  8
0
  6
Continuous
 62
     7
370
    25
100
AcDbSpline
210
0.0
220
0.0
230
1.0
 70
     8
 71
     3
 72
    11
 73
     7
 74
     0
 42
0.00000001
 43
0.00000001
 40
0.0
 40
0.0
 40
0.0
 40
0.0
 40
0.2799164907506035
 40
0.5590819164376207
 40
0.7791640869332778
 40
1.0
 40
1.0
 40
1.0
 40
1.0
 10
34.7771678931185
 20
27.09008773175702
 30
0.0
 10
34.78116084930517
 20
27.08740368520046
 30
0.0
 10
34.78913604787637
 20
27.08204279385523
 30
0.0
 10
34.798600880613
 20
27.06889105321116
 30
0.0
 10
34.80394260816483
 20
27.05556944312752
 30
0.0
 10
34.80540599003417
 20
27.04770667952123
 30
0.0
 10
34.80613893178306
 20
27.04376857708235
 30
0.0
  0
SPLINE
  5
224
330
1F
100
AcDbEntity
  8
0
  6
Continuous
 62
     7
370
    25
100
AcDbSpline
210
0.0
220
0.0
230
1.0
 70
     8
 71
     3
 72
    12
 73
     8
 74
     0
 42
0.00000001
 43
0.00000001
 40
0.0
 40
0.0
 40
0.0
 40
0.0
 40
0.1873453014152449
 40
0.3744961147484522
 40
0.5614356685033459
 40
0.7803400446185433
 40
1.0
 40
1.0
 40
1.0
 40
1.0
 10
34.74151123014674
 20
27.05938408205318
 30
0.0
 10
34.74167882967256
 20
27.06390130789247
 30
0.0
 10
34.74201385473472
 20
27.07293107012017
 30
0.0
 10
34.74547810236434
 20
27.08430409188662
 30
0.0
 10
34.75185309935557
 20
27.09335930329965
 30
0.0
 10
34.76297904070042
 20
27.09681680426461
 30
0.0
 10
34.77243284649199
 20
27.09233333070595
 30
0.0
 10
34.7771678931185
 20
27.09008773175702
 30
0.0
  0
SPLINE
  5
225
330
1F
100
AcDbEntity
  8
0
  6
Continuous
 62
     7
370
    25
100
AcDbSpline
210
0.0
220
0.0
230
1.0
 70
     8
 71
     3
 72
    12
 73
     8
 74
     0
 42
0.00000001
 43
0.00000001
 40
0.0
 40
0.0
 40
0.0
 40
0.0
 40
0.1866243975841801
 40
0.3730307715706501
 40
0.5595845494448439
 40
0.7795585864281538
 40
1.0
 40
1.0
 40
1.0
 40
1.0
 10
34.77775984943737
 20
26.98809522552919
 30
0.0
 10
34.77378268601067
 20
26.9907681738436
 30
0.0
 10
34.76583300547088
 20
26.99611094780563
 30
0.0
 10
34.75521602285849
 20
27.0093081724583
 30
0.0
 10
34.74711555548996
 20
27.02533107630332
 30
0.0
 10
34.74219129395608
 20
27.0427791271424
 30
0.0
 10
34.74173807840327
 20
27.05384518258565
 30
0.0
 10
34.74151123014674
 20
27.05938408205318
 30
0.0
  0
SPLINE
  5
226
330
1F
100
AcDbEntity
  8
0
  6
Continuous
 62
     7
370
    25
100
AcDbSpline
210
0.0
220
0.0
230
1.0
 70
     8
 71
     3
 72
    11
 73
     7
 74
     0
 42
0.00000001
 43
0.00000001
 40
0.0
 40
0.0
 40
0.0
 40
0.0
 40
0.2800887905641642
 40
0.5600137328906346
 40
0.7800102319115826
 40
1.0
 40
1.0
 40
1.0
 40
1.0
 10
34.80725320250093
 20
26.98624833485441
 30
0.0
 10
34.80492308833922
 20
26.98524306393923
 30
0.0
 10
34.80026422310178
 20
26.98323311017905
 30
0.0
 10
34.79266283465527
 20
26.98281999422985
 30
0.0
 10
34.78504823392082
 20
26.98436534645254
 30
0.0
 10
34.78018928615437
 20
26.98685194518368
 30
0.0
 10
34.77775984943737
 20
26.98809522552919
 30
0.0
  0
LINE
  5
227
330
1F
100
AcDbEntity
  8
0
  6
Continuous
 62
     7
370
    25
100
AcDbLine
 10
34.8072532025
 20
27.0225378231
 30
0.0
 11
34.8072532025
 21
26.9862483349
 31
0.0
  0
LINE
  5
228
330
1F
100
AcDbEntity
  8
0
  6
Continuous
 62
     7
370
    25
100
AcDbLine
 10
34.7771678931
 20
27.0399057025
 30
0.0
 11
34.8072532025
 21
27.0225378231
 31
0.0
  0
LINE
  5
229
330
1F
100
AcDbEntity
  8
0
  6
Continuous
 62
     7
370
    25
100
AcDbLine
 10
34.7771678931
 20
27.0283252343
 30
0.0
 11
34.7771678931
 21
27.0399057025
 31
0.0
  0
LINE
  5
22A
330
1F
100
AcDbEntity
  8
0
  6
Continuous
 62
     7
370
    25
100
AcDbLine
 10
34.7983390368
 20
27.0161033932
 30
0.0
 11
34.7771678931
 21
27.0283252343
 31
0.0
  0
LINE
  5
22B
330
1F
100
AcDbEntity
  8
0
  6
Continuous
 62
     7
370
    25
100
AcDbLine
 10
34.7983390368
 20
26.9979284916
 30
0.0
 11
34.7983390368
 21
27.0161033932
 31
0.0
  0
LINE
  5
22C
330
1F
100
AcDbEntity
  8
0
  6
Continuous
 62
     7
370
    25
100
AcDbLine
 10
35.131919674
 20
26.9380312316
 30
0.0
 11
35.0629493117
 21
26.9778469743
 31
0.0
  0
LINE
  5
22D
330
1F
100
AcDbEntity
  8
0
  6
Continuous
 62
     7
370
    25
100
AcDbLine
 10
35.131919674
 20
25.7132200138
 30
0.0
 11
35.131919674
 21
26.9380312316
 31
0.0
  0
LINE
  5
22E
330
1F
100
AcDbEntity
  8
0
  6
Continuous
 62
     7
370
    25
100
AcDbLine
 10
34.4248128928
 20
26.1214240697
 30
0.0
 11
35.131919674
 21
25.7132200138
 31
0.0
  0
LINE
  5
22F
330
1F
100
AcDbEntity
  8
0
  6
Continuous
 62
     7
370
    25
100
AcDbLine
 10
34.4248128928
 20
27.3462352875
 30
0.0
 11
34.4248128928
 21
26.1214240697
 31
0.0
  0
LINE
  5
230
330
1F
100
AcDbEntity
  8
0
  6
Continuous
 62
     7
370
    25
100
AcDbLine
 10
34.4937832551
 20
27.3064195449
 30
0.0
 11
34.4248128928
 21
27.3462352875
 31
0.0
  0
LINE
  5
231
330
1F
100
AcDbEntity
  8
0
  6
Continuous
 62
     7
370
    25
100
AcDbLine
 10
34.5933050618
 20
27.2177287382
 30
0.0
 11
34.5582792978
 21
27.1058786096
 31
0.0
  0
LINE
  5
232
330
1F
100
AcDbEntity
  8
0
  6
Continuous
 62
     7
370
    25
100
AcDbLine
 10
34.5582792978
 20
27.1058786096
 30
0.0
 11
34.6015895881
 21
27.112884511
 31
0.0
  0
LINE
  5
233
330
1F
100
AcDbEntity
  8
0
  6
Continuous
 62
     7
370
    25
100
AcDbLine
 10
34.6015895881
 20
27.112884511
 30
0.0
 11
34.6015895881
 21
26.1214406572
 31
0.0
  0
LINE
  5
234
330
1F
100
AcDbEntity
  8
0
  6
Continuous
 62
     7
370
    25
100
AcDbLine
 10
34.6015895881
 20
26.1214406572
 30
0.0
 11
34.6033573551
 21
26.1204201471
 31
0.0
  0
LINE
  5
235
330
1F
100
AcDbEntity
  8
0
  6
Continuous
 62
     7
370
    25
100
AcDbLine
 10
34.6033573551
 20
26.1204201471
 30
0.0
 11
34.6033573551
 21
27.1118640009
 31
0.0
  0
LINE
  5
236
330
1F
100
AcDbEntity
  8
0
  6
Continuous
 62
     7
370
    25
100
AcDbLine
 10
34.6033573551
 20
27.1118640009
 30
0.0
 11
34.6466676454
 21
27.0548531026
 31
0.0
  0
LINE
  5
237
330
1F
100
AcDbEntity
  8
0
  6
Continuous
 62
     7
370
    25
100
AcDbLine
 10
34.6466676454
 20
27.0548531026
 30
0.0
 11
34.6126017365
 21
27.2029697228
 31
0.0
  0
LINE
  5
238
330
1F
100
AcDbEntity
  8
0
  6
Continuous
 62
     7
370
    25
100
AcDbLine
 10
34.8409076603
 20
26.9966759247
 30
0.0
 11
34.8295386169
 21
27.0032391338
 31
0.0
  0
SPLINE
  5
239
330
1F
100
AcDbEntity
  8
0
  6
Continuous
 62
     7
370
    25
100
AcDbSpline
210
0.0
220
0.0
230
1.0
 70
     8
 71
     3
 72
    11
 73
     7
 74
     0
 42
0.00000001
 43
0.00000001
 40
0.0
 40
0.0
 40
0.0
 40
0.0
 40
0.2810087844510976
 40
0.5613673299368048
 40
0.7799358018621463
 40
1.0
 40
1.0
 40
1.0
 40
1.0
 10
34.86298414887428
 20
26.96137365194373
 30
0.0
 10
34.86156788457949
 20
26.9651753840031
 30
0.0
 10
34.85873863314809
 20
26.97277005112166
 30
0.0
 10
34.85436197395363
 20
26.98331840601969
 30
0.0
 10
34.84796882525235
 20
26.99244435547177
 30
0.0
 10
34.84326672661393
 20
26.99526219870368
 30
0.0
 10
34.84090766027653
 20
26.99667592470639
 30
0.0
  0
LINE
  5
23A
330
1F
100
AcDbEntity
  8
0
  6
Continuous
 62
     7
370
    25
100
AcDbLine
 10
34.872890712
 20
26.9344640662
 30
0.0
 11
34.8629841489
 21
26.9613736519
 31
0.0
  0
LINE
  5
23B
330
1F
100
AcDbEntity
  8
0
  6
Continuous
 62
     7
370
    25
100
AcDbLine
 10
34.8830236113
 20
26.928614468
 30
0.0
 11
34.872890712
 21
26.9344640662
 31
0.0
  0
LINE
  5
23C
330
1F
100
AcDbEntity
  8
0
  6
Continuous
 62
     7
370
    25
100
AcDbLine
 10
34.8704706553
 20
26.9629425428
 30
0.0
 11
34.8830236113
 21
26.928614468
 31
0.0
  0
SPLINE
  5
23D
330
1F
100
AcDbEntity
  8
0
  6
Continuous
 62
     7
370
    25
100
AcDbSpline
210
0.0
220
0.0
230
1.0
 70
     8
 71
     3
 72
     9
 73
     5
 74
     0
 42
0.00000001
 43
0.00000001
 40
0.0
 40
0.0
 40
0.0
 40
0.0
 40
0.5599729811100949
 40
1.0
 40
1.0
 40
1.0
 40
1.0
 10
34.86300155935425
 20
26.97994060228574
 30
0.0
 10
34.86455780900456
 20
26.9767996804541
 30
0.0
 10
34.86733696032581
 20
26.97119062084304
 30
0.0
 10
34.86951309653231
 20
26.96546289636561
 30
0.0
 10
34.87047065525995
 20
26.96294254283878
 30
0.0
  0
SPLINE
  5
23E
330
1F
100
AcDbEntity
  8
0
  6
Continuous
 62
     7
370
    25
100
AcDbSpline
210
0.0
220
0.0
230
1.0
 70
     8
 71
     3
 72
     9
 73
     5
 74
     0
 42
0.00000001
 43
0.00000001
 40
0.0
 40
0.0
 40
0.0
 40
0.0
 40
0.5601468224864552
 40
1.0
 40
1.0
 40
1.0
 40
1.0
 10
34.85739538480497
 20
26.98780112328472
 30
0.0
 10
34.85853129116824
 20
26.98642314432388
 30
0.0
 10
34.86055916371463
 20
26.98396311258664
 30
0.0
 10
34.86225544475062
 20
26.98116941781017
 30
0.0
 10
34.86300155935425
 20
26.97994060228574
 30
0.0
  0
SPLINE
  5
23F
330
1F
100
AcDbEntity
  8
0
  6
Continuous
 62
     7
370
    25
100
AcDbSpline
210
0.0
220
0.0
230
1.0
 70
     8
 71
     3
 72
    11
 73
     7
 74
     0
 42
0.00000001
 43
0.00000001
 40
0.0
 40
0.0
 40
0.0
 40
0.0
 40
0.280190184060832
 40
0.559144493064284
 40
0.7793137207320886
 40
1.0
 40
1.0
 40
1.0
 40
1.0
 10
34.8774522577266
 20
27.00360551928978
 30
0.0
 10
34.87722333007343
 20
27.00002644727196
 30
0.0
 10
34.87676648453118
 20
26.99288408996292
 30
0.0
 10
34.87178677641928
 20
26.98671286718253
 30
0.0
 10
34.86477501881644
 20
26.98546815975223
 30
0.0
 10
34.85985718541426
 20
26.98702286097025
 30
0.0
 10
34.85739538480497
 20
26.98780112328472
 30
0.0
  0
SPLINE
  5
240
330
1F
100
AcDbEntity
  8
0
  6
Continuous
 62
     7
370
    25
100
AcDbSpline
210
0.0
220
0.0
230
1.0
 70
     8
 71
     3
 72
    12
 73
     8
 74
     0
 42
0.00000001
 43
0.00000001
 40
0.0
 40
0.0
 40
0.0
 40
0.0
 40
0.1872974378283293
 40
0.3738756318254859
 40
0.559899095358788
 40
0.7797453191048507
 40
1.0
 40
1.0
 40
1.0
 40
1.0
 10
34.85213741985503
 20
27.04552202649345
 30
0.0
 10
34.85460855966962
 20
27.04402132060751
 30
0.0
 10
34.859541349836
 20
27.04102567171987
 30
0.0
 10
34.86697473329383
 20
27.03483304541839
 30
0.0
 10
34.87300983173936
 20
27.02509476194698
 30
0.0
 10
34.87684561375754
 20
27.01409920975313
 30
0.0
 10
34.87724991799214
 20
27.00710557970427
 30
0.0
 10
34.8774522577266
 20
27.00360551928978
 30
0.0
  0
LINE
  5
241
330
1F
100
AcDbEntity
  8
0
  6
Continuous
 62
     7
370
    25
100
AcDbLine
 10
34.8206244511
 20
27.0637140761
 30
0.0
 11
34.8521374199
 21
27.0455220265
 31
0.0
  0
LINE
  5
242
330
1F
100
AcDbEntity
  8
0
  6
Continuous
 62
     7
370
    25
100
AcDbLine
 10
34.8206244511
 20
26.9646367364
 30
0.0
 11
34.8206244511
 21
27.0637140761
 31
0.0
  0
LINE
  5
243
330
1F
100
AcDbEntity
  8
0
  6
Continuous
 62
     7
370
    25
100
AcDbLine
 10
34.8295386169
 20
26.959490698
 30
0.0
 11
34.8206244511
 21
26.9646367364
 31
0.0
  0
LINE
  5
244
330
1F
100
AcDbEntity
  8
0
  6
Continuous
 62
     7
370
    25
100
AcDbLine
 10
34.8295386169
 20
27.0032391338
 30
0.0
 11
34.8295386169
 21
26.959490698
 31
0.0
  0
SPLINE
  5
245
330
1F
100
AcDbEntity
  8
0
  6
Continuous
 62
     7
370
    25
100
AcDbSpline
210
0.0
220
0.0
230
1.0
 70
     8
 71
     3
 72
    11
 73
     7
 74
     0
 42
0.00000001
 43
0.00000001
 40
0.0
 40
0.0
 40
0.0
 40
0.0
 40
0.2778011898571457
 40
0.5579871436851378
 40
0.7789065068349149
 40
0.9999999999999999
 40
0.9999999999999999
 40
0.9999999999999999
 40
0.9999999999999999
 10
34.99551272238066
 20
26.96092367298056
 30
0.0
 10
34.999483201385
 20
26.95600330193531
 30
0.0
 10
35.00745824367993
 20
26.94612032127992
 30
0.0
 10
35.01277482451806
 20
26.92919513487082
 30
0.0
 10
35.01532977543888
 20
26.91466994611934
 30
0.0
 10
35.01552445074378
 20
26.90632351263881
 30
0.0
 10
35.01562182674218
 20
26.90214865186878
 30
0.0
  0
SPLINE
  5
246
330
1F
100
AcDbEntity
  8
0
  6
Continuous
 62
     7
370
    25
100
AcDbSpline
210
0.0
220
0.0
230
1.0
 70
     8
 71
     3
 72
     9
 73
     5
 74
     0
 42
0.00000001
 43
0.00000001
 40
0.0
 40
0.0
 40
0.0
 40
0.0
 40
0.5603093479473528
 40
1.0
 40
1.0
 40
1.0
 40
1.0
 10
34.98186290608678
 20
26.97063309734754
 30
0.0
 10
34.98444716164169
 20
26.96912085530583
 30
0.0
 10
34.98905935589541
 20
26.9664219140027
 30
0.0
 10
34.99354182334496
 20
26.9626028706448
 30
0.0
 10
34.99551272238066
 20
26.96092367298056
 30
0.0
  0
LINE
  5
247
330
1F
100
AcDbEntity
  8
0
  6
Continuous
 62
     7
370
    25
100
AcDbLine
 10
34.9576797494
 20
26.9845937365
 30
0.0
 11
34.9818629061
 21
26.9706330973
 31
0.0
  0
LINE
  5
248
330
1F
100
AcDbEntity
  8
0
  6
Continuous
 62
     7
370
    25
100
AcDbLine
 10
34.9576797494
 20
26.8855163968
 30
0.0
 11
34.9576797494
 21
26.9845937365
 31
0.0
  0
LINE
  5
249
330
1F
100
AcDbEntity
  8
0
  6
Continuous
 62
     7
370
    25
100
AcDbLine
 10
34.9829771768
 20
26.8709125028
 30
0.0
 11
34.9576797494
 21
26.8855163968
 31
0.0
  0
SPLINE
  5
24A
330
1F
100
AcDbEntity
  8
0
  6
Continuous
 62
     7
370
    25
100
AcDbSpline
210
0.0
220
0.0
230
1.0
 70
     8
 71
     3
 72
    13
 73
     9
 74
     0
 42
0.00000001
 43
0.00000001
 40
0.0
 40
0.0
 40
0.0
 40
0.0
 40
0.2503025260558162
 40
0.4999950649861613
 40
0.6250394381257602
 40
0.749750408249748
 40
0.8747807481529085
 40
1.0
 40
1.0
 40
1.0
 40
1.0
 10
35.01562182674218
 20
26.90214865186878
 30
0.0
 10
35.01540502557389
 20
26.89632039934429
 30
0.0
 10
35.01497195158164
 20
26.88467809774368
 30
0.0
 10
35.01056443206756
 20
26.87296746241294
 30
0.0
 10
35.00460372910063
 20
26.86661643182608
 30
0.0
 10
34.99820760003546
 20
26.86501745519669
 30
0.0
 10
34.99069929163304
 20
26.86681179375157
 30
0.0
 10
34.98555251017246
 20
26.86954491206603
 30
0.0
 10
34.98297717680465
 20
26.87091250283073
 30
0.0
  0
LINE
  5
24B
330
1F
100
AcDbEntity
  8
0
  6
Continuous
 62
     7
370
    25
100
AcDbLine
 10
35.131919674
 20
25.7132200138
 30
0.0
 11
35.1389907418
 21
25.7173020543
 31
0.0
  0
LINE
  5
24C
330
1F
100
AcDbEntity
  8
0
  6
Continuous
 62
     7
370
    25
100
AcDbLine
 10
35.131919674
 20
26.9380312316
 30
0.0
 11
35.1389907418
 21
26.9421132722
 31
0.0
  0
LINE
  5
24D
330
1F
100
AcDbEntity
  8
0
  6
Continuous
 62
     7
370
    25
100
AcDbLine
 10
35.1389907418
 20
25.7173020543
 30
0.0
 11
35.1389907418
 21
26.9421132722
 31
0.0
  0
LINE
  5
24E
330
1F
100
AcDbEntity
  8
0
  6
Continuous
 62
     7
370
    25
100
AcDbLine
 10
34.4248128928
 20
27.3462352875
 30
0.0
 11
34.4318839606
 21
27.3503173281
 31
0.0
  0
LINE
  5
24F
330
1F
100
AcDbEntity
  8
0
  6
Continuous
 62
     7
370
    25
100
AcDbLine
 10
35.1389907418
 20
26.9421132722
 30
0.0
 11
35.0942860197
 21
26.9679207589
 31
0.0
  0
LINE
  5
250
330
1F
100
AcDbEntity
  8
0
  6
Continuous
 62
     7
370
    25
100
AcDbLine
 10
34.4765886828
 20
27.3245098413
 30
0.0
 11
34.4318839606
 21
27.3503173281
 31
0.0
  0
LINE
  5
251
330
1F
100
AcDbEntity
  8
0
  6
Continuous
 62
     7
370
    25
100
AcDbLine
 10
35.0325286093
 20
26.8463891103
 30
0.0
 11
35.0325286093
 21
26.9413844095
 31
0.0
  0
LINE
  5
252
330
1F
100
AcDbEntity
  8
0
  6
Continuous
 62
     7
370
    25
100
AcDbLine
 10
35.0802495284
 20
26.9063372815
 30
0.0
 11
35.041442775
 21
26.9287399434
 31
0.0
  0
LINE
  5
253
330
1F
100
AcDbEntity
  8
0
  6
Continuous
 62
     7
370
    25
100
AcDbLine
 10
35.0780209869
 20
26.8651620741
 30
0.0
 11
35.041442775
 21
26.8862782264
 31
0.0
  0
LINE
  5
254
330
1F
100
AcDbEntity
  8
0
  6
Continuous
 62
     7
370
    25
100
AcDbLine
 10
35.0813637991
 20
26.8181971553
 30
0.0
 11
35.0325286093
 21
26.8463891103
 31
0.0
  0
LINE
  5
255
330
1F
100
AcDbEntity
  8
0
  6
Continuous
 62
     7
370
    25
100
AcDbLine
 10
35.041442775
 20
26.9287399434
 30
0.0
 11
35.0379072411
 21
26.9266989231
 31
0.0
  0
LINE
  5
256
330
1F
100
AcDbEntity
  8
0
  6
Continuous
 62
     7
370
    25
100
AcDbLine
 10
35.041442775
 20
26.8862782264
 30
0.0
 11
35.0379072411
 21
26.8842372061
 31
0.0
  0
LINE
  5
257
330
1F
100
AcDbEntity
  8
0
  6
Continuous
 62
     7
370
    25
100
AcDbLine
 10
35.0325286093
 20
26.8463891103
 30
0.0
 11
35.0289930754
 21
26.84434809
 31
0.0
  0
LINE
  5
258
330
1F
100
AcDbEntity
  8
0
  6
Continuous
 62
     7
370
    25
100
AcDbLine
 10
34.9612152833
 20
26.8875574171
 30
0.0
 11
34.9612152833
 21
26.9825527163
 31
0.0
  0
SPLINE
  5
259
330
1F
100
AcDbEntity
  8
0
  6
Continuous
 62
     7
370
    25
100
AcDbSpline
210
0.0
220
0.0
230
1.0
 70
     8
 71
     3
 72
    10
 73
     6
 74
     0
 42
0.00000001
 43
0.00000001
 40
0.0
 40
0.0
 40
0.0
 40
0.0
 40
0.3227518173778417
 40
0.6611202833554128
 40
1.0
 40
1.0
 40
1.0
 40
1.0
 10
35.00754084900757
 20
26.86911408357934
 30
0.0
 10
35.00563274364872
 20
26.86839756874265
 30
0.0
 10
35.00172420746829
 20
26.86692986982864
 30
0.0
 10
34.99421178568406
 20
26.8688923145816
 30
0.0
 10
34.98908036026269
 20
26.87159910582047
 30
0.0
 10
34.98651271071058
 20
26.87295352311029
 30
0.0
  0
LINE
  5
25A
330
1F
100
AcDbEntity
  8
0
  6
Continuous
 62
     7
370
    25
100
AcDbLine
 10
34.9865127107
 20
26.8729535231
 30
0.0
 11
34.9612152833
 21
26.8875574171
 31
0.0
  0
SPLINE
  5
25B
330
1F
100
AcDbEntity
  8
0
  6
Continuous
 62
     7
370
    25
100
AcDbSpline
210
0.0
220
0.0
230
1.0
 70
     8
 71
     3
 72
     9
 73
     5
 74
     0
 42
0.00000001
 43
0.00000001
 40
0.0
 40
0.0
 40
0.0
 40
0.0
 40
0.3336313636859746
 40
1.0
 40
1.0
 40
1.0
 40
1.0
 10
35.00196566295615
 20
26.8816819956205
 30
0.0
 10
35.00270681062292
 20
26.88201154768113
 30
0.0
 10
35.00492826743857
 20
26.88299932070401
 30
0.0
 10
35.00606995562909
 20
26.88554419394539
 30
0.0
 10
35.0068307408317
 20
26.88724001765685
 30
0.0
  0
SPLINE
  5
25C
330
1F
100
AcDbEntity
  8
0
  6
Continuous
 62
     7
370
    25
100
AcDbSpline
210
0.0
220
0.0
230
1.0
 70
     8
 71
     3
 72
     9
 73
     5
 74
     0
 42
0.00000001
 43
0.00000001
 40
0.0
 40
0.0
 40
0.0
 40
0.0
 40
0.5595654112245828
 40
0.9999999999999999
 40
0.9999999999999999
 40
0.9999999999999999
 40
0.9999999999999999
 10
35.0068307408317
 20
26.88724001765685
 30
0.0
 10
35.00797449660165
 20
26.89100583519651
 30
0.0
 10
35.01001850387409
 20
26.89773573212029
 30
0.0
 10
35.0101744922354
 20
26.90588654530125
 30
0.0
 10
35.01024319490517
 20
26.90947644535279
 30
0.0
  0
SPLINE
  5
25D
330
1F
100
AcDbEntity
  8
0
  6
Continuous
 62
     7
370
    25
100
AcDbSpline
210
0.0
220
0.0
230
1.0
 70
     8
 71
     3
 72
    11
 73
     7
 74
     0
 42
0.00000001
 43
0.00000001
 40
0.0
 40
0.0
 40
0.0
 40
0.0
 40
0.2807802146626217
 40
0.561053520231899
 40
0.7811877642474163
 40
1.0
 40
1.0
 40
1.0
 40
1.0
 10
35.01024319490517
 20
26.90947644535279
 30
0.0
 10
35.01015684519275
 20
26.91330396683735
 30
0.0
 10
35.00998430166015
 20
26.92095209975602
 30
0.0
 10
35.00783481096141
 20
26.93243890809887
 30
0.0
 10
35.00379674875243
 20
26.94355893944645
 30
0.0
 10
34.9994776593882
 20
26.94935114467723
 30
0.0
 10
34.99732461876989
 20
26.95223852488166
 30
0.0
  0
SPLINE
  5
25E
330
1F
100
AcDbEntity
  8
0
  6
Continuous
 62
     7
370
    25
100
AcDbSpline
210
0.0
220
0.0
230
1.0
 70
     8
 71
     3
 72
     9
 73
     5
 74
     0
 42
0.00000001
 43
0.00000001
 40
0.0
 40
0.0
 40
0.0
 40
0.0
 40
0.5590457952192182
 40
1.0
 40
1.0
 40
1.0
 40
1.0
 10
34.99732461876989
 20
26.95223852488166
 30
0.0
 10
34.99510051765081
 20
26.95422048087995
 30
0.0
 10
34.99112212958655
 20
26.95776572889939
 30
0.0
 10
34.98700498600645
 20
26.96015895604752
 30
0.0
 10
34.98518951423311
 20
26.96121425962149
 30
0.0
  0
LINE
  5
25F
330
1F
100
AcDbEntity
  8
0
  6
Continuous
 62
     7
370
    25
100
AcDbLine
 10
34.9851895142
 20
26.9612142596
 30
0.0
 11
34.9701294491
 21
26.9699082502
 31
0.0
  0
SPLINE
  5
260
330
1F
100
AcDbEntity
  8
0
  6
Continuous
 62
     7
370
    25
100
AcDbSpline
210
0.0
220
0.0
230
1.0
 70
     8
 71
     3
 72
     9
 73
     5
 74
     0
 42
0.00000001
 43
0.00000001
 40
0.0
 40
0.0
 40
0.0
 40
0.0
 40
0.5590457952192167
 40
0.9999999999999999
 40
0.9999999999999999
 40
0.9999999999999999
 40
0.9999999999999999
 10
34.99378908486396
 20
26.95019750460211
 30
0.0
 10
34.99156498374488
 20
26.95217946060039
 30
0.0
 10
34.98758659568062
 20
26.95572470861983
 30
0.0
 10
34.98346945210051
 20
26.95811793576797
 30
0.0
 10
34.98165398032718
 20
26.95917323934193
 30
0.0
  0
SPLINE
  5
261
330
1F
100
AcDbEntity
  8
0
  6
Continuous
 62
     7
370
    25
100
AcDbSpline
210
0.0
220
0.0
230
1.0
 70
     8
 71
     3
 72
    11
 73
     7
 74
     0
 42
0.00000001
 43
0.00000001
 40
0.0
 40
0.0
 40
0.0
 40
0.0
 40
0.2807802146626217
 40
0.561053520231899
 40
0.7811877642474163
 40
1.0
 40
1.0
 40
1.0
 40
1.0
 10
35.00670766099924
 20
26.90743542507323
 30
0.0
 10
35.00662131128682
 20
26.91126294655779
 30
0.0
 10
35.00644876775422
 20
26.91891107947646
 30
0.0
 10
35.00429927705548
 20
26.93039788781931
 30
0.0
 10
35.0002612148465
 20
26.94151791916689
 30
0.0
 10
34.99594212548227
 20
26.94731012439768
 30
0.0
 10
34.99378908486396
 20
26.95019750460211
 30
0.0
  0
SPLINE
  5
262
330
1F
100
AcDbEntity
  8
0
  6
Continuous
 62
     7
370
    25
100
AcDbSpline
210
0.0
220
0.0
230
1.0
 70
     8
 71
     3
 72
     9
 73
     5
 74
     0
 42
0.00000001
 43
0.00000001
 40
0.0
 40
0.0
 40
0.0
 40
0.0
 40
0.5595654112245828
 40
0.9999999999999999
 40
0.9999999999999999
 40
0.9999999999999999
 40
0.9999999999999999
 10
35.00329520692577
 20
26.88519899737729
 30
0.0
 10
35.00443896269572
 20
26.88896481491695
 30
0.0
 10
35.00648296996815
 20
26.89569471184074
 30
0.0
 10
35.00663895832947
 20
26.90384552502169
 30
0.0
 10
35.00670766099924
 20
26.90743542507323
 30
0.0
  0
SPLINE
  5
263
330
1F
100
AcDbEntity
  8
0
  6
Continuous
 62
     7
370
    25
100
AcDbSpline
210
0.0
220
0.0
230
1.0
 70
     8
 71
     3
 72
    11
 73
     7
 74
     0
 42
0.00000001
 43
0.00000001
 40
0.0
 40
0.0
 40
0.0
 40
0.0
 40
0.2807474483783139
 40
0.5599995389819454
 40
0.7797085369030108
 40
0.9999999999999999
 40
0.9999999999999999
 40
0.9999999999999999
 40
0.9999999999999999
 10
34.98189772704671
 20
26.88311612419117
 30
0.0
 10
34.98439392498577
 20
26.88177316180364
 30
0.0
 10
34.9893730252524
 20
26.8790943901096
 30
0.0
 10
34.99617283140724
 20
26.87773655021955
 30
0.0
 10
35.00084164152974
 20
26.88042058136255
 30
0.0
 10
35.00247663033691
 20
26.88360478697318
 30
0.0
 10
35.00329520692577
 20
26.88519899737729
 30
0.0
  0
LINE
  5
264
330
1F
100
AcDbEntity
  8
0
  6
Continuous
 62
     7
370
    25
100
AcDbLine
 10
34.9665939152
 20
26.8919508267
 30
0.0
 11
34.981897727
 21
26.8831161242
 31
0.0
  0
LINE
  5
265
330
1F
100
AcDbEntity
  8
0
  6
Continuous
 62
     7
370
    25
100
AcDbLine
 10
34.9665939152
 20
26.9678672299
 30
0.0
 11
34.9665939152
 21
26.8919508267
 31
0.0
  0
LINE
  5
266
330
1F
100
AcDbEntity
  8
0
  6
Continuous
 62
     7
370
    25
100
AcDbLine
 10
34.9816539803
 20
26.9591732393
 30
0.0
 11
34.9665939152
 21
26.9678672299
 31
0.0
  0
LINE
  5
267
330
1F
100
AcDbEntity
  8
0
  6
Continuous
 62
     7
370
    25
100
AcDbLine
 10
34.9973246188
 20
26.9522385249
 30
0.0
 11
34.9937890849
 21
26.9501975046
 31
0.0
  0
LINE
  5
268
330
1F
100
AcDbEntity
  8
0
  6
Continuous
 62
     7
370
    25
100
AcDbLine
 10
35.0102431949
 20
26.9094764454
 30
0.0
 11
35.006707661
 21
26.9074354251
 31
0.0
  0
LINE
  5
269
330
1F
100
AcDbEntity
  8
0
  6
Continuous
 62
     7
370
    25
100
AcDbLine
 10
34.9851895142
 20
26.9612142596
 30
0.0
 11
34.9816539803
 21
26.9591732393
 31
0.0
  0
LINE
  5
26A
330
1F
100
AcDbEntity
  8
0
  6
Continuous
 62
     7
370
    25
100
AcDbLine
 10
34.9865127107
 20
26.8729535231
 30
0.0
 11
34.9829771768
 21
26.8709125028
 31
0.0
  0
LINE
  5
26B
330
1F
100
AcDbEntity
  8
0
  6
Continuous
 62
     7
370
    25
100
AcDbLine
 10
34.9701294491
 20
26.9699082502
 30
0.0
 11
34.9665939152
 21
26.9678672299
 31
0.0
  0
LINE
  5
26C
330
1F
100
AcDbEntity
  8
0
  6
Continuous
 62
     7
370
    25
100
AcDbLine
 10
35.0068307408
 20
26.8872400177
 30
0.0
 11
35.0032952069
 21
26.8851989974
 31
0.0
  0
LINE
  5
26D
330
1F
100
AcDbEntity
  8
0
  6
Continuous
 62
     7
370
    25
100
AcDbLine
 10
34.9612152833
 20
26.8875574171
 30
0.0
 11
34.9576797494
 21
26.8855163968
 31
0.0
  0
LINE
  5
26E
330
1F
100
AcDbEntity
  8
0
  6
Continuous
 62
     7
370
    25
100
AcDbLine
 10
34.8876734159
 20
26.9300122335
 30
0.0
 11
34.9139484477
 21
27.0098392797
 31
0.0
  0
LINE
  5
26F
330
1F
100
AcDbEntity
  8
0
  6
Continuous
 62
     7
370
    25
100
AcDbLine
 10
34.9465215319
 20
26.8960399392
 30
0.0
 11
34.9419244715
 21
26.8986937657
 31
0.0
  0
LINE
  5
270
330
1F
100
AcDbEntity
  8
0
  6
Continuous
 62
     7
370
    25
100
AcDbLine
 10
34.9419244715
 20
26.8986937657
 30
0.0
 11
34.9344205547
 21
26.9326202147
 31
0.0
  0
LINE
  5
271
330
1F
100
AcDbEntity
  8
0
  6
Continuous
 62
     7
370
    25
100
AcDbLine
 10
34.9344205547
 20
26.9326202147
 30
0.0
 11
34.9044397081
 21
26.949927789
 31
0.0
  0
LINE
  5
272
330
1F
100
AcDbEntity
  8
0
  6
Continuous
 62
     7
370
    25
100
AcDbLine
 10
34.8944502986
 20
26.9261000223
 30
0.0
 11
34.8876734159
 21
26.9300122335
 31
0.0
  0
LINE
  5
273
330
1F
100
AcDbEntity
  8
0
  6
Continuous
 62
     7
370
    25
100
AcDbLine
 10
34.9314781835
 20
26.9458992777
 30
0.0
 11
34.9243050658
 21
26.9772623729
 31
0.0
  0
SPLINE
  5
274
330
1F
100
AcDbEntity
  8
0
  6
Continuous
 62
     7
370
    25
100
AcDbSpline
210
0.0
220
0.0
230
1.0
 70
     8
 71
     3
 72
     9
 73
     5
 74
     0
 42
0.00000001
 43
0.00000001
 40
0.0
 40
0.0
 40
0.0
 40
0.0
 40
0.5600121541624276
 40
1.0
 40
1.0
 40
1.0
 40
1.0
 10
34.92430506578963
 20
26.97726237289593
 30
0.0
 10
34.92331710951267
 20
26.98160981902065
 30
0.0
 10
34.92155294016455
 20
26.98937294718208
 30
0.0
 10
34.92007875496797
 20
26.99706051888898
 30
0.0
 10
34.91943013139895
 20
27.00044295700403
 30
0.0
  0
SPLINE
  5
275
330
1F
100
AcDbEntity
  8
0
  6
Continuous
 62
     7
370
    25
100
AcDbSpline
210
0.0
220
0.0
230
1.0
 70
     8
 71
     3
 72
     9
 73
     5
 74
     0
 42
0.00000001
 43
0.00000001
 40
0.0
 40
0.0
 40
0.0
 40
0.0
 40
0.5600121541624276
 40
1.0
 40
1.0
 40
1.0
 40
1.0
 10
34.9207695318837
 20
26.97522135261637
 30
0.0
 10
34.91978157560674
 20
26.9795687987411
 30
0.0
 10
34.91801740625861
 20
26.98733192690252
 30
0.0
 10
34.91654322106204
 20
26.99501949860943
 30
0.0
 10
34.91589459749302
 20
26.99840193672447
 30
0.0
  0
LINE
  5
276
330
1F
100
AcDbEntity
  8
0
  6
Continuous
 62
     7
370
    25
100
AcDbLine
 10
34.9279426496
 20
26.9438582574
 30
0.0
 11
34.9207695319
 21
26.9752213526
 31
0.0
  0
LINE
  5
277
330
1F
100
AcDbEntity
  8
0
  6
Continuous
 62
     7
370
    25
100
AcDbLine
 10
34.9038291349
 20
26.9577786932
 30
0.0
 11
34.9279426496
 21
26.9438582574
 31
0.0
  0
LINE
  5
278
330
1F
100
AcDbEntity
  8
0
  6
Continuous
 62
     7
370
    25
100
AcDbLine
 10
34.9119075976
 20
26.9819456368
 30
0.0
 11
34.9038291349
 21
26.9577786932
 31
0.0
  0
SPLINE
  5
279
330
1F
100
AcDbEntity
  8
0
  6
Continuous
 62
     7
370
    25
100
AcDbSpline
210
0.0
220
0.0
230
1.0
 70
     8
 71
     3
 72
     9
 73
     5
 74
     0
 42
0.00000001
 43
0.00000001
 40
0.0
 40
0.0
 40
0.0
 40
0.0
 40
0.55998944729963
 40
1.0
 40
1.0
 40
1.0
 40
1.0
 10
34.91589459749302
 20
26.99840193672447
 30
0.0
 10
34.91530007427517
 20
26.99520054456615
 30
0.0
 10
34.91423840566566
 20
26.98948366512536
 30
0.0
 10
34.91261980080153
 20
26.98424896157109
 30
0.0
 10
34.91190759758066
 20
26.98194563676696
 30
0.0
  0
LINE
  5
27A
330
1F
100
AcDbEntity
  8
0
  6
Continuous
 62
     7
370
    25
100
AcDbLine
 10
34.9194301314
 20
27.000442957
 30
0.0
 11
34.9158945975
 21
26.9984019367
 31
0.0
  0
LINE
  5
27B
330
1F
100
AcDbEntity
  8
0
  6
Continuous
 62
     7
370
    25
100
AcDbLine
 10
34.9243050658
 20
26.9772623729
 30
0.0
 11
34.9207695319
 21
26.9752213526
 31
0.0
  0
LINE
  5
27C
330
1F
100
AcDbEntity
  8
0
  6
Continuous
 62
     7
370
    25
100
AcDbLine
 10
34.8876734159
 20
26.9300122335
 30
0.0
 11
34.884137882
 21
26.9279712132
 31
0.0
  0
LINE
  5
27D
330
1F
100
AcDbEntity
  8
0
  6
Continuous
 62
     7
370
    25
100
AcDbLine
 10
34.9314781835
 20
26.9458992777
 30
0.0
 11
34.9279426496
 21
26.9438582574
 31
0.0
  0
LINE
  5
27E
330
1F
100
AcDbEntity
  8
0
  6
Continuous
 62
     7
370
    25
100
AcDbLine
 10
34.824159985
 20
26.9666777567
 30
0.0
 11
34.824159985
 21
27.0616730558
 31
0.0
  0
SPLINE
  5
27F
330
1F
100
AcDbEntity
  8
0
  6
Continuous
 62
     7
370
    25
100
AcDbSpline
210
0.0
220
0.0
230
1.0
 70
     8
 71
     3
 72
    10
 73
     6
 74
     0
 42
0.00000001
 43
0.00000001
 40
0.0
 40
0.0
 40
0.0
 40
0.0
 40
0.0243710161130011
 40
0.5116133812266287
 40
1.0
 40
1.0
 40
1.0
 40
1.0
 10
34.87462531899762
 20
26.98950355664534
 30
0.0
 10
34.87455918552114
 20
26.9894187573288
 30
0.0
 10
34.87317086542171
 20
26.98763859088619
 30
0.0
 10
34.86812029467629
 20
26.98777965377834
 30
0.0
 10
34.86332925040385
 20
26.98915410963145
 30
0.0
 10
34.86093091871091
 20
26.98984214356427
 30
0.0
  0
LINE
  5
280
330
1F
100
AcDbEntity
  8
0
  6
Continuous
 62
     7
370
    25
100
AcDbLine
 10
34.8811314764
 20
26.9337888147
 30
0.0
 11
34.8764262459
 21
26.9365050865
 31
0.0
  0
LINE
  5
281
330
1F
100
AcDbEntity
  8
0
  6
Continuous
 62
     7
370
    25
100
AcDbLine
 10
34.8764262459
 20
26.9365050865
 30
0.0
 11
34.8665196828
 21
26.9634146722
 31
0.0
  0
SPLINE
  5
282
330
1F
100
AcDbEntity
  8
0
  6
Continuous
 62
     7
370
    25
100
AcDbSpline
210
0.0
220
0.0
230
1.0
 70
     8
 71
     3
 72
    11
 73
     7
 74
     0
 42
0.00000001
 43
0.00000001
 40
0.0
 40
0.0
 40
0.0
 40
0.0
 40
0.2810087844510973
 40
0.5613673299368048
 40
0.7799358018621463
 40
1.0
 40
1.0
 40
1.0
 40
1.0
 10
34.86651968278021
 20
26.96341467222329
 30
0.0
 10
34.86510341848543
 20
26.96721640428266
 30
0.0
 10
34.86227416705402
 20
26.97481107140122
 30
0.0
 10
34.85789750785955
 20
26.98535942629924
 30
0.0
 10
34.85150435915828
 20
26.99448537575133
 30
0.0
 10
34.84680226051986
 20
26.99730321898323
 30
0.0
 10
34.84444319418245
 20
26.99871694498595
 30
0.0
  0
LINE
  5
283
330
1F
100
AcDbEntity
  8
0
  6
Continuous
 62
     7
370
    25
100
AcDbLine
 10
34.8444431942
 20
26.998716945
 30
0.0
 11
34.8330741508
 21
27.005280154
 31
0.0
  0
LINE
  5
284
330
1F
100
AcDbEntity
  8
0
  6
Continuous
 62
     7
370
    25
100
AcDbLine
 10
34.8295386169
 20
26.9635727386
 30
0.0
 11
34.824159985
 21
26.9666777567
 31
0.0
  0
SPLINE
  5
285
330
1F
100
AcDbEntity
  8
0
  6
Continuous
 62
     7
370
    25
100
AcDbSpline
210
0.0
220
0.0
230
1.0
 70
     8
 71
     3
 72
     9
 73
     5
 74
     0
 42
0.00000001
 43
0.00000001
 40
0.0
 40
0.0
 40
0.0
 40
0.0
 40
0.4784316544495085
 40
0.9999999999999999
 40
0.9999999999999999
 40
0.9999999999999999
 40
0.9999999999999999
 10
34.86808521040097
 20
27.00147964001394
 30
0.0
 10
34.8692392112256
 20
27.00241140493846
 30
0.0
 10
34.87165126070829
 20
27.00435894523153
 30
0.0
 10
34.87192884612371
 20
27.00854759555696
 30
0.0
 10
34.87207362588958
 20
27.01073226297728
 30
0.0
  0
SPLINE
  5
286
330
1F
100
AcDbEntity
  8
0
  6
Continuous
 62
     7
370
    25
100
AcDbSpline
210
0.0
220
0.0
230
1.0
 70
     8
 71
     3
 72
    11
 73
     7
 74
     0
 42
0.00000001
 43
0.00000001
 40
0.0
 40
0.0
 40
0.0
 40
0.0
 40
0.2798157723866458
 40
0.5582434525783392
 40
0.7787575721023097
 40
0.9999999999999999
 40
0.9999999999999999
 40
0.9999999999999999
 40
0.9999999999999999
 10
34.87207362588958
 20
27.01073226297728
 30
0.0
 10
34.871864327163
 20
27.0134359468099
 30
0.0
 10
34.87144676798556
 20
27.01882990221322
 30
0.0
 10
34.86696620178864
 20
27.02699670215325
 30
0.0
 10
34.86151905391972
 20
27.03232677604127
 30
0.0
 10
34.85804141648564
 20
27.03452155097944
 30
0.0
 10
34.85629973103977
 20
27.03562074767238
 30
0.0
  0
LINE
  5
287
330
1F
100
AcDbEntity
  8
0
  6
Continuous
 62
     7
370
    25
100
AcDbLine
 10
34.856299731
 20
27.0356207477
 30
0.0
 11
34.8330741508
 21
27.0490285898
 31
0.0
  0
LINE
  5
288
330
1F
100
AcDbEntity
  8
0
  6
Continuous
 62
     7
370
    25
100
AcDbLine
 10
34.9344205547
 20
26.9326202147
 30
0.0
 11
34.9308850207
 21
26.9305791945
 31
0.0
  0
LINE
  5
289
330
1F
100
AcDbEntity
  8
0
  6
Continuous
 62
     7
370
    25
100
AcDbLine
 10
34.9419244715
 20
26.8986937657
 30
0.0
 11
34.9383889376
 21
26.8966527454
 31
0.0
  0
LINE
  5
28A
330
1F
100
AcDbEntity
  8
0
  6
Continuous
 62
     7
370
    25
100
AcDbLine
 10
34.9044397081
 20
26.949927789
 30
0.0
 11
34.9009041742
 21
26.9478867688
 31
0.0
  0
SPLINE
  5
28B
330
1F
100
AcDbEntity
  8
0
  6
Continuous
 62
     7
370
    25
100
AcDbSpline
210
0.0
220
0.0
230
1.0
 70
     8
 71
     3
 72
    11
 73
     7
 74
     0
 42
0.00000001
 43
0.00000001
 40
0.0
 40
0.0
 40
0.0
 40
0.0
 40
0.2798157723866458
 40
0.5582434525783392
 40
0.7787575721023097
 40
0.9999999999999999
 40
0.9999999999999999
 40
0.9999999999999999
 40
0.9999999999999999
 10
34.86853809198365
 20
27.00869124269773
 30
0.0
 10
34.86832879325706
 20
27.01139492653034
 30
0.0
 10
34.86791123407964
 20
27.01678888193367
 30
0.0
 10
34.86343066788271
 20
27.02495568187369
 30
0.0
 10
34.8579835200138
 20
27.03028575576171
 30
0.0
 10
34.85450588257971
 20
27.03248053069988
 30
0.0
 10
34.85276419713384
 20
27.03357972739282
 30
0.0
  0
SPLINE
  5
28C
330
1F
100
AcDbEntity
  8
0
  6
Continuous
 62
     7
370
    25
100
AcDbSpline
210
0.0
220
0.0
230
1.0
 70
     8
 71
     3
 72
    11
 73
     7
 74
     0
 42
0.00000001
 43
0.00000001
 40
0.0
 40
0.0
 40
0.0
 40
0.0
 40
0.281467994109042
 40
0.5598819086306168
 40
0.7797191212695485
 40
0.9999999999999999
 40
0.9999999999999999
 40
0.9999999999999999
 40
0.9999999999999999
 10
34.85044860329827
 20
27.0027485238176
 30
0.0
 10
34.85290583167269
 20
27.00137055448307
 30
0.0
 10
34.85779362616801
 20
26.99862956752471
 30
0.0
 10
34.86429337801987
 20
26.99820363803898
 30
0.0
 10
34.86800349751039
 20
27.00231872643307
 30
0.0
 10
34.86835977410966
 20
27.00656564355833
 30
0.0
 10
34.86853809198365
 20
27.00869124269773
 30
0.0
  0
LINE
  5
28D
330
1F
100
AcDbEntity
  8
0
  6
Continuous
 62
     7
370
    25
100
AcDbLine
 10
34.8295386169
 20
27.014819602
 30
0.0
 11
34.8504486033
 21
27.0027485238
 31
0.0
  0
LINE
  5
28E
330
1F
100
AcDbEntity
  8
0
  6
Continuous
 62
     7
370
    25
100
AcDbLine
 10
34.8295386169
 20
27.0469875695
 30
0.0
 11
34.8295386169
 21
27.014819602
 31
0.0
  0
LINE
  5
28F
330
1F
100
AcDbEntity
  8
0
  6
Continuous
 62
     7
370
    25
100
AcDbLine
 10
34.8527641971
 20
27.0335797274
 30
0.0
 11
34.8295386169
 21
27.0469875695
 31
0.0
  0
LINE
  5
290
330
1F
100
AcDbEntity
  8
0
  6
Continuous
 62
     7
370
    25
100
AcDbLine
 10
34.856299731
 20
27.0356207477
 30
0.0
 11
34.8527641971
 21
27.0335797274
 31
0.0
  0
LINE
  5
291
330
1F
100
AcDbEntity
  8
0
  6
Continuous
 62
     7
370
    25
100
AcDbLine
 10
34.8720736259
 20
27.010732263
 30
0.0
 11
34.868538092
 21
27.0086912427
 31
0.0
  0
LINE
  5
292
330
1F
100
AcDbEntity
  8
0
  6
Continuous
 62
     7
370
    25
100
AcDbLine
 10
34.8609309187
 20
26.9898421436
 30
0.0
 11
34.8573953848
 21
26.9878011233
 31
0.0
  0
LINE
  5
293
330
1F
100
AcDbEntity
  8
0
  6
Continuous
 62
     7
370
    25
100
AcDbLine
 10
34.8330741508
 20
27.0490285898
 30
0.0
 11
34.8295386169
 21
27.0469875695
 31
0.0
  0
LINE
  5
294
330
1F
100
AcDbEntity
  8
0
  6
Continuous
 62
     7
370
    25
100
AcDbLine
 10
34.824159985
 20
26.9666777567
 30
0.0
 11
34.8206244511
 21
26.9646367364
 31
0.0
  0
LINE
  5
295
330
1F
100
AcDbEntity
  8
0
  6
Continuous
 62
     7
370
    25
100
AcDbLine
 10
34.8444431942
 20
26.998716945
 30
0.0
 11
34.8409076603
 21
26.9966759247
 31
0.0
  0
LINE
  5
296
330
1F
100
AcDbEntity
  8
0
  6
Continuous
 62
     7
370
    25
100
AcDbLine
 10
34.8665196828
 20
26.9634146722
 30
0.0
 11
34.8629841489
 21
26.9613736519
 31
0.0
  0
LINE
  5
297
330
1F
100
AcDbEntity
  8
0
  6
Continuous
 62
     7
370
    25
100
AcDbLine
 10
34.8764262459
 20
26.9365050865
 30
0.0
 11
34.872890712
 21
26.9344640662
 31
0.0
  0
LINE
  5
298
330
1F
100
AcDbEntity
  8
0
  6
Continuous
 62
     7
370
    25
100
AcDbLine
 10
34.780703427
 20
27.0303662545
 30
0.0
 11
34.780703427
 21
27.0378646823
 31
0.0
  0
SPLINE
  5
299
330
1F
100
AcDbEntity
  8
0
  6
Continuous
 62
     7
370
    25
100
AcDbSpline
210
0.0
220
0.0
230
1.0
 70
     8
 71
     3
 72
    11
 73
     7
 74
     0
 42
0.00000001
 43
0.00000001
 40
0.0
 40
0.0
 40
0.0
 40
0.0
 40
0.1651018012951946
 40
0.4897374328254557
 40
0.7448726194242171
 40
1.0
 40
1.0
 40
1.0
 40
1.0
 10
34.80725320250093
 20
26.98701716098043
 30
0.0
 10
34.80605843505811
 20
26.98652856165184
 30
0.0
 10
34.80251442563073
 20
26.98507924142039
 30
0.0
 10
34.79618366466494
 20
26.984892560784
 30
0.0
 10
34.78858706897895
 20
26.98639928431993
 30
0.0
 10
34.78372592043315
 20
26.98889060468326
 30
0.0
 10
34.78129538334331
 20
26.99013624580875
 30
0.0
  0
SPLINE
  5
29A
330
1F
100
AcDbEntity
  8
0
  6
Continuous
 62
     7
370
    25
100
AcDbSpline
210
0.0
220
0.0
230
1.0
 70
     8
 71
     3
 72
    12
 73
     8
 74
     0
 42
0.00000001
 43
0.00000001
 40
0.0
 40
0.0
 40
0.0
 40
0.0
 40
0.1866243975841801
 40
0.3730307715706501
 40
0.5595845494448439
 40
0.7795585864281538
 40
1.0
 40
1.0
 40
1.0
 40
1.0
 10
34.78129538334331
 20
26.99013624580875
 30
0.0
 10
34.7773182199166
 20
26.99280919412316
 30
0.0
 10
34.76936853937682
 20
26.99815196808519
 30
0.0
 10
34.75875155676442
 20
27.01134919273785
 30
0.0
 10
34.75065108939589
 20
27.02737209658288
 30
0.0
 10
34.745726827862
 20
27.04482014742196
 30
0.0
 10
34.74527361230921
 20
27.05588620286521
 30
0.0
 10
34.74504676405267
 20
27.06142510233274
 30
0.0
  0
SPLINE
  5
29B
330
1F
100
AcDbEntity
  8
0
  6
Continuous
 62
     7
370
    25
100
AcDbSpline
210
0.0
220
0.0
230
1.0
 70
     8
 71
     3
 72
    10
 73
     6
 74
     0
 42
0.00000001
 43
0.00000001
 40
0.0
 40
0.0
 40
0.0
 40
0.0
 40
0.3532281976873239
 40
0.706089699897522
 40
1.0
 40
1.0
 40
1.0
 40
1.0
 10
34.74504676405267
 20
27.06142510233274
 30
0.0
 10
34.74523266187789
 20
27.0659180214542
 30
0.0
 10
34.74560426454291
 20
27.07489919547968
 30
0.0
 10
34.74861803654662
 20
27.08598698000164
 30
0.0
 10
34.75274455046097
 20
27.09061121358095
 30
0.0
 10
34.75461974807875
 20
27.09271258824536
 30
0.0
  0
LINE
  5
29C
330
1F
100
AcDbEntity
  8
0
  6
Continuous
 62
     7
370
    25
100
AcDbLine
 10
34.8054089429
 20
27.0470406142
 30
0.0
 11
34.8007602999
 21
27.0483821983
 31
0.0
  0
SPLINE
  5
29D
330
1F
100
AcDbEntity
  8
0
  6
Continuous
 62
     7
370
    25
100
AcDbSpline
210
0.0
220
0.0
230
1.0
 70
     8
 71
     3
 72
    11
 73
     7
 74
     0
 42
0.00000001
 43
0.00000001
 40
0.0
 40
0.0
 40
0.0
 40
0.0
 40
0.2808041604286829
 40
0.5593155177302143
 40
0.7795669277145764
 40
1.0
 40
1.0
 40
1.0
 40
1.0
 10
34.80076029994606
 20
27.04838219831339
 30
0.0
 10
34.80002117819866
 20
27.05196695691942
 30
0.0
 10
34.79854896973072
 20
27.05910720410309
 30
0.0
 10
34.79321567795493
 20
27.06927651737673
 30
0.0
 10
34.78650090049161
 20
27.07666678458817
 30
0.0
 10
34.78207939037738
 20
27.07957567838879
 30
0.0
 10
34.77986772398604
 20
27.08103072485224
 30
0.0
  0
SPLINE
  5
29E
330
1F
100
AcDbEntity
  8
0
  6
Continuous
 62
     7
370
    25
100
AcDbSpline
210
0.0
220
0.0
230
1.0
 70
     8
 71
     3
 72
    10
 73
     6
 74
     0
 42
0.00000001
 43
0.00000001
 40
0.0
 40
0.0
 40
0.0
 40
0.0
 40
0.489837747786618
 40
0.9783313293386082
 40
1.0
 40
1.0
 40
1.0
 40
1.0
 10
34.77986772398604
 20
27.08103072485224
 30
0.0
 10
34.77690848614514
 20
27.08242168202901
 30
0.0
 10
34.77099813092283
 20
27.08519977944995
 30
0.0
 10
34.76502887164776
 20
27.08524851127774
 30
0.0
 10
34.76323452591488
 20
27.08334210381287
 30
0.0
 10
34.76315831273648
 20
27.08326113091587
 30
0.0
  0
LINE
  5
29F
330
1F
100
AcDbEntity
  8
0
  6
Continuous
 62
     7
370
    25
100
AcDbLine
 10
34.8018745707
 20
26.9999695119
 30
0.0
 11
34.8018745707
 21
27.0181444135
 31
0.0
  0
LINE
  5
2A0
330
1F
100
AcDbEntity
  8
0
  6
Continuous
 62
     7
370
    25
100
AcDbLine
 10
34.8018745707
 20
27.0181444135
 30
0.0
 11
34.780703427
 21
27.0303662545
 31
0.0
  0
LINE
  5
2A1
330
1F
100
AcDbEntity
  8
0
  6
Continuous
 62
     7
370
    25
100
AcDbLine
 10
34.8330741508
 20
27.005280154
 30
0.0
 11
34.8295386169
 21
27.0032391338
 31
0.0
  0
LINE
  5
2A2
330
1F
100
AcDbEntity
  8
0
  6
Continuous
 62
     7
370
    25
100
AcDbLine
 10
34.779867724
 20
27.0810307249
 30
0.0
 11
34.7763321901
 21
27.0789897046
 31
0.0
  0
LINE
  5
2A3
330
1F
100
AcDbEntity
  8
0
  6
Continuous
 62
     7
370
    25
100
AcDbLine
 10
34.8007602999
 20
27.0483821983
 30
0.0
 11
34.797224766
 21
27.046341178
 31
0.0
  0
LINE
  5
2A4
330
1F
100
AcDbEntity
  8
0
  6
Continuous
 62
     7
370
    25
100
AcDbLine
 10
34.7450467641
 20
27.0614251023
 30
0.0
 11
34.7415112301
 21
27.0593840821
 31
0.0
  0
LINE
  5
2A5
330
1F
100
AcDbEntity
  8
0
  6
Continuous
 62
     7
370
    25
100
AcDbLine
 10
34.8018745707
 20
27.0181444135
 30
0.0
 11
34.7983390368
 21
27.0161033932
 31
0.0
  0
LINE
  5
2A6
330
1F
100
AcDbEntity
  8
0
  6
Continuous
 62
     7
370
    25
100
AcDbLine
 10
34.8018745707
 20
26.9999695119
 30
0.0
 11
34.7983390368
 21
26.9979284916
 31
0.0
  0
LINE
  5
2A7
330
1F
100
AcDbEntity
  8
0
  6
Continuous
 62
     7
370
    25
100
AcDbLine
 10
34.780703427
 20
27.0303662545
 30
0.0
 11
34.7771678931
 21
27.0283252343
 31
0.0
  0
LINE
  5
2A8
330
1F
100
AcDbEntity
  8
0
  6
Continuous
 62
     7
370
    25
100
AcDbLine
 10
34.7812953833
 20
26.9901362458
 30
0.0
 11
34.7777598494
 21
26.9880952255
 31
0.0
  0
LINE
  5
2A9
330
1F
100
AcDbEntity
  8
0
  6
Continuous
 62
     7
370
    25
100
AcDbLine
 10
34.605125122
 20
27.1149255313
 30
0.0
 11
34.605125122
 21
27.112884511
 31
0.0
  0
LINE
  5
2AA
330
1F
100
AcDbEntity
  8
0
  6
Continuous
 62
     7
370
    25
100
AcDbLine
 10
34.5618148317
 20
27.1079196299
 30
0.0
 11
34.605125122
 21
27.1149255313
 31
0.0
  0
LINE
  5
2AB
330
1F
100
AcDbEntity
  8
0
  6
Continuous
 62
     7
370
    25
100
AcDbLine
 10
34.5956329028
 20
27.2159131515
 30
0.0
 11
34.5618148317
 21
27.1079196299
 31
0.0
  0
LINE
  5
2AC
330
1F
100
AcDbEntity
  8
0
  6
Continuous
 62
     7
370
    25
100
AcDbLine
 10
34.606892889
 20
27.1139050211
 30
0.0
 11
34.644459255
 21
27.0644550578
 31
0.0
  0
LINE
  5
2AD
330
1F
100
AcDbEntity
  8
0
  6
Continuous
 62
     7
370
    25
100
AcDbLine
 10
34.5618148317
 20
27.1079196299
 30
0.0
 11
34.5582792978
 21
27.1058786096
 31
0.0
  0
LINE
  5
2AE
330
1F
100
AcDbEntity
  8
0
  6
Continuous
 62
     7
370
    25
100
AcDbLine
 10
34.6033573551
 20
27.1118640009
 30
0.0
 11
34.606892889
 21
27.1139050211
 31
0.0
  0
LINE
  5
2AF
330
1F
100
AcDbEntity
  8
0
  6
Continuous
 62
     7
370
    25
100
AcDbLine
 10
34.6033573551
 20
26.1224611673
 30
0.0
 11
34.6015895881
 21
26.1214406572
 31
0.0
  0
LINE
  5
2B0
330
1F
100
AcDbEntity
  8
0
  6
Continuous
 62
     7
370
    25
100
AcDbLine
 10
34.605125122
 20
27.1149255313
 30
0.0
 11
34.6015895881
 21
27.112884511
 31
0.0
  0
LWPOLYLINE
  5
2B1
330
1F
100
AcDbEntity
  8
0
  6
Continuous
 62
     7
370
    25
100
AcDbPolyline
 90
      144
 70
   128
 43
0.0
 10
36.8395825506
 20
28.356739376
 10
36.8842362444
 20
28.3836756817
 10
36.9267973325
 20
28.4117182702
 10
36.9671836606
 20
28.4408130116
 10
37.0053172722
 20
28.4709037454
 10
37.0411245592
 20
28.5019323882
 10
37.0745364038
 20
28.5338390466
 10
37.1054883124
 20
28.5665621319
 10
37.1339205393
 20
28.60003848
 10
37.1597782027
 20
28.6342034725
 10
37.1830113904
 20
28.6689911616
 10
37.203575256
 20
28.704334398
 10
37.2214301059
 20
28.7401649595
 10
37.2365414752
 20
28.7764136836
 10
37.2488801951
 20
28.8130106005
 10
37.2584224485
 20
28.8498850683
 10
37.2651498162
 20
28.8869659094
 10
37.2690493127
 20
28.9241815477
 10
37.2701134108
 20
28.9614601472
 10
37.2683400566
 20
28.9987297501
 10
37.2637326731
 20
29.035918416
 10
37.2563001538
 20
29.0729543608
 10
37.2460568455
 20
29.1097660952
 10
37.2330225204
 20
29.1462825626
 10
37.2172223384
 20
29.1824332765
 10
37.1986867981
 20
29.2181484562
 10
37.177451678
 20
29.2533591619
 10
37.1535579676
 20
29.2879974274
 10
37.1270517882
 20
29.3219963916
 10
37.0979843039
 20
29.3552904273
 10
37.0664116226
 20
29.3878152681
 10
37.0323946882
 20
29.4195081323
 10
36.9959991626
 20
29.4503078441
 10
36.9572952987
 20
29.4801549518
 10
36.9163578056
 20
29.5089918426
 10
36.8732657036
 20
29.5367628534
 10
36.8281021719
 20
29.5634143787
 10
36.7809543884
 20
29.5888949739
 10
36.731913361
 20
29.6131554546
 10
36.681073752
 20
29.6361489916
 10
36.6285336956
 20
29.6578312012
 10
36.5743946081
 20
29.6781602308
 10
36.5187609925
 20
29.6970968401
 10
36.4617402368
 20
29.7146044761
 10
36.4034424063
 20
29.7306493445
 10
36.3439800314
 20
29.7452004744
 10
36.2834678905
 20
29.7582297782
 10
36.2220227884
 20
29.7697121058
 10
36.1597633305
 20
29.7796252933
 10
36.0968096944
 20
29.7879502055
 10
36.0332833976
 20
29.7946707731
 10
35.9693070628
 20
29.7997740237
 10
35.9050041815
 20
29.8032501064
 10
35.8404988757
 20
29.8050923117
 10
35.7759156579
 20
29.8052970836
 10
35.711379191
 20
29.8038640267
 10
35.6470140479
 20
29.8007959072
 10
35.5829444704
 20
29.7960986475
 10
35.5192941302
 20
29.7897813146
 10
35.4561858895
 20
29.7818561025
 10
35.3937415641
 20
29.7723383091
 10
35.3320816884
 20
29.7612463063
 10
35.2713252826
 20
29.7486015046
 10
35.2115896227
 20
29.7344283119
 10
35.1529900148
 20
29.7187540862
 10
35.0956395718
 20
29.7016090831
 10
35.0396489954
 20
29.6830263969
 10
34.9851263626
 20
29.6630418973
 10
34.9321769166
 20
29.6416941597
 10
34.8809028642
 20
29.6190243911
 10
34.831403178
 20
29.59507635
 10
34.7837734057
 20
29.5698962628
 10
34.7381054856
 20
29.5435327337
 10
34.6944875691
 20
29.5160366515
 10
34.6530038505
 20
29.4874610909
 10
34.6137344044
 20
29.4578612105
 10
34.5767550315
 20
29.4272941459
 10
34.542137112
 20
29.3958189
 10
34.5099474676
 20
29.3634962282
 10
34.4802482331
 20
29.3303885222
 10
34.4530967359
 20
29.2965596886
 10
34.4285453858
 20
29.2620750262
 10
34.4066415735
 20
29.2270010997
 10
34.3874275792
 20
29.1914056111
 10
34.370940491
 20
29.1553572694
 10
34.3572121335
 20
29.1189256575
 10
34.3462690062
 20
29.0821810982
 10
34.3381322321
 20
29.0451945184
 10
34.3328175175
 20
29.0080373122
 10
34.3303351212
 20
28.9707812029
 10
34.3306898348
 20
28.9334981048
 10
34.3338809738
 20
28.8962599844
 10
34.3399023782
 20
28.8591387212
 10
34.3487424252
 20
28.8222059693
 10
34.3603840512
 20
28.7855330187
 10
34.3748047846
 20
28.7491906582
 10
34.3919767896
 20
28.7132490382
 10
34.4118669196
 20
28.6777775358
 10
34.4344367812
 20
28.6428446204
 10
34.4596428086
 20
28.6085177221
 10
34.4874363474
 20
28.5748631008
 10
34.5177637486
 20
28.5419457192
 10
34.5505664721
 20
28.5098291166
 10
34.5857811999
 20
28.4785752867
 10
34.6233399581
 20
28.4482445577
 10
34.6631702481
 20
28.4188954761
 10
34.7051951869
 20
28.3905846936
 10
34.7493336549
 20
28.3633668575
 10
34.7955004531
 20
28.3372945057
 10
34.8436064671
 20
28.3124179647
 10
34.8935588395
 20
28.2887852529
 10
34.9452611486
 20
28.2664419879
 10
34.9986135952
 20
28.2454312982
 10
35.0535131947
 20
28.22579374
 10
35.1098539761
 20
28.2075672191
 10
35.1675271865
 20
28.1907869175
 10
35.2264215012
 20
28.1754852259
 10
35.2864232382
 20
28.1616916805
 10
35.3474165782
 20
28.1494329065
 10
35.4092837875
 20
28.1387325669
 10
35.4719054459
 20
28.129611316
 10
35.5351606767
 20
28.1220867603
 10
35.5989273802
 20
28.1161734243
 10
35.6630824697
 20
28.1118827222
 10
35.7275021085
 20
28.1092229363
 10
35.7920619494
 20
28.1081992007
 10
35.8566373746
 20
28.1088134915
 10
35.9211037362
 20
28.1110646229
 10
35.9853365967
 20
28.1149482496
 10
36.0492119695
 20
28.1204568752
 10
36.1126065579
 20
28.1275798666
 10
36.1753979933
 20
28.1363034745
 10
36.2374650714
 20
28.1466108599
 10
36.298687986
 20
28.1584821268
 10
36.3589485605
 20
28.1718943606
 10
36.4181304758
 20
28.1868216719
 10
36.4761194947
 20
28.2032352471
 10
36.532803683
 20
28.2211034036
 10
36.588073625
 20
28.240391651
 10
36.6418226347
 20
28.2610627578
 10
36.6939469622
 20
28.2830768231
 10
36.7443459934
 20
28.3063913541
 10
36.7929224447
 20
28.3309613473
 10
36.8395825506
 20
28.356739376
  0
LWPOLYLINE
  5
2B2
330
1F
100
AcDbEntity
  8
0
  6
Continuous
 62
     7
370
    25
100
AcDbPolyline
 90
       74
 70
   128
 43
0.0
 10
36.860795754
 20
28.31999703
 10
36.8138536387
 20
28.2940474643
 10
36.7650083737
 20
28.269296157
 10
36.7143516609
 20
28.2457895759
 10
36.6619786028
 20
28.2235718523
 10
36.6079875246
 20
28.2026846975
 10
36.5524797887
 20
28.1831673251
 10
36.4955596052
 20
28.1650563769
 10
36.4373338358
 20
28.1483858543
 10
36.3779117932
 20
28.1331870544
 10
36.3174050362
 20
28.1194885114
 10
36.2559271598
 20
28.1073159428
 10
36.1935935823
 20
28.0966922015
 10
36.1305213286
 20
28.0876372324
 10
36.0668288101
 20
28.0801680352
 10
36.002635603
 20
28.0742986326
 10
35.9380622233
 20
28.0700400438
 10
35.8732299007
 20
28.0674002637
 10
35.8082603511
 20
28.0663842484
 10
35.7432755481
 20
28.0669939053
 10
35.678397494
 20
28.0692280898
 10
35.6137479903
 20
28.0730826075
 10
35.5494484099
 20
28.0785502219
 10
35.4856194684
 20
28.0856206681
 10
35.4223809981
 20
28.0942806722
 10
35.3598517226
 20
28.1045139759
 10
35.298149034
 20
28.1163013671
 10
35.2373887727
 20
28.1296207164
 10
35.1776850097
 20
28.144447018
 10
35.1191498326
 20
28.1607524371
 10
35.0618931352
 20
28.178506362
 10
35.0060224107
 20
28.1976754615
 10
34.9516425508
 20
28.2182237477
 10
34.8988556479
 20
28.2401126433
 10
34.8477608039
 20
28.2633010542
 10
34.7984539441
 20
28.2877454465
 10
34.7510276368
 20
28.3133999285
 10
34.7055709201
 20
28.3402163365
 10
34.6621691342
 20
28.3681443257
 10
34.6209037614
 20
28.397131464
 10
34.5818522731
 20
28.4271233311
 10
34.5450879844
 20
28.4580636205
 10
34.5106799165
 20
28.489894245
 10
34.4786926668
 20
28.5225554459
 10
34.4491862881
 20
28.5559859053
 10
34.4222161756
 20
28.5901228609
 10
34.3978329628
 20
28.6249022242
 10
34.3760824266
 20
28.6602587005
 10
34.3570054014
 20
28.6961259118
 10
34.3406377024
 20
28.7324365211
 10
34.3270100581
 20
28.769122359
 10
34.3161480531
 20
28.8061145518
 10
34.3080720796
 20
28.8433436504
 10
34.3027972994
 20
28.8807397611
 10
34.3003336154
 20
28.9182326766
 10
34.3006856529
 20
28.9557520079
 10
34.303852751
 20
28.9932273163
 10
34.3098289637
 20
29.0305882459
 10
34.3186030714
 20
29.0677646554
 10
34.3301586015
 20
29.1046867501
 10
34.3444738599
 20
29.1412852125
 10
34.361521971
 20
29.1774913328
 10
34.3812709289
 20
29.2132371379
 10
34.4036836569
 20
29.2484555187
 10
34.4287180775
 20
29.2830803564
 10
34.4563271911
 20
29.3170466464
 10
34.4864591646
 20
29.3502906207
 10
34.5190574283
 20
29.3827498672
 10
34.5540607824
 20
29.4143634469
 10
34.5914035117
 20
29.4450720087
 10
34.6310155092
 20
29.4748179004
 10
34.6728224074
 20
29.5035452774
 10
34.7167457184
 20
29.5312002069
 10
34.7393030654
 20
29.5445096888
  0
LWPOLYLINE
  5
2B3
330
1F
100
AcDbEntity
  8
0
  6
Continuous
 62
     7
370
    25
100
AcDbPolyline
 90
       38
 70
   128
 43
0.0
 10
36.8609680991
 20
29.5445096888
 10
36.8722235072
 20
29.5379402394
 10
36.9166631886
 20
29.510561615
 10
36.9590067061
 20
29.4820973707
 10
36.9991745641
 20
29.4526009451
 10
37.0370913517
 20
29.4221277147
 10
37.0726858841
 20
29.3907348897
 10
37.1058913363
 20
29.3584814071
 10
37.1366453685
 20
29.3254278192
 10
37.1648902432
 20
29.2916361807
 10
37.1905729337
 20
29.257169932
 10
37.2136452233
 20
29.2220937798
 10
37.2340637963
 20
29.1864735758
 10
37.2517903188
 20
29.1503761934
 10
37.2667915113
 20
29.1138694016
 10
37.2790392105
 20
29.077021738
 10
37.2885104227
 20
29.0399023803
 10
37.2951873666
 20
29.0025810163
 10
37.299057507
 20
28.9651277128
 10
37.3001135781
 20
28.9276127846
 10
37.2983535973
 20
28.890106662
 10
37.2937808687
 20
28.8526797588
 10
37.2864039771
 20
28.8154023401
 10
37.2762367719
 20
28.7783443905
 10
37.263298341
 20
28.7415754822
 10
37.2476129749
 20
28.7051646452
 10
37.2292101212
 20
28.6691802368
 10
37.2081243294
 20
28.6336898142
 10
37.1843951858
 20
28.5987600069
 10
37.1580672395
 20
28.5644563919
 10
37.1291899183
 20
28.5308433707
 10
37.0978174365
 20
28.4979840482
 10
37.0640086927
 20
28.4659401143
 10
37.0278271591
 20
28.4347717283
 10
36.9893407629
 20
28.4045374055
 10
36.9486217582
 20
28.3752939076
 10
36.9057465907
 20
28.3470961363
 10
36.860795754
 20
28.31999703
  0
SPLINE
  5
2B4
330
1F
100
AcDbEntity
  8
0
  6
Continuous
 62
     7
370
    25
100
AcDbSpline
210
0.0
220
0.0
230
1.0
 70
     8
 71
     3
 72
    24
 73
    20
 74
     0
 42
0.00000001
 43
0.00000001
 40
0.0
 40
0.0
 40
0.0
 40
0.0
 40
0.0253809353995787
 40
0.0873800137357453
 40
0.1494191521254931
 40
0.2114844185254703
 40
0.2735061861394166
 40
0.3354827890608196
 40
0.3974829089228004
 40
0.4595385912580171
 40
0.5215952582074537
 40
0.5835966412180763
 40
0.645572806447677
 40
0.7075931318968728
 40
0.769658097084882
 40
0.8316985404651882
 40
0.8936836405528571
 40
0.955668872780513
 40
1.0
 40
1.0
 40
1.0
 40
1.0
 10
37.26464548868515
 20
27.86179281670256
 30
0.0
 10
37.26456082723431
 20
27.86410584823226
 30
0.0
 10
37.26426935969695
 20
27.87206901915779
 30
0.0
 10
37.26205015477088
 20
27.87952409294899
 30
0.0
 10
37.25816325161691
 20
27.88265726856538
 30
0.0
 10
37.25294701157041
 20
27.87776335243902
 30
0.0
 10
37.24699616834656
 20
27.86582706234409
 30
0.0
 10
37.24093150586362
 20
27.84809733359367
 30
0.0
 10
37.23553464247873
 20
27.82658203112398
 30
0.0
 10
37.23157263981796
 20
27.80365787696521
 30
0.0
 10
37.22965885565049
 20
27.78189073450728
 30
0.0
 10
37.23010003919912
 20
27.76373179999768
 30
0.0
 10
37.23282121234442
 20
27.75122377151243
 30
0.0
 10
37.23739423186233
 20
27.74578426774924
 30
0.0
 10
37.24313046094998
 20
27.7480627370812
 30
0.0
 10
37.24925407884496
 20
27.75782396356987
 30
0.0
 10
37.25495194917978
 20
27.77398924603302
 30
0.0
 10
37.25942031464936
 20
27.79266945692995
 30
0.0
 10
37.26122185550897
 20
27.80568261112899
 30
0.0
 10
37.26197305069148
 20
27.81110875436156
 30
0.0
  0
SPLINE
  5
2B5
330
1F
100
AcDbEntity
  8
0
  6
Continuous
 62
     7
370
    25
100
AcDbSpline
210
0.0
220
0.0
230
1.0
 70
    11
 71
     3
 72
    26
 73
    22
 74
     0
 42
0.00000001
 43
0.00000001
 40
0.0
 40
0.0
 40
0.0
 40
0.0
 40
0.0536511324436263
 40
0.1073009288976445
 40
0.1609853906044142
 40
0.2146924617187453
 40
0.2683618919345481
 40
0.321992239689339
 40
0.375642937409145
 40
0.4293417151240109
 40
0.4830413448572173
 40
0.5366931356201656
 40
0.590323104626163
 40
0.6439912868904271
 40
0.6976980973563526
 40
0.7513836883134252
 40
0.8050213889394665
 40
0.8586592039104868
 40
0.9123449137982219
 40
0.9660517000346346
 40
1.0
 40
1.0
 40
1.0
 40
1.0
 10
34.78864911937205
 20
27.39875646725292
 30
0.0
 10
34.78809326028054
 20
27.40528881562244
 30
0.0
 10
34.78698155593918
 20
27.41835334969672
 30
0.0
 10
34.77835789989791
 20
27.43954586507899
 30
0.0
 10
34.76577856378924
 20
27.45900276542116
 30
0.0
 10
34.75026583411142
 20
27.47487329980266
 30
0.0
 10
34.73380332575889
 20
27.48533783078899
 30
0.0
 10
34.71822709863709
 20
27.48924935166961
 30
0.0
 10
34.70522428706173
 20
27.4861310040481
 30
0.0
 10
34.69613350366983
 20
27.47625842201666
 30
0.0
 10
34.6918686486718
 20
27.46066917496512
 30
0.0
 10
34.69284470632077
 20
27.44109324948939
 30
0.0
 10
34.69895987887609
 20
27.41974952038527
 30
0.0
 10
34.70961871714601
 20
27.39908096300455
 30
0.0
 10
34.72375436637643
 20
27.38148540164392
 30
0.0
 10
34.73987743888185
 20
27.36901840714943
 30
0.0
 10
34.75619395090359
 20
27.3631118170484
 30
0.0
 10
34.77085617808218
 20
27.36438247915267
 30
0.0
 10
34.78200594735326
 20
27.3726749104901
 30
0.0
 10
34.78784039514709
 20
27.38508593687094
 30
0.0
 10
34.78842334595041
 20
27.39494003351106
 30
0.0
 10
34.78864911937205
 20
27.39875646725292
 30
0.0
  0
LWPOLYLINE
  5
2B6
330
1F
100
AcDbEntity
  8
0
  6
Continuous
 62
     7
370
    25
100
AcDbPolyline
 90
       74
 70
   128
 43
0.0
 10
37.3001355822
 20
27.7319881204
 10
37.2995855116
 20
27.7085392263
 10
37.2964184135
 20
27.6710639179
 10
37.2904422008
 20
27.6337029883
 10
37.2816680931
 20
27.5965265787
 10
37.270112563
 20
27.5596044841
 10
37.2557973046
 20
27.5230060217
 10
37.2387491935
 20
27.4867999014
 10
37.2190002356
 20
27.4510540963
 10
37.1965875076
 20
27.4158357155
 10
37.171553087
 20
27.3812108778
 10
37.1439439734
 20
27.3472445877
 10
37.1138119999
 20
27.3140006134
 10
37.0812137362
 20
27.281541367
 10
37.0462103821
 20
27.2499277873
 10
37.0088676528
 20
27.2192192255
 10
36.9692556553
 20
27.1894733338
 10
36.927448757
 20
27.1607459568
 10
36.8835254461
 20
27.1330910273
 10
36.8375681839
 20
27.1065604646
 10
36.7896632503
 20
27.0812040769
 10
36.739900582
 20
27.0570694682
 10
36.6883736031
 20
27.0342019488
 10
36.6351790501
 20
27.0126444501
 10
36.5804167902
 20
26.9924374439
 10
36.5241896339
 20
26.9736188668
 10
36.4666031418
 20
26.9562240488
 10
36.4077654264
 20
26.9402856467
 10
36.3477869496
 20
26.9258335833
 10
36.2867803145
 20
26.9128949909
 10
36.2248600547
 20
26.9014941601
 10
36.1621424192
 20
26.8916524951
 10
36.0987451536
 20
26.8833884723
 10
36.0347872798
 20
26.8767176068
 10
35.9703888719
 20
26.8716524222
 10
35.9056708313
 20
26.868202428
 10
35.8407546593
 20
26.8663741013
 10
35.7757622291
 20
26.8661708744
 10
35.7108155575
 20
26.8675931289
 10
35.6460365748
 20
26.8706381946
 10
35.5815468969
 20
26.8753003549
 10
35.5174675964
 20
26.8815708569
 10
35.4539189756
 20
26.8894379285
 10
35.3910203402
 20
26.8988868
 10
35.328889776
 20
26.9098997323
 10
35.2676439265
 20
26.9224560495
 10
35.2073977744
 20
26.9365321787
 10
35.1482644257
 20
26.9521016932
 10
35.090354897
 20
26.969135363
 10
35.0337779073
 20
26.9876012092
 10
34.9786396741
 20
27.007464564
 10
34.9250437136
 20
27.0286881361
 10
34.8730906466
 20
27.0512320805
 10
34.8228780097
 20
27.0750540731
 10
34.7745000717
 20
27.1001093908
 10
34.7280476573
 20
27.1263509948
 10
34.6836079759
 20
27.1537296192
 10
34.6412644584
 20
27.1821938635
 10
34.6010966004
 20
27.2116902891
 10
34.5631798128
 20
27.2421635195
 10
34.5275852803
 20
27.2735563444
 10
34.4943798282
 20
27.3058098271
 10
34.463625796
 20
27.338863415
 10
34.4353809212
 20
27.3726550534
 10
34.4096982308
 20
27.4071213022
 10
34.3866259412
 20
27.4421974544
 10
34.3662073682
 20
27.4778176583
 10
34.3484808457
 20
27.5139150408
 10
34.3334796532
 20
27.5504218326
 10
34.321231954
 20
27.5872694962
 10
34.3117607418
 20
27.6243888538
 10
34.3050837979
 20
27.6617102179
 10
34.3012136575
 20
27.6991635214
 10
34.3001355822
 20
27.7319881204
  0
LWPOLYLINE
  5
2B7
330
1F
100
AcDbEntity
  8
0
  6
Continuous
 62
     7
370
    25
100
AcDbPolyline
 90
       77
 70
   128
 43
0.0
 10
36.0928777897
 20
28.787802859
 10
36.1160523865
 20
28.8023356863
 10
36.1370689512
 20
28.817923657
 10
36.1557839194
 20
28.8344602894
 10
36.1720694487
 20
28.8518326215
 10
36.1858142927
 20
28.8699219827
 10
36.19692456
 20
28.8886048044
 10
36.2053243562
 20
28.9077534639
 10
36.2109563023
 20
28.9272371564
 10
36.2137819262
 20
28.9469227887
 10
36.2137819262
 20
28.9666758877
 10
36.2109563023
 20
28.9863615199
 10
36.2053243562
 20
29.0058452125
 10
36.19692456
 20
29.024993872
 10
36.1858142927
 20
29.0436766936
 10
36.1720694487
 20
29.0617660549
 10
36.1557839194
 20
29.079138387
 10
36.1370689512
 20
29.0956750194
 10
36.1160523865
 20
29.11126299
 10
36.0928777897
 20
29.1257958173
 10
36.0677034667
 20
29.1391742273
 10
36.0407013838
 20
29.1513068319
 10
36.0120559926
 20
29.162110753
 10
35.98196297
 20
29.171512189
 10
35.9506278821
 20
29.1794469185
 10
35.9182647791
 20
29.1858607393
 10
35.8850947339
 20
29.1907098385
 10
35.8513443316
 20
29.1939610917
 10
35.8172441216
 20
29.1955922897
 10
35.7830270429
 20
29.1955922897
 10
35.7489268329
 20
29.1939610917
 10
35.7151764306
 20
29.1907098385
 10
35.6820063854
 20
29.1858607393
 10
35.6496432824
 20
29.1794469185
 10
35.6183081945
 20
29.171512189
 10
35.5882151719
 20
29.162110753
 10
35.5595697807
 20
29.1513068319
 10
35.5325676978
 20
29.1391742273
 10
35.5073933748
 20
29.1257958173
 10
35.484218778
 20
29.11126299
 10
35.4632022133
 20
29.0956750194
 10
35.4444872451
 20
29.079138387
 10
35.4282017157
 20
29.0617660549
 10
35.4144568718
 20
29.0436766936
 10
35.4033466045
 20
29.024993872
 10
35.3949468083
 20
29.0058452125
 10
35.3893148622
 20
28.9863615199
 10
35.3864892383
 20
28.9666758877
 10
35.3864892383
 20
28.9469227887
 10
35.3893148622
 20
28.9272371564
 10
35.3949468083
 20
28.9077534639
 10
35.4033466045
 20
28.8886048044
 10
35.4144568718
 20
28.8699219827
 10
35.4282017157
 20
28.8518326215
 10
35.4444872451
 20
28.8344602894
 10
35.4632022133
 20
28.817923657
 10
35.484218778
 20
28.8023356863
 10
35.5073933748
 20
28.787802859
 10
35.5325676978
 20
28.7744244491
 10
35.5595697807
 20
28.7622918445
 10
35.5882151719
 20
28.7514879233
 10
35.6183081945
 20
28.7420864873
 10
35.6496432824
 20
28.7341517578
 10
35.6820063854
 20
28.727737937
 10
35.7151764306
 20
28.7228888379
 10
35.7489268329
 20
28.7196375847
 10
35.7830270429
 20
28.7180063867
 10
35.8172441216
 20
28.7180063867
 10
35.8513443316
 20
28.7196375847
 10
35.8850947339
 20
28.7228888379
 10
35.9182647791
 20
28.727737937
 10
35.9506278821
 20
28.7341517578
 10
35.98196297
 20
28.7420864873
 10
36.0120559926
 20
28.7514879233
 10
36.0407013838
 20
28.7622918445
 10
36.0677034667
 20
28.7744244491
 10
36.0928777897
 20
28.787802859
  0
LWPOLYLINE
  5
2B8
330
1F
100
AcDbEntity
  8
0
  6
Continuous
 62
     7
370
    25
100
AcDbPolyline
 90
       30
 70
   128
 43
0.0
 10
36.1744828012
 20
28.8547317367
 10
36.1720694487
 20
28.8576308519
 10
36.1557839194
 20
28.875003184
 10
36.1370689512
 20
28.8915398164
 10
36.1160523865
 20
28.9071277871
 10
36.0928777897
 20
28.9216606144
 10
36.0677034667
 20
28.9350390243
 10
36.0407013838
 20
28.9471716289
 10
36.0120559926
 20
28.9579755501
 10
35.98196297
 20
28.9673769861
 10
35.9506278821
 20
28.9753117156
 10
35.9182647791
 20
28.9817255364
 10
35.8850947339
 20
28.9865746355
 10
35.8513443316
 20
28.9898258887
 10
35.8172441216
 20
28.9914570867
 10
35.7830270429
 20
28.9914570867
 10
35.7489268329
 20
28.9898258887
 10
35.7151764306
 20
28.9865746355
 10
35.6820063854
 20
28.9817255364
 10
35.6496432824
 20
28.9753117156
 10
35.6183081945
 20
28.9673769861
 10
35.5882151719
 20
28.9579755501
 10
35.5595697807
 20
28.9471716289
 10
35.5325676978
 20
28.9350390243
 10
35.5073933748
 20
28.9216606144
 10
35.484218778
 20
28.9071277871
 10
35.4632022133
 20
28.8915398164
 10
35.4444872451
 20
28.875003184
 10
35.4282017157
 20
28.8576308519
 10
35.4257883633
 20
28.8547317367
  0
LINE
  5
2B9
330
1F
100
AcDbEntity
  8
0
  6
Continuous
 62
     7
370
    25
100
AcDbLine
 10
34.8186784691
 20
24.5928147925
 30
0.0
 11
34.815898184
 21
24.637356014
 31
0.0
  0
LINE
  5
2BA
330
1F
100
AcDbEntity
  8
0
  6
Continuous
 62
     7
370
    25
100
AcDbLine
 10
36.7843729805
 20
24.637356014
 30
0.0
 11
36.7815904296
 21
24.5927624543
 31
0.0
  0
LWPOLYLINE
  5
2BB
330
1F
100
AcDbEntity
  8
0
  6
Continuous
 62
     7
370
    25
100
AcDbPolyline
 90
        3
 70
   128
 43
0.0
 10
34.323374192
 20
25.0180666216
 10
34.3214869036
 20
25.0608093548
 10
34.3141167531
 20
25.2280446706
  0
LWPOLYLINE
  5
2BC
330
1F
100
AcDbEntity
  8
0
  6
Continuous
 62
     7
370
    25
100
AcDbPolyline
 90
        3
 70
   128
 43
0.0
 10
37.2861544114
 20
25.2280446706
 10
37.2817370639
 20
25.127755828
 10
37.276867988
 20
25.0176705934
  0
LWPOLYLINE
  5
2BD
330
1F
100
AcDbEntity
  8
0
  6
Continuous
 62
     7
370
    25
100
AcDbPolyline
 90
       88
 70
   128
 43
0.0
 10
37.2351355822
 20
15.9106596383
 10
37.2408605461
 20
15.8992984941
 10
37.2572009656
 20
15.8630484025
 10
37.2708058971
 20
15.8264237076
 10
37.2816497988
 20
15.7894931685
 10
37.2897123124
 20
15.7523261184
 10
37.2949783012
 20
15.7149923345
 10
37.2974378791
 20
15.6775619072
 10
37.2970864284
 20
15.6401051081
 10
37.2939246088
 20
15.6026922586
 10
37.2879583564
 20
15.5653935972
 10
37.2791988723
 20
15.5282791483
 10
37.2676626013
 20
15.4914185905
 10
37.2533712018
 20
15.4548811255
 10
37.2363515041
 20
15.4187353487
 10
37.2166354612
 20
15.38304912
 10
37.1942600877
 20
15.3478894365
 10
37.1692673912
 20
15.3133223069
 10
37.1417042927
 20
15.2794126273
 10
37.1116225392
 20
15.2462240596
 10
37.0790786059
 20
15.2138189119
 10
37.0441335908
 20
15.1822580215
 10
37.0068530993
 20
15.1516006407
 10
36.9673071219
 20
15.1219043254
 10
36.9255699018
 20
15.0932248274
 10
36.8817197963
 20
15.0656159895
 10
36.8358391295
 20
15.0391296443
 10
36.7880140376
 20
15.0138155173
 10
36.738334307
 20
14.989721133
 10
36.6868932064
 20
14.9668917261
 10
36.633787311
 20
14.9453701565
 10
36.5791163215
 20
14.9251968287
 10
36.5229828771
 20
14.9064096159
 10
36.4654923625
 20
14.8890437892
 10
36.40675271
 20
14.8731319512
 10
36.3468741973
 20
14.8587039745
 10
36.2859692399
 20
14.8457869464
 10
36.2241521806
 20
14.8344051171
 10
36.1615390745
 20
14.8245798548
 10
36.098247471
 20
14.8163296054
 10
36.0343961936
 20
14.8096698579
 10
35.9701051164
 20
14.8046131154
 10
35.9054949392
 20
14.8011688712
 10
35.8406869608
 20
14.7993435916
 10
35.7758028514
 20
14.7991407034
 10
35.7109644242
 20
14.8005605875
 10
35.6462934065
 20
14.8036005782
 10
35.5819112114
 20
14.8082549682
 10
35.5179387097
 20
14.8145150194
 10
35.4544960032
 20
14.8223689792
 10
35.3917021989
 20
14.8318021026
 10
35.3296751856
 20
14.8427966799
 10
35.2685314126
 20
14.85533207
 10
35.2083856708
 20
14.8693847389
 10
35.1493508776
 20
14.8849283043
 10
35.0915378648
 20
14.9019335846
 10
35.0350551701
 20
14.9203686544
 10
34.9800088339
 20
14.9401989036
 10
34.9265022
 20
14.9613871031
 10
34.8746357215
 20
14.9838934742
 10
34.8245067723
 20
15.0076757635
 10
34.7762094643
 20
15.0326893224
 10
34.7298344705
 20
15.0588871903
 10
34.6854688552
 20
15.0862201837
 10
34.6431959103
 20
15.1146369876
 10
34.6030949987
 20
15.1440842525
 10
34.5652414057
 20
15.1745066942
 10
34.5297061975
 20
15.2058471977
 10
34.4965560877
 20
15.2380469246
 10
34.4658533123
 20
15.2710454232
 10
34.4376555123
 20
15.3047807422
 10
34.4120156264
 20
15.3391895472
 10
34.3889817906
 20
15.3742072392
 10
34.3685972486
 20
15.4097680761
 10
34.3509002702
 20
15.4458052962
 10
34.3359240798
 20
15.4822512434
 10
34.3236967934
 20
15.5190374942
 10
34.3142413666
 20
15.5560949863
 10
34.3075755509
 20
15.5933541481
 10
34.3037118607
 20
15.6307450294
 10
34.3026575497
 20
15.6681974327
 10
34.3044145972
 20
15.7056410451
 10
34.3089797046
 20
15.7430055701
 10
34.3163443014
 20
15.7802208598
 10
34.3264945612
 20
15.8172170462
 10
34.3394114281
 20
15.8539246729
 10
34.3550706519
 20
15.8902748252
 10
34.3651355822
 20
15.9106596383
  0
LWPOLYLINE
  5
2BE
330
1F
100
AcDbEntity
  8
0
  6
Continuous
 62
     7
370
    25
100
AcDbPolyline
 90
       77
 70
   128
 43
0.0
 10
34.1551355822
 20
14.2753955405
 10
34.1565408097
 20
14.2361517627
 10
34.1607540912
 20
14.1969750324
 10
34.1677682286
 20
14.1579322821
 10
34.1775712381
 20
14.1190902158
 10
34.1901463717
 20
14.0805151946
 10
34.2054721448
 20
14.0422731231
 10
34.2235223736
 20
14.0044293374
 10
34.2442662196
 20
13.967048493
 10
34.2676682424
 20
13.9301944542
 10
34.2936884599
 20
13.8939301858
 10
34.322282417
 20
13.8583176445
 10
34.3534012615
 20
13.8234176737
 10
34.3869918273
 20
13.7892898996
 10
34.4229967255
 20
13.7559926289
 10
34.4613544423
 20
13.7235827492
 10
34.5019994443
 20
13.6921156325
 10
34.5448622901
 20
13.6616450397
 10
34.5898697492
 20
13.6322230294
 10
34.6369449272
 20
13.6038998685
 10
34.6860073969
 20
13.5767239467
 10
34.736973336
 20
13.5507416936
 10
34.7897556699
 20
13.5259974994
 10
34.8442642209
 20
13.5025336392
 10
34.9004058621
 20
13.4803902006
 10
34.9580846765
 20
13.4596050153
 10
35.0172021207
 20
13.4402135945
 10
35.0776571936
 20
13.4222490679
 10
35.1393466087
 20
13.4057421278
 10
35.2021649707
 20
13.390720976
 10
35.2660049554
 20
13.3772112758
 10
35.3307574934
 20
13.3652361084
 10
35.3963119559
 20
13.3548159331
 10
35.4625563443
 20
13.3459685526
 10
35.5293774812
 20
13.3387090826
 10
35.5966612038
 20
13.3330499256
 10
35.6642925589
 20
13.3290007503
 10
35.7321559996
 20
13.3265684746
 10
35.8001355822
 20
13.3257572541
 10
35.8681151649
 20
13.3265684746
 10
35.9359786055
 20
13.3290007503
 10
36.0036099607
 20
13.3330499256
 10
36.0708936833
 20
13.3387090826
 10
36.1377148202
 20
13.3459685526
 10
36.2039592086
 20
13.3548159331
 10
36.2695136711
 20
13.3652361084
 10
36.3342662091
 20
13.3772112758
 10
36.3981061938
 20
13.390720976
 10
36.4609245558
 20
13.4057421278
 10
36.5226139709
 20
13.4222490679
 10
36.5830690438
 20
13.4402135945
 10
36.642186488
 20
13.4596050153
 10
36.6998653024
 20
13.4803902006
 10
36.7560069436
 20
13.5025336392
 10
36.8105154946
 20
13.5259974994
 10
36.8632978285
 20
13.5507416936
 10
36.9142637676
 20
13.5767239467
 10
36.9633262373
 20
13.6038998685
 10
37.0104014153
 20
13.6322230294
 10
37.0554088744
 20
13.6616450397
 10
37.0982717202
 20
13.6921156325
 10
37.1389167222
 20
13.7235827492
 10
37.177274439
 20
13.7559926289
 10
37.2132793372
 20
13.7892898996
 10
37.246869903
 20
13.8234176737
 10
37.2779887475
 20
13.8583176445
 10
37.3065827046
 20
13.8939301858
 10
37.3326029221
 20
13.9301944542
 10
37.3560049448
 20
13.967048493
 10
37.3767487909
 20
14.0044293374
 10
37.3947990197
 20
14.0422731231
 10
37.4101247928
 20
14.0805151946
 10
37.4226999263
 20
14.1190902158
 10
37.4325029359
 20
14.1579322821
 10
37.4395170732
 20
14.1969750324
 10
37.4437303548
 20
14.2361517627
 10
37.4451355822
 20
14.2753955405
  0
LWPOLYLINE
  5
2BF
330
1F
100
AcDbEntity
  8
0
  6
Continuous
 62
     7
370
    25
100
AcDbPolyline
 90
        3
 70
   128
 43
0.0
 10
34.3651355822
 20
15.6634431352
 10
34.3634270689
 20
15.642056721
 10
34.3626355822
 20
15.614522472
  0
ARC
  5
2C0
330
1F
100
AcDbEntity
  8
0
  6
Continuous
 62
     7
370
    25
100
AcDbCircle
 10
36.7568900291
 20
15.6144790703
 30
0.0
 40
0.4807455551207722
100
AcDbArc
 50
0.0051726539
 51
5.8457272659
  0
CIRCLE
  5
2C1
330
1F
100
AcDbEntity
  8
0
  6
Continuous
 62
     7
370
    25
100
AcDbCircle
 10
26.1068062347
 20
11.937834872
 30
0.0
 40
0.4140000000000015
  0
CIRCLE
  5
2C2
330
1F
100
AcDbEntity
  8
0
  6
Continuous
 62
     7
370
    25
100
AcDbCircle
 10
26.1068062347
 20
11.937834872
 30
0.0
 40
1.470000000000006
  0
CIRCLE
  5
2C3
330
1F
100
AcDbEntity
  8
0
  6
Continuous
 62
     7
370
    25
100
AcDbCircle
 10
26.1068062347
 20
11.937834872
 30
0.0
 40
1.500000000000007
  0
DIMENSION
  5
2C4
330
1F
100
AcDbEntity
  8
0
  6
Continuous
 62
     7
370
    18
100
AcDbDimension
  2
_D_6
 10
26.3138062347
 20
12.2963693892
 30
0.0
 11
20.2243464523
 21
9.4583606129
 31
0.0
 70
   163
  1
<>\PFIXTURE MOUNTING \PHOLE
 71
     1
 42
-1.0
  3
SLDDIMSTYLE5
100
AcDbDiametricDimension
 15
25.8998062347
 25
11.5793003549
 35
0.0
 40
0.0
  0
DIMENSION
  5
2D7
330
1F
100
AcDbEntity
  8
0
  6
Continuous
 62
     7
370
    18
100
AcDbDimension
  2
_D_7
 10
24.807768129
 20
12.687834872
 30
0.0
 11
30.8907863958
 21
10.5032070744
 31
0.0
 70
   163
  1
<>
 71
     1
 42
-1.0
  3
SLDDIMSTYLE6
100
AcDbDiametricDimension
 15
27.4058443404
 25
11.187834872
 35
0.0
 40
0.0
  0
INSERT
  5
2F3
330
1F
100
AcDbEntity
  8
0
  6
Continuous
 62
     7
370
     0
100
AcDbBlockReference
  2
SW_CENTERMARKSYMBOL_0
 10
26.1068062347
 20
11.937834872
 30
0.0
  0
LINE
  5
2F4
330
1F
100
AcDbEntity
  8
0
  6
Continuous
 62
     7
370
    25
100
AcDbLine
 10
27.6068062347
 20
5.1935407652
 30
0.0
 11
27.6068062347
 21
6.6635407652
 31
0.0
  0
LINE
  5
2F5
330
1F
100
AcDbEntity
  8
0
  6
Continuous
 62
     7
370
    25
100
AcDbLine
 10
24.6068062347
 20
5.5005646022
 30
0.0
 11
24.6068062347
 21
5.1935407652
 31
0.0
  0
LINE
  5
2F6
330
1F
100
AcDbEntity
  8
0
  6
Continuous
 62
     7
370
    25
100
AcDbLine
 10
24.6068062347
 20
6.6635407652
 30
0.0
 11
24.6068062347
 21
5.6364838146
 31
0.0
  0
LINE
  5
2F7
330
1F
100
AcDbEntity
  8
0
  6
Continuous
 62
     7
370
    25
100
AcDbLine
 10
27.6068062347
 20
6.6635407652
 30
0.0
 11
27.5768062347
 21
6.6935407652
 31
0.0
  0
LINE
  5
2F8
330
1F
100
AcDbEntity
  8
0
  6
Continuous
 62
     7
370
    25
100
AcDbLine
 10
24.6368062347
 20
6.6935407652
 30
0.0
 11
24.6068062347
 21
6.6635407652
 31
0.0
  0
SPLINE
  5
2F9
330
1F
100
AcDbEntity
  8
0
  6
Continuous
 62
     7
370
    25
100
AcDbSpline
210
0.0
220
0.0
230
1.0
 70
    11
 71
     3
 72
    56
 73
    52
 74
     0
 42
0.00000001
 43
0.00000001
 40
0.0
 40
0.0
 40
0.0
 40
0.0
 40
0.0312500000000003
 40
0.0312500000000003
 40
0.0625000000000007
 40
0.0625000000000007
 40
0.093750000000001
 40
0.093750000000001
 40
0.1250000000000014
 40
0.1250000000000014
 40
0.1875000000000027
 40
0.1875000000000027
 40
0.2500000000000039
 40
0.2500000000000039
 40
0.2812500000000042
 40
0.2812500000000042
 40
0.3125000000000044
 40
0.3125000000000044
 40
0.3437500000000047
 40
0.3437500000000047
 40
0.3750000000000049
 40
0.3750000000000049
 40
0.4062500000000051
 40
0.4062500000000051
 40
0.4375000000000054
 40
0.4375000000000054
 40
0.4687500000000056
 40
0.4687500000000056
 40
0.5000000000000058
 40
0.5000000000000058
 40
0.5625000000000052
 40
0.5625000000000052
 40
0.6250000000000047
 40
0.6250000000000047
 40
0.6562500000000041
 40
0.6562500000000041
 40
0.6875000000000034
 40
0.6875000000000034
 40
0.7187500000000028
 40
0.7187500000000028
 40
0.7500000000000021
 40
0.7500000000000021
 40
0.8125000000000019
 40
0.8125000000000019
 40
0.8437500000000016
 40
0.8437500000000016
 40
0.8750000000000012
 40
0.8750000000000012
 40
0.9375000000000007
 40
0.9375000000000007
 40
1.0
 40
1.0
 40
1.0
 40
1.0
 10
26.91492489912389
 20
5.568540765200716
 30
0.0
 10
26.91492489912389
 20
5.573033791755972
 30
0.0
 10
26.91455314030176
 20
5.577451621585547
 30
0.0
 10
26.91309548913501
 20
5.586143073654608
 30
0.0
 10
26.91199186141396
 20
5.59046174754464
 30
0.0
 10
26.90910734898144
 20
5.59869642629866
 30
0.0
 10
26.90734087496227
 20
5.602601939061445
 30
0.0
 10
26.90316047676877
 20
5.609993292538111
 30
0.0
 10
26.90072444484683
 20
5.613492432902499
 30
0.0
 10
26.89272619372363
 20
5.622900506705042
 30
0.0
 10
26.88625771733691
 20
5.627966607672475
 30
0.0
 10
26.87222796873848
 20
5.63474962980469
 30
0.0
 10
26.86451973168823
 20
5.636536017173746
 30
0.0
 10
26.85299667082744
 20
5.636543124662428
 30
0.0
 10
26.84908508508296
 20
5.636101756277205
 30
0.0
 10
26.8414933518356
 20
5.634367089590327
 30
0.0
 10
26.83779393823513
 20
5.633083591757125
 30
0.0
 10
26.83059226590725
 20
5.629679487320787
 30
0.0
 10
26.82710056665547
 20
5.627550677472093
 30
0.0
 10
26.82062591798761
 20
5.622629419540109
 30
0.0
 10
26.8176012856376
 20
5.619819995052664
 30
0.0
 10
26.81199984651973
 20
5.613475852448901
 30
0.0
 10
26.80950859650224
 20
5.610036063800111
 30
0.0
 10
26.80514948018385
 20
5.602673349246238
 30
0.0
 10
26.80326228440498
 20
5.598700323611761
 30
0.0
 10
26.80023279248924
 20
5.590461041830666
 30
0.0
 10
26.79909012697023
 20
5.586222424016954
 30
0.0
 10
26.79754357207324
 20
5.577509903758409
 30
0.0
 10
26.79714685358845
 20
5.573002924791585
 30
0.0
 10
26.79714263696306
 20
5.559689145464941
 30
0.0
 10
26.79872467554448
 20
5.550742886334
 30
0.0
 10
26.80472893469316
 20
5.534371728419525
 30
0.0
 10
26.80921352719581
 20
5.526779754277665
 30
0.0
 10
26.81750081193115
 20
5.5173663273379
 30
0.0
 10
26.82057762254744
 20
5.514492869493552
 30
0.0
 10
26.82707330763195
 20
5.509547568640903
 30
0.0
 10
26.83049623681173
 20
5.507456302390589
 30
0.0
 10
26.83768877673704
 20
5.504039023155181
 30
0.0
 10
26.84146231459093
 20
5.502724930574355
 30
0.0
 10
26.84902889710041
 20
5.500989253759032
 30
0.0
 10
26.85286223452613
 20
5.500545320964036
 30
0.0
 10
26.86451615584388
 20
5.500531757305989
 30
0.0
 10
26.87212116841895
 20
5.502289417848719
 30
0.0
 10
26.88272805869693
 20
5.507403896224858
 30
0.0
 10
26.88606999170304
 20
5.509490154121662
 30
0.0
 10
26.89237710149277
 20
5.514414315760799
 30
0.0
 10
26.89535992169484
 20
5.517283475443397
 30
0.0
 10
26.90336884380173
 20
5.526690715059535
 30
0.0
 10
26.90765823999534
 20
5.534268360181103
 30
0.0
 10
26.91340284569911
 20
5.550627822224961
 30
0.0
 10
26.91492489912389
 20
5.559554712090206
 30
0.0
 10
26.91492489912389
 20
5.568540765200717
 30
0.0
  0
SPLINE
  5
2FA
330
1F
100
AcDbEntity
  8
0
  6
Continuous
 62
     7
370
    25
100
AcDbSpline
210
0.0
220
0.0
230
1.0
 70
     8
 71
     3
 72
    26
 73
    22
 74
     0
 42
0.00000001
 43
0.00000001
 40
0.0
 40
0.0
 40
0.0
 40
0.0
 40
0.052887933292722
 40
0.1057758766724722
 40
0.1602012452551086
 40
0.2146266430917571
 40
0.2675142170325965
 40
0.3204018216256166
 40
0.3748239747602686
 40
0.4292461523023156
 40
0.4821677610389338
 40
0.5350893731943255
 40
0.5895471024985243
 40
0.6440048133404405
 40
0.6969475692254736
 40
0.7498902959028597
 40
0.8043732336760079
 40
0.8588561388034979
 40
0.9117616881579502
 40
0.9646672212778039
 40
1.0
 40
1.0
 40
1.0
 40
1.0
 10
24.60834836074293
 20
5.568540765200715
 30
0.0
 10
24.6083462850372
 20
5.570424022640377
 30
0.0
 10
24.60834213362535
 20
5.574190537878883
 30
0.0
 10
24.60830897389875
 20
5.579855790183409
 30
0.0
 10
24.60825598699732
 20
5.585494632162902
 30
0.0
 10
24.60818316225895
 20
5.591011216973857
 30
0.0
 10
24.60809389516245
 20
5.596315007296496
 30
0.0
 10
24.60799038350395
 20
5.601426062868873
 30
0.0
 10
24.60787397762553
 20
5.606350564817874
 30
0.0
 10
24.60774907067707
 20
5.611003851787665
 30
0.0
 10
24.60762046739124
 20
5.615311745163001
 30
0.0
 10
24.60749065177284
 20
5.619296225583015
 30
0.0
 10
24.60736205589095
 20
5.622954952462774
 30
0.0
 10
24.60723960362774
 20
5.626222208859575
 30
0.0
 10
24.60712797323752
 20
5.629048278306239
 30
0.0
 10
24.60702869639631
 20
5.631455249833465
 30
0.0
 10
24.60694431731411
 20
5.633432095068832
 30
0.0
 10
24.60687783969061
 20
5.634945957147236
 30
0.0
 10
24.60683285642248
 20
5.635953227824086
 30
0.0
 10
24.60680842900995
 20
5.636492178023639
 30
0.0
 10
24.60680871407271
 20
5.636486205949122
 30
0.0
 10
24.6068088282188
 20
5.636483814584386
 30
0.0
  0
SPLINE
  5
2FB
330
1F
100
AcDbEntity
  8
0
  6
Continuous
 62
     7
370
    25
100
AcDbSpline
210
0.0
220
0.0
230
1.0
 70
     8
 71
     3
 72
    26
 73
    22
 74
     0
 42
0.00000001
 43
0.00000001
 40
0.0
 40
0.0
 40
0.0
 40
0.0
 40
0.0058320779002322
 40
0.0587078256365905
 40
0.1115835844656679
 40
0.1659955677931045
 40
0.2204075808989064
 40
0.2732843790646025
 40
0.3261612076567327
 40
0.3805714903827569
 40
0.4349817966192465
 40
0.4879053753562488
 40
0.5408289564692914
 40
0.5952887987209063
 40
0.6497486215067411
 40
0.702691841877591
 40
0.7556350326572809
 40
0.8101185141034437
 40
0.8646019632463047
 40
0.9319165552488383
 40
0.9999999999999999
 40
0.9999999999999999
 40
0.9999999999999999
 40
0.9999999999999999
 10
24.60680731604822
 20
5.500564602177169
 30
0.0
 10
24.60680696294784
 20
5.50055682084821
 30
0.0
 10
24.6068034085105
 20
5.500478491149678
 30
0.0
 10
24.6068172807241
 20
5.500783405572812
 30
0.0
 10
24.60684967851218
 20
5.501504038368283
 30
0.0
 10
24.60690559995748
 20
5.502762684653236
 30
0.0
 10
24.60698008801286
 20
5.504480780236717
 30
0.0
 10
24.60707101667622
 20
5.506640758828643
 30
0.0
 10
24.60717582385295
 20
5.509228270354724
 30
0.0
 10
24.60729322003581
 20
5.512266020026678
 30
0.0
 10
24.60741876443609
 20
5.515709305994247
 30
0.0
 10
24.60754764368889
 20
5.519495931325462
 30
0.0
 10
24.60767738435479
 20
5.523623842416186
 30
0.0
 10
24.60780553009527
 20
5.52811418919566
 30
0.0
 10
24.60792716346814
 20
5.532896482237832
 30
0.0
 10
24.6080376530945
 20
5.537887276033287
 30
0.0
 10
24.60813543073946
 20
5.543091775135507
 30
0.0
 10
24.60821821575603
 20
5.54852997021924
 30
0.0
 10
24.60828779761139
 20
5.554607866207107
 30
0.0
 10
24.60833818096251
 20
5.561293871975803
 30
0.0
 10
24.60834495466139
 20
5.566116006687817
 30
0.0
 10
24.60834836074293
 20
5.568540765200715
 30
0.0
  0
LINE
  5
2FC
330
1F
100
AcDbEntity
  8
0
  6
Continuous
 62
     7
370
    25
100
AcDbLine
 10
27.6068062347
 20
5.1935407652
 30
0.0
 11
24.6068062347
 21
5.1935407652
 31
0.0
  0
LINE
  5
2FD
330
1F
100
AcDbEntity
  8
0
  6
Continuous
 62
     7
370
    25
100
AcDbLine
 10
26.1068062347
 20
6.6635407652
 30
0.0
 11
24.6068062347
 21
6.6635407652
 31
0.0
  0
LINE
  5
2FE
330
1F
100
AcDbEntity
  8
0
  6
Continuous
 62
     7
370
    25
100
AcDbLine
 10
27.6068062347
 20
6.6635407652
 30
0.0
 11
26.1068062347
 21
6.6635407652
 31
0.0
  0
LINE
  5
2FF
330
1F
100
AcDbEntity
  8
0
  6
Continuous
 62
     7
370
    25
100
AcDbLine
 10
26.1068062347
 20
6.6935407652
 30
0.0
 11
27.5768062347
 21
6.6935407652
 31
0.0
  0
LINE
  5
300
330
1F
100
AcDbEntity
  8
0
  6
Continuous
 62
     7
370
    25
100
AcDbLine
 10
24.6368062347
 20
6.6935407652
 30
0.0
 11
26.1068062347
 21
6.6935407652
 31
0.0
  0
SPLINE
  5
301
330
1F
100
AcDbEntity
  8
0
  6
Continuous
 62
     7
370
    25
100
AcDbSpline
210
0.0
220
0.0
230
1.0
 70
     8
 71
     3
 72
    16
 73
    12
 74
     0
 42
0.00000001
 43
0.00000001
 40
0.0
 40
0.0
 40
0.0
 40
0.0
 40
0.1110363523203369
 40
0.2224271914361854
 40
0.3334639463727393
 40
0.4444961786416688
 40
0.5558822068384045
 40
0.6669150171644993
 40
0.778033205234737
 40
0.8895053255739312
 40
1.0
 40
1.0
 40
1.0
 40
1.0
 10
26.85235472019442
 20
5.568540765200715
 30
0.0
 10
26.85228356579894
 20
5.571085123526758
 30
0.0
 10
26.8521410298455
 20
5.576181963117061
 30
0.0
 10
26.85101862801375
 20
5.583726064522344
 30
0.0
 10
26.8492510572893
 20
5.591081959483566
 30
0.0
 10
26.84676776996047
 20
5.598146398243765
 30
0.0
 10
26.84363925137181
 20
5.604838895083767
 30
0.0
 10
26.83989730842215
 20
5.611085726747007
 30
0.0
 10
26.83555592084601
 20
5.616769803433859
 30
0.0
 10
26.83073360305658
 20
5.621897155545322
 30
0.0
 10
26.82713731216108
 20
5.624738992148968
 30
0.0
 10
26.8253470849694
 20
5.626153653340179
 30
0.0
  0
SPLINE
  5
302
330
1F
100
AcDbEntity
  8
0
  6
Continuous
 62
     7
370
    25
100
AcDbSpline
210
0.0
220
0.0
230
1.0
 70
     8
 71
     3
 72
    17
 73
    13
 74
     0
 42
0.00000001
 43
0.00000001
 40
0.0
 40
0.0
 40
0.0
 40
0.0
 40
0.0107946603676928
 40
0.1217696724282887
 40
0.232862777401854
 40
0.3443097485271006
 40
0.4554026860336093
 40
0.5665490492663998
 40
0.6780501638515515
 40
0.7891958810890152
 40
0.8945979723184245
 40
1.0
 40
1.0
 40
1.0
 40
1.0
 10
26.82531724251333
 20
5.51095452453307
 30
0.0
 10
26.82550154352766
 20
5.511075226031755
 30
0.0
 10
26.82758055976157
 20
5.512436804947241
 30
0.0
 10
26.83118818387069
 20
5.515722775288527
 30
0.0
 10
26.8360185955724
 20
5.520826014413593
 30
0.0
 10
26.84028444910296
 20
5.526601730575806
 30
0.0
 10
26.84398765085257
 20
5.532882663334206
 30
0.0
 10
26.84704710075405
 20
5.539631917983664
 30
0.0
 10
26.84945743606343
 20
5.546740682559237
 30
0.0
 10
26.85114161587351
 20
5.553997751146168
 30
0.0
 10
26.85216514366937
 20
5.561293557635929
 30
0.0
 10
26.8522915280321
 20
5.566125029831276
 30
0.0
 10
26.85235472019442
 20
5.568540765200715
 30
0.0
  0
DIMENSION
  5
303
330
1F
100
AcDbEntity
  8
0
  6
Continuous
 62
     7
370
    18
100
AcDbDimension
  2
_D_8
 10
28.2304149712
 20
5.1935407652
 30
0.0
 11
28.2304149712
 21
7.4862648575
 31
0.0
 70
   160
  1
<>
 71
     2
 42
-1.0
  3
SLDDIMSTYLE3
100
AcDbAlignedDimension
 13
27.5768062347
 23
6.6935407652
 33
0.0
 14
27.6068062347
 24
5.1935407652
 34
0.0
 50
90.0
100
AcDbRotatedDimension
  0
MTEXT
  5
318
330
1F
100
AcDbEntity
  8
0
  6
Continuous
 62
     7
370
     0
100
AcDbMText
 10
24.4409636984
 20
4.220491264
 30
0.0
 40
0.5
 41
0.0
 71
     1
 72
     1
  1
PP-HD CAP
  7
SLDTEXTSTYLE0
 73
     1
 44
1.0
  0
LWPOLYLINE
  5
319
330
1F
100
AcDbEntity
  8
0
  6
HIDDEN
 62
     7
370
     0
100
AcDbPolyline
 90
       17
 70
   128
 43
0.0
 10
26.7918543294
 20
5.5685407652
 10
26.7967984988
 20
5.5398395078
 10
26.810878302
 20
5.5155077566
 10
26.8319502166
 20
5.4992498003
 10
26.8568062347
 20
5.4935407652
 10
26.8816622527
 20
5.4992498003
 10
26.9027341674
 20
5.5155077566
 10
26.9168139706
 20
5.5398395078
 10
26.92175814
 20
5.5685407652
 10
26.9168139706
 20
5.5972420226
 10
26.9027341674
 20
5.6215737738
 10
26.8816622527
 20
5.6378317301
 10
26.8568062347
 20
5.6435407652
 10
26.8319502166
 20
5.6378317301
 10
26.810878302
 20
5.6215737738
 10
26.7967984988
 20
5.5972420226
 10
26.7918543294
 20
5.5685407652
  0
LWPOLYLINE
  5
31A
330
1F
100
AcDbEntity
  8
0
  6
HIDDEN
 62
     7
370
     0
100
AcDbPolyline
 90
       17
 70
   128
 43
0.0
 10
26.92175814
 20
5.5685407652
 10
26.9168139706
 20
5.5398395078
 10
26.9027341674
 20
5.5155077566
 10
26.8816622527
 20
5.4992498003
 10
26.8568062347
 20
5.4935407652
 10
26.8319502166
 20
5.4992498003
 10
26.810878302
 20
5.5155077566
 10
26.7967984988
 20
5.5398395078
 10
26.7918543294
 20
5.5685407652
 10
26.7967984988
 20
5.5972420226
 10
26.810878302
 20
5.6215737738
 10
26.8319502166
 20
5.6378317301
 10
26.8568062347
 20
5.6435407652
 10
26.8816622527
 20
5.6378317301
 10
26.9027341674
 20
5.6215737738
 10
26.9168139706
 20
5.5972420226
 10
26.92175814
 20
5.5685407652
  0
LWPOLYLINE
  5
31B
330
1F
100
AcDbEntity
  8
0
  6
HIDDEN
 62
     7
370
     0
100
AcDbPolyline
 90
       17
 70
   128
 43
0.0
 10
26.8568062347
 20
5.6435407652
 10
26.8319502166
 20
5.6378317301
 10
26.810878302
 20
5.6215737738
 10
26.7967984988
 20
5.5972420226
 10
26.7918543294
 20
5.5685407652
 10
26.7967984988
 20
5.5398395078
 10
26.810878302
 20
5.5155077566
 10
26.8319502166
 20
5.4992498003
 10
26.8568062347
 20
5.4935407652
 10
26.8816622527
 20
5.4992498003
 10
26.9027341674
 20
5.5155077566
 10
26.9168139706
 20
5.5398395078
 10
26.92175814
 20
5.5685407652
 10
26.9168139706
 20
5.5972420226
 10
26.9027341674
 20
5.6215737738
 10
26.8816622527
 20
5.6378317301
 10
26.8568062347
 20
5.6435407652
  0
LWPOLYLINE
  5
31C
330
1F
100
AcDbEntity
  8
0
  6
HIDDEN
 62
     7
370
     0
100
AcDbPolyline
 90
       17
 70
   128
 43
0.0
 10
26.8568062347
 20
5.4935407652
 10
26.8319502166
 20
5.4992498003
 10
26.810878302
 20
5.5155077566
 10
26.7967984988
 20
5.5398395078
 10
26.7918543294
 20
5.5685407652
 10
26.7967984988
 20
5.5972420226
 10
26.810878302
 20
5.6215737738
 10
26.8319502166
 20
5.6378317301
 10
26.8568062347
 20
5.6435407652
 10
26.8816622527
 20
5.6378317301
 10
26.9027341674
 20
5.6215737738
 10
26.9168139706
 20
5.5972420226
 10
26.92175814
 20
5.5685407652
 10
26.9168139706
 20
5.5398395078
 10
26.9027341674
 20
5.5155077566
 10
26.8816622527
 20
5.4992498003
 10
26.8568062347
 20
5.4935407652
  0
LINE
  5
31D
330
1F
100
AcDbEntity
  8
0
  6
Continuous
 62
     7
370
    25
100
AcDbLine
 10
13.4009614553
 20
3.8450241976
 30
0.0
 11
13.3996010837
 21
3.84597674
 31
0.0
  0
LINE
  5
31E
330
1F
100
AcDbEntity
  8
0
  6
Continuous
 62
     7
370
    25
100
AcDbLine
 10
13.2728010837
 20
3.84597674
 30
0.0
 11
13.2714407122
 21
3.8450241976
 31
0.0
  0
LINE
  5
31F
330
1F
100
AcDbEntity
  8
0
  6
Continuous
 62
     7
370
    25
100
AcDbLine
 10
13.4182010837
 20
3.8590006002
 30
0.0
 11
13.4182010837
 21
3.8616028798
 31
0.0
  0
LINE
  5
320
330
1F
100
AcDbEntity
  8
0
  6
Continuous
 62
     7
370
    25
100
AcDbLine
 10
13.2542010837
 20
3.8616028798
 30
0.0
 11
13.2542010837
 21
3.8590006002
 31
0.0
  0
LINE
  5
321
330
1F
100
AcDbEntity
  8
0
  6
Continuous
 62
     7
370
    25
100
AcDbLine
 10
13.4182010837
 20
3.8616028798
 30
0.0
 11
13.4171699198
 21
3.8623249086
 31
0.0
  0
LINE
  5
322
330
1F
100
AcDbEntity
  8
0
  6
Continuous
 62
     7
370
    25
100
AcDbLine
 10
13.2552322477
 20
3.8623249086
 30
0.0
 11
13.2542010837
 21
3.8616028798
 31
0.0
  0
LINE
  5
323
330
1F
100
AcDbEntity
  8
0
  6
Continuous
 62
     7
370
    25
100
AcDbLine
 10
13.2542010837
 20
3.8590006002
 30
0.0
 11
13.2728010837
 21
3.84597674
 31
0.0
  0
LINE
  5
324
330
1F
100
AcDbEntity
  8
0
  6
Continuous
 62
     7
370
    25
100
AcDbLine
 10
13.3996010837
 20
3.84597674
 30
0.0
 11
13.4182010837
 21
3.8590006002
 31
0.0
  0
ARC
  5
325
330
1F
100
AcDbEntity
  8
0
  6
Continuous
 62
     7
370
    25
100
AcDbCircle
 10
13.3362010837
 20
4.99192674
 30
0.0
 40
1.1325
100
AcDbArc
 50
263.5140848328
 51
276.4859151672
  0
ARC
  5
326
330
1F
100
AcDbEntity
  8
0
  6
Continuous
 62
     7
370
    25
100
AcDbCircle
 10
13.3362010837
 20
4.99192674
 30
0.0
 40
1.101250000000001
100
AcDbArc
 50
259.9732542854
 51
280.0267457146
  0
ARC
  5
327
330
1F
100
AcDbEntity
  8
0
  6
Continuous
 62
     7
370
    25
100
AcDbCircle
 10
13.3362010837
 20
4.99192674
 30
0.0
 40
1.038750000000001
100
AcDbArc
 50
255.6217566577
 51
284.3782433423
  0
ARC
  5
328
330
1F
100
AcDbEntity
  8
0
  6
Continuous
 62
     7
370
    25
100
AcDbCircle
 10
13.3362010837
 20
4.99192674
 30
0.0
 40
1.007500000000001
100
AcDbArc
 50
254.0718946914
 51
285.9281053086
  0
LINE
  5
329
330
1F
100
AcDbEntity
  8
0
  6
Continuous
 62
     7
370
    25
100
AcDbLine
 10
13.172715433
 20
5.3983675851
 30
0.0
 11
12.9024701614
 21
5.9085644358
 31
0.0
  0
LINE
  5
32A
330
1F
100
AcDbEntity
  8
0
  6
Continuous
 62
     7
370
    25
100
AcDbLine
 10
12.8659946351
 20
4.9092298893
 30
0.0
 11
13.172715433
 21
5.3983675851
 31
0.0
  0
LINE
  5
32B
330
1F
100
AcDbEntity
  8
0
  6
Continuous
 62
     7
370
    25
100
AcDbLine
 10
12.2890285656
 20
4.9302890442
 30
0.0
 11
12.8659946351
 21
4.9092298893
 31
0.0
  0
LINE
  5
32C
330
1F
100
AcDbEntity
  8
0
  6
Continuous
 62
     7
370
    25
100
AcDbLine
 10
12.018783294
 20
5.4404858949
 30
0.0
 11
12.2890285656
 21
4.9302890442
 31
0.0
  0
LINE
  5
32D
330
1F
100
AcDbEntity
  8
0
  6
Continuous
 62
     7
370
    25
100
AcDbLine
 10
12.3255040919
 20
5.9296235908
 30
0.0
 11
12.018783294
 21
5.4404858949
 31
0.0
  0
LINE
  5
32E
330
1F
100
AcDbEntity
  8
0
  6
Continuous
 62
     7
370
    25
100
AcDbLine
 10
12.9024701614
 20
5.9085644358
 30
0.0
 11
12.3255040919
 21
5.9296235908
 31
0.0
  0
LINE
  5
32F
330
1F
100
AcDbEntity
  8
0
  6
Continuous
 62
     7
370
    25
100
AcDbLine
 10
14.6540030732
 20
5.41942674
 30
0.0
 11
14.3653279386
 21
5.91942674
 31
0.0
  0
LINE
  5
330
330
1F
100
AcDbEntity
  8
0
  6
Continuous
 62
     7
370
    25
100
AcDbLine
 10
14.3653279386
 20
4.91942674
 30
0.0
 11
14.6540030732
 21
5.41942674
 31
0.0
  0
LINE
  5
331
330
1F
100
AcDbEntity
  8
0
  6
Continuous
 62
     7
370
    25
100
AcDbLine
 10
13.7879776694
 20
4.91942674
 30
0.0
 11
14.3653279386
 21
4.91942674
 31
0.0
  0
LINE
  5
332
330
1F
100
AcDbEntity
  8
0
  6
Continuous
 62
     7
370
    25
100
AcDbLine
 10
13.4993025348
 20
5.41942674
 30
0.0
 11
13.7879776694
 21
4.91942674
 31
0.0
  0
LINE
  5
333
330
1F
100
AcDbEntity
  8
0
  6
Continuous
 62
     7
370
    25
100
AcDbLine
 10
13.7879776694
 20
5.91942674
 30
0.0
 11
13.4993025348
 21
5.41942674
 31
0.0
  0
LINE
  5
334
330
1F
100
AcDbEntity
  8
0
  6
Continuous
 62
     7
370
    25
100
AcDbLine
 10
14.3653279386
 20
5.91942674
 30
0.0
 11
13.7879776694
 21
5.91942674
 31
0.0
  0
ARC
  5
335
330
1F
100
AcDbEntity
  8
0
  6
Continuous
 62
     7
370
    25
100
AcDbCircle
 10
12.5957493635
 20
5.41942674
 30
0.0
 40
0.5450000000000007
100
AcDbArc
 50
64.4630253334
 51
111.3562598435
  0
ARC
  5
336
330
1F
100
AcDbEntity
  8
0
  6
Continuous
 62
     7
370
    25
100
AcDbCircle
 10
12.5957493635
 20
5.41942674
 30
0.0
 40
0.5450000000000008
100
AcDbArc
 50
124.4630253334
 51
171.3562598435
  0
ARC
  5
337
330
1F
100
AcDbEntity
  8
0
  6
Continuous
 62
     7
370
    25
100
AcDbCircle
 10
12.5957493635
 20
5.41942674
 30
0.0
 40
0.5450000000000018
100
AcDbArc
 50
184.4630253334
 51
231.3562598435
  0
ARC
  5
338
330
1F
100
AcDbEntity
  8
0
  6
Continuous
 62
     7
370
    25
100
AcDbCircle
 10
12.5957493635
 20
5.41942674
 30
0.0
 40
0.5449999999999997
100
AcDbArc
 50
244.4630253334
 51
291.3562598435
  0
ARC
  5
339
330
1F
100
AcDbEntity
  8
0
  6
Continuous
 62
     7
370
    25
100
AcDbCircle
 10
12.5957493635
 20
5.41942674
 30
0.0
 40
0.5449999999999993
100
AcDbArc
 50
304.4630253334
 51
351.3562598435
  0
ARC
  5
33A
330
1F
100
AcDbEntity
  8
0
  6
Continuous
 62
     7
370
    25
100
AcDbCircle
 10
12.5957493635
 20
5.41942674
 30
0.0
 40
0.5450000000000003
100
AcDbArc
 50
4.4630253334
 51
51.3562598435
  0
CIRCLE
  5
33B
330
1F
100
AcDbEntity
  8
0
  6
Continuous
 62
     7
370
    25
100
AcDbCircle
 10
13.3362010837
 20
4.13692674
 30
0.0
 40
0.5450000000000088
  0
CIRCLE
  5
33C
330
1F
100
AcDbEntity
  8
0
  6
Continuous
 62
     7
370
    25
100
AcDbCircle
 10
13.3362010837
 20
4.13692674
 30
0.0
 40
0.4225000000000065
  0
CIRCLE
  5
33D
330
1F
100
AcDbEntity
  8
0
  6
Continuous
 62
     7
370
    25
100
AcDbCircle
 10
13.3362010837
 20
4.13692674
 30
0.0
 40
0.2990000000000066
  0
ARC
  5
33E
330
1F
100
AcDbEntity
  8
0
  6
Continuous
 62
     7
370
    25
100
AcDbCircle
 10
14.076652804
 20
5.41942674
 30
0.0
 40
0.5450000000000003
100
AcDbArc
 50
306.5533827449
 51
353.4466172551
  0
ARC
  5
33F
330
1F
100
AcDbEntity
  8
0
  6
Continuous
 62
     7
370
    25
100
AcDbCircle
 10
14.076652804
 20
5.41942674
 30
0.0
 40
0.5449999999999989
100
AcDbArc
 50
6.553382745
 51
53.446617255
  0
ARC
  5
340
330
1F
100
AcDbEntity
  8
0
  6
Continuous
 62
     7
370
    25
100
AcDbCircle
 10
14.076652804
 20
5.41942674
 30
0.0
 40
0.5450000000000003
100
AcDbArc
 50
66.553382745
 51
113.446617255
  0
ARC
  5
341
330
1F
100
AcDbEntity
  8
0
  6
Continuous
 62
     7
370
    25
100
AcDbCircle
 10
14.076652804
 20
5.41942674
 30
0.0
 40
0.5450000000000013
100
AcDbArc
 50
126.553382745
 51
173.446617255
  0
ARC
  5
342
330
1F
100
AcDbEntity
  8
0
  6
Continuous
 62
     7
370
    25
100
AcDbCircle
 10
14.076652804
 20
5.41942674
 30
0.0
 40
0.5450000000000018
100
AcDbArc
 50
186.5533827449
 51
233.4466172551
  0
ARC
  5
343
330
1F
100
AcDbEntity
  8
0
  6
Continuous
 62
     7
370
    25
100
AcDbCircle
 10
14.076652804
 20
5.41942674
 30
0.0
 40
0.5450000000000004
100
AcDbArc
 50
246.5533827449
 51
293.4466172551
  0
CIRCLE
  5
344
330
1F
100
AcDbEntity
  8
0
  6
Continuous
 62
     7
370
    25
100
AcDbCircle
 10
13.3362010837
 20
4.99192674
 30
0.0
 40
1.645000000000002
  0
LINE
  5
345
330
1F
100
AcDbEntity
  8
0
  6
Continuous
 62
     7
370
    25
100
AcDbLine
 10
13.3708773421
 20
3.84597674
 30
0.0
 11
13.2728010837
 21
3.84597674
 31
0.0
  0
LINE
  5
346
330
1F
100
AcDbEntity
  8
0
  6
Continuous
 62
     7
370
    25
100
AcDbLine
 10
13.3996010837
 20
3.84597674
 30
0.0
 11
13.3708773421
 21
3.84597674
 31
0.0
  0
LINE
  5
347
330
1F
100
AcDbEntity
  8
0
  6
Continuous
 62
     7
370
    25
100
AcDbLine
 10
13.3810505031
 20
3.8590006002
 30
0.0
 11
13.2542010837
 21
3.8590006002
 31
0.0
  0
LINE
  5
348
330
1F
100
AcDbEntity
  8
0
  6
Continuous
 62
     7
370
    25
100
AcDbLine
 10
13.4182010837
 20
3.8590006002
 30
0.0
 11
13.3810505031
 21
3.8590006002
 31
0.0
  0
LINE
  5
349
330
1F
100
AcDbEntity
  8
0
  6
Continuous
 62
     7
370
    25
100
AcDbLine
 10
13.2660282896
 20
3.8616028798
 30
0.0
 11
13.2542010837
 21
3.8616028798
 31
0.0
  0
LINE
  5
34A
330
1F
100
AcDbEntity
  8
0
  6
Continuous
 62
     7
370
    25
100
AcDbLine
 10
13.4182010837
 20
3.8616028798
 30
0.0
 11
13.4063738779
 21
3.8616028798
 31
0.0
  0
ARC
  5
34B
330
1F
100
AcDbEntity
  8
0
  6
Continuous
 62
     7
370
    25
100
AcDbCircle
 10
13.3362010837
 20
4.99192674
 30
0.0
 40
1.395000000000002
100
AcDbArc
 50
90.0
 51
146.1351318457
  0
ARC
  5
34C
330
1F
100
AcDbEntity
  8
0
  6
Continuous
 62
     7
370
    25
100
AcDbCircle
 10
13.3362010837
 20
4.99192674
 30
0.0
 40
1.395000000000002
100
AcDbArc
 50
153.8648681543
 51
266.1351318457
  0
ARC
  5
34D
330
1F
100
AcDbEntity
  8
0
  6
Continuous
 62
     7
370
    25
100
AcDbCircle
 10
13.3362010837
 20
4.99192674
 30
0.0
 40
1.395
100
AcDbArc
 50
273.8648681543
 51
26.1351318457
  0
ARC
  5
34E
330
1F
100
AcDbEntity
  8
0
  6
Continuous
 62
     7
370
    25
100
AcDbCircle
 10
13.3362010837
 20
4.99192674
 30
0.0
 40
1.395000000000002
100
AcDbArc
 50
33.8648681543
 51
90.0
  0
DIMENSION
  5
34F
330
1F
100
AcDbEntity
  8
0
  6
Continuous
 62
     7
370
    18
100
AcDbDimension
  2
_D_9
 10
14.4993917388
 20
3.828736085
 30
0.0
 11
8.6477458114
 21
7.2231424598
 31
0.0
 70
   163
  1
<>
 71
     1
 42
-1.0
  3
SLDDIMSTYLE6
100
AcDbDiametricDimension
 15
12.1730104287
 25
6.1551173951
 35
0.0
 40
0.0
  0
MTEXT
  5
35F
330
1F
100
AcDbEntity
  8
0
  6
Continuous
 62
     7
370
     0
100
AcDbMText
 10
6.1050045648
 20
3.4530046405
 30
0.0
 40
0.5
 41
0.0
 71
     1
 72
     1
  1
(2) 3/4" Conduit
  7
SLDTEXTSTYLE0
 73
     1
 44
1.0
  0
MTEXT
  5
360
330
1F
100
AcDbEntity
  8
0
  6
Continuous
 62
     7
370
     0
100
AcDbMText
 10
6.1050045648
 20
2.7955243424
 30
0.0
 40
0.5
 41
0.0
 71
     1
 72
     1
  1
Slip Connectors
  7
SLDTEXTSTYLE0
 73
     1
 44
1.0
  0
LEADER
  5
361
330
1F
100
AcDbEntity
  8
0
  6
Continuous
 62
     7
370
     0
100
AcDbLeader
  3
SLDDIMSTYLE4
 76
     3
 10
12.9539154151
 20
3.7484905579
 30
0.0
 10
12.1024932811
 20
2.8864241357
 30
0.0
 10
11.2368175944
 20
2.8864241357
 30
0.0
  0
ENDSEC
  0
SECTION
  2
OBJECTS
  0
DICTIONARY
  5
C
330
0
100
AcDbDictionary
281
     1
  3
ACAD_GROUP
350
D
  3
ACAD_LAYOUT
350
1A
  3
ACAD_MLINESTYLE
350
17
  3
ACAD_PLOTSETTINGS
350
19
  3
ACAD_PLOTSTYLENAME
350
E
  3
ACAD_SCALELIST
350
47
  3
DWGPROPS
350
362
  0
DICTIONARY
  5
D
102
{ACAD_REACTORS
330
C
102
}
330
C
100
AcDbDictionary
281
     1
  0
DICTIONARY
  5
1A
102
{ACAD_REACTORS
330
C
102
}
330
C
100
AcDbDictionary
281
     1
  3
Layout1
350
1E
  3
Layout2
350
26
  3
Model
350
22
  0
DICTIONARY
  5
17
102
{ACAD_REACTORS
330
C
102
}
330
C
100
AcDbDictionary
281
     1
  3
Standard
350
18
  0
DICTIONARY
  5
19
102
{ACAD_REACTORS
330
C
102
}
330
C
100
AcDbDictionary
281
     1
  0
ACDBDICTIONARYWDFLT
  5
E
102
{ACAD_REACTORS
330
C
102
}
330
C
100
AcDbDictionary
281
     1
  3
Normal
350
F
100
AcDbDictionaryWithDefault
340
F
  0
DICTIONARY
  5
47
102
{ACAD_REACTORS
330
C
102
}
330
C
100
AcDbDictionary
281
     1
  3
A0
350
48
  3
A1
350
49
  3
A2
350
4A
  3
A3
350
4B
  3
A4
350
4C
  3
A5
350
4D
  3
A6
350
4E
  3
A7
350
4F
  3
A8
350
50
  3
A9
350
51
  3
B1
350
52
  3
B2
350
53
  3
B3
350
54
  3
B4
350
55
  3
B5
350
56
  3
B6
350
57
  3
B7
350
58
  0
XRECORD
  5
362
102
{ACAD_REACTORS
330
C
102
}
330
C
100
AcDbXrecord
280
     1
  1
DWGPROPS COOKIE
  2

  3

  4

  6

  7

  8
shawnd
  9

300
=
301
=
302
=
303
=
304
=
305
=
306
=
307
=
308
=
309
=
 40
0.0
 41
2460887.885242929
 42
2460887.885243785
  1

 90
        0
  0
LAYOUT
  5
1E
102
{ACAD_REACTORS
330
1A
102
}
330
1A
100
AcDbPlotSettings
  1

  2
none_device
  4

  6

 40
0.0
 41
0.0
 42
0.0
 43
0.0
 44
0.0
 45
0.0
 46
0.0
 47
0.0
 48
0.0
 49
0.0
140
0.0
141
0.0
142
1.0
143
1.0
 70
   688
 72
     0
 73
     0
 74
     5
  7

 75
    16
147
1.0
148
0.0
149
0.0
100
AcDbLayout
  1
Layout1
 70
     1
 71
     1
 10
0.0
 20
0.0
 11
12.0
 21
9.0
 12
0.0
 22
0.0
 32
0.0
 14
1.0000000000E+20
 24
1.0000000000E+20
 34
1.0000000000E+20
 15
-1.0000000000E+20
 25
-1.0000000000E+20
 35
-1.0000000000E+20
146
0.0
 13
0.0
 23
0.0
 33
0.0
 16
1.0
 26
0.0
 36
0.0
 17
0.0
 27
1.0
 37
0.0
 76
     0
330
1B
  0
LAYOUT
  5
26
102
{ACAD_REACTORS
330
1A
102
}
330
1A
100
AcDbPlotSettings
  1

  2
none_device
  4

  6

 40
0.0
 41
0.0
 42
0.0
 43
0.0
 44
0.0
 45
0.0
 46
0.0
 47
0.0
 48
0.0
 49
0.0
140
0.0
141
0.0
142
1.0
143
1.0
 70
   688
 72
     0
 73
     0
 74
     5
  7

 75
    16
147
1.0
148
0.0
149
0.0
100
AcDbLayout
  1
Layout2
 70
     1
 71
     2
 10
0.0
 20
0.0
 11
0.0
 21
0.0
 12
0.0
 22
0.0
 32
0.0
 14
0.0
 24
0.0
 34
0.0
 15
0.0
 25
0.0
 35
0.0
146
0.0
 13
0.0
 23
0.0
 33
0.0
 16
1.0
 26
0.0
 36
0.0
 17
0.0
 27
1.0
 37
0.0
 76
     0
330
23
  0
LAYOUT
  5
22
102
{ACAD_REACTORS
330
1A
102
}
330
1A
100
AcDbPlotSettings
  1

  2
none_device
  4
Letter_(8.50_x_11.00_Inches)
  6

 40
6.35
 41
6.35
 42
6.35000508
 43
6.35000508
 44
215.9
 45
279.4
 46
0.0
 47
0.0
 48
0.0
 49
0.0
140
0.0
141
0.0
142
1.0
143
1.0
 70
  1712
 72
     0
 73
     0
 74
     0
  7

 75
     0
147
1.0
148
0.0
149
0.0
100
AcDbLayout
  1
Model
 70
     1
 71
     0
 10
0.0
 20
0.0
 11
44.0
 21
34.0
 12
0.0
 22
0.0
 32
0.0
 14
0.0
 24
0.0
 34
0.0
 15
44.0
 25
34.0
 35
0.0
146
0.0
 13
0.0
 23
0.0
 33
0.0
 16
1.0
 26
0.0
 36
0.0
 17
0.0
 27
1.0
 37
0.0
 76
     0
330
1F
331
29
  0
MLINESTYLE
  5
18
102
{ACAD_REACTORS
330
17
102
}
330
17
100
AcDbMlineStyle
  2
Standard
 70
     0
  3

 62
   256
 51
90.0
 52
90.0
 71
     2
 49
0.5
 62
   256
  6
BYLAYER
 49
-0.5
 62
   256
  6
BYLAYER
  0
ACDBPLACEHOLDER
  5
F
102
{ACAD_REACTORS
330
E
102
}
330
E
  0
SCALE
  5
48
102
{ACAD_REACTORS
330
47
102
}
330
47
100
AcDbScale
 70
     0
300
1:1
140
1.0
141
1.0
290
     1
  0
SCALE
  5
49
102
{ACAD_REACTORS
330
47
102
}
330
47
100
AcDbScale
 70
     0
300
1/128" = 1'-0"
140
0.0078125
141
12.0
290
     0
  0
SCALE
  5
4A
102
{ACAD_REACTORS
330
47
102
}
330
47
100
AcDbScale
 70
     0
300
1/64" = 1'-0"
140
0.015625
141
12.0
290
     0
  0
SCALE
  5
4B
102
{ACAD_REACTORS
330
47
102
}
330
47
100
AcDbScale
 70
     0
300
1/32" = 1'-0"
140
0.03125
141
12.0
290
     0
  0
SCALE
  5
4C
102
{ACAD_REACTORS
330
47
102
}
330
47
100
AcDbScale
 70
     0
300
1/16" = 1'-0"
140
0.0625
141
12.0
290
     0
  0
SCALE
  5
4D
102
{ACAD_REACTORS
330
47
102
}
330
47
100
AcDbScale
 70
     0
300
3/32" = 1'-0"
140
0.09375
141
12.0
290
     0
  0
SCALE
  5
4E
102
{ACAD_REACTORS
330
47
102
}
330
47
100
AcDbScale
 70
     0
300
1/8" = 1'-0"
140
0.125
141
12.0
290
     0
  0
SCALE
  5
4F
102
{ACAD_REACTORS
330
47
102
}
330
47
100
AcDbScale
 70
     0
300
3/16" = 1'-0"
140
0.1875
141
12.0
290
     0
  0
SCALE
  5
50
102
{ACAD_REACTORS
330
47
102
}
330
47
100
AcDbScale
 70
     0
300
1/4" = 1'-0"
140
0.25
141
12.0
290
     0
  0
SCALE
  5
51
102
{ACAD_REACTORS
330
47
102
}
330
47
100
AcDbScale
 70
     0
300
3/8" = 1'-0"
140
0.375
141
12.0
290
     0
  0
SCALE
  5
52
102
{ACAD_REACTORS
330
47
102
}
330
47
100
AcDbScale
 70
     0
300
1/2" = 1'-0"
140
0.5
141
12.0
290
     0
  0
SCALE
  5
53
102
{ACAD_REACTORS
330
47
102
}
330
47
100
AcDbScale
 70
     0
300
3/4" = 1'-0"
140
0.75
141
12.0
290
     0
  0
SCALE
  5
54
102
{ACAD_REACTORS
330
47
102
}
330
47
100
AcDbScale
 70
     0
300
1" = 1'-0"
140
1.0
141
12.0
290
     0
  0
SCALE
  5
55
102
{ACAD_REACTORS
330
47
102
}
330
47
100
AcDbScale
 70
     0
300
1-1/2" = 1'-0"
140
1.5
141
12.0
290
     0
  0
SCALE
  5
56
102
{ACAD_REACTORS
330
47
102
}
330
47
100
AcDbScale
 70
     0
300
3" = 1'-0"
140
3.0
141
12.0
290
     0
  0
SCALE
  5
57
102
{ACAD_REACTORS
330
47
102
}
330
47
100
AcDbScale
 70
     0
300
6" = 1'-0"
140
6.0
141
12.0
290
     0
  0
SCALE
  5
58
102
{ACAD_REACTORS
330
47
102
}
330
47
100
AcDbScale
 70
     0
300
1'-0" = 1'-0"
140
12.0
141
12.0
290
     0
  0
ENDSEC
  0
EOF
