  0
SECTION
  2
HEADER
  9
$ACADVER
  1
AC1015
  9
$ACADMAINTVER
 70
     6
  9
$DWGCODEPAGE
  3
ANSI_1252
  9
$INSBASE
 10
0.0
 20
0.0
 30
0.0
  9
$EXTMIN
 10
0.0
 20
0.0
 30
0.0
  9
$EXTMAX
 10
44.0
 20
34.0
 30
0.0
  9
$LIMMIN
 10
0.0
 20
0.0
  9
$LIMMAX
 10
44.0
 20
34.0
  9
$ORTHOMODE
 70
     0
  9
$REGENMODE
 70
     1
  9
$FILLMODE
 70
     1
  9
$QTEXTMODE
 70
     0
  9
$MIRRTEXT
 70
     1
  9
$LTSCALE
 40
4.0
  9
$ATTMODE
 70
     1
  9
$TEXTSIZE
 40
0.5
  9
$TRACEWID
 40
0.05
  9
$TEXTSTYLE
  7
Standard
  9
$CLAYER
  8
0
  9
$CELTYPE
  6
ByLayer
  9
$CECOLOR
 62
   256
  9
$CELTSCALE
 40
1.0
  9
$DISPSILH
 70
     0
  9
$DIMSCALE
 40
1.0
  9
$DIMASZ
 40
0.52
  9
$DIMEXO
 40
0.2
  9
$DIMDLI
 40
0.38
  9
$DIMRND
 40
0.0
  9
$DIMDLE
 40
0.0
  9
$DIMEXE
 40
0.5
  9
$DIMTP
 40
0.0
  9
$DIMTM
 40
0.0
  9
$DIMTXT
 40
0.5
  9
$DIMCEN
 40
0.09
  9
$DIMTSZ
 40
0.0
  9
$DIMTOL
 70
     0
  9
$DIMLIM
 70
     0
  9
$DIMTIH
 70
     1
  9
$DIMTOH
 70
     1
  9
$DIMSE1
 70
     0
  9
$DIMSE2
 70
     0
  9
$DIMTAD
 70
     0
  9
$DIMZIN
 70
     1
  9
$DIMBLK
  1

  9
$DIMASO
 70
     1
  9
$DIMSHO
 70
     1
  9
$DIMPOST
  1

  9
$DIMAPOST
  1

  9
$DIMALT
 70
     0
  9
$DIMALTD
 70
     2
  9
$DIMALTF
 40
25.4
  9
$DIMLFAC
 40
1.0
  9
$DIMTOFL
 70
     0
  9
$DIMTVP
 40
0.0
  9
$DIMTIX
 70
     0
  9
$DIMSOXD
 70
     0
  9
$DIMSAH
 70
     0
  9
$DIMBLK1
  1

  9
$DIMBLK2
  1

  9
$DIMSTYLE
  2
Standard
  9
$DIMCLRD
 70
     0
  9
$DIMCLRE
 70
     0
  9
$DIMCLRT
 70
     0
  9
$DIMTFAC
 40
1.0
  9
$DIMGAP
 40
0.24
  9
$DIMJUST
 70
     0
  9
$DIMSD1
 70
     0
  9
$DIMSD2
 70
     0
  9
$DIMTOLJ
 70
     1
  9
$DIMTZIN
 70
     1
  9
$DIMALTZ
 70
     0
  9
$DIMALTTZ
 70
     0
  9
$DIMUPT
 70
     0
  9
$DIMDEC
 70
     0
  9
$DIMTDEC
 70
     0
  9
$DIMALTU
 70
     2
  9
$DIMALTTD
 70
     2
  9
$DIMTXSTY
  7
Standard
  9
$DIMAUNIT
 70
     0
  9
$DIMADEC
 70
     0
  9
$DIMALTRND
 40
0.0
  9
$DIMAZIN
 70
     0
  9
$DIMDSEP
 70
    46
  9
$DIMATFIT
 70
     3
  9
$DIMFRAC
 70
     0
  9
$DIMLDRBLK
  1

  9
$DIMLUNIT
 70
     2
  9
$DIMLWD
 70
    -2
  9
$DIMLWE
 70
    -2
  9
$DIMTMOVE
 70
     0
  9
$LUNITS
 70
     2
  9
$LUPREC
 70
     6
  9
$SKETCHINC
 40
0.1
  9
$FILLETRAD
 40
0.0
  9
$AUNITS
 70
     0
  9
$AUPREC
 70
     2
  9
$MENU
  1
.
  9
$ELEVATION
 40
0.0
  9
$PELEVATION
 40
0.0
  9
$THICKNESS
 40
0.0
  9
$LIMCHECK
 70
     0
  9
$CHAMFERA
 40
0.0
  9
$CHAMFERB
 40
0.0
  9
$CHAMFERC
 40
0.0
  9
$CHAMFERD
 40
0.0
  9
$SKPOLY
 70
     0
  9
$TDCREATE
 40
2460887.593075625
  9
$TDUCREATE
 40
2460887.884742292
  9
$TDUPDATE
 40
2460887.593076389
  9
$TDUUPDATE
 40
2460887.884743056
  9
$TDINDWG
 40
0.0000000116
  9
$TDUSRTIMER
 40
0.0000000116
  9
$USRTIMER
 70
     1
  9
$ANGBASE
 50
0.0
  9
$ANGDIR
 70
     0
  9
$PDMODE
 70
     0
  9
$PDSIZE
 40
-1.0
  9
$PLINEWID
 40
0.0
  9
$SPLFRAME
 70
     0
  9
$SPLINETYPE
 70
     6
  9
$SPLINESEGS
 70
     8
  9
$HANDSEED
  5
2D7
  9
$SURFTAB1
 70
     6
  9
$SURFTAB2
 70
     6
  9
$SURFTYPE
 70
     6
  9
$SURFU
 70
     6
  9
$SURFV
 70
     6
  9
$UCSBASE
  2

  9
$UCSNAME
  2

  9
$UCSORG
 10
0.0
 20
0.0
 30
0.0
  9
$UCSXDIR
 10
1.0
 20
0.0
 30
0.0
  9
$UCSYDIR
 10
0.0
 20
1.0
 30
0.0
  9
$UCSORTHOREF
  2

  9
$UCSORTHOVIEW
 70
     0
  9
$UCSORGTOP
 10
0.0
 20
0.0
 30
0.0
  9
$UCSORGBOTTOM
 10
0.0
 20
0.0
 30
0.0
  9
$UCSORGLEFT
 10
0.0
 20
0.0
 30
0.0
  9
$UCSORGRIGHT
 10
0.0
 20
0.0
 30
0.0
  9
$UCSORGFRONT
 10
0.0
 20
0.0
 30
0.0
  9
$UCSORGBACK
 10
0.0
 20
0.0
 30
0.0
  9
$PUCSBASE
  2

  9
$PUCSNAME
  2

  9
$PUCSORG
 10
0.0
 20
0.0
 30
0.0
  9
$PUCSXDIR
 10
1.0
 20
0.0
 30
0.0
  9
$PUCSYDIR
 10
0.0
 20
1.0
 30
0.0
  9
$PUCSORTHOREF
  2

  9
$PUCSORTHOVIEW
 70
     0
  9
$PUCSORGTOP
 10
0.0
 20
0.0
 30
0.0
  9
$PUCSORGBOTTOM
 10
0.0
 20
0.0
 30
0.0
  9
$PUCSORGLEFT
 10
0.0
 20
0.0
 30
0.0
  9
$PUCSORGRIGHT
 10
0.0
 20
0.0
 30
0.0
  9
$PUCSORGFRONT
 10
0.0
 20
0.0
 30
0.0
  9
$PUCSORGBACK
 10
0.0
 20
0.0
 30
0.0
  9
$USERI1
 70
     0
  9
$USERI2
 70
     0
  9
$USERI3
 70
     0
  9
$USERI4
 70
     0
  9
$USERI5
 70
     0
  9
$USERR1
 40
0.0
  9
$USERR2
 40
0.0
  9
$USERR3
 40
0.0
  9
$USERR4
 40
0.0
  9
$USERR5
 40
0.0
  9
$WORLDVIEW
 70
     1
  9
$SHADEDGE
 70
     3
  9
$SHADEDIF
 70
    70
  9
$TILEMODE
 70
     1
  9
$MAXACTVP
 70
    64
  9
$PINSBASE
 10
0.0
 20
0.0
 30
0.0
  9
$PLIMCHECK
 70
     0
  9
$PEXTMIN
 10
1.0000000000E+20
 20
1.0000000000E+20
 30
1.0000000000E+20
  9
$PEXTMAX
 10
-1.0000000000E+20
 20
-1.0000000000E+20
 30
-1.0000000000E+20
  9
$PLIMMIN
 10
0.0
 20
0.0
  9
$PLIMMAX
 10
12.0
 20
9.0
  9
$UNITMODE
 70
     0
  9
$VISRETAIN
 70
     1
  9
$PLINEGEN
 70
     0
  9
$PSLTSCALE
 70
     1
  9
$TREEDEPTH
 70
  3020
  9
$CMLSTYLE
  2
Standard
  9
$CMLJUST
 70
     0
  9
$CMLSCALE
 40
1.0
  9
$PROXYGRAPHICS
 70
     1
  9
$MEASUREMENT
 70
     0
  9
$CELWEIGHT
370
    -1
  9
$ENDCAPS
280
     0
  9
$JOINSTYLE
280
     0
  9
$LWDISPLAY
290
     1
  9
$INSUNITS
 70
     1
  9
$HYPERLINKBASE
  1

  9
$STYLESHEET
  1

  9
$XEDIT
290
     1
  9
$CEPSNTYPE
380
     0
  9
$PSTYLEMODE
290
     1
  9
$FINGERPRINTGUID
  2
{48f1cf48-a5f6-429f-861d-a5b14ebc6f06}
  9
$VERSIONGUID
  2
{FAEB1C32-E019-11D5-929B-00C0DF256EC4}
  9
$EXTNAMES
290
     1
  9
$PSVPSCALE
 40
0.0
  9
$OLESTARTUP
290
     0
  0
ENDSEC
  0
SECTION
  2
CLASSES
  0
CLASS
  1
ACDBDICTIONARYWDFLT
  2
AcDbDictionaryWithDefault
  3
ObjectDBX Classes
 90
        0
280
     0
281
     0
  0
CLASS
  1
VISUALSTYLE
  2
AcDbVisualStyle
  3
ObjectDBX Classes
 90
     4095
280
     0
281
     0
  0
CLASS
  1
MATERIAL
  2
AcDbMaterial
  3
ObjectDBX Classes
 90
     1153
280
     0
281
     0
  0
CLASS
  1
SCALE
  2
AcDbScale
  3
ObjectDBX Classes
 90
     1153
280
     0
281
     0
  0
CLASS
  1
TABLESTYLE
  2
AcDbTableStyle
  3
ObjectDBX Classes
 90
     4095
280
     0
281
     0
  0
CLASS
  1
MLEADERSTYLE
  2
AcDbMLeaderStyle
  3
ACDB_MLEADERSTYLE_CLASS
 90
     4095
280
     0
281
     0
  0
CLASS
  1
SUN
  2
AcDbSun
  3
SCENEOE
 90
     1153
280
     0
281
     0
  0
CLASS
  1
ACDBPLACEHOLDER
  2
AcDbPlaceHolder
  3
ObjectDBX Classes
 90
        0
280
     0
281
     0
  0
CLASS
  1
LAYOUT
  2
AcDbLayout
  3
ObjectDBX Classes
 90
        0
280
     0
281
     0
  0
ENDSEC
  0
SECTION
  2
TABLES
  0
TABLE
  2
VPORT
  5
8
330
0
100
AcDbSymbolTable
 70
     1
  0
VPORT
  5
29
330
8
100
AcDbSymbolTableRecord
100
AcDbViewportTableRecord
  2
*Active
 70
     0
 10
0.0
 20
0.0
 11
1.0
 21
1.0
 12
22.0
 22
17.0
 13
0.0
 23
0.0
 14
0.5
 24
0.5
 15
0.5
 25
0.5
 16
0.0
 26
0.0
 36
1.0
 17
0.0
 27
0.0
 37
0.0
 40
34.0
 41
1.2941176471
 42
50.0
 43
0.0
 44
0.0
 50
0.0
 51
0.0
 71
     0
 72
  2000
 73
     1
 74
     3
 75
     0
 76
     0
 77
     0
 78
     0
281
     0
 65
     1
110
0.0
120
0.0
130
0.0
111
1.0
121
0.0
131
0.0
112
0.0
122
1.0
132
0.0
 79
     0
146
0.0
  0
ENDTAB
  0
TABLE
  2
LTYPE
  5
5
330
0
100
AcDbSymbolTable
 70
     6
  0
LTYPE
  5
14
330
5
100
AcDbSymbolTableRecord
100
AcDbLinetypeTableRecord
  2
ByBlock
 70
     0
  3

 72
    65
 73
     0
 40
0.0
  0
LTYPE
  5
15
330
5
100
AcDbSymbolTableRecord
100
AcDbLinetypeTableRecord
  2
ByLayer
 70
     0
  3

 72
    65
 73
     0
 40
0.0
  0
LTYPE
  5
16
330
5
100
AcDbSymbolTableRecord
100
AcDbLinetypeTableRecord
  2
Continuous
 70
     0
  3
Solid line
 72
    65
 73
     0
 40
0.0
  0
LTYPE
  5
5E
330
5
100
AcDbSymbolTableRecord
100
AcDbLinetypeTableRecord
  2
HIDDEN
 70
     0
  3
Hidden __ __ __ __ __ __ __ __ __ __ __ __ __ __
 72
    65
 73
     2
 40
0.075
 49
0.05
 74
     0
 49
-0.025
 74
     0
  0
LTYPE
  5
5F
330
5
100
AcDbSymbolTableRecord
100
AcDbLinetypeTableRecord
  2
PHANTOM
 70
     0
  3
Phantom ______  __  __  ______  __  __  ______
 72
    65
 73
     6
 40
0.5
 49
0.25
 74
     0
 49
-0.05
 74
     0
 49
0.05
 74
     0
 49
-0.05
 74
     0
 49
0.05
 74
     0
 49
-0.05
 74
     0
  0
LTYPE
  5
60
330
5
100
AcDbSymbolTableRecord
100
AcDbLinetypeTableRecord
  2
CENTER
 70
     0
  3
Center ____ _ ____ _ ____ _ ____ _ ____ _ ____
 72
    65
 73
     4
 40
0.4
 49
0.25
 74
     0
 49
-0.05
 74
     0
 49
0.05
 74
     0
 49
-0.05
 74
     0
  0
LTYPE
  5
61
330
5
100
AcDbSymbolTableRecord
100
AcDbLinetypeTableRecord
  2
CENTERX2
 70
     0
  3
Center (2x) ________  __  ________  __  _____
 72
    65
 73
     4
 40
0.8
 49
0.5
 74
     0
 49
-0.1
 74
     0
 49
0.1
 74
     0
 49
-0.1
 74
     0
  0
LTYPE
  5
62
330
5
100
AcDbSymbolTableRecord
100
AcDbLinetypeTableRecord
  2
DOT2
 70
     0
  3
Dot (.5x) ........................................
 72
    65
 73
     2
 40
0.025
 49
0.0
 74
     0
 49
-0.025
 74
     0
  0
ENDTAB
  0
TABLE
  2
LAYER
  5
2
330
0
100
AcDbSymbolTable
 70
    11
  0
LAYER
  5
10
330
2
100
AcDbSymbolTableRecord
100
AcDbLayerTableRecord
  2
0
 70
     0
 62
     7
  6
Continuous
370
    -3
390
F
  0
LAYER
  5
63
330
2
100
AcDbSymbolTableRecord
100
AcDbLayerTableRecord
  2
SLD-0
 70
     0
 62
     7
  6
Continuous
370
    -3
390
F
  0
LAYER
  5
64
330
2
100
AcDbSymbolTableRecord
100
AcDbLayerTableRecord
  2
DIM
 70
     0
 62
     7
  6
Continuous
370
    -3
390
F
  0
LAYER
  5
65
330
2
100
AcDbSymbolTableRecord
100
AcDbLayerTableRecord
  2
CEN
 70
     0
 62
     1
  6
CENTER
370
    -3
390
F
  0
LAYER
  5
66
330
2
100
AcDbSymbolTableRecord
100
AcDbLayerTableRecord
  2
HAT
 70
     0
 62
     4
  6
Continuous
370
    -3
390
F
  0
LAYER
  5
67
330
2
100
AcDbSymbolTableRecord
100
AcDbLayerTableRecord
  2
OBJ
 70
     0
 62
     5
  6
Continuous
370
    -3
390
F
  0
LAYER
  5
68
330
2
100
AcDbSymbolTableRecord
100
AcDbLayerTableRecord
  2
SLD-DEFPOINTS
 70
     0
 62
     7
  6
Continuous
370
    -3
390
F
  0
LAYER
  5
69
330
2
100
AcDbSymbolTableRecord
100
AcDbLayerTableRecord
  2
HID
 70
     0
 62
     4
  6
HIDDEN
370
    -3
390
F
  0
LAYER
  5
6A
330
2
100
AcDbSymbolTableRecord
100
AcDbLayerTableRecord
  2
NOTE
 70
     0
 62
     7
  6
Continuous
370
    -3
390
F
  0
LAYER
  5
6B
330
2
100
AcDbSymbolTableRecord
100
AcDbLayerTableRecord
  2
TITLE
 70
     0
 62
     7
  6
Continuous
370
    -3
390
F
  0
LAYER
  5
6C
330
2
100
AcDbSymbolTableRecord
100
AcDbLayerTableRecord
  2
THICK_TITLE
 70
     0
 62
     7
  6
Continuous
370
   100
390
F
  0
ENDTAB
  0
TABLE
  2
STYLE
  5
3
330
0
100
AcDbSymbolTable
 70
     3
  0
STYLE
  5
11
330
3
100
AcDbSymbolTableRecord
100
AcDbTextStyleTableRecord
  2
Standard
 70
     0
 40
0.0
 41
1.0
 50
0.0
 71
     0
 42
0.5
  3
txt
  4

  0
STYLE
  5
73
330
3
100
AcDbSymbolTableRecord
100
AcDbTextStyleTableRecord
  2
SLDTEXTSTYLE0
 70
     0
 40
0.0
 41
0.75
 50
0.0
 71
     0
 42
0.5
  3
TXT
  4

  0
STYLE
  5
DF
330
3
100
AcDbSymbolTableRecord
100
AcDbTextStyleTableRecord
  2
SLDTEXTSTYLE1
 70
     0
 40
0.0
 41
0.7
 50
0.0
 71
     0
 42
0.5
  3
TXT
  4

  0
ENDTAB
  0
TABLE
  2
VIEW
  5
6
330
0
100
AcDbSymbolTable
 70
     0
  0
ENDTAB
  0
TABLE
  2
UCS
  5
7
330
0
100
AcDbSymbolTable
 70
     0
  0
ENDTAB
  0
TABLE
  2
APPID
  5
9
330
0
100
AcDbSymbolTable
 70
     1
  0
APPID
  5
12
330
9
100
AcDbSymbolTableRecord
100
AcDbRegAppTableRecord
  2
ACAD
 70
     0
  0
ENDTAB
  0
TABLE
  2
DIMSTYLE
  5
A
330
0
100
AcDbSymbolTable
 70
     8
100
AcDbDimStyleTable
  0
DIMSTYLE
105
27
330
A
100
AcDbSymbolTableRecord
100
AcDbDimStyleTableRecord
  2
Standard
 70
     0
178
     0
340
11
  0
DIMSTYLE
105
D4
102
{ACAD_REACTORS
330
D3
102
}
330
A
100
AcDbSymbolTableRecord
100
AcDbDimStyleTableRecord
  2
SLDDIMSTYLE0
 70
     0
 41
0.52
 44
0.0
 45
0.000000001
 78
    12
 79
     3
140
0.5
147
0.125
148
0.000000001
170
     1
173
     1
178
     0
271
     0
272
     0
276
     2
277
     5
284
    12
340
73
  0
DIMSTYLE
105
E3
102
{ACAD_REACTORS
330
E2
102
}
330
A
100
AcDbSymbolTableRecord
100
AcDbDimStyleTableRecord
  2
SLDDIMSTYLE1
 70
     0
 41
0.52
 44
0.0
 45
0.000000001
 78
    12
 79
     3
140
0.5
147
0.125
148
0.000000001
170
     1
172
     1
173
     1
178
     0
271
     0
272
     0
276
     2
277
     5
284
    12
289
     0
340
73
  0
DIMSTYLE
105
F7
102
{ACAD_REACTORS
330
F6
330
10A
330
135
102
}
330
A
100
AcDbSymbolTableRecord
100
AcDbDimStyleTableRecord
  2
SLDDIMSTYLE2
 70
     0
 41
0.52
 44
0.0
 45
0.000000001
 78
    12
 79
     3
140
0.5
147
0.125
148
0.000000001
170
     1
172
     1
173
     1
178
     0
271
     6
272
     0
276
     2
277
     5
284
    12
289
     0
340
73
  0
DIMSTYLE
105
120
102
{ACAD_REACTORS
330
11F
330
2BC
102
}
330
A
100
AcDbSymbolTableRecord
100
AcDbDimStyleTableRecord
  2
SLDDIMSTYLE3
 70
     0
 41
0.52
 44
0.0
 45
0.000000001
 78
    12
 79
     3
140
0.5
147
0.125
148
0.000000001
170
     1
173
     1
178
     0
271
     6
272
     0
276
     2
277
     5
284
    12
340
73
  0
DIMSTYLE
105
148
330
A
100
AcDbSymbolTableRecord
100
AcDbDimStyleTableRecord
  2
SLDDIMSTYLE4
 70
     0
 41
0.52
 44
0.0
 45
0.000000001
146
0.52
147
0.0
173
     1
178
     0
271
     0
272
     0
276
     2
277
     5
340
11
  0
DIMSTYLE
105
27E
102
{ACAD_REACTORS
330
27D
102
}
330
A
100
AcDbSymbolTableRecord
100
AcDbDimStyleTableRecord
  2
SLDDIMSTYLE5
 70
     0
 41
0.52
 44
0.0
 45
0.000000001
 78
    12
 79
     3
140
0.5
141
0.0
147
0.125
148
0.000000001
170
     1
173
     1
178
     0
271
     0
272
     0
276
     2
277
     5
284
    12
340
73
  0
DIMSTYLE
105
291
102
{ACAD_REACTORS
330
290
102
}
330
A
100
AcDbSymbolTableRecord
100
AcDbDimStyleTableRecord
  2
SLDDIMSTYLE6
 70
     0
 41
0.52
 44
0.0
 45
0.000000001
 78
    12
 79
     3
140
0.5
141
0.0
147
0.125
148
0.000000001
170
     1
173
     1
178
     0
271
     0
272
     0
276
     2
277
     5
284
    12
340
73
  0
ENDTAB
  0
TABLE
  2
BLOCK_RECORD
  5
1
330
0
100
AcDbSymbolTable
 70
    19
  0
BLOCK_RECORD
  5
1F
330
1
100
AcDbSymbolTableRecord
100
AcDbBlockTableRecord
  2
*Model_Space
340
22
  0
BLOCK_RECORD
  5
1B
330
1
100
AcDbSymbolTableRecord
100
AcDbBlockTableRecord
  2
*Paper_Space
340
1E
  0
BLOCK_RECORD
  5
23
330
1
100
AcDbSymbolTableRecord
100
AcDbBlockTableRecord
  2
*Paper_Space0
340
26
  0
BLOCK_RECORD
  5
6D
330
1
100
AcDbSymbolTableRecord
100
AcDbBlockTableRecord
  2
Block1
340
0
  0
BLOCK_RECORD
  5
70
330
1
100
AcDbSymbolTableRecord
100
AcDbBlockTableRecord
  2
SW_NOTE_0
340
0
102
{BLKREFS
331
75
102
}
  0
BLOCK_RECORD
  5
76
330
1
100
AcDbSymbolTableRecord
100
AcDbBlockTableRecord
  2
Block2
340
0
  0
BLOCK_RECORD
  5
79
330
1
100
AcDbSymbolTableRecord
100
AcDbBlockTableRecord
  2
SW_NOTE_0_1
340
0
102
{BLKREFS
331
7D
102
}
  0
BLOCK_RECORD
  5
7E
330
1
100
AcDbSymbolTableRecord
100
AcDbBlockTableRecord
  2
Block3
340
0
  0
BLOCK_RECORD
  5
81
330
1
100
AcDbSymbolTableRecord
100
AcDbBlockTableRecord
  2
SW_NOTE_0_2
340
0
102
{BLKREFS
331
85
102
}
  0
BLOCK_RECORD
  5
86
330
1
100
AcDbSymbolTableRecord
100
AcDbBlockTableRecord
  2
Block4
340
0
  0
BLOCK_RECORD
  5
89
330
1
100
AcDbSymbolTableRecord
100
AcDbBlockTableRecord
  2
SW_NOTE_0_3
340
0
102
{BLKREFS
331
8D
102
}
  0
BLOCK_RECORD
  5
D5
330
1
100
AcDbSymbolTableRecord
100
AcDbBlockTableRecord
  2
_D
340
0
  0
BLOCK_RECORD
  5
E4
330
1
100
AcDbSymbolTableRecord
100
AcDbBlockTableRecord
  2
_D_1
340
0
  0
BLOCK_RECORD
  5
F8
330
1
100
AcDbSymbolTableRecord
100
AcDbBlockTableRecord
  2
_D_2
340
0
  0
BLOCK_RECORD
  5
10B
330
1
100
AcDbSymbolTableRecord
100
AcDbBlockTableRecord
  2
_D_3
340
0
  0
BLOCK_RECORD
  5
121
330
1
100
AcDbSymbolTableRecord
100
AcDbBlockTableRecord
  2
_D_4
340
0
  0
BLOCK_RECORD
  5
136
330
1
100
AcDbSymbolTableRecord
100
AcDbBlockTableRecord
  2
_D_5
340
0
  0
BLOCK_RECORD
  5
27F
330
1
100
AcDbSymbolTableRecord
100
AcDbBlockTableRecord
  2
_D_6
340
0
  0
BLOCK_RECORD
  5
292
330
1
100
AcDbSymbolTableRecord
100
AcDbBlockTableRecord
  2
_D_7
340
0
  0
BLOCK_RECORD
  5
2A1
330
1
100
AcDbSymbolTableRecord
100
AcDbBlockTableRecord
  2
SW_CENTERMARKSYMBOL_0
340
0
102
{BLKREFS
331
2AC
102
}
  0
BLOCK_RECORD
  5
2BD
330
1
100
AcDbSymbolTableRecord
100
AcDbBlockTableRecord
  2
_D_8
340
0
  0
ENDTAB
  0
ENDSEC
  0
SECTION
  2
BLOCKS
  0
BLOCK
  5
20
330
1F
100
AcDbEntity
  8
0
100
AcDbBlockBegin
  2
*Model_Space
 70
     0
 10
0.0
 20
0.0
 30
0.0
  3
*Model_Space
  1

  0
ENDBLK
  5
21
330
1F
100
AcDbEntity
  8
0
100
AcDbBlockEnd
  0
BLOCK
  5
1C
330
1B
100
AcDbEntity
 67
     1
  8
0
100
AcDbBlockBegin
  2
*Paper_Space
 70
     0
 10
0.0
 20
0.0
 30
0.0
  3
*Paper_Space
  1

  0
ENDBLK
  5
1D
330
1B
100
AcDbEntity
 67
     1
  8
0
100
AcDbBlockEnd
  0
BLOCK
  5
24
330
23
100
AcDbEntity
  8
0
100
AcDbBlockBegin
  2
*Paper_Space0
 70
     0
 10
0.0
 20
0.0
 30
0.0
  3
*Paper_Space0
  1

  0
ENDBLK
  5
25
330
23
100
AcDbEntity
  8
0
100
AcDbBlockEnd
  0
BLOCK
  5
6E
330
6D
100
AcDbEntity
  8
0
100
AcDbBlockBegin
  2
Block1
 70
     0
 10
0.0
 20
0.0
 30
0.0
  3
Block1
  1

  0
INSERT
  5
75
330
6D
100
AcDbEntity
  8
0
  6
Continuous
 62
     7
370
     0
100
AcDbBlockReference
  2
SW_NOTE_0
 10
-0.0782181578
 20
-0.069528387
 30
0.0
  0
ENDBLK
  5
6F
330
6D
100
AcDbEntity
  8
0
100
AcDbBlockEnd
  0
BLOCK
  5
71
330
70
100
AcDbEntity
  8
0
100
AcDbBlockBegin
  2
SW_NOTE_0
 70
     0
 10
0.0
 20
0.0
 30
0.0
  3
SW_NOTE_0
  1

  0
MTEXT
  5
74
330
70
100
AcDbEntity
  8
0
  6
Continuous
 62
     0
370
     0
100
AcDbMText
 10
2.4348958333
 20
1.0742231165
 30
0.0
 40
0.8333333333
 41
0.0
 71
     2
 72
     1
  1
12" STAKE
  7
SLDTEXTSTYLE0
 73
     1
 44
1.0
  0
ENDBLK
  5
72
330
70
100
AcDbEntity
  8
0
100
AcDbBlockEnd
  0
BLOCK
  5
77
330
76
100
AcDbEntity
  8
0
100
AcDbBlockBegin
  2
Block2
 70
     0
 10
0.0
 20
0.0
 30
0.0
  3
Block2
  1

  0
INSERT
  5
7D
330
76
100
AcDbEntity
  8
0
  6
Continuous
 62
     7
370
     0
100
AcDbBlockReference
  2
SW_NOTE_0_1
 10
-0.2712713872
 20
1.1367231226
 30
0.0
  0
ENDBLK
  5
78
330
76
100
AcDbEntity
  8
0
100
AcDbBlockEnd
  0
BLOCK
  5
7A
330
79
100
AcDbEntity
  8
0
100
AcDbBlockBegin
  2
SW_NOTE_0_1
 70
     0
 10
0.0
 20
0.0
 30
0.0
  3
SW_NOTE_0_1
  1

  0
MTEXT
  5
7C
330
79
100
AcDbEntity
  8
0
  6
Continuous
 62
     0
370
     0
100
AcDbMText
 10
2.4348958333
 20
1.0742231165
 30
0.0
 40
0.8333333333
 41
0.0
 71
     2
 72
     1
  1
18" STAKE
  7
SLDTEXTSTYLE0
 73
     1
 44
1.0
  0
ENDBLK
  5
7B
330
79
100
AcDbEntity
  8
0
100
AcDbBlockEnd
  0
BLOCK
  5
7F
330
7E
100
AcDbEntity
  8
0
100
AcDbBlockBegin
  2
Block3
 70
     0
 10
0.0
 20
0.0
 30
0.0
  3
Block3
  1

  0
INSERT
  5
85
330
7E
100
AcDbEntity
  8
0
  6
Continuous
 62
     7
370
     0
100
AcDbBlockReference
  2
SW_NOTE_0_2
 10
-3.1439827449
 20
-0.0370986524
 30
0.0
  0
ENDBLK
  5
80
330
7E
100
AcDbEntity
  8
0
100
AcDbBlockEnd
  0
BLOCK
  5
82
330
81
100
AcDbEntity
  8
0
100
AcDbBlockBegin
  2
SW_NOTE_0_2
 70
     0
 10
0.0
 20
0.0
 30
0.0
  3
SW_NOTE_0_2
  1

  0
MTEXT
  5
84
330
81
100
AcDbEntity
  8
0
  6
Continuous
 62
     0
370
     0
100
AcDbMText
 10
4.9479166667
 20
1.0742231165
 30
0.0
 40
0.8333333333
 41
0.0
 71
     2
 72
     1
  1
12" JUNCTION BOX
  7
SLDTEXTSTYLE0
 73
     1
 44
1.0
  0
ENDBLK
  5
83
330
81
100
AcDbEntity
  8
0
100
AcDbBlockEnd
  0
BLOCK
  5
87
330
86
100
AcDbEntity
  8
0
100
AcDbBlockBegin
  2
Block4
 70
     0
 10
0.0
 20
0.0
 30
0.0
  3
Block4
  1

  0
INSERT
  5
8D
330
86
100
AcDbEntity
  8
0
  6
Continuous
 62
     7
370
     0
100
AcDbBlockReference
  2
SW_NOTE_0_3
 10
-3.3387829808
 20
-0.0132146679
 30
0.0
  0
ENDBLK
  5
88
330
86
100
AcDbEntity
  8
0
100
AcDbBlockEnd
  0
BLOCK
  5
8A
330
89
100
AcDbEntity
  8
0
100
AcDbBlockBegin
  2
SW_NOTE_0_3
 70
     0
 10
0.0
 20
0.0
 30
0.0
  3
SW_NOTE_0_3
  1

  0
MTEXT
  5
8C
330
89
100
AcDbEntity
  8
0
  6
Continuous
 62
     0
370
     0
100
AcDbMText
 10
4.9479166667
 20
1.0742231165
 30
0.0
 40
0.8333333333
 41
0.0
 71
     2
 72
     1
  1
18" JUNCTION BOX
  7
SLDTEXTSTYLE0
 73
     1
 44
1.0
  0
ENDBLK
  5
8B
330
89
100
AcDbEntity
  8
0
100
AcDbBlockEnd
  0
BLOCK
  5
D6
330
D5
100
AcDbEntity
  8
0
100
AcDbBlockBegin
  2
_D
 70
     0
 10
0.0
 20
0.0
 30
0.0
  3
_D
  1

  0
SOLID
  5
D8
330
D5
100
AcDbEntity
  8
0
  6
Continuous
 62
     7
370
    18
100
AcDbTrace
 10
6.9986309288
 20
24.2951485769
 30
0.0
 11
6.9186309288
 21
23.7751485769
 31
0.0
 12
7.0786309288
 22
23.7751485769
 32
0.0
 13
7.0786309288
 23
23.7751485769
 33
0.0
  0
SOLID
  5
D9
330
D5
100
AcDbEntity
  8
0
  6
Continuous
 62
     7
370
    18
100
AcDbTrace
 10
6.9986309288
 20
6.2951485769
 30
0.0
 11
7.0786309288
 21
6.8151485769
 31
0.0
 12
6.9186309288
 22
6.8151485769
 32
0.0
 13
6.9186309288
 23
6.8151485769
 33
0.0
  0
LINE
  5
DA
330
D5
100
AcDbEntity
  8
0
  6
Continuous
 62
     7
370
     0
100
AcDbLine
 10
11.7256978579
 20
24.2951485769
 30
0.0
 11
6.4986309288
 21
24.2951485769
 31
0.0
  0
LINE
  5
DB
330
D5
100
AcDbEntity
  8
0
  6
Continuous
 62
     7
370
     0
100
AcDbLine
 10
14.6606978579
 20
6.2951485769
 30
0.0
 11
6.4986309288
 21
6.2951485769
 31
0.0
  0
LINE
  5
DC
330
D5
100
AcDbEntity
  8
0
  6
Continuous
 62
     7
370
     0
100
AcDbLine
 10
6.9986309288
 20
24.2951485769
 30
0.0
 11
6.9986309288
 21
16.4857736493
 31
0.0
  0
LINE
  5
DD
330
D5
100
AcDbEntity
  8
0
  6
Continuous
 62
     7
370
     0
100
AcDbLine
 10
6.9986309288
 20
6.2951485769
 30
0.0
 11
6.9986309288
 21
14.1045235044
 31
0.0
  0
MTEXT
  5
DE
330
D5
100
AcDbEntity
  8
0
  6
Continuous
 62
     7
370
    18
100
AcDbMText
 10
4.4198113329
 20
16.3365575503
 30
0.0
 40
0.5
 41
0.0
 71
     1
 72
     1
  1
SPECIFY LENGTH
  7
SLDTEXTSTYLE0
 73
     1
 44
1.0
  0
MTEXT
  5
E0
330
D5
100
AcDbEntity
  8
0
  6
Continuous
 62
     7
370
    18
100
AcDbMText
 10
5.3767561315
 20
15.5428075265
 30
0.0
 40
0.5
 41
0.0
 71
     1
 72
     1
  1
12" OR 18"
  7
SLDTEXTSTYLE1
 73
     1
 44
1.0
  0
MTEXT
  5
E1
330
D5
100
AcDbEntity
  8
0
  6
Continuous
 62
     7
370
    18
100
AcDbMText
 10
3.7295338137
 20
14.7490575026
 30
0.0
 40
0.5
 41
0.0
 71
     1
 72
     1
  1
[305mm OR 457mm]
  7
SLDTEXTSTYLE0
 73
     1
 44
1.0
  0
ENDBLK
  5
D7
330
D5
100
AcDbEntity
  8
0
100
AcDbBlockEnd
  0
BLOCK
  5
E5
330
E4
100
AcDbEntity
  8
0
100
AcDbBlockBegin
  2
_D_1
 70
     0
 10
0.0
 20
0.0
 30
0.0
  3
_D_1
  1

  0
SOLID
  5
E7
330
E4
100
AcDbEntity
  8
0
  6
Continuous
 62
     7
370
    18
100
AcDbTrace
 10
11.9256978579
 20
27.6942804633
 30
0.0
 11
11.4056978579
 21
27.7742804633
 31
0.0
 12
11.4056978579
 22
27.6142804633
 32
0.0
 13
11.4056978579
 23
27.6142804633
 33
0.0
  0
SOLID
  5
E8
330
E4
100
AcDbEntity
  8
0
  6
Continuous
 62
     7
370
    18
100
AcDbTrace
 10
14.9256978579
 20
27.6942804633
 30
0.0
 11
15.4456978579
 21
27.6142804633
 31
0.0
 12
15.4456978579
 22
27.7742804633
 32
0.0
 13
15.4456978579
 23
27.7742804633
 33
0.0
  0
LINE
  5
E9
330
E4
100
AcDbEntity
  8
0
  6
Continuous
 62
     7
370
     0
100
AcDbLine
 10
12.4312534292
 20
27.69428039
 30
0.0
 11
12.2789096807
 21
27.69428039
 31
0.0
  0
LINE
  5
EA
330
E4
100
AcDbEntity
  8
0
  6
Continuous
 62
     7
370
     0
100
AcDbLine
 10
12.2789096807
 20
27.69428039
 30
0.0
 11
12.2789096807
 21
26.9005303661
 31
0.0
  0
LINE
  5
EB
330
E4
100
AcDbEntity
  8
0
  6
Continuous
 62
     7
370
     0
100
AcDbLine
 10
12.2789096807
 20
26.9005303661
 30
0.0
 11
12.4312534292
 21
26.9005303661
 31
0.0
  0
LINE
  5
EC
330
E4
100
AcDbEntity
  8
0
  6
Continuous
 62
     7
370
     0
100
AcDbLine
 10
14.42014236
 20
27.69428039
 30
0.0
 11
14.5724861085
 21
27.69428039
 31
0.0
  0
LINE
  5
ED
330
E4
100
AcDbEntity
  8
0
  6
Continuous
 62
     7
370
     0
100
AcDbLine
 10
14.5724861085
 20
27.69428039
 30
0.0
 11
14.5724861085
 21
26.9005303661
 31
0.0
  0
LINE
  5
EE
330
E4
100
AcDbEntity
  8
0
  6
Continuous
 62
     7
370
     0
100
AcDbLine
 10
14.5724861085
 20
26.9005303661
 30
0.0
 11
14.42014236
 21
26.9005303661
 31
0.0
  0
LINE
  5
EF
330
E4
100
AcDbEntity
  8
0
  6
Continuous
 62
     7
370
     0
100
AcDbLine
 10
11.9256978579
 20
25.9651485769
 30
0.0
 11
11.9256978579
 21
28.1942804633
 31
0.0
  0
LINE
  5
F0
330
E4
100
AcDbEntity
  8
0
  6
Continuous
 62
     7
370
     0
100
AcDbLine
 10
14.9256978579
 20
25.9651485769
 30
0.0
 11
14.9256978579
 21
28.1942804633
 31
0.0
  0
LINE
  5
F1
330
E4
100
AcDbEntity
  8
0
  6
Continuous
 62
     7
370
     0
100
AcDbLine
 10
11.9256978579
 20
27.6942804633
 30
0.0
 11
10.9256978579
 21
27.6942804633
 31
0.0
  0
LINE
  5
F2
330
E4
100
AcDbEntity
  8
0
  6
Continuous
 62
     7
370
     0
100
AcDbLine
 10
14.9256978579
 20
27.6942804633
 30
0.0
 11
15.9256978579
 21
27.6942804633
 31
0.0
  0
MTEXT
  5
F3
330
E4
100
AcDbEntity
  8
0
  6
Continuous
 62
     7
370
    18
100
AcDbMText
 10
12.760819412
 20
28.4403768108
 30
0.0
 40
0.5
 41
0.0
 71
     1
 72
     1
  1
%%c
  7
SLDTEXTSTYLE0
 73
     1
 44
1.0
  0
MTEXT
  5
F4
330
E4
100
AcDbEntity
  8
0
  6
Continuous
 62
     7
370
    18
100
AcDbMText
 10
13.5148818943
 20
28.4403768108
 30
0.0
 40
0.5
 41
0.0
 71
     1
 72
     1
  1
3"
  7
SLDTEXTSTYLE0
 73
     1
 44
1.0
  0
MTEXT
  5
F5
330
E4
100
AcDbEntity
  8
0
  6
Continuous
 62
     7
370
    18
100
AcDbMText
 10
12.4312534292
 20
27.545064291
 30
0.0
 40
0.5
 41
0.0
 71
     1
 72
     1
  1
76mm
  7
SLDTEXTSTYLE0
 73
     1
 44
1.0
  0
ENDBLK
  5
E6
330
E4
100
AcDbEntity
  8
0
100
AcDbBlockEnd
  0
BLOCK
  5
F9
330
F8
100
AcDbEntity
  8
0
100
AcDbBlockBegin
  2
_D_2
 70
     0
 10
0.0
 20
0.0
 30
0.0
  3
_D_2
  1

  0
SOLID
  5
FB
330
F8
100
AcDbEntity
  8
0
  6
Continuous
 62
     7
370
    18
100
AcDbTrace
 10
10.4631978579
 20
22.9843529864
 30
0.0
 11
9.9431978579
 21
23.0643529864
 31
0.0
 12
9.9431978579
 22
22.9043529864
 32
0.0
 13
9.9431978579
 23
22.9043529864
 33
0.0
  0
SOLID
  5
FC
330
F8
100
AcDbEntity
  8
0
  6
Continuous
 62
     7
370
    18
100
AcDbTrace
 10
16.3881978579
 20
22.9843529864
 30
0.0
 11
16.9081978579
 21
22.9043529864
 31
0.0
 12
16.9081978579
 22
23.0643529864
 32
0.0
 13
16.9081978579
 23
23.0643529864
 33
0.0
  0
LINE
  5
FD
330
F8
100
AcDbEntity
  8
0
  6
Continuous
 62
     7
370
     0
100
AcDbLine
 10
18.8245108702
 20
22.9843529131
 30
0.0
 11
18.6721671217
 21
22.9843529131
 31
0.0
  0
LINE
  5
FE
330
F8
100
AcDbEntity
  8
0
  6
Continuous
 62
     7
370
     0
100
AcDbLine
 10
18.6721671217
 20
22.9843529131
 30
0.0
 11
18.6721671217
 21
22.1906028892
 31
0.0
  0
LINE
  5
FF
330
F8
100
AcDbEntity
  8
0
  6
Continuous
 62
     7
370
     0
100
AcDbLine
 10
18.6721671217
 20
22.1906028892
 30
0.0
 11
18.8245108702
 21
22.1906028892
 31
0.0
  0
LINE
  5
100
330
F8
100
AcDbEntity
  8
0
  6
Continuous
 62
     7
370
     0
100
AcDbLine
 10
21.1828441732
 20
22.9843529131
 30
0.0
 11
21.3351879216
 21
22.9843529131
 31
0.0
  0
LINE
  5
101
330
F8
100
AcDbEntity
  8
0
  6
Continuous
 62
     7
370
     0
100
AcDbLine
 10
21.3351879216
 20
22.9843529131
 30
0.0
 11
21.3351879216
 21
22.1906028892
 31
0.0
  0
LINE
  5
102
330
F8
100
AcDbEntity
  8
0
  6
Continuous
 62
     7
370
     0
100
AcDbLine
 10
21.3351879216
 20
22.1906028892
 30
0.0
 11
21.1828441732
 21
22.1906028892
 31
0.0
  0
LINE
  5
103
330
F8
100
AcDbEntity
  8
0
  6
Continuous
 62
     7
370
     0
100
AcDbLine
 10
10.4631978579
 20
20.6201485769
 30
0.0
 11
10.4631978579
 21
23.4843529864
 31
0.0
  0
LINE
  5
104
330
F8
100
AcDbEntity
  8
0
  6
Continuous
 62
     7
370
     0
100
AcDbLine
 10
16.3881978579
 20
20.6201485769
 30
0.0
 11
16.3881978579
 21
23.4843529864
 31
0.0
  0
LINE
  5
105
330
F8
100
AcDbEntity
  8
0
  6
Continuous
 62
     7
370
     0
100
AcDbLine
 10
10.4631978579
 20
22.9843529864
 30
0.0
 11
9.4631978579
 21
22.9843529864
 31
0.0
  0
LINE
  5
106
330
F8
100
AcDbEntity
  8
0
  6
Continuous
 62
     7
370
     0
100
AcDbLine
 10
16.3881978579
 20
22.9843529864
 30
0.0
 11
18.2603127967
 21
22.9843529864
 31
0.0
  0
MTEXT
  5
107
330
F8
100
AcDbEntity
  8
0
  6
Continuous
 62
     7
370
    18
100
AcDbMText
 10
18.3617157464
 20
23.7304493339
 30
0.0
 40
0.5
 41
0.0
 71
     1
 72
     1
  1
%%c
  7
SLDTEXTSTYLE0
 73
     1
 44
1.0
  0
MTEXT
  5
108
330
F8
100
AcDbEntity
  8
0
  6
Continuous
 62
     7
370
    18
100
AcDbMText
 10
19.1157782288
 20
23.7304493339
 30
0.0
 40
0.5
 41
0.0
 71
     1
 72
     1
  1
5 15/16"
  7
SLDTEXTSTYLE0
 73
     1
 44
1.0
  0
MTEXT
  5
109
330
F8
100
AcDbEntity
  8
0
  6
Continuous
 62
     7
370
    18
100
AcDbMText
 10
18.8245108702
 20
22.8351368141
 30
0.0
 40
0.5
 41
0.0
 71
     1
 72
     1
  1
150mm
  7
SLDTEXTSTYLE0
 73
     1
 44
1.0
  0
ENDBLK
  5
FA
330
F8
100
AcDbEntity
  8
0
100
AcDbBlockEnd
  0
BLOCK
  5
10C
330
10B
100
AcDbEntity
  8
0
100
AcDbBlockBegin
  2
_D_3
 70
     0
 10
0.0
 20
0.0
 30
0.0
  3
_D_3
  1

  0
SOLID
  5
10E
330
10B
100
AcDbEntity
  8
0
  6
Continuous
 62
     7
370
    18
100
AcDbTrace
 10
17.2656128285
 20
20.4201485769
 30
0.0
 11
17.1856128285
 21
19.9001485769
 31
0.0
 12
17.3456128285
 22
19.9001485769
 32
0.0
 13
17.3456128285
 23
19.9001485769
 33
0.0
  0
SOLID
  5
10F
330
10B
100
AcDbEntity
  8
0
  6
Continuous
 62
     7
370
    18
100
AcDbTrace
 10
17.2656128285
 20
21.2951485769
 30
0.0
 11
17.3456128285
 21
21.8151485769
 31
0.0
 12
17.1856128285
 22
21.8151485769
 32
0.0
 13
17.1856128285
 23
21.8151485769
 33
0.0
  0
LINE
  5
110
330
10B
100
AcDbEntity
  8
0
  6
Continuous
 62
     7
370
     0
100
AcDbLine
 10
19.0592313973
 20
19.3183472999
 30
0.0
 11
18.9068876489
 21
19.3183472999
 31
0.0
  0
LINE
  5
111
330
10B
100
AcDbEntity
  8
0
  6
Continuous
 62
     7
370
     0
100
AcDbLine
 10
18.9068876489
 20
19.3183472999
 30
0.0
 11
18.9068876489
 21
18.5245972761
 31
0.0
  0
LINE
  5
112
330
10B
100
AcDbEntity
  8
0
  6
Continuous
 62
     7
370
     0
100
AcDbLine
 10
18.9068876489
 20
18.5245972761
 30
0.0
 11
19.0592313973
 21
18.5245972761
 31
0.0
  0
LINE
  5
113
330
10B
100
AcDbEntity
  8
0
  6
Continuous
 62
     7
370
     0
100
AcDbLine
 10
21.0481203282
 20
19.3183472999
 30
0.0
 11
21.2004640766
 21
19.3183472999
 31
0.0
  0
LINE
  5
114
330
10B
100
AcDbEntity
  8
0
  6
Continuous
 62
     7
370
     0
100
AcDbLine
 10
21.2004640766
 20
19.3183472999
 30
0.0
 11
21.2004640766
 21
18.5245972761
 31
0.0
  0
LINE
  5
115
330
10B
100
AcDbEntity
  8
0
  6
Continuous
 62
     7
370
     0
100
AcDbLine
 10
21.2004640766
 20
18.5245972761
 30
0.0
 11
21.0481203282
 21
18.5245972761
 31
0.0
  0
LINE
  5
116
330
10B
100
AcDbEntity
  8
0
  6
Continuous
 62
     7
370
     0
100
AcDbLine
 10
16.5881978579
 20
20.4201485769
 30
0.0
 11
17.7656128285
 21
20.4201485769
 31
0.0
  0
LINE
  5
117
330
10B
100
AcDbEntity
  8
0
  6
Continuous
 62
     7
370
     0
100
AcDbLine
 10
16.5576421846
 20
21.2951485769
 30
0.0
 11
17.7656128285
 21
21.2951485769
 31
0.0
  0
LINE
  5
118
330
10B
100
AcDbEntity
  8
0
  6
Continuous
 62
     7
370
     0
100
AcDbLine
 10
18.2656128285
 20
19.3221668225
 30
0.0
 11
17.2656128285
 21
19.3221668225
 31
0.0
  0
LINE
  5
119
330
10B
100
AcDbEntity
  8
0
  6
Continuous
 62
     7
370
     0
100
AcDbLine
 10
17.2656128285
 20
19.3221668225
 30
0.0
 11
17.2656128285
 21
20.4201485769
 31
0.0
  0
LINE
  5
11A
330
10B
100
AcDbEntity
  8
0
  6
Continuous
 62
     7
370
     0
100
AcDbLine
 10
17.2656128285
 20
21.2951485769
 30
0.0
 11
17.2656128285
 21
22.2951485769
 31
0.0
  0
MTEXT
  5
11B
330
10B
100
AcDbEntity
  8
0
  6
Continuous
 62
     7
370
    18
100
AcDbMText
 10
18.7573216777
 20
20.07208261
 30
0.0
 40
0.5
 41
0.0
 71
     1
 72
     1
  1

  7
SLDTEXTSTYLE0
 73
     1
 44
1.0
  0
MTEXT
  5
11C
330
10B
100
AcDbEntity
  8
0
  6
Continuous
 62
     7
370
    18
100
AcDbMText
 10
19.4352730166
 20
20.0644436841
 30
0.0
 40
0.5
 41
0.0
 71
     1
 72
     1
  1
7/8"
  7
SLDTEXTSTYLE0
 73
     1
 44
1.0
  0
MTEXT
  5
11D
330
10B
100
AcDbEntity
  8
0
  6
Continuous
 62
     7
370
    18
100
AcDbMText
 10
19.0592313973
 20
19.169131201
 30
0.0
 40
0.5
 41
0.0
 71
     1
 72
     1
  1
22mm
  7
SLDTEXTSTYLE0
 73
     1
 44
1.0
  0
MTEXT
  5
11E
330
10B
100
AcDbEntity
  8
0
  6
Continuous
 62
     7
370
    18
100
AcDbMText
 10
21.5403077151
 20
20.07208261
 30
0.0
 40
0.5
 41
0.0
 71
     1
 72
     1
  1

  7
SLDTEXTSTYLE0
 73
     1
 44
1.0
  0
ENDBLK
  5
10D
330
10B
100
AcDbEntity
  8
0
100
AcDbBlockEnd
  0
BLOCK
  5
122
330
121
100
AcDbEntity
  8
0
100
AcDbBlockBegin
  2
_D_4
 70
     0
 10
0.0
 20
0.0
 30
0.0
  3
_D_4
  1

  0
SOLID
  5
124
330
121
100
AcDbEntity
  8
0
  6
Continuous
 62
     7
370
    18
100
AcDbTrace
 10
6.9986309288
 20
25.7951485769
 30
0.0
 11
6.9186309288
 21
25.2751485769
 31
0.0
 12
7.0786309288
 22
25.2751485769
 32
0.0
 13
7.0786309288
 23
25.2751485769
 33
0.0
  0
SOLID
  5
125
330
121
100
AcDbEntity
  8
0
  6
Continuous
 62
     7
370
    18
100
AcDbTrace
 10
6.9986309288
 20
24.2951485769
 30
0.0
 11
7.0786309288
 21
24.8151485769
 31
0.0
 12
6.9186309288
 22
24.8151485769
 32
0.0
 13
6.9186309288
 23
24.8151485769
 33
0.0
  0
LINE
  5
126
330
121
100
AcDbEntity
  8
0
  6
Continuous
 62
     7
370
     0
100
AcDbLine
 10
3.2161235758
 20
27.6904609408
 30
0.0
 11
3.0637798274
 21
27.6904609408
 31
0.0
  0
LINE
  5
127
330
121
100
AcDbEntity
  8
0
  6
Continuous
 62
     7
370
     0
100
AcDbLine
 10
3.0637798274
 20
27.6904609408
 30
0.0
 11
3.0637798274
 21
26.8967109169
 31
0.0
  0
LINE
  5
128
330
121
100
AcDbEntity
  8
0
  6
Continuous
 62
     7
370
     0
100
AcDbLine
 10
3.0637798274
 20
26.8967109169
 30
0.0
 11
3.2161235758
 21
26.8967109169
 31
0.0
  0
LINE
  5
129
330
121
100
AcDbEntity
  8
0
  6
Continuous
 62
     7
370
     0
100
AcDbLine
 10
5.2050125067
 20
27.6904609408
 30
0.0
 11
5.3573562551
 21
27.6904609408
 31
0.0
  0
LINE
  5
12A
330
121
100
AcDbEntity
  8
0
  6
Continuous
 62
     7
370
     0
100
AcDbLine
 10
5.3573562551
 20
27.6904609408
 30
0.0
 11
5.3573562551
 21
26.8967109169
 31
0.0
  0
LINE
  5
12B
330
121
100
AcDbEntity
  8
0
  6
Continuous
 62
     7
370
     0
100
AcDbLine
 10
5.3573562551
 20
26.8967109169
 30
0.0
 11
5.2050125067
 21
26.8967109169
 31
0.0
  0
LINE
  5
12C
330
121
100
AcDbEntity
  8
0
  6
Continuous
 62
     7
370
     0
100
AcDbLine
 10
11.7556978579
 20
25.7951485769
 30
0.0
 11
6.4986309288
 21
25.7951485769
 31
0.0
  0
LINE
  5
12D
330
121
100
AcDbEntity
  8
0
  6
Continuous
 62
     7
370
     0
100
AcDbLine
 10
11.7256978579
 20
24.2951485769
 30
0.0
 11
6.4986309288
 21
24.2951485769
 31
0.0
  0
LINE
  5
12E
330
121
100
AcDbEntity
  8
0
  6
Continuous
 62
     7
370
     0
100
AcDbLine
 10
5.9986309288
 20
27.6942804633
 30
0.0
 11
6.9986309288
 21
27.6942804633
 31
0.0
  0
LINE
  5
12F
330
121
100
AcDbEntity
  8
0
  6
Continuous
 62
     7
370
     0
100
AcDbLine
 10
6.9986309288
 20
27.6942804633
 30
0.0
 11
6.9986309288
 21
25.7951485769
 31
0.0
  0
LINE
  5
130
330
121
100
AcDbEntity
  8
0
  6
Continuous
 62
     7
370
     0
100
AcDbLine
 10
6.9986309288
 20
25.7951485769
 30
0.0
 11
6.9986309288
 21
24.2951485769
 31
0.0
  0
MTEXT
  5
131
330
121
100
AcDbEntity
  8
0
  6
Continuous
 62
     7
370
    18
100
AcDbMText
 10
2.9142138562
 20
28.4441962508
 30
0.0
 40
0.5
 41
0.0
 71
     1
 72
     1
  1

  7
SLDTEXTSTYLE0
 73
     1
 44
1.0
  0
MTEXT
  5
132
330
121
100
AcDbEntity
  8
0
  6
Continuous
 62
     7
370
    18
100
AcDbMText
 10
3.315081916
 20
28.4365573249
 30
0.0
 40
0.5
 41
0.0
 71
     1
 72
     1
  1
1 1/2"
  7
SLDTEXTSTYLE0
 73
     1
 44
1.0
  0
MTEXT
  5
133
330
121
100
AcDbEntity
  8
0
  6
Continuous
 62
     7
370
    18
100
AcDbMText
 10
3.2161235758
 20
27.5412448418
 30
0.0
 40
0.5
 41
0.0
 71
     1
 72
     1
  1
38mm
  7
SLDTEXTSTYLE0
 73
     1
 44
1.0
  0
MTEXT
  5
134
330
121
100
AcDbEntity
  8
0
  6
Continuous
 62
     7
370
    18
100
AcDbMText
 10
5.6971998936
 20
28.4441962508
 30
0.0
 40
0.5
 41
0.0
 71
     1
 72
     1
  1

  7
SLDTEXTSTYLE0
 73
     1
 44
1.0
  0
ENDBLK
  5
123
330
121
100
AcDbEntity
  8
0
100
AcDbBlockEnd
  0
BLOCK
  5
137
330
136
100
AcDbEntity
  8
0
100
AcDbBlockBegin
  2
_D_5
 70
     0
 10
0.0
 20
0.0
 30
0.0
  3
_D_5
  1

  0
SOLID
  5
139
330
136
100
AcDbEntity
  8
0
  6
Continuous
 62
     7
370
    18
100
AcDbTrace
 10
11.9906978579
 20
12.957103021
 30
0.0
 11
11.4706978579
 21
13.037103021
 31
0.0
 12
11.4706978579
 22
12.877103021
 32
0.0
 13
11.4706978579
 23
12.877103021
 33
0.0
  0
SOLID
  5
13A
330
136
100
AcDbEntity
  8
0
  6
Continuous
 62
     7
370
    18
100
AcDbTrace
 10
14.8606978579
 20
12.957103021
 30
0.0
 11
15.3806978579
 21
12.877103021
 31
0.0
 12
15.3806978579
 22
13.037103021
 32
0.0
 13
15.3806978579
 23
13.037103021
 33
0.0
  0
LINE
  5
13B
330
136
100
AcDbEntity
  8
0
  6
Continuous
 62
     7
370
     0
100
AcDbLine
 10
17.1194692767
 20
12.9571029477
 30
0.0
 11
16.9671255283
 21
12.9571029477
 31
0.0
  0
LINE
  5
13C
330
136
100
AcDbEntity
  8
0
  6
Continuous
 62
     7
370
     0
100
AcDbLine
 10
16.9671255283
 20
12.9571029477
 30
0.0
 11
16.9671255283
 21
12.1633529238
 31
0.0
  0
LINE
  5
13D
330
136
100
AcDbEntity
  8
0
  6
Continuous
 62
     7
370
     0
100
AcDbLine
 10
16.9671255283
 20
12.1633529238
 30
0.0
 11
17.1194692767
 21
12.1633529238
 31
0.0
  0
LINE
  5
13E
330
136
100
AcDbEntity
  8
0
  6
Continuous
 62
     7
370
     0
100
AcDbLine
 10
19.1083582076
 20
12.9571029477
 30
0.0
 11
19.260701956
 21
12.9571029477
 31
0.0
  0
LINE
  5
13F
330
136
100
AcDbEntity
  8
0
  6
Continuous
 62
     7
370
     0
100
AcDbLine
 10
19.260701956
 20
12.9571029477
 30
0.0
 11
19.260701956
 21
12.1633529238
 31
0.0
  0
LINE
  5
140
330
136
100
AcDbEntity
  8
0
  6
Continuous
 62
     7
370
     0
100
AcDbLine
 10
19.260701956
 20
12.1633529238
 30
0.0
 11
19.1083582076
 21
12.1633529238
 31
0.0
  0
LINE
  5
141
330
136
100
AcDbEntity
  8
0
  6
Continuous
 62
     7
370
     0
100
AcDbLine
 10
11.9906978579
 20
12.957103021
 30
0.0
 11
10.9906978579
 21
12.957103021
 31
0.0
  0
LINE
  5
142
330
136
100
AcDbEntity
  8
0
  6
Continuous
 62
     7
370
     0
100
AcDbLine
 10
14.8606978579
 20
12.957103021
 30
0.0
 11
16.7133788301
 21
12.957103021
 31
0.0
  0
MTEXT
  5
143
330
136
100
AcDbEntity
  8
0
  6
Continuous
 62
     7
370
    18
100
AcDbMText
 10
16.841396339
 20
13.7031993685
 30
0.0
 40
0.5
 41
0.0
 71
     1
 72
     1
  1
%%c
  7
SLDTEXTSTYLE0
 73
     1
 44
1.0
  0
MTEXT
  5
144
330
136
100
AcDbEntity
  8
0
  6
Continuous
 62
     7
370
    18
100
AcDbMText
 10
17.5954588214
 20
13.7031993685
 30
0.0
 40
0.5
 41
0.0
 71
     1
 72
     1
  1
2 7/8"
  7
SLDTEXTSTYLE0
 73
     1
 44
1.0
  0
MTEXT
  5
145
330
136
100
AcDbEntity
  8
0
  6
Continuous
 62
     7
370
    18
100
AcDbMText
 10
17.1194692767
 20
12.8078868487
 30
0.0
 40
0.5
 41
0.0
 71
     1
 72
     1
  1
73mm
  7
SLDTEXTSTYLE0
 73
     1
 44
1.0
  0
ENDBLK
  5
138
330
136
100
AcDbEntity
  8
0
100
AcDbBlockEnd
  0
BLOCK
  5
280
330
27F
100
AcDbEntity
  8
0
100
AcDbBlockBegin
  2
_D_6
 70
     0
 10
0.0
 20
0.0
 30
0.0
  3
_D_6
  1

  0
SOLID
  5
282
330
27F
100
AcDbEntity
  8
0
  6
Continuous
 62
     7
370
    18
100
AcDbTrace
 10
25.8998062347
 20
11.5793003549
 30
0.0
 11
25.5705242024
 21
11.1689671449
 31
0.0
 12
25.709088267
 22
11.0889671449
 32
0.0
 13
25.709088267
 23
11.0889671449
 33
0.0
  0
LINE
  5
283
330
27F
100
AcDbEntity
  8
0
  6
Continuous
 62
     7
370
     0
100
AcDbLine
 10
19.0900519583
 20
9.9235200789
 30
0.0
 11
18.9377082098
 21
9.9235200789
 31
0.0
  0
LINE
  5
284
330
27F
100
AcDbEntity
  8
0
  6
Continuous
 62
     7
370
     0
100
AcDbLine
 10
18.9377082098
 20
9.9235200789
 30
0.0
 11
18.9377082098
 21
9.129770055
 31
0.0
  0
LINE
  5
285
330
27F
100
AcDbEntity
  8
0
  6
Continuous
 62
     7
370
     0
100
AcDbLine
 10
18.9377082098
 20
9.129770055
 30
0.0
 11
19.0900519583
 21
9.129770055
 31
0.0
  0
LINE
  5
286
330
27F
100
AcDbEntity
  8
0
  6
Continuous
 62
     7
370
     0
100
AcDbLine
 10
21.0789408891
 20
9.9235200789
 30
0.0
 11
21.2312846376
 21
9.9235200789
 31
0.0
  0
LINE
  5
287
330
27F
100
AcDbEntity
  8
0
  6
Continuous
 62
     7
370
     0
100
AcDbLine
 10
21.2312846376
 20
9.9235200789
 30
0.0
 11
21.2312846376
 21
9.129770055
 31
0.0
  0
LINE
  5
288
330
27F
100
AcDbEntity
  8
0
  6
Continuous
 62
     7
370
     0
100
AcDbLine
 10
21.2312846376
 20
9.129770055
 30
0.0
 11
21.0789408891
 21
9.129770055
 31
0.0
  0
LINE
  5
289
330
27F
100
AcDbEntity
  8
0
  6
Continuous
 62
     7
370
     0
100
AcDbLine
 10
25.8998062347
 20
11.5793003549
 30
0.0
 11
24.2987323799
 21
8.8061590917
 31
0.0
  0
LINE
  5
28A
330
27F
100
AcDbEntity
  8
0
  6
Continuous
 62
     7
370
     0
100
AcDbLine
 10
24.2987323799
 20
8.8061590917
 30
0.0
 11
23.4237323799
 21
8.8061590917
 31
0.0
  0
MTEXT
  5
28B
330
27F
100
AcDbEntity
  8
0
  6
Continuous
 62
     7
370
    18
100
AcDbMText
 10
18.7196179276
 20
10.669616463
 30
0.0
 40
0.5
 41
0.0
 71
     1
 72
     1
  1
%%c
  7
SLDTEXTSTYLE0
 73
     1
 44
1.0
  0
MTEXT
  5
28C
330
27F
100
AcDbEntity
  8
0
  6
Continuous
 62
     7
370
    18
100
AcDbMText
 10
19.4736804099
 20
10.669616463
 30
0.0
 40
0.5
 41
0.0
 71
     1
 72
     1
  1
13/16"
  7
SLDTEXTSTYLE0
 73
     1
 44
1.0
  0
MTEXT
  5
28D
330
27F
100
AcDbEntity
  8
0
  6
Continuous
 62
     7
370
    18
100
AcDbMText
 10
19.0900519583
 20
9.7743039799
 30
0.0
 40
0.5
 41
0.0
 71
     1
 72
     1
  1
21mm
  7
SLDTEXTSTYLE0
 73
     1
 44
1.0
  0
MTEXT
  5
28E
330
27F
100
AcDbEntity
  8
0
  6
Continuous
 62
     7
370
    18
100
AcDbMText
 10
16.9952603942
 20
8.8789915793
 30
0.0
 40
0.5
 41
0.0
 71
     1
 72
     1
  1
FIXTURE MOUNTING
  7
SLDTEXTSTYLE0
 73
     1
 44
1.0
  0
MTEXT
  5
28F
330
27F
100
AcDbEntity
  8
0
  6
Continuous
 62
     7
370
    18
100
AcDbMText
 10
19.2344963863
 20
8.0852415554
 30
0.0
 40
0.5
 41
0.0
 71
     1
 72
     1
  1
HOLE
  7
SLDTEXTSTYLE0
 73
     1
 44
1.0
  0
ENDBLK
  5
281
330
27F
100
AcDbEntity
  8
0
100
AcDbBlockEnd
  0
BLOCK
  5
293
330
292
100
AcDbEntity
  8
0
100
AcDbBlockBegin
  2
_D_7
 70
     0
 10
0.0
 20
0.0
 30
0.0
  3
_D_7
  1

  0
SOLID
  5
295
330
292
100
AcDbEntity
  8
0
  6
Continuous
 62
     7
370
    18
100
AcDbTrace
 10
27.4058443404
 20
11.187834872
 30
0.0
 11
27.8161775503
 21
10.8585528397
 31
0.0
 12
27.8961775503
 22
10.9971169043
 32
0.0
 13
27.8961775503
 23
10.9971169043
 33
0.0
  0
LINE
  5
296
330
292
100
AcDbEntity
  8
0
  6
Continuous
 62
     7
370
     0
100
AcDbLine
 10
29.896341967
 20
10.5032070011
 30
0.0
 11
29.7439982186
 21
10.5032070011
 31
0.0
  0
LINE
  5
297
330
292
100
AcDbEntity
  8
0
  6
Continuous
 62
     7
370
     0
100
AcDbLine
 10
29.7439982186
 20
10.5032070011
 30
0.0
 11
29.7439982186
 21
9.7094569772
 31
0.0
  0
LINE
  5
298
330
292
100
AcDbEntity
  8
0
  6
Continuous
 62
     7
370
     0
100
AcDbLine
 10
29.7439982186
 20
9.7094569772
 30
0.0
 11
29.896341967
 21
9.7094569772
 31
0.0
  0
LINE
  5
299
330
292
100
AcDbEntity
  8
0
  6
Continuous
 62
     7
370
     0
100
AcDbLine
 10
31.8852308979
 20
10.5032070011
 30
0.0
 11
32.0375746463
 21
10.5032070011
 31
0.0
  0
LINE
  5
29A
330
292
100
AcDbEntity
  8
0
  6
Continuous
 62
     7
370
     0
100
AcDbLine
 10
32.0375746463
 20
10.5032070011
 30
0.0
 11
32.0375746463
 21
9.7094569772
 31
0.0
  0
LINE
  5
29B
330
292
100
AcDbEntity
  8
0
  6
Continuous
 62
     7
370
     0
100
AcDbLine
 10
32.0375746463
 20
9.7094569772
 30
0.0
 11
31.8852308979
 21
9.7094569772
 31
0.0
  0
LINE
  5
29C
330
292
100
AcDbEntity
  8
0
  6
Continuous
 62
     7
370
     0
100
AcDbLine
 10
27.4058443404
 20
11.187834872
 30
0.0
 11
28.5916544701
 21
10.5032070744
 31
0.0
  0
LINE
  5
29D
330
292
100
AcDbEntity
  8
0
  6
Continuous
 62
     7
370
     0
100
AcDbLine
 10
28.5916544701
 20
10.5032070744
 30
0.0
 11
29.5916544701
 21
10.5032070744
 31
0.0
  0
MTEXT
  5
29E
330
292
100
AcDbEntity
  8
0
  6
Continuous
 62
     7
370
    18
100
AcDbMText
 10
30.2259079498
 20
11.2493034219
 30
0.0
 40
0.5
 41
0.0
 71
     1
 72
     1
  1
%%c
  7
SLDTEXTSTYLE0
 73
     1
 44
1.0
  0
MTEXT
  5
29F
330
292
100
AcDbEntity
  8
0
  6
Continuous
 62
     7
370
    18
100
AcDbMText
 10
30.9799704322
 20
11.2493034219
 30
0.0
 40
0.5
 41
0.0
 71
     1
 72
     1
  1
3"
  7
SLDTEXTSTYLE0
 73
     1
 44
1.0
  0
MTEXT
  5
2A0
330
292
100
AcDbEntity
  8
0
  6
Continuous
 62
     7
370
    18
100
AcDbMText
 10
29.896341967
 20
10.3539909021
 30
0.0
 40
0.5
 41
0.0
 71
     1
 72
     1
  1
76mm
  7
SLDTEXTSTYLE0
 73
     1
 44
1.0
  0
ENDBLK
  5
294
330
292
100
AcDbEntity
  8
0
100
AcDbBlockEnd
  0
BLOCK
  5
2A2
330
2A1
100
AcDbEntity
  8
0
100
AcDbBlockBegin
  2
SW_CENTERMARKSYMBOL_0
 70
     0
 10
0.0
 20
0.0
 30
0.0
  3
SW_CENTERMARKSYMBOL_0
  1

  0
LINE
  5
2A4
330
2A1
100
AcDbEntity
  8
0
  6
Continuous
 62
     0
370
    18
100
AcDbLine
 10
0.0
 20
0.0
 30
0.0
 11
0.0
 21
0.1
 31
0.0
  0
LINE
  5
2A5
330
2A1
100
AcDbEntity
  8
0
  6
Continuous
 62
     0
370
    18
100
AcDbLine
 10
0.0
 20
0.0
 30
0.0
 11
-0.1
 21
0.0
 31
0.0
  0
LINE
  5
2A6
330
2A1
100
AcDbEntity
  8
0
  6
Continuous
 62
     0
370
    18
100
AcDbLine
 10
0.0
 20
0.0
 30
0.0
 11
0.0
 21
-0.1
 31
0.0
  0
LINE
  5
2A7
330
2A1
100
AcDbEntity
  8
0
  6
Continuous
 62
     0
370
    18
100
AcDbLine
 10
0.0
 20
0.0
 30
0.0
 11
0.1
 21
0.0
 31
0.0
  0
LINE
  5
2A8
330
2A1
100
AcDbEntity
  8
0
  6
Continuous
 62
     0
370
    18
100
AcDbLine
 10
0.0
 20
0.2
 30
0.0
 11
0.0
 21
1.6
 31
0.0
  0
LINE
  5
2A9
330
2A1
100
AcDbEntity
  8
0
  6
Continuous
 62
     0
370
    18
100
AcDbLine
 10
-0.2
 20
0.0
 30
0.0
 11
-1.6
 21
0.0
 31
0.0
  0
LINE
  5
2AA
330
2A1
100
AcDbEntity
  8
0
  6
Continuous
 62
     0
370
    18
100
AcDbLine
 10
0.0
 20
-0.2
 30
0.0
 11
0.0
 21
-1.6
 31
0.0
  0
LINE
  5
2AB
330
2A1
100
AcDbEntity
  8
0
  6
Continuous
 62
     0
370
    18
100
AcDbLine
 10
0.2
 20
0.0
 30
0.0
 11
1.6
 21
0.0
 31
0.0
  0
ENDBLK
  5
2A3
330
2A1
100
AcDbEntity
  8
0
100
AcDbBlockEnd
  0
BLOCK
  5
2BE
330
2BD
100
AcDbEntity
  8
0
100
AcDbBlockBegin
  2
_D_8
 70
     0
 10
0.0
 20
0.0
 30
0.0
  3
_D_8
  1

  0
SOLID
  5
2C0
330
2BD
100
AcDbEntity
  8
0
  6
Continuous
 62
     7
370
    18
100
AcDbTrace
 10
28.2304149712
 20
6.6935407652
 30
0.0
 11
28.1504149712
 21
6.1735407652
 31
0.0
 12
28.3104149712
 22
6.1735407652
 32
0.0
 13
28.3104149712
 23
6.1735407652
 33
0.0
  0
SOLID
  5
2C1
330
2BD
100
AcDbEntity
  8
0
  6
Continuous
 62
     7
370
    18
100
AcDbTrace
 10
28.2304149712
 20
5.1935407652
 30
0.0
 11
28.3104149712
 21
5.7135407652
 31
0.0
 12
28.1504149712
 22
5.7135407652
 32
0.0
 13
28.1504149712
 23
5.7135407652
 33
0.0
  0
LINE
  5
2C2
330
2BD
100
AcDbEntity
  8
0
  6
Continuous
 62
     7
370
     0
100
AcDbLine
 10
30.02403354
 20
7.482445335
 30
0.0
 11
29.8716897915
 21
7.482445335
 31
0.0
  0
LINE
  5
2C3
330
2BD
100
AcDbEntity
  8
0
  6
Continuous
 62
     7
370
     0
100
AcDbLine
 10
29.8716897915
 20
7.482445335
 30
0.0
 11
29.8716897915
 21
6.6886953111
 31
0.0
  0
LINE
  5
2C4
330
2BD
100
AcDbEntity
  8
0
  6
Continuous
 62
     7
370
     0
100
AcDbLine
 10
29.8716897915
 20
6.6886953111
 30
0.0
 11
30.02403354
 21
6.6886953111
 31
0.0
  0
LINE
  5
2C5
330
2BD
100
AcDbEntity
  8
0
  6
Continuous
 62
     7
370
     0
100
AcDbLine
 10
32.0129224708
 20
7.482445335
 30
0.0
 11
32.1652662193
 21
7.482445335
 31
0.0
  0
LINE
  5
2C6
330
2BD
100
AcDbEntity
  8
0
  6
Continuous
 62
     7
370
     0
100
AcDbLine
 10
32.1652662193
 20
7.482445335
 30
0.0
 11
32.1652662193
 21
6.6886953111
 31
0.0
  0
LINE
  5
2C7
330
2BD
100
AcDbEntity
  8
0
  6
Continuous
 62
     7
370
     0
100
AcDbLine
 10
32.1652662193
 20
6.6886953111
 30
0.0
 11
32.0129224708
 21
6.6886953111
 31
0.0
  0
LINE
  5
2C8
330
2BD
100
AcDbEntity
  8
0
  6
Continuous
 62
     7
370
     0
100
AcDbLine
 10
27.7768062347
 20
6.6935407652
 30
0.0
 11
28.7304149712
 21
6.6935407652
 31
0.0
  0
LINE
  5
2C9
330
2BD
100
AcDbEntity
  8
0
  6
Continuous
 62
     7
370
     0
100
AcDbLine
 10
27.8068062347
 20
5.1935407652
 30
0.0
 11
28.7304149712
 21
5.1935407652
 31
0.0
  0
LINE
  5
2CA
330
2BD
100
AcDbEntity
  8
0
  6
Continuous
 62
     7
370
     0
100
AcDbLine
 10
29.2304149712
 20
7.4862648575
 30
0.0
 11
28.2304149712
 21
7.4862648575
 31
0.0
  0
LINE
  5
2CB
330
2BD
100
AcDbEntity
  8
0
  6
Continuous
 62
     7
370
     0
100
AcDbLine
 10
28.2304149712
 20
7.4862648575
 30
0.0
 11
28.2304149712
 21
6.6935407652
 31
0.0
  0
LINE
  5
2CC
330
2BD
100
AcDbEntity
  8
0
  6
Continuous
 62
     7
370
     0
100
AcDbLine
 10
28.2304149712
 20
6.6935407652
 30
0.0
 11
28.2304149712
 21
5.1935407652
 31
0.0
  0
MTEXT
  5
2CD
330
2BD
100
AcDbEntity
  8
0
  6
Continuous
 62
     7
370
    18
100
AcDbMText
 10
29.7221238203
 20
8.2361806451
 30
0.0
 40
0.5
 41
0.0
 71
     1
 72
     1
  1

  7
SLDTEXTSTYLE0
 73
     1
 44
1.0
  0
MTEXT
  5
2CE
330
2BD
100
AcDbEntity
  8
0
  6
Continuous
 62
     7
370
    18
100
AcDbMText
 10
30.1229918801
 20
8.2285417191
 30
0.0
 40
0.5
 41
0.0
 71
     1
 72
     1
  1
1 1/2"
  7
SLDTEXTSTYLE0
 73
     1
 44
1.0
  0
MTEXT
  5
2CF
330
2BD
100
AcDbEntity
  8
0
  6
Continuous
 62
     7
370
    18
100
AcDbMText
 10
30.02403354
 20
7.333229236
 30
0.0
 40
0.5
 41
0.0
 71
     1
 72
     1
  1
38mm
  7
SLDTEXTSTYLE0
 73
     1
 44
1.0
  0
MTEXT
  5
2D0
330
2BD
100
AcDbEntity
  8
0
  6
Continuous
 62
     7
370
    18
100
AcDbMText
 10
32.5051098577
 20
8.2361806451
 30
0.0
 40
0.5
 41
0.0
 71
     1
 72
     1
  1

  7
SLDTEXTSTYLE0
 73
     1
 44
1.0
  0
ENDBLK
  5
2BF
330
2BD
100
AcDbEntity
  8
0
100
AcDbBlockEnd
  0
ENDSEC
  0
SECTION
  2
ENTITIES
  0
MTEXT
  5
8E
330
1F
100
AcDbEntity
  8
SLD-0
100
AcDbMText
 10
35.0169421488
 20
3.373003985
 30
0.0
 40
0.5
 41
0.0
 71
     1
 72
     1
  1
PI2-S12/18-CB
  7
SLDTEXTSTYLE0
 73
     1
 44
1.0
  0
LINE
  5
8F
330
1F
100
AcDbEntity
  8
0
  6
Continuous
 62
     7
370
    25
100
AcDbLine
 10
11.9906978579
 20
24.2951485769
 30
0.0
 11
11.9906978579
 21
21.2951485769
 31
0.0
  0
LINE
  5
90
330
1F
100
AcDbEntity
  8
0
  6
Continuous
 62
     7
370
    25
100
AcDbLine
 10
11.9906978579
 20
20.4201485769
 30
0.0
 11
11.9906978579
 21
11.2661343946
 31
0.0
  0
LINE
  5
91
330
1F
100
AcDbEntity
  8
0
  6
Continuous
 62
     7
370
    25
100
AcDbLine
 10
14.8606978579
 20
6.2951485769
 30
0.0
 11
14.8606978579
 21
20.4201485769
 31
0.0
  0
LINE
  5
92
330
1F
100
AcDbEntity
  8
0
  6
Continuous
 62
     7
370
    25
100
AcDbLine
 10
14.8606978579
 20
21.2951485769
 30
0.0
 11
14.8606978579
 21
22.7951485769
 31
0.0
  0
LINE
  5
93
330
1F
100
AcDbEntity
  8
0
  6
Continuous
 62
     7
370
    25
100
AcDbLine
 10
16.3881978579
 20
20.4201485769
 30
0.0
 11
16.3576421846
 21
21.2951485769
 31
0.0
  0
LINE
  5
94
330
1F
100
AcDbEntity
  8
0
  6
Continuous
 62
     7
370
    25
100
AcDbLine
 10
10.4937535312
 20
21.2951485769
 30
0.0
 11
10.4631978579
 21
20.4201485769
 31
0.0
  0
LINE
  5
95
330
1F
100
AcDbEntity
  8
0
  6
Continuous
 62
     7
370
    25
100
AcDbLine
 10
14.9256978579
 20
25.7651485769
 30
0.0
 11
14.8956978579
 21
25.7951485769
 31
0.0
  0
LINE
  5
96
330
1F
100
AcDbEntity
  8
0
  6
Continuous
 62
     7
370
    25
100
AcDbLine
 10
11.9556978579
 20
25.7951485769
 30
0.0
 11
11.9256978579
 21
25.7651485769
 31
0.0
  0
LINE
  5
97
330
1F
100
AcDbEntity
  8
0
  6
Continuous
 62
     7
370
    25
100
AcDbLine
 10
14.9256978579
 20
24.7372784723
 30
0.0
 11
14.9256978579
 21
25.7651485769
 31
0.0
  0
LINE
  5
98
330
1F
100
AcDbEntity
  8
0
  6
Continuous
 62
     7
370
    25
100
AcDbLine
 10
14.9256978579
 20
24.2951485769
 30
0.0
 11
14.9256978579
 21
24.6022515809
 31
0.0
  0
LINE
  5
99
330
1F
100
AcDbEntity
  8
0
  6
Continuous
 62
     7
370
    25
100
AcDbLine
 10
11.9256978579
 20
25.7651485769
 30
0.0
 11
11.9256978579
 21
24.2951485769
 31
0.0
  0
LINE
  5
9A
330
1F
100
AcDbEntity
  8
0
  6
Continuous
 62
     7
370
    25
100
AcDbLine
 10
11.9906978579
 20
11.2661343946
 30
0.0
 11
14.8606978579
 21
6.2951485769
 31
0.0
  0
LINE
  5
9B
330
1F
100
AcDbEntity
  8
0
  6
Continuous
 62
     7
370
    25
100
AcDbLine
 10
16.3576421846
 20
21.2951485769
 30
0.0
 11
10.4937535312
 21
21.2951485769
 31
0.0
  0
LINE
  5
9C
330
1F
100
AcDbEntity
  8
0
  6
Continuous
 62
     7
370
    25
100
AcDbLine
 10
16.3881978579
 20
20.4201485769
 30
0.0
 11
10.4631978579
 21
20.4201485769
 31
0.0
  0
LINE
  5
9D
330
1F
100
AcDbEntity
  8
0
  6
Continuous
 62
     7
370
    25
100
AcDbLine
 10
14.9256978579
 20
24.7335485769
 30
0.0
 11
14.9256978579
 21
24.6067485769
 31
0.0
  0
LWPOLYLINE
  5
9E
330
1F
100
AcDbEntity
  8
0
  6
Continuous
 62
     7
370
    25
100
AcDbPolyline
 90
       33
 70
   128
 43
0.0
 10
12.6688918951
 20
24.7330596132
 10
12.6583936505
 20
24.7303176099
 10
12.6485603968
 20
24.7252633444
 10
12.6397700206
 20
24.7180910493
 10
12.6323603309
 20
24.7090763519
 10
12.6266160782
 20
24.6985656819
 10
12.6227580107
 20
24.6869629585
 10
12.6209343918
 20
24.6747140679
 10
12.6212153023
 20
24.662289728
 10
12.6235899468
 20
24.6501673992
 10
12.6279670691
 20
24.6388129359
 10
12.6341784588
 20
24.6286626837
 10
12.6419854158
 20
24.6201067111
 10
12.651087923
 20
24.6134738193
 10
12.6611361763
 20
24.6090189067
 10
12.6717440267
 20
24.6069131731
 10
12.6825038207
 20
24.6072375405
 10
12.6930020654
 20
24.6099795438
 10
12.7028353191
 20
24.6150338093
 10
12.7116256953
 20
24.6222061044
 10
12.7190353849
 20
24.6312208018
 10
12.7247796377
 20
24.6417314718
 10
12.7286377052
 20
24.6533341952
 10
12.730461324
 20
24.6655830858
 10
12.7301804136
 20
24.6780074257
 10
12.7278057691
 20
24.6901297545
 10
12.7234286468
 20
24.7014842178
 10
12.717217257
 20
24.71163447
 10
12.7094103001
 20
24.7201904426
 10
12.7003077928
 20
24.7268233344
 10
12.6902595396
 20
24.731278247
 10
12.6796516891
 20
24.7333839806
 10
12.6688918951
 20
24.7330596132
  0
LINE
  5
9F
330
1F
100
AcDbEntity
  8
0
  6
Continuous
 62
     7
370
    25
100
AcDbLine
 10
12.6446005059
 20
24.6429712653
 30
0.0
 11
12.6805321656
 21
24.6254625691
 31
0.0
  0
LINE
  5
A0
330
1F
100
AcDbEntity
  8
0
  6
Continuous
 62
     7
370
    25
100
AcDbLine
 10
12.7116295176
 20
24.6526398806
 30
0.0
 11
12.6805321656
 21
24.6254625691
 31
0.0
  0
LINE
  5
A1
330
1F
100
AcDbEntity
  8
0
  6
Continuous
 62
     7
370
    25
100
AcDbLine
 10
12.7067952099
 20
24.6973258884
 30
0.0
 11
12.7116295176
 21
24.6526398806
 31
0.0
  0
LINE
  5
A2
330
1F
100
AcDbEntity
  8
0
  6
Continuous
 62
     7
370
    25
100
AcDbLine
 10
12.7067952099
 20
24.6973258884
 30
0.0
 11
12.6708635503
 21
24.7148345846
 31
0.0
  0
LINE
  5
A3
330
1F
100
AcDbEntity
  8
0
  6
Continuous
 62
     7
370
    25
100
AcDbLine
 10
12.6397661982
 20
24.6876572731
 30
0.0
 11
12.6708635503
 21
24.7148345846
 31
0.0
  0
LINE
  5
A4
330
1F
100
AcDbEntity
  8
0
  6
Continuous
 62
     7
370
    25
100
AcDbLine
 10
12.6397661982
 20
24.6876572731
 30
0.0
 11
12.6446005059
 21
24.6429712653
 31
0.0
  0
LINE
  5
A5
330
1F
100
AcDbEntity
  8
0
  6
Continuous
 62
     7
370
    25
100
AcDbLine
 10
12.6896005059
 20
24.6429712653
 30
0.0
 11
12.6446005059
 21
24.6429712653
 31
0.0
  0
LINE
  5
A6
330
1F
100
AcDbEntity
  8
0
  6
Continuous
 62
     7
370
    25
100
AcDbLine
 10
12.6896005059
 20
24.6429712653
 30
0.0
 11
12.6966408665
 21
24.6395406546
 31
0.0
  0
LINE
  5
A7
330
1F
100
AcDbEntity
  8
0
  6
Continuous
 62
     7
370
    25
100
AcDbLine
 10
12.6847661982
 20
24.6876572731
 30
0.0
 11
12.6997548494
 21
24.7007564991
 31
0.0
  0
LINE
  5
A8
330
1F
100
AcDbEntity
  8
0
  6
Continuous
 62
     7
370
    25
100
AcDbLine
 10
12.6847661982
 20
24.6876572731
 30
0.0
 11
12.6397661982
 21
24.6876572731
 31
0.0
  0
LINE
  5
A9
330
1F
100
AcDbEntity
  8
0
  6
Continuous
 62
     7
370
    25
100
AcDbLine
 10
12.6847661982
 20
24.6876572731
 30
0.0
 11
12.6896005059
 21
24.6429712653
 31
0.0
  0
ARC
  5
AA
330
1F
100
AcDbEntity
  8
0
  6
Continuous
 62
     7
370
    25
100
AcDbCircle
 10
11.1271052229
 20
25.4245997984
 30
0.0
 40
2.767580569264429
100
AcDbArc
 50
327.2167184945
 51
328.6605540325
  0
ARC
  5
AB
330
1F
100
AcDbEntity
  8
0
  6
Continuous
 62
     7
370
    25
100
AcDbCircle
 10
13.2583568117
 20
23.6640113521
 30
0.0
 40
0.3965006356051365
100
AcDbArc
 50
54.0920405568
 51
59.5927201613
  0
ARC
  5
AC
330
1F
100
AcDbEntity
  8
0
  6
Continuous
 62
     7
370
    25
100
AcDbCircle
 10
15.7267827128
 20
22.4195120216
 30
0.0
 40
2.76758056929299
100
AcDbArc
 50
145.0242066856
 51
146.4680422237
  0
ARC
  5
AD
330
1F
100
AcDbEntity
  8
0
  6
Continuous
 62
     7
370
    25
100
AcDbCircle
 10
11.9212466364
 20
21.6215559418
 30
0.0
 40
2.767580569240128
100
AcDbArc
 50
57.2167184945
 51
58.6605540326
  0
ARC
  5
AE
330
1F
100
AcDbEntity
  8
0
  6
Continuous
 62
     7
370
    25
100
AcDbCircle
 10
13.6818350827
 20
23.7528075307
 30
0.0
 40
0.3965006355988176
100
AcDbArc
 50
144.0920405568
 51
149.5927201614
  0
ARC
  5
AF
330
1F
100
AcDbEntity
  8
0
  6
Continuous
 62
     7
370
    25
100
AcDbCircle
 10
14.9263344132
 20
26.2212334317
 30
0.0
 40
2.767580569270762
100
AcDbArc
 50
235.0242066856
 51
236.4680422237
  0
ARC
  5
B0
330
1F
100
AcDbEntity
  8
0
  6
Continuous
 62
     7
370
    25
100
AcDbCircle
 10
15.724290493
 20
22.4156973553
 30
0.0
 40
2.767580569279543
100
AcDbArc
 50
147.2167184945
 51
148.6605540325
  0
ARC
  5
B1
330
1F
100
AcDbEntity
  8
0
  6
Continuous
 62
     7
370
    25
100
AcDbCircle
 10
13.5930389041
 20
24.1762858016
 30
0.0
 40
0.3965006355987286
100
AcDbArc
 50
234.0920405568
 51
239.5927201614
  0
ARC
  5
B2
330
1F
100
AcDbEntity
  8
0
  6
Continuous
 62
     7
370
    25
100
AcDbCircle
 10
11.1246130031
 20
25.4207851321
 30
0.0
 40
2.767580569265844
100
AcDbArc
 50
325.0242066856
 51
326.4680422237
  0
ARC
  5
B3
330
1F
100
AcDbEntity
  8
0
  6
Continuous
 62
     7
370
    25
100
AcDbCircle
 10
14.9301490795
 20
26.2187412119
 30
0.0
 40
2.767580569209522
100
AcDbArc
 50
237.2167184945
 51
238.6605540326
  0
ARC
  5
B4
330
1F
100
AcDbEntity
  8
0
  6
Continuous
 62
     7
370
    25
100
AcDbCircle
 10
13.1695606332
 20
24.087489623
 30
0.0
 40
0.3965006355991741
100
AcDbArc
 50
324.0920405568
 51
329.5927201614
  0
ARC
  5
B5
330
1F
100
AcDbEntity
  8
0
  6
Continuous
 62
     7
370
    25
100
AcDbCircle
 10
11.9250613026
 20
21.619063722
 30
0.0
 40
2.767580569283394
100
AcDbArc
 50
55.0242066856
 51
56.4680422237
  0
CIRCLE
  5
B6
330
1F
100
AcDbEntity
  8
0
  6
Continuous
 62
     7
370
    25
100
AcDbCircle
 10
13.4256978579
 20
23.9201485769
 30
0.0
 40
0.1548520614389673
  0
LINE
  5
B7
330
1F
100
AcDbEntity
  8
0
  6
Continuous
 62
     7
370
    25
100
AcDbLine
 10
13.4197888816
 20
23.9483291036
 30
0.0
 11
13.422723052
 21
23.9343357376
 31
0.0
  0
LINE
  5
B8
330
1F
100
AcDbEntity
  8
0
  6
Continuous
 62
     7
370
    25
100
AcDbLine
 10
13.3606853586
 20
23.9853491587
 30
0.0
 11
13.422723052
 21
23.9343357376
 31
0.0
  0
LINE
  5
B9
330
1F
100
AcDbEntity
  8
0
  6
Continuous
 62
     7
370
    25
100
AcDbLine
 10
13.5115223554
 20
23.8868034636
 30
0.0
 11
13.4398850187
 21
23.9231233828
 31
0.0
  0
LINE
  5
BA
330
1F
100
AcDbEntity
  8
0
  6
Continuous
 62
     7
370
    25
100
AcDbLine
 10
13.4398850187
 20
23.9231233828
 30
0.0
 11
13.4538783847
 21
23.9260575532
 31
0.0
  0
LINE
  5
BB
330
1F
100
AcDbEntity
  8
0
  6
Continuous
 62
     7
370
    25
100
AcDbLine
 10
13.4590429712
 20
24.0059730743
 30
0.0
 11
13.422723052
 21
23.9343357376
 31
0.0
  0
LINE
  5
BC
330
1F
100
AcDbEntity
  8
0
  6
Continuous
 62
     7
370
    25
100
AcDbLine
 10
13.4908984398
 20
23.9851610762
 30
0.0
 11
13.4398850187
 21
23.9231233828
 31
0.0
  0
LINE
  5
BD
330
1F
100
AcDbEntity
  8
0
  6
Continuous
 62
     7
370
    25
100
AcDbLine
 10
13.3398733605
 20
23.9534936901
 30
0.0
 11
13.4115106972
 21
23.917173771
 31
0.0
  0
LINE
  5
BE
330
1F
100
AcDbEntity
  8
0
  6
Continuous
 62
     7
370
    25
100
AcDbLine
 10
13.4115106972
 20
23.917173771
 30
0.0
 11
13.3975173312
 21
23.9142396005
 31
0.0
  0
LINE
  5
BF
330
1F
100
AcDbEntity
  8
0
  6
Continuous
 62
     7
370
    25
100
AcDbLine
 10
13.3604972761
 20
23.8551360775
 30
0.0
 11
13.4115106972
 21
23.917173771
 31
0.0
  0
LINE
  5
C0
330
1F
100
AcDbEntity
  8
0
  6
Continuous
 62
     7
370
    25
100
AcDbLine
 10
13.3923527447
 20
23.8343240794
 30
0.0
 11
13.4286726638
 21
23.9059614161
 31
0.0
  0
LINE
  5
C1
330
1F
100
AcDbEntity
  8
0
  6
Continuous
 62
     7
370
    25
100
AcDbLine
 10
13.4316068343
 20
23.8919680501
 30
0.0
 11
13.4286726638
 21
23.9059614161
 31
0.0
  0
LINE
  5
C2
330
1F
100
AcDbEntity
  8
0
  6
Continuous
 62
     7
370
    25
100
AcDbLine
 10
13.4907103573
 20
23.854947995
 30
0.0
 11
13.4286726638
 21
23.9059614161
 31
0.0
  0
LINE
  5
C3
330
1F
100
AcDbEntity
  8
0
  6
Continuous
 62
     7
370
    25
100
AcDbLine
 10
13.4398850187
 20
23.9231233828
 30
0.0
 11
13.422723052
 21
23.9343357376
 31
0.0
  0
LINE
  5
C4
330
1F
100
AcDbEntity
  8
0
  6
Continuous
 62
     7
370
    25
100
AcDbLine
 10
13.4398850187
 20
23.9231233828
 30
0.0
 11
13.4286726638
 21
23.9059614161
 31
0.0
  0
LINE
  5
C5
330
1F
100
AcDbEntity
  8
0
  6
Continuous
 62
     7
370
    25
100
AcDbLine
 10
13.4115106972
 20
23.917173771
 30
0.0
 11
13.422723052
 21
23.9343357376
 31
0.0
  0
LINE
  5
C6
330
1F
100
AcDbEntity
  8
0
  6
Continuous
 62
     7
370
    25
100
AcDbLine
 10
13.4115106972
 20
23.917173771
 30
0.0
 11
13.4286726638
 21
23.9059614161
 31
0.0
  0
CIRCLE
  5
C7
330
1F
100
AcDbEntity
  8
0
  6
Continuous
 62
     7
370
    25
100
AcDbCircle
 10
13.4256978579
 20
23.9201485769
 30
0.0
 40
0.1610000000000008
  0
LINE
  5
C8
330
1F
100
AcDbEntity
  8
0
  6
Continuous
 62
     7
370
    25
100
AcDbLine
 10
14.8706978579
 20
22.7951485769
 30
0.0
 11
14.8606978579
 21
22.7951485769
 31
0.0
  0
LINE
  5
C9
330
1F
100
AcDbEntity
  8
0
  6
Continuous
 62
     7
370
    25
100
AcDbLine
 10
14.8606978579
 20
24.2951485769
 30
0.0
 11
14.8606978579
 21
22.7951485769
 31
0.0
  0
LINE
  5
CA
330
1F
100
AcDbEntity
  8
0
  6
Continuous
 62
     7
370
    25
100
AcDbLine
 10
14.8706978579
 20
24.2951485769
 30
0.0
 11
14.8606978579
 21
24.2951485769
 31
0.0
  0
LINE
  5
CB
330
1F
100
AcDbEntity
  8
0
  6
Continuous
 62
     7
370
    25
100
AcDbLine
 10
14.8706978579
 20
24.2951485769
 30
0.0
 11
14.8706978579
 21
22.7951485769
 31
0.0
  0
LINE
  5
CC
330
1F
100
AcDbEntity
  8
0
  6
Continuous
 62
     7
370
    25
100
AcDbLine
 10
11.9556978579
 20
25.7951485769
 30
0.0
 11
14.8956978579
 21
25.7951485769
 31
0.0
  0
LINE
  5
CD
330
1F
100
AcDbEntity
  8
0
  6
Continuous
 62
     7
370
    25
100
AcDbLine
 10
14.9256978579
 20
25.7651485769
 30
0.0
 11
11.9256978579
 21
25.7651485769
 31
0.0
  0
SPLINE
  5
CE
330
1F
100
AcDbEntity
  8
0
  6
Continuous
 62
     7
370
    25
100
AcDbSpline
210
0.0
220
0.0
230
1.0
 70
    11
 71
     3
 72
    26
 73
    22
 74
     0
 42
0.00000001
 43
0.00000001
 40
0.0
 40
0.0
 40
0.0
 40
0.0
 40
0.0536511324436304
 40
0.1073009288976496
 40
0.1609853906044209
 40
0.2146924617187506
 40
0.2683618919345534
 40
0.3219922396893437
 40
0.3756429374091466
 40
0.4293417151240064
 40
0.4830413448572116
 40
0.5366931356201631
 40
0.5903231046261549
 40
0.6439912868904172
 40
0.697698097356348
 40
0.75138368831342
 40
0.8050213889394614
 40
0.8586592039104811
 40
0.9123449137982138
 40
0.9660517000346343
 40
1.0
 40
1.0
 40
1.0
 40
1.0
 10
12.73535864841477
 20
24.67014857685152
 30
0.0
 10
12.73469069604898
 20
24.67779067105668
 30
0.0
 10
12.73335480795035
 20
24.69307466916796
 30
0.0
 10
12.72297137054345
 20
24.71341899081733
 30
0.0
 10
12.70776301441545
 20
24.72889513996611
 30
0.0
 10
12.6889062636111
 20
24.7377530096432
 30
0.0
 10
12.66876509168903
 20
24.73898774867884
 30
0.0
 10
12.64957990496792
 20
24.73247005339553
 30
0.0
 10
12.63346417106934
 20
24.71893753432886
 30
0.0
 10
12.62214066288929
 20
24.69990172378853
 30
0.0
 10
12.61681188302152
 20
24.67750672227714
 30
0.0
 10
12.61803237028734
 20
24.65429104103299
 30
0.0
 10
12.62566626638644
 20
24.63286957326609
 30
0.0
 10
12.638921109545
 20
24.61564059475474
 30
0.0
 10
12.65640256476454
 20
24.60454682226394
 30
0.0
 10
12.67621237886061
 20
24.60085018138961
 30
0.0
 10
12.69612599000099
 20
24.60496106374494
 30
0.0
 10
12.71391053067036
 20
24.61641086884084
 30
0.0
 10
12.72736792308083
 20
24.63390774033349
 30
0.0
 10
12.73438646494729
 20
24.65288479161628
 30
0.0
 10
12.73508724169646
 20
24.66532900580028
 30
0.0
 10
12.73535864841477
 20
24.67014857685152
 30
0.0
  0
SPLINE
  5
CF
330
1F
100
AcDbEntity
  8
0
  6
Continuous
 62
     7
370
    25
100
AcDbSpline
210
0.0
220
0.0
230
1.0
 70
     8
 71
     3
 72
    17
 73
    13
 74
     0
 42
0.00000001
 43
0.00000001
 40
0.0
 40
0.0
 40
0.0
 40
0.0
 40
0.0369173466590891
 40
0.1441784507287212
 40
0.2514802548834117
 40
0.3588782193944985
 40
0.4662778879487574
 40
0.5735818781980593
 40
0.6808422247672191
 40
0.788178998144024
 40
0.8955930282184246
 40
1.0
 40
1.0
 40
1.0
 40
1.0
 10
14.92565877520331
 20
24.73727847234489
 30
0.0
 10
14.92566946043228
 20
24.73751668516329
 30
0.0
 10
14.92571119094379
 20
24.73844701082878
 30
0.0
 10
14.92542584981906
 20
24.73214185054129
 30
0.0
 10
14.92492371369456
 20
24.7190254500584
 30
0.0
 10
14.92440064798058
 20
24.69987863484624
 30
0.0
 10
14.92411408340106
 20
24.67751111946612
 30
0.0
 10
14.92418178639178
 20
24.65429651153217
 30
0.0
 10
14.92457787393834
 20
24.63284330078019
 30
0.0
 10
14.92511973641121
 20
24.61574032700788
 30
0.0
 10
14.92559855896796
 20
24.60428041684958
 30
0.0
 10
14.92566202630365
 20
24.60292142869308
 30
0.0
 10
14.92569330947325
 20
24.60225158086466
 30
0.0
  0
LINE
  5
D0
330
1F
100
AcDbEntity
  8
0
  6
Continuous
 62
     7
370
    25
100
AcDbLine
 10
13.4256978579
 20
24.2951485769
 30
0.0
 11
11.9256978579
 21
24.2951485769
 31
0.0
  0
LINE
  5
D1
330
1F
100
AcDbEntity
  8
0
  6
Continuous
 62
     7
370
    25
100
AcDbLine
 10
14.9256978579
 20
24.2951485769
 30
0.0
 11
14.8706978579
 21
24.2951485769
 31
0.0
  0
LINE
  5
D2
330
1F
100
AcDbEntity
  8
0
  6
Continuous
 62
     7
370
    25
100
AcDbLine
 10
14.8606978579
 20
24.2951485769
 30
0.0
 11
13.4256978579
 21
24.2951485769
 31
0.0
  0
DIMENSION
  5
D3
330
1F
100
AcDbEntity
  8
0
  6
Continuous
 62
     7
370
    18
100
AcDbDimension
  2
_D
 10
6.9986309288
 20
6.2951485769
 30
0.0
 11
6.9986309288
 21
15.2951485769
 31
0.0
 70
   160
  1
SPECIFY LENGTH\P12" OR 18"\P[305mm OR 457mm]
 71
     2
 42
-1.0
  3
SLDDIMSTYLE0
100
AcDbAlignedDimension
 13
11.9256978579
 23
24.2951485769
 33
0.0
 14
14.8606978579
 24
6.2951485769
 34
0.0
 50
90.0
100
AcDbRotatedDimension
  0
DIMENSION
  5
E2
330
1F
100
AcDbEntity
  8
0
  6
Continuous
 62
     7
370
    18
100
AcDbDimension
  2
_D_1
 10
14.9256978579
 20
27.6942804633
 30
0.0
 11
13.4256978579
 21
27.6942804633
 31
0.0
 70
   160
  1
%%c<>
 71
     2
 42
-1.0
  3
SLDDIMSTYLE1
100
AcDbAlignedDimension
 13
11.9256978579
 23
25.7651485769
 33
0.0
 14
14.9256978579
 24
25.7651485769
 34
0.0
100
AcDbRotatedDimension
  0
DIMENSION
  5
F6
330
1F
100
AcDbEntity
  8
0
  6
Continuous
 62
     7
370
    18
100
AcDbDimension
  2
_D_2
 10
16.3881978579
 20
22.9843529864
 30
0.0
 11
20.003677485
 21
22.9843529864
 31
0.0
 70
   160
  1
%%c<>
 71
     2
 42
-1.0
  3
SLDDIMSTYLE2
100
AcDbAlignedDimension
 13
10.4631978579
 23
20.4201485769
 33
0.0
 14
16.3881978579
 24
20.4201485769
 34
0.0
 50
0.0
100
AcDbRotatedDimension
  0
DIMENSION
  5
10A
330
1F
100
AcDbEntity
  8
0
  6
Continuous
 62
     7
370
    18
100
AcDbDimension
  2
_D_3
 10
17.2656128285
 20
21.2951485769
 30
0.0
 11
17.2656128285
 21
19.3221668225
 31
0.0
 70
   160
  1
<>
 71
     2
 42
-1.0
  3
SLDDIMSTYLE2
100
AcDbAlignedDimension
 13
16.3881978579
 23
20.4201485769
 33
0.0
 14
16.3576421846
 24
21.2951485769
 34
0.0
 50
90.0
100
AcDbRotatedDimension
  0
DIMENSION
  5
11F
330
1F
100
AcDbEntity
  8
0
  6
Continuous
 62
     7
370
    18
100
AcDbDimension
  2
_D_4
 10
6.9986309288
 20
24.2951485769
 30
0.0
 11
6.9986309288
 21
27.6942804633
 31
0.0
 70
   160
  1
<>
 71
     2
 42
-1.0
  3
SLDDIMSTYLE3
100
AcDbAlignedDimension
 13
11.9556978579
 23
25.7951485769
 33
0.0
 14
11.9256978579
 24
24.2951485769
 34
0.0
 50
90.0
100
AcDbRotatedDimension
  0
DIMENSION
  5
135
330
1F
100
AcDbEntity
  8
0
  6
Continuous
 62
     7
370
    18
100
AcDbDimension
  2
_D_5
 10
14.8606978579
 20
12.957103021
 30
0.0
 11
18.1139137055
 21
12.957103021
 31
0.0
 70
   160
  1
%%c<>
 71
     2
 42
-1.0
  3
SLDDIMSTYLE2
100
AcDbAlignedDimension
 13
11.9906978579
 23
11.2661343946
 33
0.0
 14
14.8606978579
 24
6.2951485769
 34
0.0
 50
0.0
100
AcDbRotatedDimension
  0
MTEXT
  5
146
330
1F
100
AcDbEntity
  8
0
  6
Continuous
 62
     7
370
     0
100
AcDbMText
 10
18.1139137055
 20
17.3385203264
 30
0.0
 40
0.5
 41
0.0
 71
     1
 72
     1
  1
STABILITY FLANGE
  7
SLDTEXTSTYLE0
 73
     1
 44
1.0
  0
MTEXT
  5
147
330
1F
100
AcDbEntity
  8
0
  6
Continuous
 62
     7
370
     0
100
AcDbMText
 10
18.1139137055
 20
16.6810400284
 30
0.0
 40
0.5
 41
0.0
 71
     1
 72
     1
  1
(OPTIONAL)
  7
SLDTEXTSTYLE0
 73
     1
 44
1.0
  0
LEADER
  5
149
330
1F
100
AcDbEntity
  8
0
  6
Continuous
 62
     7
370
     0
100
AcDbLeader
  3
SLDDIMSTYLE4
 76
     3
 10
15.2323864879
 20
20.4201485769
 30
0.0
 10
17.0228194616
 20
17.0760349817
 30
0.0
 10
18.0228194616
 20
17.0760349817
 30
0.0
  0
LINE
  5
14A
330
1F
100
AcDbEntity
  8
0
  6
Continuous
 62
     7
370
    25
100
AcDbLine
 10
34.3651355822
 20
27.4798415621
 30
0.0
 11
34.3651355822
 21
25.2823656847
 31
0.0
  0
LINE
  5
14B
330
1F
100
AcDbEntity
  8
0
  6
Continuous
 62
     7
370
    25
100
AcDbLine
 10
34.3651355822
 20
23.0717055778
 30
0.0
 11
34.3651355822
 21
13.6286821678
 31
0.0
  0
LINE
  5
14C
330
1F
100
AcDbEntity
  8
0
  6
Continuous
 62
     7
370
    25
100
AcDbLine
 10
37.2351355822
 20
16.4988376405
 30
0.0
 11
37.2351355822
 21
23.0717055778
 31
0.0
  0
LINE
  5
14D
330
1F
100
AcDbEntity
  8
0
  6
Continuous
 62
     7
370
    25
100
AcDbLine
 10
37.2351355822
 20
25.2823656847
 30
0.0
 11
37.2351355822
 21
27.4798415621
 31
0.0
  0
LINE
  5
14E
330
1F
100
AcDbEntity
  8
0
  6
Continuous
 62
     7
370
    25
100
AcDbLine
 10
38.7617325755
 20
24.6101154556
 30
0.0
 11
38.7311862159
 21
25.3241531717
 31
0.0
  0
LINE
  5
14F
330
1F
100
AcDbEntity
  8
0
  6
Continuous
 62
     7
370
    25
100
AcDbLine
 10
32.8690849486
 20
25.3241531717
 30
0.0
 11
32.838538589
 21
24.6101154556
 31
0.0
  0
LINE
  5
150
330
1F
100
AcDbEntity
  8
0
  6
Continuous
 62
     7
370
    25
100
AcDbLine
 10
34.8337689695
 20
24.584722842
 30
0.0
 11
34.8291729347
 21
24.6602591154
 31
0.0
  0
LINE
  5
151
330
1F
100
AcDbEntity
  8
0
  6
Continuous
 62
     7
370
    25
100
AcDbLine
 10
36.7711232145
 20
24.6602827757
 30
0.0
 11
36.7665314227
 21
24.5849696766
 31
0.0
  0
LINE
  5
152
330
1F
100
AcDbEntity
  8
0
  6
Continuous
 62
     7
370
    25
100
AcDbLine
 10
34.6946448405
 20
27.4555204554
 30
0.0
 11
34.6946448405
 21
27.4517649781
 31
0.0
  0
LINE
  5
153
330
1F
100
AcDbEntity
  8
0
  6
Continuous
 62
     7
370
    25
100
AcDbLine
 10
34.7394681242
 20
27.3741203604
 30
0.0
 11
34.7427202868
 21
27.3722423166
 31
0.0
  0
LINE
  5
154
330
1F
100
AcDbEntity
  8
0
  6
Continuous
 62
     7
370
    25
100
AcDbLine
 10
37.2375028338
 20
27.7486725117
 30
0.0
 11
37.242424914
 21
27.7524557441
 31
0.0
  0
LINE
  5
155
330
1F
100
AcDbEntity
  8
0
  6
Continuous
 62
     7
370
    25
100
AcDbLine
 10
37.2613497737
 20
27.8748012162
 30
0.0
 11
37.2578007905
 21
27.8798947847
 31
0.0
  0
ARC
  5
156
330
1F
100
AcDbEntity
  8
0
  6
Continuous
 62
     7
370
    25
100
AcDbCircle
 10
36.7106062737
 20
26.9001817735
 30
0.0
 40
0.2623999999999954
100
AcDbArc
 50
321.4066619058
 51
336.9029589698
  0
ARC
  5
157
330
1F
100
AcDbEntity
  8
0
  6
Continuous
 62
     7
370
    25
100
AcDbCircle
 10
36.7106062737
 20
26.9001817735
 30
0.0
 40
0.2623999999999945
100
AcDbArc
 50
336.9029589698
 51
338.5987146269
  0
SPLINE
  5
158
330
1F
100
AcDbEntity
  8
0
  6
Continuous
 62
     7
370
    25
100
AcDbSpline
210
0.0
220
0.0
230
1.0
 70
     8
 71
     3
 72
    13
 73
     9
 74
     0
 42
0.00000001
 43
0.00000001
 40
0.0
 40
0.0
 40
0.0
 40
0.0
 40
0.0511298648422819
 40
0.2417212122996448
 40
0.4321608826456037
 40
0.6254118922594174
 40
0.8233233917126657
 40
1.0
 40
1.0
 40
1.0
 40
1.0
 10
36.77105733500043
 20
26.67971723039762
 30
0.0
 10
36.77205649145859
 20
26.67903039352887
 30
0.0
 10
36.77678009695002
 20
26.67578330807147
 30
0.0
 10
36.78667156045786
 20
26.67250591049583
 30
0.0
 10
36.80031150305852
 20
26.67006777542659
 30
0.0
 10
36.81483882686413
 20
26.67050811936216
 30
0.0
 10
36.82931457003645
 20
26.67316656315872
 30
0.0
 10
36.83894560045193
 20
26.67692701003634
 30
0.0
 10
36.84348813064165
 20
26.6787006461616
 30
0.0
  0
SPLINE
  5
159
330
1F
100
AcDbEntity
  8
0
  6
Continuous
 62
     7
370
    25
100
AcDbSpline
210
0.0
220
0.0
230
1.0
 70
     8
 71
     3
 72
    18
 73
    14
 74
     0
 42
0.00000001
 43
0.00000001
 40
0.0
 40
0.0
 40
0.0
 40
0.0
 40
0.0525412690379232
 40
0.1517746106642214
 40
0.2513188018686031
 40
0.3512377077588025
 40
0.451587655665815
 40
0.5523134665943831
 40
0.65297352469568
 40
0.7526885313502305
 40
0.8503523376146311
 40
0.9452895894762418
 40
1.0
 40
1.0
 40
1.0
 40
1.0
 10
36.95205933421363
 20
26.79745768235524
 30
0.0
 10
36.95348338475235
 20
26.80092329973643
 30
0.0
 10
36.957597002867
 20
26.81093433940813
 30
0.0
 10
36.96300892968934
 20
26.82768268898021
 30
0.0
 10
36.96755148826843
 20
26.84739589044099
 30
0.0
 10
36.97000092505065
 20
26.86668840670882
 30
0.0
 10
36.97029087007182
 20
26.88523747902714
 30
0.0
 10
36.96833562672672
 20
26.90272431239902
 30
0.0
 10
36.96408350631258
 20
26.91878248133723
 30
0.0
 10
36.95758307264132
 20
26.93306819156535
 30
0.0
 10
36.94889007563833
 20
26.94503999823477
 30
0.0
 10
36.93997747586437
 20
26.95363758004908
 30
0.0
 10
36.93347504918114
 20
26.95710582736478
 30
0.0
 10
36.93109779565396
 20
26.95837380062554
 30
0.0
  0
LINE
  5
15A
330
1F
100
AcDbEntity
  8
0
  6
Continuous
 62
     7
370
    25
100
AcDbLine
 10
36.932327845
 20
26.9580863859
 30
0.0
 11
36.8953272712
 21
26.9794463625
 31
0.0
  0
LINE
  5
15B
330
1F
100
AcDbEntity
  8
0
  6
Continuous
 62
     7
370
    25
100
AcDbLine
 10
36.7343403553
 20
26.7005786288
 30
0.0
 11
36.7713409291
 21
26.6792186522
 31
0.0
  0
LINE
  5
15C
330
1F
100
AcDbEntity
  8
0
  6
Continuous
 62
     7
370
    25
100
AcDbLine
 10
34.9981799098
 20
26.8790488738
 30
0.0
 11
35.0025993272
 21
26.8816001491
 31
0.0
  0
LINE
  5
15D
330
1F
100
AcDbEntity
  8
0
  6
Continuous
 62
     7
370
    25
100
AcDbLine
 10
34.8641873952
 20
26.9990746463
 30
0.0
 11
34.8686068126
 21
27.0016259216
 31
0.0
  0
LINE
  5
15E
330
1F
100
AcDbEntity
  8
0
  6
Continuous
 62
     7
370
    25
100
AcDbLine
 10
34.7635435605
 20
27.0835958197
 30
0.0
 11
34.7591241431
 21
27.0810445444
 31
0.0
  0
LINE
  5
15F
330
1F
100
AcDbEntity
  8
0
  6
Continuous
 62
     7
370
    25
100
AcDbLine
 10
36.8609680991
 20
29.5445096888
 30
0.0
 11
36.8397514488
 21
29.5567617817
 31
0.0
  0
LINE
  5
160
330
1F
100
AcDbEntity
  8
0
  6
Continuous
 62
     7
370
    25
100
AcDbLine
 10
34.7605197157
 20
29.5567617817
 30
0.0
 11
34.7393030654
 21
29.5445096888
 31
0.0
  0
LINE
  5
161
330
1F
100
AcDbEntity
  8
0
  6
Continuous
 62
     7
370
    25
100
AcDbLine
 10
37.3001355822
 20
27.7319881204
 30
0.0
 11
37.3001355822
 21
28.9323031138
 31
0.0
  0
LINE
  5
162
330
1F
100
AcDbEntity
  8
0
  6
Continuous
 62
     7
370
    25
100
AcDbLine
 10
34.3001355822
 20
28.9323031138
 30
0.0
 11
34.3001355822
 21
27.7319881204
 31
0.0
  0
ELLIPSE
  5
163
330
1F
100
AcDbEntity
  8
0
  6
Continuous
 62
     7
370
    25
100
AcDbEllipse
 10
35.8001355822
 20
15.0637599042
 30
0.0
 11
0.9339450218857623
 21
2.652481688778428
 31
0.0
210
0.0
220
0.0
230
1.0
 40
0.4107407456
 41
2.279477119852398
 42
5.421069773442209
  0
LWPOLYLINE
  5
164
330
1F
100
AcDbEntity
  8
0
  6
Continuous
 62
     7
370
    25
100
AcDbPolyline
 90
      152
 70
   128
 43
0.0
 10
37.8733332977
 20
26.4791972506
 10
37.9407466938
 20
26.4389716076
 10
38.0058193631
 20
26.3974812331
 10
38.0684801495
 20
26.3547714961
 10
38.1286605345
 20
26.310889099
 10
38.1862947116
 20
26.2658820267
 10
38.2413196588
 20
26.2197994938
 10
38.293675207
 20
26.1726918907
 10
38.3433041062
 20
26.124610729
 10
38.390152088
 20
26.0756085847
 10
38.4341679248
 20
26.0257390409
 10
38.4753034858
 20
25.9750566293
 10
38.5135137901
 20
25.9236167703
 10
38.5487570551
 20
25.8714757127
 10
38.5809947429
 20
25.8186904719
 10
38.610191602
 20
25.7653187678
 10
38.6363157061
 20
25.7114189616
 10
38.6593384889
 20
25.657049992
 10
38.6792347753
 20
25.6022713105
 10
38.695982809
 20
25.547142817
 10
38.7095642763
 20
25.4917247935
 10
38.719964326
 20
25.436077839
 10
38.7271715858
 20
25.3802628024
 10
38.7311781748
 20
25.3243407168
 10
38.7319797117
 20
25.2683727321
 10
38.7295753201
 20
25.2124200485
 10
38.7239676291
 20
25.1565438495
 10
38.7151627708
 20
25.1008052347
 10
38.703170373
 20
25.0452651537
 10
38.6880035493
 20
24.9899843386
 10
38.6696788843
 20
24.9350232382
 10
38.6482164159
 20
24.8804419516
 10
38.6236396129
 20
24.8263001628
 10
38.5959753498
 20
24.7726570749
 10
38.5652538768
 20
24.7195713459
 10
38.5315087877
 20
24.6671010243
 10
38.494776982
 20
24.6153034855
 10
38.4550986255
 20
24.5642353694
 10
38.4125171059
 20
24.5139525183
 10
38.3670789854
 20
24.4645099157
 10
38.3188339501
 20
24.4159616264
 10
38.267834755
 20
24.3683607372
 10
38.2141371672
 20
24.321759299
 10
38.157799904
 20
24.2762082698
 10
38.0988845695
 20
24.231757459
 10
38.0374555868
 20
24.1884554728
 10
37.9735801275
 20
24.1463496613
 10
37.9073280385
 20
24.1054860667
 10
37.8387717654
 20
24.0659093727
 10
37.7679862736
 20
24.0276628558
 10
37.695048966
 20
23.9907883381
 10
37.6200395985
 20
23.9553261412
 10
37.5430401926
 20
23.9213150425
 10
37.4641349461
 20
23.8887922328
 10
37.3834101407
 20
23.8577932751
 10
37.3009540478
 20
23.8283520665
 10
37.216856832
 20
23.8005008004
 10
37.1312104523
 20
23.7742699318
 10
37.0441085618
 20
23.7496881438
 10
36.9556464051
 20
23.7267823162
 10
36.8659207142
 20
23.7055774961
 10
36.775029603
 20
23.6860968708
 10
36.6830724595
 20
23.6683617419
 10
36.5901498374
 20
23.6523915027
 10
36.4963633464
 20
23.6382036164
 10
36.4018155405
 20
23.6258135971
 10
36.3066098065
 20
23.6152349932
 10
36.2108502503
 20
23.6064793722
 10
36.1146415836
 20
23.5995563084
 10
36.0180890093
 20
23.5944733718
 10
35.921298106
 20
23.5912361207
 10
35.8243747134
 20
23.589848095
 10
35.7274248156
 20
23.5903108124
 10
35.6305544259
 20
23.592623767
 10
35.5338694708
 20
23.5967844295
 10
35.4374756737
 20
23.6027882505
 10
35.34147844
 20
23.6106286646
 10
35.245982741
 20
23.6202970987
 10
35.1510930001
 20
23.6317829803
 10
35.0569129777
 20
23.6450737499
 10
34.9635456584
 20
23.6601548742
 10
34.8710931378
 20
23.6770098622
 10
34.7796565115
 20
23.6956202833
 10
34.689335764
 20
23.7159657871
 10
34.6002296599
 20
23.7380241262
 10
34.5124356353
 20
23.7617711801
 10
34.4260496916
 20
23.7871809818
 10
34.3411662907
 20
23.8142257461
 10
34.2578782513
 20
23.8428758997
 10
34.1762766477
 20
23.8731001144
 10
34.09645071
 20
23.9048653402
 10
34.0184877266
 20
23.9381368425
 10
33.942472949
 20
23.9728782392
 10
33.8684894983
 20
24.0090515413
 10
33.7966182741
 20
24.0466171936
 10
33.7269378668
 20
24.0855341188
 10
33.6595244707
 20
24.1257597618
 10
33.5944518014
 20
24.1672501363
 10
33.5317910149
 20
24.2099598733
 10
33.47161063
 20
24.2538422704
 10
33.4139764529
 20
24.2988493427
 10
33.3589515057
 20
24.3449318756
 10
33.3065959575
 20
24.3920394787
 10
33.2569670583
 20
24.4401206404
 10
33.2101190765
 20
24.4891227847
 10
33.1661032397
 20
24.5389923285
 10
33.1249676787
 20
24.5896747401
 10
33.0867573744
 20
24.6411145991
 10
33.0515141094
 20
24.6932556567
 10
33.0192764216
 20
24.7460408975
 10
32.9900795625
 20
24.7994126016
 10
32.9639554584
 20
24.8533124078
 10
32.9409326756
 20
24.9076813774
 10
32.9210363892
 20
24.9624600589
 10
32.9042883555
 20
25.0175885524
 10
32.8907068882
 20
25.0730065759
 10
32.8803068385
 20
25.1286535304
 10
32.8730995787
 20
25.184468567
 10
32.8690929897
 20
25.2403906526
 10
32.8682914528
 20
25.2963586373
 10
32.8706958444
 20
25.3523113209
 10
32.8763035353
 20
25.4081875199
 10
32.8851083937
 20
25.4639261347
 10
32.8971007915
 20
25.5194662157
 10
32.9122676152
 20
25.5747470308
 10
32.9305922801
 20
25.6297081312
 10
32.9520547486
 20
25.6842894178
 10
32.9766315515
 20
25.7384312066
 10
33.0042958147
 20
25.7920742945
 10
33.0350172876
 20
25.8451600235
 10
33.0687623768
 20
25.8976303451
 10
33.1054941825
 20
25.9494278839
 10
33.145172539
 20
26.000496
 10
33.1877540586
 20
26.0507788511
 10
33.233192179
 20
26.1002214536
 10
33.2814372144
 20
26.148769743
 10
33.3324364095
 20
26.1963706322
 10
33.3861339973
 20
26.2429720704
 10
33.4424712605
 20
26.2885230996
 10
33.5013865949
 20
26.3329739104
 10
33.5628155777
 20
26.3762758966
 10
33.626691037
 20
26.4183817081
 10
33.692943126
 20
26.4592453027
 10
33.7614993991
 20
26.4988219967
 10
33.8322848908
 20
26.5370685136
 10
33.9052221984
 20
26.5739430313
 10
33.980231566
 20
26.6094052282
 10
34.0572309719
 20
26.6434163269
 10
34.1361362184
 20
26.6759391366
 10
34.2168610238
 20
26.7069380943
 10
34.2993171166
 20
26.7363793029
 10
34.3651355822
 20
26.7583575547
  0
ARC
  5
165
330
1F
100
AcDbEntity
  8
0
  6
Continuous
 62
     7
370
    25
100
AcDbCircle
 10
36.2219940387
 20
23.5730980277
 30
0.0
 40
3.342504157275796
100
AcDbArc
 50
60.3933655602
 51
72.3555949343
  0
LWPOLYLINE
  5
166
330
1F
100
AcDbEntity
  8
0
  6
Continuous
 62
     7
370
    25
100
AcDbPolyline
 90
       99
 70
   128
 43
0.0
 10
38.7617325755
 20
24.6101154556
 10
38.7626105361
 20
24.5608600355
 10
38.7606070737
 20
24.5046147932
 10
38.7554001851
 20
24.4484380215
 10
38.7469955045
 20
24.3923905075
 10
38.7354021264
 20
24.3365328983
 10
38.7206325955
 20
24.2809256354
 10
38.7027028935
 20
24.2256288896
 10
38.6816324214
 20
24.1707024957
 10
38.657443979
 20
24.1162058876
 10
38.6301637397
 20
24.0621980344
 10
38.5998212226
 20
24.008737376
 10
38.5664492601
 20
23.9558817604
 10
38.5300839632
 20
23.903688381
 10
38.4907646813
 20
23.8522137144
 10
38.4485339606
 20
23.8015134596
 10
38.4034374974
 20
23.7516424776
 10
38.3555240893
 20
23.7026547322
 10
38.3048455815
 20
23.6546032313
 10
38.2514568117
 20
23.6075399698
 10
38.19541555
 20
23.5615158733
 10
38.1367824368
 20
23.516580743
 10
38.075620917
 20
23.4727832015
 10
38.0119971713
 20
23.4301706408
 10
37.945980045
 20
23.3887891705
 10
37.8776409729
 20
23.348683568
 10
37.8070539023
 20
23.3098972302
 10
37.7342952133
 20
23.2724721266
 10
37.6594436355
 20
23.2364487536
 10
37.5825801633
 20
23.2018660909
 10
37.5037879679
 20
23.1687615592
 10
37.423152308
 20
23.1371709798
 10
37.3407604364
 20
23.1071285357
 10
37.2567015067
 20
23.078666735
 10
37.1710664763
 20
23.0518163751
 10
37.0839480079
 20
23.0266065099
 10
36.9954403694
 20
23.0030644182
 10
36.905639332
 20
22.9812155741
 10
36.8146420663
 20
22.9610836195
 10
36.7225470375
 20
22.9426903384
 10
36.6294538983
 20
22.9260556336
 10
36.5354633819
 20
22.911197505
 10
36.440677192
 20
22.8981320301
 10
36.3451978938
 20
22.8868733465
 10
36.249128802
 20
22.877433637
 10
36.1525738698
 20
22.8698231158
 10
36.0556375761
 20
22.8640500181
 10
35.9584248123
 20
22.8601205908
 10
35.861040769
 20
22.8580390857
 10
35.7635908224
 20
22.8578077552
 10
35.6661804195
 20
22.8594268496
 10
35.5689149651
 20
22.862894617
 10
35.4718997066
 20
22.8682073049
 10
35.3752396211
 20
22.8753591647
 10
35.2790393011
 20
22.8843424576
 10
35.1834028419
 20
22.8951474631
 10
35.0884337283
 20
22.9077624895
 10
34.9942347232
 20
22.9221738864
 10
34.9009077562
 20
22.9383660599
 10
34.8085538133
 20
22.9563214888
 10
34.7172728275
 20
22.9760207442
 10
34.6271635709
 20
22.9974425102
 10
34.5383235477
 20
23.0205636071
 10
34.4508488887
 20
23.0453590163
 10
34.3648342472
 20
23.0718019075
 10
34.2803726967
 20
23.0998636677
 10
34.1975556304
 20
23.1295139323
 10
34.1164726617
 20
23.1607206177
 10
34.0372115277
 20
23.1934499563
 10
33.9598579943
 20
23.2276665327
 10
33.8844957631
 20
23.2633333223
 10
33.811206381
 20
23.3004117312
 10
33.7400691521
 20
23.3388616383
 10
33.6711610513
 20
23.3786414381
 10
33.6045566421
 20
23.4197080862
 10
33.5403279946
 20
23.4620171459
 10
33.4785446085
 20
23.505522836
 10
33.4192733376
 20
23.5501780803
 10
33.3625783173
 20
23.595934559
 10
33.3085208953
 20
23.6427427605
 10
33.2571595655
 20
23.6905520352
 10
33.208549904
 20
23.7393106504
 10
33.1627445099
 20
23.788965846
 10
33.1197929475
 20
23.8394638918
 10
33.0797416934
 20
23.8907501455
 10
33.0426340855
 20
23.9427691121
 10
33.0085102769
 20
23.9954645036
 10
32.9774071917
 20
24.0487793
 10
32.9493584855
 20
24.1026558112
 10
32.9243945089
 20
24.1570357393
 10
32.9025422745
 20
24.2118602416
 10
32.883825428
 20
24.2670699944
 10
32.8682642221
 20
24.322605257
 10
32.8558754952
 20
24.3784059366
 10
32.8466726527
 20
24.4344116532
 10
32.8406656526
 20
24.4905618049
 10
32.8378609949
 20
24.5467956335
 10
32.8382617145
 20
24.6030522902
 10
32.838538589
 20
24.6101154556
  0
LWPOLYLINE
  5
167
330
1F
100
AcDbEntity
  8
0
  6
Continuous
 62
     7
370
    25
100
AcDbPolyline
 90
       64
 70
   128
 43
0.0
 10
38.258471533
 20
24.8837596065
 10
38.2342412744
 20
24.8964175993
 10
38.2079482308
 20
24.9076199535
 10
38.1798537144
 20
24.9172553351
 10
38.150236941
 20
24.9252279834
 10
38.1193922555
 20
24.9314586625
 10
38.0876262061
 20
24.9358854493
 10
38.0552544982
 20
24.9384643482
 10
38.0225988563
 20
24.9391697291
 10
37.9899838269
 20
24.9379945815
 10
37.9577335528
 20
24.9349505846
 10
37.9261685517
 20
24.930067991
 10
37.8956025307
 20
24.9233953262
 10
37.8663392688
 20
24.914998906
 10
37.8386695973
 20
24.9049621778
 10
37.8128685099
 20
24.8933848913
 10
37.7891924293
 20
24.8803821065
 10
37.7678766592
 20
24.8660830511
 10
37.7491330452
 20
24.8506298355
 10
37.7331478697
 20
24.8341760407
 10
37.7200800007
 20
24.8168851919
 10
37.7100593125
 20
24.7989291333
 10
37.7031853951
 20
24.7804863203
 10
37.6995265646
 20
24.7617400459
 10
37.6991191842
 20
24.7428766189
 10
37.7019673026
 20
24.7240835126
 10
37.7080426139
 20
24.7055475013
 10
37.717284739
 20
24.6874528042
 10
37.7296018253
 20
24.6699792546
 10
37.7448714603
 20
24.6533005124
 10
37.7629418874
 20
24.6375823384
 10
37.7836335145
 20
24.622980947
 10
37.8067406991
 20
24.6096414533
 10
37.8320337915
 20
24.5976964312
 10
37.8592614176
 20
24.5872645957
 10
37.888152977
 20
24.578449623
 10
37.9184213324
 20
24.5713391204
 10
37.9497656633
 20
24.5660037552
 10
37.9818744557
 20
24.5624965526
 10
38.014428598
 20
24.5608523689
 10
38.0471045524
 20
24.5610875446
 10
38.0795775707
 20
24.5631997424
 10
38.1115249214
 20
24.5671679705
 10
38.1426290973
 20
24.5729527907
 10
38.1725809713
 20
24.5804967109
 10
38.2010828682
 20
24.5897247562
 10
38.2278515231
 20
24.6005452143
 10
38.2526208974
 20
24.6128505465
 10
38.2751448217
 20
24.6265184568
 10
38.2951994433
 20
24.6414131075
 10
38.3125854502
 20
24.6573864689
 10
38.3271300525
 20
24.6742797904
 10
38.3386886995
 20
24.6919251787
 10
38.347146516
 20
24.710147266
 10
38.3524194446
 20
24.728764953
 10
38.3544550805
 20
24.7475932087
 10
38.3532331926
 20
24.7664449095
 10
38.3487659245
 20
24.7851326987
 10
38.3410976741
 20
24.8034708486
 10
38.3303046519
 20
24.8212771066
 10
38.3164941236
 20
24.8383745059
 10
38.2998033446
 20
24.854593125
 10
38.2803981954
 20
24.869771776
 10
38.258471533
 20
24.8837596065
  0
LWPOLYLINE
  5
168
330
1F
100
AcDbEntity
  8
0
  6
Continuous
 62
     7
370
    25
100
AcDbPolyline
 90
       64
 70
   128
 43
0.0
 10
38.258471533
 20
25.9485865024
 10
38.2342412744
 20
25.9612444952
 10
38.2079482308
 20
25.9724468494
 10
38.1798537144
 20
25.982082231
 10
38.150236941
 20
25.9900548792
 10
38.1193922555
 20
25.9962855584
 10
38.0876262061
 20
26.0007123451
 10
38.0552544982
 20
26.003291244
 10
38.0225988563
 20
26.0039966249
 10
37.9899838269
 20
26.0028214773
 10
37.9577335528
 20
25.9997774805
 10
37.9261685517
 20
25.9948948869
 10
37.8956025307
 20
25.988222222
 10
37.8663392688
 20
25.9798258018
 10
37.8386695973
 20
25.9697890737
 10
37.8128685099
 20
25.9582117871
 10
37.7891924293
 20
25.9452090024
 10
37.7678766592
 20
25.930909947
 10
37.7491330452
 20
25.9154567314
 10
37.7331478697
 20
25.8990029366
 10
37.7200800007
 20
25.8817120878
 10
37.7100593125
 20
25.8637560292
 10
37.7031853951
 20
25.8453132162
 10
37.6995265646
 20
25.8265669418
 10
37.6991191842
 20
25.8077035148
 10
37.7019673026
 20
25.7889104085
 10
37.7080426139
 20
25.7703743972
 10
37.717284739
 20
25.7522797001
 10
37.7296018253
 20
25.7348061504
 10
37.7448714603
 20
25.7181274082
 10
37.7629418874
 20
25.7024092343
 10
37.7836335145
 20
25.6878078428
 10
37.8067406991
 20
25.6744683491
 10
37.8320337915
 20
25.662523327
 10
37.8592614176
 20
25.6520914915
 10
37.888152977
 20
25.6432765189
 10
37.9184213324
 20
25.6361660163
 10
37.9497656633
 20
25.6308306511
 10
37.9818744557
 20
25.6273234485
 10
38.014428598
 20
25.6256792647
 10
38.0471045524
 20
25.6259144404
 10
38.0795775707
 20
25.6280266383
 10
38.1115249214
 20
25.6319948663
 10
38.1426290973
 20
25.6377796865
 10
38.1725809713
 20
25.6453236067
 10
38.2010828682
 20
25.6545516521
 10
38.2278515231
 20
25.6653721102
 10
38.2526208974
 20
25.6776774423
 10
38.2751448217
 20
25.6913453527
 10
38.2951994433
 20
25.7062400034
 10
38.3125854502
 20
25.7222133647
 10
38.3271300525
 20
25.7391066863
 10
38.3386886995
 20
25.7567520746
 10
38.347146516
 20
25.7749741619
 10
38.3524194446
 20
25.7935918488
 10
38.3544550805
 20
25.8124201045
 10
38.3532331926
 20
25.8312718053
 10
38.3487659245
 20
25.8499595945
 10
38.3410976741
 20
25.8682977445
 10
38.3303046519
 20
25.8861040024
 10
38.3164941236
 20
25.9032014018
 10
38.2998033446
 20
25.9194200209
 10
38.2803981954
 20
25.9345986718
 10
38.258471533
 20
25.9485865024
  0
LWPOLYLINE
  5
169
330
1F
100
AcDbEntity
  8
0
  6
Continuous
 62
     7
370
    25
100
AcDbPolyline
 90
       64
 70
   128
 43
0.0
 10
33.8053721863
 20
25.9485865024
 10
33.7811419277
 20
25.9612444952
 10
33.7548488841
 20
25.9724468494
 10
33.7267543677
 20
25.982082231
 10
33.6971375943
 20
25.9900548792
 10
33.6662929087
 20
25.9962855584
 10
33.6345268594
 20
26.0007123451
 10
33.6021551515
 20
26.003291244
 10
33.5694995096
 20
26.0039966249
 10
33.5368844802
 20
26.0028214773
 10
33.5046342061
 20
25.9997774805
 10
33.473069205
 20
25.9948948869
 10
33.442503184
 20
25.988222222
 10
33.4132399221
 20
25.9798258018
 10
33.3855702506
 20
25.9697890737
 10
33.3597691632
 20
25.9582117871
 10
33.3360930826
 20
25.9452090024
 10
33.3147773125
 20
25.930909947
 10
33.2960336985
 20
25.9154567314
 10
33.280048523
 20
25.8990029366
 10
33.266980654
 20
25.8817120878
 10
33.2569599657
 20
25.8637560292
 10
33.2500860484
 20
25.8453132162
 10
33.2464272179
 20
25.8265669418
 10
33.2460198375
 20
25.8077035148
 10
33.2488679559
 20
25.7889104085
 10
33.2549432672
 20
25.7703743972
 10
33.2641853923
 20
25.7522797001
 10
33.2765024786
 20
25.7348061504
 10
33.2917721136
 20
25.7181274082
 10
33.3098425407
 20
25.7024092343
 10
33.3305341678
 20
25.6878078428
 10
33.3536413524
 20
25.6744683491
 10
33.3789344448
 20
25.662523327
 10
33.4061620709
 20
25.6520914915
 10
33.4350536303
 20
25.6432765189
 10
33.4653219857
 20
25.6361660163
 10
33.4966663166
 20
25.6308306511
 10
33.528775109
 20
25.6273234485
 10
33.5613292513
 20
25.6256792647
 10
33.5940052057
 20
25.6259144404
 10
33.626478224
 20
25.6280266383
 10
33.6584255747
 20
25.6319948663
 10
33.6895297506
 20
25.6377796865
 10
33.7194816246
 20
25.6453236067
 10
33.7479835214
 20
25.6545516521
 10
33.7747521764
 20
25.6653721102
 10
33.7995215507
 20
25.6776774423
 10
33.822045475
 20
25.6913453527
 10
33.8421000966
 20
25.7062400034
 10
33.8594861035
 20
25.7222133647
 10
33.8740307058
 20
25.7391066863
 10
33.8855893528
 20
25.7567520746
 10
33.8940471693
 20
25.7749741619
 10
33.8993200979
 20
25.7935918488
 10
33.9013557338
 20
25.8124201045
 10
33.9001338459
 20
25.8312718053
 10
33.8956665778
 20
25.8499595945
 10
33.8879983274
 20
25.8682977445
 10
33.8772053052
 20
25.8861040024
 10
33.8633947769
 20
25.9032014018
 10
33.8467039979
 20
25.9194200209
 10
33.8272988487
 20
25.9345986718
 10
33.8053721863
 20
25.9485865024
  0
LWPOLYLINE
  5
16A
330
1F
100
AcDbEntity
  8
0
  6
Continuous
 62
     7
370
    25
100
AcDbPolyline
 90
       64
 70
   128
 43
0.0
 10
33.8053721863
 20
24.8837596065
 10
33.7811419277
 20
24.8964175993
 10
33.7548488841
 20
24.9076199535
 10
33.7267543677
 20
24.9172553351
 10
33.6971375943
 20
24.9252279834
 10
33.6662929087
 20
24.9314586625
 10
33.6345268594
 20
24.9358854493
 10
33.6021551515
 20
24.9384643482
 10
33.5694995096
 20
24.9391697291
 10
33.5368844802
 20
24.9379945815
 10
33.5046342061
 20
24.9349505846
 10
33.473069205
 20
24.930067991
 10
33.442503184
 20
24.9233953262
 10
33.4132399221
 20
24.914998906
 10
33.3855702506
 20
24.9049621778
 10
33.3597691632
 20
24.8933848913
 10
33.3360930826
 20
24.8803821065
 10
33.3147773125
 20
24.8660830511
 10
33.2960336985
 20
24.8506298355
 10
33.280048523
 20
24.8341760407
 10
33.266980654
 20
24.8168851919
 10
33.2569599657
 20
24.7989291333
 10
33.2500860484
 20
24.7804863203
 10
33.2464272179
 20
24.7617400459
 10
33.2460198375
 20
24.7428766189
 10
33.2488679559
 20
24.7240835126
 10
33.2549432672
 20
24.7055475013
 10
33.2641853923
 20
24.6874528042
 10
33.2765024786
 20
24.6699792546
 10
33.2917721136
 20
24.6533005124
 10
33.3098425407
 20
24.6375823384
 10
33.3305341678
 20
24.622980947
 10
33.3536413524
 20
24.6096414533
 10
33.3789344448
 20
24.5976964312
 10
33.4061620709
 20
24.5872645957
 10
33.4350536303
 20
24.578449623
 10
33.4653219857
 20
24.5713391204
 10
33.4966663166
 20
24.5660037552
 10
33.528775109
 20
24.5624965526
 10
33.5613292513
 20
24.5608523689
 10
33.5940052057
 20
24.5610875446
 10
33.626478224
 20
24.5631997424
 10
33.6584255747
 20
24.5671679705
 10
33.6895297506
 20
24.5729527907
 10
33.7194816246
 20
24.5804967109
 10
33.7479835214
 20
24.5897247562
 10
33.7747521764
 20
24.6005452143
 10
33.7995215507
 20
24.6128505465
 10
33.822045475
 20
24.6265184568
 10
33.8421000966
 20
24.6414131075
 10
33.8594861035
 20
24.6573864689
 10
33.8740307058
 20
24.6742797904
 10
33.8855893528
 20
24.6919251787
 10
33.8940471693
 20
24.710147266
 10
33.8993200979
 20
24.728764953
 10
33.9013557338
 20
24.7475932087
 10
33.9001338459
 20
24.7664449095
 10
33.8956665778
 20
24.7851326987
 10
33.8879983274
 20
24.8034708486
 10
33.8772053052
 20
24.8212771066
 10
33.8633947769
 20
24.8383745059
 10
33.8467039979
 20
24.854593125
 10
33.8272988487
 20
24.869771776
 10
33.8053721863
 20
24.8837596065
  0
LWPOLYLINE
  5
16B
330
1F
100
AcDbEntity
  8
0
  6
Continuous
 62
     7
370
    25
100
AcDbPolyline
 90
       64
 70
   128
 43
0.0
 10
35.1096547876
 20
24.1308132877
 10
35.085424529
 20
24.1434712805
 10
35.0591314855
 20
24.1546736347
 10
35.031036969
 20
24.1643090163
 10
35.0014201957
 20
24.1722816645
 10
34.9705755101
 20
24.1785123437
 10
34.9388094607
 20
24.1829391304
 10
34.9064377528
 20
24.1855180293
 10
34.8737821109
 20
24.1862234102
 10
34.8411670815
 20
24.1850482626
 10
34.8089168074
 20
24.1820042658
 10
34.7773518063
 20
24.1771216722
 10
34.7467857853
 20
24.1704490073
 10
34.7175225234
 20
24.1620525871
 10
34.6898528519
 20
24.152015859
 10
34.6640517645
 20
24.1404385724
 10
34.640375684
 20
24.1274357877
 10
34.6190599139
 20
24.1131367323
 10
34.6003162998
 20
24.0976835167
 10
34.5843311244
 20
24.0812297219
 10
34.5712632554
 20
24.0639388731
 10
34.5612425671
 20
24.0459828145
 10
34.5543686497
 20
24.0275400015
 10
34.5507098193
 20
24.0087937271
 10
34.5503024389
 20
23.9899303001
 10
34.5531505573
 20
23.9711371938
 10
34.5592258686
 20
23.9526011825
 10
34.5684679936
 20
23.9345064854
 10
34.58078508
 20
23.9170329357
 10
34.596054715
 20
23.9003541935
 10
34.614125142
 20
23.8846360196
 10
34.6348167692
 20
23.8700346281
 10
34.6579239538
 20
23.8566951344
 10
34.6832170461
 20
23.8447501123
 10
34.7104446722
 20
23.8343182768
 10
34.7393362316
 20
23.8255033042
 10
34.769604587
 20
23.8183928016
 10
34.800948918
 20
23.8130574363
 10
34.8330577104
 20
23.8095502338
 10
34.8656118526
 20
23.80790605
 10
34.898287807
 20
23.8081412257
 10
34.9307608253
 20
23.8102534236
 10
34.962708176
 20
23.8142216516
 10
34.993812352
 20
23.8200064718
 10
35.023764226
 20
23.827550392
 10
35.0522661228
 20
23.8367784374
 10
35.0790347778
 20
23.8475988955
 10
35.103804152
 20
23.8599042276
 10
35.1263280764
 20
23.873572138
 10
35.1463826979
 20
23.8884667887
 10
35.1637687048
 20
23.90444015
 10
35.1783133072
 20
23.9213334716
 10
35.1898719541
 20
23.9389788599
 10
35.1983297707
 20
23.9572009472
 10
35.2036026993
 20
23.9758186341
 10
35.2056383351
 20
23.9946468898
 10
35.2044164472
 20
24.0134985906
 10
35.1999491792
 20
24.0321863798
 10
35.1922809288
 20
24.0505245298
 10
35.1814879065
 20
24.0683307877
 10
35.1676773783
 20
24.0854281871
 10
35.1509865993
 20
24.1016468062
 10
35.13158145
 20
24.1168254571
 10
35.1096547876
 20
24.1308132877
  0
LWPOLYLINE
  5
16C
330
1F
100
AcDbEntity
  8
0
  6
Continuous
 62
     7
370
    25
100
AcDbPolyline
 90
       64
 70
   128
 43
0.0
 10
36.9541889316
 20
24.1308132877
 10
36.929958673
 20
24.1434712805
 10
36.9036656295
 20
24.1546736347
 10
36.875571113
 20
24.1643090163
 10
36.8459543397
 20
24.1722816645
 10
36.8151096541
 20
24.1785123437
 10
36.7833436047
 20
24.1829391304
 10
36.7509718968
 20
24.1855180293
 10
36.7183162549
 20
24.1862234102
 10
36.6857012255
 20
24.1850482626
 10
36.6534509514
 20
24.1820042658
 10
36.6218859503
 20
24.1771216722
 10
36.5913199293
 20
24.1704490073
 10
36.5620566674
 20
24.1620525871
 10
36.5343869959
 20
24.152015859
 10
36.5085859085
 20
24.1404385724
 10
36.484909828
 20
24.1274357877
 10
36.4635940579
 20
24.1131367323
 10
36.4448504438
 20
24.0976835167
 10
36.4288652684
 20
24.0812297219
 10
36.4157973994
 20
24.0639388731
 10
36.4057767111
 20
24.0459828145
 10
36.3989027937
 20
24.0275400015
 10
36.3952439633
 20
24.0087937271
 10
36.3948365829
 20
23.9899303001
 10
36.3976847013
 20
23.9711371938
 10
36.4037600126
 20
23.9526011825
 10
36.4130021376
 20
23.9345064854
 10
36.425319224
 20
23.9170329357
 10
36.440588859
 20
23.9003541935
 10
36.458659286
 20
23.8846360196
 10
36.4793509132
 20
23.8700346281
 10
36.5024580977
 20
23.8566951344
 10
36.5277511901
 20
23.8447501123
 10
36.5549788162
 20
23.8343182768
 10
36.5838703756
 20
23.8255033042
 10
36.614138731
 20
23.8183928016
 10
36.645483062
 20
23.8130574363
 10
36.6775918544
 20
23.8095502338
 10
36.7101459966
 20
23.80790605
 10
36.742821951
 20
23.8081412257
 10
36.7752949693
 20
23.8102534236
 10
36.80724232
 20
23.8142216516
 10
36.838346496
 20
23.8200064718
 10
36.86829837
 20
23.827550392
 10
36.8968002668
 20
23.8367784374
 10
36.9235689218
 20
23.8475988955
 10
36.948338296
 20
23.8599042276
 10
36.9708622204
 20
23.873572138
 10
36.9909168419
 20
23.8884667887
 10
37.0083028488
 20
23.90444015
 10
37.0228474512
 20
23.9213334716
 10
37.0344060981
 20
23.9389788599
 10
37.0428639147
 20
23.9572009472
 10
37.0481368433
 20
23.9758186341
 10
37.0501724791
 20
23.9946468898
 10
37.0489505912
 20
24.0134985906
 10
37.0444833232
 20
24.0321863798
 10
37.0368150728
 20
24.0505245298
 10
37.0260220505
 20
24.0683307877
 10
37.0122115223
 20
24.0854281871
 10
36.9955207433
 20
24.1016468062
 10
36.976115594
 20
24.1168254571
 10
36.9541889316
 20
24.1308132877
  0
LWPOLYLINE
  5
16D
330
1F
100
AcDbEntity
  8
0
  6
Continuous
 62
     7
370
    25
100
AcDbPolyline
 90
       64
 70
   128
 43
0.0
 10
37.7360492023
 20
24.4324012797
 10
37.7118189437
 20
24.4450592725
 10
37.6855259001
 20
24.4562616267
 10
37.6574313837
 20
24.4658970083
 10
37.6278146103
 20
24.4738696566
 10
37.5969699248
 20
24.4801003357
 10
37.5652038754
 20
24.4845271224
 10
37.5328321675
 20
24.4871060214
 10
37.5001765256
 20
24.4878114022
 10
37.4675614962
 20
24.4866362547
 10
37.4353112221
 20
24.4835922578
 10
37.403746221
 20
24.4787096642
 10
37.3731802
 20
24.4720369994
 10
37.3439169381
 20
24.4636405792
 10
37.3162472666
 20
24.453603851
 10
37.2904461792
 20
24.4420265644
 10
37.2667700986
 20
24.4290237797
 10
37.2454543285
 20
24.4147247243
 10
37.2267107145
 20
24.3992715087
 10
37.2107255391
 20
24.3828177139
 10
37.19765767
 20
24.3655268651
 10
37.1876369818
 20
24.3475708065
 10
37.1807630644
 20
24.3291279935
 10
37.1771042339
 20
24.3103817191
 10
37.1766968535
 20
24.2915182921
 10
37.1795449719
 20
24.2727251858
 10
37.1856202832
 20
24.2541891745
 10
37.1948624083
 20
24.2360944774
 10
37.2071794946
 20
24.2186209278
 10
37.2224491296
 20
24.2019421855
 10
37.2405195567
 20
24.1862240116
 10
37.2612111838
 20
24.1716226201
 10
37.2843183684
 20
24.1582831264
 10
37.3096114608
 20
24.1463381043
 10
37.3368390869
 20
24.1359062688
 10
37.3657306463
 20
24.1270912962
 10
37.3959990017
 20
24.1199807936
 10
37.4273433326
 20
24.1146454284
 10
37.459452125
 20
24.1111382258
 10
37.4920062673
 20
24.1094940421
 10
37.5246822217
 20
24.1097292178
 10
37.55715524
 20
24.1118414156
 10
37.5891025907
 20
24.1158096436
 10
37.6202067666
 20
24.1215944638
 10
37.6501586406
 20
24.1291383841
 10
37.6786605375
 20
24.1383664294
 10
37.7054291925
 20
24.1491868875
 10
37.7301985667
 20
24.1614922196
 10
37.752722491
 20
24.17516013
 10
37.7727771126
 20
24.1900547807
 10
37.7901631195
 20
24.2060281421
 10
37.8047077218
 20
24.2229214636
 10
37.8162663688
 20
24.2405668519
 10
37.8247241853
 20
24.2587889392
 10
37.8299971139
 20
24.2774066261
 10
37.8320327498
 20
24.2962348819
 10
37.8308108619
 20
24.3150865826
 10
37.8263435939
 20
24.3337743718
 10
37.8186753435
 20
24.3521125218
 10
37.8078823212
 20
24.3699187797
 10
37.7940717929
 20
24.3870161791
 10
37.777381014
 20
24.4032347982
 10
37.7579758647
 20
24.4184134492
 10
37.7360492023
 20
24.4324012797
  0
SPLINE
  5
16E
330
1F
100
AcDbEntity
  8
0
  6
Continuous
 62
     7
370
    25
100
AcDbSpline
210
0.0
220
0.0
230
1.0
 70
     8
 71
     3
 72
    11
 73
     7
 74
     0
 42
0.00000001
 43
0.00000001
 40
0.0
 40
0.0
 40
0.0
 40
0.0
 40
0.2751448623877732
 40
0.5502967132255729
 40
0.8253011558644298
 40
0.9999999999999999
 40
0.9999999999999999
 40
0.9999999999999999
 40
0.9999999999999999
 10
34.31411675305154
 20
25.2280446705588
 30
0.0
 10
34.32076366741227
 20
25.22884063515851
 30
0.0
 10
34.33405766495979
 20
25.23043258457476
 30
0.0
 10
34.35058030547781
 20
25.23750880340363
 30
0.0
 10
34.3617567894278
 20
25.24581659987104
 30
0.0
 10
34.36423730505987
 20
25.2520361723107
 30
0.0
 10
34.36520092535469
 20
25.25445232569045
 30
0.0
  0
SPLINE
  5
16F
330
1F
100
AcDbEntity
  8
0
  6
Continuous
 62
     7
370
    25
100
AcDbSpline
210
0.0
220
0.0
230
1.0
 70
     8
 71
     3
 72
    12
 73
     8
 74
     0
 42
0.00000001
 43
0.00000001
 40
0.0
 40
0.0
 40
0.0
 40
0.0
 40
0.2153556630049279
 40
0.4307190018308171
 40
0.6459085053177296
 40
0.8610016209991114
 40
0.9999999999999999
 40
0.9999999999999999
 40
0.9999999999999999
 40
0.9999999999999999
 10
34.26091983086405
 20
25.19005176440811
 30
0.0
 10
34.26088184557763
 20
25.19396410942842
 30
0.0
 10
34.26080587365089
 20
25.20178893891491
 30
0.0
 10
34.26923321810379
 20
25.21272697827489
 30
0.0
 10
34.28296815768021
 20
25.22141875378497
 30
0.0
 10
34.29891930647818
 20
25.22652028257276
 30
0.0
 10
34.30983270555555
 20
25.22761495688927
 30
0.0
 10
34.31411675305154
 20
25.2280446705588
 30
0.0
  0
ARC
  5
170
330
1F
100
AcDbEntity
  8
0
  6
Continuous
 62
     7
370
    25
100
AcDbCircle
 10
35.008629928
 20
25.3700124706
 30
0.0
 40
0.7690619254573571
100
AcDbArc
 50
193.5327000627
 51
237.7874408949
  0
SPLINE
  5
171
330
1F
100
AcDbEntity
  8
0
  6
Continuous
 62
     7
370
    25
100
AcDbSpline
210
0.0
220
0.0
230
1.0
 70
     8
 71
     3
 72
    12
 73
     8
 74
     0
 42
0.00000001
 43
0.00000001
 40
0.0
 40
0.0
 40
0.0
 40
0.0
 40
0.1470065690835988
 40
0.3623569944915255
 40
0.5775335854840997
 40
0.7926138039313118
 40
1.0
 40
1.0
 40
1.0
 40
1.0
 10
34.68282499829571
 20
24.71417752892148
 30
0.0
 10
34.67905312202955
 20
24.71265619076576
 30
0.0
 10
34.66975581133167
 20
24.70890623914695
 30
0.0
 10
34.65190169279657
 20
24.70609528390611
 30
0.0
 10
34.63155713420772
 20
24.70678619165547
 30
0.0
 10
34.6125505196148
 20
24.71116849207461
 30
0.0
 10
34.60324195324932
 20
24.71664096660253
 30
0.0
 10
34.59867243457741
 20
24.71932737109868
 30
0.0
  0
SPLINE
  5
172
330
1F
100
AcDbEntity
  8
0
  6
Continuous
 62
     7
370
    25
100
AcDbSpline
210
0.0
220
0.0
230
1.0
 70
     8
 71
     3
 72
    12
 73
     8
 74
     0
 42
0.00000001
 43
0.00000001
 40
0.0
 40
0.0
 40
0.0
 40
0.0
 40
0.0815509966085973
 40
0.3567966809083365
 40
0.6318538186396839
 40
0.9068282210379344
 40
1.0
 40
1.0
 40
1.0
 40
1.0
 10
34.75126188592224
 20
24.7164211976526
 30
0.0
 10
34.74967290431179
 20
24.71711938032934
 30
0.0
 10
34.74272089405798
 20
24.72017402432005
 30
0.0
 10
34.72697989267343
 20
24.72213210722062
 30
0.0
 10
34.70676395906295
 20
24.72161582907759
 30
0.0
 10
34.69183351570479
 20
24.71807125461694
 30
0.0
 10
34.68464443665495
 20
24.71496393955588
 30
0.0
 10
34.68282499829571
 20
24.71417752892148
 30
0.0
  0
SPLINE
  5
173
330
1F
100
AcDbEntity
  8
0
  6
Continuous
 62
     7
370
    25
100
AcDbSpline
210
0.0
220
0.0
230
1.0
 70
     8
 71
     3
 72
    11
 73
     7
 74
     0
 42
0.00000001
 43
0.00000001
 40
0.0
 40
0.0
 40
0.0
 40
0.0
 40
0.275144862390481
 40
0.5502967132309515
 40
0.8253011558725278
 40
0.9999999999999999
 40
0.9999999999999999
 40
0.9999999999999999
 40
0.9999999999999999
 10
34.81589818400602
 20
24.63735601400282
 30
0.0
 10
34.8196233030243
 20
24.6406321433702
 30
0.0
 10
34.82707363567575
 20
24.64718448531592
 30
0.0
 10
34.83008940496777
 20
24.65893273650879
 30
0.0
 10
34.82781633884824
 20
24.66936952180669
 30
0.0
 10
34.82195211337548
 20
24.67477998019651
 30
0.0
 10
34.81967400369309
 20
24.67688181234831
 30
0.0
  0
SPLINE
  5
174
330
1F
100
AcDbEntity
  8
0
  6
Continuous
 62
     7
370
    25
100
AcDbSpline
210
0.0
220
0.0
230
1.0
 70
     8
 71
     3
 72
    12
 73
     8
 74
     0
 42
0.00000001
 43
0.00000001
 40
0.0
 40
0.0
 40
0.0
 40
0.0
 40
0.2153556630049467
 40
0.430719001830821
 40
0.6459085053177269
 40
0.8610016209991056
 40
1.0
 40
1.0
 40
1.0
 40
1.0
 10
34.82481893889027
 20
24.58877577302776
 30
0.0
 10
34.81999993549918
 20
24.59152671297398
 30
0.0
 10
34.81036175695549
 20
24.59702869091688
 30
0.0
 10
34.8029230300812
 20
24.60820312890744
 30
0.0
 10
34.8019887379602
 20
24.61995580035396
 30
0.0
 10
34.80701915515897
 20
24.63007444959
 30
0.0
 10
34.81339525161436
 20
24.63530339498955
 30
0.0
 10
34.81589818400602
 20
24.63735601400282
 30
0.0
  0
ARC
  5
175
330
1F
100
AcDbEntity
  8
0
  6
Continuous
 62
     7
370
    25
100
AcDbCircle
 10
35.7495381697
 20
26.6534422513
 30
0.0
 40
2.26228939843349
100
AcDbArc
 50
245.8734298932
 51
267.2304277373
  0
SPLINE
  5
176
330
1F
100
AcDbEntity
  8
0
  6
Continuous
 62
     7
370
    25
100
AcDbSpline
210
0.0
220
0.0
230
1.0
 70
     8
 71
     3
 72
    12
 73
     8
 74
     0
 42
0.00000001
 43
0.00000001
 40
0.0
 40
0.0
 40
0.0
 40
0.0
 40
0.1470065690835836
 40
0.3623569944915123
 40
0.5775335854840967
 40
0.7926138039313292
 40
0.9999999999999999
 40
0.9999999999999999
 40
0.9999999999999999
 40
0.9999999999999999
 10
35.70603863023329
 20
24.42450527467875
 30
0.0
 10
35.70523496396057
 20
24.42188983096212
 30
0.0
 10
35.70325400421863
 20
24.41544301480739
 30
0.0
 10
35.69407231200974
 20
24.40616724569424
 30
0.0
 10
35.67884025925276
 20
24.3983510599173
 30
0.0
 10
35.66003277161317
 20
24.39369123709488
 30
0.0
 10
35.64674750980504
 20
24.39376106639834
 30
0.0
 10
35.64022585550189
 20
24.39379534517914
 30
0.0
  0
SPLINE
  5
177
330
1F
100
AcDbEntity
  8
0
  6
Continuous
 62
     7
370
    25
100
AcDbSpline
210
0.0
220
0.0
230
1.0
 70
     8
 71
     3
 72
    12
 73
     8
 74
     0
 42
0.00000001
 43
0.00000001
 40
0.0
 40
0.0
 40
0.0
 40
0.0
 40
0.0815509966078591
 40
0.3567966809077951
 40
0.6318538186393742
 40
0.9068282210378534
 40
1.0
 40
1.0
 40
1.0
 40
1.0
 10
35.75168259801038
 20
24.45402800315636
 30
0.0
 10
35.74970383002442
 20
24.45387306412344
 30
0.0
 10
35.74104645146318
 20
24.45319518482103
 30
0.0
 10
35.72751747077837
 20
24.44815421790886
 30
0.0
 10
35.71385502456169
 20
24.43953692803913
 30
0.0
 10
35.70763927663793
 20
24.43093586786623
 30
0.0
 10
35.70636191067289
 20
24.42580405308885
 30
0.0
 10
35.70603863023329
 20
24.42450527467875
 30
0.0
  0
SPLINE
  5
178
330
1F
100
AcDbEntity
  8
0
  6
Continuous
 62
     7
370
    25
100
AcDbSpline
210
0.0
220
0.0
230
1.0
 70
     8
 71
     3
 72
    11
 73
     7
 74
     0
 42
0.00000001
 43
0.00000001
 40
0.0
 40
0.0
 40
0.0
 40
0.0
 40
0.2751448623877829
 40
0.5502967132255824
 40
0.8253011558644868
 40
1.0
 40
1.0
 40
1.0
 40
1.0
 10
35.89423253425301
 20
24.42450527467875
 30
0.0
 10
35.89285373372938
 20
24.42834245666247
 30
0.0
 10
35.89009609766174
 20
24.43601691809115
 30
0.0
 10
35.87783839897749
 20
24.44555523543342
 30
0.0
 10
35.86344731409297
 20
24.45200728228207
 30
0.0
 10
35.85267353126432
 20
24.4534392534761
 30
0.0
 10
35.8484881773599
 20
24.45399553963141
 30
0.0
  0
SPLINE
  5
179
330
1F
100
AcDbEntity
  8
0
  6
Continuous
 62
     7
370
    25
100
AcDbSpline
210
0.0
220
0.0
230
1.0
 70
     8
 71
     3
 72
    12
 73
     8
 74
     0
 42
0.00000001
 43
0.00000001
 40
0.0
 40
0.0
 40
0.0
 40
0.0
 40
0.2153556630049362
 40
0.4307190018308154
 40
0.6459085053177143
 40
0.8610016209991017
 40
1.0
 40
1.0
 40
1.0
 40
1.0
 10
35.96004530898442
 20
24.39379534517914
 30
0.0
 10
35.95326819431802
 20
24.39377341674005
 30
0.0
 10
35.93971372343171
 20
24.39372955908028
 30
0.0
 10
35.9207664305464
 20
24.39859456147845
 30
0.0
 10
35.90571020238124
 20
24.40652357332215
 30
0.0
 10
35.89687313781018
 20
24.41573197551686
 30
0.0
 10
35.89497690081501
 20
24.42203214670132
 30
0.0
 10
35.89423253425301
 20
24.42450527467875
 30
0.0
  0
ARC
  5
17A
330
1F
100
AcDbEntity
  8
0
  6
Continuous
 62
     7
370
    25
100
AcDbCircle
 10
35.8507329948
 20
26.6534422513
 30
0.0
 40
2.262289398433715
100
AcDbArc
 50
272.7695722627
 51
294.1265701068
  0
SPLINE
  5
17B
330
1F
100
AcDbEntity
  8
0
  6
Continuous
 62
     7
370
    25
100
AcDbSpline
210
0.0
220
0.0
230
1.0
 70
     8
 71
     3
 72
    12
 73
     8
 74
     0
 42
0.00000001
 43
0.00000001
 40
0.0
 40
0.0
 40
0.0
 40
0.0
 40
0.1470065690835922
 40
0.3623569944915095
 40
0.577533585484111
 40
0.7926138039313242
 40
1.0
 40
1.0
 40
1.0
 40
1.0
 10
36.78437298048028
 20
24.63735601400282
 30
0.0
 10
36.78700830100394
 20
24.63517855618286
 30
0.0
 10
36.79350411156825
 20
24.62981133296154
 30
0.0
 10
36.798373356456
 20
24.61950436972111
 30
0.0
 10
36.79717653945315
 20
24.60775970603996
 30
0.0
 10
36.78958534995199
 20
24.59678742098711
 30
0.0
 10
36.78010571888874
 20
24.5914137000072
 30
0.0
 10
36.77545222559603
 20
24.58877577302775
 30
0.0
  0
SPLINE
  5
17C
330
1F
100
AcDbEntity
  8
0
  6
Continuous
 62
     7
370
    25
100
AcDbSpline
210
0.0
220
0.0
230
1.0
 70
     8
 71
     3
 72
    12
 73
     8
 74
     0
 42
0.00000001
 43
0.00000001
 40
0.0
 40
0.0
 40
0.0
 40
0.0
 40
0.0815509966200214
 40
0.3567966809163265
 40
0.6318538186442503
 40
0.9068282210390987
 40
0.9999999999999999
 40
0.9999999999999999
 40
0.9999999999999999
 40
0.9999999999999999
 10
36.78048641112524
 20
24.67686378828343
 30
0.0
 10
36.77927699221292
 20
24.67594648872485
 30
0.0
 10
36.77398562029059
 20
24.6719331786309
 30
0.0
 10
36.77059375370546
 20
24.66284609195553
 30
0.0
 10
36.77148807058112
 20
24.65117568189385
 30
0.0
 10
36.7776281189252
 20
24.6425565204072
 30
0.0
 10
36.78301072970318
 20
24.63840635341051
 30
0.0
 10
36.78437298048028
 20
24.63735601400282
 30
0.0
  0
SPLINE
  5
17D
330
1F
100
AcDbEntity
  8
0
  6
Continuous
 62
     7
370
    25
100
AcDbSpline
210
0.0
220
0.0
230
1.0
 70
     8
 71
     3
 72
    11
 73
     7
 74
     0
 42
0.00000001
 43
0.00000001
 40
0.0
 40
0.0
 40
0.0
 40
0.0
 40
0.2751448623878391
 40
0.5502967132256973
 40
0.8253011558646779
 40
1.0
 40
1.0
 40
1.0
 40
1.0
 10
36.91744616619059
 20
24.71417752892147
 30
0.0
 10
36.911771128772
 20
24.71632799435677
 30
0.0
 10
36.90042090979359
 20
24.7206289798474
 30
0.0
 10
36.88007013677881
 20
24.72236994640218
 30
0.0
 10
36.86199113547749
 20
24.72105773326257
 30
0.0
 10
36.85261893115604
 20
24.71767238795617
 30
0.0
 10
36.84897805658361
 20
24.71635726322966
 30
0.0
  0
SPLINE
  5
17E
330
1F
100
AcDbEntity
  8
0
  6
Continuous
 62
     7
370
    25
100
AcDbSpline
210
0.0
220
0.0
230
1.0
 70
     8
 71
     3
 72
    12
 73
     8
 74
     0
 42
0.00000001
 43
0.00000001
 40
0.0
 40
0.0
 40
0.0
 40
0.0
 40
0.2153556630049385
 40
0.4307190018308091
 40
0.6459085053177138
 40
0.8610016209990864
 40
1.0
 40
1.0
 40
1.0
 40
1.0
 10
37.0015987299089
 20
24.71932737109868
 30
0.0
 10
36.99683344582503
 20
24.71654541965649
 30
0.0
 10
36.98730270781049
 20
24.71098141761634
 30
0.0
 10
36.96794591611613
 20
24.70668713199825
 30
0.0
 10
36.94758748616778
 20
24.7061477766373
 30
0.0
 10
36.93005957240104
 20
24.70905177467281
 30
0.0
 10
36.92100179186961
 20
24.71273261680758
 30
0.0
 10
36.91744616619059
 20
24.71417752892147
 30
0.0
  0
ARC
  5
17F
330
1F
100
AcDbEntity
  8
0
  6
Continuous
 62
     7
370
    25
100
AcDbCircle
 10
36.5916412365
 20
25.3700124706
 30
0.0
 40
0.7690619254572965
100
AcDbArc
 50
302.2125591051
 51
346.4672999373
  0
SPLINE
  5
180
330
1F
100
AcDbEntity
  8
0
  6
Continuous
 62
     7
370
    25
100
AcDbSpline
210
0.0
220
0.0
230
1.0
 70
     8
 71
     3
 72
    12
 73
     8
 74
     0
 42
0.00000001
 43
0.00000001
 40
0.0
 40
0.0
 40
0.0
 40
0.0
 40
0.1470065690835812
 40
0.362356994491509
 40
0.5775335854840928
 40
0.792613803931315
 40
1.0
 40
1.0
 40
1.0
 40
1.0
 10
37.28615441143476
 20
25.22804467055881
 30
0.0
 10
37.29068498373324
 20
25.22758072389496
 30
0.0
 10
37.30185240687384
 20
25.2264371401778
 30
0.0
 10
37.3179202512415
 20
25.22113666208945
 30
0.0
 10
37.33145974916137
 20
25.21234338520301
 30
0.0
 10
37.33953167365389
 20
25.20148605369347
 30
0.0
 10
37.33941071264606
 20
25.1938166352998
 30
0.0
 10
37.33935133362225
 20
25.19005176440812
 30
0.0
  0
SPLINE
  5
181
330
1F
100
AcDbEntity
  8
0
  6
Continuous
 62
     7
370
    25
100
AcDbSpline
210
0.0
220
0.0
230
1.0
 70
     8
 71
     3
 72
    12
 73
     8
 74
     0
 42
0.00000001
 43
0.00000001
 40
0.0
 40
0.0
 40
0.0
 40
0.0
 40
0.0815509966075056
 40
0.3567966809075579
 40
0.631853818639224
 40
0.9068282210378219
 40
0.9999999999999999
 40
0.9999999999999999
 40
0.9999999999999999
 40
0.9999999999999999
 10
37.23501400456388
 20
25.25439437228734
 30
0.0
 10
37.23528239592175
 20
25.25325205384398
 30
0.0
 10
37.23645664454719
 20
25.24825425558171
 30
0.0
 10
37.24518880150574
 20
25.24044414127534
 30
0.0
 10
37.26011600277701
 20
25.23255697895741
 30
0.0
 10
37.2750150903426
 20
25.22896870405961
 30
0.0
 10
37.28390461747083
 20
25.22823129638415
 30
0.0
 10
37.28615441143476
 20
25.22804467055881
 30
0.0
  0
SPLINE
  5
182
330
1F
100
AcDbEntity
  8
0
  6
Continuous
 62
     7
370
    25
100
AcDbSpline
210
0.0
220
0.0
230
1.0
 70
     8
 71
     3
 72
    11
 73
     7
 74
     0
 42
0.00000001
 43
0.00000001
 40
0.0
 40
0.0
 40
0.0
 40
0.0
 40
0.2760292367100114
 40
0.5520654843324319
 40
0.8279538499545441
 40
0.9999999999999999
 40
0.9999999999999999
 40
0.9999999999999999
 40
0.9999999999999999
 10
37.28615441143476
 20
25.3366866988388
 30
0.0
 10
37.27950720752987
 20
25.33589080350589
 30
0.0
 10
37.26621263088665
 20
25.33429899262497
 30
0.0
 10
37.24969433289532
 20
25.32722173494637
 30
0.0
 10
37.23855282563349
 20
25.31895411024315
 30
0.0
 10
37.23608387563615
 20
25.31278031012431
 30
0.0
 10
37.23513558224316
 20
25.31040902926863
 30
0.0
  0
SPLINE
  5
183
330
1F
100
AcDbEntity
  8
0
  6
Continuous
 62
     7
370
    25
100
AcDbSpline
210
0.0
220
0.0
230
1.0
 70
     8
 71
     3
 72
    12
 73
     8
 74
     0
 42
0.00000001
 43
0.00000001
 40
0.0
 40
0.0
 40
0.0
 40
0.0
 40
0.2153556630049352
 40
0.4307190018308036
 40
0.6459085053177165
 40
0.8610016209990904
 40
0.9999999999999999
 40
0.9999999999999999
 40
0.9999999999999999
 40
0.9999999999999999
 10
37.33935133362225
 20
25.37467960498949
 30
0.0
 10
37.33938931890867
 20
25.37076725996918
 30
0.0
 10
37.33946529083541
 20
25.36294243048269
 30
0.0
 10
37.33103794638252
 20
25.35200439112272
 30
0.0
 10
37.31730300680609
 20
25.34331261561264
 30
0.0
 10
37.30135185800813
 20
25.33821108682484
 30
0.0
 10
37.29043845893075
 20
25.33711641250833
 30
0.0
 10
37.28615441143476
 20
25.3366866988388
 30
0.0
  0
ARC
  5
184
330
1F
100
AcDbEntity
  8
0
  6
Continuous
 62
     7
370
    25
100
AcDbCircle
 10
36.7358739687
 20
25.2583548185
 30
0.0
 40
0.6145863535106634
100
AcDbArc
 50
10.9103777876
 51
35.6734457047
  0
ARC
  5
185
330
1F
100
AcDbEntity
  8
0
  6
Continuous
 62
     7
370
    25
100
AcDbCircle
 10
34.8643971958
 20
25.2583548185
 30
0.0
 40
0.6145863535106998
100
AcDbArc
 50
144.3265542953
 51
169.0896222124
  0
SPLINE
  5
186
330
1F
100
AcDbEntity
  8
0
  6
Continuous
 62
     7
370
    25
100
AcDbSpline
210
0.0
220
0.0
230
1.0
 70
     8
 71
     3
 72
    12
 73
     8
 74
     0
 42
0.00000001
 43
0.00000001
 40
0.0
 40
0.0
 40
0.0
 40
0.0
 40
0.1470065690835884
 40
0.3623569944915146
 40
0.5775335854840964
 40
0.7926138039313052
 40
1.0
 40
1.0
 40
1.0
 40
1.0
 10
34.31411675305154
 20
25.33668669883879
 30
0.0
 10
34.30958618075306
 20
25.33715064550265
 30
0.0
 10
34.29841875761246
 20
25.33829422921981
 30
0.0
 10
34.2823509132448
 20
25.34359470730815
 30
0.0
 10
34.26881141532494
 20
25.3523879841946
 30
0.0
 10
34.26073949083241
 20
25.36324531570413
 30
0.0
 10
34.26086045184024
 20
25.37091473409781
 30
0.0
 10
34.26091983086405
 20
25.37467960498948
 30
0.0
  0
SPLINE
  5
187
330
1F
100
AcDbEntity
  8
0
  6
Continuous
 62
     7
370
    25
100
AcDbSpline
210
0.0
220
0.0
230
1.0
 70
     8
 71
     3
 72
    12
 73
     8
 74
     0
 42
0.00000001
 43
0.00000001
 40
0.0
 40
0.0
 40
0.0
 40
0.0
 40
0.0723668271804219
 40
0.3503648722423061
 40
0.6281724853359385
 40
0.9058965357720583
 40
1.0
 40
1.0
 40
1.0
 40
1.0
 10
34.36513558224316
 20
25.31074931793496
 30
0.0
 10
34.36489441010067
 20
25.31175211484924
 30
0.0
 10
34.36372677224529
 20
25.31660716828253
 30
0.0
 10
34.3550632013443
 20
25.32428423111306
 30
0.0
 10
34.34016044215314
 20
25.33217521633724
 30
0.0
 10
34.32525570052248
 20
25.33576260690112
 30
0.0
 10
34.31636647155568
 20
25.33650006121103
 30
0.0
 10
34.31411675305154
 20
25.33668669883879
 30
0.0
  0
LWPOLYLINE
  5
188
330
1F
100
AcDbEntity
  8
0
  6
Continuous
 62
     7
370
    25
100
AcDbPolyline
 90
       64
 70
   128
 43
0.0
 10
36.0319218596
 20
24.0249096683
 10
36.007691601
 20
24.0375676611
 10
35.9813985575
 20
24.0487700153
 10
35.953304041
 20
24.0584053969
 10
35.9236872677
 20
24.0663780452
 10
35.8928425821
 20
24.0726087243
 10
35.8610765327
 20
24.0770355111
 10
35.8287048248
 20
24.07961441
 10
35.7960491829
 20
24.0803197909
 10
35.7634341535
 20
24.0791446433
 10
35.7311838794
 20
24.0761006464
 10
35.6996188783
 20
24.0712180528
 10
35.6690528573
 20
24.064545388
 10
35.6397895954
 20
24.0561489678
 10
35.6121199239
 20
24.0461122396
 10
35.5863188365
 20
24.0345349531
 10
35.562642756
 20
24.0215321683
 10
35.5413269859
 20
24.0072331129
 10
35.5225833718
 20
23.9917798973
 10
35.5065981964
 20
23.9753261025
 10
35.4935303274
 20
23.9580352537
 10
35.4835096391
 20
23.9400791951
 10
35.4766357217
 20
23.9216363821
 10
35.4729768913
 20
23.9028901077
 10
35.4725695109
 20
23.8840266807
 10
35.4754176293
 20
23.8652335744
 10
35.4814929406
 20
23.8466975631
 10
35.4907350656
 20
23.828602866
 10
35.503052152
 20
23.8111293164
 10
35.518321787
 20
23.7944505742
 10
35.536392214
 20
23.7787324002
 10
35.5570838412
 20
23.7641310088
 10
35.5801910257
 20
23.7507915151
 10
35.6054841181
 20
23.738846493
 10
35.6327117442
 20
23.7284146575
 10
35.6616033036
 20
23.7195996848
 10
35.691871659
 20
23.7124891822
 10
35.72321599
 20
23.707153817
 10
35.7553247824
 20
23.7036466144
 10
35.7878789246
 20
23.7020024307
 10
35.820554879
 20
23.7022376064
 10
35.8530278973
 20
23.7043498042
 10
35.884975248
 20
23.7083180323
 10
35.916079424
 20
23.7141028525
 10
35.946031298
 20
23.7216467727
 10
35.9745331948
 20
23.730874818
 10
36.0013018498
 20
23.7416952761
 10
36.026071224
 20
23.7540006083
 10
36.0485951484
 20
23.7676685186
 10
36.0686497699
 20
23.7825631693
 10
36.0860357768
 20
23.7985365307
 10
36.1005803792
 20
23.8154298522
 10
36.1121390261
 20
23.8330752405
 10
36.1205968427
 20
23.8512973278
 10
36.1258697713
 20
23.8699150148
 10
36.1279054071
 20
23.8887432705
 10
36.1266835192
 20
23.9075949713
 10
36.1222162512
 20
23.9262827605
 10
36.1145480008
 20
23.9446209104
 10
36.1037549785
 20
23.9624271684
 10
36.0899444503
 20
23.9795245677
 10
36.0732536713
 20
23.9957431868
 10
36.053848522
 20
24.0109218378
 10
36.0319218596
 20
24.0249096683
  0
LWPOLYLINE
  5
189
330
1F
100
AcDbEntity
  8
0
  6
Continuous
 62
     7
370
    25
100
AcDbPolyline
 90
       64
 70
   128
 43
0.0
 10
34.327794517
 20
24.4324012797
 10
34.3035642584
 20
24.4450592725
 10
34.2772712148
 20
24.4562616267
 10
34.2491766984
 20
24.4658970083
 10
34.219559925
 20
24.4738696566
 10
34.1887152394
 20
24.4801003357
 10
34.1569491901
 20
24.4845271224
 10
34.1245774822
 20
24.4871060214
 10
34.0919218403
 20
24.4878114022
 10
34.0593068109
 20
24.4866362547
 10
34.0270565368
 20
24.4835922578
 10
33.9954915356
 20
24.4787096642
 10
33.9649255147
 20
24.4720369994
 10
33.9356622527
 20
24.4636405792
 10
33.9079925813
 20
24.453603851
 10
33.8821914938
 20
24.4420265644
 10
33.8585154133
 20
24.4290237797
 10
33.8371996432
 20
24.4147247243
 10
33.8184560292
 20
24.3992715087
 10
33.8024708537
 20
24.3828177139
 10
33.7894029847
 20
24.3655268651
 10
33.7793822964
 20
24.3475708065
 10
33.772508379
 20
24.3291279935
 10
33.7688495486
 20
24.3103817191
 10
33.7684421682
 20
24.2915182921
 10
33.7712902866
 20
24.2727251858
 10
33.7773655979
 20
24.2541891745
 10
33.786607723
 20
24.2360944774
 10
33.7989248093
 20
24.2186209278
 10
33.8141944443
 20
24.2019421855
 10
33.8322648714
 20
24.1862240116
 10
33.8529564985
 20
24.1716226201
 10
33.8760636831
 20
24.1582831264
 10
33.9013567755
 20
24.1463381043
 10
33.9285844015
 20
24.1359062688
 10
33.9574759609
 20
24.1270912962
 10
33.9877443164
 20
24.1199807936
 10
34.0190886473
 20
24.1146454284
 10
34.0511974397
 20
24.1111382258
 10
34.0837515819
 20
24.1094940421
 10
34.1164275364
 20
24.1097292178
 10
34.1489005547
 20
24.1118414156
 10
34.1808479054
 20
24.1158096436
 10
34.2119520813
 20
24.1215944638
 10
34.2419039553
 20
24.1291383841
 10
34.2704058521
 20
24.1383664294
 10
34.2971745071
 20
24.1491868875
 10
34.3219438814
 20
24.1614922196
 10
34.3444678057
 20
24.17516013
 10
34.3645224273
 20
24.1900547807
 10
34.3819084342
 20
24.2060281421
 10
34.3964530365
 20
24.2229214636
 10
34.4080116835
 20
24.2405668519
 10
34.4164695
 20
24.2587889392
 10
34.4217424286
 20
24.2774066261
 10
34.4237780645
 20
24.2962348819
 10
34.4225561766
 20
24.3150865826
 10
34.4180889085
 20
24.3337743718
 10
34.4104206581
 20
24.3521125218
 10
34.3996276359
 20
24.3699187797
 10
34.3858171076
 20
24.3870161791
 10
34.3691263286
 20
24.4032347982
 10
34.3497211794
 20
24.4184134492
 10
34.327794517
 20
24.4324012797
  0
LWPOLYLINE
  5
18A
330
1F
100
AcDbEntity
  8
0
  6
Continuous
 62
     7
370
    25
100
AcDbPolyline
 90
       64
 70
   128
 43
0.0
 10
33.6219218596
 20
25.4161730545
 10
33.597691601
 20
25.4288310472
 10
33.5713985575
 20
25.4400334015
 10
33.543304041
 20
25.4496687831
 10
33.5136872677
 20
25.4576414313
 10
33.4828425821
 20
25.4638721105
 10
33.4510765327
 20
25.4682988972
 10
33.4187048248
 20
25.4708777961
 10
33.3860491829
 20
25.471583177
 10
33.3534341535
 20
25.4704080294
 10
33.3211838794
 20
25.4673640325
 10
33.2896188783
 20
25.462481439
 10
33.2590528573
 20
25.4558087741
 10
33.2297895954
 20
25.4474123539
 10
33.2021199239
 20
25.4373756258
 10
33.1763188365
 20
25.4257983392
 10
33.152642756
 20
25.4127955544
 10
33.1313269859
 20
25.398496499
 10
33.1125833718
 20
25.3830432834
 10
33.0965981964
 20
25.3665894886
 10
33.0835303274
 20
25.3492986398
 10
33.0735096391
 20
25.3313425812
 10
33.0666357217
 20
25.3128997683
 10
33.0629768913
 20
25.2941534938
 10
33.0625695109
 20
25.2752900669
 10
33.0654176293
 20
25.2564969606
 10
33.0714929406
 20
25.2379609493
 10
33.0807350656
 20
25.2198662522
 10
33.093052152
 20
25.2023927025
 10
33.108321787
 20
25.1857139603
 10
33.126392214
 20
25.1699957863
 10
33.1470838412
 20
25.1553943949
 10
33.1701910257
 20
25.1420549012
 10
33.1954841181
 20
25.1301098791
 10
33.2227117442
 20
25.1196780436
 10
33.2516033036
 20
25.1108630709
 10
33.281871659
 20
25.1037525683
 10
33.31321599
 20
25.0984172031
 10
33.3453247824
 20
25.0949100006
 10
33.3778789246
 20
25.0932658168
 10
33.410554879
 20
25.0935009925
 10
33.4430278973
 20
25.0956131904
 10
33.474975248
 20
25.0995814184
 10
33.506079424
 20
25.1053662386
 10
33.536031298
 20
25.1129101588
 10
33.5645331948
 20
25.1221382042
 10
33.5913018498
 20
25.1329586622
 10
33.616071224
 20
25.1452639944
 10
33.6385951484
 20
25.1589319047
 10
33.6586497699
 20
25.1738265555
 10
33.6760357768
 20
25.1897999168
 10
33.6905803792
 20
25.2066932384
 10
33.7021390261
 20
25.2243386267
 10
33.7105968427
 20
25.2425607139
 10
33.7158697713
 20
25.2611784009
 10
33.7179054071
 20
25.2800066566
 10
33.7166835192
 20
25.2988583574
 10
33.7122162512
 20
25.3175461466
 10
33.7045480008
 20
25.3358842965
 10
33.6937549785
 20
25.3536905545
 10
33.6799444503
 20
25.3707879538
 10
33.6632536713
 20
25.387006573
 10
33.643848522
 20
25.4021852239
 10
33.6219218596
 20
25.4161730545
  0
LWPOLYLINE
  5
18B
330
1F
100
AcDbEntity
  8
0
  6
Continuous
 62
     7
370
    25
100
AcDbPolyline
 90
       51
 70
   128
 43
0.0
 10
34.327794517
 20
26.3999448292
 10
34.3035642584
 20
26.412602822
 10
34.2772712148
 20
26.4238051762
 10
34.2491766984
 20
26.4334405578
 10
34.219559925
 20
26.4414132061
 10
34.1887152394
 20
26.4476438852
 10
34.1569491901
 20
26.4520706719
 10
34.1245774822
 20
26.4546495709
 10
34.0919218403
 20
26.4553549517
 10
34.0593068109
 20
26.4541798042
 10
34.0270565368
 20
26.4511358073
 10
33.9954915356
 20
26.4462532137
 10
33.9649255147
 20
26.4395805489
 10
33.9356622527
 20
26.4311841287
 10
33.9079925813
 20
26.4211474005
 10
33.8821914938
 20
26.4095701139
 10
33.8585154133
 20
26.3965673292
 10
33.8371996432
 20
26.3822682738
 10
33.8184560292
 20
26.3668150582
 10
33.8024708537
 20
26.3503612634
 10
33.7894029847
 20
26.3330704146
 10
33.7793822964
 20
26.315114356
 10
33.772508379
 20
26.296671543
 10
33.7688495486
 20
26.2779252686
 10
33.7684421682
 20
26.2590618416
 10
33.7712902866
 20
26.2402687353
 10
33.7773655979
 20
26.221732724
 10
33.786607723
 20
26.2036380269
 10
33.7989248093
 20
26.1861644773
 10
33.8141944443
 20
26.169485735
 10
33.8322648714
 20
26.1537675611
 10
33.8529564985
 20
26.1391661696
 10
33.8760636831
 20
26.1258266759
 10
33.9013567755
 20
26.1138816538
 10
33.9285844015
 20
26.1034498183
 10
33.9574759609
 20
26.0946348457
 10
33.9877443164
 20
26.0875243431
 10
34.0190886473
 20
26.0821889779
 10
34.0511974397
 20
26.0786817753
 10
34.0837515819
 20
26.0770375916
 10
34.1164275364
 20
26.0772727672
 10
34.1489005547
 20
26.0793849651
 10
34.1808479054
 20
26.0833531931
 10
34.2119520813
 20
26.0891380133
 10
34.2419039553
 20
26.0966819336
 10
34.2704058521
 20
26.1059099789
 10
34.2971745071
 20
26.116730437
 10
34.3219438814
 20
26.1290357691
 10
34.3444678057
 20
26.1427036795
 10
34.3645224273
 20
26.1575983302
 10
34.3651355822
 20
26.1581056099
  0
LWPOLYLINE
  5
18C
330
1F
100
AcDbEntity
  8
0
  6
Continuous
 62
     7
370
    25
100
AcDbPolyline
 90
        3
 70
   128
 43
0.0
 10
34.3651355822
 20
26.374169309
 10
34.3497211794
 20
26.3859569987
 10
34.327794517
 20
26.3999448292
  0
ARC
  5
18D
330
1F
100
AcDbEntity
  8
0
  6
Continuous
 62
     7
370
    25
100
AcDbCircle
 10
37.5067734507
 20
25.975430822
 30
0.0
 40
0.4824722920893016
100
AcDbArc
 50
61.6269633677
 51
124.2643802401
  0
LWPOLYLINE
  5
18E
330
1F
100
AcDbEntity
  8
0
  6
Continuous
 62
     7
370
    25
100
AcDbPolyline
 90
       36
 70
   128
 43
0.0
 10
37.2351355822
 20
26.1581056099
 10
37.2405195567
 20
26.1537675611
 10
37.2612111838
 20
26.1391661696
 10
37.2843183684
 20
26.1258266759
 10
37.3096114608
 20
26.1138816538
 10
37.3368390869
 20
26.1034498183
 10
37.3657306463
 20
26.0946348457
 10
37.3959990017
 20
26.0875243431
 10
37.4273433326
 20
26.0821889779
 10
37.459452125
 20
26.0786817753
 10
37.4920062673
 20
26.0770375916
 10
37.5246822217
 20
26.0772727672
 10
37.55715524
 20
26.0793849651
 10
37.5891025907
 20
26.0833531931
 10
37.6202067666
 20
26.0891380133
 10
37.6501586406
 20
26.0966819336
 10
37.6786605375
 20
26.1059099789
 10
37.7054291925
 20
26.116730437
 10
37.7301985667
 20
26.1290357691
 10
37.752722491
 20
26.1427036795
 10
37.7727771126
 20
26.1575983302
 10
37.7901631195
 20
26.1735716916
 10
37.8047077218
 20
26.1904650131
 10
37.8162663688
 20
26.2081104014
 10
37.8247241853
 20
26.2263324887
 10
37.8299971139
 20
26.2449501756
 10
37.8320327498
 20
26.2637784313
 10
37.8308108619
 20
26.2826301321
 10
37.8263435939
 20
26.3013179213
 10
37.8186753435
 20
26.3196560713
 10
37.8078823212
 20
26.3374623292
 10
37.7940717929
 20
26.3545597286
 10
37.777381014
 20
26.3707783477
 10
37.7579758647
 20
26.3859569987
 10
37.7360492023
 20
26.3999448292
 10
37.7360492023
 20
26.3999448292
  0
LWPOLYLINE
  5
18F
330
1F
100
AcDbEntity
  8
0
  6
Continuous
 62
     7
370
    25
100
AcDbPolyline
 90
       64
 70
   128
 43
0.0
 10
38.4419218596
 20
25.4161730545
 10
38.417691601
 20
25.4288310472
 10
38.3913985575
 20
25.4400334015
 10
38.363304041
 20
25.4496687831
 10
38.3336872677
 20
25.4576414313
 10
38.3028425821
 20
25.4638721105
 10
38.2710765327
 20
25.4682988972
 10
38.2387048248
 20
25.4708777961
 10
38.2060491829
 20
25.471583177
 10
38.1734341535
 20
25.4704080294
 10
38.1411838794
 20
25.4673640325
 10
38.1096188783
 20
25.462481439
 10
38.0790528573
 20
25.4558087741
 10
38.0497895954
 20
25.4474123539
 10
38.0221199239
 20
25.4373756258
 10
37.9963188365
 20
25.4257983392
 10
37.972642756
 20
25.4127955544
 10
37.9513269859
 20
25.398496499
 10
37.9325833718
 20
25.3830432834
 10
37.9165981964
 20
25.3665894886
 10
37.9035303274
 20
25.3492986398
 10
37.8935096391
 20
25.3313425812
 10
37.8866357217
 20
25.3128997683
 10
37.8829768913
 20
25.2941534938
 10
37.8825695109
 20
25.2752900669
 10
37.8854176293
 20
25.2564969606
 10
37.8914929406
 20
25.2379609493
 10
37.9007350656
 20
25.2198662522
 10
37.913052152
 20
25.2023927025
 10
37.928321787
 20
25.1857139603
 10
37.946392214
 20
25.1699957863
 10
37.9670838412
 20
25.1553943949
 10
37.9901910257
 20
25.1420549012
 10
38.0154841181
 20
25.1301098791
 10
38.0427117442
 20
25.1196780436
 10
38.0716033036
 20
25.1108630709
 10
38.101871659
 20
25.1037525683
 10
38.13321599
 20
25.0984172031
 10
38.1653247824
 20
25.0949100006
 10
38.1978789246
 20
25.0932658168
 10
38.230554879
 20
25.0935009925
 10
38.2630278973
 20
25.0956131904
 10
38.294975248
 20
25.0995814184
 10
38.326079424
 20
25.1053662386
 10
38.356031298
 20
25.1129101588
 10
38.3845331948
 20
25.1221382042
 10
38.4113018498
 20
25.1329586622
 10
38.436071224
 20
25.1452639944
 10
38.4585951484
 20
25.1589319047
 10
38.4786497699
 20
25.1738265555
 10
38.4960357768
 20
25.1897999168
 10
38.5105803792
 20
25.2066932384
 10
38.5221390261
 20
25.2243386267
 10
38.5305968427
 20
25.2425607139
 10
38.5358697713
 20
25.2611784009
 10
38.5379054071
 20
25.2800066566
 10
38.5366835192
 20
25.2988583574
 10
38.5322162512
 20
25.3175461466
 10
38.5245480008
 20
25.3358842965
 10
38.5137549785
 20
25.3536905545
 10
38.4999444503
 20
25.3707879538
 10
38.4832536713
 20
25.387006573
 10
38.463848522
 20
25.4021852239
 10
38.4419218596
 20
25.4161730545
  0
ARC
  5
190
330
1F
100
AcDbEntity
  8
0
  6
Continuous
 62
     7
370
    25
100
AcDbCircle
 10
35.8001355822
 20
23.1811999934
 30
0.0
 40
0.532688898574794
100
AcDbArc
 50
81.2696526042
 51
98.7303473958
  0
ARC
  5
191
330
1F
100
AcDbEntity
  8
0
  6
Continuous
 62
     7
370
    25
100
AcDbCircle
 10
36.7224026542
 20
23.2871036127
 30
0.0
 40
0.5326888985754482
100
AcDbArc
 50
81.2696526042
 51
98.7303473958
  0
ARC
  5
192
330
1F
100
AcDbEntity
  8
0
  6
Continuous
 62
     7
370
    25
100
AcDbCircle
 10
34.8778685102
 20
23.2871036127
 30
0.0
 40
0.532688898575288
100
AcDbArc
 50
81.2696526042
 51
98.7303473958
  0
ARC
  5
193
330
1F
100
AcDbEntity
  8
0
  6
Continuous
 62
     7
370
    25
100
AcDbCircle
 10
37.5042629249
 20
23.5886916047
 30
0.0
 40
0.5326888985757964
100
AcDbArc
 50
81.2696526042
 51
98.7303473958
  0
ARC
  5
194
330
1F
100
AcDbEntity
  8
0
  6
Continuous
 62
     7
370
    25
100
AcDbCircle
 10
34.0960082396
 20
23.5886916047
 30
0.0
 40
0.5326888985745625
100
AcDbArc
 50
81.2696526042
 51
98.7303473958
  0
ARC
  5
195
330
1F
100
AcDbEntity
  8
0
  6
Continuous
 62
     7
370
    25
100
AcDbCircle
 10
38.0266852556
 20
24.0400499316
 30
0.0
 40
0.5326888985745774
100
AcDbArc
 50
81.2696526042
 51
98.7303473958
  0
ARC
  5
196
330
1F
100
AcDbEntity
  8
0
  6
Continuous
 62
     7
370
    25
100
AcDbCircle
 10
33.5735859089
 20
24.0400499316
 30
0.0
 40
0.5326888985749436
100
AcDbArc
 50
81.2696526042
 51
98.7303473958
  0
ARC
  5
197
330
1F
100
AcDbEntity
  8
0
  6
Continuous
 62
     7
370
    25
100
AcDbCircle
 10
38.2101355822
 20
24.5724633795
 30
0.0
 40
0.5326888985748861
100
AcDbArc
 50
81.2696526042
 51
98.7303473958
  0
ARC
  5
198
330
1F
100
AcDbEntity
  8
0
  6
Continuous
 62
     7
370
    25
100
AcDbCircle
 10
33.3901355822
 20
24.5724633795
 30
0.0
 40
0.5326888985754441
100
AcDbArc
 50
81.2696526042
 51
98.7303473958
  0
ARC
  5
199
330
1F
100
AcDbEntity
  8
0
  6
Continuous
 62
     7
370
    25
100
AcDbCircle
 10
38.0266852556
 20
25.1048768274
 30
0.0
 40
0.5326888985751672
100
AcDbArc
 50
81.2696526042
 51
98.7303473958
  0
ARC
  5
19A
330
1F
100
AcDbEntity
  8
0
  6
Continuous
 62
     7
370
    25
100
AcDbCircle
 10
33.5735859089
 20
25.1048768274
 30
0.0
 40
0.532688898575969
100
AcDbArc
 50
81.2696526042
 51
98.7303473958
  0
ARC
  5
19B
330
1F
100
AcDbEntity
  8
0
  6
Continuous
 62
     7
370
    25
100
AcDbCircle
 10
37.5042629249
 20
25.5562351542
 30
0.0
 40
0.5326888985765897
100
AcDbArc
 50
81.2696526042
 51
98.7303473958
  0
ARC
  5
19C
330
1F
100
AcDbEntity
  8
0
  6
Continuous
 62
     7
370
    25
100
AcDbCircle
 10
34.0960082396
 20
25.5562351542
 30
0.0
 40
0.5326888985749987
100
AcDbArc
 50
81.2696526042
 51
98.7303473958
  0
LWPOLYLINE
  5
19D
330
1F
100
AcDbEntity
  8
0
  6
Continuous
 62
     7
370
    25
100
AcDbPolyline
 90
       28
 70
   128
 43
0.0
 10
34.7339183651
 20
27.4804622836
 10
34.7238092504
 20
27.4834336034
 10
34.7145447024
 20
27.4833024544
 10
34.7066241754
 20
27.480075907
 10
34.7004746669
 20
27.4739279053
 10
34.6964276986
 20
27.4651898895
 10
34.6947014436
 20
27.4543329284
 10
34.6953889648
 20
27.4419423235
 10
34.6984531976
 20
27.4286860555
 10
34.7037289486
 20
27.4152787734
 10
34.7109318005
 20
27.4024432671
 10
34.7196734459
 20
27.3908715022
 10
34.7294826203
 20
27.3811873153
 10
34.7398305086
 20
27.3739127837
 10
34.7501592535
 20
27.3694400791
 10
34.7599120296
 20
27.3680103262
 10
34.7685630623
 20
27.3697006035
 10
34.7756459722
 20
27.3744197874
 10
34.7807789177
 20
27.3819134658
 10
34.7836851804
 20
27.3917776524
 10
34.784208083
 20
27.4034805663
 10
34.7823194357
 20
27.4163913005
 10
34.7781210559
 20
27.4298138339
 10
34.7718392793
 20
27.4430245542
 10
34.7638127581
 20
27.4553112682
 10
34.7544742043
 20
27.4660115959
 10
34.7443270616
 20
27.4745486798
 10
34.7339183651
 20
27.4804622836
  0
LINE
  5
19E
330
1F
100
AcDbEntity
  8
0
  6
Continuous
 62
     7
370
    25
100
AcDbLine
 10
34.7140845289
 20
27.4183513008
 30
0.0
 11
34.7434226062
 21
27.3871182243
 31
0.0
  0
LINE
  5
19F
330
1F
100
AcDbEntity
  8
0
  6
Continuous
 62
     7
370
    25
100
AcDbLine
 10
34.7688134877
 20
27.3946517644
 30
0.0
 11
34.7434226062
 21
27.3871182243
 31
0.0
  0
LINE
  5
1A0
330
1F
100
AcDbEntity
  8
0
  6
Continuous
 62
     7
370
    25
100
AcDbLine
 10
34.764866292
 20
27.4334183811
 30
0.0
 11
34.7688134877
 21
27.3946517644
 31
0.0
  0
LINE
  5
1A1
330
1F
100
AcDbEntity
  8
0
  6
Continuous
 62
     7
370
    25
100
AcDbLine
 10
34.764866292
 20
27.4334183811
 30
0.0
 11
34.7355282148
 21
27.4646514576
 31
0.0
  0
LINE
  5
1A2
330
1F
100
AcDbEntity
  8
0
  6
Continuous
 62
     7
370
    25
100
AcDbLine
 10
34.7101373332
 20
27.4571179175
 30
0.0
 11
34.7355282148
 21
27.4646514576
 31
0.0
  0
LINE
  5
1A3
330
1F
100
AcDbEntity
  8
0
  6
Continuous
 62
     7
370
    25
100
AcDbLine
 10
34.7101373332
 20
27.4571179175
 30
0.0
 11
34.7140845289
 21
27.4183513008
 31
0.0
  0
LINE
  5
1A4
330
1F
100
AcDbEntity
  8
0
  6
Continuous
 62
     7
370
    25
100
AcDbLine
 10
34.7681283659
 20
27.4013805558
 30
0.0
 11
34.7434226062
 21
27.3871182243
 31
0.0
  0
LINE
  5
1A5
330
1F
100
AcDbEntity
  8
0
  6
Continuous
 62
     7
370
    25
100
AcDbLine
 10
34.7561880623
 20
27.4426571533
 30
0.0
 11
34.7140845289
 21
27.4183513008
 31
0.0
  0
LWPOLYLINE
  5
1A6
330
1F
100
AcDbEntity
  8
0
  6
Continuous
 62
     7
370
    25
100
AcDbPolyline
 90
       28
 70
   128
 43
0.0
 10
37.2469903019
 20
27.8610585433
 10
37.2432901091
 20
27.8502220518
 10
37.2398990492
 20
27.8374366662
 10
37.2369999351
 20
27.82339165
 10
37.2347490588
 20
27.8088441737
 10
37.2332677656
 20
27.7945784954
 10
37.2326359124
 20
27.7813636816
 10
37.2328875626
 20
27.7699121463
 10
37.2340091497
 20
27.7608412447
 10
37.2359402085
 20
27.7546399916
 10
37.2385766353
 20
27.7516426979
 10
37.2417762996
 20
27.7520109487
 10
37.2453667066
 20
27.7557248915
 10
37.2491542966
 20
27.7625843065
 10
37.2529348796
 20
27.772219401
 10
37.2565046435
 20
27.7841107446
 10
37.2596711412
 20
27.7976172718
 10
37.2622636661
 20
27.8120108422
 10
37.2641424546
 20
27.8265154948
 10
37.2652062206
 20
27.84034928
 10
37.2653976162
 20
27.8527664147
 10
37.2647063233
 20
27.8630974882
 10
37.2631696096
 20
27.8707855495
 10
37.2608703198
 20
27.8754161332
 10
37.2579324092
 20
27.8767396035
 10
37.2545142612
 20
27.8746846116
 10
37.2508001492
 20
27.8693619427
 10
37.2469903019
 20
27.8610585433
  0
LINE
  5
1A7
330
1F
100
AcDbEntity
  8
0
  6
Continuous
 62
     7
370
    25
100
AcDbLine
 10
37.239730614
 20
27.771856972
 30
0.0
 11
37.2504690956
 21
27.7806961119
 31
0.0
  0
LINE
  5
1A8
330
1F
100
AcDbEntity
  8
0
  6
Continuous
 62
     7
370
    25
100
AcDbLine
 10
37.2597628033
 20
27.8229104832
 30
0.0
 11
37.2504690956
 21
27.7806961119
 31
0.0
  0
LINE
  5
1A9
330
1F
100
AcDbEntity
  8
0
  6
Continuous
 62
     7
370
    25
100
AcDbLine
 10
37.2583180294
 20
27.8562857145
 30
0.0
 11
37.2597628033
 21
27.8229104832
 31
0.0
  0
LINE
  5
1AA
330
1F
100
AcDbEntity
  8
0
  6
Continuous
 62
     7
370
    25
100
AcDbLine
 10
37.2583180294
 20
27.8562857145
 30
0.0
 11
37.2475795478
 21
27.8474465745
 31
0.0
  0
LINE
  5
1AB
330
1F
100
AcDbEntity
  8
0
  6
Continuous
 62
     7
370
    25
100
AcDbLine
 10
37.2382858401
 20
27.8052322033
 30
0.0
 11
37.2475795478
 21
27.8474465745
 31
0.0
  0
LINE
  5
1AC
330
1F
100
AcDbEntity
  8
0
  6
Continuous
 62
     7
370
    25
100
AcDbLine
 10
37.2382858401
 20
27.8052322033
 30
0.0
 11
37.239730614
 21
27.771856972
 31
0.0
  0
LINE
  5
1AD
330
1F
100
AcDbEntity
  8
0
  6
Continuous
 62
     7
370
    25
100
AcDbLine
 10
37.2392730083
 20
27.782427965
 30
0.0
 11
37.2504690956
 21
27.7806961119
 31
0.0
  0
LINE
  5
1AE
330
1F
100
AcDbEntity
  8
0
  6
Continuous
 62
     7
370
    25
100
AcDbLine
 10
37.2427569281
 20
27.8255410162
 30
0.0
 11
37.2597628033
 21
27.8229104832
 31
0.0
  0
ARC
  5
1AF
330
1F
100
AcDbEntity
  8
0
  6
Continuous
 62
     7
370
    25
100
AcDbCircle
 10
36.6241991286
 20
26.9113502048
 30
0.0
 40
0.3079013188588896
100
AcDbArc
 50
340.7906286186
 51
354.0775572888
  0
ARC
  5
1B0
330
1F
100
AcDbEntity
  8
0
  6
Continuous
 62
     7
370
    25
100
AcDbCircle
 10
36.8785942598
 20
26.6523886892
 30
0.0
 40
0.2330359762526955
100
AcDbArc
 50
77.1409974323
 51
82.7676862359
  0
ARC
  5
1B1
330
1F
100
AcDbEntity
  8
0
  6
Continuous
 62
     7
370
    25
100
AcDbCircle
 10
36.5604736816
 20
26.932523801
 30
0.0
 40
0.3508896687103753
100
AcDbArc
 50
340.3127942646
 51
351.9804104323
  0
ARC
  5
1B2
330
1F
100
AcDbEntity
  8
0
  6
Continuous
 62
     7
370
    25
100
AcDbCircle
 10
37.0844357603
 20
27.7607559765
 30
0.0
 40
0.9660363968333783
100
AcDbArc
 50
255.2439558905
 51
258.4402730809
  0
ARC
  5
1B3
330
1F
100
AcDbEntity
  8
0
  6
Continuous
 62
     7
370
    25
100
AcDbCircle
 10
35.992979355
 20
27.1667322503
 30
0.0
 40
0.9112681990739501
100
AcDbArc
 50
335.7235374039
 51
338.0823805357
  0
ARC
  5
1B4
330
1F
100
AcDbEntity
  8
0
  6
Continuous
 62
     7
370
    25
100
AcDbCircle
 10
36.9875955108
 20
27.2688138206
 30
0.0
 40
0.5041370307873165
100
AcDbArc
 50
251.0242318882
 51
257.1066631661
  0
ARC
  5
1B5
330
1F
100
AcDbEntity
  8
0
  6
Continuous
 62
     7
370
    25
100
AcDbCircle
 10
36.6020206192
 20
26.9128372893
 30
0.0
 40
0.3048297521305128
100
AcDbArc
 50
320.8008072543
 51
333.6185200303
  0
ARC
  5
1B6
330
1F
100
AcDbEntity
  8
0
  6
Continuous
 62
     7
370
    25
100
AcDbCircle
 10
36.8685680247
 20
26.8257544289
 30
0.0
 40
0.1098422798278675
100
AcDbArc
 50
253.9772517196
 51
265.9314319486
  0
ARC
  5
1B7
330
1F
100
AcDbEntity
  8
0
  6
Continuous
 62
     7
370
    25
100
AcDbCircle
 10
36.6529350154
 20
26.8979467034
 30
0.0
 40
0.2761036109994789
100
AcDbArc
 50
318.8300008082
 51
333.1208283791
  0
ARC
  5
1B8
330
1F
100
AcDbEntity
  8
0
  6
Continuous
 62
     7
370
    25
100
AcDbCircle
 10
36.9145723482
 20
26.8708115529
 30
0.0
 40
0.0988948386444401
100
AcDbArc
 50
261.0628417551
 51
279.1649339756
  0
ARC
  5
1B9
330
1F
100
AcDbEntity
  8
0
  6
Continuous
 62
     7
370
    25
100
AcDbCircle
 10
36.7157180503
 20
26.885094803
 30
0.0
 40
0.2420347552454068
100
AcDbArc
 50
332.4582580082
 51
341.3476599314
  0
ARC
  5
1BA
330
1F
100
AcDbEntity
  8
0
  6
Continuous
 62
     7
370
    25
100
AcDbCircle
 10
36.9430502931
 20
26.9753651109
 30
0.0
 40
0.1676908745467511
100
AcDbArc
 50
260.3558482822
 51
270.6799610413
  0
LINE
  5
1BB
330
1F
100
AcDbEntity
  8
0
  6
Continuous
 62
     7
370
    25
100
AcDbLine
 10
36.9520645838
 20
26.7974705787
 30
0.0
 11
36.9549131718
 21
26.8044326245
 31
0.0
  0
ARC
  5
1BC
330
1F
100
AcDbEntity
  8
0
  6
Continuous
 62
     7
370
    25
100
AcDbCircle
 10
36.7654010597
 20
26.8506282187
 30
0.0
 40
0.1887166966961147
100
AcDbArc
 50
295.7540660202
 51
322.78831324
  0
LINE
  5
1BD
330
1F
100
AcDbEntity
  8
0
  6
Continuous
 62
     7
370
    25
100
AcDbLine
 10
36.932327845
 20
26.9580863859
 30
0.0
 11
36.9314450942
 21
26.9585849321
 31
0.0
  0
LWPOLYLINE
  5
1BE
330
1F
100
AcDbEntity
  8
0
  6
Continuous
 62
     7
370
    25
100
AcDbPolyline
 90
       24
 70
   128
 43
0.0
 10
36.8953272712
 20
26.9794463625
 10
36.8900300219
 20
26.9821260868
 10
36.8771002266
 20
26.9860149522
 10
36.8629028668
 20
26.9869316286
 10
36.8477269597
 20
26.9848574551
 10
36.8318814429
 20
26.979834656
 10
36.8156888856
 20
26.9719654809
 10
36.7994789214
 20
26.9614101236
 10
36.7835815386
 20
26.9483834606
 10
36.768320362
 20
26.9331506773
 10
36.7540060651
 20
26.9160218692
 10
36.7409300457
 20
26.8973457295
 10
36.729358494
 20
26.8775024504
 10
36.7195269732
 20
26.856895984
 10
36.7116356248
 20
26.8359458184
 10
36.705845094
 20
26.8150784387
 10
36.7022732592
 20
26.7947186445
 10
36.7009928327
 20
26.7752809024
 10
36.7020298803
 20
26.757160909
 10
36.7053632906
 20
26.7407275349
 10
36.7109252051
 20
26.7263153163
 10
36.7186023992
 20
26.7142176444
 10
36.7282385874
 20
26.7046807929
 10
36.7343403553
 20
26.7005786288
  0
LINE
  5
1BF
330
1F
100
AcDbEntity
  8
0
  6
Continuous
 62
     7
370
    25
100
AcDbLine
 10
36.8318501461
 20
26.8107757362
 30
0.0
 11
36.8751040094
 21
26.777387521
 31
0.0
  0
LINE
  5
1C0
330
1F
100
AcDbEntity
  8
0
  6
Continuous
 62
     7
370
    25
100
AcDbLine
 10
36.9304570171
 20
26.8795802837
 30
0.0
 11
36.9061934913
 21
26.872518132
 31
0.0
  0
LINE
  5
1C1
330
1F
100
AcDbEntity
  8
0
  6
Continuous
 62
     7
370
    25
100
AcDbLine
 10
36.8926700357
 20
26.8195180646
 30
0.0
 11
36.9149572926
 21
26.8100441723
 31
0.0
  0
LINE
  5
1C2
330
1F
100
AcDbEntity
  8
0
  6
Continuous
 62
     7
370
    25
100
AcDbLine
 10
36.8607746879
 20
26.7161889675
 30
0.0
 11
36.8520632507
 21
26.7384565711
 31
0.0
  0
LINE
  5
1C3
330
1F
100
AcDbEntity
  8
0
  6
Continuous
 62
     7
370
    25
100
AcDbLine
 10
36.8992089283
 20
26.7731173646
 30
0.0
 11
36.8346381343
 21
26.8174206079
 31
0.0
  0
LINE
  5
1C4
330
1F
100
AcDbEntity
  8
0
  6
Continuous
 62
     7
370
    25
100
AcDbLine
 10
36.9303240227
 20
26.7731792127
 30
0.0
 11
36.8358213201
 21
26.8202852106
 31
0.0
  0
LINE
  5
1C5
330
1F
100
AcDbEntity
  8
0
  6
Continuous
 62
     7
370
    25
100
AcDbLine
 10
35.131919674
 20
25.7132200138
 30
0.0
 11
35.1389907418
 21
25.7173020543
 31
0.0
  0
LINE
  5
1C6
330
1F
100
AcDbEntity
  8
0
  6
Continuous
 62
     7
370
    25
100
AcDbLine
 10
35.131919674
 20
25.7132200138
 30
0.0
 11
35.131919674
 21
26.9380312316
 31
0.0
  0
LINE
  5
1C7
330
1F
100
AcDbEntity
  8
0
  6
Continuous
 62
     7
370
    25
100
AcDbLine
 10
35.131919674
 20
26.9380312316
 30
0.0
 11
35.1389907418
 21
26.9421132722
 31
0.0
  0
LINE
  5
1C8
330
1F
100
AcDbEntity
  8
0
  6
Continuous
 62
     7
370
    25
100
AcDbLine
 10
35.1389907418
 20
25.7173020543
 30
0.0
 11
35.1389907418
 21
26.9421132722
 31
0.0
  0
LINE
  5
1C9
330
1F
100
AcDbEntity
  8
0
  6
Continuous
 62
     7
370
    25
100
AcDbLine
 10
35.0379072411
 20
26.85078252
 30
0.0
 11
35.0813637991
 21
26.825695583
 31
0.0
  0
LINE
  5
1CA
330
1F
100
AcDbEntity
  8
0
  6
Continuous
 62
     7
370
    25
100
AcDbLine
 10
35.0379072411
 20
26.8842372061
 30
0.0
 11
35.0379072411
 21
26.85078252
 31
0.0
  0
LINE
  5
1CB
330
1F
100
AcDbEntity
  8
0
  6
Continuous
 62
     7
370
    25
100
AcDbLine
 10
35.0780209869
 20
26.8610800335
 30
0.0
 11
35.0379072411
 21
26.8842372061
 31
0.0
  0
LINE
  5
1CC
330
1F
100
AcDbEntity
  8
0
  6
Continuous
 62
     7
370
    25
100
AcDbLine
 10
35.0780209869
 20
26.8726605018
 30
0.0
 11
35.0780209869
 21
26.8610800335
 31
0.0
  0
LINE
  5
1CD
330
1F
100
AcDbEntity
  8
0
  6
Continuous
 62
     7
370
    25
100
AcDbLine
 10
35.0379072411
 20
26.8958176744
 30
0.0
 11
35.0780209869
 21
26.8726605018
 31
0.0
  0
LINE
  5
1CE
330
1F
100
AcDbEntity
  8
0
  6
Continuous
 62
     7
370
    25
100
AcDbLine
 10
35.0379072411
 20
26.9266989231
 30
0.0
 11
35.0379072411
 21
26.8958176744
 31
0.0
  0
LINE
  5
1CF
330
1F
100
AcDbEntity
  8
0
  6
Continuous
 62
     7
370
    25
100
AcDbLine
 10
35.0802495284
 20
26.902255241
 30
0.0
 11
35.0379072411
 21
26.9266989231
 31
0.0
  0
LINE
  5
1D0
330
1F
100
AcDbEntity
  8
0
  6
Continuous
 62
     7
370
    25
100
AcDbLine
 10
35.0802495284
 20
26.9138357093
 30
0.0
 11
35.0802495284
 21
26.902255241
 31
0.0
  0
LINE
  5
1D1
330
1F
100
AcDbEntity
  8
0
  6
Continuous
 62
     7
370
    25
100
AcDbLine
 10
35.0289930754
 20
26.9434254298
 30
0.0
 11
35.0802495284
 21
26.9138357093
 31
0.0
  0
LINE
  5
1D2
330
1F
100
AcDbEntity
  8
0
  6
Continuous
 62
     7
370
    25
100
AcDbLine
 10
35.0289930754
 20
26.84434809
 30
0.0
 11
35.0289930754
 21
26.9434254298
 31
0.0
  0
LINE
  5
1D3
330
1F
100
AcDbEntity
  8
0
  6
Continuous
 62
     7
370
    25
100
AcDbLine
 10
35.0813637991
 20
26.8141151147
 30
0.0
 11
35.0289930754
 21
26.84434809
 31
0.0
  0
LINE
  5
1D4
330
1F
100
AcDbEntity
  8
0
  6
Continuous
 62
     7
370
    25
100
AcDbLine
 10
35.0813637991
 20
26.825695583
 30
0.0
 11
35.0813637991
 21
26.8141151147
 31
0.0
  0
LINE
  5
1D5
330
1F
100
AcDbEntity
  8
0
  6
Continuous
 62
     7
370
    25
100
AcDbLine
 10
34.9308850207
 20
26.9305791945
 30
0.0
 11
34.9009041742
 21
26.9478867688
 31
0.0
  0
LINE
  5
1D6
330
1F
100
AcDbEntity
  8
0
  6
Continuous
 62
     7
370
    25
100
AcDbLine
 10
34.9383889376
 20
26.8966527454
 30
0.0
 11
34.9308850207
 21
26.9305791945
 31
0.0
  0
LINE
  5
1D7
330
1F
100
AcDbEntity
  8
0
  6
Continuous
 62
     7
370
    25
100
AcDbLine
 10
34.947651313
 20
26.89130569
 30
0.0
 11
34.9383889376
 21
26.8966527454
 31
0.0
  0
LINE
  5
1D8
330
1F
100
AcDbEntity
  8
0
  6
Continuous
 62
     7
370
    25
100
AcDbLine
 10
34.920229807
 20
27.0062131281
 30
0.0
 11
34.947651313
 21
26.89130569
 31
0.0
  0
LINE
  5
1D9
330
1F
100
AcDbEntity
  8
0
  6
Continuous
 62
     7
370
    25
100
AcDbLine
 10
34.9115419775
 20
27.0112285053
 30
0.0
 11
34.920229807
 21
27.0062131281
 31
0.0
  0
LINE
  5
1DA
330
1F
100
AcDbEntity
  8
0
  6
Continuous
 62
     7
370
    25
100
AcDbLine
 10
34.884137882
 20
26.9279712132
 30
0.0
 11
34.9115419775
 21
27.0112285053
 31
0.0
  0
LINE
  5
1DB
330
1F
100
AcDbEntity
  8
0
  6
Continuous
 62
     7
370
    25
100
AcDbLine
 10
34.8934176679
 20
26.9226141068
 30
0.0
 11
34.884137882
 21
26.9279712132
 31
0.0
  0
LINE
  5
1DC
330
1F
100
AcDbEntity
  8
0
  6
Continuous
 62
     7
370
    25
100
AcDbLine
 10
34.9009041742
 20
26.9478867688
 30
0.0
 11
34.8934176679
 21
26.9226141068
 31
0.0
  0
SPLINE
  5
1DD
330
1F
100
AcDbEntity
  8
0
  6
Continuous
 62
     7
370
    25
100
AcDbSpline
210
0.0
220
0.0
230
1.0
 70
     8
 71
     3
 72
     9
 73
     5
 74
     0
 42
0.00000001
 43
0.00000001
 40
0.0
 40
0.0
 40
0.0
 40
0.0
 40
0.5592944490097236
 40
0.9999999999999999
 40
0.9999999999999999
 40
0.9999999999999999
 40
0.9999999999999999
 10
34.7772201245584
 20
26.99998727034909
 30
0.0
 10
34.78160641747717
 20
26.99816814916386
 30
0.0
 10
34.7894489643262
 20
26.99491562057459
 30
0.0
 10
34.79561960233455
 20
26.99700686747194
 30
0.0
 10
34.79833903675799
 20
26.9979284915881
 30
0.0
  0
SPLINE
  5
1DE
330
1F
100
AcDbEntity
  8
0
  6
Continuous
 62
     7
370
    25
100
AcDbSpline
210
0.0
220
0.0
230
1.0
 70
     8
 71
     3
 72
    11
 73
     7
 74
     0
 42
0.00000001
 43
0.00000001
 40
0.0
 40
0.0
 40
0.0
 40
0.0
 40
0.2811479210678373
 40
0.560307678295692
 40
0.7800098757594315
 40
1.0
 40
1.0
 40
1.0
 40
1.0
 10
34.75042539588968
 20
27.05466024827897
 30
0.0
 10
34.7506241216302
 20
27.04925972154873
 30
0.0
 10
34.75102016780357
 20
27.03849685841852
 30
0.0
 10
34.75662534284957
 20
27.02154344086443
 30
0.0
 10
34.76641512768088
 20
27.00744264331466
 30
0.0
 10
34.77361688693988
 20
27.002473479335
 30
0.0
 10
34.7772201245584
 20
26.99998727034909
 30
0.0
  0
SPLINE
  5
1DF
330
1F
100
AcDbEntity
  8
0
  6
Continuous
 62
     7
370
    25
100
AcDbSpline
210
0.0
220
0.0
230
1.0
 70
     8
 71
     3
 72
    12
 73
     8
 74
     0
 42
0.00000001
 43
0.00000001
 40
0.0
 40
0.0
 40
0.0
 40
0.0
 40
0.1865803924717349
 40
0.3726487887473062
 40
0.5592349108679956
 40
0.7794037906267498
 40
1.0
 40
1.0
 40
1.0
 40
1.0
 10
34.7763321900801
 20
27.07898970457268
 30
0.0
 10
34.77331614295131
 20
27.08046517493759
 30
0.0
 10
34.76729232504387
 20
27.08341206682174
 30
0.0
 10
34.75937832021244
 20
27.08221914821395
 30
0.0
 10
34.75397546169783
 20
27.07610053255587
 30
0.0
 10
34.75084083543448
 20
27.0666909099279
 30
0.0
 10
34.75056396521482
 20
27.05867305997812
 30
0.0
 10
34.75042539588968
 20
27.05466024827897
 30
0.0
  0
SPLINE
  5
1E0
330
1F
100
AcDbEntity
  8
0
  6
Continuous
 62
     7
370
    25
100
AcDbSpline
210
0.0
220
0.0
230
1.0
 70
     8
 71
     3
 72
    11
 73
     7
 74
     0
 42
0.00000001
 43
0.00000001
 40
0.0
 40
0.0
 40
0.0
 40
0.0
 40
0.2808041604286829
 40
0.5593155177302143
 40
0.7795669277145763
 40
1.0
 40
1.0
 40
1.0
 40
1.0
 10
34.79722476604012
 20
27.04634117803383
 30
0.0
 10
34.79648564429272
 20
27.04992593663986
 30
0.0
 10
34.79501343582479
 20
27.05706618382353
 30
0.0
 10
34.789680144049
 20
27.06723549709717
 30
0.0
 10
34.78296536658567
 20
27.07462576430861
 30
0.0
 10
34.77854385647144
 20
27.07753465810924
 30
0.0
 10
34.7763321900801
 20
27.07898970457268
 30
0.0
  0
LINE
  5
1E1
330
1F
100
AcDbEntity
  8
0
  6
Continuous
 62
     7
370
    25
100
AcDbLine
 10
34.8061389318
 20
27.0437685771
 30
0.0
 11
34.797224766
 21
27.046341178
 31
0.0
  0
SPLINE
  5
1E2
330
1F
100
AcDbEntity
  8
0
  6
Continuous
 62
     7
370
    25
100
AcDbSpline
210
0.0
220
0.0
230
1.0
 70
     8
 71
     3
 72
    11
 73
     7
 74
     0
 42
0.00000001
 43
0.00000001
 40
0.0
 40
0.0
 40
0.0
 40
0.0
 40
0.2799164907506034
 40
0.5590819164376206
 40
0.7791640869332777
 40
1.0
 40
1.0
 40
1.0
 40
1.0
 10
34.7771678931185
 20
27.09008773175702
 30
0.0
 10
34.78116084930517
 20
27.08740368520046
 30
0.0
 10
34.78913604787636
 20
27.08204279385523
 30
0.0
 10
34.798600880613
 20
27.06889105321116
 30
0.0
 10
34.80394260816483
 20
27.05556944312752
 30
0.0
 10
34.80540599003417
 20
27.04770667952123
 30
0.0
 10
34.80613893178306
 20
27.04376857708235
 30
0.0
  0
SPLINE
  5
1E3
330
1F
100
AcDbEntity
  8
0
  6
Continuous
 62
     7
370
    25
100
AcDbSpline
210
0.0
220
0.0
230
1.0
 70
     8
 71
     3
 72
    11
 73
     7
 74
     0
 42
0.00000001
 43
0.00000001
 40
0.0
 40
0.0
 40
0.0
 40
0.0
 40
0.2808704908630572
 40
0.5607643858929037
 40
0.7800038250546885
 40
1.0
 40
1.0
 40
1.0
 40
1.0
 10
34.74151123014674
 20
27.05938408205318
 30
0.0
 10
34.74190273329987
 20
27.06608050686821
 30
0.0
 10
34.74268437833695
 20
27.07945007281135
 30
0.0
 10
34.75028832591317
 20
27.09280229564169
 30
0.0
 10
34.76296080720726
 20
27.0968270591314
 30
0.0
 10
34.77242676168416
 20
27.09233675291875
 30
0.0
 10
34.7771678931185
 20
27.09008773175702
 30
0.0
  0
SPLINE
  5
1E4
330
1F
100
AcDbEntity
  8
0
  6
Continuous
 62
     7
370
    25
100
AcDbSpline
210
0.0
220
0.0
230
1.0
 70
     8
 71
     3
 72
    12
 73
     8
 74
     0
 42
0.00000001
 43
0.00000001
 40
0.0
 40
0.0
 40
0.0
 40
0.0
 40
0.1866243975841801
 40
0.3730307715706501
 40
0.5595845494448439
 40
0.7795585864281538
 40
1.0
 40
1.0
 40
1.0
 40
1.0
 10
34.77775984943737
 20
26.98809522552919
 30
0.0
 10
34.77378268601067
 20
26.9907681738436
 30
0.0
 10
34.76583300547088
 20
26.99611094780563
 30
0.0
 10
34.75521602285849
 20
27.00930817245829
 30
0.0
 10
34.74711555548996
 20
27.02533107630332
 30
0.0
 10
34.74219129395607
 20
27.0427791271424
 30
0.0
 10
34.74173807840327
 20
27.05384518258565
 30
0.0
 10
34.74151123014674
 20
27.05938408205318
 30
0.0
  0
SPLINE
  5
1E5
330
1F
100
AcDbEntity
  8
0
  6
Continuous
 62
     7
370
    25
100
AcDbSpline
210
0.0
220
0.0
230
1.0
 70
     8
 71
     3
 72
     9
 73
     5
 74
     0
 42
0.00000001
 43
0.00000001
 40
0.0
 40
0.0
 40
0.0
 40
0.0
 40
0.5602350202430285
 40
1.0
 40
1.0
 40
1.0
 40
1.0
 10
34.80725320250093
 20
26.98624833485441
 30
0.0
 10
34.80241031214307
 20
26.98436951568653
 30
0.0
 10
34.79376592151615
 20
26.98101588890492
 30
0.0
 10
34.78264877927153
 20
26.98593289739159
 30
0.0
 10
34.77775984943737
 20
26.98809522552919
 30
0.0
  0
LINE
  5
1E6
330
1F
100
AcDbEntity
  8
0
  6
Continuous
 62
     7
370
    25
100
AcDbLine
 10
34.8072532025
 20
27.0225378231
 30
0.0
 11
34.8072532025
 21
26.9862483349
 31
0.0
  0
LINE
  5
1E7
330
1F
100
AcDbEntity
  8
0
  6
Continuous
 62
     7
370
    25
100
AcDbLine
 10
34.7771678931
 20
27.0399057025
 30
0.0
 11
34.8072532025
 21
27.0225378231
 31
0.0
  0
LINE
  5
1E8
330
1F
100
AcDbEntity
  8
0
  6
Continuous
 62
     7
370
    25
100
AcDbLine
 10
34.7771678931
 20
27.0283252343
 30
0.0
 11
34.7771678931
 21
27.0399057025
 31
0.0
  0
LINE
  5
1E9
330
1F
100
AcDbEntity
  8
0
  6
Continuous
 62
     7
370
    25
100
AcDbLine
 10
34.7983390368
 20
27.0161033932
 30
0.0
 11
34.7771678931
 21
27.0283252343
 31
0.0
  0
LINE
  5
1EA
330
1F
100
AcDbEntity
  8
0
  6
Continuous
 62
     7
370
    25
100
AcDbLine
 10
34.7983390368
 20
26.9979284916
 30
0.0
 11
34.7983390368
 21
27.0161033932
 31
0.0
  0
LINE
  5
1EB
330
1F
100
AcDbEntity
  8
0
  6
Continuous
 62
     7
370
    25
100
AcDbLine
 10
35.131919674
 20
26.9380312316
 30
0.0
 11
35.0629493117
 21
26.9778469743
 31
0.0
  0
LINE
  5
1EC
330
1F
100
AcDbEntity
  8
0
  6
Continuous
 62
     7
370
    25
100
AcDbLine
 10
34.4248128928
 20
26.1214240697
 30
0.0
 11
35.131919674
 21
25.7132200138
 31
0.0
  0
LINE
  5
1ED
330
1F
100
AcDbEntity
  8
0
  6
Continuous
 62
     7
370
    25
100
AcDbLine
 10
34.4248128928
 20
27.3462352875
 30
0.0
 11
34.4248128928
 21
26.1214240697
 31
0.0
  0
LINE
  5
1EE
330
1F
100
AcDbEntity
  8
0
  6
Continuous
 62
     7
370
    25
100
AcDbLine
 10
34.4937832551
 20
27.3064195449
 30
0.0
 11
34.4248128928
 21
27.3462352875
 31
0.0
  0
LINE
  5
1EF
330
1F
100
AcDbEntity
  8
0
  6
Continuous
 62
     7
370
    25
100
AcDbLine
 10
34.5933050618
 20
27.2177287382
 30
0.0
 11
34.5582792978
 21
27.1058786096
 31
0.0
  0
LINE
  5
1F0
330
1F
100
AcDbEntity
  8
0
  6
Continuous
 62
     7
370
    25
100
AcDbLine
 10
34.5582792978
 20
27.1058786096
 30
0.0
 11
34.6015895881
 21
27.112884511
 31
0.0
  0
LINE
  5
1F1
330
1F
100
AcDbEntity
  8
0
  6
Continuous
 62
     7
370
    25
100
AcDbLine
 10
34.6015895881
 20
27.112884511
 30
0.0
 11
34.6015895881
 21
26.1214406572
 31
0.0
  0
LINE
  5
1F2
330
1F
100
AcDbEntity
  8
0
  6
Continuous
 62
     7
370
    25
100
AcDbLine
 10
34.6015895881
 20
26.1214406572
 30
0.0
 11
34.6033573551
 21
26.1204201471
 31
0.0
  0
LINE
  5
1F3
330
1F
100
AcDbEntity
  8
0
  6
Continuous
 62
     7
370
    25
100
AcDbLine
 10
34.6033573551
 20
26.1204201471
 30
0.0
 11
34.6033573551
 21
27.1118640009
 31
0.0
  0
LINE
  5
1F4
330
1F
100
AcDbEntity
  8
0
  6
Continuous
 62
     7
370
    25
100
AcDbLine
 10
34.6033573551
 20
27.1118640009
 30
0.0
 11
34.6466676454
 21
27.0548531026
 31
0.0
  0
LINE
  5
1F5
330
1F
100
AcDbEntity
  8
0
  6
Continuous
 62
     7
370
    25
100
AcDbLine
 10
34.6466676454
 20
27.0548531026
 30
0.0
 11
34.6126017365
 21
27.2029697228
 31
0.0
  0
LINE
  5
1F6
330
1F
100
AcDbEntity
  8
0
  6
Continuous
 62
     7
370
    25
100
AcDbLine
 10
34.8409076603
 20
26.9966759247
 30
0.0
 11
34.8295386169
 21
27.0032391338
 31
0.0
  0
SPLINE
  5
1F7
330
1F
100
AcDbEntity
  8
0
  6
Continuous
 62
     7
370
    25
100
AcDbSpline
210
0.0
220
0.0
230
1.0
 70
     8
 71
     3
 72
    11
 73
     7
 74
     0
 42
0.00000001
 43
0.00000001
 40
0.0
 40
0.0
 40
0.0
 40
0.0
 40
0.2810087844510977
 40
0.5613673299368046
 40
0.7799358018621462
 40
1.0
 40
1.0
 40
1.0
 40
1.0
 10
34.86298414887428
 20
26.96137365194373
 30
0.0
 10
34.86156788457949
 20
26.9651753840031
 30
0.0
 10
34.85873863314809
 20
26.97277005112166
 30
0.0
 10
34.85436197395363
 20
26.98331840601969
 30
0.0
 10
34.84796882525235
 20
26.99244435547177
 30
0.0
 10
34.84326672661393
 20
26.99526219870368
 30
0.0
 10
34.84090766027653
 20
26.99667592470639
 30
0.0
  0
LINE
  5
1F8
330
1F
100
AcDbEntity
  8
0
  6
Continuous
 62
     7
370
    25
100
AcDbLine
 10
34.872890712
 20
26.9344640662
 30
0.0
 11
34.8629841489
 21
26.9613736519
 31
0.0
  0
LINE
  5
1F9
330
1F
100
AcDbEntity
  8
0
  6
Continuous
 62
     7
370
    25
100
AcDbLine
 10
34.8830236113
 20
26.928614468
 30
0.0
 11
34.872890712
 21
26.9344640662
 31
0.0
  0
LINE
  5
1FA
330
1F
100
AcDbEntity
  8
0
  6
Continuous
 62
     7
370
    25
100
AcDbLine
 10
34.8704706553
 20
26.9629425428
 30
0.0
 11
34.8830236113
 21
26.928614468
 31
0.0
  0
SPLINE
  5
1FB
330
1F
100
AcDbEntity
  8
0
  6
Continuous
 62
     7
370
    25
100
AcDbSpline
210
0.0
220
0.0
230
1.0
 70
     8
 71
     3
 72
     9
 73
     5
 74
     0
 42
0.00000001
 43
0.00000001
 40
0.0
 40
0.0
 40
0.0
 40
0.0
 40
0.5599729811100951
 40
1.0
 40
1.0
 40
1.0
 40
1.0
 10
34.86300155935425
 20
26.97994060228573
 30
0.0
 10
34.86455780900456
 20
26.9767996804541
 30
0.0
 10
34.8673369603258
 20
26.97119062084304
 30
0.0
 10
34.86951309653231
 20
26.96546289636561
 30
0.0
 10
34.87047065525995
 20
26.96294254283878
 30
0.0
  0
SPLINE
  5
1FC
330
1F
100
AcDbEntity
  8
0
  6
Continuous
 62
     7
370
    25
100
AcDbSpline
210
0.0
220
0.0
230
1.0
 70
     8
 71
     3
 72
     9
 73
     5
 74
     0
 42
0.00000001
 43
0.00000001
 40
0.0
 40
0.0
 40
0.0
 40
0.0
 40
0.5601468224864538
 40
1.0
 40
1.0
 40
1.0
 40
1.0
 10
34.85739538480497
 20
26.98780112328472
 30
0.0
 10
34.85853129116824
 20
26.98642314432388
 30
0.0
 10
34.86055916371463
 20
26.98396311258664
 30
0.0
 10
34.86225544475061
 20
26.98116941781017
 30
0.0
 10
34.86300155935425
 20
26.97994060228573
 30
0.0
  0
SPLINE
  5
1FD
330
1F
100
AcDbEntity
  8
0
  6
Continuous
 62
     7
370
    25
100
AcDbSpline
210
0.0
220
0.0
230
1.0
 70
     8
 71
     3
 72
    11
 73
     7
 74
     0
 42
0.00000001
 43
0.00000001
 40
0.0
 40
0.0
 40
0.0
 40
0.0
 40
0.280190184060832
 40
0.5591444930642836
 40
0.779313720732088
 40
1.0
 40
1.0
 40
1.0
 40
1.0
 10
34.87745225772659
 20
27.00360551928978
 30
0.0
 10
34.87722333007343
 20
27.00002644727196
 30
0.0
 10
34.87676648453118
 20
26.99288408996292
 30
0.0
 10
34.87178677641928
 20
26.98671286718253
 30
0.0
 10
34.86477501881644
 20
26.98546815975223
 30
0.0
 10
34.85985718541426
 20
26.98702286097024
 30
0.0
 10
34.85739538480497
 20
26.98780112328472
 30
0.0
  0
SPLINE
  5
1FE
330
1F
100
AcDbEntity
  8
0
  6
Continuous
 62
     7
370
    25
100
AcDbSpline
210
0.0
220
0.0
230
1.0
 70
     8
 71
     3
 72
    11
 73
     7
 74
     0
 42
0.00000001
 43
0.00000001
 40
0.0
 40
0.0
 40
0.0
 40
0.0
 40
0.2814723071154653
 40
0.5582297695646783
 40
0.7789098815581103
 40
1.0
 40
1.0
 40
1.0
 40
1.0
 10
34.85213741985503
 20
27.04552202649344
 30
0.0
 10
34.85590227745356
 20
27.04332886375526
 30
0.0
 10
34.86336892883112
 20
27.03897927518471
 30
0.0
 10
34.87256123604304
 20
27.02672173752694
 30
0.0
 10
34.87682276422113
 20
27.01408744347843
 30
0.0
 10
34.87724229676888
 20
27.00710165518672
 30
0.0
 10
34.87745225772659
 20
27.00360551928978
 30
0.0
  0
LINE
  5
1FF
330
1F
100
AcDbEntity
  8
0
  6
Continuous
 62
     7
370
    25
100
AcDbLine
 10
34.8206244511
 20
27.0637140761
 30
0.0
 11
34.8521374199
 21
27.0455220265
 31
0.0
  0
LINE
  5
200
330
1F
100
AcDbEntity
  8
0
  6
Continuous
 62
     7
370
    25
100
AcDbLine
 10
34.8206244511
 20
26.9646367364
 30
0.0
 11
34.8206244511
 21
27.0637140761
 31
0.0
  0
LINE
  5
201
330
1F
100
AcDbEntity
  8
0
  6
Continuous
 62
     7
370
    25
100
AcDbLine
 10
34.8295386169
 20
26.959490698
 30
0.0
 11
34.8206244511
 21
26.9646367364
 31
0.0
  0
LINE
  5
202
330
1F
100
AcDbEntity
  8
0
  6
Continuous
 62
     7
370
    25
100
AcDbLine
 10
34.8295386169
 20
27.0032391338
 30
0.0
 11
34.8295386169
 21
26.959490698
 31
0.0
  0
SPLINE
  5
203
330
1F
100
AcDbEntity
  8
0
  6
Continuous
 62
     7
370
    25
100
AcDbSpline
210
0.0
220
0.0
230
1.0
 70
     8
 71
     3
 72
    11
 73
     7
 74
     0
 42
0.00000001
 43
0.00000001
 40
0.0
 40
0.0
 40
0.0
 40
0.0
 40
0.2778011898571459
 40
0.5579871436851378
 40
0.7789065068349151
 40
1.0
 40
1.0
 40
1.0
 40
1.0
 10
34.99551272238066
 20
26.96092367298055
 30
0.0
 10
34.999483201385
 20
26.95600330193531
 30
0.0
 10
35.00745824367993
 20
26.94612032127992
 30
0.0
 10
35.01277482451806
 20
26.92919513487082
 30
0.0
 10
35.01532977543888
 20
26.91466994611933
 30
0.0
 10
35.01552445074378
 20
26.90632351263881
 30
0.0
 10
35.01562182674218
 20
26.90214865186878
 30
0.0
  0
SPLINE
  5
204
330
1F
100
AcDbEntity
  8
0
  6
Continuous
 62
     7
370
    25
100
AcDbSpline
210
0.0
220
0.0
230
1.0
 70
     8
 71
     3
 72
     9
 73
     5
 74
     0
 42
0.00000001
 43
0.00000001
 40
0.0
 40
0.0
 40
0.0
 40
0.0
 40
0.5603093479473545
 40
1.0
 40
1.0
 40
1.0
 40
1.0
 10
34.98186290608678
 20
26.97063309734754
 30
0.0
 10
34.98444716164169
 20
26.96912085530583
 30
0.0
 10
34.9890593558954
 20
26.96642191400269
 30
0.0
 10
34.99354182334496
 20
26.9626028706448
 30
0.0
 10
34.99551272238066
 20
26.96092367298055
 30
0.0
  0
LINE
  5
205
330
1F
100
AcDbEntity
  8
0
  6
Continuous
 62
     7
370
    25
100
AcDbLine
 10
34.9576797494
 20
26.9845937365
 30
0.0
 11
34.9818629061
 21
26.9706330973
 31
0.0
  0
LINE
  5
206
330
1F
100
AcDbEntity
  8
0
  6
Continuous
 62
     7
370
    25
100
AcDbLine
 10
34.9576797494
 20
26.8855163968
 30
0.0
 11
34.9576797494
 21
26.9845937365
 31
0.0
  0
LINE
  5
207
330
1F
100
AcDbEntity
  8
0
  6
Continuous
 62
     7
370
    25
100
AcDbLine
 10
34.9829771768
 20
26.8709125028
 30
0.0
 11
34.9576797494
 21
26.8855163968
 31
0.0
  0
SPLINE
  5
208
330
1F
100
AcDbEntity
  8
0
  6
Continuous
 62
     7
370
    25
100
AcDbSpline
210
0.0
220
0.0
230
1.0
 70
     8
 71
     3
 72
    13
 73
     9
 74
     0
 42
0.00000001
 43
0.00000001
 40
0.0
 40
0.0
 40
0.0
 40
0.0
 40
0.2503025260558163
 40
0.4999950649861615
 40
0.6250394381257606
 40
0.7497504082497483
 40
0.8747807481529081
 40
1.0
 40
1.0
 40
1.0
 40
1.0
 10
35.01562182674218
 20
26.90214865186878
 30
0.0
 10
35.01540502557389
 20
26.89632039934429
 30
0.0
 10
35.01497195158164
 20
26.88467809774367
 30
0.0
 10
35.01056443206756
 20
26.87296746241294
 30
0.0
 10
35.00460372910063
 20
26.86661643182608
 30
0.0
 10
34.99820760003546
 20
26.86501745519669
 30
0.0
 10
34.99069929163304
 20
26.86681179375157
 30
0.0
 10
34.98555251017246
 20
26.86954491206603
 30
0.0
 10
34.98297717680465
 20
26.87091250283073
 30
0.0
  0
LINE
  5
209
330
1F
100
AcDbEntity
  8
0
  6
Continuous
 62
     7
370
    25
100
AcDbLine
 10
34.4248128928
 20
27.3462352875
 30
0.0
 11
34.4318839606
 21
27.3503173281
 31
0.0
  0
LINE
  5
20A
330
1F
100
AcDbEntity
  8
0
  6
Continuous
 62
     7
370
    25
100
AcDbLine
 10
35.1389907418
 20
26.9421132722
 30
0.0
 11
35.0942860197
 21
26.9679207589
 31
0.0
  0
LINE
  5
20B
330
1F
100
AcDbEntity
  8
0
  6
Continuous
 62
     7
370
    25
100
AcDbLine
 10
34.4765886828
 20
27.3245098413
 30
0.0
 11
34.4318839606
 21
27.3503173281
 31
0.0
  0
LINE
  5
20C
330
1F
100
AcDbEntity
  8
0
  6
Continuous
 62
     7
370
    25
100
AcDbLine
 10
35.0325286093
 20
26.8463891103
 30
0.0
 11
35.0325286093
 21
26.9413844095
 31
0.0
  0
LINE
  5
20D
330
1F
100
AcDbEntity
  8
0
  6
Continuous
 62
     7
370
    25
100
AcDbLine
 10
35.0802495284
 20
26.9063372815
 30
0.0
 11
35.041442775
 21
26.9287399434
 31
0.0
  0
LINE
  5
20E
330
1F
100
AcDbEntity
  8
0
  6
Continuous
 62
     7
370
    25
100
AcDbLine
 10
35.0780209869
 20
26.8651620741
 30
0.0
 11
35.041442775
 21
26.8862782264
 31
0.0
  0
LINE
  5
20F
330
1F
100
AcDbEntity
  8
0
  6
Continuous
 62
     7
370
    25
100
AcDbLine
 10
35.0813637991
 20
26.8181971553
 30
0.0
 11
35.0325286093
 21
26.8463891103
 31
0.0
  0
LINE
  5
210
330
1F
100
AcDbEntity
  8
0
  6
Continuous
 62
     7
370
    25
100
AcDbLine
 10
35.041442775
 20
26.9287399434
 30
0.0
 11
35.0379072411
 21
26.9266989231
 31
0.0
  0
LINE
  5
211
330
1F
100
AcDbEntity
  8
0
  6
Continuous
 62
     7
370
    25
100
AcDbLine
 10
35.041442775
 20
26.8862782264
 30
0.0
 11
35.0379072411
 21
26.8842372061
 31
0.0
  0
LINE
  5
212
330
1F
100
AcDbEntity
  8
0
  6
Continuous
 62
     7
370
    25
100
AcDbLine
 10
35.0325286093
 20
26.8463891103
 30
0.0
 11
35.0289930754
 21
26.84434809
 31
0.0
  0
LINE
  5
213
330
1F
100
AcDbEntity
  8
0
  6
Continuous
 62
     7
370
    25
100
AcDbLine
 10
34.9612152833
 20
26.8875574171
 30
0.0
 11
34.9612152833
 21
26.9825527163
 31
0.0
  0
SPLINE
  5
214
330
1F
100
AcDbEntity
  8
0
  6
Continuous
 62
     7
370
    25
100
AcDbSpline
210
0.0
220
0.0
230
1.0
 70
     8
 71
     3
 72
    10
 73
     6
 74
     0
 42
0.00000001
 43
0.00000001
 40
0.0
 40
0.0
 40
0.0
 40
0.0
 40
0.3227518173778903
 40
0.6611202833554355
 40
1.0
 40
1.0
 40
1.0
 40
1.0
 10
35.00754084900758
 20
26.86911408357934
 30
0.0
 10
35.00563274364872
 20
26.86839756874265
 30
0.0
 10
35.00172420746829
 20
26.86692986982863
 30
0.0
 10
34.99421178568406
 20
26.8688923145816
 30
0.0
 10
34.98908036026269
 20
26.87159910582047
 30
0.0
 10
34.98651271071058
 20
26.87295352311029
 30
0.0
  0
LINE
  5
215
330
1F
100
AcDbEntity
  8
0
  6
Continuous
 62
     7
370
    25
100
AcDbLine
 10
34.9865127107
 20
26.8729535231
 30
0.0
 11
34.9612152833
 21
26.8875574171
 31
0.0
  0
SPLINE
  5
216
330
1F
100
AcDbEntity
  8
0
  6
Continuous
 62
     7
370
    25
100
AcDbSpline
210
0.0
220
0.0
230
1.0
 70
     8
 71
     3
 72
     9
 73
     5
 74
     0
 42
0.00000001
 43
0.00000001
 40
0.0
 40
0.0
 40
0.0
 40
0.0
 40
0.3336313636860082
 40
1.0
 40
1.0
 40
1.0
 40
1.0
 10
35.00196566295615
 20
26.8816819956205
 30
0.0
 10
35.00270681062292
 20
26.88201154768113
 30
0.0
 10
35.00492826743857
 20
26.88299932070401
 30
0.0
 10
35.00606995562909
 20
26.88554419394539
 30
0.0
 10
35.0068307408317
 20
26.88724001765685
 30
0.0
  0
SPLINE
  5
217
330
1F
100
AcDbEntity
  8
0
  6
Continuous
 62
     7
370
    25
100
AcDbSpline
210
0.0
220
0.0
230
1.0
 70
     8
 71
     3
 72
     9
 73
     5
 74
     0
 42
0.00000001
 43
0.00000001
 40
0.0
 40
0.0
 40
0.0
 40
0.0
 40
0.5595654112245828
 40
0.9999999999999999
 40
0.9999999999999999
 40
0.9999999999999999
 40
0.9999999999999999
 10
35.0068307408317
 20
26.88724001765685
 30
0.0
 10
35.00797449660165
 20
26.89100583519651
 30
0.0
 10
35.01001850387408
 20
26.89773573212029
 30
0.0
 10
35.0101744922354
 20
26.90588654530125
 30
0.0
 10
35.01024319490516
 20
26.90947644535279
 30
0.0
  0
SPLINE
  5
218
330
1F
100
AcDbEntity
  8
0
  6
Continuous
 62
     7
370
    25
100
AcDbSpline
210
0.0
220
0.0
230
1.0
 70
     8
 71
     3
 72
    11
 73
     7
 74
     0
 42
0.00000001
 43
0.00000001
 40
0.0
 40
0.0
 40
0.0
 40
0.0
 40
0.2807802146626214
 40
0.5610535202318992
 40
0.7811877642474158
 40
1.0
 40
1.0
 40
1.0
 40
1.0
 10
35.01024319490516
 20
26.90947644535279
 30
0.0
 10
35.01015684519275
 20
26.91330396683735
 30
0.0
 10
35.00998430166015
 20
26.92095209975601
 30
0.0
 10
35.00783481096141
 20
26.93243890809886
 30
0.0
 10
35.00379674875243
 20
26.94355893944644
 30
0.0
 10
34.9994776593882
 20
26.94935114467723
 30
0.0
 10
34.99732461876989
 20
26.95223852488166
 30
0.0
  0
SPLINE
  5
219
330
1F
100
AcDbEntity
  8
0
  6
Continuous
 62
     7
370
    25
100
AcDbSpline
210
0.0
220
0.0
230
1.0
 70
     8
 71
     3
 72
     9
 73
     5
 74
     0
 42
0.00000001
 43
0.00000001
 40
0.0
 40
0.0
 40
0.0
 40
0.0
 40
0.5590457952192182
 40
1.0
 40
1.0
 40
1.0
 40
1.0
 10
34.99732461876989
 20
26.95223852488166
 30
0.0
 10
34.99510051765081
 20
26.95422048087994
 30
0.0
 10
34.99112212958655
 20
26.95776572889939
 30
0.0
 10
34.98700498600645
 20
26.96015895604752
 30
0.0
 10
34.98518951423311
 20
26.96121425962148
 30
0.0
  0
LINE
  5
21A
330
1F
100
AcDbEntity
  8
0
  6
Continuous
 62
     7
370
    25
100
AcDbLine
 10
34.9851895142
 20
26.9612142596
 30
0.0
 11
34.9701294491
 21
26.9699082502
 31
0.0
  0
SPLINE
  5
21B
330
1F
100
AcDbEntity
  8
0
  6
Continuous
 62
     7
370
    25
100
AcDbSpline
210
0.0
220
0.0
230
1.0
 70
     8
 71
     3
 72
     9
 73
     5
 74
     0
 42
0.00000001
 43
0.00000001
 40
0.0
 40
0.0
 40
0.0
 40
0.0
 40
0.5590457952192186
 40
1.0
 40
1.0
 40
1.0
 40
1.0
 10
34.99378908486396
 20
26.95019750460211
 30
0.0
 10
34.99156498374488
 20
26.95217946060039
 30
0.0
 10
34.98758659568062
 20
26.95572470861983
 30
0.0
 10
34.98346945210051
 20
26.95811793576796
 30
0.0
 10
34.98165398032718
 20
26.95917323934193
 30
0.0
  0
SPLINE
  5
21C
330
1F
100
AcDbEntity
  8
0
  6
Continuous
 62
     7
370
    25
100
AcDbSpline
210
0.0
220
0.0
230
1.0
 70
     8
 71
     3
 72
    11
 73
     7
 74
     0
 42
0.00000001
 43
0.00000001
 40
0.0
 40
0.0
 40
0.0
 40
0.0
 40
0.2807802146626214
 40
0.5610535202318992
 40
0.7811877642474158
 40
1.0
 40
1.0
 40
1.0
 40
1.0
 10
35.00670766099924
 20
26.90743542507323
 30
0.0
 10
35.00662131128682
 20
26.91126294655779
 30
0.0
 10
35.00644876775422
 20
26.91891107947646
 30
0.0
 10
35.00429927705548
 20
26.93039788781931
 30
0.0
 10
35.0002612148465
 20
26.94151791916689
 30
0.0
 10
34.99594212548227
 20
26.94731012439768
 30
0.0
 10
34.99378908486396
 20
26.95019750460211
 30
0.0
  0
SPLINE
  5
21D
330
1F
100
AcDbEntity
  8
0
  6
Continuous
 62
     7
370
    25
100
AcDbSpline
210
0.0
220
0.0
230
1.0
 70
     8
 71
     3
 72
     9
 73
     5
 74
     0
 42
0.00000001
 43
0.00000001
 40
0.0
 40
0.0
 40
0.0
 40
0.0
 40
0.5595654112245828
 40
0.9999999999999999
 40
0.9999999999999999
 40
0.9999999999999999
 40
0.9999999999999999
 10
35.00329520692577
 20
26.88519899737729
 30
0.0
 10
35.00443896269572
 20
26.88896481491695
 30
0.0
 10
35.00648296996815
 20
26.89569471184074
 30
0.0
 10
35.00663895832947
 20
26.90384552502169
 30
0.0
 10
35.00670766099924
 20
26.90743542507323
 30
0.0
  0
SPLINE
  5
21E
330
1F
100
AcDbEntity
  8
0
  6
Continuous
 62
     7
370
    25
100
AcDbSpline
210
0.0
220
0.0
230
1.0
 70
     8
 71
     3
 72
    11
 73
     7
 74
     0
 42
0.00000001
 43
0.00000001
 40
0.0
 40
0.0
 40
0.0
 40
0.0
 40
0.2807474483783151
 40
0.5599995389819451
 40
0.7797085369030107
 40
1.0
 40
1.0
 40
1.0
 40
1.0
 10
34.98189772704671
 20
26.88311612419117
 30
0.0
 10
34.98439392498577
 20
26.88177316180363
 30
0.0
 10
34.9893730252524
 20
26.87909439010959
 30
0.0
 10
34.99617283140724
 20
26.87773655021955
 30
0.0
 10
35.00084164152974
 20
26.88042058136254
 30
0.0
 10
35.00247663033691
 20
26.88360478697318
 30
0.0
 10
35.00329520692577
 20
26.88519899737729
 30
0.0
  0
LINE
  5
21F
330
1F
100
AcDbEntity
  8
0
  6
Continuous
 62
     7
370
    25
100
AcDbLine
 10
34.9665939152
 20
26.8919508267
 30
0.0
 11
34.981897727
 21
26.8831161242
 31
0.0
  0
LINE
  5
220
330
1F
100
AcDbEntity
  8
0
  6
Continuous
 62
     7
370
    25
100
AcDbLine
 10
34.9665939152
 20
26.9678672299
 30
0.0
 11
34.9665939152
 21
26.8919508267
 31
0.0
  0
LINE
  5
221
330
1F
100
AcDbEntity
  8
0
  6
Continuous
 62
     7
370
    25
100
AcDbLine
 10
34.9816539803
 20
26.9591732393
 30
0.0
 11
34.9665939152
 21
26.9678672299
 31
0.0
  0
LINE
  5
222
330
1F
100
AcDbEntity
  8
0
  6
Continuous
 62
     7
370
    25
100
AcDbLine
 10
34.9973246188
 20
26.9522385249
 30
0.0
 11
34.9937890849
 21
26.9501975046
 31
0.0
  0
LINE
  5
223
330
1F
100
AcDbEntity
  8
0
  6
Continuous
 62
     7
370
    25
100
AcDbLine
 10
35.0102431949
 20
26.9094764454
 30
0.0
 11
35.006707661
 21
26.9074354251
 31
0.0
  0
LINE
  5
224
330
1F
100
AcDbEntity
  8
0
  6
Continuous
 62
     7
370
    25
100
AcDbLine
 10
34.9851895142
 20
26.9612142596
 30
0.0
 11
34.9816539803
 21
26.9591732393
 31
0.0
  0
LINE
  5
225
330
1F
100
AcDbEntity
  8
0
  6
Continuous
 62
     7
370
    25
100
AcDbLine
 10
34.9865127107
 20
26.8729535231
 30
0.0
 11
34.9829771768
 21
26.8709125028
 31
0.0
  0
LINE
  5
226
330
1F
100
AcDbEntity
  8
0
  6
Continuous
 62
     7
370
    25
100
AcDbLine
 10
34.9701294491
 20
26.9699082502
 30
0.0
 11
34.9665939152
 21
26.9678672299
 31
0.0
  0
LINE
  5
227
330
1F
100
AcDbEntity
  8
0
  6
Continuous
 62
     7
370
    25
100
AcDbLine
 10
35.0068307408
 20
26.8872400177
 30
0.0
 11
35.0032952069
 21
26.8851989974
 31
0.0
  0
LINE
  5
228
330
1F
100
AcDbEntity
  8
0
  6
Continuous
 62
     7
370
    25
100
AcDbLine
 10
34.9612152833
 20
26.8875574171
 30
0.0
 11
34.9576797494
 21
26.8855163968
 31
0.0
  0
LINE
  5
229
330
1F
100
AcDbEntity
  8
0
  6
Continuous
 62
     7
370
    25
100
AcDbLine
 10
34.8876734159
 20
26.9300122335
 30
0.0
 11
34.9139484477
 21
27.0098392797
 31
0.0
  0
LINE
  5
22A
330
1F
100
AcDbEntity
  8
0
  6
Continuous
 62
     7
370
    25
100
AcDbLine
 10
34.9465215319
 20
26.8960399392
 30
0.0
 11
34.9419244715
 21
26.8986937657
 31
0.0
  0
LINE
  5
22B
330
1F
100
AcDbEntity
  8
0
  6
Continuous
 62
     7
370
    25
100
AcDbLine
 10
34.9419244715
 20
26.8986937657
 30
0.0
 11
34.9344205547
 21
26.9326202147
 31
0.0
  0
LINE
  5
22C
330
1F
100
AcDbEntity
  8
0
  6
Continuous
 62
     7
370
    25
100
AcDbLine
 10
34.9344205547
 20
26.9326202147
 30
0.0
 11
34.9044397081
 21
26.949927789
 31
0.0
  0
LINE
  5
22D
330
1F
100
AcDbEntity
  8
0
  6
Continuous
 62
     7
370
    25
100
AcDbLine
 10
34.8944502986
 20
26.9261000223
 30
0.0
 11
34.8876734159
 21
26.9300122335
 31
0.0
  0
LINE
  5
22E
330
1F
100
AcDbEntity
  8
0
  6
Continuous
 62
     7
370
    25
100
AcDbLine
 10
34.9314781835
 20
26.9458992777
 30
0.0
 11
34.9243050658
 21
26.9772623729
 31
0.0
  0
SPLINE
  5
22F
330
1F
100
AcDbEntity
  8
0
  6
Continuous
 62
     7
370
    25
100
AcDbSpline
210
0.0
220
0.0
230
1.0
 70
     8
 71
     3
 72
     9
 73
     5
 74
     0
 42
0.00000001
 43
0.00000001
 40
0.0
 40
0.0
 40
0.0
 40
0.0
 40
0.5600121541624279
 40
1.0
 40
1.0
 40
1.0
 40
1.0
 10
34.92430506578962
 20
26.97726237289593
 30
0.0
 10
34.92331710951267
 20
26.98160981902065
 30
0.0
 10
34.92155294016455
 20
26.98937294718207
 30
0.0
 10
34.92007875496797
 20
26.99706051888898
 30
0.0
 10
34.91943013139895
 20
27.00044295700403
 30
0.0
  0
SPLINE
  5
230
330
1F
100
AcDbEntity
  8
0
  6
Continuous
 62
     7
370
    25
100
AcDbSpline
210
0.0
220
0.0
230
1.0
 70
     8
 71
     3
 72
     9
 73
     5
 74
     0
 42
0.00000001
 43
0.00000001
 40
0.0
 40
0.0
 40
0.0
 40
0.0
 40
0.5600121541624279
 40
1.0
 40
1.0
 40
1.0
 40
1.0
 10
34.9207695318837
 20
26.97522135261637
 30
0.0
 10
34.91978157560674
 20
26.97956879874109
 30
0.0
 10
34.91801740625861
 20
26.98733192690252
 30
0.0
 10
34.91654322106204
 20
26.99501949860942
 30
0.0
 10
34.91589459749302
 20
26.99840193672447
 30
0.0
  0
LINE
  5
231
330
1F
100
AcDbEntity
  8
0
  6
Continuous
 62
     7
370
    25
100
AcDbLine
 10
34.9279426496
 20
26.9438582574
 30
0.0
 11
34.9207695319
 21
26.9752213526
 31
0.0
  0
LINE
  5
232
330
1F
100
AcDbEntity
  8
0
  6
Continuous
 62
     7
370
    25
100
AcDbLine
 10
34.9038291349
 20
26.9577786932
 30
0.0
 11
34.9279426496
 21
26.9438582574
 31
0.0
  0
LINE
  5
233
330
1F
100
AcDbEntity
  8
0
  6
Continuous
 62
     7
370
    25
100
AcDbLine
 10
34.9119075976
 20
26.9819456368
 30
0.0
 11
34.9038291349
 21
26.9577786932
 31
0.0
  0
SPLINE
  5
234
330
1F
100
AcDbEntity
  8
0
  6
Continuous
 62
     7
370
    25
100
AcDbSpline
210
0.0
220
0.0
230
1.0
 70
     8
 71
     3
 72
     9
 73
     5
 74
     0
 42
0.00000001
 43
0.00000001
 40
0.0
 40
0.0
 40
0.0
 40
0.0
 40
0.5599894472996296
 40
1.0
 40
1.0
 40
1.0
 40
1.0
 10
34.91589459749302
 20
26.99840193672447
 30
0.0
 10
34.91530007427517
 20
26.99520054456615
 30
0.0
 10
34.91423840566566
 20
26.98948366512536
 30
0.0
 10
34.91261980080153
 20
26.98424896157109
 30
0.0
 10
34.91190759758066
 20
26.98194563676696
 30
0.0
  0
LINE
  5
235
330
1F
100
AcDbEntity
  8
0
  6
Continuous
 62
     7
370
    25
100
AcDbLine
 10
34.9194301314
 20
27.000442957
 30
0.0
 11
34.9158945975
 21
26.9984019367
 31
0.0
  0
LINE
  5
236
330
1F
100
AcDbEntity
  8
0
  6
Continuous
 62
     7
370
    25
100
AcDbLine
 10
34.9243050658
 20
26.9772623729
 30
0.0
 11
34.9207695319
 21
26.9752213526
 31
0.0
  0
LINE
  5
237
330
1F
100
AcDbEntity
  8
0
  6
Continuous
 62
     7
370
    25
100
AcDbLine
 10
34.8876734159
 20
26.9300122335
 30
0.0
 11
34.884137882
 21
26.9279712132
 31
0.0
  0
LINE
  5
238
330
1F
100
AcDbEntity
  8
0
  6
Continuous
 62
     7
370
    25
100
AcDbLine
 10
34.9314781835
 20
26.9458992777
 30
0.0
 11
34.9279426496
 21
26.9438582574
 31
0.0
  0
LINE
  5
239
330
1F
100
AcDbEntity
  8
0
  6
Continuous
 62
     7
370
    25
100
AcDbLine
 10
34.824159985
 20
26.9666777567
 30
0.0
 11
34.824159985
 21
27.0616730558
 31
0.0
  0
SPLINE
  5
23A
330
1F
100
AcDbEntity
  8
0
  6
Continuous
 62
     7
370
    25
100
AcDbSpline
210
0.0
220
0.0
230
1.0
 70
     8
 71
     3
 72
    10
 73
     6
 74
     0
 42
0.00000001
 43
0.00000001
 40
0.0
 40
0.0
 40
0.0
 40
0.0
 40
0.0243710161130876
 40
0.5116133812266712
 40
1.0
 40
1.0
 40
1.0
 40
1.0
 10
34.87462531899762
 20
26.98950355664534
 30
0.0
 10
34.87455918552114
 20
26.9894187573288
 30
0.0
 10
34.87317086542171
 20
26.98763859088619
 30
0.0
 10
34.86812029467629
 20
26.98777965377834
 30
0.0
 10
34.86332925040385
 20
26.98915410963145
 30
0.0
 10
34.86093091871091
 20
26.98984214356427
 30
0.0
  0
LINE
  5
23B
330
1F
100
AcDbEntity
  8
0
  6
Continuous
 62
     7
370
    25
100
AcDbLine
 10
34.8811314764
 20
26.9337888147
 30
0.0
 11
34.8764262459
 21
26.9365050865
 31
0.0
  0
LINE
  5
23C
330
1F
100
AcDbEntity
  8
0
  6
Continuous
 62
     7
370
    25
100
AcDbLine
 10
34.8764262459
 20
26.9365050865
 30
0.0
 11
34.8665196828
 21
26.9634146722
 31
0.0
  0
SPLINE
  5
23D
330
1F
100
AcDbEntity
  8
0
  6
Continuous
 62
     7
370
    25
100
AcDbSpline
210
0.0
220
0.0
230
1.0
 70
     8
 71
     3
 72
    11
 73
     7
 74
     0
 42
0.00000001
 43
0.00000001
 40
0.0
 40
0.0
 40
0.0
 40
0.0
 40
0.2810087844510976
 40
0.5613673299368046
 40
0.7799358018621462
 40
1.0
 40
1.0
 40
1.0
 40
1.0
 10
34.86651968278021
 20
26.96341467222329
 30
0.0
 10
34.86510341848543
 20
26.96721640428265
 30
0.0
 10
34.86227416705402
 20
26.97481107140122
 30
0.0
 10
34.85789750785955
 20
26.98535942629924
 30
0.0
 10
34.85150435915828
 20
26.99448537575132
 30
0.0
 10
34.84680226051986
 20
26.99730321898323
 30
0.0
 10
34.84444319418245
 20
26.99871694498595
 30
0.0
  0
LINE
  5
23E
330
1F
100
AcDbEntity
  8
0
  6
Continuous
 62
     7
370
    25
100
AcDbLine
 10
34.8444431942
 20
26.998716945
 30
0.0
 11
34.8330741508
 21
27.005280154
 31
0.0
  0
LINE
  5
23F
330
1F
100
AcDbEntity
  8
0
  6
Continuous
 62
     7
370
    25
100
AcDbLine
 10
34.8295386169
 20
26.9635727386
 30
0.0
 11
34.824159985
 21
26.9666777567
 31
0.0
  0
SPLINE
  5
240
330
1F
100
AcDbEntity
  8
0
  6
Continuous
 62
     7
370
    25
100
AcDbSpline
210
0.0
220
0.0
230
1.0
 70
     8
 71
     3
 72
     9
 73
     5
 74
     0
 42
0.00000001
 43
0.00000001
 40
0.0
 40
0.0
 40
0.0
 40
0.0
 40
0.4784316544495085
 40
0.9999999999999999
 40
0.9999999999999999
 40
0.9999999999999999
 40
0.9999999999999999
 10
34.86808521040097
 20
27.00147964001394
 30
0.0
 10
34.86923921122559
 20
27.00241140493846
 30
0.0
 10
34.87165126070829
 20
27.00435894523153
 30
0.0
 10
34.87192884612371
 20
27.00854759555696
 30
0.0
 10
34.87207362588958
 20
27.01073226297728
 30
0.0
  0
SPLINE
  5
241
330
1F
100
AcDbEntity
  8
0
  6
Continuous
 62
     7
370
    25
100
AcDbSpline
210
0.0
220
0.0
230
1.0
 70
     8
 71
     3
 72
    11
 73
     7
 74
     0
 42
0.00000001
 43
0.00000001
 40
0.0
 40
0.0
 40
0.0
 40
0.0
 40
0.2798157723866458
 40
0.5582434525783392
 40
0.7787575721023097
 40
0.9999999999999999
 40
0.9999999999999999
 40
0.9999999999999999
 40
0.9999999999999999
 10
34.87207362588958
 20
27.01073226297728
 30
0.0
 10
34.871864327163
 20
27.0134359468099
 30
0.0
 10
34.87144676798556
 20
27.01882990221322
 30
0.0
 10
34.86696620178864
 20
27.02699670215325
 30
0.0
 10
34.86151905391972
 20
27.03232677604127
 30
0.0
 10
34.85804141648564
 20
27.03452155097944
 30
0.0
 10
34.85629973103977
 20
27.03562074767237
 30
0.0
  0
LINE
  5
242
330
1F
100
AcDbEntity
  8
0
  6
Continuous
 62
     7
370
    25
100
AcDbLine
 10
34.856299731
 20
27.0356207477
 30
0.0
 11
34.8330741508
 21
27.0490285898
 31
0.0
  0
LINE
  5
243
330
1F
100
AcDbEntity
  8
0
  6
Continuous
 62
     7
370
    25
100
AcDbLine
 10
34.9344205547
 20
26.9326202147
 30
0.0
 11
34.9308850207
 21
26.9305791945
 31
0.0
  0
LINE
  5
244
330
1F
100
AcDbEntity
  8
0
  6
Continuous
 62
     7
370
    25
100
AcDbLine
 10
34.9419244715
 20
26.8986937657
 30
0.0
 11
34.9383889376
 21
26.8966527454
 31
0.0
  0
LINE
  5
245
330
1F
100
AcDbEntity
  8
0
  6
Continuous
 62
     7
370
    25
100
AcDbLine
 10
34.9044397081
 20
26.949927789
 30
0.0
 11
34.9009041742
 21
26.9478867688
 31
0.0
  0
SPLINE
  5
246
330
1F
100
AcDbEntity
  8
0
  6
Continuous
 62
     7
370
    25
100
AcDbSpline
210
0.0
220
0.0
230
1.0
 70
     8
 71
     3
 72
    11
 73
     7
 74
     0
 42
0.00000001
 43
0.00000001
 40
0.0
 40
0.0
 40
0.0
 40
0.0
 40
0.2798157723866458
 40
0.5582434525783392
 40
0.7787575721023097
 40
0.9999999999999999
 40
0.9999999999999999
 40
0.9999999999999999
 40
0.9999999999999999
 10
34.86853809198364
 20
27.00869124269773
 30
0.0
 10
34.86832879325706
 20
27.01139492653034
 30
0.0
 10
34.86791123407964
 20
27.01678888193366
 30
0.0
 10
34.86343066788271
 20
27.02495568187369
 30
0.0
 10
34.85798352001379
 20
27.03028575576171
 30
0.0
 10
34.85450588257971
 20
27.03248053069988
 30
0.0
 10
34.85276419713384
 20
27.03357972739282
 30
0.0
  0
SPLINE
  5
247
330
1F
100
AcDbEntity
  8
0
  6
Continuous
 62
     7
370
    25
100
AcDbSpline
210
0.0
220
0.0
230
1.0
 70
     8
 71
     3
 72
    11
 73
     7
 74
     0
 42
0.00000001
 43
0.00000001
 40
0.0
 40
0.0
 40
0.0
 40
0.0
 40
0.281467994109042
 40
0.5598819086306168
 40
0.7797191212695485
 40
0.9999999999999999
 40
0.9999999999999999
 40
0.9999999999999999
 40
0.9999999999999999
 10
34.85044860329827
 20
27.00274852381759
 30
0.0
 10
34.85290583167269
 20
27.00137055448307
 30
0.0
 10
34.85779362616801
 20
26.99862956752471
 30
0.0
 10
34.86429337801987
 20
26.99820363803897
 30
0.0
 10
34.86800349751039
 20
27.00231872643307
 30
0.0
 10
34.86835977410966
 20
27.00656564355833
 30
0.0
 10
34.86853809198364
 20
27.00869124269773
 30
0.0
  0
LINE
  5
248
330
1F
100
AcDbEntity
  8
0
  6
Continuous
 62
     7
370
    25
100
AcDbLine
 10
34.8295386169
 20
27.014819602
 30
0.0
 11
34.8504486033
 21
27.0027485238
 31
0.0
  0
LINE
  5
249
330
1F
100
AcDbEntity
  8
0
  6
Continuous
 62
     7
370
    25
100
AcDbLine
 10
34.8295386169
 20
27.0469875695
 30
0.0
 11
34.8295386169
 21
27.014819602
 31
0.0
  0
LINE
  5
24A
330
1F
100
AcDbEntity
  8
0
  6
Continuous
 62
     7
370
    25
100
AcDbLine
 10
34.8527641971
 20
27.0335797274
 30
0.0
 11
34.8295386169
 21
27.0469875695
 31
0.0
  0
LINE
  5
24B
330
1F
100
AcDbEntity
  8
0
  6
Continuous
 62
     7
370
    25
100
AcDbLine
 10
34.856299731
 20
27.0356207477
 30
0.0
 11
34.8527641971
 21
27.0335797274
 31
0.0
  0
LINE
  5
24C
330
1F
100
AcDbEntity
  8
0
  6
Continuous
 62
     7
370
    25
100
AcDbLine
 10
34.8720736259
 20
27.010732263
 30
0.0
 11
34.868538092
 21
27.0086912427
 31
0.0
  0
LINE
  5
24D
330
1F
100
AcDbEntity
  8
0
  6
Continuous
 62
     7
370
    25
100
AcDbLine
 10
34.8609309187
 20
26.9898421436
 30
0.0
 11
34.8573953848
 21
26.9878011233
 31
0.0
  0
LINE
  5
24E
330
1F
100
AcDbEntity
  8
0
  6
Continuous
 62
     7
370
    25
100
AcDbLine
 10
34.8330741508
 20
27.0490285898
 30
0.0
 11
34.8295386169
 21
27.0469875695
 31
0.0
  0
LINE
  5
24F
330
1F
100
AcDbEntity
  8
0
  6
Continuous
 62
     7
370
    25
100
AcDbLine
 10
34.824159985
 20
26.9666777567
 30
0.0
 11
34.8206244511
 21
26.9646367364
 31
0.0
  0
LINE
  5
250
330
1F
100
AcDbEntity
  8
0
  6
Continuous
 62
     7
370
    25
100
AcDbLine
 10
34.8444431942
 20
26.998716945
 30
0.0
 11
34.8409076603
 21
26.9966759247
 31
0.0
  0
LINE
  5
251
330
1F
100
AcDbEntity
  8
0
  6
Continuous
 62
     7
370
    25
100
AcDbLine
 10
34.8665196828
 20
26.9634146722
 30
0.0
 11
34.8629841489
 21
26.9613736519
 31
0.0
  0
LINE
  5
252
330
1F
100
AcDbEntity
  8
0
  6
Continuous
 62
     7
370
    25
100
AcDbLine
 10
34.8764262459
 20
26.9365050865
 30
0.0
 11
34.872890712
 21
26.9344640662
 31
0.0
  0
LINE
  5
253
330
1F
100
AcDbEntity
  8
0
  6
Continuous
 62
     7
370
    25
100
AcDbLine
 10
34.780703427
 20
27.0303662545
 30
0.0
 11
34.780703427
 21
27.0378646823
 31
0.0
  0
SPLINE
  5
254
330
1F
100
AcDbEntity
  8
0
  6
Continuous
 62
     7
370
    25
100
AcDbSpline
210
0.0
220
0.0
230
1.0
 70
     8
 71
     3
 72
     9
 73
     5
 74
     0
 42
0.00000001
 43
0.00000001
 40
0.0
 40
0.0
 40
0.0
 40
0.0
 40
0.4948603152113741
 40
1.0
 40
1.0
 40
1.0
 40
1.0
 10
34.80725320250093
 20
26.987586948589
 30
0.0
 10
34.80350584650771
 20
26.98621979866795
 30
0.0
 10
34.79593329344974
 20
26.98345710002548
 30
0.0
 10
34.78620800997315
 20
26.98789465877884
 30
0.0
 10
34.7812953833433
 20
26.99013624580875
 30
0.0
  0
SPLINE
  5
255
330
1F
100
AcDbEntity
  8
0
  6
Continuous
 62
     7
370
    25
100
AcDbSpline
210
0.0
220
0.0
230
1.0
 70
     8
 71
     3
 72
    12
 73
     8
 74
     0
 42
0.00000001
 43
0.00000001
 40
0.0
 40
0.0
 40
0.0
 40
0.0
 40
0.18662439758418
 40
0.3730307715706501
 40
0.5595845494448439
 40
0.7795585864281538
 40
1.0
 40
1.0
 40
1.0
 40
1.0
 10
34.7812953833433
 20
26.99013624580875
 30
0.0
 10
34.7773182199166
 20
26.99280919412316
 30
0.0
 10
34.76936853937681
 20
26.99815196808519
 30
0.0
 10
34.75875155676442
 20
27.01134919273785
 30
0.0
 10
34.75065108939589
 20
27.02737209658288
 30
0.0
 10
34.745726827862
 20
27.04482014742196
 30
0.0
 10
34.74527361230921
 20
27.0558862028652
 30
0.0
 10
34.74504676405267
 20
27.06142510233274
 30
0.0
  0
SPLINE
  5
256
330
1F
100
AcDbEntity
  8
0
  6
Continuous
 62
     7
370
    25
100
AcDbSpline
210
0.0
220
0.0
230
1.0
 70
     8
 71
     3
 72
     9
 73
     5
 74
     0
 42
0.00000001
 43
0.00000001
 40
0.0
 40
0.0
 40
0.0
 40
0.0
 40
0.5260633487852059
 40
0.9999999999999999
 40
0.9999999999999999
 40
0.9999999999999999
 40
0.9999999999999999
 10
34.74504676405267
 20
27.06142510233274
 30
0.0
 10
34.74530983637975
 20
27.06829648763299
 30
0.0
 10
34.74580991365691
 20
27.08135838467662
 30
0.0
 10
34.75194927967642
 20
27.08910578964107
 30
0.0
 10
34.75485895024829
 20
27.09277756880553
 30
0.0
  0
LINE
  5
257
330
1F
100
AcDbEntity
  8
0
  6
Continuous
 62
     7
370
    25
100
AcDbLine
 10
34.8054089429
 20
27.0470406142
 30
0.0
 11
34.8007602999
 21
27.0483821983
 31
0.0
  0
SPLINE
  5
258
330
1F
100
AcDbEntity
  8
0
  6
Continuous
 62
     7
370
    25
100
AcDbSpline
210
0.0
220
0.0
230
1.0
 70
     8
 71
     3
 72
    11
 73
     7
 74
     0
 42
0.00000001
 43
0.00000001
 40
0.0
 40
0.0
 40
0.0
 40
0.0
 40
0.2808041604286829
 40
0.5593155177302142
 40
0.7795669277145764
 40
1.0
 40
1.0
 40
1.0
 40
1.0
 10
34.80076029994606
 20
27.04838219831339
 30
0.0
 10
34.80002117819865
 20
27.05196695691941
 30
0.0
 10
34.79854896973072
 20
27.05910720410309
 30
0.0
 10
34.79321567795493
 20
27.06927651737673
 30
0.0
 10
34.78650090049161
 20
27.07666678458817
 30
0.0
 10
34.78207939037738
 20
27.07957567838879
 30
0.0
 10
34.77986772398604
 20
27.08103072485224
 30
0.0
  0
SPLINE
  5
259
330
1F
100
AcDbEntity
  8
0
  6
Continuous
 62
     7
370
    25
100
AcDbSpline
210
0.0
220
0.0
230
1.0
 70
     8
 71
     3
 72
    10
 73
     6
 74
     0
 42
0.00000001
 43
0.00000001
 40
0.0
 40
0.0
 40
0.0
 40
0.0
 40
0.4898377477864522
 40
0.9783313293382773
 40
1.0
 40
1.0
 40
1.0
 40
1.0
 10
34.77986772398604
 20
27.08103072485224
 30
0.0
 10
34.77690848614514
 20
27.08242168202901
 30
0.0
 10
34.77099813092283
 20
27.08519977944995
 30
0.0
 10
34.76502887164776
 20
27.08524851127773
 30
0.0
 10
34.76323452591487
 20
27.08334210381287
 30
0.0
 10
34.76315831273648
 20
27.08326113091586
 30
0.0
  0
LINE
  5
25A
330
1F
100
AcDbEntity
  8
0
  6
Continuous
 62
     7
370
    25
100
AcDbLine
 10
34.8018745707
 20
26.9999695119
 30
0.0
 11
34.8018745707
 21
27.0181444135
 31
0.0
  0
LINE
  5
25B
330
1F
100
AcDbEntity
  8
0
  6
Continuous
 62
     7
370
    25
100
AcDbLine
 10
34.8018745707
 20
27.0181444135
 30
0.0
 11
34.780703427
 21
27.0303662545
 31
0.0
  0
LINE
  5
25C
330
1F
100
AcDbEntity
  8
0
  6
Continuous
 62
     7
370
    25
100
AcDbLine
 10
34.8330741508
 20
27.005280154
 30
0.0
 11
34.8295386169
 21
27.0032391338
 31
0.0
  0
LINE
  5
25D
330
1F
100
AcDbEntity
  8
0
  6
Continuous
 62
     7
370
    25
100
AcDbLine
 10
34.779867724
 20
27.0810307249
 30
0.0
 11
34.7763321901
 21
27.0789897046
 31
0.0
  0
LINE
  5
25E
330
1F
100
AcDbEntity
  8
0
  6
Continuous
 62
     7
370
    25
100
AcDbLine
 10
34.8007602999
 20
27.0483821983
 30
0.0
 11
34.797224766
 21
27.046341178
 31
0.0
  0
LINE
  5
25F
330
1F
100
AcDbEntity
  8
0
  6
Continuous
 62
     7
370
    25
100
AcDbLine
 10
34.7450467641
 20
27.0614251023
 30
0.0
 11
34.7415112301
 21
27.0593840821
 31
0.0
  0
LINE
  5
260
330
1F
100
AcDbEntity
  8
0
  6
Continuous
 62
     7
370
    25
100
AcDbLine
 10
34.8018745707
 20
27.0181444135
 30
0.0
 11
34.7983390368
 21
27.0161033932
 31
0.0
  0
LINE
  5
261
330
1F
100
AcDbEntity
  8
0
  6
Continuous
 62
     7
370
    25
100
AcDbLine
 10
34.8018745707
 20
26.9999695119
 30
0.0
 11
34.7983390368
 21
26.9979284916
 31
0.0
  0
LINE
  5
262
330
1F
100
AcDbEntity
  8
0
  6
Continuous
 62
     7
370
    25
100
AcDbLine
 10
34.780703427
 20
27.0303662545
 30
0.0
 11
34.7771678931
 21
27.0283252343
 31
0.0
  0
LINE
  5
263
330
1F
100
AcDbEntity
  8
0
  6
Continuous
 62
     7
370
    25
100
AcDbLine
 10
34.7812953833
 20
26.9901362458
 30
0.0
 11
34.7777598494
 21
26.9880952255
 31
0.0
  0
LINE
  5
264
330
1F
100
AcDbEntity
  8
0
  6
Continuous
 62
     7
370
    25
100
AcDbLine
 10
34.605125122
 20
27.1149255313
 30
0.0
 11
34.605125122
 21
27.112884511
 31
0.0
  0
LINE
  5
265
330
1F
100
AcDbEntity
  8
0
  6
Continuous
 62
     7
370
    25
100
AcDbLine
 10
34.5618148317
 20
27.1079196299
 30
0.0
 11
34.605125122
 21
27.1149255313
 31
0.0
  0
LINE
  5
266
330
1F
100
AcDbEntity
  8
0
  6
Continuous
 62
     7
370
    25
100
AcDbLine
 10
34.5956329028
 20
27.2159131515
 30
0.0
 11
34.5618148317
 21
27.1079196299
 31
0.0
  0
LINE
  5
267
330
1F
100
AcDbEntity
  8
0
  6
Continuous
 62
     7
370
    25
100
AcDbLine
 10
34.606892889
 20
27.1139050211
 30
0.0
 11
34.644459255
 21
27.0644550578
 31
0.0
  0
LINE
  5
268
330
1F
100
AcDbEntity
  8
0
  6
Continuous
 62
     7
370
    25
100
AcDbLine
 10
34.5618148317
 20
27.1079196299
 30
0.0
 11
34.5582792978
 21
27.1058786096
 31
0.0
  0
LINE
  5
269
330
1F
100
AcDbEntity
  8
0
  6
Continuous
 62
     7
370
    25
100
AcDbLine
 10
34.6033573551
 20
27.1118640009
 30
0.0
 11
34.606892889
 21
27.1139050211
 31
0.0
  0
LINE
  5
26A
330
1F
100
AcDbEntity
  8
0
  6
Continuous
 62
     7
370
    25
100
AcDbLine
 10
34.6033573551
 20
26.1224611673
 30
0.0
 11
34.6015895881
 21
26.1214406572
 31
0.0
  0
LINE
  5
26B
330
1F
100
AcDbEntity
  8
0
  6
Continuous
 62
     7
370
    25
100
AcDbLine
 10
34.605125122
 20
27.1149255313
 30
0.0
 11
34.6015895881
 21
27.112884511
 31
0.0
  0
LWPOLYLINE
  5
26C
330
1F
100
AcDbEntity
  8
0
  6
Continuous
 62
     7
370
    25
100
AcDbPolyline
 90
      135
 70
   128
 43
0.0
 10
36.8395825506
 20
28.356739376
 10
36.8871613167
 20
28.3855250751
 10
36.9323505643
 20
28.4155665589
 10
36.9750509577
 20
28.4467977899
 10
37.0151686321
 20
28.479150115
 10
37.0526154001
 20
28.5125524167
 10
37.0873089457
 20
28.5469312696
 10
37.1191730049
 20
28.5822111014
 10
37.1481375336
 20
28.6183143595
 10
37.1741388614
 20
28.655161681
 10
37.1971198318
 20
28.6926720676
 10
37.2170299276
 20
28.7307630632
 10
37.2338253822
 20
28.7693509356
 10
37.2474692754
 20
28.8083508603
 10
37.2579316151
 20
28.847677107
 10
37.2651894027
 20
28.887243228
 10
37.269226684
 20
28.9269622484
 10
37.2700345843
 20
28.9667468573
 10
37.2676113276
 20
29.0065095993
 10
37.2619622406
 20
29.0461630674
 10
37.2530997415
 20
29.0856200946
 10
37.2410433117
 20
29.1247939458
 10
37.2258194541
 20
29.1635985084
 10
37.2074616339
 20
29.2019484816
 10
37.1860102056
 20
29.2397595637
 10
37.1615123241
 20
29.2769486379
 10
37.1340218411
 20
29.3134339544
 10
37.1035991865
 20
29.3491353106
 10
37.0703112361
 20
29.3839742272
 10
37.034231164
 20
29.4178741207
 10
36.9954382819
 20
29.4507604718
 10
36.9540178651
 20
29.4825609891
 10
36.9100609645
 20
29.5132057682
 10
36.8636642071
 20
29.5426274451
 10
36.814929583
 20
29.5707613448
 10
36.7639642214
 20
29.5975456227
 10
36.7108801553
 20
29.6229214012
 10
36.655794075
 20
29.6468328989
 10
36.5988270716
 20
29.6692275531
 10
36.540104371
 20
29.6900561354
 10
36.4797550583
 20
29.7092728601
 10
36.4179117946
 20
29.7268354847
 10
36.3547105247
 20
29.7427054028
 10
36.2902901787
 20
29.7568477287
 10
36.2247923665
 20
29.7692313747
 10
36.1583610665
 20
29.7798291187
 10
36.0911423092
 20
29.7886176647
 10
36.023283856
 20
29.7955776934
 10
35.9549348744
 20
29.8006939053
 10
35.8862456103
 20
29.8039550537
 10
35.8173670577
 20
29.8053539701
 10
35.7484506267
 20
29.8048875792
 10
35.6796478103
 20
29.8025569063
 10
35.6111098522
 20
29.7983670747
 10
35.5429874138
 20
29.7923272946
 10
35.4754302428
 20
29.7844508426
 10
35.4085868446
 20
29.7747550331
 10
35.3426041555
 20
29.7632611794
 10
35.2776272197
 20
29.7499945476
 10
35.2137988708
 20
29.7349843006
 10
35.1512594172
 20
29.7182634341
 10
35.0901463342
 20
29.6998687043
 10
35.0305939617
 20
29.6798405467
 10
34.9727332087
 20
29.6582229876
 10
34.9166912657
 20
29.6350635472
 10
34.862591325
 20
29.6104131348
 10
34.81055231
 20
29.5843259374
 10
34.7606886139
 20
29.5568593004
 10
34.7131098478
 20
29.5280736013
 10
34.6679206002
 20
29.4980321174
 10
34.6252202068
 20
29.4668008865
 10
34.5851025324
 20
29.4344485614
 10
34.5476557643
 20
29.4010462597
 10
34.5129622187
 20
29.3666674068
 10
34.4810981596
 20
29.3313875749
 10
34.4521336309
 20
29.2952843169
 10
34.4261323031
 20
29.2584369953
 10
34.4031513327
 20
29.2209266088
 10
34.3832412368
 20
29.1828356131
 10
34.3664457823
 20
29.1442477407
 10
34.3528018891
 20
29.105247816
 10
34.3423395494
 20
29.0659215694
 10
34.3350817618
 20
29.0263554484
 10
34.3310444805
 20
28.9866364279
 10
34.3302365802
 20
28.9468518191
 10
34.3326598369
 20
28.9070890771
 10
34.3383089239
 20
28.867435609
 10
34.347171423
 20
28.8279785818
 10
34.3592278528
 20
28.7888047306
 10
34.3744517104
 20
28.7500001679
 10
34.3928095306
 20
28.7116501948
 10
34.4142609589
 20
28.6738391126
 10
34.4387588404
 20
28.6366500385
 10
34.4662493234
 20
28.600164722
 10
34.496671978
 20
28.5644633657
 10
34.5299599284
 20
28.5296244491
 10
34.5660400005
 20
28.4957245556
 10
34.6048328826
 20
28.4628382046
 10
34.6462532994
 20
28.4310376873
 10
34.6902102
 20
28.4003929082
 10
34.7366069573
 20
28.3709712312
 10
34.7853415815
 20
28.3428373316
 10
34.836306943
 20
28.3160530537
 10
34.8893910091
 20
28.2906772751
 10
34.9444770895
 20
28.2667657775
 10
35.0014440929
 20
28.2443711233
 10
35.0601667935
 20
28.223542541
 10
35.1205161061
 20
28.2043258163
 10
35.1823593699
 20
28.1867631917
 10
35.2455606398
 20
28.1708932736
 10
35.3099809858
 20
28.1567509476
 10
35.375478798
 20
28.1443673017
 10
35.441910098
 20
28.1337695577
 10
35.5091288553
 20
28.1249810117
 10
35.5769873085
 20
28.118020983
 10
35.6453362901
 20
28.1129047711
 10
35.7140255542
 20
28.1096436226
 10
35.7829041067
 20
28.1082447063
 10
35.8518205378
 20
28.1087110972
 10
35.9206233542
 20
28.1110417701
 10
35.9891613122
 20
28.1152316017
 10
36.0572837507
 20
28.1212713818
 10
36.1248409217
 20
28.1291478337
 10
36.1916843199
 20
28.1388436433
 10
36.257667009
 20
28.1503374969
 10
36.3226439448
 20
28.1636041288
 10
36.3864722937
 20
28.1786143758
 10
36.4490117473
 20
28.1953352423
 10
36.5101248303
 20
28.2137299721
 10
36.5696772028
 20
28.2337581297
 10
36.6275379558
 20
28.2553756887
 10
36.6835798988
 20
28.2785351292
 10
36.7376798395
 20
28.3031855416
 10
36.7897188545
 20
28.329272739
 10
36.8395825506
 20
28.356739376
  0
LWPOLYLINE
  5
26D
330
1F
100
AcDbEntity
  8
0
  6
Continuous
 62
     7
370
    25
100
AcDbPolyline
 90
       69
 70
   128
 43
0.0
 10
36.860795754
 20
28.31999703
 10
36.8106790477
 20
28.2923719633
 10
36.7584057907
 20
28.2661125419
 10
36.7040875368
 20
28.2412748048
 10
36.6478402039
 20
28.2179117569
 10
36.5897838266
 20
28.1960732562
 10
36.5300423001
 20
28.1758059071
 10
36.4687431159
 20
28.1571529612
 10
36.4060170896
 20
28.1401542248
 10
36.3419980815
 20
28.124845974
 10
36.2768227116
 20
28.1112608774
 10
36.2106300674
 20
28.0994279264
 10
36.1435614072
 20
28.0893723729
 10
36.075759859
 20
28.0811156762
 10
36.0073701147
 20
28.0746754563
 10
35.9385381214
 20
28.0700654571
 10
35.8694107702
 20
28.0672955165
 10
35.8001355822
 20
28.0663715457
 10
35.7308603943
 20
28.0672955165
 10
35.661733043
 20
28.0700654571
 10
35.5929010498
 20
28.0746754563
 10
35.5245113055
 20
28.0811156762
 10
35.4567097573
 20
28.0893723729
 10
35.3896410971
 20
28.0994279264
 10
35.3234484529
 20
28.1112608774
 10
35.258273083
 20
28.124845974
 10
35.1942540749
 20
28.1401542248
 10
35.1315280486
 20
28.1571529612
 10
35.0702288644
 20
28.1758059071
 10
35.0104873379
 20
28.1960732562
 10
34.9524309606
 20
28.2179117569
 10
34.8961836277
 20
28.2412748048
 10
34.8418653738
 20
28.2661125419
 10
34.7895921168
 20
28.2923719633
 10
34.7394754105
 20
28.31999703
 10
34.6916222064
 20
28.3489287887
 10
34.6461346258
 20
28.3791054976
 10
34.6031097413
 20
28.4104627581
 10
34.5626393703
 20
28.4429336523
 10
34.5248098786
 20
28.4764488855
 10
34.4897019963
 20
28.5109369346
 10
34.4573906452
 20
28.5463242004
 10
34.4279447795
 20
28.5825351647
 10
34.4014272381
 20
28.6194925514
 10
34.3778946109
 20
28.6571174915
 10
34.3573971175
 20
28.6953296917
 10
34.3399785007
 20
28.7340476051
 10
34.3256759327
 20
28.7731886057
 10
34.3145199359
 20
28.8126691647
 10
34.3065343178
 20
28.8524050286
 10
34.30173612
 20
28.8923113991
 10
34.3001355822
 20
28.9323031138
 10
34.30173612
 20
28.9722948286
 10
34.3065343178
 20
29.012201199
 10
34.3145199359
 20
29.0519370629
 10
34.3256759327
 20
29.0914176219
 10
34.3399785007
 20
29.1305586226
 10
34.3573971175
 20
29.169276536
 10
34.3778946109
 20
29.2074887361
 10
34.4014272381
 20
29.2451136763
 10
34.4279447795
 20
29.282071063
 10
34.4573906452
 20
29.3182820272
 10
34.4897019963
 20
29.353669293
 10
34.5248098786
 20
29.3881573421
 10
34.5626393703
 20
29.4216725754
 10
34.6031097413
 20
29.4541434695
 10
34.6461346258
 20
29.48550073
 10
34.6916222064
 20
29.515677439
 10
34.7393030654
 20
29.5445096888
  0
LWPOLYLINE
  5
26E
330
1F
100
AcDbEntity
  8
0
  6
Continuous
 62
     7
370
    25
100
AcDbPolyline
 90
       35
 70
   128
 43
0.0
 10
36.8609680991
 20
29.5445096888
 10
36.9086489581
 20
29.515677439
 10
36.9541365387
 20
29.48550073
 10
36.9971614232
 20
29.4541434695
 10
37.0376317941
 20
29.4216725754
 10
37.0754612858
 20
29.3881573421
 10
37.1105691682
 20
29.353669293
 10
37.1428805193
 20
29.3182820272
 10
37.172326385
 20
29.282071063
 10
37.1988439263
 20
29.2451136763
 10
37.2223765536
 20
29.2074887361
 10
37.242874047
 20
29.169276536
 10
37.2602926638
 20
29.1305586226
 10
37.2745952318
 20
29.0914176219
 10
37.2857512286
 20
29.0519370629
 10
37.2937368467
 20
29.012201199
 10
37.2985350444
 20
28.9722948286
 10
37.3001355822
 20
28.9323031138
 10
37.2985350444
 20
28.8923113991
 10
37.2937368467
 20
28.8524050286
 10
37.2857512286
 20
28.8126691647
 10
37.2745952318
 20
28.7731886057
 10
37.2602926638
 20
28.7340476051
 10
37.242874047
 20
28.6953296917
 10
37.2223765536
 20
28.6571174915
 10
37.1988439263
 20
28.6194925514
 10
37.172326385
 20
28.5825351647
 10
37.1428805193
 20
28.5463242004
 10
37.1105691682
 20
28.5109369346
 10
37.0754612858
 20
28.4764488855
 10
37.0376317941
 20
28.4429336523
 10
36.9971614232
 20
28.4104627581
 10
36.9541365387
 20
28.3791054976
 10
36.9086489581
 20
28.3489287887
 10
36.860795754
 20
28.31999703
  0
SPLINE
  5
26F
330
1F
100
AcDbEntity
  8
0
  6
Continuous
 62
     7
370
    25
100
AcDbSpline
210
0.0
220
0.0
230
1.0
 70
     8
 71
     3
 72
    24
 73
    20
 74
     0
 42
0.00000001
 43
0.00000001
 40
0.0
 40
0.0
 40
0.0
 40
0.0
 40
0.0253809353995214
 40
0.0873800137357151
 40
0.1494191521254918
 40
0.2114844185254978
 40
0.2735061861394729
 40
0.3354827890609047
 40
0.3974829089229143
 40
0.4595385912581618
 40
0.5215952582076264
 40
0.5835966412182778
 40
0.6455728064479073
 40
0.7075931318971319
 40
0.76965809708517
 40
0.8316985404655056
 40
0.8936836405532038
 40
0.9556688727808886
 40
1.0
 40
1.0
 40
1.0
 40
1.0
 10
37.26464548868515
 20
27.86179281670258
 30
0.0
 10
37.26456082723431
 20
27.86410584823227
 30
0.0
 10
37.26426935969694
 20
27.87206901915779
 30
0.0
 10
37.26205015477088
 20
27.87952409294899
 30
0.0
 10
37.2581632516169
 20
27.88265726856538
 30
0.0
 10
37.25294701157041
 20
27.87776335243902
 30
0.0
 10
37.24699616834655
 20
27.86582706234409
 30
0.0
 10
37.24093150586362
 20
27.84809733359367
 30
0.0
 10
37.23553464247872
 20
27.82658203112398
 30
0.0
 10
37.23157263981795
 20
27.80365787696521
 30
0.0
 10
37.22965885565048
 20
27.78189073450728
 30
0.0
 10
37.23010003919912
 20
27.76373179999768
 30
0.0
 10
37.23282121234441
 20
27.75122377151244
 30
0.0
 10
37.23739423186233
 20
27.74578426774924
 30
0.0
 10
37.24313046094998
 20
27.7480627370812
 30
0.0
 10
37.24925407884495
 20
27.75782396356987
 30
0.0
 10
37.25495194917978
 20
27.77398924603302
 30
0.0
 10
37.25942031464935
 20
27.7926694569299
 30
0.0
 10
37.26122185550895
 20
27.8056826111289
 30
0.0
 10
37.26197305069145
 20
27.81110875436141
 30
0.0
  0
SPLINE
  5
270
330
1F
100
AcDbEntity
  8
0
  6
Continuous
 62
     7
370
    25
100
AcDbSpline
210
0.0
220
0.0
230
1.0
 70
    11
 71
     3
 72
    26
 73
    22
 74
     0
 42
0.00000001
 43
0.00000001
 40
0.0
 40
0.0
 40
0.0
 40
0.0
 40
0.0536511324436264
 40
0.1073009288976445
 40
0.1609853906044142
 40
0.2146924617187453
 40
0.2683618919345478
 40
0.3219922396893387
 40
0.3756429374091448
 40
0.4293417151240107
 40
0.4830413448572172
 40
0.5366931356201655
 40
0.5903231046261629
 40
0.6439912868904271
 40
0.6976980973563527
 40
0.7513836883134253
 40
0.8050213889394667
 40
0.8586592039104869
 40
0.9123449137982218
 40
0.9660517000346346
 40
1.0
 40
1.0
 40
1.0
 40
1.0
 10
34.78864911937206
 20
27.39875646725292
 30
0.0
 10
34.78809326028054
 20
27.40528881562245
 30
0.0
 10
34.78698155593919
 20
27.41835334969672
 30
0.0
 10
34.77835789989791
 20
27.43954586507899
 30
0.0
 10
34.76577856378924
 20
27.45900276542117
 30
0.0
 10
34.75026583411142
 20
27.47487329980267
 30
0.0
 10
34.73380332575889
 20
27.48533783078899
 30
0.0
 10
34.71822709863709
 20
27.48924935166961
 30
0.0
 10
34.70522428706173
 20
27.48613100404811
 30
0.0
 10
34.69613350366983
 20
27.47625842201666
 30
0.0
 10
34.69186864867181
 20
27.46066917496512
 30
0.0
 10
34.69284470632078
 20
27.44109324948939
 30
0.0
 10
34.6989598788761
 20
27.41974952038527
 30
0.0
 10
34.70961871714602
 20
27.39908096300456
 30
0.0
 10
34.72375436637643
 20
27.38148540164392
 30
0.0
 10
34.73987743888186
 20
27.36901840714944
 30
0.0
 10
34.75619395090359
 20
27.36311181704841
 30
0.0
 10
34.77085617808219
 20
27.36438247915267
 30
0.0
 10
34.78200594735326
 20
27.37267491049011
 30
0.0
 10
34.7878403951471
 20
27.38508593687094
 30
0.0
 10
34.78842334595041
 20
27.39494003351106
 30
0.0
 10
34.78864911937206
 20
27.39875646725292
 30
0.0
  0
LWPOLYLINE
  5
271
330
1F
100
AcDbEntity
  8
0
  6
Continuous
 62
     7
370
    25
100
AcDbPolyline
 90
       69
 70
   128
 43
0.0
 10
37.3001355822
 20
27.7319881204
 10
37.2985350444
 20
27.6919964056
 10
37.2937368467
 20
27.6520900352
 10
37.2857512286
 20
27.6123541713
 10
37.2745952318
 20
27.5728736123
 10
37.2602926638
 20
27.5337326116
 10
37.242874047
 20
27.4950146982
 10
37.2223765536
 20
27.4568024981
 10
37.1988439263
 20
27.4191775579
 10
37.172326385
 20
27.3822201712
 10
37.1428805193
 20
27.346009207
 10
37.1105691682
 20
27.3106219412
 10
37.0754612858
 20
27.276133892
 10
37.0376317941
 20
27.2426186588
 10
36.9971614232
 20
27.2101477647
 10
36.9541365387
 20
27.1787905041
 10
36.9086489581
 20
27.1486137952
 10
36.860795754
 20
27.1196820365
 10
36.8106790477
 20
27.0920569698
 10
36.7584057907
 20
27.0657975484
 10
36.7040875368
 20
27.0409598113
 10
36.6478402039
 20
27.0175967635
 10
36.5897838266
 20
26.9957582628
 10
36.5300423001
 20
26.9754909137
 10
36.4687431159
 20
26.9568379677
 10
36.4060170896
 20
26.9398392313
 10
36.3419980815
 20
26.9245309805
 10
36.2768227116
 20
26.910945884
 10
36.2106300674
 20
26.8991129329
 10
36.1435614072
 20
26.8890573795
 10
36.075759859
 20
26.8808006827
 10
36.0073701147
 20
26.8743604629
 10
35.9385381214
 20
26.8697504636
 10
35.8694107702
 20
26.866980523
 10
35.8001355822
 20
26.8660565522
 10
35.7308603943
 20
26.866980523
 10
35.661733043
 20
26.8697504636
 10
35.5929010498
 20
26.8743604629
 10
35.5245113055
 20
26.8808006827
 10
35.4567097573
 20
26.8890573795
 10
35.3896410971
 20
26.8991129329
 10
35.3234484529
 20
26.910945884
 10
35.258273083
 20
26.9245309805
 10
35.1942540749
 20
26.9398392313
 10
35.1315280486
 20
26.9568379677
 10
35.0702288644
 20
26.9754909137
 10
35.0104873379
 20
26.9957582628
 10
34.9524309606
 20
27.0175967635
 10
34.8961836277
 20
27.0409598113
 10
34.8418653738
 20
27.0657975484
 10
34.7895921168
 20
27.0920569698
 10
34.7394754105
 20
27.1196820365
 10
34.6916222064
 20
27.1486137952
 10
34.6461346258
 20
27.1787905041
 10
34.6031097413
 20
27.2101477647
 10
34.5626393703
 20
27.2426186588
 10
34.5248098786
 20
27.276133892
 10
34.4897019963
 20
27.3106219412
 10
34.4573906452
 20
27.346009207
 10
34.4279447795
 20
27.3822201712
 10
34.4014272381
 20
27.4191775579
 10
34.3778946109
 20
27.4568024981
 10
34.3573971175
 20
27.4950146982
 10
34.3399785007
 20
27.5337326116
 10
34.3256759327
 20
27.5728736123
 10
34.3145199359
 20
27.6123541713
 10
34.3065343178
 20
27.6520900352
 10
34.30173612
 20
27.6919964056
 10
34.3001355822
 20
27.7319881204
  0
LWPOLYLINE
  5
272
330
1F
100
AcDbEntity
  8
0
  6
Continuous
 62
     7
370
    25
100
AcDbPolyline
 90
       72
 70
   128
 43
0.0
 10
36.0928777897
 20
28.787802859
 10
36.1176048242
 20
28.8034000988
 10
36.1398472315
 20
28.8201978957
 10
36.1594309346
 20
28.838064784
 10
36.1762026644
 20
28.8568609312
 10
36.1900311593
 20
28.8764392319
 10
36.2008081928
 20
28.8966464595
 10
36.2084494198
 20
28.9173244648
 10
36.2128950374
 20
28.9383114146
 10
36.2141102526
 20
28.9594430574
 10
36.2120855548
 20
28.9805540096
 10
36.2068367898
 20
29.0014790492
 10
36.1984050365
 20
29.0220544095
 10
36.1868562848
 20
29.0421190604
 10
36.1722809192
 20
29.0615159688
 10
36.1547930117
 20
29.0800933276
 10
36.134529429
 20
29.0977057438
 10
36.1116487611
 20
29.1142153762
 10
36.0863300802
 20
29.1294930148
 10
36.0587715393
 20
29.1434190912
 10
36.0291888213
 20
29.155884615
 10
35.9978134513
 20
29.1667920265
 10
35.9648909838
 20
29.1760559606
 10
35.930679082
 20
29.1836039143
 10
35.8954455003
 20
29.1893768147
 10
35.8594659892
 20
29.193329481
 10
35.8230221373
 20
29.1954309782
 10
35.786399167
 20
29.1956648593
 10
35.7498837028
 20
29.1940292939
 10
35.7137615277
 20
29.1905370823
 10
35.6783153467
 20
29.1852155561
 10
35.6438225742
 20
29.1781063632
 10
35.6105531629
 20
29.1692651427
 10
35.5787674912
 20
29.1587610893
 10
35.5487143248
 20
29.1466764114
 10
35.5206288707
 20
29.1331056879
 10
35.4947309356
 20
29.1181551282
 10
35.4712232059
 20
29.1019417407
 10
35.4502896615
 20
29.084592417
 10
35.4320941358
 20
29.0662429393
 10
35.4167790334
 20
29.047036917
 10
35.4044642158
 20
29.0271246632
 10
35.3952460631
 20
29.0066620185
 10
35.3891967199
 20
28.9858091307
 10
35.3863635304
 20
28.9647292019
 10
35.3867686682
 20
28.9435872112
 10
35.3904089626
 20
28.9225486233
 10
35.3972559234
 20
28.9017780937
 10
35.4072559637
 20
28.8814381799
 10
35.4203308197
 20
28.8616880694
 10
35.4363781629
 20
28.8426823335
 10
35.4552724012
 20
28.8245697178
 10
35.4768656614
 20
28.8074919783
 10
35.500988947
 20
28.7915827713
 10
35.5274534607
 20
28.7769666079
 10
35.5560520817
 20
28.7637578794
 10
35.586560987
 20
28.7520599621
 10
35.6187414031
 20
28.7419644081
 10
35.6523414746
 20
28.7335502286
 10
35.6870982354
 20
28.7268832761
 10
35.7227396667
 20
28.7220157286
 10
35.7589868259
 20
28.7189856811
 10
35.79555603
 20
28.7178168479
 10
35.8321610753
 20
28.7185183767
 10
35.8685154776
 20
28.7210847771
 10
35.9043347146
 20
28.7254959636
 10
35.9393384521
 20
28.7317174125
 10
35.9732527384
 20
28.7397004328
 10
36.0058121482
 20
28.7493825463
 10
36.03676186
 20
28.7606879774
 10
36.0658596504
 20
28.7735282458
 10
36.0928777897
 20
28.787802859
  0
LWPOLYLINE
  5
273
330
1F
100
AcDbEntity
  8
0
  6
Continuous
 62
     7
370
    25
100
AcDbPolyline
 90
       28
 70
   128
 43
0.0
 10
36.1744828012
 20
28.8547317367
 10
36.1722809192
 20
28.8573807659
 10
36.1547930117
 20
28.8759581246
 10
36.134529429
 20
28.8935705408
 10
36.1116487611
 20
28.9100801733
 10
36.0863300802
 20
28.9253578118
 10
36.0587715393
 20
28.9392838882
 10
36.0291888213
 20
28.951749412
 10
35.9978134513
 20
28.9626568236
 10
35.9648909838
 20
28.9719207576
 10
35.930679082
 20
28.9794687113
 10
35.8954455003
 20
28.9852416117
 10
35.8594659892
 20
28.989194278
 10
35.8230221373
 20
28.9912957753
 10
35.786399167
 20
28.9915296564
 10
35.7498837028
 20
28.9898940909
 10
35.7137615277
 20
28.9864018794
 10
35.6783153467
 20
28.9810803531
 10
35.6438225742
 20
28.9739711602
 10
35.6105531629
 20
28.9651299398
 10
35.5787674912
 20
28.9546258864
 10
35.5487143248
 20
28.9425412084
 10
35.5206288707
 20
28.9289704849
 10
35.4947309356
 20
28.9140199252
 10
35.4712232059
 20
28.8978065377
 10
35.4502896615
 20
28.880457214
 10
35.4320941358
 20
28.8621077363
 10
35.4257883633
 20
28.8547317367
  0
LINE
  5
274
330
1F
100
AcDbEntity
  8
0
  6
Continuous
 62
     7
370
    25
100
AcDbLine
 10
34.8186784691
 20
24.5928147925
 30
0.0
 11
34.815898184
 21
24.637356014
 31
0.0
  0
LINE
  5
275
330
1F
100
AcDbEntity
  8
0
  6
Continuous
 62
     7
370
    25
100
AcDbLine
 10
36.7843729805
 20
24.637356014
 30
0.0
 11
36.7815904296
 21
24.5927624543
 31
0.0
  0
LWPOLYLINE
  5
276
330
1F
100
AcDbEntity
  8
0
  6
Continuous
 62
     7
370
    25
100
AcDbPolyline
 90
        3
 70
   128
 43
0.0
 10
34.3234142384
 20
25.0171596631
 10
34.3214869036
 20
25.0608093548
 10
34.3141167531
 20
25.2280446706
  0
LWPOLYLINE
  5
277
330
1F
100
AcDbEntity
  8
0
  6
Continuous
 62
     7
370
    25
100
AcDbPolyline
 90
        3
 70
   128
 43
0.0
 10
37.2861544114
 20
25.2280446706
 10
37.2817370639
 20
25.127755828
 10
37.276842421
 20
25.0170925468
  0
LWPOLYLINE
  5
278
330
1F
100
AcDbEntity
  8
0
  6
Continuous
 62
     7
370
    25
100
AcDbPolyline
 90
       37
 70
   128
 43
0.0
 10
36.9549131718
 20
26.8044326245
 10
36.9598075837
 20
26.8180899956
 10
36.9654318223
 20
26.8386160468
 10
36.9688174287
 20
26.858611255
 10
36.9698922446
 20
26.8776494573
 10
36.9686333622
 20
26.8953248872
 10
36.9650676123
 20
26.9112608238
 10
36.9592709927
 20
26.9251176202
 10
36.9513670483
 20
26.9365999428
 10
36.941524238
 20
26.9454630659
 10
36.9299523441
 20
26.9515180874
 10
36.9168980015
 20
26.954635955
 10
36.9026394409
 20
26.9547502169
 10
36.8874805586
 20
26.9518584376
 10
36.8717444401
 20
26.9460222504
 10
36.8557664732
 20
26.9373660436
 10
36.8398872007
 20
26.9260743092
 10
36.8244450616
 20
26.9123877108
 10
36.8097691784
 20
26.8965979547
 10
36.7961723419
 20
26.8790415719
 10
36.7839443453
 20
26.8600927463
 10
36.7733458069
 20
26.8401553393
 10
36.7646026163
 20
26.819654282
 10
36.7579011194
 20
26.799026519
 10
36.7533841469
 20
26.7787116951
 10
36.7511479703
 20
26.7591427855
 10
36.7512402497
 20
26.7407368677
 10
36.7536590185
 20
26.7238862317
 10
36.7583527247
 20
26.7089500196
 10
36.7652213302
 20
26.6962465709
 10
36.7741184425
 20
26.6860466375
 10
36.7848544352
 20
26.6785676133
 10
36.7972004892
 20
26.6739689007
 10
36.8108934698
 20
26.6723485132
 10
36.8256415349
 20
26.6737409867
 10
36.841130355
 20
26.6781166429
 10
36.8474001959
 20
26.680657241
  0
LWPOLYLINE
  5
279
330
1F
100
AcDbEntity
  8
0
  6
Continuous
 62
     7
370
    25
100
AcDbPolyline
 90
       24
 70
   128
 43
0.0
 10
36.9314450942
 20
26.9585849321
 10
36.9270305957
 20
26.9607661102
 10
36.9141008005
 20
26.9646549756
 10
36.8999034406
 20
26.965571652
 10
36.8847275335
 20
26.9634974785
 10
36.8688820167
 20
26.9584746794
 10
36.8526894594
 20
26.9506055043
 10
36.8364794952
 20
26.940050147
 10
36.8205821124
 20
26.927023484
 10
36.8053209358
 20
26.9117907007
 10
36.7910066389
 20
26.8946618926
 10
36.7779306195
 20
26.8759857529
 10
36.7663590678
 20
26.8561424738
 10
36.756527547
 20
26.8355360074
 10
36.7486361986
 20
26.8145858418
 10
36.7428456678
 20
26.7937184621
 10
36.739273833
 20
26.7733586679
 10
36.7379934065
 20
26.7539209258
 10
36.7390304541
 20
26.7358009324
 10
36.7423638644
 20
26.7193675583
 10
36.7479257789
 20
26.7049553397
 10
36.755602973
 20
26.6928576678
 10
36.7652391612
 20
26.6833208163
 10
36.7709618173
 20
26.6794395798
  0
CIRCLE
  5
27A
330
1F
100
AcDbEntity
  8
0
  6
Continuous
 62
     7
370
    25
100
AcDbCircle
 10
26.1068062347
 20
11.937834872
 30
0.0
 40
0.4139999999999997
  0
CIRCLE
  5
27B
330
1F
100
AcDbEntity
  8
0
  6
Continuous
 62
     7
370
    25
100
AcDbCircle
 10
26.1068062347
 20
11.937834872
 30
0.0
 40
1.470000000000006
  0
CIRCLE
  5
27C
330
1F
100
AcDbEntity
  8
0
  6
Continuous
 62
     7
370
    25
100
AcDbCircle
 10
26.1068062347
 20
11.937834872
 30
0.0
 40
1.500000000000005
  0
DIMENSION
  5
27D
330
1F
100
AcDbEntity
  8
0
  6
Continuous
 62
     7
370
    18
100
AcDbDimension
  2
_D_6
 10
26.3138062347
 20
12.2963693892
 30
0.0
 11
20.084496387
 21
9.0561590887
 31
0.0
 70
   163
  1
<>\PFIXTURE MOUNTING\PHOLE
 71
     1
 42
-1.0
  3
SLDDIMSTYLE5
100
AcDbDiametricDimension
 15
25.8998062347
 25
11.5793003549
 35
0.0
 40
0.0
  0
DIMENSION
  5
290
330
1F
100
AcDbEntity
  8
0
  6
Continuous
 62
     7
370
    18
100
AcDbDimension
  2
_D_7
 10
24.807768129
 20
12.687834872
 30
0.0
 11
30.8907863958
 21
10.5032070744
 31
0.0
 70
   163
  1
<>
 71
     1
 42
-1.0
  3
SLDDIMSTYLE6
100
AcDbDiametricDimension
 15
27.4058443404
 25
11.187834872
 35
0.0
 40
0.0
  0
INSERT
  5
2AC
330
1F
100
AcDbEntity
  8
0
  6
Continuous
 62
     7
370
     0
100
AcDbBlockReference
  2
SW_CENTERMARKSYMBOL_0
 10
26.1068062347
 20
11.937834872
 30
0.0
  0
LINE
  5
2AD
330
1F
100
AcDbEntity
  8
0
  6
Continuous
 62
     7
370
    25
100
AcDbLine
 10
27.6068062347
 20
5.1935407652
 30
0.0
 11
27.6068062347
 21
6.6635407652
 31
0.0
  0
LINE
  5
2AE
330
1F
100
AcDbEntity
  8
0
  6
Continuous
 62
     7
370
    25
100
AcDbLine
 10
24.6068062347
 20
5.5005646022
 30
0.0
 11
24.6068062347
 21
5.1935407652
 31
0.0
  0
LINE
  5
2AF
330
1F
100
AcDbEntity
  8
0
  6
Continuous
 62
     7
370
    25
100
AcDbLine
 10
24.6068062347
 20
6.6635407652
 30
0.0
 11
24.6068062347
 21
5.6364838146
 31
0.0
  0
LINE
  5
2B0
330
1F
100
AcDbEntity
  8
0
  6
Continuous
 62
     7
370
    25
100
AcDbLine
 10
27.6068062347
 20
6.6635407652
 30
0.0
 11
27.5768062347
 21
6.6935407652
 31
0.0
  0
LINE
  5
2B1
330
1F
100
AcDbEntity
  8
0
  6
Continuous
 62
     7
370
    25
100
AcDbLine
 10
24.6368062347
 20
6.6935407652
 30
0.0
 11
24.6068062347
 21
6.6635407652
 31
0.0
  0
SPLINE
  5
2B2
330
1F
100
AcDbEntity
  8
0
  6
Continuous
 62
     7
370
    25
100
AcDbSpline
210
0.0
220
0.0
230
1.0
 70
    11
 71
     3
 72
    56
 73
    52
 74
     0
 42
0.00000001
 43
0.00000001
 40
0.0
 40
0.0
 40
0.0
 40
0.0
 40
0.0312500000000003
 40
0.0312500000000003
 40
0.0625000000000007
 40
0.0625000000000007
 40
0.093750000000001
 40
0.093750000000001
 40
0.1250000000000014
 40
0.1250000000000014
 40
0.1875000000000027
 40
0.1875000000000027
 40
0.2500000000000039
 40
0.2500000000000039
 40
0.2812500000000042
 40
0.2812500000000042
 40
0.3125000000000044
 40
0.3125000000000044
 40
0.3437500000000047
 40
0.3437500000000047
 40
0.3750000000000049
 40
0.3750000000000049
 40
0.4062500000000051
 40
0.4062500000000051
 40
0.4375000000000054
 40
0.4375000000000054
 40
0.4687500000000056
 40
0.4687500000000056
 40
0.5000000000000058
 40
0.5000000000000058
 40
0.5625000000000052
 40
0.5625000000000052
 40
0.6250000000000047
 40
0.6250000000000047
 40
0.6562500000000041
 40
0.6562500000000041
 40
0.6875000000000034
 40
0.6875000000000034
 40
0.7187500000000028
 40
0.7187500000000028
 40
0.7500000000000021
 40
0.7500000000000021
 40
0.8125000000000019
 40
0.8125000000000019
 40
0.8437500000000016
 40
0.8437500000000016
 40
0.8750000000000012
 40
0.8750000000000012
 40
0.9375000000000007
 40
0.9375000000000007
 40
1.0
 40
1.0
 40
1.0
 40
1.0
 10
26.91492489912389
 20
5.568540765200716
 30
0.0
 10
26.91492489912389
 20
5.573033791755972
 30
0.0
 10
26.91455314030176
 20
5.577451621585547
 30
0.0
 10
26.91309548913501
 20
5.586143073654608
 30
0.0
 10
26.91199186141396
 20
5.59046174754464
 30
0.0
 10
26.90910734898144
 20
5.59869642629866
 30
0.0
 10
26.90734087496227
 20
5.602601939061445
 30
0.0
 10
26.90316047676877
 20
5.609993292538111
 30
0.0
 10
26.90072444484683
 20
5.613492432902499
 30
0.0
 10
26.89272619372363
 20
5.622900506705042
 30
0.0
 10
26.88625771733691
 20
5.627966607672475
 30
0.0
 10
26.87222796873848
 20
5.63474962980469
 30
0.0
 10
26.86451973168823
 20
5.636536017173746
 30
0.0
 10
26.85299667082744
 20
5.636543124662428
 30
0.0
 10
26.84908508508296
 20
5.636101756277205
 30
0.0
 10
26.8414933518356
 20
5.634367089590327
 30
0.0
 10
26.83779393823513
 20
5.633083591757125
 30
0.0
 10
26.83059226590725
 20
5.629679487320787
 30
0.0
 10
26.82710056665547
 20
5.627550677472093
 30
0.0
 10
26.82062591798761
 20
5.622629419540109
 30
0.0
 10
26.8176012856376
 20
5.619819995052664
 30
0.0
 10
26.81199984651973
 20
5.613475852448901
 30
0.0
 10
26.80950859650224
 20
5.610036063800111
 30
0.0
 10
26.80514948018385
 20
5.602673349246238
 30
0.0
 10
26.80326228440498
 20
5.598700323611761
 30
0.0
 10
26.80023279248924
 20
5.590461041830666
 30
0.0
 10
26.79909012697023
 20
5.586222424016954
 30
0.0
 10
26.79754357207324
 20
5.577509903758409
 30
0.0
 10
26.79714685358845
 20
5.573002924791585
 30
0.0
 10
26.79714263696306
 20
5.559689145464941
 30
0.0
 10
26.79872467554448
 20
5.550742886334
 30
0.0
 10
26.80472893469316
 20
5.534371728419525
 30
0.0
 10
26.80921352719581
 20
5.526779754277665
 30
0.0
 10
26.81750081193115
 20
5.5173663273379
 30
0.0
 10
26.82057762254744
 20
5.514492869493552
 30
0.0
 10
26.82707330763195
 20
5.509547568640903
 30
0.0
 10
26.83049623681173
 20
5.507456302390589
 30
0.0
 10
26.83768877673704
 20
5.504039023155181
 30
0.0
 10
26.84146231459093
 20
5.502724930574355
 30
0.0
 10
26.84902889710041
 20
5.500989253759032
 30
0.0
 10
26.85286223452613
 20
5.500545320964036
 30
0.0
 10
26.86451615584388
 20
5.500531757305989
 30
0.0
 10
26.87212116841895
 20
5.502289417848719
 30
0.0
 10
26.88272805869693
 20
5.507403896224858
 30
0.0
 10
26.88606999170304
 20
5.509490154121662
 30
0.0
 10
26.89237710149277
 20
5.514414315760799
 30
0.0
 10
26.89535992169484
 20
5.517283475443397
 30
0.0
 10
26.90336884380173
 20
5.526690715059535
 30
0.0
 10
26.90765823999534
 20
5.534268360181103
 30
0.0
 10
26.91340284569911
 20
5.550627822224961
 30
0.0
 10
26.91492489912389
 20
5.559554712090206
 30
0.0
 10
26.91492489912389
 20
5.568540765200717
 30
0.0
  0
SPLINE
  5
2B3
330
1F
100
AcDbEntity
  8
0
  6
Continuous
 62
     7
370
    25
100
AcDbSpline
210
0.0
220
0.0
230
1.0
 70
     8
 71
     3
 72
    26
 73
    22
 74
     0
 42
0.00000001
 43
0.00000001
 40
0.0
 40
0.0
 40
0.0
 40
0.0
 40
0.052887933292722
 40
0.1057758766724722
 40
0.1602012452551087
 40
0.2146266430917572
 40
0.2675142170325966
 40
0.3204018216256165
 40
0.3748239747602685
 40
0.4292461523023156
 40
0.4821677610389339
 40
0.5350893731943257
 40
0.5895471024985243
 40
0.6440048133404404
 40
0.6969475692254733
 40
0.749890295902859
 40
0.8043732336760075
 40
0.858856138803498
 40
0.9117616881579502
 40
0.9646672212778037
 40
1.0
 40
1.0
 40
1.0
 40
1.0
 10
24.60834836074293
 20
5.568540765200715
 30
0.0
 10
24.6083462850372
 20
5.570424022640377
 30
0.0
 10
24.60834213362535
 20
5.574190537878883
 30
0.0
 10
24.60830897389875
 20
5.579855790183409
 30
0.0
 10
24.60825598699732
 20
5.585494632162902
 30
0.0
 10
24.60818316225895
 20
5.591011216973857
 30
0.0
 10
24.60809389516245
 20
5.596315007296496
 30
0.0
 10
24.60799038350395
 20
5.601426062868872
 30
0.0
 10
24.60787397762553
 20
5.606350564817874
 30
0.0
 10
24.60774907067707
 20
5.611003851787665
 30
0.0
 10
24.60762046739124
 20
5.615311745163001
 30
0.0
 10
24.60749065177284
 20
5.619296225583015
 30
0.0
 10
24.60736205589095
 20
5.622954952462774
 30
0.0
 10
24.60723960362774
 20
5.626222208859575
 30
0.0
 10
24.60712797323752
 20
5.629048278306239
 30
0.0
 10
24.60702869639631
 20
5.631455249833464
 30
0.0
 10
24.60694431731411
 20
5.633432095068832
 30
0.0
 10
24.60687783969061
 20
5.634945957147236
 30
0.0
 10
24.60683285642248
 20
5.635953227824086
 30
0.0
 10
24.60680842900995
 20
5.636492178023638
 30
0.0
 10
24.60680871407271
 20
5.636486205949123
 30
0.0
 10
24.6068088282188
 20
5.636483814584386
 30
0.0
  0
SPLINE
  5
2B4
330
1F
100
AcDbEntity
  8
0
  6
Continuous
 62
     7
370
    25
100
AcDbSpline
210
0.0
220
0.0
230
1.0
 70
     8
 71
     3
 72
    26
 73
    22
 74
     0
 42
0.00000001
 43
0.00000001
 40
0.0
 40
0.0
 40
0.0
 40
0.0
 40
0.0058320779002322
 40
0.0587078256365904
 40
0.1115835844656676
 40
0.1659955677931042
 40
0.2204075808989067
 40
0.2732843790646026
 40
0.3261612076567328
 40
0.380571490382757
 40
0.4349817966192466
 40
0.4879053753562489
 40
0.5408289564692915
 40
0.5952887987209065
 40
0.6497486215067411
 40
0.7026918418775913
 40
0.7556350326572812
 40
0.8101185141034437
 40
0.8646019632463048
 40
0.9319165552488384
 40
1.0
 40
1.0
 40
1.0
 40
1.0
 10
24.60680731604822
 20
5.500564602177169
 30
0.0
 10
24.60680696294784
 20
5.50055682084821
 30
0.0
 10
24.6068034085105
 20
5.500478491149678
 30
0.0
 10
24.6068172807241
 20
5.500783405572812
 30
0.0
 10
24.60684967851218
 20
5.501504038368283
 30
0.0
 10
24.60690559995748
 20
5.502762684653235
 30
0.0
 10
24.60698008801286
 20
5.504480780236717
 30
0.0
 10
24.60707101667622
 20
5.506640758828643
 30
0.0
 10
24.60717582385295
 20
5.509228270354722
 30
0.0
 10
24.60729322003581
 20
5.512266020026678
 30
0.0
 10
24.60741876443609
 20
5.515709305994247
 30
0.0
 10
24.60754764368889
 20
5.519495931325462
 30
0.0
 10
24.60767738435479
 20
5.523623842416186
 30
0.0
 10
24.60780553009527
 20
5.52811418919566
 30
0.0
 10
24.60792716346814
 20
5.532896482237832
 30
0.0
 10
24.6080376530945
 20
5.537887276033287
 30
0.0
 10
24.60813543073946
 20
5.543091775135507
 30
0.0
 10
24.60821821575603
 20
5.548529970219242
 30
0.0
 10
24.60828779761139
 20
5.554607866207107
 30
0.0
 10
24.60833818096251
 20
5.561293871975803
 30
0.0
 10
24.60834495466139
 20
5.566116006687817
 30
0.0
 10
24.60834836074293
 20
5.568540765200715
 30
0.0
  0
LINE
  5
2B5
330
1F
100
AcDbEntity
  8
0
  6
Continuous
 62
     7
370
    25
100
AcDbLine
 10
27.6068062347
 20
5.1935407652
 30
0.0
 11
24.6068062347
 21
5.1935407652
 31
0.0
  0
LINE
  5
2B6
330
1F
100
AcDbEntity
  8
0
  6
Continuous
 62
     7
370
    25
100
AcDbLine
 10
26.1068062347
 20
6.6635407652
 30
0.0
 11
24.6068062347
 21
6.6635407652
 31
0.0
  0
LINE
  5
2B7
330
1F
100
AcDbEntity
  8
0
  6
Continuous
 62
     7
370
    25
100
AcDbLine
 10
27.6068062347
 20
6.6635407652
 30
0.0
 11
26.1068062347
 21
6.6635407652
 31
0.0
  0
LINE
  5
2B8
330
1F
100
AcDbEntity
  8
0
  6
Continuous
 62
     7
370
    25
100
AcDbLine
 10
26.1068062347
 20
6.6935407652
 30
0.0
 11
27.5768062347
 21
6.6935407652
 31
0.0
  0
LINE
  5
2B9
330
1F
100
AcDbEntity
  8
0
  6
Continuous
 62
     7
370
    25
100
AcDbLine
 10
24.6368062347
 20
6.6935407652
 30
0.0
 11
26.1068062347
 21
6.6935407652
 31
0.0
  0
SPLINE
  5
2BA
330
1F
100
AcDbEntity
  8
0
  6
Continuous
 62
     7
370
    25
100
AcDbSpline
210
0.0
220
0.0
230
1.0
 70
     8
 71
     3
 72
    16
 73
    12
 74
     0
 42
0.00000001
 43
0.00000001
 40
0.0
 40
0.0
 40
0.0
 40
0.0
 40
0.111036352320337
 40
0.2224271914361861
 40
0.3334639463727402
 40
0.4444961786416701
 40
0.5558822068384048
 40
0.6669150171645002
 40
0.7780332052347391
 40
0.8895053255739321
 40
1.0
 40
1.0
 40
1.0
 40
1.0
 10
26.85235472019442
 20
5.568540765200715
 30
0.0
 10
26.85228356579894
 20
5.571085123526758
 30
0.0
 10
26.8521410298455
 20
5.576181963117061
 30
0.0
 10
26.85101862801375
 20
5.583726064522344
 30
0.0
 10
26.8492510572893
 20
5.591081959483566
 30
0.0
 10
26.84676776996047
 20
5.598146398243765
 30
0.0
 10
26.84363925137181
 20
5.604838895083767
 30
0.0
 10
26.83989730842215
 20
5.611085726747006
 30
0.0
 10
26.83555592084601
 20
5.616769803433859
 30
0.0
 10
26.83073360305658
 20
5.621897155545322
 30
0.0
 10
26.82713731216108
 20
5.624738992148968
 30
0.0
 10
26.8253470849694
 20
5.626153653340179
 30
0.0
  0
SPLINE
  5
2BB
330
1F
100
AcDbEntity
  8
0
  6
Continuous
 62
     7
370
    25
100
AcDbSpline
210
0.0
220
0.0
230
1.0
 70
     8
 71
     3
 72
    17
 73
    13
 74
     0
 42
0.00000001
 43
0.00000001
 40
0.0
 40
0.0
 40
0.0
 40
0.0
 40
0.0107946603676927
 40
0.1217696724282873
 40
0.2328627774018534
 40
0.3443097485270993
 40
0.455402686033608
 40
0.5665490492663988
 40
0.6780501638515498
 40
0.7891958810890148
 40
0.8945979723184244
 40
1.0
 40
1.0
 40
1.0
 40
1.0
 10
26.82531724251333
 20
5.51095452453307
 30
0.0
 10
26.82550154352766
 20
5.511075226031756
 30
0.0
 10
26.82758055976157
 20
5.51243680494724
 30
0.0
 10
26.83118818387069
 20
5.515722775288528
 30
0.0
 10
26.8360185955724
 20
5.520826014413593
 30
0.0
 10
26.84028444910296
 20
5.526601730575806
 30
0.0
 10
26.84398765085257
 20
5.532882663334206
 30
0.0
 10
26.84704710075405
 20
5.539631917983663
 30
0.0
 10
26.84945743606343
 20
5.546740682559238
 30
0.0
 10
26.85114161587351
 20
5.553997751146168
 30
0.0
 10
26.85216514366937
 20
5.561293557635929
 30
0.0
 10
26.8522915280321
 20
5.566125029831277
 30
0.0
 10
26.85235472019442
 20
5.568540765200715
 30
0.0
  0
DIMENSION
  5
2BC
330
1F
100
AcDbEntity
  8
0
  6
Continuous
 62
     7
370
    18
100
AcDbDimension
  2
_D_8
 10
28.2304149712
 20
5.1935407652
 30
0.0
 11
28.2304149712
 21
7.4862648575
 31
0.0
 70
   160
  1
<>
 71
     2
 42
-1.0
  3
SLDDIMSTYLE3
100
AcDbAlignedDimension
 13
27.5768062347
 23
6.6935407652
 33
0.0
 14
27.6068062347
 24
5.1935407652
 34
0.0
 50
90.0
100
AcDbRotatedDimension
  0
MTEXT
  5
2D1
330
1F
100
AcDbEntity
  8
0
  6
Continuous
 62
     7
370
     0
100
AcDbMText
 10
24.4409636984
 20
4.220491264
 30
0.0
 40
0.5
 41
0.0
 71
     1
 72
     1
  1
PP-HD CAP
  7
SLDTEXTSTYLE0
 73
     1
 44
1.0
  0
LWPOLYLINE
  5
2D2
330
1F
100
AcDbEntity
  8
0
  6
HIDDEN
 62
     7
370
     0
100
AcDbPolyline
 90
       17
 70
   128
 43
0.0
 10
26.7918543294
 20
5.5685407652
 10
26.7967984988
 20
5.5398395078
 10
26.810878302
 20
5.5155077566
 10
26.8319502166
 20
5.4992498003
 10
26.8568062347
 20
5.4935407652
 10
26.8816622527
 20
5.4992498003
 10
26.9027341674
 20
5.5155077566
 10
26.9168139706
 20
5.5398395078
 10
26.92175814
 20
5.5685407652
 10
26.9168139706
 20
5.5972420226
 10
26.9027341674
 20
5.6215737738
 10
26.8816622527
 20
5.6378317301
 10
26.8568062347
 20
5.6435407652
 10
26.8319502166
 20
5.6378317301
 10
26.810878302
 20
5.6215737738
 10
26.7967984988
 20
5.5972420226
 10
26.7918543294
 20
5.5685407652
  0
LWPOLYLINE
  5
2D3
330
1F
100
AcDbEntity
  8
0
  6
HIDDEN
 62
     7
370
     0
100
AcDbPolyline
 90
       17
 70
   128
 43
0.0
 10
26.92175814
 20
5.5685407652
 10
26.9168139706
 20
5.5398395078
 10
26.9027341674
 20
5.5155077566
 10
26.8816622527
 20
5.4992498003
 10
26.8568062347
 20
5.4935407652
 10
26.8319502166
 20
5.4992498003
 10
26.810878302
 20
5.5155077566
 10
26.7967984988
 20
5.5398395078
 10
26.7918543294
 20
5.5685407652
 10
26.7967984988
 20
5.5972420226
 10
26.810878302
 20
5.6215737738
 10
26.8319502166
 20
5.6378317301
 10
26.8568062347
 20
5.6435407652
 10
26.8816622527
 20
5.6378317301
 10
26.9027341674
 20
5.6215737738
 10
26.9168139706
 20
5.5972420226
 10
26.92175814
 20
5.5685407652
  0
LWPOLYLINE
  5
2D4
330
1F
100
AcDbEntity
  8
0
  6
HIDDEN
 62
     7
370
     0
100
AcDbPolyline
 90
       17
 70
   128
 43
0.0
 10
26.8568062347
 20
5.6435407652
 10
26.8319502166
 20
5.6378317301
 10
26.810878302
 20
5.6215737738
 10
26.7967984988
 20
5.5972420226
 10
26.7918543294
 20
5.5685407652
 10
26.7967984988
 20
5.5398395078
 10
26.810878302
 20
5.5155077566
 10
26.8319502166
 20
5.4992498003
 10
26.8568062347
 20
5.4935407652
 10
26.8816622527
 20
5.4992498003
 10
26.9027341674
 20
5.5155077566
 10
26.9168139706
 20
5.5398395078
 10
26.92175814
 20
5.5685407652
 10
26.9168139706
 20
5.5972420226
 10
26.9027341674
 20
5.6215737738
 10
26.8816622527
 20
5.6378317301
 10
26.8568062347
 20
5.6435407652
  0
LWPOLYLINE
  5
2D5
330
1F
100
AcDbEntity
  8
0
  6
HIDDEN
 62
     7
370
     0
100
AcDbPolyline
 90
       17
 70
   128
 43
0.0
 10
26.8568062347
 20
5.4935407652
 10
26.8319502166
 20
5.4992498003
 10
26.810878302
 20
5.5155077566
 10
26.7967984988
 20
5.5398395078
 10
26.7918543294
 20
5.5685407652
 10
26.7967984988
 20
5.5972420226
 10
26.810878302
 20
5.6215737738
 10
26.8319502166
 20
5.6378317301
 10
26.8568062347
 20
5.6435407652
 10
26.8816622527
 20
5.6378317301
 10
26.9027341674
 20
5.6215737738
 10
26.9168139706
 20
5.5972420226
 10
26.92175814
 20
5.5685407652
 10
26.9168139706
 20
5.5398395078
 10
26.9027341674
 20
5.5155077566
 10
26.8816622527
 20
5.4992498003
 10
26.8568062347
 20
5.4935407652
  0
ENDSEC
  0
SECTION
  2
OBJECTS
  0
DICTIONARY
  5
C
330
0
100
AcDbDictionary
281
     1
  3
ACAD_GROUP
350
D
  3
ACAD_LAYOUT
350
1A
  3
ACAD_MLINESTYLE
350
17
  3
ACAD_PLOTSETTINGS
350
19
  3
ACAD_PLOTSTYLENAME
350
E
  3
ACAD_SCALELIST
350
47
  3
DWGPROPS
350
2D6
  0
DICTIONARY
  5
D
102
{ACAD_REACTORS
330
C
102
}
330
C
100
AcDbDictionary
281
     1
  0
DICTIONARY
  5
1A
102
{ACAD_REACTORS
330
C
102
}
330
C
100
AcDbDictionary
281
     1
  3
Layout1
350
1E
  3
Layout2
350
26
  3
Model
350
22
  0
DICTIONARY
  5
17
102
{ACAD_REACTORS
330
C
102
}
330
C
100
AcDbDictionary
281
     1
  3
Standard
350
18
  0
DICTIONARY
  5
19
102
{ACAD_REACTORS
330
C
102
}
330
C
100
AcDbDictionary
281
     1
  0
ACDBDICTIONARYWDFLT
  5
E
102
{ACAD_REACTORS
330
C
102
}
330
C
100
AcDbDictionary
281
     1
  3
Normal
350
F
100
AcDbDictionaryWithDefault
340
F
  0
DICTIONARY
  5
47
102
{ACAD_REACTORS
330
C
102
}
330
C
100
AcDbDictionary
281
     1
  3
A0
350
48
  3
A1
350
49
  3
A2
350
4A
  3
A3
350
4B
  3
A4
350
4C
  3
A5
350
4D
  3
A6
350
4E
  3
A7
350
4F
  3
A8
350
50
  3
A9
350
51
  3
B1
350
52
  3
B2
350
53
  3
B3
350
54
  3
B4
350
55
  3
B5
350
56
  3
B6
350
57
  3
B7
350
58
  0
XRECORD
  5
2D6
102
{ACAD_REACTORS
330
C
102
}
330
C
100
AcDbXrecord
280
     1
  1
DWGPROPS COOKIE
  2

  3

  4

  6

  7

  8
shawnd
  9

300
=
301
=
302
=
303
=
304
=
305
=
306
=
307
=
308
=
309
=
 40
0.0
 41
2460887.884742292
 42
2460887.884743056
  1

 90
        0
  0
LAYOUT
  5
1E
102
{ACAD_REACTORS
330
1A
102
}
330
1A
100
AcDbPlotSettings
  1

  2
none_device
  4

  6

 40
0.0
 41
0.0
 42
0.0
 43
0.0
 44
0.0
 45
0.0
 46
0.0
 47
0.0
 48
0.0
 49
0.0
140
0.0
141
0.0
142
1.0
143
1.0
 70
   688
 72
     0
 73
     0
 74
     5
  7

 75
    16
147
1.0
148
0.0
149
0.0
100
AcDbLayout
  1
Layout1
 70
     1
 71
     1
 10
0.0
 20
0.0
 11
12.0
 21
9.0
 12
0.0
 22
0.0
 32
0.0
 14
1.0000000000E+20
 24
1.0000000000E+20
 34
1.0000000000E+20
 15
-1.0000000000E+20
 25
-1.0000000000E+20
 35
-1.0000000000E+20
146
0.0
 13
0.0
 23
0.0
 33
0.0
 16
1.0
 26
0.0
 36
0.0
 17
0.0
 27
1.0
 37
0.0
 76
     0
330
1B
  0
LAYOUT
  5
26
102
{ACAD_REACTORS
330
1A
102
}
330
1A
100
AcDbPlotSettings
  1

  2
none_device
  4

  6

 40
0.0
 41
0.0
 42
0.0
 43
0.0
 44
0.0
 45
0.0
 46
0.0
 47
0.0
 48
0.0
 49
0.0
140
0.0
141
0.0
142
1.0
143
1.0
 70
   688
 72
     0
 73
     0
 74
     5
  7

 75
    16
147
1.0
148
0.0
149
0.0
100
AcDbLayout
  1
Layout2
 70
     1
 71
     2
 10
0.0
 20
0.0
 11
0.0
 21
0.0
 12
0.0
 22
0.0
 32
0.0
 14
0.0
 24
0.0
 34
0.0
 15
0.0
 25
0.0
 35
0.0
146
0.0
 13
0.0
 23
0.0
 33
0.0
 16
1.0
 26
0.0
 36
0.0
 17
0.0
 27
1.0
 37
0.0
 76
     0
330
23
  0
LAYOUT
  5
22
102
{ACAD_REACTORS
330
1A
102
}
330
1A
100
AcDbPlotSettings
  1

  2
none_device
  4
Letter_(8.50_x_11.00_Inches)
  6

 40
6.35
 41
6.35
 42
6.35000508
 43
6.35000508
 44
215.9
 45
279.4
 46
0.0
 47
0.0
 48
0.0
 49
0.0
140
0.0
141
0.0
142
1.0
143
1.0
 70
  1712
 72
     0
 73
     0
 74
     0
  7

 75
     0
147
1.0
148
0.0
149
0.0
100
AcDbLayout
  1
Model
 70
     1
 71
     0
 10
0.0
 20
0.0
 11
44.0
 21
34.0
 12
0.0
 22
0.0
 32
0.0
 14
0.0
 24
0.0
 34
0.0
 15
44.0
 25
34.0
 35
0.0
146
0.0
 13
0.0
 23
0.0
 33
0.0
 16
1.0
 26
0.0
 36
0.0
 17
0.0
 27
1.0
 37
0.0
 76
     0
330
1F
331
29
  0
MLINESTYLE
  5
18
102
{ACAD_REACTORS
330
17
102
}
330
17
100
AcDbMlineStyle
  2
Standard
 70
     0
  3

 62
   256
 51
90.0
 52
90.0
 71
     2
 49
0.5
 62
   256
  6
BYLAYER
 49
-0.5
 62
   256
  6
BYLAYER
  0
ACDBPLACEHOLDER
  5
F
102
{ACAD_REACTORS
330
E
102
}
330
E
  0
SCALE
  5
48
102
{ACAD_REACTORS
330
47
102
}
330
47
100
AcDbScale
 70
     0
300
1:1
140
1.0
141
1.0
290
     1
  0
SCALE
  5
49
102
{ACAD_REACTORS
330
47
102
}
330
47
100
AcDbScale
 70
     0
300
1/128" = 1'-0"
140
0.0078125
141
12.0
290
     0
  0
SCALE
  5
4A
102
{ACAD_REACTORS
330
47
102
}
330
47
100
AcDbScale
 70
     0
300
1/64" = 1'-0"
140
0.015625
141
12.0
290
     0
  0
SCALE
  5
4B
102
{ACAD_REACTORS
330
47
102
}
330
47
100
AcDbScale
 70
     0
300
1/32" = 1'-0"
140
0.03125
141
12.0
290
     0
  0
SCALE
  5
4C
102
{ACAD_REACTORS
330
47
102
}
330
47
100
AcDbScale
 70
     0
300
1/16" = 1'-0"
140
0.0625
141
12.0
290
     0
  0
SCALE
  5
4D
102
{ACAD_REACTORS
330
47
102
}
330
47
100
AcDbScale
 70
     0
300
3/32" = 1'-0"
140
0.09375
141
12.0
290
     0
  0
SCALE
  5
4E
102
{ACAD_REACTORS
330
47
102
}
330
47
100
AcDbScale
 70
     0
300
1/8" = 1'-0"
140
0.125
141
12.0
290
     0
  0
SCALE
  5
4F
102
{ACAD_REACTORS
330
47
102
}
330
47
100
AcDbScale
 70
     0
300
3/16" = 1'-0"
140
0.1875
141
12.0
290
     0
  0
SCALE
  5
50
102
{ACAD_REACTORS
330
47
102
}
330
47
100
AcDbScale
 70
     0
300
1/4" = 1'-0"
140
0.25
141
12.0
290
     0
  0
SCALE
  5
51
102
{ACAD_REACTORS
330
47
102
}
330
47
100
AcDbScale
 70
     0
300
3/8" = 1'-0"
140
0.375
141
12.0
290
     0
  0
SCALE
  5
52
102
{ACAD_REACTORS
330
47
102
}
330
47
100
AcDbScale
 70
     0
300
1/2" = 1'-0"
140
0.5
141
12.0
290
     0
  0
SCALE
  5
53
102
{ACAD_REACTORS
330
47
102
}
330
47
100
AcDbScale
 70
     0
300
3/4" = 1'-0"
140
0.75
141
12.0
290
     0
  0
SCALE
  5
54
102
{ACAD_REACTORS
330
47
102
}
330
47
100
AcDbScale
 70
     0
300
1" = 1'-0"
140
1.0
141
12.0
290
     0
  0
SCALE
  5
55
102
{ACAD_REACTORS
330
47
102
}
330
47
100
AcDbScale
 70
     0
300
1-1/2" = 1'-0"
140
1.5
141
12.0
290
     0
  0
SCALE
  5
56
102
{ACAD_REACTORS
330
47
102
}
330
47
100
AcDbScale
 70
     0
300
3" = 1'-0"
140
3.0
141
12.0
290
     0
  0
SCALE
  5
57
102
{ACAD_REACTORS
330
47
102
}
330
47
100
AcDbScale
 70
     0
300
6" = 1'-0"
140
6.0
141
12.0
290
     0
  0
SCALE
  5
58
102
{ACAD_REACTORS
330
47
102
}
330
47
100
AcDbScale
 70
     0
300
1'-0" = 1'-0"
140
12.0
141
12.0
290
     0
  0
ENDSEC
  0
EOF
