  0
SECTION
  2
HEADER
  9
$ACADVER
  1
AC1015
  9
$ACADMAINTVER
 70
     6
  9
$DWGCODEPAGE
  3
ANSI_1252
  9
$INSBASE
 10
0.0
 20
0.0
 30
0.0
  9
$EXTMIN
 10
0.0
 20
0.0
 30
0.0
  9
$EXTMAX
 10
22.0
 20
17.0
 30
0.0
  9
$LIMMIN
 10
0.0
 20
0.0
  9
$LIMMAX
 10
22.0
 20
17.0
  9
$ORTHOMODE
 70
     0
  9
$REGENMODE
 70
     1
  9
$FILLMODE
 70
     1
  9
$QTEXTMODE
 70
     0
  9
$MIRRTEXT
 70
     1
  9
$LTSCALE
 40
2.0
  9
$ATTMODE
 70
     1
  9
$TEXTSIZE
 40
0.2755905512
  9
$TRACEWID
 40
0.05
  9
$TEXTSTYLE
  7
Standard
  9
$CLAYER
  8
0
  9
$CELTYPE
  6
ByLayer
  9
$CECOLOR
 62
   256
  9
$CELTSCALE
 40
1.0
  9
$DISPSILH
 70
     0
  9
$DIMSCALE
 40
1.0
  9
$DIMASZ
 40
0.26
  9
$DIMEXO
 40
0.0787401575
  9
$DIMDLI
 40
0.38
  9
$DIMRND
 40
0.0
  9
$DIMDLE
 40
0.0
  9
$DIMEXE
 40
0.0787401575
  9
$DIMTP
 40
0.0
  9
$DIMTM
 40
0.0
  9
$DIMTXT
 40
0.2755905512
  9
$DIMCEN
 40
0.09
  9
$DIMTSZ
 40
0.0
  9
$DIMTOL
 70
     0
  9
$DIMLIM
 70
     0
  9
$DIMTIH
 70
     1
  9
$DIMTOH
 70
     1
  9
$DIMSE1
 70
     0
  9
$DIMSE2
 70
     0
  9
$DIMTAD
 70
     1
  9
$DIMZIN
 70
     1
  9
$DIMBLK
  1

  9
$DIMASO
 70
     1
  9
$DIMSHO
 70
     1
  9
$DIMPOST
  1

  9
$DIMAPOST
  1

  9
$DIMALT
 70
     0
  9
$DIMALTD
 70
     2
  9
$DIMALTF
 40
25.4
  9
$DIMLFAC
 40
1.0
  9
$DIMTOFL
 70
     0
  9
$DIMTVP
 40
0.0
  9
$DIMTIX
 70
     0
  9
$DIMSOXD
 70
     0
  9
$DIMSAH
 70
     0
  9
$DIMBLK1
  1

  9
$DIMBLK2
  1

  9
$DIMSTYLE
  2
Standard
  9
$DIMCLRD
 70
     0
  9
$DIMCLRE
 70
     0
  9
$DIMCLRT
 70
     0
  9
$DIMTFAC
 40
1.0
  9
$DIMGAP
 40
0.12
  9
$DIMJUST
 70
     0
  9
$DIMSD1
 70
     0
  9
$DIMSD2
 70
     0
  9
$DIMTOLJ
 70
     1
  9
$DIMTZIN
 70
     1
  9
$DIMALTZ
 70
     0
  9
$DIMALTTZ
 70
     0
  9
$DIMUPT
 70
     0
  9
$DIMDEC
 70
     0
  9
$DIMTDEC
 70
     0
  9
$DIMALTU
 70
     2
  9
$DIMALTTD
 70
     2
  9
$DIMTXSTY
  7
Standard
  9
$DIMAUNIT
 70
     0
  9
$DIMADEC
 70
     2
  9
$DIMALTRND
 40
0.0
  9
$DIMAZIN
 70
     0
  9
$DIMDSEP
 70
    46
  9
$DIMATFIT
 70
     3
  9
$DIMFRAC
 70
     0
  9
$DIMLDRBLK
  1

  9
$DIMLUNIT
 70
     2
  9
$DIMLWD
 70
    -2
  9
$DIMLWE
 70
    -2
  9
$DIMTMOVE
 70
     0
  9
$LUNITS
 70
     2
  9
$LUPREC
 70
     6
  9
$SKETCHINC
 40
0.1
  9
$FILLETRAD
 40
0.0
  9
$AUNITS
 70
     0
  9
$AUPREC
 70
     2
  9
$MENU
  1
.
  9
$ELEVATION
 40
0.0
  9
$PELEVATION
 40
0.0
  9
$THICKNESS
 40
0.0
  9
$LIMCHECK
 70
     0
  9
$CHAMFERA
 40
0.0
  9
$CHAMFERB
 40
0.0
  9
$CHAMFERC
 40
0.0
  9
$CHAMFERD
 40
0.0
  9
$SKPOLY
 70
     0
  9
$TDCREATE
 40
2460858.570248415
  9
$TDUCREATE
 40
2460858.861915081
  9
$TDUPDATE
 40
2460858.570249086
  9
$TDUUPDATE
 40
2460858.861915753
  9
$TDINDWG
 40
0.0000000116
  9
$TDUSRTIMER
 40
0.0000000116
  9
$USRTIMER
 70
     1
  9
$ANGBASE
 50
0.0
  9
$ANGDIR
 70
     0
  9
$PDMODE
 70
     0
  9
$PDSIZE
 40
-1.0
  9
$PLINEWID
 40
0.0
  9
$SPLFRAME
 70
     0
  9
$SPLINETYPE
 70
     6
  9
$SPLINESEGS
 70
     8
  9
$HANDSEED
  5
296
  9
$SURFTAB1
 70
     6
  9
$SURFTAB2
 70
     6
  9
$SURFTYPE
 70
     6
  9
$SURFU
 70
     6
  9
$SURFV
 70
     6
  9
$UCSBASE
  2

  9
$UCSNAME
  2

  9
$UCSORG
 10
0.0
 20
0.0
 30
0.0
  9
$UCSXDIR
 10
1.0
 20
0.0
 30
0.0
  9
$UCSYDIR
 10
0.0
 20
1.0
 30
0.0
  9
$UCSORTHOREF
  2

  9
$UCSORTHOVIEW
 70
     0
  9
$UCSORGTOP
 10
0.0
 20
0.0
 30
0.0
  9
$UCSORGBOTTOM
 10
0.0
 20
0.0
 30
0.0
  9
$UCSORGLEFT
 10
0.0
 20
0.0
 30
0.0
  9
$UCSORGRIGHT
 10
0.0
 20
0.0
 30
0.0
  9
$UCSORGFRONT
 10
0.0
 20
0.0
 30
0.0
  9
$UCSORGBACK
 10
0.0
 20
0.0
 30
0.0
  9
$PUCSBASE
  2

  9
$PUCSNAME
  2

  9
$PUCSORG
 10
0.0
 20
0.0
 30
0.0
  9
$PUCSXDIR
 10
1.0
 20
0.0
 30
0.0
  9
$PUCSYDIR
 10
0.0
 20
1.0
 30
0.0
  9
$PUCSORTHOREF
  2

  9
$PUCSORTHOVIEW
 70
     0
  9
$PUCSORGTOP
 10
0.0
 20
0.0
 30
0.0
  9
$PUCSORGBOTTOM
 10
0.0
 20
0.0
 30
0.0
  9
$PUCSORGLEFT
 10
0.0
 20
0.0
 30
0.0
  9
$PUCSORGRIGHT
 10
0.0
 20
0.0
 30
0.0
  9
$PUCSORGFRONT
 10
0.0
 20
0.0
 30
0.0
  9
$PUCSORGBACK
 10
0.0
 20
0.0
 30
0.0
  9
$USERI1
 70
     0
  9
$USERI2
 70
     0
  9
$USERI3
 70
     0
  9
$USERI4
 70
     0
  9
$USERI5
 70
     0
  9
$USERR1
 40
0.0
  9
$USERR2
 40
0.0
  9
$USERR3
 40
0.0
  9
$USERR4
 40
0.0
  9
$USERR5
 40
0.0
  9
$WORLDVIEW
 70
     1
  9
$SHADEDGE
 70
     3
  9
$SHADEDIF
 70
    70
  9
$TILEMODE
 70
     1
  9
$MAXACTVP
 70
    64
  9
$PINSBASE
 10
0.0
 20
0.0
 30
0.0
  9
$PLIMCHECK
 70
     0
  9
$PEXTMIN
 10
1.0000000000E+20
 20
1.0000000000E+20
 30
1.0000000000E+20
  9
$PEXTMAX
 10
-1.0000000000E+20
 20
-1.0000000000E+20
 30
-1.0000000000E+20
  9
$PLIMMIN
 10
0.0
 20
0.0
  9
$PLIMMAX
 10
12.0
 20
9.0
  9
$UNITMODE
 70
     0
  9
$VISRETAIN
 70
     1
  9
$PLINEGEN
 70
     0
  9
$PSLTSCALE
 70
     1
  9
$TREEDEPTH
 70
  3020
  9
$CMLSTYLE
  2
Standard
  9
$CMLJUST
 70
     0
  9
$CMLSCALE
 40
1.0
  9
$PROXYGRAPHICS
 70
     1
  9
$MEASUREMENT
 70
     0
  9
$CELWEIGHT
370
    -1
  9
$ENDCAPS
280
     0
  9
$JOINSTYLE
280
     0
  9
$LWDISPLAY
290
     1
  9
$INSUNITS
 70
     1
  9
$HYPERLINKBASE
  1

  9
$STYLESHEET
  1

  9
$XEDIT
290
     1
  9
$CEPSNTYPE
380
     0
  9
$PSTYLEMODE
290
     1
  9
$FINGERPRINTGUID
  2
{c4aaf1a9-7990-494e-8d87-feef97d32965}
  9
$VERSIONGUID
  2
{FAEB1C32-E019-11D5-929B-00C0DF256EC4}
  9
$EXTNAMES
290
     1
  9
$PSVPSCALE
 40
0.0
  9
$OLESTARTUP
290
     0
  0
ENDSEC
  0
SECTION
  2
CLASSES
  0
CLASS
  1
ACDBDICTIONARYWDFLT
  2
AcDbDictionaryWithDefault
  3
ObjectDBX Classes
 90
        0
280
     0
281
     0
  0
CLASS
  1
VISUALSTYLE
  2
AcDbVisualStyle
  3
ObjectDBX Classes
 90
     4095
280
     0
281
     0
  0
CLASS
  1
MATERIAL
  2
AcDbMaterial
  3
ObjectDBX Classes
 90
     1153
280
     0
281
     0
  0
CLASS
  1
SCALE
  2
AcDbScale
  3
ObjectDBX Classes
 90
     1153
280
     0
281
     0
  0
CLASS
  1
TABLESTYLE
  2
AcDbTableStyle
  3
ObjectDBX Classes
 90
     4095
280
     0
281
     0
  0
CLASS
  1
MLEADERSTYLE
  2
AcDbMLeaderStyle
  3
ACDB_MLEADERSTYLE_CLASS
 90
     4095
280
     0
281
     0
  0
CLASS
  1
SUN
  2
AcDbSun
  3
SCENEOE
 90
     1153
280
     0
281
     0
  0
CLASS
  1
ACDBPLACEHOLDER
  2
AcDbPlaceHolder
  3
ObjectDBX Classes
 90
        0
280
     0
281
     0
  0
CLASS
  1
LAYOUT
  2
AcDbLayout
  3
ObjectDBX Classes
 90
        0
280
     0
281
     0
  0
ENDSEC
  0
SECTION
  2
TABLES
  0
TABLE
  2
VPORT
  5
8
330
0
100
AcDbSymbolTable
 70
     1
  0
VPORT
  5
29
330
8
100
AcDbSymbolTableRecord
100
AcDbViewportTableRecord
  2
*Active
 70
     0
 10
0.0
 20
0.0
 11
1.0
 21
1.0
 12
11.0
 22
8.5
 13
0.0
 23
0.0
 14
0.5
 24
0.5
 15
0.5
 25
0.5
 16
0.0
 26
0.0
 36
1.0
 17
0.0
 27
0.0
 37
0.0
 40
17.0
 41
1.2941176471
 42
50.0
 43
0.0
 44
0.0
 50
0.0
 51
0.0
 71
     0
 72
  2000
 73
     1
 74
     3
 75
     0
 76
     0
 77
     0
 78
     0
281
     0
 65
     1
110
0.0
120
0.0
130
0.0
111
1.0
121
0.0
131
0.0
112
0.0
122
1.0
132
0.0
 79
     0
146
0.0
  0
ENDTAB
  0
TABLE
  2
LTYPE
  5
5
330
0
100
AcDbSymbolTable
 70
     6
  0
LTYPE
  5
14
330
5
100
AcDbSymbolTableRecord
100
AcDbLinetypeTableRecord
  2
ByBlock
 70
     0
  3

 72
    65
 73
     0
 40
0.0
  0
LTYPE
  5
15
330
5
100
AcDbSymbolTableRecord
100
AcDbLinetypeTableRecord
  2
ByLayer
 70
     0
  3

 72
    65
 73
     0
 40
0.0
  0
LTYPE
  5
16
330
5
100
AcDbSymbolTableRecord
100
AcDbLinetypeTableRecord
  2
Continuous
 70
     0
  3
Solid line
 72
    65
 73
     0
 40
0.0
  0
LTYPE
  5
5E
330
5
100
AcDbSymbolTableRecord
100
AcDbLinetypeTableRecord
  2
HIDDEN
 70
     0
  3
Hidden __ __ __ __ __ __ __ __ __ __ __ __ __ __
 72
    65
 73
     2
 40
0.075
 49
0.05
 74
     0
 49
-0.025
 74
     0
  0
LTYPE
  5
5F
330
5
100
AcDbSymbolTableRecord
100
AcDbLinetypeTableRecord
  2
PHANTOM
 70
     0
  3
Phantom ______  __  __  ______  __  __  ______
 72
    65
 73
     6
 40
0.5
 49
0.25
 74
     0
 49
-0.05
 74
     0
 49
0.05
 74
     0
 49
-0.05
 74
     0
 49
0.05
 74
     0
 49
-0.05
 74
     0
  0
LTYPE
  5
60
330
5
100
AcDbSymbolTableRecord
100
AcDbLinetypeTableRecord
  2
CENTER
 70
     0
  3
Center ____ _ ____ _ ____ _ ____ _ ____ _ ____
 72
    65
 73
     4
 40
0.4
 49
0.25
 74
     0
 49
-0.05
 74
     0
 49
0.05
 74
     0
 49
-0.05
 74
     0
  0
LTYPE
  5
61
330
5
100
AcDbSymbolTableRecord
100
AcDbLinetypeTableRecord
  2
CENTERX2
 70
     0
  3
Center (2x) ________  __  ________  __  _____
 72
    65
 73
     4
 40
0.8
 49
0.5
 74
     0
 49
-0.1
 74
     0
 49
0.1
 74
     0
 49
-0.1
 74
     0
  0
LTYPE
  5
62
330
5
100
AcDbSymbolTableRecord
100
AcDbLinetypeTableRecord
  2
DOT2
 70
     0
  3
Dot (.5x) ........................................
 72
    65
 73
     2
 40
0.025
 49
0.0
 74
     0
 49
-0.025
 74
     0
  0
ENDTAB
  0
TABLE
  2
LAYER
  5
2
330
0
100
AcDbSymbolTable
 70
    11
  0
LAYER
  5
10
330
2
100
AcDbSymbolTableRecord
100
AcDbLayerTableRecord
  2
0
 70
     0
 62
     7
  6
Continuous
370
    -3
390
F
  0
LAYER
  5
63
330
2
100
AcDbSymbolTableRecord
100
AcDbLayerTableRecord
  2
SLD-0
 70
     0
 62
     7
  6
Continuous
370
    -3
390
F
  0
LAYER
  5
64
330
2
100
AcDbSymbolTableRecord
100
AcDbLayerTableRecord
  2
DIM
 70
     0
 62
     7
  6
Continuous
370
    -3
390
F
  0
LAYER
  5
65
330
2
100
AcDbSymbolTableRecord
100
AcDbLayerTableRecord
  2
CEN
 70
     0
 62
     1
  6
CENTER
370
    -3
390
F
  0
LAYER
  5
66
330
2
100
AcDbSymbolTableRecord
100
AcDbLayerTableRecord
  2
HAT
 70
     0
 62
     4
  6
Continuous
370
    -3
390
F
  0
LAYER
  5
67
330
2
100
AcDbSymbolTableRecord
100
AcDbLayerTableRecord
  2
OBJ
 70
     0
 62
     5
  6
Continuous
370
    -3
390
F
  0
LAYER
  5
68
330
2
100
AcDbSymbolTableRecord
100
AcDbLayerTableRecord
  2
SLD-DEFPOINTS
 70
     0
 62
     7
  6
Continuous
370
    -3
390
F
  0
LAYER
  5
69
330
2
100
AcDbSymbolTableRecord
100
AcDbLayerTableRecord
  2
HID
 70
     0
 62
     4
  6
HIDDEN
370
    -3
390
F
  0
LAYER
  5
6A
330
2
100
AcDbSymbolTableRecord
100
AcDbLayerTableRecord
  2
NOTE
 70
     0
 62
     7
  6
Continuous
370
    -3
390
F
  0
LAYER
  5
6B
330
2
100
AcDbSymbolTableRecord
100
AcDbLayerTableRecord
  2
TITLE
 70
     0
 62
     7
  6
Continuous
370
    -3
390
F
  0
LAYER
  5
6C
330
2
100
AcDbSymbolTableRecord
100
AcDbLayerTableRecord
  2
THICK_TITLE
 70
     0
 62
     7
  6
Continuous
370
   100
390
F
  0
ENDTAB
  0
TABLE
  2
STYLE
  5
3
330
0
100
AcDbSymbolTable
 70
     3
  0
STYLE
  5
11
330
3
100
AcDbSymbolTableRecord
100
AcDbTextStyleTableRecord
  2
Standard
 70
     0
 40
0.0
 41
1.0
 50
0.0
 71
     0
 42
0.2755905512
  3
txt
  4

  0
STYLE
  5
EF
330
3
100
AcDbSymbolTableRecord
100
AcDbTextStyleTableRecord
  2
SLDTEXTSTYLE0
 70
     0
 40
0.0
 41
0.75
 50
0.0
 71
     0
 42
0.2755905512
  3
TXT
  4

  0
STYLE
  5
272
330
3
100
AcDbSymbolTableRecord
100
AcDbTextStyleTableRecord
  2
SLDTEXTSTYLE1
 70
     0
 40
0.0
 41
0.7
 50
0.0
 71
     0
 42
0.2755905512
  3
TXT
  4

  0
ENDTAB
  0
TABLE
  2
VIEW
  5
6
330
0
100
AcDbSymbolTable
 70
     0
  0
ENDTAB
  0
TABLE
  2
UCS
  5
7
330
0
100
AcDbSymbolTable
 70
     0
  0
ENDTAB
  0
TABLE
  2
APPID
  5
9
330
0
100
AcDbSymbolTable
 70
     1
  0
APPID
  5
12
330
9
100
AcDbSymbolTableRecord
100
AcDbRegAppTableRecord
  2
ACAD
 70
     0
  0
ENDTAB
  0
TABLE
  2
DIMSTYLE
  5
A
330
0
100
AcDbSymbolTable
 70
     5
100
AcDbDimStyleTable
  0
DIMSTYLE
105
27
330
A
100
AcDbSymbolTableRecord
100
AcDbDimStyleTableRecord
  2
Standard
 70
     0
178
     0
340
11
  0
DIMSTYLE
105
F0
102
{ACAD_REACTORS
330
EE
330
119
330
12C
330
21C
330
23E
330
25E
102
}
330
A
100
AcDbSymbolTableRecord
100
AcDbDimStyleTableRecord
  2
SLDDIMSTYLE0
 70
     0
 41
0.26
 44
0.0
 45
0.000000001
 78
    12
 79
     3
140
0.2083333333
147
0.0520833333
148
0.000000001
170
     1
173
     1
178
     0
271
     6
272
     0
276
     2
277
     5
284
    12
340
EF
  0
DIMSTYLE
105
105
102
{ACAD_REACTORS
330
104
102
}
330
A
100
AcDbSymbolTableRecord
100
AcDbDimStyleTableRecord
  2
SLDDIMSTYLE1
 70
     0
 41
0.26
 44
0.0
 45
0.000000001
 78
    12
 79
     3
140
0.2083333333
147
0.0520833333
148
0.000000001
170
     1
172
     1
173
     1
178
     0
271
     6
272
     0
276
     2
277
     5
284
    12
289
     0
340
EF
  0
DIMSTYLE
105
142
330
A
100
AcDbSymbolTableRecord
100
AcDbDimStyleTableRecord
  2
SLDDIMSTYLE2
 70
     0
 41
0.26
 44
0.0
 45
0.000000001
146
0.26
147
0.0
173
     1
178
     0
271
     0
272
     0
276
     2
277
     5
340
11
  0
DIMSTYLE
105
280
102
{ACAD_REACTORS
330
27F
102
}
330
A
100
AcDbSymbolTableRecord
100
AcDbDimStyleTableRecord
  2
SLDDIMSTYLE3
 70
     0
 41
0.26
 44
0.0
 45
0.000000001
 78
    12
 79
     3
140
0.2083333333
147
0.0520833333
148
0.000000001
170
     1
173
     1
178
     0
271
     0
272
     0
276
     2
277
     5
284
    12
340
EF
  0
ENDTAB
  0
TABLE
  2
BLOCK_RECORD
  5
1
330
0
100
AcDbSymbolTable
 70
     9
  0
BLOCK_RECORD
  5
1F
330
1
100
AcDbSymbolTableRecord
100
AcDbBlockTableRecord
  2
*Model_Space
340
22
  0
BLOCK_RECORD
  5
1B
330
1
100
AcDbSymbolTableRecord
100
AcDbBlockTableRecord
  2
*Paper_Space
340
1E
  0
BLOCK_RECORD
  5
23
330
1
100
AcDbSymbolTableRecord
100
AcDbBlockTableRecord
  2
*Paper_Space0
340
26
  0
BLOCK_RECORD
  5
F1
330
1
100
AcDbSymbolTableRecord
100
AcDbBlockTableRecord
  2
_D
340
0
  0
BLOCK_RECORD
  5
106
330
1
100
AcDbSymbolTableRecord
100
AcDbBlockTableRecord
  2
_D_1
340
0
  0
BLOCK_RECORD
  5
11A
330
1
100
AcDbSymbolTableRecord
100
AcDbBlockTableRecord
  2
_D_2
340
0
  0
BLOCK_RECORD
  5
12D
330
1
100
AcDbSymbolTableRecord
100
AcDbBlockTableRecord
  2
_D_3
340
0
  0
BLOCK_RECORD
  5
21D
330
1
100
AcDbSymbolTableRecord
100
AcDbBlockTableRecord
  2
_D_4
340
0
  0
BLOCK_RECORD
  5
23F
330
1
100
AcDbSymbolTableRecord
100
AcDbBlockTableRecord
  2
_D_5
340
0
  0
BLOCK_RECORD
  5
25F
330
1
100
AcDbSymbolTableRecord
100
AcDbBlockTableRecord
  2
_D_6
340
0
  0
BLOCK_RECORD
  5
281
330
1
100
AcDbSymbolTableRecord
100
AcDbBlockTableRecord
  2
_D_7
340
0
  0
ENDTAB
  0
ENDSEC
  0
SECTION
  2
BLOCKS
  0
BLOCK
  5
20
330
1F
100
AcDbEntity
  8
0
100
AcDbBlockBegin
  2
*Model_Space
 70
     0
 10
0.0
 20
0.0
 30
0.0
  3
*Model_Space
  1

  0
ENDBLK
  5
21
330
1F
100
AcDbEntity
  8
0
100
AcDbBlockEnd
  0
BLOCK
  5
1C
330
1B
100
AcDbEntity
 67
     1
  8
0
100
AcDbBlockBegin
  2
*Paper_Space
 70
     0
 10
0.0
 20
0.0
 30
0.0
  3
*Paper_Space
  1

  0
ENDBLK
  5
1D
330
1B
100
AcDbEntity
 67
     1
  8
0
100
AcDbBlockEnd
  0
BLOCK
  5
24
330
23
100
AcDbEntity
  8
0
100
AcDbBlockBegin
  2
*Paper_Space0
 70
     0
 10
0.0
 20
0.0
 30
0.0
  3
*Paper_Space0
  1

  0
ENDBLK
  5
25
330
23
100
AcDbEntity
  8
0
100
AcDbBlockEnd
  0
BLOCK
  5
F2
330
F1
100
AcDbEntity
  8
0
100
AcDbBlockBegin
  2
_D
 70
     0
 10
0.0
 20
0.0
 30
0.0
  3
_D
  1

  0
SOLID
  5
F4
330
F1
100
AcDbEntity
  8
0
  6
Continuous
 62
     7
370
    18
100
AcDbTrace
 10
0.769321577
 20
10.741068258
 30
0.0
 11
0.9814536114
 21
10.8966317499
 31
0.0
 12
0.9248850689
 22
10.9532002923
 32
0.0
 13
0.9248850689
 23
10.9532002923
 33
0.0
  0
SOLID
  5
F5
330
F1
100
AcDbEntity
  8
0
  6
Continuous
 62
     7
370
    18
100
AcDbTrace
 10
5.8357416642
 20
15.8074883452
 30
0.0
 11
5.6236096299
 21
15.6519248533
 31
0.0
 12
5.6801781724
 22
15.5953563108
 32
0.0
 13
5.6801781724
 23
15.5953563108
 33
0.0
  0
LINE
  5
F6
330
F1
100
AcDbEntity
  8
0
  6
Continuous
 62
     7
370
     0
100
AcDbLine
 10
2.811212126
 20
13.2742783016
 30
0.0
 11
2.7478440718
 21
13.2742783016
 31
0.0
  0
LINE
  5
F7
330
F1
100
AcDbEntity
  8
0
  6
Continuous
 62
     7
370
     0
100
AcDbLine
 10
2.7478440718
 20
13.2742783016
 30
0.0
 11
2.7478440718
 21
12.9432597855
 31
0.0
  0
LINE
  5
F8
330
F1
100
AcDbEntity
  8
0
  6
Continuous
 62
     7
370
     0
100
AcDbLine
 10
2.7478440718
 20
12.9432597855
 30
0.0
 11
2.811212126
 21
12.9432597855
 31
0.0
  0
LINE
  5
F9
330
F1
100
AcDbEntity
  8
0
  6
Continuous
 62
     7
370
     0
100
AcDbLine
 10
3.7938510144
 20
13.2742783016
 30
0.0
 11
3.8572190687
 21
13.2742783016
 31
0.0
  0
LINE
  5
FA
330
F1
100
AcDbEntity
  8
0
  6
Continuous
 62
     7
370
     0
100
AcDbLine
 10
3.8572190687
 20
13.2742783016
 30
0.0
 11
3.8572190687
 21
12.9432597855
 31
0.0
  0
LINE
  5
FB
330
F1
100
AcDbEntity
  8
0
  6
Continuous
 62
     7
370
     0
100
AcDbLine
 10
3.8572190687
 20
12.9432597855
 30
0.0
 11
3.7938510144
 21
12.9432597855
 31
0.0
  0
LINE
  5
FC
330
F1
100
AcDbEntity
  8
0
  6
Continuous
 62
     7
370
     0
100
AcDbLine
 10
2.3456463245
 20
9.1647435105
 30
0.0
 11
0.7136438777
 21
10.7967459573
 31
0.0
  0
LINE
  5
FD
330
F1
100
AcDbEntity
  8
0
  6
Continuous
 62
     7
370
     0
100
AcDbLine
 10
6.6271778846
 20
15.0160521248
 30
0.0
 11
5.7800639649
 21
15.8631660445
 31
0.0
  0
LINE
  5
FE
330
F1
100
AcDbEntity
  8
0
  6
Continuous
 62
     7
370
     0
100
AcDbLine
 10
0.769321577
 20
10.741068258
 30
0.0
 11
2.9292677259
 21
12.9010144069
 31
0.0
  0
LINE
  5
FF
330
F1
100
AcDbEntity
  8
0
  6
Continuous
 62
     7
370
     0
100
AcDbLine
 10
5.8357416642
 20
15.8074883452
 30
0.0
 11
3.6757955153
 21
13.6475421963
 31
0.0
  0
MTEXT
  5
100
330
F1
100
AcDbEntity
  8
0
  6
Continuous
 62
     7
370
    18
100
AcDbMText
 10
2.6858263274
 20
13.5850794548
 30
0.0
 40
0.2083333333
 41
0.0
 71
     1
 72
     1
  1

  7
SLDTEXTSTYLE0
 73
     1
 44
1.0
  0
MTEXT
  5
101
330
F1
100
AcDbEntity
  8
0
  6
Continuous
 62
     7
370
    18
100
AcDbMText
 10
2.8524929899
 20
13.5850794548
 30
0.0
 40
0.2083333333
 41
0.0
 71
     1
 72
     1
  1
7 3/16"
  7
SLDTEXTSTYLE0
 73
     1
 44
1.0
  0
MTEXT
  5
102
330
F1
100
AcDbEntity
  8
0
  6
Continuous
 62
     7
370
    18
100
AcDbMText
 10
2.811212126
 20
13.2118155601
 30
0.0
 40
0.2083333333
 41
0.0
 71
     1
 72
     1
  1
182mm
  7
SLDTEXTSTYLE0
 73
     1
 44
1.0
  0
MTEXT
  5
103
330
F1
100
AcDbEntity
  8
0
  6
Continuous
 62
     7
370
    18
100
AcDbMText
 10
3.9987122008
 20
13.5850794548
 30
0.0
 40
0.2083333333
 41
0.0
 71
     1
 72
     1
  1

  7
SLDTEXTSTYLE0
 73
     1
 44
1.0
  0
ENDBLK
  5
F3
330
F1
100
AcDbEntity
  8
0
100
AcDbBlockEnd
  0
BLOCK
  5
107
330
106
100
AcDbEntity
  8
0
100
AcDbBlockBegin
  2
_D_1
 70
     0
 10
0.0
 20
0.0
 30
0.0
  3
_D_1
  1

  0
SOLID
  5
109
330
106
100
AcDbEntity
  8
0
  6
Continuous
 62
     7
370
    18
100
AcDbTrace
 10
1.0769410692
 20
7.4790658112
 30
0.0
 11
1.0369410692
 21
7.2190658112
 31
0.0
 12
1.1169410692
 22
7.2190658112
 32
0.0
 13
1.1169410692
 23
7.2190658112
 33
0.0
  0
SOLID
  5
10A
330
106
100
AcDbEntity
  8
0
  6
Continuous
 62
     7
370
    18
100
AcDbTrace
 10
1.0769410692
 20
9.1090658112
 30
0.0
 11
1.1169410692
 21
9.3690658112
 31
0.0
 12
1.0369410692
 22
9.3690658112
 32
0.0
 13
1.0369410692
 23
9.3690658112
 33
0.0
  0
LINE
  5
10B
330
106
100
AcDbEntity
  8
0
  6
Continuous
 62
     7
370
     0
100
AcDbLine
 10
0.6625892254
 20
8.2940658112
 30
0.0
 11
0.5992211712
 21
8.2940658112
 31
0.0
  0
LINE
  5
10C
330
106
100
AcDbEntity
  8
0
  6
Continuous
 62
     7
370
     0
100
AcDbLine
 10
0.5992211712
 20
8.2940658112
 30
0.0
 11
0.5992211712
 21
7.9630472951
 31
0.0
  0
LINE
  5
10D
330
106
100
AcDbEntity
  8
0
  6
Continuous
 62
     7
370
     0
100
AcDbLine
 10
0.5992211712
 20
7.9630472951
 30
0.0
 11
0.6625892254
 21
7.9630472951
 31
0.0
  0
LINE
  5
10E
330
106
100
AcDbEntity
  8
0
  6
Continuous
 62
     7
370
     0
100
AcDbLine
 10
1.4912929589
 20
8.2940658112
 30
0.0
 11
1.5546610131
 21
8.2940658112
 31
0.0
  0
LINE
  5
10F
330
106
100
AcDbEntity
  8
0
  6
Continuous
 62
     7
370
     0
100
AcDbLine
 10
1.5546610131
 20
8.2940658112
 30
0.0
 11
1.5546610131
 21
7.9630472951
 31
0.0
  0
LINE
  5
110
330
106
100
AcDbEntity
  8
0
  6
Continuous
 62
     7
370
     0
100
AcDbLine
 10
1.5546610131
 20
7.9630472951
 30
0.0
 11
1.4912929589
 21
7.9630472951
 31
0.0
  0
LINE
  5
111
330
106
100
AcDbEntity
  8
0
  6
Continuous
 62
     7
370
     0
100
AcDbLine
 10
1.8275838664
 20
7.4790658112
 30
0.0
 11
0.9982009117
 21
7.4790658112
 31
0.0
  0
LINE
  5
112
330
106
100
AcDbEntity
  8
0
  6
Continuous
 62
     7
370
     0
100
AcDbLine
 10
2.3225838664
 20
9.1090658112
 30
0.0
 11
0.9982009117
 21
9.1090658112
 31
0.0
  0
LINE
  5
113
330
106
100
AcDbEntity
  8
0
  6
Continuous
 62
     7
370
     0
100
AcDbLine
 10
1.0769410692
 20
7.4790658112
 30
0.0
 11
1.0769410692
 21
6.9790658112
 31
0.0
  0
LINE
  5
114
330
106
100
AcDbEntity
  8
0
  6
Continuous
 62
     7
370
     0
100
AcDbLine
 10
1.0769410692
 20
9.1090658112
 30
0.0
 11
1.0769410692
 21
9.6090658112
 31
0.0
  0
MTEXT
  5
115
330
106
100
AcDbEntity
  8
0
  6
Continuous
 62
     7
370
    18
100
AcDbMText
 10
0.5372034268
 20
8.6048669643
 30
0.0
 40
0.2083333333
 41
0.0
 71
     1
 72
     1
  1

  7
SLDTEXTSTYLE0
 73
     1
 44
1.0
  0
MTEXT
  5
116
330
106
100
AcDbEntity
  8
0
  6
Continuous
 62
     7
370
    18
100
AcDbMText
 10
0.7038700527
 20
8.6048669643
 30
0.0
 40
0.2083333333
 41
0.0
 71
     1
 72
     1
  1
1 5/8"
  7
SLDTEXTSTYLE0
 73
     1
 44
1.0
  0
MTEXT
  5
117
330
106
100
AcDbEntity
  8
0
  6
Continuous
 62
     7
370
    18
100
AcDbMText
 10
0.6625892254
 20
8.2316030697
 30
0.0
 40
0.2083333333
 41
0.0
 71
     1
 72
     1
  1
41mm
  7
SLDTEXTSTYLE0
 73
     1
 44
1.0
  0
MTEXT
  5
118
330
106
100
AcDbEntity
  8
0
  6
Continuous
 62
     7
370
    18
100
AcDbMText
 10
1.6961540719
 20
8.6048669643
 30
0.0
 40
0.2083333333
 41
0.0
 71
     1
 72
     1
  1

  7
SLDTEXTSTYLE0
 73
     1
 44
1.0
  0
ENDBLK
  5
108
330
106
100
AcDbEntity
  8
0
100
AcDbBlockEnd
  0
BLOCK
  5
11B
330
11A
100
AcDbEntity
  8
0
100
AcDbBlockBegin
  2
_D_2
 70
     0
 10
0.0
 20
0.0
 30
0.0
  3
_D_2
  1

  0
SOLID
  5
11D
330
11A
100
AcDbEntity
  8
0
  6
Continuous
 62
     7
370
    18
100
AcDbTrace
 10
7.3606808967
 20
15.6381997383
 30
0.0
 11
7.5162443886
 21
15.4260677039
 31
0.0
 12
7.5728129311
 22
15.4826362464
 32
0.0
 13
7.5728129311
 23
15.4826362464
 33
0.0
  0
SOLID
  5
11E
330
11A
100
AcDbEntity
  8
0
  6
Continuous
 62
     7
370
    18
100
AcDbTrace
 10
8.930457951
 20
14.0684226841
 30
0.0
 11
8.7748944591
 21
14.2805547184
 31
0.0
 12
8.7183259166
 22
14.2239861759
 32
0.0
 13
8.7183259166
 23
14.2239861759
 33
0.0
  0
LINE
  5
11F
330
11A
100
AcDbEntity
  8
0
  6
Continuous
 62
     7
370
     0
100
AcDbLine
 10
7.7312175663
 20
14.8533112112
 30
0.0
 11
7.6678495121
 21
14.8533112112
 31
0.0
  0
LINE
  5
120
330
11A
100
AcDbEntity
  8
0
  6
Continuous
 62
     7
370
     0
100
AcDbLine
 10
7.6678495121
 20
14.8533112112
 30
0.0
 11
7.6678495121
 21
14.5222926951
 31
0.0
  0
LINE
  5
121
330
11A
100
AcDbEntity
  8
0
  6
Continuous
 62
     7
370
     0
100
AcDbLine
 10
7.6678495121
 20
14.5222926951
 30
0.0
 11
7.7312175663
 21
14.5222926951
 31
0.0
  0
LINE
  5
122
330
11A
100
AcDbEntity
  8
0
  6
Continuous
 62
     7
370
     0
100
AcDbLine
 10
8.5599212997
 20
14.8533112112
 30
0.0
 11
8.623289354
 21
14.8533112112
 31
0.0
  0
LINE
  5
123
330
11A
100
AcDbEntity
  8
0
  6
Continuous
 62
     7
370
     0
100
AcDbLine
 10
8.623289354
 20
14.8533112112
 30
0.0
 11
8.623289354
 21
14.5222926951
 31
0.0
  0
LINE
  5
124
330
11A
100
AcDbEntity
  8
0
  6
Continuous
 62
     7
370
     0
100
AcDbLine
 10
8.623289354
 20
14.5222926951
 30
0.0
 11
8.5599212997
 21
14.5222926951
 31
0.0
  0
LINE
  5
125
330
11A
100
AcDbEntity
  8
0
  6
Continuous
 62
     7
370
     0
100
AcDbLine
 10
6.7385332832
 20
15.0160521248
 30
0.0
 11
7.4163585961
 21
15.6938774376
 31
0.0
  0
LINE
  5
126
330
11A
100
AcDbEntity
  8
0
  6
Continuous
 62
     7
370
     0
100
AcDbLine
 10
6.7385332832
 20
11.8764980163
 30
0.0
 11
8.9861356503
 21
14.1241003834
 31
0.0
  0
LINE
  5
127
330
11A
100
AcDbEntity
  8
0
  6
Continuous
 62
     7
370
     0
100
AcDbLine
 10
7.3606808967
 20
15.6381997383
 30
0.0
 11
7.7723055292
 21
15.2265751059
 31
0.0
  0
LINE
  5
128
330
11A
100
AcDbEntity
  8
0
  6
Continuous
 62
     7
370
     0
100
AcDbLine
 10
8.930457951
 20
14.0684226841
 30
0.0
 11
8.5188333186
 21
14.4800473165
 31
0.0
  0
MTEXT
  5
129
330
11A
100
AcDbEntity
  8
0
  6
Continuous
 62
     7
370
    18
100
AcDbMText
 10
7.61526467
 20
15.1641123644
 30
0.0
 40
0.2083333333
 41
0.0
 71
     1
 72
     1
  1
%%c
  7
SLDTEXTSTYLE0
 73
     1
 44
1.0
  0
MTEXT
  5
12A
330
11A
100
AcDbEntity
  8
0
  6
Continuous
 62
     7
370
    18
100
AcDbMText
 10
7.9297322639
 20
15.1641123644
 30
0.0
 40
0.2083333333
 41
0.0
 71
     1
 72
     1
  1
2 1/4"
  7
SLDTEXTSTYLE0
 73
     1
 44
1.0
  0
MTEXT
  5
12B
330
11A
100
AcDbEntity
  8
0
  6
Continuous
 62
     7
370
    18
100
AcDbMText
 10
7.7312175663
 20
14.7908484697
 30
0.0
 40
0.2083333333
 41
0.0
 71
     1
 72
     1
  1
56mm
  7
SLDTEXTSTYLE0
 73
     1
 44
1.0
  0
ENDBLK
  5
11C
330
11A
100
AcDbEntity
  8
0
100
AcDbBlockEnd
  0
BLOCK
  5
12E
330
12D
100
AcDbEntity
  8
0
100
AcDbBlockBegin
  2
_D_3
 70
     0
 10
0.0
 20
0.0
 30
0.0
  3
_D_3
  1

  0
SOLID
  5
130
330
12D
100
AcDbEntity
  8
0
  6
Continuous
 62
     7
370
    18
100
AcDbTrace
 10
5.629509912
 20
9.2891346083
 30
0.0
 11
5.4173778776
 21
9.1335711165
 31
0.0
 12
5.4739464201
 22
9.077002574
 32
0.0
 13
5.4739464201
 23
9.077002574
 33
0.0
  0
SOLID
  5
131
330
12D
100
AcDbEntity
  8
0
  6
Continuous
 62
     7
370
    18
100
AcDbTrace
 10
3.9253825693
 20
7.5850072657
 30
0.0
 11
4.1375146037
 21
7.7405707575
 31
0.0
 12
4.0809460612
 22
7.7971393
 32
0.0
 13
4.0809460612
 23
7.7971393
 33
0.0
  0
LINE
  5
132
330
12D
100
AcDbEntity
  8
0
  6
Continuous
 62
     7
370
     0
100
AcDbLine
 10
4.3630943969
 20
8.437070937
 30
0.0
 11
4.2997263427
 21
8.437070937
 31
0.0
  0
LINE
  5
133
330
12D
100
AcDbEntity
  8
0
  6
Continuous
 62
     7
370
     0
100
AcDbLine
 10
4.2997263427
 20
8.437070937
 30
0.0
 11
4.2997263427
 21
8.106052421
 31
0.0
  0
LINE
  5
134
330
12D
100
AcDbEntity
  8
0
  6
Continuous
 62
     7
370
     0
100
AcDbLine
 10
4.2997263427
 20
8.106052421
 30
0.0
 11
4.3630943969
 21
8.106052421
 31
0.0
  0
LINE
  5
135
330
12D
100
AcDbEntity
  8
0
  6
Continuous
 62
     7
370
     0
100
AcDbLine
 10
5.1917981303
 20
8.437070937
 30
0.0
 11
5.2551661845
 21
8.437070937
 31
0.0
  0
LINE
  5
136
330
12D
100
AcDbEntity
  8
0
  6
Continuous
 62
     7
370
     0
100
AcDbLine
 10
5.2551661845
 20
8.437070937
 30
0.0
 11
5.2551661845
 21
8.106052421
 31
0.0
  0
LINE
  5
137
330
12D
100
AcDbEntity
  8
0
  6
Continuous
 62
     7
370
     0
100
AcDbLine
 10
5.2551661845
 20
8.106052421
 30
0.0
 11
5.1917981303
 21
8.106052421
 31
0.0
  0
LINE
  5
138
330
12D
100
AcDbEntity
  8
0
  6
Continuous
 62
     7
370
     0
100
AcDbLine
 10
4.9460175929
 20
9.9726269274
 30
0.0
 11
5.6851876113
 21
9.233456909
 31
0.0
  0
LINE
  5
139
330
12D
100
AcDbEntity
  8
0
  6
Continuous
 62
     7
370
     0
100
AcDbLine
 10
2.4570017232
 20
9.0533881119
 30
0.0
 11
3.9810602686
 21
7.5293295664
 31
0.0
  0
LINE
  5
13A
330
12D
100
AcDbEntity
  8
0
  6
Continuous
 62
     7
370
     0
100
AcDbLine
 10
5.629509912
 20
9.2891346083
 30
0.0
 11
5.1507101354
 21
8.8103348317
 31
0.0
  0
LINE
  5
13B
330
12D
100
AcDbEntity
  8
0
  6
Continuous
 62
     7
370
     0
100
AcDbLine
 10
3.9253825693
 20
7.5850072657
 30
0.0
 11
4.404182346
 21
8.0638070423
 31
0.0
  0
MTEXT
  5
13C
330
12D
100
AcDbEntity
  8
0
  6
Continuous
 62
     7
370
    18
100
AcDbMText
 10
4.2377085983
 20
8.7478720902
 30
0.0
 40
0.2083333333
 41
0.0
 71
     1
 72
     1
  1

  7
SLDTEXTSTYLE0
 73
     1
 44
1.0
  0
MTEXT
  5
13D
330
12D
100
AcDbEntity
  8
0
  6
Continuous
 62
     7
370
    18
100
AcDbMText
 10
4.3274076466
 20
8.7478720902
 30
0.0
 40
0.2083333333
 41
0.0
 71
     1
 72
     1
  1
2 7/16"
  7
SLDTEXTSTYLE0
 73
     1
 44
1.0
  0
MTEXT
  5
13E
330
12D
100
AcDbEntity
  8
0
  6
Continuous
 62
     7
370
    18
100
AcDbMText
 10
4.3630943969
 20
8.3746081955
 30
0.0
 40
0.2083333333
 41
0.0
 71
     1
 72
     1
  1
61mm
  7
SLDTEXTSTYLE0
 73
     1
 44
1.0
  0
MTEXT
  5
13F
330
12D
100
AcDbEntity
  8
0
  6
Continuous
 62
     7
370
    18
100
AcDbMText
 10
5.3966592433
 20
8.7478720902
 30
0.0
 40
0.2083333333
 41
0.0
 71
     1
 72
     1
  1

  7
SLDTEXTSTYLE0
 73
     1
 44
1.0
  0
ENDBLK
  5
12F
330
12D
100
AcDbEntity
  8
0
100
AcDbBlockEnd
  0
BLOCK
  5
21E
330
21D
100
AcDbEntity
  8
0
100
AcDbBlockBegin
  2
_D_4
 70
     0
 10
0.0
 20
0.0
 30
0.0
  3
_D_4
  1

  0
SOLID
  5
220
330
21D
100
AcDbEntity
  8
0
  6
Continuous
 62
     7
370
    18
100
AcDbTrace
 10
2.6871731374
 20
5.8871071388
 30
0.0
 11
2.6471731374
 21
5.6271071388
 31
0.0
 12
2.7271731374
 22
5.6271071388
 32
0.0
 13
2.7271731374
 23
5.6271071388
 33
0.0
  0
SOLID
  5
221
330
21D
100
AcDbEntity
  8
0
  6
Continuous
 62
     7
370
    18
100
AcDbTrace
 10
2.6871731374
 20
1.1421071388
 30
0.0
 11
2.7271731374
 21
1.4021071388
 31
0.0
 12
2.6471731374
 22
1.4021071388
 32
0.0
 13
2.6471731374
 23
1.4021071388
 33
0.0
  0
LINE
  5
222
330
21D
100
AcDbEntity
  8
0
  6
Continuous
 62
     7
370
     0
100
AcDbLine
 10
2.1958536428
 20
3.5146071388
 30
0.0
 11
2.1324855886
 21
3.5146071388
 31
0.0
  0
LINE
  5
223
330
21D
100
AcDbEntity
  8
0
  6
Continuous
 62
     7
370
     0
100
AcDbLine
 10
2.1324855886
 20
3.5146071388
 30
0.0
 11
2.1324855886
 21
3.1835886227
 31
0.0
  0
LINE
  5
224
330
21D
100
AcDbEntity
  8
0
  6
Continuous
 62
     7
370
     0
100
AcDbLine
 10
2.1324855886
 20
3.1835886227
 30
0.0
 11
2.1958536428
 21
3.1835886227
 31
0.0
  0
LINE
  5
225
330
21D
100
AcDbEntity
  8
0
  6
Continuous
 62
     7
370
     0
100
AcDbLine
 10
3.1784925313
 20
3.5146071388
 30
0.0
 11
3.2418605855
 21
3.5146071388
 31
0.0
  0
LINE
  5
226
330
21D
100
AcDbEntity
  8
0
  6
Continuous
 62
     7
370
     0
100
AcDbLine
 10
3.2418605855
 20
3.5146071388
 30
0.0
 11
3.2418605855
 21
3.1835886227
 31
0.0
  0
LINE
  5
227
330
21D
100
AcDbEntity
  8
0
  6
Continuous
 62
     7
370
     0
100
AcDbLine
 10
3.2418605855
 20
3.1835886227
 30
0.0
 11
3.1784925313
 21
3.1835886227
 31
0.0
  0
LINE
  5
228
330
21D
100
AcDbEntity
  8
0
  6
Continuous
 62
     7
370
     0
100
AcDbLine
 10
3.8680726031
 20
5.8871071388
 30
0.0
 11
2.60843298
 21
5.8871071388
 31
0.0
  0
LINE
  5
229
330
21D
100
AcDbEntity
  8
0
  6
Continuous
 62
     7
370
     0
100
AcDbLine
 10
3.8680726031
 20
1.1421071388
 30
0.0
 11
2.60843298
 21
1.1421071388
 31
0.0
  0
LINE
  5
22A
330
21D
100
AcDbEntity
  8
0
  6
Continuous
 62
     7
370
     0
100
AcDbLine
 10
2.6871731374
 20
5.8871071388
 30
0.0
 11
2.6871731374
 21
3.8878710335
 31
0.0
  0
LINE
  5
22B
330
21D
100
AcDbEntity
  8
0
  6
Continuous
 62
     7
370
     0
100
AcDbLine
 10
2.6871731374
 20
1.1421071388
 30
0.0
 11
2.6871731374
 21
3.1413432441
 31
0.0
  0
MTEXT
  5
22C
330
21D
100
AcDbEntity
  8
0
  6
Continuous
 62
     7
370
    18
100
AcDbMText
 10
2.0704678442
 20
3.825408292
 30
0.0
 40
0.2083333333
 41
0.0
 71
     1
 72
     1
  1

  7
SLDTEXTSTYLE0
 73
     1
 44
1.0
  0
MTEXT
  5
22D
330
21D
100
AcDbEntity
  8
0
  6
Continuous
 62
     7
370
    18
100
AcDbMText
 10
2.3141020843
 20
3.825408292
 30
0.0
 40
0.2083333333
 41
0.0
 71
     1
 72
     1
  1
4 3/4"
  7
SLDTEXTSTYLE0
 73
     1
 44
1.0
  0
MTEXT
  5
22E
330
21D
100
AcDbEntity
  8
0
  6
Continuous
 62
     7
370
    18
100
AcDbMText
 10
2.1958536428
 20
3.4521443973
 30
0.0
 40
0.2083333333
 41
0.0
 71
     1
 72
     1
  1
121mm
  7
SLDTEXTSTYLE0
 73
     1
 44
1.0
  0
MTEXT
  5
22F
330
21D
100
AcDbEntity
  8
0
  6
Continuous
 62
     7
370
    18
100
AcDbMText
 10
3.3833537176
 20
3.825408292
 30
0.0
 40
0.2083333333
 41
0.0
 71
     1
 72
     1
  1

  7
SLDTEXTSTYLE0
 73
     1
 44
1.0
  0
ENDBLK
  5
21F
330
21D
100
AcDbEntity
  8
0
100
AcDbBlockEnd
  0
BLOCK
  5
240
330
23F
100
AcDbEntity
  8
0
100
AcDbBlockBegin
  2
_D_5
 70
     0
 10
0.0
 20
0.0
 30
0.0
  3
_D_5
  1

  0
SOLID
  5
242
330
23F
100
AcDbEntity
  8
0
  6
Continuous
 62
     7
370
    18
100
AcDbTrace
 10
7.0569890866
 20
3.7200448402
 30
0.0
 11
7.0169890866
 21
3.4600448402
 31
0.0
 12
7.0969890866
 22
3.4600448402
 32
0.0
 13
7.0969890866
 23
3.4600448402
 33
0.0
  0
SOLID
  5
243
330
23F
100
AcDbEntity
  8
0
  6
Continuous
 62
     7
370
    18
100
AcDbTrace
 10
7.0569890866
 20
1.1700448402
 30
0.0
 11
7.0969890866
 21
1.4300448402
 31
0.0
 12
7.0169890866
 22
1.4300448402
 32
0.0
 13
7.0169890866
 23
1.4300448402
 33
0.0
  0
LINE
  5
244
330
23F
100
AcDbEntity
  8
0
  6
Continuous
 62
     7
370
     0
100
AcDbLine
 10
6.6426372428
 20
2.4450448402
 30
0.0
 11
6.5792691886
 21
2.4450448402
 31
0.0
  0
LINE
  5
245
330
23F
100
AcDbEntity
  8
0
  6
Continuous
 62
     7
370
     0
100
AcDbLine
 10
6.5792691886
 20
2.4450448402
 30
0.0
 11
6.5792691886
 21
2.1140263241
 31
0.0
  0
LINE
  5
246
330
23F
100
AcDbEntity
  8
0
  6
Continuous
 62
     7
370
     0
100
AcDbLine
 10
6.5792691886
 20
2.1140263241
 30
0.0
 11
6.6426372428
 21
2.1140263241
 31
0.0
  0
LINE
  5
247
330
23F
100
AcDbEntity
  8
0
  6
Continuous
 62
     7
370
     0
100
AcDbLine
 10
7.4713409762
 20
2.4450448402
 30
0.0
 11
7.5347090304
 21
2.4450448402
 31
0.0
  0
LINE
  5
248
330
23F
100
AcDbEntity
  8
0
  6
Continuous
 62
     7
370
     0
100
AcDbLine
 10
7.5347090304
 20
2.4450448402
 30
0.0
 11
7.5347090304
 21
2.1140263241
 31
0.0
  0
LINE
  5
249
330
23F
100
AcDbEntity
  8
0
  6
Continuous
 62
     7
370
     0
100
AcDbLine
 10
7.5347090304
 20
2.1140263241
 30
0.0
 11
7.4713409762
 21
2.1140263241
 31
0.0
  0
LINE
  5
24A
330
23F
100
AcDbEntity
  8
0
  6
Continuous
 62
     7
370
     0
100
AcDbLine
 10
7.8372885
 20
3.7200448402
 30
0.0
 11
6.9782489291
 21
3.7200448402
 31
0.0
  0
LINE
  5
24B
330
23F
100
AcDbEntity
  8
0
  6
Continuous
 62
     7
370
     0
100
AcDbLine
 10
7.8072885
 20
1.1700448402
 30
0.0
 11
6.9782489291
 21
1.1700448402
 31
0.0
  0
LINE
  5
24C
330
23F
100
AcDbEntity
  8
0
  6
Continuous
 62
     7
370
     0
100
AcDbLine
 10
7.0569890866
 20
3.7200448402
 30
0.0
 11
7.0569890866
 21
2.8183087349
 31
0.0
  0
LINE
  5
24D
330
23F
100
AcDbEntity
  8
0
  6
Continuous
 62
     7
370
     0
100
AcDbLine
 10
7.0569890866
 20
1.1700448402
 30
0.0
 11
7.0569890866
 21
2.0717809455
 31
0.0
  0
MTEXT
  5
24E
330
23F
100
AcDbEntity
  8
0
  6
Continuous
 62
     7
370
    18
100
AcDbMText
 10
6.5172514442
 20
2.7558459934
 30
0.0
 40
0.2083333333
 41
0.0
 71
     1
 72
     1
  1

  7
SLDTEXTSTYLE0
 73
     1
 44
1.0
  0
MTEXT
  5
24F
330
23F
100
AcDbEntity
  8
0
  6
Continuous
 62
     7
370
    18
100
AcDbMText
 10
6.6069504925
 20
2.7558459934
 30
0.0
 40
0.2083333333
 41
0.0
 71
     1
 72
     1
  1
2 9/16"
  7
SLDTEXTSTYLE0
 73
     1
 44
1.0
  0
MTEXT
  5
250
330
23F
100
AcDbEntity
  8
0
  6
Continuous
 62
     7
370
    18
100
AcDbMText
 10
6.6426372428
 20
2.3825820987
 30
0.0
 40
0.2083333333
 41
0.0
 71
     1
 72
     1
  1
65mm
  7
SLDTEXTSTYLE0
 73
     1
 44
1.0
  0
MTEXT
  5
251
330
23F
100
AcDbEntity
  8
0
  6
Continuous
 62
     7
370
    18
100
AcDbMText
 10
7.6762020892
 20
2.7558459934
 30
0.0
 40
0.2083333333
 41
0.0
 71
     1
 72
     1
  1

  7
SLDTEXTSTYLE0
 73
     1
 44
1.0
  0
ENDBLK
  5
241
330
23F
100
AcDbEntity
  8
0
100
AcDbBlockEnd
  0
BLOCK
  5
260
330
25F
100
AcDbEntity
  8
0
100
AcDbBlockBegin
  2
_D_6
 70
     0
 10
0.0
 20
0.0
 30
0.0
  3
_D_6
  1

  0
SOLID
  5
262
330
25F
100
AcDbEntity
  8
0
  6
Continuous
 62
     7
370
    18
100
AcDbTrace
 10
10.9087062605
 20
2.8200448402
 30
0.0
 11
10.8687062605
 21
2.5600448402
 31
0.0
 12
10.9487062605
 22
2.5600448402
 32
0.0
 13
10.9487062605
 23
2.5600448402
 33
0.0
  0
SOLID
  5
263
330
25F
100
AcDbEntity
  8
0
  6
Continuous
 62
     7
370
    18
100
AcDbTrace
 10
10.9087062605
 20
1.1700448402
 30
0.0
 11
10.9487062605
 21
1.4300448402
 31
0.0
 12
10.8687062605
 22
1.4300448402
 32
0.0
 13
10.8687062605
 23
1.4300448402
 33
0.0
  0
LINE
  5
264
330
25F
100
AcDbEntity
  8
0
  6
Continuous
 62
     7
370
     0
100
AcDbLine
 10
10.4943544167
 20
1.9950448402
 30
0.0
 11
10.4309863625
 21
1.9950448402
 31
0.0
  0
LINE
  5
265
330
25F
100
AcDbEntity
  8
0
  6
Continuous
 62
     7
370
     0
100
AcDbLine
 10
10.4309863625
 20
1.9950448402
 30
0.0
 11
10.4309863625
 21
1.6640263241
 31
0.0
  0
LINE
  5
266
330
25F
100
AcDbEntity
  8
0
  6
Continuous
 62
     7
370
     0
100
AcDbLine
 10
10.4309863625
 20
1.6640263241
 30
0.0
 11
10.4943544167
 21
1.6640263241
 31
0.0
  0
LINE
  5
267
330
25F
100
AcDbEntity
  8
0
  6
Continuous
 62
     7
370
     0
100
AcDbLine
 10
11.3230581501
 20
1.9950448402
 30
0.0
 11
11.3864262043
 21
1.9950448402
 31
0.0
  0
LINE
  5
268
330
25F
100
AcDbEntity
  8
0
  6
Continuous
 62
     7
370
     0
100
AcDbLine
 10
11.3864262043
 20
1.9950448402
 30
0.0
 11
11.3864262043
 21
1.6640263241
 31
0.0
  0
LINE
  5
269
330
25F
100
AcDbEntity
  8
0
  6
Continuous
 62
     7
370
     0
100
AcDbLine
 10
11.3864262043
 20
1.6640263241
 30
0.0
 11
11.3230581501
 21
1.6640263241
 31
0.0
  0
LINE
  5
26A
330
25F
100
AcDbEntity
  8
0
  6
Continuous
 62
     7
370
     0
100
AcDbLine
 10
11.8323797996
 20
2.8200448402
 30
0.0
 11
10.829966103
 21
2.8200448402
 31
0.0
  0
LINE
  5
26B
330
25F
100
AcDbEntity
  8
0
  6
Continuous
 62
     7
370
     0
100
AcDbLine
 10
11.8023797996
 20
1.1700448402
 30
0.0
 11
10.829966103
 21
1.1700448402
 31
0.0
  0
LINE
  5
26C
330
25F
100
AcDbEntity
  8
0
  6
Continuous
 62
     7
370
     0
100
AcDbLine
 10
10.9087062605
 20
2.8200448402
 30
0.0
 11
10.9087062605
 21
2.3683087349
 31
0.0
  0
LINE
  5
26D
330
25F
100
AcDbEntity
  8
0
  6
Continuous
 62
     7
370
     0
100
AcDbLine
 10
10.9087062605
 20
1.1700448402
 30
0.0
 11
10.9087062605
 21
1.6217809455
 31
0.0
  0
MTEXT
  5
26E
330
25F
100
AcDbEntity
  8
0
  6
Continuous
 62
     7
370
    18
100
AcDbMText
 10
10.3689686181
 20
2.3058459934
 30
0.0
 40
0.2083333333
 41
0.0
 71
     1
 72
     1
  1

  7
SLDTEXTSTYLE0
 73
     1
 44
1.0
  0
MTEXT
  5
26F
330
25F
100
AcDbEntity
  8
0
  6
Continuous
 62
     7
370
    18
100
AcDbMText
 10
10.535635244
 20
2.3058459934
 30
0.0
 40
0.2083333333
 41
0.0
 71
     1
 72
     1
  1
1 5/8"
  7
SLDTEXTSTYLE0
 73
     1
 44
1.0
  0
MTEXT
  5
270
330
25F
100
AcDbEntity
  8
0
  6
Continuous
 62
     7
370
    18
100
AcDbMText
 10
10.4943544167
 20
1.9325820987
 30
0.0
 40
0.2083333333
 41
0.0
 71
     1
 72
     1
  1
42mm
  7
SLDTEXTSTYLE0
 73
     1
 44
1.0
  0
MTEXT
  5
271
330
25F
100
AcDbEntity
  8
0
  6
Continuous
 62
     7
370
    18
100
AcDbMText
 10
11.5279192631
 20
2.3058459934
 30
0.0
 40
0.2083333333
 41
0.0
 71
     1
 72
     1
  1

  7
SLDTEXTSTYLE0
 73
     1
 44
1.0
  0
ENDBLK
  5
261
330
25F
100
AcDbEntity
  8
0
100
AcDbBlockEnd
  0
BLOCK
  5
282
330
281
100
AcDbEntity
  8
0
100
AcDbBlockBegin
  2
_D_7
 70
     0
 10
0.0
 20
0.0
 30
0.0
  3
_D_7
  1

  0
SOLID
  5
284
330
281
100
AcDbEntity
  8
0
  6
Continuous
 62
     7
370
    18
100
AcDbTrace
 10
15.0229120474
 20
3.1421071388
 30
0.0
 11
14.9829120474
 21
2.8821071388
 31
0.0
 12
15.0629120474
 22
2.8821071388
 32
0.0
 13
15.0629120474
 23
2.8821071388
 33
0.0
  0
SOLID
  5
285
330
281
100
AcDbEntity
  8
0
  6
Continuous
 62
     7
370
    18
100
AcDbTrace
 10
15.0229120474
 20
1.1421071388
 30
0.0
 11
15.0629120474
 21
1.4021071388
 31
0.0
 12
14.9829120474
 22
1.4021071388
 32
0.0
 13
14.9829120474
 23
1.4021071388
 33
0.0
  0
LINE
  5
286
330
281
100
AcDbEntity
  8
0
  6
Continuous
 62
     7
370
     0
100
AcDbLine
 10
14.6085602036
 20
2.1421071388
 30
0.0
 11
14.5451921494
 21
2.1421071388
 31
0.0
  0
LINE
  5
287
330
281
100
AcDbEntity
  8
0
  6
Continuous
 62
     7
370
     0
100
AcDbLine
 10
14.5451921494
 20
2.1421071388
 30
0.0
 11
14.5451921494
 21
1.8110886227
 31
0.0
  0
LINE
  5
288
330
281
100
AcDbEntity
  8
0
  6
Continuous
 62
     7
370
     0
100
AcDbLine
 10
14.5451921494
 20
1.8110886227
 30
0.0
 11
14.6085602036
 21
1.8110886227
 31
0.0
  0
LINE
  5
289
330
281
100
AcDbEntity
  8
0
  6
Continuous
 62
     7
370
     0
100
AcDbLine
 10
15.437263937
 20
2.1421071388
 30
0.0
 11
15.5006319912
 21
2.1421071388
 31
0.0
  0
LINE
  5
28A
330
281
100
AcDbEntity
  8
0
  6
Continuous
 62
     7
370
     0
100
AcDbLine
 10
15.5006319912
 20
2.1421071388
 30
0.0
 11
15.5006319912
 21
1.8110886227
 31
0.0
  0
LINE
  5
28B
330
281
100
AcDbEntity
  8
0
  6
Continuous
 62
     7
370
     0
100
AcDbLine
 10
15.5006319912
 20
1.8110886227
 30
0.0
 11
15.437263937
 21
1.8110886227
 31
0.0
  0
LINE
  5
28C
330
281
100
AcDbEntity
  8
0
  6
Continuous
 62
     7
370
     0
100
AcDbLine
 10
15.8274710993
 20
3.1421071388
 30
0.0
 11
14.9441718899
 21
3.1421071388
 31
0.0
  0
LINE
  5
28D
330
281
100
AcDbEntity
  8
0
  6
Continuous
 62
     7
370
     0
100
AcDbLine
 10
15.7974710993
 20
1.1421071388
 30
0.0
 11
14.9441718899
 21
1.1421071388
 31
0.0
  0
LINE
  5
28E
330
281
100
AcDbEntity
  8
0
  6
Continuous
 62
     7
370
     0
100
AcDbLine
 10
15.0229120474
 20
3.1421071388
 30
0.0
 11
15.0229120474
 21
2.5153710335
 31
0.0
  0
LINE
  5
28F
330
281
100
AcDbEntity
  8
0
  6
Continuous
 62
     7
370
     0
100
AcDbLine
 10
15.0229120474
 20
1.1421071388
 30
0.0
 11
15.0229120474
 21
1.7688432441
 31
0.0
  0
MTEXT
  5
290
330
281
100
AcDbEntity
  8
0
  6
Continuous
 62
     7
370
    18
100
AcDbMText
 10
14.483174405
 20
2.452908292
 30
0.0
 40
0.2083333333
 41
0.0
 71
     1
 72
     1
  1

  7
SLDTEXTSTYLE0
 73
     1
 44
1.0
  0
MTEXT
  5
291
330
281
100
AcDbEntity
  8
0
  6
Continuous
 62
     7
370
    18
100
AcDbMText
 10
14.9029274914
 20
2.452908292
 30
0.0
 40
0.2083333333
 41
0.0
 71
     1
 72
     1
  1
2"
  7
SLDTEXTSTYLE0
 73
     1
 44
1.0
  0
MTEXT
  5
292
330
281
100
AcDbEntity
  8
0
  6
Continuous
 62
     7
370
    18
100
AcDbMText
 10
14.6085602036
 20
2.0796443973
 30
0.0
 40
0.2083333333
 41
0.0
 71
     1
 72
     1
  1
51mm
  7
SLDTEXTSTYLE0
 73
     1
 44
1.0
  0
MTEXT
  5
293
330
281
100
AcDbEntity
  8
0
  6
Continuous
 62
     7
370
    18
100
AcDbMText
 10
15.64212505
 20
2.452908292
 30
0.0
 40
0.2083333333
 41
0.0
 71
     1
 72
     1
  1

  7
SLDTEXTSTYLE0
 73
     1
 44
1.0
  0
ENDBLK
  5
283
330
281
100
AcDbEntity
  8
0
100
AcDbBlockEnd
  0
ENDSEC
  0
SECTION
  2
ENTITIES
  0
LINE
  5
6D
330
1F
100
AcDbEntity
  8
0
  6
Continuous
 62
     7
370
    25
100
AcDbLine
 10
6.1602412326
 20
11.2982059657
 30
0.0
 11
6.6828555839
 21
11.820820317
 31
0.0
  0
LINE
  5
6E
330
1F
100
AcDbEntity
  8
0
  6
Continuous
 62
     7
370
    25
100
AcDbLine
 10
5.1222084778
 20
10.2601732109
 30
0.0
 11
6.0647511829
 21
11.202715916
 31
0.0
  0
LINE
  5
6F
330
1F
100
AcDbEntity
  8
0
  6
Continuous
 62
     7
370
    25
100
AcDbLine
 10
4.8974109614
 20
10.0353756945
 30
0.0
 11
5.0267184282
 21
10.1646831612
 31
0.0
  0
LINE
  5
70
330
1F
100
AcDbEntity
  8
0
  6
Continuous
 62
     7
370
    25
100
AcDbLine
 10
6.6828555839
 20
14.9603744255
 30
0.0
 11
3.3276339072
 21
11.6051527488
 31
0.0
  0
LINE
  5
71
330
1F
100
AcDbEntity
  8
0
  6
Continuous
 62
     7
370
    25
100
AcDbLine
 10
2.8963240239
 20
7.4790658112
 30
0.0
 11
2.8963240239
 21
9.1090658112
 31
0.0
  0
LINE
  5
72
330
1F
100
AcDbEntity
  8
0
  6
Continuous
 62
     7
370
    25
100
AcDbLine
 10
1.9063240239
 20
9.1090658112
 30
0.0
 11
1.9063240239
 21
7.4790658112
 31
0.0
  0
ARC
  5
73
330
1F
100
AcDbEntity
  8
0
  6
Continuous
 62
     7
370
    25
100
AcDbCircle
 10
2.4013240239
 20
9.1090658112
 30
0.0
 40
0.4949999999999999
100
AcDbArc
 50
0.0
 51
180.0
  0
LINE
  5
74
330
1F
100
AcDbEntity
  8
0
  6
Continuous
 62
     7
370
    25
100
AcDbLine
 10
2.8573240239
 20
7.1090658112
 30
0.0
 11
2.8073240239
 21
7.1340658112
 31
0.0
  0
LINE
  5
75
330
1F
100
AcDbEntity
  8
0
  6
Continuous
 62
     7
370
    25
100
AcDbLine
 10
1.9953240239
 20
7.1340658112
 30
0.0
 11
1.9453240239
 21
7.1090658112
 31
0.0
  0
LINE
  5
76
330
1F
100
AcDbEntity
  8
0
  6
Continuous
 62
     7
370
    25
100
AcDbLine
 10
1.9453240239
 20
7.0590658112
 30
0.0
 11
1.9953240239
 21
7.0340658112
 31
0.0
  0
LINE
  5
77
330
1F
100
AcDbEntity
  8
0
  6
Continuous
 62
     7
370
    25
100
AcDbLine
 10
2.8073240239
 20
7.0340658112
 30
0.0
 11
2.8573240239
 21
7.0590658112
 31
0.0
  0
LINE
  5
78
330
1F
100
AcDbEntity
  8
0
  6
Continuous
 62
     7
370
    25
100
AcDbLine
 10
1.9453240239
 20
7.4090658112
 30
0.0
 11
1.9953240239
 21
7.3840658112
 31
0.0
  0
LINE
  5
79
330
1F
100
AcDbEntity
  8
0
  6
Continuous
 62
     7
370
    25
100
AcDbLine
 10
2.8073240239
 20
7.3840658112
 30
0.0
 11
2.8573240239
 21
7.4090658112
 31
0.0
  0
LINE
  5
7A
330
1F
100
AcDbEntity
  8
0
  6
Continuous
 62
     7
370
    25
100
AcDbLine
 10
2.8573240239
 20
7.0090658112
 30
0.0
 11
2.8073240239
 21
7.0340658112
 31
0.0
  0
LINE
  5
7B
330
1F
100
AcDbEntity
  8
0
  6
Continuous
 62
     7
370
    25
100
AcDbLine
 10
1.9953240239
 20
7.0340658112
 30
0.0
 11
1.9453240239
 21
7.0090658112
 31
0.0
  0
LINE
  5
7C
330
1F
100
AcDbEntity
  8
0
  6
Continuous
 62
     7
370
    25
100
AcDbLine
 10
2.8573240239
 20
6.9090658112
 30
0.0
 11
2.8073240239
 21
6.9340658112
 31
0.0
  0
LINE
  5
7D
330
1F
100
AcDbEntity
  8
0
  6
Continuous
 62
     7
370
    25
100
AcDbLine
 10
1.9953240239
 20
6.9340658112
 30
0.0
 11
1.9453240239
 21
6.9090658112
 31
0.0
  0
LINE
  5
7E
330
1F
100
AcDbEntity
  8
0
  6
Continuous
 62
     7
370
    25
100
AcDbLine
 10
1.9453240239
 20
7.1090658112
 30
0.0
 11
1.9953240239
 21
7.0840658112
 31
0.0
  0
LINE
  5
7F
330
1F
100
AcDbEntity
  8
0
  6
Continuous
 62
     7
370
    25
100
AcDbLine
 10
2.8073240239
 20
7.0840658112
 30
0.0
 11
2.8573240239
 21
7.1090658112
 31
0.0
  0
LINE
  5
80
330
1F
100
AcDbEntity
  8
0
  6
Continuous
 62
     7
370
    25
100
AcDbLine
 10
2.8573240239
 20
7.4090658112
 30
0.0
 11
2.8073240239
 21
7.4340658112
 31
0.0
  0
LINE
  5
81
330
1F
100
AcDbEntity
  8
0
  6
Continuous
 62
     7
370
    25
100
AcDbLine
 10
1.9953240239
 20
7.4340658112
 30
0.0
 11
1.9453240239
 21
7.4090658112
 31
0.0
  0
LINE
  5
82
330
1F
100
AcDbEntity
  8
0
  6
Continuous
 62
     7
370
    25
100
AcDbLine
 10
2.8573240239
 20
7.3590658112
 30
0.0
 11
2.8073240239
 21
7.3840658112
 31
0.0
  0
LINE
  5
83
330
1F
100
AcDbEntity
  8
0
  6
Continuous
 62
     7
370
    25
100
AcDbLine
 10
1.9953240239
 20
7.3840658112
 30
0.0
 11
1.9453240239
 21
7.3590658112
 31
0.0
  0
LINE
  5
84
330
1F
100
AcDbEntity
  8
0
  6
Continuous
 62
     7
370
    25
100
AcDbLine
 10
1.9453240239
 20
7.0090658112
 30
0.0
 11
1.9953240239
 21
6.9840658112
 31
0.0
  0
LINE
  5
85
330
1F
100
AcDbEntity
  8
0
  6
Continuous
 62
     7
370
    25
100
AcDbLine
 10
2.8073240239
 20
6.9840658112
 30
0.0
 11
2.8573240239
 21
7.0090658112
 31
0.0
  0
LINE
  5
86
330
1F
100
AcDbEntity
  8
0
  6
Continuous
 62
     7
370
    25
100
AcDbLine
 10
2.8573240239
 20
7.2590658112
 30
0.0
 11
2.8073240239
 21
7.2840658112
 31
0.0
  0
LINE
  5
87
330
1F
100
AcDbEntity
  8
0
  6
Continuous
 62
     7
370
    25
100
AcDbLine
 10
1.9953240239
 20
7.2840658112
 30
0.0
 11
1.9453240239
 21
7.2590658112
 31
0.0
  0
LINE
  5
88
330
1F
100
AcDbEntity
  8
0
  6
Continuous
 62
     7
370
    25
100
AcDbLine
 10
2.8573240239
 20
7.0590658112
 30
0.0
 11
2.8073240239
 21
7.0840658112
 31
0.0
  0
LINE
  5
89
330
1F
100
AcDbEntity
  8
0
  6
Continuous
 62
     7
370
    25
100
AcDbLine
 10
1.9953240239
 20
7.0840658112
 30
0.0
 11
1.9453240239
 21
7.0590658112
 31
0.0
  0
LINE
  5
8A
330
1F
100
AcDbEntity
  8
0
  6
Continuous
 62
     7
370
    25
100
AcDbLine
 10
1.9453240239
 20
7.2090658112
 30
0.0
 11
1.9953240239
 21
7.1840658112
 31
0.0
  0
LINE
  5
8B
330
1F
100
AcDbEntity
  8
0
  6
Continuous
 62
     7
370
    25
100
AcDbLine
 10
2.8073240239
 20
7.1840658112
 30
0.0
 11
2.8573240239
 21
7.2090658112
 31
0.0
  0
LINE
  5
8C
330
1F
100
AcDbEntity
  8
0
  6
Continuous
 62
     7
370
    25
100
AcDbLine
 10
1.9453240239
 20
7.1590658112
 30
0.0
 11
1.9953240239
 21
7.1340658112
 31
0.0
  0
LINE
  5
8D
330
1F
100
AcDbEntity
  8
0
  6
Continuous
 62
     7
370
    25
100
AcDbLine
 10
2.8073240239
 20
7.1340658112
 30
0.0
 11
2.8573240239
 21
7.1590658112
 31
0.0
  0
LINE
  5
8E
330
1F
100
AcDbEntity
  8
0
  6
Continuous
 62
     7
370
    25
100
AcDbLine
 10
1.9453240239
 20
6.9590658112
 30
0.0
 11
1.9953240239
 21
6.9340658112
 31
0.0
  0
LINE
  5
8F
330
1F
100
AcDbEntity
  8
0
  6
Continuous
 62
     7
370
    25
100
AcDbLine
 10
2.8073240239
 20
6.9340658112
 30
0.0
 11
2.8573240239
 21
6.9590658112
 31
0.0
  0
LINE
  5
90
330
1F
100
AcDbEntity
  8
0
  6
Continuous
 62
     7
370
    25
100
AcDbLine
 10
1.9453240239
 20
7.3590658112
 30
0.0
 11
1.9953240239
 21
7.3340658112
 31
0.0
  0
LINE
  5
91
330
1F
100
AcDbEntity
  8
0
  6
Continuous
 62
     7
370
    25
100
AcDbLine
 10
2.8073240239
 20
7.3340658112
 30
0.0
 11
2.8573240239
 21
7.3590658112
 31
0.0
  0
LINE
  5
92
330
1F
100
AcDbEntity
  8
0
  6
Continuous
 62
     7
370
    25
100
AcDbLine
 10
1.9453240239
 20
7.3090658112
 30
0.0
 11
1.9953240239
 21
7.2840658112
 31
0.0
  0
LINE
  5
93
330
1F
100
AcDbEntity
  8
0
  6
Continuous
 62
     7
370
    25
100
AcDbLine
 10
2.8073240239
 20
7.2840658112
 30
0.0
 11
2.8573240239
 21
7.3090658112
 31
0.0
  0
LINE
  5
94
330
1F
100
AcDbEntity
  8
0
  6
Continuous
 62
     7
370
    25
100
AcDbLine
 10
2.8573240239
 20
7.1590658112
 30
0.0
 11
2.8073240239
 21
7.1840658112
 31
0.0
  0
LINE
  5
95
330
1F
100
AcDbEntity
  8
0
  6
Continuous
 62
     7
370
    25
100
AcDbLine
 10
1.9953240239
 20
7.1840658112
 30
0.0
 11
1.9453240239
 21
7.1590658112
 31
0.0
  0
LINE
  5
96
330
1F
100
AcDbEntity
  8
0
  6
Continuous
 62
     7
370
    25
100
AcDbLine
 10
1.9453240239
 20
6.9090658112
 30
0.0
 11
1.9953240239
 21
6.8840658112
 31
0.0
  0
LINE
  5
97
330
1F
100
AcDbEntity
  8
0
  6
Continuous
 62
     7
370
    25
100
AcDbLine
 10
2.8073240239
 20
6.8840658112
 30
0.0
 11
2.8573240239
 21
6.9090658112
 31
0.0
  0
LINE
  5
98
330
1F
100
AcDbEntity
  8
0
  6
Continuous
 62
     7
370
    25
100
AcDbLine
 10
2.8573240239
 20
7.2090658112
 30
0.0
 11
2.8073240239
 21
7.2340658112
 31
0.0
  0
LINE
  5
99
330
1F
100
AcDbEntity
  8
0
  6
Continuous
 62
     7
370
    25
100
AcDbLine
 10
1.9953240239
 20
7.2340658112
 30
0.0
 11
1.9453240239
 21
7.2090658112
 31
0.0
  0
LINE
  5
9A
330
1F
100
AcDbEntity
  8
0
  6
Continuous
 62
     7
370
    25
100
AcDbLine
 10
2.8573240239
 20
7.3090658112
 30
0.0
 11
2.8073240239
 21
7.3340658112
 31
0.0
  0
LINE
  5
9B
330
1F
100
AcDbEntity
  8
0
  6
Continuous
 62
     7
370
    25
100
AcDbLine
 10
1.9953240239
 20
7.3340658112
 30
0.0
 11
1.9453240239
 21
7.3090658112
 31
0.0
  0
LINE
  5
9C
330
1F
100
AcDbEntity
  8
0
  6
Continuous
 62
     7
370
    25
100
AcDbLine
 10
1.9453240239
 20
7.2590658112
 30
0.0
 11
1.9953240239
 21
7.2340658112
 31
0.0
  0
LINE
  5
9D
330
1F
100
AcDbEntity
  8
0
  6
Continuous
 62
     7
370
    25
100
AcDbLine
 10
2.8073240239
 20
7.2340658112
 30
0.0
 11
2.8573240239
 21
7.2590658112
 31
0.0
  0
LINE
  5
9E
330
1F
100
AcDbEntity
  8
0
  6
Continuous
 62
     7
370
    25
100
AcDbLine
 10
2.8573240239
 20
6.9590658112
 30
0.0
 11
2.8073240239
 21
6.9840658112
 31
0.0
  0
LINE
  5
9F
330
1F
100
AcDbEntity
  8
0
  6
Continuous
 62
     7
370
    25
100
AcDbLine
 10
1.9953240239
 20
6.9840658112
 30
0.0
 11
1.9453240239
 21
6.9590658112
 31
0.0
  0
LINE
  5
A0
330
1F
100
AcDbEntity
  8
0
  6
Continuous
 62
     7
370
    25
100
AcDbLine
 10
1.9953240239
 20
6.8840658112
 30
0.0
 11
2.0253240239
 21
6.8540658112
 31
0.0
  0
LINE
  5
A1
330
1F
100
AcDbEntity
  8
0
  6
Continuous
 62
     7
370
    25
100
AcDbLine
 10
2.7773240239
 20
6.8540658112
 30
0.0
 11
2.8073240239
 21
6.8840658112
 31
0.0
  0
LINE
  5
A2
330
1F
100
AcDbEntity
  8
0
  6
Continuous
 62
     7
370
    25
100
AcDbLine
 10
2.8073240239
 20
7.4340658112
 30
0.0
 11
2.8073240239
 21
7.4790658112
 31
0.0
  0
LINE
  5
A3
330
1F
100
AcDbEntity
  8
0
  6
Continuous
 62
     7
370
    25
100
AcDbLine
 10
1.9953240239
 20
7.4790658112
 30
0.0
 11
1.9953240239
 21
7.4340658112
 31
0.0
  0
LINE
  5
A4
330
1F
100
AcDbEntity
  8
0
  6
Continuous
 62
     7
370
    25
100
AcDbLine
 10
3.3205628394
 20
11.5980816809
 30
0.0
 11
2.0159508281
 21
10.2934696697
 31
0.0
  0
LINE
  5
A5
330
1F
100
AcDbEntity
  8
0
  6
Continuous
 62
     7
370
    25
100
AcDbLine
 10
3.5857278823
 20
8.7236926154
 30
0.0
 11
4.8903398936
 21
10.0283046267
 31
0.0
  0
LINE
  5
A6
330
1F
100
AcDbEntity
  8
0
  6
Continuous
 62
     7
370
    25
100
AcDbLine
 10
2.0159508281
 20
10.2934696697
 30
0.0
 11
2.0159508281
 21
10.2510432628
 31
0.0
  0
LINE
  5
A7
330
1F
100
AcDbEntity
  8
0
  6
Continuous
 62
     7
370
    25
100
AcDbLine
 10
3.5433014755
 20
8.7236926154
 30
0.0
 11
3.5857278823
 21
8.7236926154
 31
0.0
  0
ARC
  5
A8
330
1F
100
AcDbEntity
  8
0
  6
Continuous
 62
     7
370
    25
100
AcDbCircle
 10
3.3276339072
 20
11.5910106131
 30
0.0
 40
0.0100000000000016
100
AcDbArc
 50
45.0
 51
135.0
  0
ARC
  5
A9
330
1F
100
AcDbEntity
  8
0
  6
Continuous
 62
     7
370
    25
100
AcDbCircle
 10
4.8832688258
 20
10.0353756945
 30
0.0
 40
0.0100000000000004
100
AcDbArc
 50
315.0
 51
45.0
  0
LINE
  5
AA
330
1F
100
AcDbEntity
  8
0
  6
Continuous
 62
     7
370
    25
100
AcDbLine
 10
2.4296082951
 20
9.8373857958
 30
0.0
 11
2.0513061672
 21
9.4590836679
 31
0.0
  0
LINE
  5
AB
330
1F
100
AcDbEntity
  8
0
  6
Continuous
 62
     7
370
    25
100
AcDbLine
 10
2.8963240239
 20
8.9040300978
 30
0.0
 11
3.1296440085
 21
9.1373500824
 31
0.0
  0
LINE
  5
AC
330
1F
100
AcDbEntity
  8
0
  6
Continuous
 62
     7
370
    25
100
AcDbLine
 10
6.6828555839
 20
14.9603744255
 30
0.0
 11
6.6828555839
 21
11.820820317
 31
0.0
  0
LINE
  5
AD
330
1F
100
AcDbEntity
  8
0
  6
Continuous
 62
     7
370
    25
100
AcDbLine
 10
3.3276339072
 20
11.6051527488
 30
0.0
 11
4.8974109614
 21
10.0353756945
 31
0.0
  0
SPLINE
  5
AE
330
1F
100
AcDbEntity
  8
0
  6
Continuous
 62
     7
370
    25
100
AcDbSpline
210
0.0
220
0.0
230
1.0
 70
     8
 71
     3
 72
    17
 73
    13
 74
     0
 42
0.00000001
 43
0.00000001
 40
0.0
 40
0.0
 40
0.0
 40
0.0
 40
0.0367829129270363
 40
0.1439469936102628
 40
0.2511849014537395
 40
0.3585983106853265
 40
0.4660155695098252
 40
0.5732581291689298
 40
0.6804203613538421
 40
0.7877217257819962
 40
0.8951646959147139
 40
1.0
 40
1.0
 40
1.0
 40
1.0
 10
6.064713912217189
 20
11.20275318675584
 30
0.0
 10
6.06455574098765
 20
11.20257460285892
 30
0.0
 10
6.063936750506582
 20
11.20187572903346
 30
0.0
 10
6.068112872973065
 20
11.20659594692812
 30
0.0
 10
6.076891659946833
 20
11.21633340281546
 30
0.0
 10
6.089918909967852
 20
11.23036137126768
 30
0.0
 10
6.105456160481523
 20
11.24644834185418
 30
0.0
 10
6.121931032128519
 20
11.26279561433044
 30
0.0
 10
6.137475644009848
 20
11.27758487273667
 30
0.0
 10
6.150097097430641
 20
11.28917099282983
 30
0.0
 10
6.158687160735506
 20
11.29684336427508
 30
0.0
 10
6.159724974939374
 20
11.29775799367271
 30
0.0
 10
6.160237507689358
 20
11.29820969063219
 30
0.0
  0
SPLINE
  5
AF
330
1F
100
AcDbEntity
  8
0
  6
Continuous
 62
     7
370
    25
100
AcDbSpline
210
0.0
220
0.0
230
1.0
 70
     8
 71
     3
 72
    17
 73
    13
 74
     0
 42
0.00000001
 43
0.00000001
 40
0.0
 40
0.0
 40
0.0
 40
0.0
 40
0.0367829129270361
 40
0.1439469936102633
 40
0.2511849014537391
 40
0.3585983106853291
 40
0.466015569509823
 40
0.5732581291689316
 40
0.6804203613538382
 40
0.7877217257819961
 40
0.8951646959147131
 40
0.9999999999999999
 40
0.9999999999999999
 40
0.9999999999999999
 40
0.9999999999999999
 10
5.026681157435336
 20
10.16472043197399
 30
0.0
 10
5.026522986205797
 20
10.16454184807707
 30
0.0
 10
5.025903995724727
 20
10.1638429742516
 30
0.0
 10
5.03008011819121
 20
10.16856319214627
 30
0.0
 10
5.038858905164979
 20
10.17830064803361
 30
0.0
 10
5.051886155186001
 20
10.19232861648582
 30
0.0
 10
5.067423405699669
 20
10.20841558707233
 30
0.0
 10
5.083898277346665
 20
10.22476285954859
 30
0.0
 10
5.099442889227992
 20
10.23955211795482
 30
0.0
 10
5.112064342648787
 20
10.25113823804798
 30
0.0
 10
5.120654405953651
 20
10.25881060949323
 30
0.0
 10
5.12169222015752
 20
10.25972523889086
 30
0.0
 10
5.122204752907503
 20
10.26017693585034
 30
0.0
  0
SPLINE
  5
B0
330
1F
100
AcDbEntity
  8
0
  6
Continuous
 62
     7
370
    25
100
AcDbSpline
210
0.0
220
0.0
230
1.0
 70
    11
 71
     3
 72
    26
 73
    22
 74
     0
 42
0.00000001
 43
0.00000001
 40
0.0
 40
0.0
 40
0.0
 40
0.0
 40
0.053620060783943
 40
0.1072376822530374
 40
0.1609185883661191
 40
0.2146408563604112
 40
0.2682944511770209
 40
0.3218767096526442
 40
0.3754958818586683
 40
0.4292028051159884
 40
0.4829116531775923
 40
0.5365331513009013
 40
0.5901144855236029
 40
0.6437653861511304
 40
0.6974870899191847
 40
0.7511704282073687
 40
0.8047662990509767
 40
0.8583618717573707
 40
0.9120446244252648
 40
0.9657664953707804
 40
1.0
 40
1.0
 40
1.0
 40
1.0
 10
3.939233294220434
 20
11.34710675233164
 30
0.0
 10
3.93335580942548
 20
11.34218180332121
 30
0.0
 10
3.921601107217513
 20
11.33233212934899
 30
0.0
 10
3.899824809470575
 20
11.32534756862121
 30
0.0
 10
3.878064894033863
 20
11.32521637364848
 30
0.0
 10
3.8584152416724
 20
11.33232636034639
 30
0.0
 10
3.843289376509963
 20
11.34569378836065
 30
0.0
 10
3.834363191365671
 20
11.36381548065469
 30
0.0
 10
3.832584930838295
 20
11.38469920611958
 30
0.0
 10
3.83808225118495
 20
11.40609978216953
 30
0.0
 10
3.850169975647178
 20
11.42567527480468
 30
0.0
 10
3.867423677809427
 20
11.44124509018973
 30
0.0
 10
3.887899726297828
 20
11.45105851644854
 30
0.0
 10
3.909377544803116
 20
11.45396475092823
 30
0.0
 10
3.929534912629364
 20
11.44953628574806
 30
0.0
 10
3.946152352508416
 20
11.43819060313966
 30
0.0
 10
3.957371372982729
 20
11.42120710892855
 30
0.0
 10
3.961942282592467
 20
11.40050255903454
 30
0.0
 10
3.959194842837387
 20
11.37855472851566
 30
0.0
 10
3.950798403465725
 20
11.36007743738099
 30
0.0
 10
3.942473476307587
 20
11.35074073282103
 30
0.0
 10
3.939233294220434
 20
11.34710675233164
 30
0.0
  0
LINE
  5
B1
330
1F
100
AcDbEntity
  8
0
  6
Continuous
 62
     7
370
    25
100
AcDbLine
 10
5.1190182267
 20
10.2569829597
 30
0.0
 11
5.0293570868
 21
10.1673218199
 31
0.0
  0
LWPOLYLINE
  5
B2
330
1F
100
AcDbEntity
  8
0
  6
Continuous
 62
     7
370
    25
100
AcDbPolyline
 90
       18
 70
   128
 43
0.0
 10
3.8665450634
 20
11.4356071825
 10
3.8501775929
 20
11.4190252016
 10
3.8401141468
 20
11.3984536771
 10
3.8377138492
 20
11.3766709075
 10
3.8433008737
 20
11.3566187765
 10
3.8561206616
 20
11.3410054354
 10
3.8744418295
 20
11.3319395525
 10
3.8957900022
 20
11.3306455256
 10
3.9172819907
 20
11.3372981201
 10
3.9360151828
 20
11.3509988663
 10
3.9494595571
 20
11.3698974025
 10
3.9557993764
 20
11.3914413766
 10
3.954178413
 20
11.4127211556
 10
3.9448155869
 20
11.4308627874
 10
3.9289753997
 20
11.4434161442
 10
3.9087971565
 20
11.4486858254
 10
3.8870060407
 20
11.4459601315
 10
3.8665450634
 20
11.4356071825
  0
LINE
  5
B3
330
1F
100
AcDbEntity
  8
0
  6
Continuous
 62
     7
370
    25
100
AcDbLine
 10
3.8762627225
 20
11.3501717102
 30
0.0
 11
3.9183840628
 21
11.3567245035
 31
0.0
  0
LINE
  5
B4
330
1F
100
AcDbEntity
  8
0
  6
Continuous
 62
     7
370
    25
100
AcDbLine
 10
3.9389762064
 20
11.3960379738
 30
0.0
 11
3.9183840628
 21
11.3567245035
 31
0.0
  0
LINE
  5
B5
330
1F
100
AcDbEntity
  8
0
  6
Continuous
 62
     7
370
    25
100
AcDbLine
 10
3.9174470097
 20
11.4287986507
 30
0.0
 11
3.9389762064
 21
11.3960379738
 31
0.0
  0
LINE
  5
B6
330
1F
100
AcDbEntity
  8
0
  6
Continuous
 62
     7
370
    25
100
AcDbLine
 10
3.9174470097
 20
11.4287986507
 30
0.0
 11
3.8753256693
 21
11.4222458575
 31
0.0
  0
LINE
  5
B7
330
1F
100
AcDbEntity
  8
0
  6
Continuous
 62
     7
370
    25
100
AcDbLine
 10
3.8547335257
 20
11.3829323872
 30
0.0
 11
3.8753256693
 21
11.4222458575
 31
0.0
  0
LINE
  5
B8
330
1F
100
AcDbEntity
  8
0
  6
Continuous
 62
     7
370
    25
100
AcDbLine
 10
3.8547335257
 20
11.3829323872
 30
0.0
 11
3.8762627225
 21
11.3501717102
 31
0.0
  0
LINE
  5
B9
330
1F
100
AcDbEntity
  8
0
  6
Continuous
 62
     7
370
    25
100
AcDbLine
 10
3.8859821559
 20
11.351683757
 30
0.0
 11
3.8547335257
 21
11.3829323872
 31
0.0
  0
LINE
  5
BA
330
1F
100
AcDbEntity
  8
0
  6
Continuous
 62
     7
370
    25
100
AcDbLine
 10
3.9385998149
 20
11.3953193864
 30
0.0
 11
3.9071454745
 21
11.3904260523
 31
0.0
  0
LINE
  5
BB
330
1F
100
AcDbEntity
  8
0
  6
Continuous
 62
     7
370
    25
100
AcDbLine
 10
3.9071454745
 20
11.3904260523
 30
0.0
 11
3.8753256693
 21
11.4222458575
 31
0.0
  0
LINE
  5
BC
330
1F
100
AcDbEntity
  8
0
  6
Continuous
 62
     7
370
    25
100
AcDbLine
 10
3.8869297223
 20
11.3518311694
 30
0.0
 11
3.9071454745
 21
11.3904260523
 31
0.0
  0
SPLINE
  5
BD
330
1F
100
AcDbEntity
  8
0
  6
Continuous
 62
     7
370
    25
100
AcDbSpline
210
0.0
220
0.0
230
1.0
 70
    24
 71
     3
 72
    10
 73
     6
 74
     0
 42
0.00000001
 43
0.00000001
 40
0.0
 40
0.0
 40
0.0
 40
0.0
 40
0.4391220929831189
 40
0.7513713642454257
 40
1.0
 40
1.0
 40
1.0
 40
1.0
 10
2.43587925008942
 20
9.025735401510065
 30
0.0
 10
2.443737089872173
 20
9.035984332881137
 30
0.0
 10
2.4571824525445
 20
9.053521035473407
 30
0.0
 10
2.47672750466409
 20
9.07901352493015
 30
0.0
 10
2.48645558067242
 20
9.091701793733929
 30
0.0
 10
2.490767888638573
 20
9.097326310091777
 30
0.0
  0
ARC
  5
BE
330
1F
100
AcDbEntity
  8
0
  6
Continuous
 62
     7
370
    25
100
AcDbCircle
 10
2.4013240239
 20
9.1090658112
 30
0.0
 40
0.0902109795609013
100
AcDbArc
 50
292.5226735859
 51
352.5226735859
  0
SPLINE
  5
BF
330
1F
100
AcDbEntity
  8
0
  6
Continuous
 62
     7
370
    25
100
AcDbSpline
210
0.0
220
0.0
230
1.0
 70
    24
 71
     3
 72
    10
 73
     6
 74
     0
 42
0.00000001
 43
0.00000001
 40
0.0
 40
0.0
 40
0.0
 40
0.0
 40
0.4391220929825326
 40
0.7513713642445483
 40
1.0
 40
1.0
 40
1.0
 40
1.0
 10
2.346435385303074
 20
9.037474902581923
 30
0.0
 10
2.359240140123412
 20
9.035794279396644
 30
0.0
 10
2.381150051403044
 20
9.032918605055304
 30
0.0
 10
2.412999720938119
 20
9.028738338130118
 30
0.0
 10
2.428852122056421
 20
9.026657711578798
 30
0.0
 10
2.43587925008942
 20
9.025735401510065
 30
0.0
  0
ARC
  5
C0
330
1F
100
AcDbEntity
  8
0
  6
Continuous
 62
     7
370
    25
100
AcDbCircle
 10
2.4013240239
 20
9.1090658112
 30
0.0
 40
0.0902109795609013
100
AcDbArc
 50
232.5226735859
 51
292.5226735859
  0
SPLINE
  5
C1
330
1F
100
AcDbEntity
  8
0
  6
Continuous
 62
     7
370
    25
100
AcDbSpline
210
0.0
220
0.0
230
1.0
 70
    24
 71
     3
 72
    10
 73
     6
 74
     0
 42
0.00000001
 43
0.00000001
 40
0.0
 40
0.0
 40
0.0
 40
0.0
 40
0.4391220929827772
 40
0.7513713642449587
 40
1.0
 40
1.0
 40
1.0
 40
1.0
 10
2.456212662401367
 20
9.180656719745336
 30
0.0
 10
2.443407907581026
 20
9.182337342930621
 30
0.0
 10
2.421497996301386
 20
9.185213017271968
 30
0.0
 10
2.389648326766326
 20
9.189393284197209
 30
0.0
 10
2.373795925648025
 20
9.19147391074846
 30
0.0
 10
2.366768797615036
 20
9.19239622081716
 30
0.0
  0
ARC
  5
C2
330
1F
100
AcDbEntity
  8
0
  6
Continuous
 62
     7
370
    25
100
AcDbCircle
 10
2.4013240239
 20
9.1090658112
 30
0.0
 40
0.0902109795608631
100
AcDbArc
 50
52.5226735859
 51
112.5226735859
  0
SPLINE
  5
C3
330
1F
100
AcDbEntity
  8
0
  6
Continuous
 62
     7
370
    25
100
AcDbSpline
210
0.0
220
0.0
230
1.0
 70
    24
 71
     3
 72
    10
 73
     6
 74
     0
 42
0.00000001
 43
0.00000001
 40
0.0
 40
0.0
 40
0.0
 40
0.0
 40
0.439122092982022
 40
0.7513713642448611
 40
1.0
 40
1.0
 40
1.0
 40
1.0
 10
2.366768797615036
 20
9.19239622081716
 30
0.0
 10
2.358910957832246
 20
9.182147289446167
 30
0.0
 10
2.345465595159834
 20
9.164610586854
 30
0.0
 10
2.325920543040333
 20
9.1391180973972
 30
0.0
 10
2.316192467032026
 20
9.126429828593373
 30
0.0
 10
2.311880159065883
 20
9.120805312235504
 30
0.0
  0
ARC
  5
C4
330
1F
100
AcDbEntity
  8
0
  6
Continuous
 62
     7
370
    25
100
AcDbCircle
 10
2.4013240239
 20
9.1090658112
 30
0.0
 40
0.0902109795608789
100
AcDbArc
 50
112.5226735859
 51
172.5226735859
  0
ARC
  5
C5
330
1F
100
AcDbEntity
  8
0
  6
Continuous
 62
     7
370
    25
100
AcDbCircle
 10
2.4013240239
 20
9.1090658112
 30
0.0
 40
0.090210979560892
100
AcDbArc
 50
172.5226735859
 51
232.5226735859
  0
SPLINE
  5
C6
330
1F
100
AcDbEntity
  8
0
  6
Continuous
 62
     7
370
    25
100
AcDbSpline
210
0.0
220
0.0
230
1.0
 70
    24
 71
     3
 72
    11
 73
     7
 74
     0
 42
0.00000001
 43
0.00000001
 40
0.0
 40
0.0
 40
0.0
 40
0.0
 40
0.1753973659309899
 40
0.4928468941344354
 40
0.819557144603644
 40
1.0
 40
1.0
 40
1.0
 40
1.0
 10
2.311880159065883
 20
9.120805312235504
 30
0.0
 10
2.313787653672482
 20
9.116205362407692
 30
0.0
 10
2.319147499229172
 20
9.10328002014968
 30
0.0
 10
2.329000631327504
 20
9.079519054775254
 30
0.0
 10
2.338955349822772
 20
9.055513112388937
 30
0.0
 10
2.344472431713215
 20
9.042208592520767
 30
0.0
 10
2.346435385303074
 20
9.037474902581923
 30
0.0
  0
SPLINE
  5
C7
330
1F
100
AcDbEntity
  8
0
  6
Continuous
 62
     7
370
    25
100
AcDbSpline
210
0.0
220
0.0
230
1.0
 70
    24
 71
     3
 72
    11
 73
     7
 74
     0
 42
0.00000001
 43
0.00000001
 40
0.0
 40
0.0
 40
0.0
 40
0.0
 40
0.1804428553966204
 40
0.5071531058652193
 40
0.8246026340692258
 40
1.0
 40
1.0
 40
1.0
 40
1.0
 10
2.490767888638573
 20
9.097326310091777
 30
0.0
 10
2.488804935048718
 20
9.102060000030631
 30
0.0
 10
2.483287853158297
 20
9.115364519898801
 30
0.0
 10
2.473333134663003
 20
9.139370462285099
 30
0.0
 10
2.463480002564674
 20
9.163131427659534
 30
0.0
 10
2.458120157007968
 20
9.176056769917537
 30
0.0
 10
2.456212662401367
 20
9.180656719745336
 30
0.0
  0
ARC
  5
C8
330
1F
100
AcDbEntity
  8
0
  6
Continuous
 62
     7
370
    25
100
AcDbCircle
 10
2.4013240239
 20
9.1090658112
 30
0.0
 40
0.0902109795608896
100
AcDbArc
 50
352.5226735859
 51
52.5226735859
  0
CIRCLE
  5
C9
330
1F
100
AcDbEntity
  8
0
  6
Continuous
 62
     7
370
    25
100
AcDbCircle
 10
2.4013240239
 20
9.1090658112
 30
0.0
 40
0.1502264973081074
  0
CIRCLE
  5
CA
330
1F
100
AcDbEntity
  8
0
  6
Continuous
 62
     7
370
    25
100
AcDbCircle
 10
2.4013240239
 20
9.1090658112
 30
0.0
 40
0.156000000000004
  0
SPLINE
  5
CB
330
1F
100
AcDbEntity
  8
0
  6
Continuous
 62
     7
370
    25
100
AcDbSpline
210
0.0
220
0.0
230
1.0
 70
     8
 71
     3
 72
    17
 73
    13
 74
     0
 42
0.00000001
 43
0.00000001
 40
0.0
 40
0.0
 40
0.0
 40
0.0
 40
0.1032948335804995
 40
0.2064478178524853
 40
0.3132318225302206
 40
0.4227091181928195
 40
0.5283892420679605
 40
0.6300052406305029
 40
0.7329890515072977
 40
0.8407649844813961
 40
0.94997868654126
 40
1.0
 40
1.0
 40
1.0
 40
1.0
 10
2.565324023852225
 20
9.109065811163646
 30
0.0
 10
2.563613260090578
 20
9.091197100072446
 30
0.0
 10
2.56019408186829
 20
9.055484216041902
 30
0.0
 10
2.533663338595505
 20
9.007580208548879
 30
0.0
 10
2.493806386124652
 20
8.96979427761896
 30
0.0
 10
2.442439499176753
 20
8.947011301274658
 30
0.0
 10
2.386943080691236
 20
8.942709286152269
 30
0.0
 10
2.334421827155581
 20
8.956225134627863
 30
0.0
 10
2.288974101425525
 20
8.98552484731628
 30
0.0
 10
2.254805380525419
 20
9.028798565408591
 30
0.0
 10
2.239047815353278
 20
9.073012640753438
 30
0.0
 10
2.237736084579053
 20
9.100447544050368
 30
0.0
 10
2.237324023852225
 20
9.109065811163644
 30
0.0
  0
LINE
  5
CC
330
1F
100
AcDbEntity
  8
0
  6
Continuous
 62
     7
370
    25
100
AcDbLine
 10
2.8963240239
 20
7.4790658112
 30
0.0
 11
1.9063240239
 21
7.4790658112
 31
0.0
  0
ARC
  5
CD
330
1F
100
AcDbEntity
  8
0
  6
Continuous
 62
     7
370
    25
100
AcDbCircle
 10
2.4013240239
 20
9.1090658112
 30
0.0
 40
0.1640000000000001
100
AcDbArc
 50
0.0
 51
180.0
  0
LINE
  5
CE
330
1F
100
AcDbEntity
  8
0
  6
Continuous
 62
     7
370
    25
100
AcDbLine
 10
2.8573240239
 20
7.1090658112
 30
0.0
 11
1.9453240239
 21
7.1090658112
 31
0.0
  0
LINE
  5
CF
330
1F
100
AcDbEntity
  8
0
  6
Continuous
 62
     7
370
    25
100
AcDbLine
 10
2.8073240239
 20
7.1340658112
 30
0.0
 11
1.9953240239
 21
7.1340658112
 31
0.0
  0
LINE
  5
D0
330
1F
100
AcDbEntity
  8
0
  6
Continuous
 62
     7
370
    25
100
AcDbLine
 10
2.8073240239
 20
7.0340658112
 30
0.0
 11
1.9953240239
 21
7.0340658112
 31
0.0
  0
LINE
  5
D1
330
1F
100
AcDbEntity
  8
0
  6
Continuous
 62
     7
370
    25
100
AcDbLine
 10
2.8573240239
 20
7.0590658112
 30
0.0
 11
1.9453240239
 21
7.0590658112
 31
0.0
  0
LINE
  5
D2
330
1F
100
AcDbEntity
  8
0
  6
Continuous
 62
     7
370
    25
100
AcDbLine
 10
2.8073240239
 20
7.3840658112
 30
0.0
 11
1.9953240239
 21
7.3840658112
 31
0.0
  0
LINE
  5
D3
330
1F
100
AcDbEntity
  8
0
  6
Continuous
 62
     7
370
    25
100
AcDbLine
 10
2.8573240239
 20
7.4090658112
 30
0.0
 11
1.9453240239
 21
7.4090658112
 31
0.0
  0
LINE
  5
D4
330
1F
100
AcDbEntity
  8
0
  6
Continuous
 62
     7
370
    25
100
AcDbLine
 10
2.8573240239
 20
7.0090658112
 30
0.0
 11
1.9453240239
 21
7.0090658112
 31
0.0
  0
LINE
  5
D5
330
1F
100
AcDbEntity
  8
0
  6
Continuous
 62
     7
370
    25
100
AcDbLine
 10
2.8573240239
 20
6.9090658112
 30
0.0
 11
1.9453240239
 21
6.9090658112
 31
0.0
  0
LINE
  5
D6
330
1F
100
AcDbEntity
  8
0
  6
Continuous
 62
     7
370
    25
100
AcDbLine
 10
2.8073240239
 20
6.9340658112
 30
0.0
 11
1.9953240239
 21
6.9340658112
 31
0.0
  0
LINE
  5
D7
330
1F
100
AcDbEntity
  8
0
  6
Continuous
 62
     7
370
    25
100
AcDbLine
 10
2.8073240239
 20
7.0840658112
 30
0.0
 11
1.9953240239
 21
7.0840658112
 31
0.0
  0
LINE
  5
D8
330
1F
100
AcDbEntity
  8
0
  6
Continuous
 62
     7
370
    25
100
AcDbLine
 10
2.8073240239
 20
7.4340658112
 30
0.0
 11
1.9953240239
 21
7.4340658112
 31
0.0
  0
LINE
  5
D9
330
1F
100
AcDbEntity
  8
0
  6
Continuous
 62
     7
370
    25
100
AcDbLine
 10
2.8573240239
 20
7.3590658112
 30
0.0
 11
1.9453240239
 21
7.3590658112
 31
0.0
  0
LINE
  5
DA
330
1F
100
AcDbEntity
  8
0
  6
Continuous
 62
     7
370
    25
100
AcDbLine
 10
2.8073240239
 20
6.9840658112
 30
0.0
 11
1.9953240239
 21
6.9840658112
 31
0.0
  0
LINE
  5
DB
330
1F
100
AcDbEntity
  8
0
  6
Continuous
 62
     7
370
    25
100
AcDbLine
 10
2.8573240239
 20
7.2590658112
 30
0.0
 11
1.9453240239
 21
7.2590658112
 31
0.0
  0
LINE
  5
DC
330
1F
100
AcDbEntity
  8
0
  6
Continuous
 62
     7
370
    25
100
AcDbLine
 10
2.8073240239
 20
7.2840658112
 30
0.0
 11
1.9953240239
 21
7.2840658112
 31
0.0
  0
LINE
  5
DD
330
1F
100
AcDbEntity
  8
0
  6
Continuous
 62
     7
370
    25
100
AcDbLine
 10
2.8073240239
 20
7.1840658112
 30
0.0
 11
1.9953240239
 21
7.1840658112
 31
0.0
  0
LINE
  5
DE
330
1F
100
AcDbEntity
  8
0
  6
Continuous
 62
     7
370
    25
100
AcDbLine
 10
2.8573240239
 20
7.2090658112
 30
0.0
 11
1.9453240239
 21
7.2090658112
 31
0.0
  0
LINE
  5
DF
330
1F
100
AcDbEntity
  8
0
  6
Continuous
 62
     7
370
    25
100
AcDbLine
 10
2.8573240239
 20
7.1590658112
 30
0.0
 11
1.9453240239
 21
7.1590658112
 31
0.0
  0
LINE
  5
E0
330
1F
100
AcDbEntity
  8
0
  6
Continuous
 62
     7
370
    25
100
AcDbLine
 10
2.8573240239
 20
6.9590658112
 30
0.0
 11
1.9453240239
 21
6.9590658112
 31
0.0
  0
LINE
  5
E1
330
1F
100
AcDbEntity
  8
0
  6
Continuous
 62
     7
370
    25
100
AcDbLine
 10
2.8073240239
 20
7.3340658112
 30
0.0
 11
1.9953240239
 21
7.3340658112
 31
0.0
  0
LINE
  5
E2
330
1F
100
AcDbEntity
  8
0
  6
Continuous
 62
     7
370
    25
100
AcDbLine
 10
2.8573240239
 20
7.3090658112
 30
0.0
 11
1.9453240239
 21
7.3090658112
 31
0.0
  0
LINE
  5
E3
330
1F
100
AcDbEntity
  8
0
  6
Continuous
 62
     7
370
    25
100
AcDbLine
 10
1.9953240239
 20
6.8840658112
 30
0.0
 11
2.8073240239
 21
6.8840658112
 31
0.0
  0
LINE
  5
E4
330
1F
100
AcDbEntity
  8
0
  6
Continuous
 62
     7
370
    25
100
AcDbLine
 10
2.8073240239
 20
7.2340658112
 30
0.0
 11
1.9953240239
 21
7.2340658112
 31
0.0
  0
LINE
  5
E5
330
1F
100
AcDbEntity
  8
0
  6
Continuous
 62
     7
370
    25
100
AcDbLine
 10
2.7773240239
 20
6.8540658112
 30
0.0
 11
2.0253240239
 21
6.8540658112
 31
0.0
  0
LINE
  5
E6
330
1F
100
AcDbEntity
  8
0
  6
Continuous
 62
     7
370
    25
100
AcDbLine
 10
2.0159508281
 20
10.2934696697
 30
0.0
 11
3.5857278823
 21
8.7236926154
 31
0.0
  0
LINE
  5
E7
330
1F
100
AcDbEntity
  8
0
  6
Continuous
 62
     7
370
    25
100
AcDbLine
 10
3.5433014755
 20
8.7236926154
 30
0.0
 11
2.0159508281
 21
10.2510432628
 31
0.0
  0
LINE
  5
E8
330
1F
100
AcDbEntity
  8
0
  6
Continuous
 62
     7
370
    25
100
AcDbLine
 10
2.8963240239
 20
8.9170432497
 30
0.0
 11
3.1160663647
 21
9.1367855905
 31
0.0
  0
LINE
  5
E9
330
1F
100
AcDbEntity
  8
0
  6
Continuous
 62
     7
370
    25
100
AcDbLine
 10
3.1160663647
 20
9.1367855905
 30
0.0
 11
2.4290438032
 21
9.823808152
 31
0.0
  0
LINE
  5
EA
330
1F
100
AcDbEntity
  8
0
  6
Continuous
 62
     7
370
    25
100
AcDbLine
 10
2.4290438032
 20
9.823808152
 30
0.0
 11
2.1249878873
 21
9.5197522361
 31
0.0
  0
LINE
  5
EB
330
1F
100
AcDbEntity
  8
0
  6
Continuous
 62
     7
370
    25
100
AcDbLine
 10
2.2373240239
 20
9.1090658112
 30
0.0
 11
1.9063240239
 21
9.1090658112
 31
0.0
  0
LINE
  5
EC
330
1F
100
AcDbEntity
  8
0
  6
Continuous
 62
     7
370
    25
100
AcDbLine
 10
2.8963240239
 20
9.1090658112
 30
0.0
 11
2.5653240239
 21
9.1090658112
 31
0.0
  0
LINE
  5
ED
330
1F
100
AcDbEntity
  8
0
  6
Continuous
 62
     7
370
    25
100
AcDbLine
 10
4.8903398936
 20
10.0283046267
 30
0.0
 11
3.3205628394
 21
11.5980816809
 31
0.0
  0
DIMENSION
  5
EE
330
1F
100
AcDbEntity
  8
0
  6
Continuous
 62
     7
370
    18
100
AcDbDimension
  2
_D
 10
5.8357416642
 20
15.8074883452
 30
0.0
 11
3.3025316206
 21
13.2742783016
 31
0.0
 70
   160
  1
<>
 71
     2
 42
-1.0
  3
SLDDIMSTYLE0
100
AcDbAlignedDimension
 13
2.4013240239
 23
9.1090658112
 33
0.0
 14
6.6828555839
 24
14.9603744255
 34
0.0
 50
45.0
100
AcDbRotatedDimension
  0
DIMENSION
  5
104
330
1F
100
AcDbEntity
  8
0
  6
Continuous
 62
     7
370
    18
100
AcDbDimension
  2
_D_1
 10
1.0769410692
 20
9.1090658112
 30
0.0
 11
1.0769410692
 21
8.2940658112
 31
0.0
 70
   160
  1
<>
 71
     2
 42
-1.0
  3
SLDDIMSTYLE1
100
AcDbAlignedDimension
 13
1.9063240239
 23
7.4790658112
 33
0.0
 14
2.4013240239
 24
9.1090658112
 34
0.0
 50
90.0
100
AcDbRotatedDimension
  0
DIMENSION
  5
119
330
1F
100
AcDbEntity
  8
0
  6
Continuous
 62
     7
370
    18
100
AcDbDimension
  2
_D_2
 10
8.930457951
 20
14.0684226841
 30
0.0
 11
8.1455694239
 21
14.8533112112
 31
0.0
 70
   160
  1
%%c<>
 71
     2
 42
-1.0
  3
SLDDIMSTYLE0
100
AcDbAlignedDimension
 13
6.6828555839
 23
14.9603744255
 33
0.0
 14
6.6828555839
 24
11.820820317
 34
0.0
 50
-45.0
100
AcDbRotatedDimension
  0
DIMENSION
  5
12C
330
1F
100
AcDbEntity
  8
0
  6
Continuous
 62
     7
370
    18
100
AcDbDimension
  2
_D_3
 10
3.9253825693
 20
7.5850072657
 30
0.0
 11
4.7774462407
 21
8.437070937
 31
0.0
 70
   160
  1
<>
 71
     2
 42
-1.0
  3
SLDDIMSTYLE0
100
AcDbAlignedDimension
 13
4.8903398936
 23
10.0283046267
 33
0.0
 14
2.4013240239
 24
9.1090658112
 34
0.0
 50
45.0
100
AcDbRotatedDimension
  0
MTEXT
  5
140
330
1F
100
AcDbEntity
  8
SLD-0
100
AcDbMText
 10
5.5077840042
 20
6.6354787691
 30
0.0
 40
0.2755905512
 41
0.0
 71
     2
 72
     1
  1
1/2" PIPE THREAD
  7
SLDTEXTSTYLE0
 73
     1
 44
1.0
  0
MTEXT
  5
141
330
1F
100
AcDbEntity
  8
SLD-0
100
AcDbMText
 10
5.5139081398
 20
6.2791248691
 30
0.0
 40
0.2755905512
 41
0.0
 71
     2
 72
     1
  1
FOR MOUNTING
  7
SLDTEXTSTYLE0
 73
     1
 44
1.0
  0
LEADER
  5
143
330
1F
100
AcDbEntity
  8
SLD-0
100
AcDbLeader
  3
SLDDIMSTYLE2
 76
     3
 10
2.700617417
 20
6.8540658112
 30
0.0
 10
3.4998825161
 20
6.4998047722
 30
0.0
 10
3.9998825161
 20
6.4998047722
 30
0.0
  0
LINE
  5
144
330
1F
100
AcDbEntity
  8
0
  6
Continuous
 62
     7
370
    25
100
AcDbLine
 10
18.5579619666
 20
11.4691817848
 30
0.0
 11
16.2873063642
 21
14.6803737332
 31
0.0
  0
LINE
  5
145
330
1F
100
AcDbEntity
  8
0
  6
Continuous
 62
     7
370
    25
100
AcDbLine
 10
15.3809951594
 20
12.116938538
 30
0.0
 11
16.745339557
 21
10.1874641872
 31
0.0
  0
LINE
  5
146
330
1F
100
AcDbEntity
  8
0
  6
Continuous
 62
     7
370
    25
100
AcDbLine
 10
16.9182513949
 20
10.2367556623
 30
0.0
 11
16.9188174285
 21
10.2351546775
 31
0.0
  0
LINE
  5
147
330
1F
100
AcDbEntity
  8
0
  6
Continuous
 62
     7
370
    25
100
AcDbLine
 10
18.469991244
 20
11.4549784563
 30
0.0
 11
18.4686123461
 21
11.4556826975
 31
0.0
  0
ARC
  5
148
330
1F
100
AcDbEntity
  8
0
  6
Continuous
 62
     7
370
    25
100
AcDbCircle
 10
19.1446256291
 20
7.649696828
 30
0.0
 40
0.3000000000000004
100
AcDbArc
 50
275.5921022903
 51
293.6033423945
  0
ARC
  5
149
330
1F
100
AcDbEntity
  8
0
  6
Continuous
 62
     7
370
    25
100
AcDbCircle
 10
18.2658630974
 20
7.649696828
 30
0.0
 40
0.3000000000000004
100
AcDbArc
 50
246.3966576055
 51
264.4078977097
  0
LINE
  5
14A
330
1F
100
AcDbEntity
  8
0
  6
Continuous
 62
     7
370
    25
100
AcDbLine
 10
18.9106441667
 20
7.515789318
 30
0.0
 11
18.8730181316
 21
7.515789318
 31
0.0
  0
LINE
  5
14B
330
1F
100
AcDbEntity
  8
0
  6
Continuous
 62
     7
370
    25
100
AcDbLine
 10
18.3858227774
 20
7.515789318
 30
0.0
 11
18.3564725432
 21
7.515789318
 31
0.0
  0
LINE
  5
14C
330
1F
100
AcDbEntity
  8
0
  6
Continuous
 62
     7
370
    25
100
AcDbLine
 10
18.1427443633
 20
7.4909621168
 30
0.0
 11
18.1427443633
 21
7.3793767128
 31
0.0
  0
ARC
  5
14D
330
1F
100
AcDbEntity
  8
0
  6
Continuous
 62
     7
370
    25
100
AcDbCircle
 10
18.1477443633
 20
7.3793767128
 30
0.0
 40
0.0050000000000005
100
AcDbArc
 50
180.0
 51
246.3966576055
  0
LINE
  5
14E
330
1F
100
AcDbEntity
  8
0
  6
Continuous
 62
     7
370
    25
100
AcDbLine
 10
19.2594159868
 20
7.515789318
 30
0.0
 11
19.1924397175
 21
7.515789318
 31
0.0
  0
LINE
  5
14F
330
1F
100
AcDbEntity
  8
0
  6
Continuous
 62
     7
370
    25
100
AcDbLine
 10
19.2677443633
 20
7.3793767128
 30
0.0
 11
19.2677443633
 21
7.4909621168
 31
0.0
  0
ARC
  5
150
330
1F
100
AcDbEntity
  8
0
  6
Continuous
 62
     7
370
    25
100
AcDbCircle
 10
19.2627443633
 20
7.3793767128
 30
0.0
 40
0.0049999999999997
100
AcDbArc
 50
293.6033423945
 51
0.0
  0
LINE
  5
151
330
1F
100
AcDbEntity
  8
0
  6
Continuous
 62
     7
370
    25
100
AcDbLine
 10
18.2102443633
 20
7.515789318
 30
0.0
 11
18.1510727398
 21
7.515789318
 31
0.0
  0
LINE
  5
152
330
1F
100
AcDbEntity
  8
0
  6
Continuous
 62
     7
370
    25
100
AcDbLine
 10
19.2002443633
 20
7.515789318
 30
0.0
 11
19.2002443633
 21
8.5516245755
 31
0.0
  0
LINE
  5
153
330
1F
100
AcDbEntity
  8
0
  6
Continuous
 62
     7
370
    25
100
AcDbLine
 10
18.2102443633
 20
8.7458602981
 30
0.0
 11
18.2102443633
 21
7.4921684178
 31
0.0
  0
LINE
  5
154
330
1F
100
AcDbEntity
  8
0
  6
Continuous
 62
     7
370
    25
100
AcDbLine
 10
18.2492443633
 20
7.3171245755
 30
0.0
 11
18.2992443633
 21
7.2921245755
 31
0.0
  0
LINE
  5
155
330
1F
100
AcDbEntity
  8
0
  6
Continuous
 62
     7
370
    25
100
AcDbLine
 10
19.1112443633
 20
7.2921245755
 30
0.0
 11
19.1612443633
 21
7.3171245755
 31
0.0
  0
LINE
  5
156
330
1F
100
AcDbEntity
  8
0
  6
Continuous
 62
     7
370
    25
100
AcDbLine
 10
19.1612443633
 20
7.3171245755
 30
0.0
 11
19.1112443633
 21
7.3421245755
 31
0.0
  0
LINE
  5
157
330
1F
100
AcDbEntity
  8
0
  6
Continuous
 62
     7
370
    25
100
AcDbLine
 10
18.2992443633
 20
7.3421245755
 30
0.0
 11
18.2492443633
 21
7.3171245755
 31
0.0
  0
LINE
  5
158
330
1F
100
AcDbEntity
  8
0
  6
Continuous
 62
     7
370
    25
100
AcDbLine
 10
19.1612443633
 20
7.1671245755
 30
0.0
 11
19.1112443633
 21
7.1921245755
 31
0.0
  0
LINE
  5
159
330
1F
100
AcDbEntity
  8
0
  6
Continuous
 62
     7
370
    25
100
AcDbLine
 10
18.2992443633
 20
7.1921245755
 30
0.0
 11
18.2492443633
 21
7.1671245755
 31
0.0
  0
LINE
  5
15A
330
1F
100
AcDbEntity
  8
0
  6
Continuous
 62
     7
370
    25
100
AcDbLine
 10
19.1612443633
 20
7.2671245755
 30
0.0
 11
19.1112443633
 21
7.2921245755
 31
0.0
  0
LINE
  5
15B
330
1F
100
AcDbEntity
  8
0
  6
Continuous
 62
     7
370
    25
100
AcDbLine
 10
18.2992443633
 20
7.2921245755
 30
0.0
 11
18.2492443633
 21
7.2671245755
 31
0.0
  0
LINE
  5
15C
330
1F
100
AcDbEntity
  8
0
  6
Continuous
 62
     7
370
    25
100
AcDbLine
 10
18.2812443633
 20
7.3511245755
 30
0.0
 11
18.2992443633
 21
7.3421245755
 31
0.0
  0
LINE
  5
15D
330
1F
100
AcDbEntity
  8
0
  6
Continuous
 62
     7
370
    25
100
AcDbLine
 10
19.1112443633
 20
7.3421245755
 30
0.0
 11
19.1292443633
 21
7.3511245755
 31
0.0
  0
LINE
  5
15E
330
1F
100
AcDbEntity
  8
0
  6
Continuous
 62
     7
370
    25
100
AcDbLine
 10
18.2492443633
 20
7.2671245755
 30
0.0
 11
18.2992443633
 21
7.2421245755
 31
0.0
  0
LINE
  5
15F
330
1F
100
AcDbEntity
  8
0
  6
Continuous
 62
     7
370
    25
100
AcDbLine
 10
19.1112443633
 20
7.2421245755
 30
0.0
 11
19.1612443633
 21
7.2671245755
 31
0.0
  0
LINE
  5
160
330
1F
100
AcDbEntity
  8
0
  6
Continuous
 62
     7
370
    25
100
AcDbLine
 10
19.1612443633
 20
7.2171245755
 30
0.0
 11
19.1112443633
 21
7.2421245755
 31
0.0
  0
LINE
  5
161
330
1F
100
AcDbEntity
  8
0
  6
Continuous
 62
     7
370
    25
100
AcDbLine
 10
18.2992443633
 20
7.2421245755
 30
0.0
 11
18.2492443633
 21
7.2171245755
 31
0.0
  0
LINE
  5
162
330
1F
100
AcDbEntity
  8
0
  6
Continuous
 62
     7
370
    25
100
AcDbLine
 10
18.2492443633
 20
7.2171245755
 30
0.0
 11
18.2992443633
 21
7.1921245755
 31
0.0
  0
LINE
  5
163
330
1F
100
AcDbEntity
  8
0
  6
Continuous
 62
     7
370
    25
100
AcDbLine
 10
19.1112443633
 20
7.1921245755
 30
0.0
 11
19.1612443633
 21
7.2171245755
 31
0.0
  0
LINE
  5
164
330
1F
100
AcDbEntity
  8
0
  6
Continuous
 62
     7
370
    25
100
AcDbLine
 10
18.2492443633
 20
7.1671245755
 30
0.0
 11
18.2992443633
 21
7.1421245755
 31
0.0
  0
LINE
  5
165
330
1F
100
AcDbEntity
  8
0
  6
Continuous
 62
     7
370
    25
100
AcDbLine
 10
19.1112443633
 20
7.1421245755
 30
0.0
 11
19.1612443633
 21
7.1671245755
 31
0.0
  0
LINE
  5
166
330
1F
100
AcDbEntity
  8
0
  6
Continuous
 62
     7
370
    25
100
AcDbLine
 10
18.2492443633
 20
6.9171245755
 30
0.0
 11
18.2992443633
 21
6.8921245755
 31
0.0
  0
LINE
  5
167
330
1F
100
AcDbEntity
  8
0
  6
Continuous
 62
     7
370
    25
100
AcDbLine
 10
19.1112443633
 20
6.8921245755
 30
0.0
 11
19.1612443633
 21
6.9171245755
 31
0.0
  0
LINE
  5
168
330
1F
100
AcDbEntity
  8
0
  6
Continuous
 62
     7
370
    25
100
AcDbLine
 10
19.1612443633
 20
7.0171245755
 30
0.0
 11
19.1112443633
 21
7.0421245755
 31
0.0
  0
LINE
  5
169
330
1F
100
AcDbEntity
  8
0
  6
Continuous
 62
     7
370
    25
100
AcDbLine
 10
18.2992443633
 20
7.0421245755
 30
0.0
 11
18.2492443633
 21
7.0171245755
 31
0.0
  0
LINE
  5
16A
330
1F
100
AcDbEntity
  8
0
  6
Continuous
 62
     7
370
    25
100
AcDbLine
 10
19.1612443633
 20
7.0671245755
 30
0.0
 11
19.1112443633
 21
7.0921245755
 31
0.0
  0
LINE
  5
16B
330
1F
100
AcDbEntity
  8
0
  6
Continuous
 62
     7
370
    25
100
AcDbLine
 10
18.2992443633
 20
7.0921245755
 30
0.0
 11
18.2492443633
 21
7.0671245755
 31
0.0
  0
LINE
  5
16C
330
1F
100
AcDbEntity
  8
0
  6
Continuous
 62
     7
370
    25
100
AcDbLine
 10
18.2492443633
 20
7.1171245755
 30
0.0
 11
18.2992443633
 21
7.0921245755
 31
0.0
  0
LINE
  5
16D
330
1F
100
AcDbEntity
  8
0
  6
Continuous
 62
     7
370
    25
100
AcDbLine
 10
19.1112443633
 20
7.0921245755
 30
0.0
 11
19.1612443633
 21
7.1171245755
 31
0.0
  0
LINE
  5
16E
330
1F
100
AcDbEntity
  8
0
  6
Continuous
 62
     7
370
    25
100
AcDbLine
 10
19.1612443633
 20
7.1171245755
 30
0.0
 11
19.1112443633
 21
7.1421245755
 31
0.0
  0
LINE
  5
16F
330
1F
100
AcDbEntity
  8
0
  6
Continuous
 62
     7
370
    25
100
AcDbLine
 10
18.2992443633
 20
7.1421245755
 30
0.0
 11
18.2492443633
 21
7.1171245755
 31
0.0
  0
LINE
  5
170
330
1F
100
AcDbEntity
  8
0
  6
Continuous
 62
     7
370
    25
100
AcDbLine
 10
18.2492443633
 20
7.0171245755
 30
0.0
 11
18.2992443633
 21
6.9921245755
 31
0.0
  0
LINE
  5
171
330
1F
100
AcDbEntity
  8
0
  6
Continuous
 62
     7
370
    25
100
AcDbLine
 10
19.1112443633
 20
6.9921245755
 30
0.0
 11
19.1612443633
 21
7.0171245755
 31
0.0
  0
LINE
  5
172
330
1F
100
AcDbEntity
  8
0
  6
Continuous
 62
     7
370
    25
100
AcDbLine
 10
18.2492443633
 20
6.9671245755
 30
0.0
 11
18.2992443633
 21
6.9421245755
 31
0.0
  0
LINE
  5
173
330
1F
100
AcDbEntity
  8
0
  6
Continuous
 62
     7
370
    25
100
AcDbLine
 10
19.1112443633
 20
6.9421245755
 30
0.0
 11
19.1612443633
 21
6.9671245755
 31
0.0
  0
LINE
  5
174
330
1F
100
AcDbEntity
  8
0
  6
Continuous
 62
     7
370
    25
100
AcDbLine
 10
18.2492443633
 20
7.0671245755
 30
0.0
 11
18.2992443633
 21
7.0421245755
 31
0.0
  0
LINE
  5
175
330
1F
100
AcDbEntity
  8
0
  6
Continuous
 62
     7
370
    25
100
AcDbLine
 10
19.1112443633
 20
7.0421245755
 30
0.0
 11
19.1612443633
 21
7.0671245755
 31
0.0
  0
LINE
  5
176
330
1F
100
AcDbEntity
  8
0
  6
Continuous
 62
     7
370
    25
100
AcDbLine
 10
19.1612443633
 20
6.9671245755
 30
0.0
 11
19.1112443633
 21
6.9921245755
 31
0.0
  0
LINE
  5
177
330
1F
100
AcDbEntity
  8
0
  6
Continuous
 62
     7
370
    25
100
AcDbLine
 10
18.2992443633
 20
6.9921245755
 30
0.0
 11
18.2492443633
 21
6.9671245755
 31
0.0
  0
LINE
  5
178
330
1F
100
AcDbEntity
  8
0
  6
Continuous
 62
     7
370
    25
100
AcDbLine
 10
19.1612443633
 20
6.9171245755
 30
0.0
 11
19.1112443633
 21
6.9421245755
 31
0.0
  0
LINE
  5
179
330
1F
100
AcDbEntity
  8
0
  6
Continuous
 62
     7
370
    25
100
AcDbLine
 10
18.2992443633
 20
6.9421245755
 30
0.0
 11
18.2492443633
 21
6.9171245755
 31
0.0
  0
LINE
  5
17A
330
1F
100
AcDbEntity
  8
0
  6
Continuous
 62
     7
370
    25
100
AcDbLine
 10
18.2992443633
 20
6.8921245755
 30
0.0
 11
18.3292443633
 21
6.8621245755
 31
0.0
  0
LINE
  5
17B
330
1F
100
AcDbEntity
  8
0
  6
Continuous
 62
     7
370
    25
100
AcDbLine
 10
19.0812443633
 20
6.8621245755
 30
0.0
 11
19.1112443633
 21
6.8921245755
 31
0.0
  0
LINE
  5
17C
330
1F
100
AcDbEntity
  8
0
  6
Continuous
 62
     7
370
    25
100
AcDbLine
 10
16.750339557
 20
10.1803931194
 30
0.0
 11
17.672839557
 21
8.8757811081
 31
0.0
  0
LINE
  5
17D
330
1F
100
AcDbEntity
  8
0
  6
Continuous
 62
     7
370
    25
100
AcDbLine
 10
19.4854619666
 20
10.1574987057
 30
0.0
 11
18.5629619666
 21
11.462110717
 31
0.0
  0
LINE
  5
17E
330
1F
100
AcDbEntity
  8
0
  6
Continuous
 62
     7
370
    25
100
AcDbLine
 10
18.0241507618
 20
8.7317513798
 30
0.0
 11
18.0541507618
 21
8.7317513798
 31
0.0
  0
LINE
  5
17F
330
1F
100
AcDbEntity
  8
0
  6
Continuous
 62
     7
370
    25
100
AcDbLine
 10
19.4941507618
 20
9.7499851447
 30
0.0
 11
19.5041507618
 21
9.7782694159
 31
0.0
  0
ARC
  5
180
330
1F
100
AcDbEntity
  8
0
  6
Continuous
 62
     7
370
    25
100
AcDbCircle
 10
18.8616507618
 20
9.1171245755
 30
0.0
 40
0.4950000000000046
100
AcDbArc
 50
254.2515314714
 51
33.3321302685
  0
ELLIPSE
  5
181
330
1F
100
AcDbEntity
  8
0
  6
Continuous
 62
     7
370
    25
100
AcDbEllipse
 10
15.8341507618
 20
13.3986561356
 30
0.0
 11
0.0
 21
1.569777054234132
 31
0.0
210
0.0
220
0.0
230
1.0
 40
0.5
 41
0.0
 42
6.283185307179586
  0
LWPOLYLINE
  5
182
330
1F
100
AcDbEntity
  8
0
  6
Continuous
 62
     7
370
    25
100
AcDbPolyline
 90
       30
 70
   128
 43
0.0
 10
17.0966507618
 20
10.0434344589
 10
17.1692418938
 20
10.0465941893
 10
17.2457170983
 20
10.0560479404
 10
17.325460642
 20
10.0717195961
 10
17.4078304767
 20
10.0934829773
 10
17.492163409
 20
10.1211628583
 10
17.5777804398
 20
10.1545363768
 10
17.6639922309
 20
10.1933348289
 10
17.7501046557
 20
10.2372458322
 10
17.8354243877
 20
10.2859158413
 10
17.9192644825
 20
10.3389529937
 10
18.000949909
 20
10.3959302656
 10
18.0798229841
 20
10.4563889095
 10
18.1552486683
 20
10.5198421478
 10
18.2266196782
 20
10.5857790924
 10
18.2933613765
 20
10.6536688579
 10
18.3549363982
 20
10.7229648357
 10
18.4108489776
 20
10.7931090954
 10
18.4606489392
 20
10.8635368766
 10
18.5039353233
 20
10.9336811363
 10
18.5403596132
 20
11.0029771141
 10
18.569628542
 20
11.0708668796
 10
18.5915064534
 20
11.1368038242
 10
18.6058171995
 20
11.2002570625
 10
18.6124455584
 20
11.2607157064
 10
18.6113381626
 20
11.3176929783
 10
18.6025039281
 20
11.3707301307
 10
18.586013983
 20
11.4194001398
 10
18.5620010946
 20
11.4633111431
 10
18.5579619666
 20
11.4691817848
  0
LWPOLYLINE
  5
183
330
1F
100
AcDbEntity
  8
0
  6
Continuous
 62
     7
370
    25
100
AcDbPolyline
 90
        8
 70
   128
 43
0.0
 10
16.745339557
 20
10.1874641872
 10
16.7726429229
 20
10.1545363768
 10
16.8110626712
 20
10.1211628583
 10
16.8562503405
 20
10.0934829773
 10
16.9078421062
 20
10.0717195961
 10
16.965422582
 20
10.0560479404
 10
17.0285281635
 20
10.0465941893
 10
17.0966507618
 20
10.0434344589
  0
SPLINE
  5
184
330
1F
100
AcDbEntity
  8
0
  6
Continuous
 62
     7
370
    25
100
AcDbSpline
210
0.0
220
0.0
230
1.0
 70
    11
 71
     3
 72
    26
 73
    22
 74
     0
 42
0.00000001
 43
0.00000001
 40
0.0
 40
0.0
 40
0.0
 40
0.0
 40
0.0536200607839424
 40
0.1072376822530338
 40
0.1609185883661206
 40
0.2146408563604131
 40
0.2682944511770224
 40
0.3218767096526454
 40
0.3754958818586697
 40
0.4292028051159854
 40
0.4829116531775896
 40
0.536533151300898
 40
0.5901144855236004
 40
0.6437653861511308
 40
0.6974870899191825
 40
0.7511704282073675
 40
0.8047662990509754
 40
0.8583618717573694
 40
0.9120446244252632
 40
0.9657664953707785
 40
0.9999999999999999
 40
0.9999999999999999
 40
0.9999999999999999
 40
0.9999999999999999
 10
16.28677644331472
 20
11.25971811402116
 30
0.0
 10
16.29004138646697
 20
11.25428339471752
 30
0.0
 10
16.2965711242408
 20
11.24341420334965
 30
0.0
 10
16.29813920827686
 20
11.22856827420542
 30
0.0
 10
16.29332441285912
 20
11.21710541051491
 30
0.0
 10
16.28225989217578
 20
11.2104635178882
 30
0.0
 10
16.26642375183274
 20
11.20952856975453
 30
0.0
 10
16.24759314569878
 20
11.21440835863178
 30
0.0
 10
16.22781894746162
 20
11.22445823288074
 30
0.0
 10
16.20919165718843
 20
11.23840273354069
 30
0.0
 10
16.19370979934881
 20
11.25451058943885
 30
0.0
 10
16.18306875148028
 20
11.27085780861859
 30
0.0
 10
16.17846707103213
 20
11.28562644335387
 30
0.0
 10
16.1805004226637
 20
11.29729523756621
 30
0.0
 10
16.18907673101377
 20
11.30471792228563
 30
0.0
 10
16.20333582958571
 20
11.30718756597966
 30
0.0
 10
16.22168010721504
 20
11.30448642945751
 30
0.0
 10
16.24203543791646
 20
11.29686994608093
 30
0.0
 10
16.26191907491611
 20
11.28504012454433
 30
0.0
 10
16.2772839336916
 20
11.27193756049409
 30
0.0
 10
16.28411693885258
 20
11.26314162094502
 30
0.0
 10
16.28677644331472
 20
11.25971811402116
 30
0.0
  0
SPLINE
  5
185
330
1F
100
AcDbEntity
  8
0
  6
Continuous
 62
     7
370
    25
100
AcDbSpline
210
0.0
220
0.0
230
1.0
 70
    11
 71
     3
 72
    26
 73
    22
 74
     0
 42
0.00000001
 43
0.00000001
 40
0.0
 40
0.0
 40
0.0
 40
0.0
 40
0.0536200607839432
 40
0.1072376822530352
 40
0.160918588366122
 40
0.2146408563604131
 40
0.2682944511770226
 40
0.321876709652646
 40
0.3754958818586698
 40
0.4292028051159854
 40
0.4829116531775899
 40
0.5365331513008985
 40
0.5901144855235991
 40
0.6437653861511314
 40
0.6974870899191823
 40
0.7511704282073679
 40
0.8047662990509762
 40
0.8583618717573698
 40
0.9120446244252642
 40
0.9657664953707783
 40
1.0
 40
1.0
 40
1.0
 40
1.0
 10
17.02077644331473
 20
10.22168535923931
 30
0.0
 10
17.02404138646698
 20
10.21625063993567
 30
0.0
 10
17.0305711242408
 20
10.2053814485678
 30
0.0
 10
17.03213920827686
 20
10.19053551942357
 30
0.0
 10
17.02732441285913
 20
10.17907265573306
 30
0.0
 10
17.01625989217578
 20
10.17243076310634
 30
0.0
 10
17.00042375183274
 20
10.17149581497267
 30
0.0
 10
16.98159314569878
 20
10.17637560384992
 30
0.0
 10
16.96181894746163
 20
10.18642547809889
 30
0.0
 10
16.94319165718843
 20
10.20036997875883
 30
0.0
 10
16.92770979934882
 20
10.216477834657
 30
0.0
 10
16.91706875148028
 20
10.23282505383673
 30
0.0
 10
16.91246707103213
 20
10.24759368857202
 30
0.0
 10
16.9145004226637
 20
10.25926248278435
 30
0.0
 10
16.92307673101378
 20
10.26668516750378
 30
0.0
 10
16.93733582958571
 20
10.26915481119781
 30
0.0
 10
16.95568010721505
 20
10.26645367467566
 30
0.0
 10
16.97603543791647
 20
10.25883719129907
 30
0.0
 10
16.99591907491611
 20
10.24700736976248
 30
0.0
 10
17.0112839336916
 20
10.23390480571223
 30
0.0
 10
17.01811693885259
 20
10.22510886616317
 30
0.0
 10
17.02077644331473
 20
10.22168535923931
 30
0.0
  0
SPLINE
  5
186
330
1F
100
AcDbEntity
  8
0
  6
Continuous
 62
     7
370
    25
100
AcDbSpline
210
0.0
220
0.0
230
1.0
 70
    11
 71
     3
 72
    26
 73
    22
 74
     0
 42
0.00000001
 43
0.00000001
 40
0.0
 40
0.0
 40
0.0
 40
0.0
 40
0.0536200607839426
 40
0.1072376822530347
 40
0.1609185883661214
 40
0.2146408563604138
 40
0.2682944511770233
 40
0.321876709652646
 40
0.3754958818586694
 40
0.4292028051159857
 40
0.4829116531775899
 40
0.5365331513008987
 40
0.5901144855235997
 40
0.6437653861511311
 40
0.6974870899191818
 40
0.7511704282073686
 40
0.8047662990509755
 40
0.8583618717573693
 40
0.912044624425264
 40
0.9657664953707797
 40
1.0
 40
1.0
 40
1.0
 40
1.0
 10
18.48748948935509
 20
11.43844816794828
 30
0.0
 10
18.49128995998827
 20
11.43260418555427
 30
0.0
 10
18.49889072836141
 20
11.42091648662408
 30
0.0
 10
18.50869747992785
 20
11.39960568878401
 30
0.0
 10
18.51569838310557
 20
11.37836308183308
 30
0.0
 10
18.51887360053128
 20
11.35908548926656
 30
0.0
 10
18.51771828900392
 20
11.3440153536637
 30
0.0
 10
18.51235010492366
 20
11.33480713321705
 30
0.0
 10
18.50348647562287
 20
11.33253173090946
 30
0.0
 10
18.49230834180411
 20
11.33753349879446
 30
0.0
 10
18.48027308284617
 20
11.34934497590721
 30
0.0
 10
18.46886036289997
 20
11.36666321766338
 30
0.0
 10
18.45932627642388
 20
11.3875153687901
 30
0.0
 10
18.45258217318858
 20
11.40951641957555
 30
0.0
 10
18.4491836825241
 20
11.4301155540054
 30
0.0
 10
18.44934755512831
 20
11.44689922882576
 30
0.0
 10
18.45298271871393
 20
11.45793714895382
 30
0.0
 10
18.45974821143765
 20
11.46205772179801
 30
0.0
 10
18.46905988651208
 20
11.45879246844254
 30
0.0
 10
18.4787858175948
 20
11.45006172786796
 30
0.0
 10
18.48505099260318
 20
11.44170192439983
 30
0.0
 10
18.48748948935509
 20
11.43844816794828
 30
0.0
  0
ELLIPSE
  5
187
330
1F
100
AcDbEntity
  8
0
  6
Continuous
 62
     7
370
    25
100
AcDbEllipse
 10
15.8341507618
 20
13.3986561356
 30
0.0
 11
0.0
 21
1.438962299714621
 31
0.0
210
0.0
220
0.0
230
1.0
 40
0.5
 41
0.0
 42
6.283185307179586
  0
LWPOLYLINE
  5
188
330
1F
100
AcDbEntity
  8
0
  6
Continuous
 62
     7
370
    25
100
AcDbPolyline
 90
       17
 70
   128
 43
0.0
 10
16.9536326808
 20
10.2632818862
 10
16.9351561998
 20
10.2647629569
 10
16.922235685
 20
10.2594614196
 10
16.9168381678
 20
10.2481843851
 10
16.9197853711
 20
10.2326486798
 10
16.9306286099
 20
10.215219474
 10
16.9477170996
 20
10.1985502062
 10
16.9684492723
 20
10.1851786214
 10
16.9896688428
 20
10.1771404222
 10
17.0081453238
 20
10.1756593514
 10
17.0210658386
 20
10.1809608888
 10
17.0264633558
 20
10.1922379232
 10
17.0235161525
 20
10.2077736285
 10
17.0126729137
 20
10.2252028343
 10
16.995584424
 20
10.2418721021
 10
16.9748522513
 20
10.2552436869
 10
16.9536326808
 20
10.2632818862
  0
LINE
  5
189
330
1F
100
AcDbEntity
  8
0
  6
Continuous
 62
     7
370
    25
100
AcDbLine
 10
16.9461453481
 20
10.2125653253
 30
0.0
 11
16.9844490903
 21
10.1896178088
 31
0.0
  0
LINE
  5
18A
330
1F
100
AcDbEntity
  8
0
  6
Continuous
 62
     7
370
    25
100
AcDbLine
 10
17.0099545039
 20
10.1972636376
 30
0.0
 11
16.9844490903
 21
10.1896178088
 31
0.0
  0
LINE
  5
18B
330
1F
100
AcDbEntity
  8
0
  6
Continuous
 62
     7
370
    25
100
AcDbLine
 10
16.9971561755
 20
10.227856983
 30
0.0
 11
17.0099545039
 21
10.1972636376
 31
0.0
  0
LINE
  5
18C
330
1F
100
AcDbEntity
  8
0
  6
Continuous
 62
     7
370
    25
100
AcDbLine
 10
16.9971561755
 20
10.227856983
 30
0.0
 11
16.9588524333
 21
10.2508044996
 31
0.0
  0
LINE
  5
18D
330
1F
100
AcDbEntity
  8
0
  6
Continuous
 62
     7
370
    25
100
AcDbLine
 10
16.9333470197
 20
10.2431586707
 30
0.0
 11
16.9588524333
 21
10.2508044996
 31
0.0
  0
LINE
  5
18E
330
1F
100
AcDbEntity
  8
0
  6
Continuous
 62
     7
370
    25
100
AcDbLine
 10
16.9333470197
 20
10.2431586707
 30
0.0
 11
16.9461453481
 21
10.2125653253
 31
0.0
  0
LINE
  5
18F
330
1F
100
AcDbEntity
  8
0
  6
Continuous
 62
     7
370
    25
100
AcDbLine
 10
17.0024835365
 20
10.2151223672
 30
0.0
 11
16.9844490903
 21
10.1896178088
 31
0.0
  0
LINE
  5
190
330
1F
100
AcDbEntity
  8
0
  6
Continuous
 62
     7
370
    25
100
AcDbLine
 10
16.9689197718
 20
10.2447732242
 30
0.0
 11
16.9461453481
 21
10.2125653253
 31
0.0
  0
LWPOLYLINE
  5
191
330
1F
100
AcDbEntity
  8
0
  6
Continuous
 62
     7
370
    25
100
AcDbPolyline
 90
       17
 70
   128
 43
0.0
 10
18.5085876134
 20
11.3391840375
 10
18.5145499293
 20
11.3476625288
 10
18.5158436607
 20
11.3637350134
 10
18.5122718486
 20
11.3849546015
 10
18.504378269
 20
11.4080908029
 10
18.493364648
 20
11.4296213408
 10
18.4809077095
 20
11.4462683859
 10
18.4689039094
 20
11.4554975766
 10
18.4591807174
 20
11.4559038522
 10
18.4532184015
 20
11.4474253609
 10
18.4519246702
 20
11.4313528763
 10
18.4554964823
 20
11.4101332882
 10
18.4633900618
 20
11.3869970868
 10
18.4744036828
 20
11.3654665489
 10
18.4868606214
 20
11.3488195038
 10
18.4988644215
 20
11.3395903131
 10
18.5085876134
 20
11.3391840375
  0
LINE
  5
192
330
1F
100
AcDbEntity
  8
0
  6
Continuous
 62
     7
370
    25
100
AcDbLine
 10
18.4877174602
 20
11.4247584194
 30
0.0
 11
18.466337189
 21
11.4389972641
 31
0.0
  0
LINE
  5
193
330
1F
100
AcDbEntity
  8
0
  6
Continuous
 62
     7
370
    25
100
AcDbLine
 10
18.4625038942
 20
11.4117827896
 30
0.0
 11
18.466337189
 21
11.4389972641
 31
0.0
  0
LINE
  5
194
330
1F
100
AcDbEntity
  8
0
  6
Continuous
 62
     7
370
    25
100
AcDbLine
 10
18.4800508706
 20
11.3703294703
 30
0.0
 11
18.4625038942
 21
11.4117827896
 31
0.0
  0
LINE
  5
195
330
1F
100
AcDbEntity
  8
0
  6
Continuous
 62
     7
370
    25
100
AcDbLine
 10
18.4800508706
 20
11.3703294703
 30
0.0
 11
18.5014311418
 21
11.3560906256
 31
0.0
  0
LINE
  5
196
330
1F
100
AcDbEntity
  8
0
  6
Continuous
 62
     7
370
    25
100
AcDbLine
 10
18.5052644366
 20
11.3833051001
 30
0.0
 11
18.5014311418
 21
11.3560906256
 31
0.0
  0
LINE
  5
197
330
1F
100
AcDbEntity
  8
0
  6
Continuous
 62
     7
370
    25
100
AcDbLine
 10
18.5052644366
 20
11.3833051001
 30
0.0
 11
18.4877174602
 21
11.4247584194
 31
0.0
  0
LINE
  5
198
330
1F
100
AcDbEntity
  8
0
  6
Continuous
 62
     7
370
    25
100
AcDbLine
 10
18.4628983368
 20
11.4145831344
 30
0.0
 11
18.4877174602
 21
11.4247584194
 31
0.0
  0
LINE
  5
199
330
1F
100
AcDbEntity
  8
0
  6
Continuous
 62
     7
370
    25
100
AcDbLine
 10
18.4790991194
 20
11.3725779059
 30
0.0
 11
18.5052644366
 21
11.3833051001
 31
0.0
  0
LINE
  5
19A
330
1F
100
AcDbEntity
  8
0
  6
Continuous
 62
     7
370
    25
100
AcDbLine
 10
19.1738593438
 20
7.3511245755
 30
0.0
 11
18.2366293827
 21
7.3511245755
 31
0.0
  0
SPLINE
  5
19B
330
1F
100
AcDbEntity
  8
0
  6
Continuous
 62
     7
370
    25
100
AcDbSpline
210
0.0
220
0.0
230
1.0
 70
     8
 71
     3
 72
    10
 73
     6
 74
     0
 42
0.00000001
 43
0.00000001
 40
0.0
 40
0.0
 40
0.0
 40
0.0
 40
0.5331753442086884
 40
0.8095997620717301
 40
1.0
 40
1.0
 40
1.0
 40
1.0
 10
18.24955086238712
 20
7.352554242188286
 30
0.0
 10
18.23483418018588
 20
7.355146882562514
 30
0.0
 10
18.21248764346389
 20
7.359083675688663
 30
0.0
 10
18.18584000736316
 20
7.367831698572934
 30
0.0
 10
18.17374505760891
 20
7.372777719752898
 30
0.0
 10
18.1688119820261
 20
7.374795015964186
 30
0.0
  0
LINE
  5
19C
330
1F
100
AcDbEntity
  8
0
  6
Continuous
 62
     7
370
    25
100
AcDbLine
 10
18.3937198546
 20
7.3525542422
 30
0.0
 11
18.2495508624
 21
7.3525542422
 31
0.0
  0
SPLINE
  5
19D
330
1F
100
AcDbEntity
  8
0
  6
Continuous
 62
     7
370
    25
100
AcDbSpline
210
0.0
220
0.0
230
1.0
 70
     8
 71
     3
 72
    10
 73
     6
 74
     0
 42
0.00000001
 43
0.00000001
 40
0.0
 40
0.0
 40
0.0
 40
0.0
 40
0.4665495905505012
 40
0.7778212346567683
 40
1.0
 40
1.0
 40
1.0
 40
1.0
 10
18.35809774137055
 20
7.374795015964186
 30
0.0
 10
18.3634771285362
 20
7.370093690960051
 30
0.0
 10
18.3724455247188
 20
7.362255745126845
 30
0.0
 10
18.38449057485149
 20
7.355771674152169
 30
0.0
 10
18.39100615581923
 20
7.353500268473608
 30
0.0
 10
18.39371985461722
 20
7.352554242188284
 30
0.0
  0
LINE
  5
19E
330
1F
100
AcDbEntity
  8
0
  6
Continuous
 62
     7
370
    25
100
AcDbLine
 10
18.57473112
 20
7.374795016
 30
0.0
 11
18.3580977414
 21
7.374795016
 31
0.0
  0
SPLINE
  5
19F
330
1F
100
AcDbEntity
  8
0
  6
Continuous
 62
     7
370
    25
100
AcDbSpline
210
0.0
220
0.0
230
1.0
 70
     8
 71
     3
 72
    10
 73
     6
 74
     0
 42
0.00000001
 43
0.00000001
 40
0.0
 40
0.0
 40
0.0
 40
0.0
 40
0.5331753442087156
 40
0.8095997620717961
 40
1.0
 40
1.0
 40
1.0
 40
1.0
 10
18.60988767528804
 20
7.352554242188286
 30
0.0
 10
18.60348365280964
 20
7.355146882562515
 30
0.0
 10
18.59375946895319
 20
7.359083675688663
 30
0.0
 10
18.58215149345094
 20
7.367831698572932
 30
0.0
 10
18.5768808268371
 20
7.372777719752899
 30
0.0
 10
18.57473111995066
 20
7.374795015964187
 30
0.0
  0
LINE
  5
1A0
330
1F
100
AcDbEntity
  8
0
  6
Continuous
 62
     7
370
    25
100
AcDbLine
 10
18.8665158644
 20
7.3525542422
 30
0.0
 11
18.6098876753
 21
7.3525542422
 31
0.0
  0
SPLINE
  5
1A1
330
1F
100
AcDbEntity
  8
0
  6
Continuous
 62
     7
370
    25
100
AcDbSpline
210
0.0
220
0.0
230
1.0
 70
     8
 71
     3
 72
    10
 73
     6
 74
     0
 42
0.00000001
 43
0.00000001
 40
0.0
 40
0.0
 40
0.0
 40
0.0
 40
0.4686381556240141
 40
0.7785358969781415
 40
1.0
 40
1.0
 40
1.0
 40
1.0
 10
18.91166946497567
 20
7.374795015964186
 30
0.0
 10
18.90481158491393
 20
7.370074299891909
 30
0.0
 10
18.89341877418956
 20
7.362231901918967
 30
0.0
 10
18.87815405201273
 20
7.355758527075666
 30
0.0
 10
18.86993955189548
 20
7.353496869207004
 30
0.0
 10
18.86651586440363
 20
7.352554242188286
 30
0.0
  0
LINE
  5
1A2
330
1F
100
AcDbEntity
  8
0
  6
Continuous
 62
     7
370
    25
100
AcDbLine
 10
19.1111635012
 20
7.374795016
 30
0.0
 11
18.911669465
 21
7.374795016
 31
0.0
  0
SPLINE
  5
1A3
330
1F
100
AcDbEntity
  8
0
  6
Continuous
 62
     7
370
    25
100
AcDbSpline
210
0.0
220
0.0
230
1.0
 70
     8
 71
     3
 72
    10
 73
     6
 74
     0
 42
0.00000001
 43
0.00000001
 40
0.0
 40
0.0
 40
0.0
 40
0.0
 40
0.5332311337846976
 40
0.809626569445746
 40
1.0
 40
1.0
 40
1.0
 40
1.0
 10
19.06558117619315
 20
7.352554242188286
 30
0.0
 10
19.07389470301586
 20
7.355147206888923
 30
0.0
 10
19.08651746972058
 20
7.359084210905119
 30
0.0
 10
19.10155706696272
 20
7.367832537596922
 30
0.0
 10
19.10838052734137
 20
7.372777993321675
 30
0.0
 10
19.11116350121679
 20
7.374795015964186
 30
0.0
  0
LINE
  5
1A4
330
1F
100
AcDbEntity
  8
0
  6
Continuous
 62
     7
370
    25
100
AcDbLine
 10
19.1780403731
 20
7.3525542422
 30
0.0
 11
19.0655811762
 21
7.3525542422
 31
0.0
  0
SPLINE
  5
1A5
330
1F
100
AcDbEntity
  8
0
  6
Continuous
 62
     7
370
    25
100
AcDbSpline
210
0.0
220
0.0
230
1.0
 70
     8
 71
     3
 72
    10
 73
     6
 74
     0
 42
0.00000001
 43
0.00000001
 40
0.0
 40
0.0
 40
0.0
 40
0.0
 40
0.466549590550449
 40
0.7778212346567839
 40
1.0
 40
1.0
 40
1.0
 40
1.0
 10
19.25881608689735
 20
7.374795015964185
 30
0.0
 10
19.24660982231915
 20
7.370093690960051
 30
0.0
 10
19.22625980599277
 20
7.362255745126844
 30
0.0
 10
19.19895112380344
 20
7.355771674152169
 30
0.0
 10
19.18418879208285
 20
7.35350026847361
 30
0.0
 10
19.17804037307863
 20
7.352554242188286
 30
0.0
  0
LINE
  5
1A6
330
1F
100
AcDbEntity
  8
0
  6
Continuous
 62
     7
370
    25
100
AcDbLine
 10
18.3531866298
 20
7.5136191159
 30
0.0
 11
18.3530930143
 21
7.512789318
 31
0.0
  0
SPLINE
  5
1A7
330
1F
100
AcDbEntity
  8
0
  6
Continuous
 62
     7
370
    25
100
AcDbSpline
210
0.0
220
0.0
230
1.0
 70
     8
 71
     3
 72
     9
 73
     5
 74
     0
 42
0.00000001
 43
0.00000001
 40
0.0
 40
0.0
 40
0.0
 40
0.0
 40
0.505803104235838
 40
1.0
 40
1.0
 40
1.0
 40
1.0
 10
18.45922682376129
 20
7.484124575525627
 30
0.0
 10
18.44001378535327
 20
7.487151427956613
 30
0.0
 10
18.40202857283257
 20
7.493135678360849
 30
0.0
 10
18.36934081720084
 20
7.506844338563832
 30
0.0
 10
18.35318662983815
 20
7.513619115881231
 30
0.0
  0
LINE
  5
1A8
330
1F
100
AcDbEntity
  8
0
  6
Continuous
 62
     7
370
    25
100
AcDbLine
 10
18.5779453269
 20
7.4841245755
 30
0.0
 11
18.4592268238
 21
7.4841245755
 31
0.0
  0
LINE
  5
1A9
330
1F
100
AcDbEntity
  8
0
  6
Continuous
 62
     7
370
    25
100
AcDbLine
 10
18.5779453269
 20
7.3811191398
 30
0.0
 11
18.5779453269
 21
7.4841245755
 31
0.0
  0
LINE
  5
1AA
330
1F
100
AcDbEntity
  8
0
  6
Continuous
 62
     7
370
    25
100
AcDbLine
 10
18.5776765361
 20
7.3793767128
 30
0.0
 11
18.5779453269
 21
7.3811191398
 31
0.0
  0
LINE
  5
1AB
330
1F
100
AcDbEntity
  8
0
  6
Continuous
 62
     7
370
    25
100
AcDbLine
 10
18.3533082509
 20
7.3793767128
 30
0.0
 11
18.5776765361
 21
7.3793767128
 31
0.0
  0
LINE
  5
1AC
330
1F
100
AcDbEntity
  8
0
  6
Continuous
 62
     7
370
    25
100
AcDbLine
 10
18.3530930143
 20
7.3811191398
 30
0.0
 11
18.3533082509
 21
7.3793767128
 31
0.0
  0
LINE
  5
1AD
330
1F
100
AcDbEntity
  8
0
  6
Continuous
 62
     7
370
    25
100
AcDbLine
 10
18.3530930143
 20
7.3811191398
 30
0.0
 11
18.3530930143
 21
7.512789318
 31
0.0
  0
SPLINE
  5
1AE
330
1F
100
AcDbEntity
  8
0
  6
Continuous
 62
     7
370
    25
100
AcDbSpline
210
0.0
220
0.0
230
1.0
 70
     8
 71
     3
 72
    12
 73
     8
 74
     0
 42
0.00000001
 43
0.00000001
 40
0.0
 40
0.0
 40
0.0
 40
0.0
 40
0.2610466257367415
 40
0.5203567671393173
 40
0.8317512029534174
 40
0.9869218091718138
 40
1.0
 40
1.0
 40
1.0
 40
1.0
 10
18.57767653610234
 20
7.379376712830821
 30
0.0
 10
18.57746761331915
 20
7.378816887151093
 30
0.0
 10
18.57705115750887
 20
7.377700959756734
 30
0.0
 10
18.57619464268007
 20
7.376272479284972
 30
0.0
 10
18.57542188939086
 20
7.375345939823269
 30
0.0
 10
18.57491838249051
 20
7.374926077227504
 30
0.0
 10
18.57474462624258
 20
7.374804468744669
 30
0.0
 10
18.57473111995066
 20
7.374795015964187
 30
0.0
  0
SPLINE
  5
1AF
330
1F
100
AcDbEntity
  8
0
  6
Continuous
 62
     7
370
    25
100
AcDbSpline
210
0.0
220
0.0
230
1.0
 70
     8
 71
     3
 72
    12
 73
     8
 74
     0
 42
0.00000001
 43
0.00000001
 40
0.0
 40
0.0
 40
0.0
 40
0.0
 40
0.261046625737697
 40
0.5203567671427994
 40
0.8317512029568276
 40
0.9869218091719139
 40
1.0
 40
1.0
 40
1.0
 40
1.0
 10
18.35330825090423
 20
7.379376712830818
 30
0.0
 10
18.35352208212268
 20
7.378816887151088
 30
0.0
 10
18.35394832215251
 20
7.37770095975672
 30
0.0
 10
18.35528830121795
 20
7.376272479284967
 30
0.0
 10
18.35669314771485
 20
7.375345939823265
 30
0.0
 10
18.35770720865216
 20
7.374926077227499
 30
0.0
 10
18.35806957423737
 20
7.374804468744667
 30
0.0
 10
18.35809774137055
 20
7.374795015964186
 30
0.0
  0
SPLINE
  5
1B0
330
1F
100
AcDbEntity
  8
0
  6
Continuous
 62
     7
370
    25
100
AcDbSpline
210
0.0
220
0.0
230
1.0
 70
     8
 71
     3
 72
    13
 73
     9
 74
     0
 42
0.00000001
 43
0.00000001
 40
0.0
 40
0.0
 40
0.0
 40
0.0
 40
0.2142797061672762
 40
0.4285450239899189
 40
0.6429491528021026
 40
0.8576415051291882
 40
0.9549170214531396
 40
1.0
 40
1.0
 40
1.0
 40
1.0
 10
18.46068273538264
 20
7.487124575525627
 30
0.0
 10
18.46053374814146
 20
7.487091488683339
 30
0.0
 10
18.46023578366322
 20
7.487025317220461
 30
0.0
 10
18.45981869902852
 20
7.486509163742002
 30
0.0
 10
18.45948347857859
 20
7.485749589729735
 30
0.0
 10
18.45930700751799
 20
7.484971532777883
 30
0.0
 10
18.45924361220245
 20
7.484417643487638
 30
0.0
 10
18.45923086167733
 20
7.484195063536648
 30
0.0
 10
18.45922682376129
 20
7.484124575525627
 30
0.0
  0
SPLINE
  5
1B1
330
1F
100
AcDbEntity
  8
0
  6
Continuous
 62
     7
370
    25
100
AcDbSpline
210
0.0
220
0.0
230
1.0
 70
     8
 71
     3
 72
    12
 73
     8
 74
     0
 42
0.00000001
 43
0.00000001
 40
0.0
 40
0.0
 40
0.0
 40
0.0
 40
0.2217181155142377
 40
0.4435284651950283
 40
0.6625812968593182
 40
0.8762617802484288
 40
1.0
 40
1.0
 40
1.0
 40
1.0
 10
18.5792904660141
 20
7.487124575525627
 30
0.0
 10
18.57913626819339
 20
7.487090172792514
 30
0.0
 10
18.57882780840607
 20
7.487021353014839
 30
0.0
 10
18.57841799970507
 20
7.486483077710592
 30
0.0
 10
18.57811429907093
 20
7.485694861092743
 30
0.0
 10
18.57796459434011
 20
7.484855719601356
 30
0.0
 10
18.5779504967781
 20
7.484320757046107
 30
0.0
 10
18.57794532691878
 20
7.484124575525627
 30
0.0
  0
LINE
  5
1B2
330
1F
100
AcDbEntity
  8
0
  6
Continuous
 62
     7
370
    25
100
AcDbLine
 10
18.4606827354
 20
7.4871245755
 30
0.0
 11
18.579290466
 21
7.4871245755
 31
0.0
  0
LINE
  5
1B3
330
1F
100
AcDbEntity
  8
0
  6
Continuous
 62
     7
370
    25
100
AcDbLine
 10
18.6128057758
 20
7.3575066186
 30
0.0
 11
18.8643334081
 21
7.3575066186
 31
0.0
  0
SPLINE
  5
1B4
330
1F
100
AcDbEntity
  8
0
  6
Continuous
 62
     7
370
    25
100
AcDbSpline
210
0.0
220
0.0
230
1.0
 70
     8
 71
     3
 72
    13
 73
     9
 74
     0
 42
0.00000001
 43
0.00000001
 40
0.0
 40
0.0
 40
0.0
 40
0.0
 40
0.1858612659553091
 40
0.3708268618803827
 40
0.5778789813013542
 40
0.8292801638917363
 40
0.98891664486664
 40
0.9999999999999999
 40
0.9999999999999999
 40
0.9999999999999999
 40
0.9999999999999999
 10
18.86433340809128
 20
7.357506618617851
 30
0.0
 10
18.86440419557572
 20
7.35700342637687
 30
0.0
 10
18.86454542941796
 20
7.355999466790741
 30
0.0
 10
18.86494298701249
 20
7.354674918003927
 30
0.0
 10
18.86545575026621
 20
7.353537378216251
 30
0.0
 10
18.86599431484214
 20
7.352844038535509
 30
0.0
 10
18.86636042981754
 20
7.35261023925237
 30
0.0
 10
18.86650638857042
 20
7.352557655964158
 30
0.0
 10
18.86651586440363
 20
7.352554242188286
 30
0.0
  0
SPLINE
  5
1B5
330
1F
100
AcDbEntity
  8
0
  6
Continuous
 62
     7
370
    25
100
AcDbSpline
210
0.0
220
0.0
230
1.0
 70
     8
 71
     3
 72
    13
 73
     9
 74
     0
 42
0.00000001
 43
0.00000001
 40
0.0
 40
0.0
 40
0.0
 40
0.0
 40
0.1858612659550118
 40
0.3708268618804505
 40
0.5778789813015711
 40
0.829280163891026
 40
0.9889166448666105
 40
0.9999999999999999
 40
0.9999999999999999
 40
0.9999999999999999
 40
0.9999999999999999
 10
18.61280577575877
 20
7.35750661861785
 30
0.0
 10
18.61272536467147
 20
7.357003426376869
 30
0.0
 10
18.61256492999988
 20
7.355999466790738
 30
0.0
 10
18.61205165356164
 20
7.354674918003928
 30
0.0
 10
18.61136532360566
 20
7.353537378216253
 30
0.0
 10
18.61062291327597
 20
7.352844038535507
 30
0.0
 10
18.61010806416781
 20
7.352610239252367
 30
0.0
 10
18.60990111096101
 20
7.352557655964158
 30
0.0
 10
18.60988767528804
 20
7.352554242188286
 30
0.0
  0
LINE
  5
1B6
330
1F
100
AcDbEntity
  8
0
  6
Continuous
 62
     7
370
    25
100
AcDbLine
 10
18.612835379
 20
7.3580502867
 30
0.0
 11
18.612835379
 21
7.4871245755
 31
0.0
  0
LINE
  5
1B7
330
1F
100
AcDbEntity
  8
0
  6
Continuous
 62
     7
370
    25
100
AcDbLine
 10
18.8643049204
 20
7.3580502867
 30
0.0
 11
18.8643049204
 21
7.4871245755
 31
0.0
  0
LINE
  5
1B8
330
1F
100
AcDbEntity
  8
0
  6
Continuous
 62
     7
370
    25
100
AcDbLine
 10
18.8643334081
 20
7.3575066186
 30
0.0
 11
18.8643049204
 21
7.3580502867
 31
0.0
  0
LINE
  5
1B9
330
1F
100
AcDbEntity
  8
0
  6
Continuous
 62
     7
370
    25
100
AcDbLine
 10
18.612835379
 20
7.3580502867
 30
0.0
 11
18.6128057758
 21
7.3575066186
 31
0.0
  0
SPLINE
  5
1BA
330
1F
100
AcDbEntity
  8
0
  6
Continuous
 62
     7
370
    25
100
AcDbSpline
210
0.0
220
0.0
230
1.0
 70
     8
 71
     3
 72
     9
 73
     5
 74
     0
 42
0.00000001
 43
0.00000001
 40
0.0
 40
0.0
 40
0.0
 40
0.0
 40
0.5163266224405149
 40
1.0
 40
1.0
 40
1.0
 40
1.0
 10
18.57794532691878
 20
7.381119139780566
 30
0.0
 10
18.58377653874239
 20
7.375762461048393
 30
0.0
 10
18.59507018809181
 20
7.365387867720524
 30
0.0
 10
18.60704397637369
 20
7.360442317623783
 30
0.0
 10
18.61283537899417
 20
7.358050286704603
 30
0.0
  0
LINE
  5
1BB
330
1F
100
AcDbEntity
  8
0
  6
Continuous
 62
     7
370
    25
100
AcDbLine
 10
18.6083147167
 20
7.4871245755
 30
0.0
 11
18.579290466
 21
7.4871245755
 31
0.0
  0
SPLINE
  5
1BC
330
1F
100
AcDbEntity
  8
0
  6
Continuous
 62
     7
370
    25
100
AcDbSpline
210
0.0
220
0.0
230
1.0
 70
     8
 71
     3
 72
     9
 73
     5
 74
     0
 42
0.00000001
 43
0.00000001
 40
0.0
 40
0.0
 40
0.0
 40
0.0
 40
0.4852580463207253
 40
1.0
 40
1.0
 40
1.0
 40
1.0
 10
18.91103915686768
 20
7.515601415408919
 30
0.0
 10
18.92884924046187
 20
7.509188201216198
 30
0.0
 10
18.96555153469322
 20
7.495972110846656
 30
0.0
 10
19.0006814742421
 20
7.490131158663652
 30
0.0
 10
19.01876432795813
 20
7.487124575525626
 30
0.0
  0
SPLINE
  5
1BD
330
1F
100
AcDbEntity
  8
0
  6
Continuous
 62
     7
370
    25
100
AcDbSpline
210
0.0
220
0.0
230
1.0
 70
     8
 71
     3
 72
     9
 73
     5
 74
     0
 42
0.00000001
 43
0.00000001
 40
0.0
 40
0.0
 40
0.0
 40
0.0
 40
0.3971422548369061
 40
1.0
 40
1.0
 40
1.0
 40
1.0
 10
19.00084790122913
 20
7.487124575525626
 30
0.0
 10
18.98891877570604
 20
7.489539475160274
 30
0.0
 10
18.95888136372632
 20
7.495620166915524
 30
0.0
 10
18.92785137301466
 20
7.506849453494463
 30
0.0
 10
18.9091447027818
 20
7.513619115881233
 30
0.0
  0
SPLINE
  5
1BE
330
1F
100
AcDbEntity
  8
0
  6
Continuous
 62
     7
370
    25
100
AcDbSpline
210
0.0
220
0.0
230
1.0
 70
     8
 71
     3
 72
    14
 73
    10
 74
     0
 42
0.00000001
 43
0.00000001
 40
0.0
 40
0.0
 40
0.0
 40
0.0
 40
0.0123665218958534
 40
0.0969757808092597
 40
0.3271475154409237
 40
0.553595023560032
 40
0.70728753920875
 40
0.8534794040913201
 40
1.0
 40
1.0
 40
1.0
 40
1.0
 10
18.91103915686768
 20
7.515601415408919
 30
0.0
 10
18.91103337710241
 20
7.515607574420893
 30
0.0
 10
18.91098805334411
 20
7.515655872155725
 30
0.0
 10
18.91082486963723
 20
7.515785186970719
 30
0.0
 10
18.91050672310262
 20
7.515827223549639
 30
0.0
 10
18.91008471487929
 20
7.515544826101949
 30
0.0
 10
18.90970420056972
 20
7.515024791278535
 30
0.0
 10
18.90938690659486
 20
7.514396746530086
 30
0.0
 10
18.90922549780959
 20
7.513878520095758
 30
0.0
 10
18.9091447027818
 20
7.513619115881233
 30
0.0
  0
LINE
  5
1BF
330
1F
100
AcDbEntity
  8
0
  6
Continuous
 62
     7
370
    25
100
AcDbLine
 10
18.9091447028
 20
7.5136191159
 30
0.0
 11
18.9090328198
 21
7.512789318
 31
0.0
  0
LINE
  5
1C0
330
1F
100
AcDbEntity
  8
0
  6
Continuous
 62
     7
370
    25
100
AcDbLine
 10
19.1160955343
 20
7.3811191398
 30
0.0
 11
19.1160955343
 21
7.4871245755
 31
0.0
  0
LINE
  5
1C1
330
1F
100
AcDbEntity
  8
0
  6
Continuous
 62
     7
370
    25
100
AcDbLine
 10
19.1159069953
 20
7.3793767128
 30
0.0
 11
19.1160955343
 21
7.3811191398
 31
0.0
  0
LINE
  5
1C2
330
1F
100
AcDbEntity
  8
0
  6
Continuous
 62
     7
370
    25
100
AcDbLine
 10
18.9092900136
 20
7.3793767128
 30
0.0
 11
19.1159069953
 21
7.3793767128
 31
0.0
  0
LINE
  5
1C3
330
1F
100
AcDbEntity
  8
0
  6
Continuous
 62
     7
370
    25
100
AcDbLine
 10
18.9090328198
 20
7.3811191398
 30
0.0
 11
18.9092900136
 21
7.3793767128
 31
0.0
  0
LINE
  5
1C4
330
1F
100
AcDbEntity
  8
0
  6
Continuous
 62
     7
370
    25
100
AcDbLine
 10
18.9090328198
 20
7.3811191398
 30
0.0
 11
18.9090328198
 21
7.512789318
 31
0.0
  0
LINE
  5
1C5
330
1F
100
AcDbEntity
  8
0
  6
Continuous
 62
     7
370
    25
100
AcDbLine
 10
19.1160955343
 20
7.4871245755
 30
0.0
 11
19.0008479012
 21
7.4871245755
 31
0.0
  0
SPLINE
  5
1C6
330
1F
100
AcDbEntity
  8
0
  6
Continuous
 62
     7
370
    25
100
AcDbSpline
210
0.0
220
0.0
230
1.0
 70
     8
 71
     3
 72
    12
 73
     8
 74
     0
 42
0.00000001
 43
0.00000001
 40
0.0
 40
0.0
 40
0.0
 40
0.0
 40
0.2610466257360457
 40
0.5203567671405999
 40
0.8317512029539387
 40
0.9869218091725426
 40
1.0
 40
1.0
 40
1.0
 40
1.0
 10
19.11590699526331
 20
7.379376712830819
 30
0.0
 10
19.11570919551069
 20
7.37881688715109
 30
0.0
 10
19.11531491177107
 20
7.377700959756722
 30
0.0
 10
19.11399366199505
 20
7.376272479284984
 30
0.0
 10
19.11258584312565
 20
7.37534593982326
 30
0.0
 10
19.11155983502864
 20
7.374926077227511
 30
0.0
 10
19.11119208675325
 20
7.374804468744668
 30
0.0
 10
19.11116350121679
 20
7.374795015964186
 30
0.0
  0
SPLINE
  5
1C7
330
1F
100
AcDbEntity
  8
0
  6
Continuous
 62
     7
370
    25
100
AcDbSpline
210
0.0
220
0.0
230
1.0
 70
     8
 71
     3
 72
    12
 73
     8
 74
     0
 42
0.00000001
 43
0.00000001
 40
0.0
 40
0.0
 40
0.0
 40
0.0
 40
0.2610466257372693
 40
0.5203567671424195
 40
0.8317512029575831
 40
0.9869218091726438
 40
1.0
 40
1.0
 40
1.0
 40
1.0
 10
18.90929001355883
 20
7.379376712830819
 30
0.0
 10
18.90948152085887
 20
7.37881688715109
 30
0.0
 10
18.90986326155078
 20
7.377700959756718
 30
0.0
 10
18.91056472607399
 20
7.376272479284968
 30
0.0
 10
18.9111622222373
 20
7.375345939823256
 30
0.0
 10
18.91153371684822
 20
7.374926077227514
 30
0.0
 10
18.91165967415558
 20
7.374804468744668
 30
0.0
 10
18.91166946497567
 20
7.374795015964186
 30
0.0
  0
SPLINE
  5
1C8
330
1F
100
AcDbEntity
  8
0
  6
Continuous
 62
     7
370
    25
100
AcDbSpline
210
0.0
220
0.0
230
1.0
 70
     8
 71
     3
 72
     9
 73
     5
 74
     0
 42
0.00000001
 43
0.00000001
 40
0.0
 40
0.0
 40
0.0
 40
0.0
 40
0.4852580463207583
 40
1.0
 40
1.0
 40
1.0
 40
1.0
 10
18.35777952642501
 20
7.515601415408916
 30
0.0
 10
18.37318403875337
 20
7.509188201216197
 30
0.0
 10
18.40492902978474
 20
7.495972110846659
 30
0.0
 10
18.44173642490738
 20
7.490131158663655
 30
0.0
 10
18.46068273538264
 20
7.487124575525627
 30
0.0
  0
SPLINE
  5
1C9
330
1F
100
AcDbEntity
  8
0
  6
Continuous
 62
     7
370
    25
100
AcDbSpline
210
0.0
220
0.0
230
1.0
 70
     8
 71
     3
 72
    14
 73
    10
 74
     0
 42
0.00000001
 43
0.00000001
 40
0.0
 40
0.0
 40
0.0
 40
0.0
 40
0.0123665218963903
 40
0.0969757808090147
 40
0.3271475154414167
 40
0.5535950235601964
 40
0.7072875392103873
 40
0.8534794040908977
 40
1.0
 40
1.0
 40
1.0
 40
1.0
 10
18.35777952642501
 20
7.515601415408916
 30
0.0
 10
18.3577579604634
 20
7.515607574420891
 30
0.0
 10
18.35758884452412
 20
7.515655872155721
 30
0.0
 10
18.35700752471294
 20
7.515785186970724
 30
0.0
 10
18.35600434903483
 20
7.515827223549636
 30
0.0
 10
18.35488381070649
 20
7.515544826101944
 30
0.0
 10
18.3540376618574
 20
7.515024791278543
 30
0.0
 10
18.3534518036499
 20
7.514396746530079
 30
0.0
 10
18.35327508726257
 20
7.513878520095756
 30
0.0
 10
18.35318662983815
 20
7.513619115881231
 30
0.0
  0
SPLINE
  5
1CA
330
1F
100
AcDbEntity
  8
0
  6
Continuous
 62
     7
370
    25
100
AcDbSpline
210
0.0
220
0.0
230
1.0
 70
     8
 71
     3
 72
     9
 73
     5
 74
     0
 42
0.00000001
 43
0.00000001
 40
0.0
 40
0.0
 40
0.0
 40
0.0
 40
0.4815978158478165
 40
1.0
 40
1.0
 40
1.0
 40
1.0
 10
18.86430492041824
 20
7.358050286704604
 30
0.0
 10
18.87169752511993
 20
7.360430164648577
 30
0.0
 10
18.88704768755513
 20
7.365371794086373
 30
0.0
 10
18.90152681074619
 20
7.375742791875068
 30
0.0
 10
18.90903281983305
 20
7.381119139780565
 30
0.0
  0
LINE
  5
1CB
330
1F
100
AcDbEntity
  8
0
  6
Continuous
 62
     7
370
    25
100
AcDbLine
 10
18.2467022826
 20
7.3575066186
 30
0.0
 11
18.3880058759
 21
7.3575066186
 31
0.0
  0
SPLINE
  5
1CC
330
1F
100
AcDbEntity
  8
0
  6
Continuous
 62
     7
370
    25
100
AcDbSpline
210
0.0
220
0.0
230
1.0
 70
     8
 71
     3
 72
    13
 73
     9
 74
     0
 42
0.00000001
 43
0.00000001
 40
0.0
 40
0.0
 40
0.0
 40
0.0
 40
0.1858612659553165
 40
0.3708268618807447
 40
0.5778789813022347
 40
0.8292801638918025
 40
0.9889166448668277
 40
1.0
 40
1.0
 40
1.0
 40
1.0
 10
18.24670228255986
 20
7.357506618617851
 30
0.0
 10
18.24671581942114
 20
7.35700342637687
 30
0.0
 10
18.24674282790926
 20
7.355999466790739
 30
0.0
 10
18.24716043998598
 20
7.354674918003927
 30
0.0
 10
18.24783374390345
 20
7.353537378216254
 30
0.0
 10
18.24866026510065
 20
7.352844038535507
 30
0.0
 10
18.24927840873566
 20
7.35261023925237
 30
0.0
 10
18.24953425266451
 20
7.352557655964158
 30
0.0
 10
18.24955086238712
 20
7.352554242188286
 30
0.0
  0
LINE
  5
1CD
330
1F
100
AcDbEntity
  8
0
  6
Continuous
 62
     7
370
    25
100
AcDbLine
 10
18.2467121074
 20
7.3580502867
 30
0.0
 11
18.2467121074
 21
7.4871245755
 31
0.0
  0
LINE
  5
1CE
330
1F
100
AcDbEntity
  8
0
  6
Continuous
 62
     7
370
    25
100
AcDbLine
 10
18.2467121074
 20
7.3580502867
 30
0.0
 11
18.2467022826
 21
7.3575066186
 31
0.0
  0
LINE
  5
1CF
330
1F
100
AcDbEntity
  8
0
  6
Continuous
 62
     7
370
    25
100
AcDbLine
 10
19.0713478565
 20
7.3575066186
 30
0.0
 11
19.1815718955
 21
7.3575066186
 31
0.0
  0
SPLINE
  5
1D0
330
1F
100
AcDbEntity
  8
0
  6
Continuous
 62
     7
370
    25
100
AcDbSpline
210
0.0
220
0.0
230
1.0
 70
     8
 71
     3
 72
    13
 73
     9
 74
     0
 42
0.00000001
 43
0.00000001
 40
0.0
 40
0.0
 40
0.0
 40
0.0
 40
0.1858612659550236
 40
0.3708268618810681
 40
0.5778789813018473
 40
0.8292801638920172
 40
0.9889166448683092
 40
0.9999999999999999
 40
0.9999999999999999
 40
0.9999999999999999
 40
0.9999999999999999
 10
19.18157189549522
 20
7.35750661861785
 30
0.0
 10
19.18154420554427
 20
7.357003426376867
 30
0.0
 10
19.18148895908092
 20
7.355999466790735
 30
0.0
 10
19.18095721480715
 20
7.354674918003933
 30
0.0
 10
19.18012304565301
 20
7.35353737821625
 30
0.0
 10
19.17911546091197
 20
7.3528440385355
 30
0.0
 10
19.17836852284834
 20
7.35261023925238
 30
0.0
 10
19.17806037823041
 20
7.352557655964158
 30
0.0
 10
19.17804037307863
 20
7.352554242188286
 30
0.0
  0
LINE
  5
1D1
330
1F
100
AcDbEntity
  8
0
  6
Continuous
 62
     7
370
    25
100
AcDbLine
 10
19.1815662173
 20
7.3580502867
 30
0.0
 11
19.1815662173
 21
7.4871245755
 31
0.0
  0
LINE
  5
1D2
330
1F
100
AcDbEntity
  8
0
  6
Continuous
 62
     7
370
    25
100
AcDbLine
 10
19.1815718955
 20
7.3575066186
 30
0.0
 11
19.1815662173
 21
7.3580502867
 31
0.0
  0
LINE
  5
1D3
330
1F
100
AcDbEntity
  8
0
  6
Continuous
 62
     7
370
    25
100
AcDbLine
 10
18.1670139041
 20
7.3793767128
 30
0.0
 11
18.167094156
 21
7.3811191398
 31
0.0
  0
SPLINE
  5
1D4
330
1F
100
AcDbEntity
  8
0
  6
Continuous
 62
     7
370
    25
100
AcDbSpline
210
0.0
220
0.0
230
1.0
 70
     8
 71
     3
 72
     9
 73
     5
 74
     0
 42
0.00000001
 43
0.00000001
 40
0.0
 40
0.0
 40
0.0
 40
0.0
 40
0.5163266224404977
 40
1.0
 40
1.0
 40
1.0
 40
1.0
 10
18.16709415595554
 20
7.381119139780565
 30
0.0
 10
18.18040078957988
 20
7.375762461048392
 30
0.0
 10
18.20617252600796
 20
7.365387867720522
 30
0.0
 10
18.23349631711383
 20
7.360442317623783
 30
0.0
 10
18.24671210744573
 20
7.358050286704603
 30
0.0
  0
SPLINE
  5
1D5
330
1F
100
AcDbEntity
  8
0
  6
Continuous
 62
     7
370
    25
100
AcDbSpline
210
0.0
220
0.0
230
1.0
 70
     8
 71
     3
 72
    12
 73
     8
 74
     0
 42
0.00000001
 43
0.00000001
 40
0.0
 40
0.0
 40
0.0
 40
0.0
 40
0.2610466257363446
 40
0.5203567671398972
 40
0.8317512029543949
 40
0.9869218091727798
 40
1.0
 40
1.0
 40
1.0
 40
1.0
 10
18.16701390413126
 20
7.379376712830819
 30
0.0
 10
18.16700278110068
 20
7.378816887151092
 30
0.0
 10
18.16698060903003
 20
7.37770095975673
 30
0.0
 10
18.16744534397725
 20
7.376272479284976
 30
0.0
 10
18.16808040955738
 20
7.375345939823263
 30
0.0
 10
18.16860291075415
 20
7.374926077227512
 30
0.0
 10
18.16879690278156
 20
7.374804468744668
 30
0.0
 10
18.1688119820261
 20
7.374795015964186
 30
0.0
  0
SPLINE
  5
1D6
330
1F
100
AcDbEntity
  8
0
  6
Continuous
 62
     7
370
    25
100
AcDbSpline
210
0.0
220
0.0
230
1.0
 70
     8
 71
     3
 72
    12
 73
     8
 74
     0
 42
0.00000001
 43
0.00000001
 40
0.0
 40
0.0
 40
0.0
 40
0.0
 40
0.2217181155150418
 40
0.4435284651947222
 40
0.6625812968592291
 40
0.8762617802482866
 40
0.9999999999999999
 40
0.9999999999999999
 40
0.9999999999999999
 40
0.9999999999999999
 10
18.17016371913666
 20
7.487124575525627
 30
0.0
 10
18.16981184478054
 20
7.487090172792515
 30
0.0
 10
18.16910794968948
 20
7.487021353014841
 30
0.0
 10
18.16817277971018
 20
7.486483077710587
 30
0.0
 10
18.16747974485013
 20
7.485694861092744
 30
0.0
 10
18.16713812357744
 20
7.484855719601356
 30
0.0
 10
18.1671059534045
 20
7.484320757046107
 30
0.0
 10
18.16709415595554
 20
7.484124575525627
 30
0.0
  0
LINE
  5
1D7
330
1F
100
AcDbEntity
  8
0
  6
Continuous
 62
     7
370
    25
100
AcDbLine
 10
18.167094156
 20
7.3811191398
 30
0.0
 11
18.167094156
 21
7.4841245755
 31
0.0
  0
LINE
  5
1D8
330
1F
100
AcDbEntity
  8
0
  6
Continuous
 62
     7
370
    25
100
AcDbLine
 10
18.2363961046
 20
7.4871245755
 30
0.0
 11
18.1701637191
 21
7.4871245755
 31
0.0
  0
LINE
  5
1D9
330
1F
100
AcDbEntity
  8
0
  6
Continuous
 62
     7
370
    25
100
AcDbLine
 10
18.167094156
 20
7.4841245755
 30
0.0
 11
18.1441588706
 21
7.4841245755
 31
0.0
  0
SPLINE
  5
1DA
330
1F
100
AcDbEntity
  8
0
  6
Continuous
 62
     7
370
    25
100
AcDbSpline
210
0.0
220
0.0
230
1.0
 70
     8
 71
     3
 72
    13
 73
     9
 74
     0
 42
0.00000001
 43
0.00000001
 40
0.0
 40
0.0
 40
0.0
 40
0.0
 40
0.0450838408436646
 40
0.1423612177182983
 40
0.3570576764415965
 40
0.5714659061368305
 40
0.7857353221871878
 40
1.0
 40
1.0
 40
1.0
 40
1.0
 10
18.14415887058618
 20
7.484124575525627
 30
0.0
 10
18.14416065245562
 20
7.484195063536552
 30
0.0
 10
18.14416627906371
 20
7.484417643487195
 30
0.0
 10
18.14425247743739
 20
7.484971532783869
 30
0.0
 10
18.14457287544311
 20
7.485749589676872
 30
0.0
 10
18.14525720775376
 20
7.486509163933435
 30
0.0
 10
18.14615388273706
 20
7.487025301152954
 30
0.0
 10
18.14682641661207
 20
7.487091484311995
 30
0.0
 10
18.14716267983152
 20
7.487124575525627
 30
0.0
  0
LINE
  5
1DB
330
1F
100
AcDbEntity
  8
0
  6
Continuous
 62
     7
370
    25
100
AcDbLine
 10
18.1471626798
 20
7.4871245755
 30
0.0
 11
18.1701637191
 21
7.4871245755
 31
0.0
  0
LINE
  5
1DC
330
1F
100
AcDbEntity
  8
0
  6
Continuous
 62
     7
370
    25
100
AcDbLine
 10
18.1441588706
 20
7.4841245755
 30
0.0
 11
18.1436174651
 21
7.4909621168
 31
0.0
  0
LINE
  5
1DD
330
1F
100
AcDbEntity
  8
0
  6
Continuous
 62
     7
370
    25
100
AcDbLine
 10
18.143283383
 20
7.495181321
 30
0.0
 11
18.1492862903
 21
7.5136191159
 31
0.0
  0
SPLINE
  5
1DE
330
1F
100
AcDbEntity
  8
0
  6
Continuous
 62
     7
370
    25
100
AcDbSpline
210
0.0
220
0.0
230
1.0
 70
     8
 71
     3
 72
     9
 73
     5
 74
     0
 42
0.00000001
 43
0.00000001
 40
0.0
 40
0.0
 40
0.0
 40
0.0
 40
0.483673377559622
 40
1.0
 40
1.0
 40
1.0
 40
1.0
 10
19.18156621733922
 20
7.358050286704603
 30
0.0
 10
19.19478200767113
 20
7.360442317623782
 30
0.0
 10
19.222105798777
 20
7.365387867720519
 30
0.0
 10
19.24787753520509
 20
7.375762461048391
 30
0.0
 10
19.26118416882943
 20
7.381119139780564
 30
0.0
  0
LINE
  5
1DF
330
1F
100
AcDbEntity
  8
0
  6
Continuous
 62
     7
370
    25
100
AcDbLine
 10
19.2611841688
 20
7.3811191398
 30
0.0
 11
19.2612261259
 21
7.3793767128
 31
0.0
  0
SPLINE
  5
1E0
330
1F
100
AcDbEntity
  8
0
  6
Continuous
 62
     7
370
    25
100
AcDbSpline
210
0.0
220
0.0
230
1.0
 70
     8
 71
     3
 72
    12
 73
     8
 74
     0
 42
0.00000001
 43
0.00000001
 40
0.0
 40
0.0
 40
0.0
 40
0.0
 40
0.2610466257365843
 40
0.5203567671403719
 40
0.8317512029543095
 40
0.986921809172636
 40
1.0
 40
1.0
 40
1.0
 40
1.0
 10
19.26122612594682
 20
7.379376712830818
 30
0.0
 10
19.26120380202842
 20
7.37881688715109
 30
0.0
 10
19.2611593026905
 20
7.377700959756726
 30
0.0
 10
19.26052078814828
 20
7.376272479284978
 30
0.0
 10
19.25971343781463
 20
7.37534593982326
 30
0.0
 10
19.25907087148833
 20
7.374926077227512
 30
0.0
 10
19.25883446321044
 20
7.374804468744668
 30
0.0
 10
19.25881608689735
 20
7.374795015964186
 30
0.0
  0
SPLINE
  5
1E1
330
1F
100
AcDbEntity
  8
0
  6
Continuous
 62
     7
370
    25
100
AcDbSpline
210
0.0
220
0.0
230
1.0
 70
     8
 71
     3
 72
    12
 73
     8
 74
     0
 42
0.00000001
 43
0.00000001
 40
0.0
 40
0.0
 40
0.0
 40
0.0
 40
0.1130801400944496
 40
0.4115717066516392
 40
0.6141613493671856
 40
0.8068640164388055
 40
1.0
 40
1.0
 40
1.0
 40
1.0
 10
19.25941611364603
 20
7.515748271186042
 30
0.0
 10
19.25952423845188
 20
7.515759234941722
 30
0.0
 10
19.25991777449486
 20
7.515799139133848
 30
0.0
 10
19.26044388183016
 20
7.515535546379769
 30
0.0
 10
19.26091119296106
 20
7.515026739840787
 30
0.0
 10
19.26117939483331
 20
7.514396268331915
 30
0.0
 10
19.26119475002013
 20
7.51387836057707
 30
0.0
 10
19.26120243623587
 20
7.513619115881231
 30
0.0
  0
LINE
  5
1E2
330
1F
100
AcDbEntity
  8
0
  6
Continuous
 62
     7
370
    25
100
AcDbLine
 10
19.2612024362
 20
7.5136191159
 30
0.0
 11
19.2611841688
 21
7.512789318
 31
0.0
  0
LINE
  5
1E3
330
1F
100
AcDbEntity
  8
0
  6
Continuous
 62
     7
370
    25
100
AcDbLine
 10
19.2611841688
 20
7.3811191398
 30
0.0
 11
19.2611841688
 21
7.512789318
 31
0.0
  0
SPLINE
  5
1E4
330
1F
100
AcDbEntity
  8
0
  6
Continuous
 62
     7
370
    25
100
AcDbSpline
210
0.0
220
0.0
230
1.0
 70
     8
 71
     3
 72
     9
 73
     5
 74
     0
 42
0.00000001
 43
0.00000001
 40
0.0
 40
0.0
 40
0.0
 40
0.0
 40
0.2808638411049296
 40
1.0
 40
1.0
 40
1.0
 40
1.0
 10
19.26687126150081
 20
7.490962116816832
 30
0.0
 10
19.26710800737108
 20
7.492228937742835
 30
0.0
 10
19.26795092780302
 20
7.496739382807678
 30
0.0
 10
19.26402541467119
 20
7.506558112398243
 30
0.0
 10
19.26120243623587
 20
7.513619115881231
 30
0.0
  0
SPLINE
  5
1E5
330
1F
100
AcDbEntity
  8
0
  6
Continuous
 62
     7
370
    25
100
AcDbSpline
210
0.0
220
0.0
230
1.0
 70
     8
 71
     3
 72
     9
 73
     5
 74
     0
 42
0.00000001
 43
0.00000001
 40
0.0
 40
0.0
 40
0.0
 40
0.0
 40
0.485258026133377
 40
0.9999999999999999
 40
0.9999999999999999
 40
0.9999999999999999
 40
0.9999999999999999
 10
18.15198473284955
 20
7.515601415408919
 30
0.0
 10
18.14957916853995
 20
7.509188201172659
 30
0.0
 10
18.14462187946887
 20
7.495972110163592
 30
0.0
 10
18.14629926109986
 20
7.490131158509377
 30
0.0
 10
18.14716267983152
 20
7.487124575525627
 30
0.0
  0
SPLINE
  5
1E6
330
1F
100
AcDbEntity
  8
0
  6
Continuous
 62
     7
370
    25
100
AcDbSpline
210
0.0
220
0.0
230
1.0
 70
     8
 71
     3
 72
    14
 73
    10
 74
     0
 42
0.00000001
 43
0.00000001
 40
0.0
 40
0.0
 40
0.0
 40
0.0
 40
0.1465205959091584
 40
0.2927124607916928
 40
0.4464049764402664
 40
0.6728524845601666
 40
0.9030242191910214
 40
0.9876334781044346
 40
1.0
 40
1.0
 40
1.0
 40
1.0
 10
18.14928629034857
 20
7.513619115881232
 30
0.0
 10
18.14929395274521
 20
7.513878520095757
 30
0.0
 10
18.14930926034728
 20
7.514396746530084
 30
0.0
 10
18.14957782457993
 20
7.515024791278534
 30
0.0
 10
18.15004345911943
 20
7.515544826101949
 30
0.0
 10
18.15074198922444
 20
7.515827223549638
 30
0.0
 10
18.15142701836794
 20
7.515785186970719
 30
0.0
 10
18.15184515447222
 20
7.515655872155725
 30
0.0
 10
18.15196894665321
 20
7.515607574420893
 30
0.0
 10
18.15198473284955
 20
7.515601415408919
 30
0.0
  0
LINE
  5
1E7
330
1F
100
AcDbEntity
  8
0
  6
Continuous
 62
     7
370
    25
100
AcDbLine
 10
18.4289082268
 20
8.5516245755
 30
0.0
 11
18.4289082268
 21
8.8038007157
 31
0.0
  0
LINE
  5
1E8
330
1F
100
AcDbEntity
  8
0
  6
Continuous
 62
     7
370
    25
100
AcDbLine
 10
19.2002443633
 20
8.5516245755
 30
0.0
 11
18.4289082268
 21
8.5516245755
 31
0.0
  0
LINE
  5
1E9
330
1F
100
AcDbEntity
  8
0
  6
Continuous
 62
     7
370
    25
100
AcDbLine
 10
19.1159307883
 20
8.6924286041
 30
0.0
 11
19.1159307883
 21
8.5516245755
 31
0.0
  0
LINE
  5
1EA
330
1F
100
AcDbEntity
  8
0
  6
Continuous
 62
     7
370
    25
100
AcDbLine
 10
19.1918822201
 20
7.4871245755
 30
0.0
 11
19.1160955343
 21
7.4871245755
 31
0.0
  0
LINE
  5
1EB
330
1F
100
AcDbEntity
  8
0
  6
Continuous
 62
     7
370
    25
100
AcDbLine
 10
18.8701002609
 20
7.4871245755
 30
0.0
 11
18.6083147167
 21
7.4871245755
 31
0.0
  0
LINE
  5
1EC
330
1F
100
AcDbEntity
  8
0
  6
Continuous
 62
     7
370
    25
100
AcDbLine
 10
18.3530930143
 20
7.4871245755
 30
0.0
 11
18.2363961046
 21
7.4871245755
 31
0.0
  0
LINE
  5
1ED
330
1F
100
AcDbEntity
  8
0
  6
Continuous
 62
     7
370
    25
100
AcDbLine
 10
19.1112443633
 20
7.2921245755
 30
0.0
 11
18.2992443633
 21
7.2921245755
 31
0.0
  0
LINE
  5
1EE
330
1F
100
AcDbEntity
  8
0
  6
Continuous
 62
     7
370
    25
100
AcDbLine
 10
19.1612443633
 20
7.3171245755
 30
0.0
 11
18.2492443633
 21
7.3171245755
 31
0.0
  0
LINE
  5
1EF
330
1F
100
AcDbEntity
  8
0
  6
Continuous
 62
     7
370
    25
100
AcDbLine
 10
19.1112443633
 20
7.3421245755
 30
0.0
 11
18.2992443633
 21
7.3421245755
 31
0.0
  0
LINE
  5
1F0
330
1F
100
AcDbEntity
  8
0
  6
Continuous
 62
     7
370
    25
100
AcDbLine
 10
19.1612443633
 20
7.1671245755
 30
0.0
 11
18.2492443633
 21
7.1671245755
 31
0.0
  0
LINE
  5
1F1
330
1F
100
AcDbEntity
  8
0
  6
Continuous
 62
     7
370
    25
100
AcDbLine
 10
19.1112443633
 20
7.1921245755
 30
0.0
 11
18.2992443633
 21
7.1921245755
 31
0.0
  0
LINE
  5
1F2
330
1F
100
AcDbEntity
  8
0
  6
Continuous
 62
     7
370
    25
100
AcDbLine
 10
19.1612443633
 20
7.2671245755
 30
0.0
 11
18.2492443633
 21
7.2671245755
 31
0.0
  0
LINE
  5
1F3
330
1F
100
AcDbEntity
  8
0
  6
Continuous
 62
     7
370
    25
100
AcDbLine
 10
19.1112443633
 20
7.2421245755
 30
0.0
 11
18.2992443633
 21
7.2421245755
 31
0.0
  0
LINE
  5
1F4
330
1F
100
AcDbEntity
  8
0
  6
Continuous
 62
     7
370
    25
100
AcDbLine
 10
19.1612443633
 20
7.2171245755
 30
0.0
 11
18.2492443633
 21
7.2171245755
 31
0.0
  0
LINE
  5
1F5
330
1F
100
AcDbEntity
  8
0
  6
Continuous
 62
     7
370
    25
100
AcDbLine
 10
19.1112443633
 20
7.1421245755
 30
0.0
 11
18.2992443633
 21
7.1421245755
 31
0.0
  0
LINE
  5
1F6
330
1F
100
AcDbEntity
  8
0
  6
Continuous
 62
     7
370
    25
100
AcDbLine
 10
18.2992443633
 20
6.8921245755
 30
0.0
 11
19.1112443633
 21
6.8921245755
 31
0.0
  0
LINE
  5
1F7
330
1F
100
AcDbEntity
  8
0
  6
Continuous
 62
     7
370
    25
100
AcDbLine
 10
19.1612443633
 20
6.9171245755
 30
0.0
 11
18.2492443633
 21
6.9171245755
 31
0.0
  0
LINE
  5
1F8
330
1F
100
AcDbEntity
  8
0
  6
Continuous
 62
     7
370
    25
100
AcDbLine
 10
19.1612443633
 20
7.0171245755
 30
0.0
 11
18.2492443633
 21
7.0171245755
 31
0.0
  0
LINE
  5
1F9
330
1F
100
AcDbEntity
  8
0
  6
Continuous
 62
     7
370
    25
100
AcDbLine
 10
19.1112443633
 20
7.0421245755
 30
0.0
 11
18.2992443633
 21
7.0421245755
 31
0.0
  0
LINE
  5
1FA
330
1F
100
AcDbEntity
  8
0
  6
Continuous
 62
     7
370
    25
100
AcDbLine
 10
19.1612443633
 20
7.0671245755
 30
0.0
 11
18.2492443633
 21
7.0671245755
 31
0.0
  0
LINE
  5
1FB
330
1F
100
AcDbEntity
  8
0
  6
Continuous
 62
     7
370
    25
100
AcDbLine
 10
19.1112443633
 20
7.0921245755
 30
0.0
 11
18.2992443633
 21
7.0921245755
 31
0.0
  0
LINE
  5
1FC
330
1F
100
AcDbEntity
  8
0
  6
Continuous
 62
     7
370
    25
100
AcDbLine
 10
19.1612443633
 20
7.1171245755
 30
0.0
 11
18.2492443633
 21
7.1171245755
 31
0.0
  0
LINE
  5
1FD
330
1F
100
AcDbEntity
  8
0
  6
Continuous
 62
     7
370
    25
100
AcDbLine
 10
19.1112443633
 20
6.9921245755
 30
0.0
 11
18.2992443633
 21
6.9921245755
 31
0.0
  0
LINE
  5
1FE
330
1F
100
AcDbEntity
  8
0
  6
Continuous
 62
     7
370
    25
100
AcDbLine
 10
19.1112443633
 20
6.9421245755
 30
0.0
 11
18.2992443633
 21
6.9421245755
 31
0.0
  0
LINE
  5
1FF
330
1F
100
AcDbEntity
  8
0
  6
Continuous
 62
     7
370
    25
100
AcDbLine
 10
19.1612443633
 20
6.9671245755
 30
0.0
 11
18.2492443633
 21
6.9671245755
 31
0.0
  0
LINE
  5
200
330
1F
100
AcDbEntity
  8
0
  6
Continuous
 62
     7
370
    25
100
AcDbLine
 10
19.0812443633
 20
6.8621245755
 30
0.0
 11
18.3292443633
 21
6.8621245755
 31
0.0
  0
LINE
  5
201
330
1F
100
AcDbEntity
  8
0
  6
Continuous
 62
     7
370
    25
100
AcDbLine
 10
18.5604343819
 20
11.4656267455
 30
0.0
 11
18.5629619666
 21
11.462110717
 31
0.0
  0
LINE
  5
202
330
1F
100
AcDbEntity
  8
0
  6
Continuous
 62
     7
370
    25
100
AcDbLine
 10
16.750339557
 20
10.1803931194
 30
0.0
 11
16.7478671413
 21
10.1839481593
 31
0.0
  0
LWPOLYLINE
  5
203
330
1F
100
AcDbEntity
  8
0
  6
Continuous
 62
     7
370
    25
100
AcDbPolyline
 90
       30
 70
   128
 43
0.0
 10
18.0241507618
 20
8.7317513798
 10
18.0967418938
 20
8.7349111102
 10
18.1732170983
 20
8.7443648613
 10
18.252960642
 20
8.760036517
 10
18.3353304767
 20
8.7817998982
 10
18.419663409
 20
8.8094797792
 10
18.5052804398
 20
8.8428532977
 10
18.5914922309
 20
8.8816517498
 10
18.6776046557
 20
8.9255627531
 10
18.7629243877
 20
8.9742327622
 10
18.8467644825
 20
9.0272699146
 10
18.928449909
 20
9.0842471865
 10
19.0073229841
 20
9.1447058304
 10
19.0827486683
 20
9.2081590687
 10
19.1541196782
 20
9.2740960133
 10
19.2208613765
 20
9.3419857788
 10
19.2824363982
 20
9.4112817566
 10
19.3383489776
 20
9.4814260163
 10
19.3881489392
 20
9.5518537975
 10
19.4314353233
 20
9.6219980572
 10
19.4678596132
 20
9.691294035
 10
19.497128542
 20
9.7591838005
 10
19.5190064534
 20
9.8251207451
 10
19.5333171995
 20
9.8885739834
 10
19.5399455584
 20
9.9490326273
 10
19.5388381626
 20
10.0060098991
 10
19.5300039281
 20
10.0590470516
 10
19.513513983
 20
10.1077170607
 10
19.4895010946
 20
10.151628064
 10
19.4854619666
 20
10.1574987057
  0
LWPOLYLINE
  5
204
330
1F
100
AcDbEntity
  8
0
  6
Continuous
 62
     7
370
    25
100
AcDbPolyline
 90
        8
 70
   128
 43
0.0
 10
17.672839557
 20
8.8757811081
 10
17.7001429229
 20
8.8428532977
 10
17.7385626712
 20
8.8094797792
 10
17.7837503405
 20
8.7817998982
 10
17.8353421062
 20
8.760036517
 10
17.892922582
 20
8.7443648613
 10
17.9560281635
 20
8.7349111102
 10
18.0241507618
 20
8.7317513798
  0
LWPOLYLINE
  5
205
330
1F
100
AcDbEntity
  8
0
  6
Continuous
 62
     7
370
    25
100
AcDbPolyline
 90
       22
 70
   128
 43
0.0
 10
19.4941507618
 20
9.7499851447
 10
19.4678226595
 20
9.6846713946
 10
19.4338386314
 20
9.6166086485
 10
19.3928966853
 20
9.5475417506
 10
19.3453360788
 20
9.478043011
 10
19.2915509142
 20
9.4086883181
 10
19.2319868723
 20
9.3400523668
 10
19.1671375195
 20
9.2727038962
 10
19.097540218
 20
9.207200977
 10
19.023771673
 20
9.1440863869
 10
18.9464431537
 20
9.0838831132
 10
18.8661954288
 20
9.0270900194
 10
18.783693456
 20
8.9741777109
 10
18.6996208728
 20
8.9255846356
 10
18.6146743311
 20
8.8817134512
 10
18.5295577246
 20
8.8429276881
 10
18.4449763563
 20
8.8095487374
 10
18.3616310941
 20
8.7818531874
 10
18.2802125632
 20
8.7600705324
 10
18.201395423
 20
8.7443812701
 10
18.1258327772
 20
8.7349154069
 10
18.0541507618
 20
8.7317513798
  0
LINE
  5
206
330
1F
100
AcDbEntity
  8
0
  6
Continuous
 62
     7
370
    25
100
AcDbLine
 10
18.5515764616
 20
8.7736132948
 30
0.0
 11
18.5087194494
 21
8.8342222627
 31
0.0
  0
ARC
  5
207
330
1F
100
AcDbEntity
  8
0
  6
Continuous
 62
     7
370
    25
100
AcDbCircle
 10
18.8260870138
 20
8.9539370673
 30
0.0
 40
0.3284398060612775
100
AcDbArc
 50
213.3005895571
 51
252.4958320847
  0
LINE
  5
208
330
1F
100
AcDbEntity
  8
0
  6
Continuous
 62
     7
370
    25
100
AcDbLine
 10
18.168811982
 20
7.374795016
 30
0.0
 11
18.1457423508
 21
7.374795016
 31
0.0
  0
LINE
  5
209
330
1F
100
AcDbEntity
  8
0
  6
Continuous
 62
     7
370
    25
100
AcDbLine
 10
19.2647463757
 20
7.374795016
 30
0.0
 11
19.2588160869
 21
7.374795016
 31
0.0
  0
LINE
  5
20A
330
1F
100
AcDbEntity
  8
0
  6
Continuous
 62
     7
370
    25
100
AcDbLine
 10
18.386647058
 20
7.5156014154
 30
0.0
 11
18.3577795264
 21
7.5156014154
 31
0.0
  0
LINE
  5
20B
330
1F
100
AcDbEntity
  8
0
  6
Continuous
 62
     7
370
    25
100
AcDbLine
 10
18.9090328198
 20
7.512789318
 30
0.0
 11
18.8701002609
 21
7.512789318
 31
0.0
  0
LINE
  5
20C
330
1F
100
AcDbEntity
  8
0
  6
Continuous
 62
     7
370
    25
100
AcDbLine
 10
18.1427443633
 20
7.3793767128
 30
0.0
 11
18.1670139041
 21
7.3793767128
 31
0.0
  0
LINE
  5
20D
330
1F
100
AcDbEntity
  8
0
  6
Continuous
 62
     7
370
    25
100
AcDbLine
 10
19.2611841688
 20
7.512789318
 30
0.0
 11
19.1918822201
 21
7.512789318
 31
0.0
  0
LINE
  5
20E
330
1F
100
AcDbEntity
  8
0
  6
Continuous
 62
     7
370
    25
100
AcDbLine
 10
19.2612261259
 20
7.3793767128
 30
0.0
 11
19.2677443633
 21
7.3793767128
 31
0.0
  0
LINE
  5
20F
330
1F
100
AcDbEntity
  8
0
  6
Continuous
 62
     7
370
    25
100
AcDbLine
 10
18.2102443633
 20
7.5156014154
 30
0.0
 11
18.1519847328
 21
7.5156014154
 31
0.0
  0
LWPOLYLINE
  5
210
330
1F
100
AcDbEntity
  8
0
  6
Continuous
 62
     7
370
    25
100
AcDbPolyline
 90
       37
 70
   128
 43
0.0
 10
18.5629619666
 20
11.462110717
 10
18.5670010946
 20
11.4562400753
 10
18.591013983
 20
11.412329072
 10
18.6075039281
 20
11.3636590629
 10
18.6163381626
 20
11.3106219104
 10
18.6174455584
 20
11.2536446386
 10
18.6108171995
 20
11.1931859947
 10
18.5965064534
 20
11.1297327564
 10
18.574628542
 20
11.0637958118
 10
18.5453596132
 20
10.9959060463
 10
18.5089353233
 20
10.9266100685
 10
18.4656489392
 20
10.8564658088
 10
18.4158489776
 20
10.7860380276
 10
18.3599363982
 20
10.7158937679
 10
18.2983613765
 20
10.6465977901
 10
18.2316196782
 20
10.5787080246
 10
18.1602486683
 20
10.51277108
 10
18.0848229841
 20
10.4493178416
 10
18.005949909
 20
10.3888591978
 10
17.9242644825
 20
10.3318819259
 10
17.8404243877
 20
10.2788447735
 10
17.7551046557
 20
10.2301747644
 10
17.6689922309
 20
10.1862637611
 10
17.5827804398
 20
10.147465309
 10
17.497163409
 20
10.1140917905
 10
17.4128304767
 20
10.0864119095
 10
17.330460642
 20
10.0646485283
 10
17.2507170983
 20
10.0489768726
 10
17.1742418938
 20
10.0395231215
 10
17.1016507618
 20
10.0363633911
 10
17.0335281635
 20
10.0395231215
 10
16.970422582
 20
10.0489768726
 10
16.9128421062
 20
10.0646485283
 10
16.8612503405
 20
10.0864119095
 10
16.8160626712
 20
10.1140917905
 10
16.7776429229
 20
10.147465309
 10
16.750339557
 20
10.1803931194
  0
LWPOLYLINE
  5
211
330
1F
100
AcDbEntity
  8
0
  6
Continuous
 62
     7
370
    25
100
AcDbPolyline
 90
       21
 70
   128
 43
0.0
 10
18.5515764616
 20
8.7736132948
 10
18.5944677708
 20
8.7676838087
 10
18.642270537
 20
8.7681778725
 10
18.6941060319
 20
8.7750864042
 10
18.7490213962
 20
8.7882824084
 10
18.8060071553
 20
8.8075233114
 10
18.8640157758
 20
8.8324554198
 10
18.9219809218
 20
8.8626204223
 10
18.9788370563
 20
8.8974638145
 10
19.0335390289
 20
8.9363450924
 10
19.0850812876
 20
8.9785495259
 10
19.1325163635
 20
9.0233012973
 10
19.1749722873
 20
9.0697777631
 10
19.2116686185
 20
9.1171245755
 10
19.2419307916
 20
9.164471388
 10
19.265202516
 20
9.2109478537
 10
19.2810560023
 20
9.2556996252
 10
19.2891998258
 20
9.2979040586
 10
19.2894842837
 20
9.3367853365
 10
19.281904147
 20
9.3716287288
 10
19.2746378337
 20
9.3884329668
  0
LINE
  5
212
330
1F
100
AcDbEntity
  8
0
  6
Continuous
 62
     7
370
    25
100
AcDbLine
 10
6.1668127606
 20
2.9280188353
 30
0.0
 11
6.1668127606
 21
3.6671071388
 31
0.0
  0
LINE
  5
213
330
1F
100
AcDbEntity
  8
0
  6
Continuous
 62
     7
370
    25
100
AcDbLine
 10
6.1668127606
 20
1.4600188353
 30
0.0
 11
6.1668127606
 21
2.7929755119
 31
0.0
  0
LINE
  5
214
330
1F
100
AcDbEntity
  8
0
  6
Continuous
 62
     7
370
    25
100
AcDbLine
 10
6.1668127606
 20
1.1421071388
 30
0.0
 11
6.1668127606
 21
1.3249755119
 31
0.0
  0
LINE
  5
215
330
1F
100
AcDbEntity
  8
0
  6
Continuous
 62
     7
370
    25
100
AcDbLine
 10
3.9468127606
 20
5.8871071388
 30
0.0
 11
3.9468127606
 21
1.1421071388
 31
0.0
  0
LINE
  5
216
330
1F
100
AcDbEntity
  8
0
  6
Continuous
 62
     7
370
    25
100
AcDbLine
 10
3.9468127606
 20
5.8871071388
 30
0.0
 11
6.1668127606
 21
3.6671071388
 31
0.0
  0
LINE
  5
217
330
1F
100
AcDbEntity
  8
0
  6
Continuous
 62
     7
370
    25
100
AcDbLine
 10
3.9468127606
 20
1.1421071388
 30
0.0
 11
6.1668127606
 21
1.1421071388
 31
0.0
  0
SPLINE
  5
218
330
1F
100
AcDbEntity
  8
0
  6
Continuous
 62
     7
370
    25
100
AcDbSpline
210
0.0
220
0.0
230
1.0
 70
     8
 71
     3
 72
    17
 73
    13
 74
     0
 42
0.00000001
 43
0.00000001
 40
0.0
 40
0.0
 40
0.0
 40
0.0
 40
0.036782912927042
 40
0.1439469936102677
 40
0.2511849014537425
 40
0.3585983106853341
 40
0.4660155695098209
 40
0.5732581291689329
 40
0.6804203613538389
 40
0.7877217257819947
 40
0.8951646959147088
 40
1.0
 40
1.0
 40
1.0
 40
1.0
 10
6.166760051778986
 20
2.792975511949304
 30
0.0
 10
6.166774485714514
 20
2.792737390115785
 30
0.0
 10
6.166830971769041
 20
2.791805519327952
 30
0.0
 10
6.166446238202161
 20
2.79809618192506
 30
0.0
 10
6.165768356912457
 20
2.811189142814252
 30
0.0
 10
6.165060742123704
 20
2.830320071263158
 30
0.0
 10
6.164672031332447
 20
2.852681772452835
 30
0.0
 10
6.164762257571351
 20
2.875890533135468
 30
0.0
 10
6.165296373135783
 20
2.897339818515437
 30
0.0
 10
6.166028464352539
 20
2.914457157903227
 30
0.0
 10
6.166677370489514
 20
2.925956435793635
 30
0.0
 10
6.166764475301343
 20
2.927337021904142
 30
0.0
 10
6.166807492701351
 20
2.928018835270318
 30
0.0
  0
SPLINE
  5
219
330
1F
100
AcDbEntity
  8
0
  6
Continuous
 62
     7
370
    25
100
AcDbSpline
210
0.0
220
0.0
230
1.0
 70
     8
 71
     3
 72
    17
 73
    13
 74
     0
 42
0.00000001
 43
0.00000001
 40
0.0
 40
0.0
 40
0.0
 40
0.0
 40
0.0367829129270419
 40
0.1439469936102684
 40
0.2511849014537429
 40
0.358598310685333
 40
0.4660155695098253
 40
0.5732581291689327
 40
0.6804203613538367
 40
0.7877217257819943
 40
0.8951646959147078
 40
1.0
 40
1.0
 40
1.0
 40
1.0
 10
6.166760051778986
 20
1.324975511949303
 30
0.0
 10
6.166774485714514
 20
1.324737390115784
 30
0.0
 10
6.166830971769041
 20
1.323805519327951
 30
0.0
 10
6.166446238202161
 20
1.33009618192506
 30
0.0
 10
6.165768356912457
 20
1.343189142814252
 30
0.0
 10
6.165060742123704
 20
1.362320071263158
 30
0.0
 10
6.16467203133245
 20
1.384681772452833
 30
0.0
 10
6.164762257571351
 20
1.407890533135468
 30
0.0
 10
6.165296373135783
 20
1.429339818515435
 30
0.0
 10
6.16602846435254
 20
1.446457157903227
 30
0.0
 10
6.166677370489513
 20
1.457956435793633
 30
0.0
 10
6.166764475301343
 20
1.459337021904141
 30
0.0
 10
6.166807492701353
 20
1.460018835270318
 30
0.0
  0
SPLINE
  5
21A
330
1F
100
AcDbEntity
  8
0
  6
Continuous
 62
     7
370
    25
100
AcDbSpline
210
0.0
220
0.0
230
1.0
 70
    11
 71
     3
 72
    56
 73
    52
 74
     0
 42
0.00000001
 43
0.00000001
 40
0.0
 40
0.0
 40
0.0
 40
0.0
 40
0.0312499999999999
 40
0.0312499999999999
 40
0.0624999999999998
 40
0.0624999999999998
 40
0.0937499999999997
 40
0.0937499999999997
 40
0.1249999999999996
 40
0.1249999999999996
 40
0.1874999999999994
 40
0.1874999999999994
 40
0.2499999999999992
 40
0.2499999999999992
 40
0.2812499999999991
 40
0.2812499999999991
 40
0.3124999999999989
 40
0.3124999999999989
 40
0.3437499999999988
 40
0.3437499999999988
 40
0.3749999999999986
 40
0.3749999999999986
 40
0.4062499999999984
 40
0.4062499999999984
 40
0.4374999999999983
 40
0.4374999999999983
 40
0.4687499999999982
 40
0.4687499999999982
 40
0.499999999999998
 40
0.499999999999998
 40
0.5624999999999979
 40
0.5624999999999979
 40
0.6249999999999979
 40
0.6249999999999979
 40
0.6562499999999978
 40
0.6562499999999978
 40
0.6874999999999978
 40
0.6874999999999978
 40
0.7187499999999978
 40
0.7187499999999978
 40
0.7499999999999978
 40
0.7499999999999978
 40
0.8124999999999982
 40
0.8124999999999982
 40
0.8437499999999983
 40
0.8437499999999983
 40
0.8749999999999984
 40
0.8749999999999984
 40
0.9374999999999992
 40
0.9374999999999992
 40
1.0
 40
1.0
 40
1.0
 40
1.0
 10
4.561744908405803
 20
1.392107138790326
 30
0.0
 10
4.561744908405803
 20
1.387613603032349
 30
0.0
 10
4.561349308369802
 20
1.383195368016266
 30
0.0
 10
4.559800954794142
 20
1.374503275780083
 30
0.0
 10
4.558629369975263
 20
1.370184320537688
 30
0.0
 10
4.555576440611335
 20
1.361949889215888
 30
0.0
 10
4.553710245601913
 20
1.358044569196333
 30
0.0
 10
4.549310900884384
 20
1.350653584126206
 30
0.0
 10
4.546755063074157
 20
1.347154979811701
 30
0.0
 10
4.538402980452838
 20
1.337748102991218
 30
0.0
 10
4.53169823979555
 20
1.332682137602063
 30
0.0
 10
4.51733484892136
 20
1.325898803398866
 30
0.0
 10
4.509527562666577
 20
1.324111910817422
 30
0.0
 10
4.498002777417827
 20
1.324104767472324
 30
0.0
 10
4.494114392750591
 20
1.324546263119659
 30
0.0
 10
4.486613059096763
 20
1.326281150483557
 30
0.0
 10
4.482979880670252
 20
1.327564802562432
 30
0.0
 10
4.475945422669027
 20
1.33096942383773
 30
0.0
 10
4.472555847517345
 20
1.333098049985286
 30
0.0
 10
4.466300023340565
 20
1.338019031649277
 30
0.0
 10
4.463393143429786
 20
1.340828376258457
 30
0.0
 10
4.458030931132666
 20
1.347172887445329
 30
0.0
 10
4.455658817923661
 20
1.350611066419494
 30
0.0
 10
4.451518272096419
 20
1.35797326336809
 30
0.0
 10
4.449732363492958
 20
1.361946769497041
 30
0.0
 10
4.446871427122271
 20
1.370185054843307
 30
0.0
 10
4.445795264739457
 20
1.374423634141176
 30
0.0
 10
4.444339511528377
 20
1.383137214860916
 30
0.0
 10
4.443966787205598
 20
1.387644598120031
 30
0.0
 10
4.443962797028894
 20
1.400959032488384
 30
0.0
 10
4.445446962724345
 20
1.409906459757063
 30
0.0
 10
4.451117760882184
 20
1.426277631227308
 30
0.0
 10
4.455364849557766
 20
1.433868379789441
 30
0.0
 10
4.463297238564067
 20
1.44328153965546
 30
0.0
 10
4.466254101218969
 20
1.446155001384696
 30
0.0
 10
4.472529210873587
 20
1.451099348307303
 30
0.0
 10
4.475852188500375
 20
1.453190714659818
 30
0.0
 10
4.482877371875005
 20
1.456608628454769
 30
0.0
 10
4.486582424654793
 20
1.457922583637739
 30
0.0
 10
4.49405832458681
 20
1.459658465710816
 30
0.0
 10
4.497868384608917
 20
1.460102632495417
 30
0.0
 10
4.5095254149229
 20
1.460116050035602
 30
0.0
 10
4.517227568435151
 20
1.45835723884847
 30
0.0
 10
4.528084202660149
 20
1.453243328114821
 30
0.0
 10
4.531525441666269
 20
1.451157200464116
 30
0.0
 10
4.538051454064119
 20
1.446232510934643
 30
0.0
 10
4.541153766921106
 20
1.443363624278776
 30
0.0
 10
4.549515852661414
 20
1.433958502641392
 30
0.0
 10
4.554042772721999
 20
1.426380988970837
 30
0.0
 10
4.560122577218364
 20
1.410022354737416
 30
0.0
 10
4.561744908405803
 20
1.401094210306282
 30
0.0
 10
4.561744908405803
 20
1.392107138790326
 30
0.0
  0
SPLINE
  5
21B
330
1F
100
AcDbEntity
  8
0
  6
Continuous
 62
     7
370
    25
100
AcDbSpline
210
0.0
220
0.0
230
1.0
 70
     8
 71
     3
 72
    15
 73
    11
 74
     0
 42
0.00000001
 43
0.00000001
 40
0.0
 40
0.0
 40
0.0
 40
0.0
 40
0.0571283598924202
 40
0.1925219633371865
 40
0.328170423623459
 40
0.4638248310067295
 40
0.5992255089659209
 40
0.734509212864148
 40
0.8699947893297424
 40
1.0
 40
1.0
 40
1.0
 40
1.0
 10
4.52173982579675
 20
1.455978495530558
 30
0.0
 10
4.51905256701978
 20
1.455212013749192
 30
0.0
 10
4.509996533611649
 20
1.452628978323555
 30
0.0
 10
4.497381543316851
 20
1.440676282043931
 30
0.0
 10
4.486054704437746
 20
1.422008133526655
 30
0.0
 10
4.480799149385389
 20
1.399536153260461
 30
0.0
 10
4.481961859411483
 20
1.376320554944498
 30
0.0
 10
4.489518748115199
 20
1.355019552336647
 30
0.0
 10
4.502273472598542
 20
1.337564991356069
 30
0.0
 10
4.513924854744031
 20
1.33130192045355
 30
0.0
 10
4.519630289598345
 20
1.328235027395192
 30
0.0
  0
DIMENSION
  5
21C
330
1F
100
AcDbEntity
  8
0
  6
Continuous
 62
     7
370
    18
100
AcDbDimension
  2
_D_4
 10
2.6871731374
 20
1.1421071388
 30
0.0
 11
2.6871731374
 21
3.5146071388
 31
0.0
 70
   160
  1
<>
 71
     2
 42
-1.0
  3
SLDDIMSTYLE0
100
AcDbAlignedDimension
 13
3.9468127606
 23
5.8871071388
 33
0.0
 14
3.9468127606
 24
1.1421071388
 34
0.0
 50
90.0
100
AcDbRotatedDimension
  0
MTEXT
  5
230
330
1F
100
AcDbEntity
  8
0
  6
Continuous
 62
     7
370
     0
100
AcDbMText
 10
5.0256174559
 20
0.8325016978
 30
0.0
 40
0.2755905512
 41
0.0
 71
     2
 72
     1
  1
A/D CAP
  7
SLDTEXTSTYLE0
 73
     1
 44
1.0
  0
LINE
  5
231
330
1F
100
AcDbEntity
  8
0
  6
Continuous
 62
     7
370
    25
100
AcDbLine
 10
10.1060286574
 20
2.9710448402
 30
0.0
 11
10.1060286574
 21
3.6900448402
 31
0.0
  0
LINE
  5
232
330
1F
100
AcDbEntity
  8
0
  6
Continuous
 62
     7
370
    25
100
AcDbLine
 10
10.1060286574
 20
1.4879565367
 30
0.0
 11
10.1060286574
 21
2.8350448402
 31
0.0
  0
LINE
  5
233
330
1F
100
AcDbEntity
  8
0
  6
Continuous
 62
     7
370
    25
100
AcDbLine
 10
10.1060286574
 20
1.1700448402
 30
0.0
 11
10.1060286574
 21
1.3529132133
 31
0.0
  0
LINE
  5
234
330
1F
100
AcDbEntity
  8
0
  6
Continuous
 62
     7
370
    25
100
AcDbLine
 10
7.8860286574
 20
3.6900448402
 30
0.0
 11
7.8860286574
 21
1.1700448402
 31
0.0
  0
ARC
  5
235
330
1F
100
AcDbEntity
  8
0
  6
Continuous
 62
     7
370
    25
100
AcDbCircle
 10
7.9160286574
 20
3.6900448402
 30
0.0
 40
0.0300000000000002
100
AcDbArc
 50
90.0
 51
180.0
  0
ARC
  5
236
330
1F
100
AcDbEntity
  8
0
  6
Continuous
 62
     7
370
    25
100
AcDbCircle
 10
10.0760286574
 20
3.6900448402
 30
0.0
 40
0.0300000000000002
100
AcDbArc
 50
0.0
 51
90.0
  0
SPLINE
  5
237
330
1F
100
AcDbEntity
  8
0
  6
Continuous
 62
     7
370
    25
100
AcDbSpline
210
0.0
220
0.0
230
1.0
 70
     8
 71
     3
 72
    34
 73
    30
 74
     0
 42
0.00000001
 43
0.00000001
 40
0.0
 40
0.0
 40
0.0
 40
0.0
 40
0.062499999999999
 40
0.062499999999999
 40
0.1249999999999979
 40
0.1249999999999979
 40
0.187499999999997
 40
0.187499999999997
 40
0.249999999999996
 40
0.249999999999996
 40
0.312499999999995
 40
0.312499999999995
 40
0.3749999999999941
 40
0.3749999999999941
 40
0.4374999999999931
 40
0.4374999999999931
 40
0.4999999999999921
 40
0.4999999999999921
 40
0.624999999999994
 40
0.624999999999994
 40
0.749999999999996
 40
0.749999999999996
 40
0.812499999999997
 40
0.812499999999997
 40
0.8749999999999979
 40
0.8749999999999979
 40
0.9374999999999989
 40
0.9374999999999989
 40
1.0
 40
1.0
 40
1.0
 40
1.0
 10
10.10602865743686
 20
2.835044840186676
 30
0.0
 10
10.10602865743686
 20
2.835044840186676
 30
0.0
 10
10.1060012003736
 20
2.835488935703974
 30
0.0
 10
10.10589665893537
 20
2.83722892336311
 30
0.0
 10
10.10582015983079
 20
2.838515181204855
 30
0.0
 10
10.10562709209563
 20
2.841925413653661
 30
0.0
 10
10.10551032123652
 20
2.844056592916508
 30
0.0
 10
10.10525931805317
 20
2.848982751255251
 30
0.0
 10
10.1051240131349
 20
2.851794761088329
 30
0.0
 10
10.10484871908753
 20
2.858145044022043
 30
0.0
 10
10.10471318868752
 20
2.861584724926603
 30
0.0
 10
10.10446215090591
 20
2.868951427818891
 30
0.0
 10
10.10434543621586
 20
2.872927533911773
 30
0.0
 10
10.10415211349705
 20
2.881168737129596
 30
0.0
 10
10.10407560521776
 20
2.88540878012727
 30
0.0
 10
10.10397114887121
 20
2.894125397737169
 30
0.0
 10
10.10394370728126
 20
2.898633650664541
 30
0.0
 10
10.10394403638331
 20
2.911949366629246
 30
0.0
 10
10.10405743035
 20
2.920897057323374
 30
0.0
 10
10.10444197214759
 20
2.937264955342919
 30
0.0
 10
10.10471464349775
 20
2.944852363288656
 30
0.0
 10
10.10512246980992
 20
2.954259076188368
 30
0.0
 10
10.10526043063963
 20
2.957130020531991
 30
0.0
 10
10.10551216453037
 20
2.962067992956956
 30
0.0
 10
10.10562664483795
 20
2.964156158033653
 30
0.0
 10
10.10581973628796
 20
2.967567225619284
 30
0.0
 10
10.10589763027229
 20
2.96887705459033
 30
0.0
 10
10.10600145260953
 20
2.970604810686496
 30
0.0
 10
10.10602865743686
 20
2.971044840186676
 30
0.0
 10
10.10602865743686
 20
2.971044840186676
 30
0.0
  0
SPLINE
  5
238
330
1F
100
AcDbEntity
  8
0
  6
Continuous
 62
     7
370
    25
100
AcDbSpline
210
0.0
220
0.0
230
1.0
 70
     8
 71
     3
 72
    17
 73
    13
 74
     0
 42
0.00000001
 43
0.00000001
 40
0.0
 40
0.0
 40
0.0
 40
0.0
 40
0.0367829129270418
 40
0.1439469936102688
 40
0.2511849014537423
 40
0.3585983106853301
 40
0.4660155695098228
 40
0.5732581291689307
 40
0.6804203613538372
 40
0.7877217257819933
 40
0.8951646959147079
 40
1.0
 40
1.0
 40
1.0
 40
1.0
 10
10.10597594866404
 20
1.352913213345652
 30
0.0
 10
10.10599038259957
 20
1.352675091512132
 30
0.0
 10
10.1060468686541
 20
1.3517432207243
 30
0.0
 10
10.10566213508722
 20
1.35803388332141
 30
0.0
 10
10.10498425379751
 20
1.3711268442106
 30
0.0
 10
10.10427663900876
 20
1.390257772659506
 30
0.0
 10
10.10388792821751
 20
1.412619473849181
 30
0.0
 10
10.10397815445641
 20
1.435828234531816
 30
0.0
 10
10.10451227002084
 20
1.457277519911783
 30
0.0
 10
10.1052443612376
 20
1.474394859299575
 30
0.0
 10
10.10589326737457
 20
1.485894137189982
 30
0.0
 10
10.1059803721864
 20
1.487274723300489
 30
0.0
 10
10.10602338958641
 20
1.487956536666666
 30
0.0
  0
SPLINE
  5
239
330
1F
100
AcDbEntity
  8
0
  6
Continuous
 62
     7
370
    25
100
AcDbSpline
210
0.0
220
0.0
230
1.0
 70
    11
 71
     3
 72
    56
 73
    52
 74
     0
 42
0.00000001
 43
0.00000001
 40
0.0
 40
0.0
 40
0.0
 40
0.0
 40
0.0312499999999998
 40
0.0312499999999998
 40
0.0624999999999995
 40
0.0624999999999995
 40
0.0937499999999993
 40
0.0937499999999993
 40
0.1249999999999991
 40
0.1249999999999991
 40
0.1874999999999988
 40
0.1874999999999988
 40
0.2499999999999985
 40
0.2499999999999985
 40
0.2812499999999986
 40
0.2812499999999986
 40
0.3124999999999987
 40
0.3124999999999987
 40
0.3437499999999988
 40
0.3437499999999988
 40
0.3749999999999989
 40
0.3749999999999989
 40
0.406249999999999
 40
0.406249999999999
 40
0.4374999999999991
 40
0.4374999999999991
 40
0.4687499999999992
 40
0.4687499999999992
 40
0.4999999999999993
 40
0.4999999999999993
 40
0.5624999999999996
 40
0.5624999999999996
 40
0.6249999999999998
 40
0.6249999999999998
 40
0.6562499999999999
 40
0.6562499999999999
 40
0.6875000000000001
 40
0.6875000000000001
 40
0.7187500000000003
 40
0.7187500000000003
 40
0.7500000000000004
 40
0.7500000000000004
 40
0.8125000000000004
 40
0.8125000000000004
 40
0.8437500000000004
 40
0.8437500000000004
 40
0.8750000000000004
 40
0.8750000000000004
 40
0.9375000000000002
 40
0.9375000000000002
 40
1.0
 40
1.0
 40
1.0
 40
1.0
 10
8.500960805290866
 20
1.420044840186675
 30
0.0
 10
8.500960805290866
 20
1.415551304428698
 30
0.0
 10
8.500565205254865
 20
1.411133069412614
 30
0.0
 10
8.499016851679205
 20
1.40244097717643
 30
0.0
 10
8.497845266860326
 20
1.398122021934035
 30
0.0
 10
8.4947923374964
 20
1.389887590612235
 30
0.0
 10
8.492926142486978
 20
1.385982270592681
 30
0.0
 10
8.488526797769449
 20
1.378591285522553
 30
0.0
 10
8.485970959959221
 20
1.375092681208047
 30
0.0
 10
8.477618877337902
 20
1.365685804387563
 30
0.0
 10
8.470914136680614
 20
1.360619838998407
 30
0.0
 10
8.456550745806425
 20
1.353836504795209
 30
0.0
 10
8.448743459551638
 20
1.352049612213765
 30
0.0
 10
8.43721867430289
 20
1.352042468868667
 30
0.0
 10
8.433330289635654
 20
1.352483964516001
 30
0.0
 10
8.425828955981826
 20
1.3542188518799
 30
0.0
 10
8.422195777555315
 20
1.355502503958775
 30
0.0
 10
8.415161319554091
 20
1.358907125234072
 30
0.0
 10
8.411771744402408
 20
1.36103575138163
 30
0.0
 10
8.405515920225625
 20
1.36595673304562
 30
0.0
 10
8.402609040314848
 20
1.3687660776548
 30
0.0
 10
8.397246828017728
 20
1.375110588841672
 30
0.0
 10
8.394874714808722
 20
1.378548767815837
 30
0.0
 10
8.390734168981481
 20
1.385910964764434
 30
0.0
 10
8.388948260378019
 20
1.389884470893385
 30
0.0
 10
8.386087324007333
 20
1.39812275623965
 30
0.0
 10
8.38501116162452
 20
1.402361335537521
 30
0.0
 10
8.38355540841344
 20
1.41107491625726
 30
0.0
 10
8.38318268409066
 20
1.415582299516375
 30
0.0
 10
8.383178693913957
 20
1.428896733884728
 30
0.0
 10
8.384662859609408
 20
1.437844161153407
 30
0.0
 10
8.390333657767247
 20
1.454215332623651
 30
0.0
 10
8.394580746442829
 20
1.461806081185784
 30
0.0
 10
8.402513135449128
 20
1.471219241051802
 30
0.0
 10
8.40546999810403
 20
1.474092702781038
 30
0.0
 10
8.411745107758648
 20
1.479037049703645
 30
0.0
 10
8.415068085385435
 20
1.48112841605616
 30
0.0
 10
8.422093268760065
 20
1.484546329851112
 30
0.0
 10
8.425798321539851
 20
1.485860285034081
 30
0.0
 10
8.43327422147187
 20
1.487596167107158
 30
0.0
 10
8.437084281493977
 20
1.488040333891759
 30
0.0
 10
8.448741311807959
 20
1.488053751431945
 30
0.0
 10
8.45644346532021
 20
1.486294940244814
 30
0.0
 10
8.46730009954521
 20
1.481181029511165
 30
0.0
 10
8.47074133855133
 20
1.479094901860461
 30
0.0
 10
8.477267350949178
 20
1.474170212330988
 30
0.0
 10
8.480369663806165
 20
1.471301325675121
 30
0.0
 10
8.488731749546474
 20
1.461896204037738
 30
0.0
 10
8.493258669607059
 20
1.454318690367184
 30
0.0
 10
8.499338474103425
 20
1.437960056133764
 30
0.0
 10
8.500960805290866
 20
1.429031911702631
 30
0.0
 10
8.500960805290866
 20
1.420044840186675
 30
0.0
  0
LINE
  5
23A
330
1F
100
AcDbEntity
  8
0
  6
Continuous
 62
     7
370
    25
100
AcDbLine
 10
7.8860286574
 20
1.1700448402
 30
0.0
 11
10.1060286574
 21
1.1700448402
 31
0.0
  0
LINE
  5
23B
330
1F
100
AcDbEntity
  8
0
  6
Continuous
 62
     7
370
    25
100
AcDbLine
 10
7.9160286574
 20
3.7200448402
 30
0.0
 11
10.0760286574
 21
3.7200448402
 31
0.0
  0
SPLINE
  5
23C
330
1F
100
AcDbEntity
  8
0
  6
Continuous
 62
     7
370
    25
100
AcDbSpline
210
0.0
220
0.0
230
1.0
 70
     8
 71
     3
 72
    15
 73
    11
 74
     0
 42
0.00000001
 43
0.00000001
 40
0.0
 40
0.0
 40
0.0
 40
0.0
 40
0.0571283598924224
 40
0.192521963337188
 40
0.3281704236234603
 40
0.4638248310067301
 40
0.5992255089659175
 40
0.7345092128641473
 40
0.8699947893297407
 40
1.0
 40
1.0
 40
1.0
 40
1.0
 10
8.460955722681813
 20
1.483916196926906
 30
0.0
 10
8.458268463904842
 20
1.483149715145541
 30
0.0
 10
8.449212430496711
 20
1.480566679719904
 30
0.0
 10
8.436597440201911
 20
1.46861398344028
 30
0.0
 10
8.425270601322808
 20
1.449945834923003
 30
0.0
 10
8.42001504627045
 20
1.427473854656809
 30
0.0
 10
8.421177756296546
 20
1.404258256340845
 30
0.0
 10
8.42873464500026
 20
1.382957253732995
 30
0.0
 10
8.441489369483605
 20
1.365502692752417
 30
0.0
 10
8.453140751629093
 20
1.359239621849898
 30
0.0
 10
8.458846186483406
 20
1.35617272879154
 30
0.0
  0
LINE
  5
23D
330
1F
100
AcDbEntity
  8
0
  6
Continuous
 62
     7
370
    25
100
AcDbLine
 10
10.1060286574
 20
3.6900448402
 30
0.0
 11
7.8860286574
 21
3.6900448402
 31
0.0
  0
DIMENSION
  5
23E
330
1F
100
AcDbEntity
  8
0
  6
Continuous
 62
     7
370
    18
100
AcDbDimension
  2
_D_5
 10
7.0569890866
 20
1.1700448402
 30
0.0
 11
7.0569890866
 21
2.4450448402
 31
0.0
 70
   160
  1
<>
 71
     2
 42
-1.0
  3
SLDDIMSTYLE0
100
AcDbAlignedDimension
 13
7.9160286574
 23
3.7200448402
 33
0.0
 14
7.8860286574
 24
1.1700448402
 34
0.0
 50
90.0
100
AcDbRotatedDimension
  0
MTEXT
  5
252
330
1F
100
AcDbEntity
  8
0
  6
Continuous
 62
     7
370
     0
100
AcDbMText
 10
8.9946276945
 20
0.849760535
 30
0.0
 40
0.2755905512
 41
0.0
 71
     2
 72
     1
  1
B/E CAP
  7
SLDTEXTSTYLE0
 73
     1
 44
1.0
  0
LINE
  5
253
330
1F
100
AcDbEntity
  8
0
  6
Continuous
 62
     7
370
    25
100
AcDbLine
 10
14.1011199571
 20
1.487176467
 30
0.0
 11
14.1011199571
 21
2.7900448402
 31
0.0
  0
LINE
  5
254
330
1F
100
AcDbEntity
  8
0
  6
Continuous
 62
     7
370
    25
100
AcDbLine
 10
14.1011199571
 20
1.1700448402
 30
0.0
 11
14.1011199571
 21
1.3521331437
 31
0.0
  0
LINE
  5
255
330
1F
100
AcDbEntity
  8
0
  6
Continuous
 62
     7
370
    25
100
AcDbLine
 10
11.8811199571
 20
2.7900448402
 30
0.0
 11
11.8811199571
 21
1.1700448402
 31
0.0
  0
ARC
  5
256
330
1F
100
AcDbEntity
  8
0
  6
Continuous
 62
     7
370
    25
100
AcDbCircle
 10
11.9111199571
 20
2.7900448402
 30
0.0
 40
0.0300000000000002
100
AcDbArc
 50
90.0
 51
180.0
  0
ARC
  5
257
330
1F
100
AcDbEntity
  8
0
  6
Continuous
 62
     7
370
    25
100
AcDbCircle
 10
14.0711199571
 20
2.7900448402
 30
0.0
 40
0.0300000000000002
100
AcDbArc
 50
0.0
 51
90.0
  0
SPLINE
  5
258
330
1F
100
AcDbEntity
  8
0
  6
Continuous
 62
     7
370
    25
100
AcDbSpline
210
0.0
220
0.0
230
1.0
 70
     8
 71
     3
 72
    17
 73
    13
 74
     0
 42
0.00000001
 43
0.00000001
 40
0.0
 40
0.0
 40
0.0
 40
0.0
 40
0.0367829129270418
 40
0.1439469936102686
 40
0.2511849014537427
 40
0.3585983106853315
 40
0.4660155695098241
 40
0.5732581291689318
 40
0.6804203613538372
 40
0.787721725781993
 40
0.8951646959147086
 40
1.0
 40
1.0
 40
1.0
 40
1.0
 10
14.10106724834177
 20
1.487176467027697
 30
0.0
 10
14.1010816822773
 20
1.487414588861217
 30
0.0
 10
14.10113816833183
 20
1.48834645964905
 30
0.0
 10
14.10075343476495
 20
1.48205579705194
 30
0.0
 10
14.10007555347524
 20
1.468962836162749
 30
0.0
 10
14.09936793868649
 20
1.449831907713843
 30
0.0
 10
14.09897922789524
 20
1.427470206524168
 30
0.0
 10
14.09906945413414
 20
1.404261445841533
 30
0.0
 10
14.09960356969857
 20
1.382812160461566
 30
0.0
 10
14.10033566091533
 20
1.365694821073775
 30
0.0
 10
14.1009845670523
 20
1.354195543183367
 30
0.0
 10
14.10107167186413
 20
1.35281495707286
 30
0.0
 10
14.10111468926414
 20
1.352133143706683
 30
0.0
  0
SPLINE
  5
259
330
1F
100
AcDbEntity
  8
0
  6
Continuous
 62
     7
370
    25
100
AcDbSpline
210
0.0
220
0.0
230
1.0
 70
    11
 71
     3
 72
    56
 73
    52
 74
     0
 42
0.00000001
 43
0.00000001
 40
0.0
 40
0.0
 40
0.0
 40
0.0
 40
0.0312499999999999
 40
0.0312499999999999
 40
0.0624999999999998
 40
0.0624999999999998
 40
0.0937499999999996
 40
0.0937499999999996
 40
0.1249999999999995
 40
0.1249999999999995
 40
0.1874999999999998
 40
0.1874999999999998
 40
0.25
 40
0.25
 40
0.2812500000000001
 40
0.2812500000000001
 40
0.3125000000000002
 40
0.3125000000000002
 40
0.3437500000000003
 40
0.3437500000000003
 40
0.3750000000000004
 40
0.3750000000000004
 40
0.4062500000000005
 40
0.4062500000000005
 40
0.4375000000000006
 40
0.4375000000000006
 40
0.4687500000000007
 40
0.4687500000000007
 40
0.5000000000000008
 40
0.5000000000000008
 40
0.562500000000001
 40
0.562500000000001
 40
0.6250000000000011
 40
0.6250000000000011
 40
0.656250000000001
 40
0.656250000000001
 40
0.6875000000000009
 40
0.6875000000000009
 40
0.7187500000000008
 40
0.7187500000000008
 40
0.7500000000000007
 40
0.7500000000000007
 40
0.8125
 40
0.8125
 40
0.8437499999999999
 40
0.8437499999999999
 40
0.8749999999999997
 40
0.8749999999999997
 40
0.9374999999999999
 40
0.9374999999999999
 40
1.0
 40
1.0
 40
1.0
 40
1.0
 10
12.49605210496858
 20
1.420044840186673
 30
0.0
 10
12.49605210496858
 20
1.42453837594465
 30
0.0
 10
12.49565650493258
 20
1.428956610960734
 30
0.0
 10
12.49410815135692
 20
1.437648703196918
 30
0.0
 10
12.49293656653804
 20
1.441967658439313
 30
0.0
 10
12.48988363717412
 20
1.450202089761113
 30
0.0
 10
12.4880174421647
 20
1.454107409780667
 30
0.0
 10
12.48361809744717
 20
1.461498394850794
 30
0.0
 10
12.48106225963694
 20
1.4649969991653
 30
0.0
 10
12.47271017701562
 20
1.474403875985784
 30
0.0
 10
12.46600543635833
 20
1.479469841374941
 30
0.0
 10
12.45164204548414
 20
1.486253175578139
 30
0.0
 10
12.44383475922936
 20
1.488040068159584
 30
0.0
 10
12.43230997398061
 20
1.488047211504682
 30
0.0
 10
12.42842158931337
 20
1.487605715857347
 30
0.0
 10
12.42092025565954
 20
1.485870828493449
 30
0.0
 10
12.41728707723303
 20
1.484587176414574
 30
0.0
 10
12.41025261923181
 20
1.481182555139276
 30
0.0
 10
12.40686304408012
 20
1.479053928991719
 30
0.0
 10
12.40060721990334
 20
1.474132947327728
 30
0.0
 10
12.39770033999257
 20
1.471323602718548
 30
0.0
 10
12.39233812769545
 20
1.464979091531676
 30
0.0
 10
12.38996601448644
 20
1.461540912557511
 30
0.0
 10
12.3858254686592
 20
1.454178715608914
 30
0.0
 10
12.38403956005574
 20
1.450205209479963
 30
0.0
 10
12.38117862368505
 20
1.441966924133697
 30
0.0
 10
12.38010246130224
 20
1.437728344835827
 30
0.0
 10
12.37864670809116
 20
1.429014764116087
 30
0.0
 10
12.37827398376838
 20
1.424507380856973
 30
0.0
 10
12.37826999359167
 20
1.41119294648862
 30
0.0
 10
12.37975415928713
 20
1.402245519219941
 30
0.0
 10
12.38542495744496
 20
1.385874347749697
 30
0.0
 10
12.38967204612055
 20
1.378283599187564
 30
0.0
 10
12.39760443512685
 20
1.368870439321546
 30
0.0
 10
12.40056129778175
 20
1.365996977592311
 30
0.0
 10
12.40683640743637
 20
1.361052630669703
 30
0.0
 10
12.41015938506315
 20
1.358961264317188
 30
0.0
 10
12.41718456843778
 20
1.355543350522237
 30
0.0
 10
12.42088962121757
 20
1.354229395339268
 30
0.0
 10
12.42836552114959
 20
1.35249351326619
 30
0.0
 10
12.43217558117169
 20
1.352049346481589
 30
0.0
 10
12.44383261148568
 20
1.352035928941403
 30
0.0
 10
12.45153476499793
 20
1.353794740128535
 30
0.0
 10
12.46239139922293
 20
1.358908650862183
 30
0.0
 10
12.46583263822905
 20
1.360994778512888
 30
0.0
 10
12.4723586506269
 20
1.36591946804236
 30
0.0
 10
12.47546096348388
 20
1.368788354698227
 30
0.0
 10
12.48382304922419
 20
1.37819347633561
 30
0.0
 10
12.48834996928477
 20
1.385770990006163
 30
0.0
 10
12.49442977378114
 20
1.402129624239584
 30
0.0
 10
12.49605210496858
 20
1.411057768670717
 30
0.0
 10
12.49605210496858
 20
1.420044840186673
 30
0.0
  0
LINE
  5
25A
330
1F
100
AcDbEntity
  8
0
  6
Continuous
 62
     7
370
    25
100
AcDbLine
 10
14.1011199571
 20
1.1700448402
 30
0.0
 11
11.8811199571
 21
1.1700448402
 31
0.0
  0
LINE
  5
25B
330
1F
100
AcDbEntity
  8
0
  6
Continuous
 62
     7
370
    25
100
AcDbLine
 10
14.0711199571
 20
2.8200448402
 30
0.0
 11
11.9111199571
 21
2.8200448402
 31
0.0
  0
SPLINE
  5
25C
330
1F
100
AcDbEntity
  8
0
  6
Continuous
 62
     7
370
    25
100
AcDbSpline
210
0.0
220
0.0
230
1.0
 70
     8
 71
     3
 72
    16
 73
    12
 74
     0
 42
0.00000001
 43
0.00000001
 40
0.0
 40
0.0
 40
0.0
 40
0.0
 40
0.0495715766869067
 40
0.1848910475713689
 40
0.3204652357546288
 40
0.4560453677786511
 40
0.5913719093040022
 40
0.7265815408156329
 40
0.861992934362593
 40
0.9976101416485651
 40
1.0
 40
1.0
 40
1.0
 40
1.0
 10
12.45500367694387
 20
1.483561724326634
 30
0.0
 10
12.45267451715872
 20
1.482885833745943
 30
0.0
 10
12.4439872648779
 20
1.480364910953903
 30
0.0
 10
12.43169830283413
 20
1.468586129436115
 30
0.0
 10
12.42036054023966
 20
1.449957736625459
 30
0.0
 10
12.41510222021615
 20
1.427454146901231
 30
0.0
 10
12.41628687136994
 20
1.404325040189511
 30
0.0
 10
12.42375881644245
 20
1.382709845555327
 30
0.0
 10
12.43701292534517
 20
1.366180066928983
 30
0.0
 10
12.44828886759052
 20
1.356896512378075
 30
0.0
 10
12.45488057850911
 20
1.355671245177609
 30
0.0
 10
12.45499472668925
 20
1.355650027314319
 30
0.0
  0
LINE
  5
25D
330
1F
100
AcDbEntity
  8
0
  6
Continuous
 62
     7
370
    25
100
AcDbLine
 10
14.1011199571
 20
2.7900448402
 30
0.0
 11
11.8811199571
 21
2.7900448402
 31
0.0
  0
DIMENSION
  5
25E
330
1F
100
AcDbEntity
  8
0
  6
Continuous
 62
     7
370
    18
100
AcDbDimension
  2
_D_6
 10
10.9087062605
 20
1.1700448402
 30
0.0
 11
10.9087062605
 21
1.9950448402
 31
0.0
 70
   160
  1
<>
 71
     2
 42
-1.0
  3
SLDDIMSTYLE0
100
AcDbAlignedDimension
 13
11.9111199571
 23
2.8200448402
 33
0.0
 14
11.8811199571
 24
1.1700448402
 34
0.0
 50
90.0
100
AcDbRotatedDimension
  0
MTEXT
  5
273
330
1F
100
AcDbEntity
  8
0
  6
Continuous
 62
     7
370
     0
100
AcDbMText
 10
13.0418137341
 20
0.8481427263
 30
0.0
 40
0.2755905512
 41
0.0
 71
     2
 72
     1
  1
C CAP
  7
SLDTEXTSTYLE1
 73
     1
 44
1.0
  0
ARC
  5
274
330
1F
100
AcDbEntity
  8
0
  6
Continuous
 62
     7
370
    25
100
AcDbCircle
 10
15.9062112568
 20
3.1121071388
 30
0.0
 40
0.0300000000000002
100
AcDbArc
 50
90.0
 51
180.0
  0
ARC
  5
275
330
1F
100
AcDbEntity
  8
0
  6
Continuous
 62
     7
370
    25
100
AcDbCircle
 10
18.0662112568
 20
3.1121071388
 30
0.0
 40
0.0300000000000011
100
AcDbArc
 50
0.0
 51
90.0
  0
LINE
  5
276
330
1F
100
AcDbEntity
  8
0
  6
Continuous
 62
     7
370
    25
100
AcDbLine
 10
18.0962112568
 20
1.4600188353
 30
0.0
 11
18.0962112568
 21
3.1121071388
 31
0.0
  0
LINE
  5
277
330
1F
100
AcDbEntity
  8
0
  6
Continuous
 62
     7
370
    25
100
AcDbLine
 10
18.0962112568
 20
1.1421071388
 30
0.0
 11
18.0962112568
 21
1.3249755119
 31
0.0
  0
LINE
  5
278
330
1F
100
AcDbEntity
  8
0
  6
Continuous
 62
     7
370
    25
100
AcDbLine
 10
15.8762112568
 20
3.1121071388
 30
0.0
 11
15.8762112568
 21
1.1421071388
 31
0.0
  0
LINE
  5
279
330
1F
100
AcDbEntity
  8
0
  6
Continuous
 62
     7
370
    25
100
AcDbLine
 10
18.0662112568
 20
3.1421071388
 30
0.0
 11
15.9062112568
 21
3.1421071388
 31
0.0
  0
SPLINE
  5
27A
330
1F
100
AcDbEntity
  8
0
  6
Continuous
 62
     7
370
    25
100
AcDbSpline
210
0.0
220
0.0
230
1.0
 70
     8
 71
     3
 72
    17
 73
    13
 74
     0
 42
0.00000001
 43
0.00000001
 40
0.0
 40
0.0
 40
0.0
 40
0.0
 40
0.0367829129270418
 40
0.1439469936102685
 40
0.2511849014537426
 40
0.3585983106853313
 40
0.466015569509824
 40
0.5732581291689316
 40
0.680420361353837
 40
0.7877217257819928
 40
0.8951646959147085
 40
1.0
 40
1.0
 40
1.0
 40
1.0
 10
18.09615854801956
 20
1.324975511949306
 30
0.0
 10
18.09617298195509
 20
1.324737390115786
 30
0.0
 10
18.09622946800961
 20
1.323805519327954
 30
0.0
 10
18.09584473444273
 20
1.330096181925063
 30
0.0
 10
18.09516685315303
 20
1.343189142814254
 30
0.0
 10
18.09445923836428
 20
1.36232007126316
 30
0.0
 10
18.09407052757302
 20
1.384681772452835
 30
0.0
 10
18.09416075381192
 20
1.40789053313547
 30
0.0
 10
18.09469486937635
 20
1.429339818515438
 30
0.0
 10
18.09542696059311
 20
1.446457157903228
 30
0.0
 10
18.09607586673009
 20
1.457956435793637
 30
0.0
 10
18.09616297154191
 20
1.459337021904143
 30
0.0
 10
18.09620598894193
 20
1.46001883527032
 30
0.0
  0
SPLINE
  5
27B
330
1F
100
AcDbEntity
  8
0
  6
Continuous
 62
     7
370
    25
100
AcDbSpline
210
0.0
220
0.0
230
1.0
 70
    11
 71
     3
 72
    56
 73
    52
 74
     0
 42
0.00000001
 43
0.00000001
 40
0.0
 40
0.0
 40
0.0
 40
0.0
 40
0.0312500000000003
 40
0.0312500000000003
 40
0.0625000000000007
 40
0.0625000000000007
 40
0.093750000000001
 40
0.093750000000001
 40
0.1250000000000014
 40
0.1250000000000014
 40
0.1875000000000012
 40
0.1875000000000012
 40
0.2500000000000012
 40
0.2500000000000012
 40
0.2812500000000011
 40
0.2812500000000011
 40
0.3125000000000011
 40
0.3125000000000011
 40
0.343750000000001
 40
0.343750000000001
 40
0.3750000000000009
 40
0.3750000000000009
 40
0.4062500000000009
 40
0.4062500000000009
 40
0.4375000000000009
 40
0.4375000000000009
 40
0.4687500000000008
 40
0.4687500000000008
 40
0.5000000000000008
 40
0.5000000000000008
 40
0.562500000000001
 40
0.562500000000001
 40
0.6250000000000012
 40
0.6250000000000012
 40
0.6562500000000014
 40
0.6562500000000014
 40
0.6875000000000017
 40
0.6875000000000017
 40
0.7187500000000019
 40
0.7187500000000019
 40
0.7500000000000021
 40
0.7500000000000021
 40
0.8125000000000021
 40
0.8125000000000021
 40
0.8437500000000019
 40
0.8437500000000019
 40
0.8750000000000017
 40
0.8750000000000017
 40
0.9375000000000009
 40
0.9375000000000009
 40
1.0
 40
1.0
 40
1.0
 40
1.0
 10
16.49114340464637
 20
1.392107138790329
 30
0.0
 10
16.49114340464637
 20
1.387613603032351
 30
0.0
 10
16.49074780461037
 20
1.383195368016267
 30
0.0
 10
16.48919945103471
 20
1.374503275780083
 30
0.0
 10
16.48802786621583
 20
1.370184320537688
 30
0.0
 10
16.4849749368519
 20
1.361949889215888
 30
0.0
 10
16.48310874184248
 20
1.358044569196334
 30
0.0
 10
16.47870939712495
 20
1.350653584126207
 30
0.0
 10
16.47615355931472
 20
1.347154979811701
 30
0.0
 10
16.4678014766934
 20
1.337748102991216
 30
0.0
 10
16.46109673603612
 20
1.33268213760206
 30
0.0
 10
16.44673334516193
 20
1.325898803398862
 30
0.0
 10
16.43892605890714
 20
1.324111910817418
 30
0.0
 10
16.42740127365839
 20
1.32410476747232
 30
0.0
 10
16.42351288899116
 20
1.324546263119655
 30
0.0
 10
16.41601155533733
 20
1.326281150483553
 30
0.0
 10
16.41237837691082
 20
1.327564802562428
 30
0.0
 10
16.40534391890959
 20
1.330969423837726
 30
0.0
 10
16.40195434375791
 20
1.333098049985283
 30
0.0
 10
16.39569851958113
 20
1.338019031649273
 30
0.0
 10
16.39279163967035
 20
1.340828376258453
 30
0.0
 10
16.38742942737323
 20
1.347172887445325
 30
0.0
 10
16.38505731416423
 20
1.35061106641949
 30
0.0
 10
16.38091676833698
 20
1.357973263368087
 30
0.0
 10
16.37913085973352
 20
1.361946769497038
 30
0.0
 10
16.37626992336283
 20
1.370185054843303
 30
0.0
 10
16.37519376098002
 20
1.374423634141174
 30
0.0
 10
16.37373800776894
 20
1.383137214860914
 30
0.0
 10
16.37336528344616
 20
1.387644598120028
 30
0.0
 10
16.37336129326946
 20
1.400959032488381
 30
0.0
 10
16.37484545896491
 20
1.40990645975706
 30
0.0
 10
16.38051625712275
 20
1.426277631227304
 30
0.0
 10
16.38476334579833
 20
1.433868379789437
 30
0.0
 10
16.39269573480463
 20
1.443281539655456
 30
0.0
 10
16.39565259745953
 20
1.446155001384691
 30
0.0
 10
16.40192770711415
 20
1.451099348307299
 30
0.0
 10
16.40525068474094
 20
1.453190714659814
 30
0.0
 10
16.41227586811557
 20
1.456608628454765
 30
0.0
 10
16.41598092089535
 20
1.457922583637734
 30
0.0
 10
16.42345682082737
 20
1.459658465710812
 30
0.0
 10
16.42726688084948
 20
1.460102632495413
 30
0.0
 10
16.43892391116346
 20
1.460116050035598
 30
0.0
 10
16.44662606467571
 20
1.458357238848467
 30
0.0
 10
16.45748269890071
 20
1.453243328114819
 30
0.0
 10
16.46092393790683
 20
1.451157200464114
 30
0.0
 10
16.46744995030468
 20
1.446232510934641
 30
0.0
 10
16.47055226316167
 20
1.443363624278774
 30
0.0
 10
16.47891434890198
 20
1.433958502641392
 30
0.0
 10
16.48344126896256
 20
1.426380988970838
 30
0.0
 10
16.48952107345893
 20
1.410022354737418
 30
0.0
 10
16.49114340464637
 20
1.401094210306284
 30
0.0
 10
16.49114340464637
 20
1.392107138790328
 30
0.0
  0
LINE
  5
27C
330
1F
100
AcDbEntity
  8
0
  6
Continuous
 62
     7
370
    25
100
AcDbLine
 10
15.8762112568
 20
1.1421071388
 30
0.0
 11
18.0962112568
 21
1.1421071388
 31
0.0
  0
SPLINE
  5
27D
330
1F
100
AcDbEntity
  8
0
  6
Continuous
 62
     7
370
    25
100
AcDbSpline
210
0.0
220
0.0
230
1.0
 70
     8
 71
     3
 72
    16
 73
    12
 74
     0
 42
0.00000001
 43
0.00000001
 40
0.0
 40
0.0
 40
0.0
 40
0.0
 40
0.0495715766869071
 40
0.1848910475713694
 40
0.3204652357546294
 40
0.4560453677786514
 40
0.5913719093040029
 40
0.7265815408156334
 40
0.8619929343625934
 40
0.9976101416485662
 40
1.0
 40
1.0
 40
1.0
 40
1.0
 10
16.45009497662165
 20
1.32859025465037
 30
0.0
 10
16.4477658168365
 20
1.32926614523106
 30
0.0
 10
16.43907856455569
 20
1.331787068023101
 30
0.0
 10
16.42678960251191
 20
1.343565849540888
 30
0.0
 10
16.41545183991744
 20
1.362194242351544
 30
0.0
 10
16.41019351989394
 20
1.384697832075772
 30
0.0
 10
16.41137817104773
 20
1.407826938787492
 30
0.0
 10
16.41885011612023
 20
1.429442133421677
 30
0.0
 10
16.43210422502296
 20
1.44597191204802
 30
0.0
 10
16.4433801672683
 20
1.455255466598931
 30
0.0
 10
16.44997187818689
 20
1.456480733799394
 30
0.0
 10
16.45008602636703
 20
1.456501951662684
 30
0.0
  0
LINE
  5
27E
330
1F
100
AcDbEntity
  8
0
  6
Continuous
 62
     7
370
    25
100
AcDbLine
 10
18.0962112568
 20
3.1121071388
 30
0.0
 11
15.8762112568
 21
3.1121071388
 31
0.0
  0
DIMENSION
  5
27F
330
1F
100
AcDbEntity
  8
0
  6
Continuous
 62
     7
370
    18
100
AcDbDimension
  2
_D_7
 10
15.0229120474
 20
1.1421071388
 30
0.0
 11
15.0229120474
 21
2.1421071388
 31
0.0
 70
   160
  1
<>
 71
     2
 42
-1.0
  3
SLDDIMSTYLE3
100
AcDbAlignedDimension
 13
15.9062112568
 23
3.1421071388
 33
0.0
 14
15.8762112568
 24
1.1421071388
 34
0.0
 50
90.0
100
AcDbRotatedDimension
  0
MTEXT
  5
294
330
1F
100
AcDbEntity
  8
0
  6
Continuous
 62
     7
370
     0
100
AcDbMText
 10
17.035578614
 20
0.8136250518
 30
0.0
 40
0.2755905512
 41
0.0
 71
     2
 72
     1
  1
F CAP
  7
SLDTEXTSTYLE1
 73
     1
 44
1.0
  0
ENDSEC
  0
SECTION
  2
OBJECTS
  0
DICTIONARY
  5
C
330
0
100
AcDbDictionary
281
     1
  3
ACAD_GROUP
350
D
  3
ACAD_LAYOUT
350
1A
  3
ACAD_MLINESTYLE
350
17
  3
ACAD_PLOTSETTINGS
350
19
  3
ACAD_PLOTSTYLENAME
350
E
  3
ACAD_SCALELIST
350
47
  3
DWGPROPS
350
295
  0
DICTIONARY
  5
D
102
{ACAD_REACTORS
330
C
102
}
330
C
100
AcDbDictionary
281
     1
  0
DICTIONARY
  5
1A
102
{ACAD_REACTORS
330
C
102
}
330
C
100
AcDbDictionary
281
     1
  3
Layout1
350
1E
  3
Layout2
350
26
  3
Model
350
22
  0
DICTIONARY
  5
17
102
{ACAD_REACTORS
330
C
102
}
330
C
100
AcDbDictionary
281
     1
  3
Standard
350
18
  0
DICTIONARY
  5
19
102
{ACAD_REACTORS
330
C
102
}
330
C
100
AcDbDictionary
281
     1
  0
ACDBDICTIONARYWDFLT
  5
E
102
{ACAD_REACTORS
330
C
102
}
330
C
100
AcDbDictionary
281
     1
  3
Normal
350
F
100
AcDbDictionaryWithDefault
340
F
  0
DICTIONARY
  5
47
102
{ACAD_REACTORS
330
C
102
}
330
C
100
AcDbDictionary
281
     1
  3
A0
350
48
  3
A1
350
49
  3
A2
350
4A
  3
A3
350
4B
  3
A4
350
4C
  3
A5
350
4D
  3
A6
350
4E
  3
A7
350
4F
  3
A8
350
50
  3
A9
350
51
  3
B1
350
52
  3
B2
350
53
  3
B3
350
54
  3
B4
350
55
  3
B5
350
56
  3
B6
350
57
  3
B7
350
58
  0
XRECORD
  5
295
102
{ACAD_REACTORS
330
C
102
}
330
C
100
AcDbXrecord
280
     1
  1
DWGPROPS COOKIE
  2

  3

  4

  6

  7

  8
shawnd
  9

300
=
301
=
302
=
303
=
304
=
305
=
306
=
307
=
308
=
309
=
 40
0.0
 41
2460858.861915081
 42
2460858.861915753
  1

 90
        0
  0
LAYOUT
  5
1E
102
{ACAD_REACTORS
330
1A
102
}
330
1A
100
AcDbPlotSettings
  1

  2
none_device
  4

  6

 40
0.0
 41
0.0
 42
0.0
 43
0.0
 44
0.0
 45
0.0
 46
0.0
 47
0.0
 48
0.0
 49
0.0
140
0.0
141
0.0
142
1.0
143
1.0
 70
   688
 72
     0
 73
     0
 74
     5
  7

 75
    16
147
1.0
148
0.0
149
0.0
100
AcDbLayout
  1
Layout1
 70
     1
 71
     1
 10
0.0
 20
0.0
 11
12.0
 21
9.0
 12
0.0
 22
0.0
 32
0.0
 14
1.0000000000E+20
 24
1.0000000000E+20
 34
1.0000000000E+20
 15
-1.0000000000E+20
 25
-1.0000000000E+20
 35
-1.0000000000E+20
146
0.0
 13
0.0
 23
0.0
 33
0.0
 16
1.0
 26
0.0
 36
0.0
 17
0.0
 27
1.0
 37
0.0
 76
     0
330
1B
  0
LAYOUT
  5
26
102
{ACAD_REACTORS
330
1A
102
}
330
1A
100
AcDbPlotSettings
  1

  2
none_device
  4

  6

 40
0.0
 41
0.0
 42
0.0
 43
0.0
 44
0.0
 45
0.0
 46
0.0
 47
0.0
 48
0.0
 49
0.0
140
0.0
141
0.0
142
1.0
143
1.0
 70
   688
 72
     0
 73
     0
 74
     5
  7

 75
    16
147
1.0
148
0.0
149
0.0
100
AcDbLayout
  1
Layout2
 70
     1
 71
     2
 10
0.0
 20
0.0
 11
0.0
 21
0.0
 12
0.0
 22
0.0
 32
0.0
 14
0.0
 24
0.0
 34
0.0
 15
0.0
 25
0.0
 35
0.0
146
0.0
 13
0.0
 23
0.0
 33
0.0
 16
1.0
 26
0.0
 36
0.0
 17
0.0
 27
1.0
 37
0.0
 76
     0
330
23
  0
LAYOUT
  5
22
102
{ACAD_REACTORS
330
1A
102
}
330
1A
100
AcDbPlotSettings
  1

  2
none_device
  4
Letter_(8.50_x_11.00_Inches)
  6

 40
6.35
 41
6.35
 42
6.35000508
 43
6.35000508
 44
215.9
 45
279.4
 46
0.0
 47
0.0
 48
0.0
 49
0.0
140
0.0
141
0.0
142
1.0
143
1.0
 70
  1712
 72
     0
 73
     0
 74
     0
  7

 75
     0
147
1.0
148
0.0
149
0.0
100
AcDbLayout
  1
Model
 70
     1
 71
     0
 10
0.0
 20
0.0
 11
22.0
 21
17.0
 12
0.0
 22
0.0
 32
0.0
 14
0.0
 24
0.0
 34
0.0
 15
22.0
 25
17.0
 35
0.0
146
0.0
 13
0.0
 23
0.0
 33
0.0
 16
1.0
 26
0.0
 36
0.0
 17
0.0
 27
1.0
 37
0.0
 76
     0
330
1F
331
29
  0
MLINESTYLE
  5
18
102
{ACAD_REACTORS
330
17
102
}
330
17
100
AcDbMlineStyle
  2
Standard
 70
     0
  3

 62
   256
 51
90.0
 52
90.0
 71
     2
 49
0.5
 62
   256
  6
BYLAYER
 49
-0.5
 62
   256
  6
BYLAYER
  0
ACDBPLACEHOLDER
  5
F
102
{ACAD_REACTORS
330
E
102
}
330
E
  0
SCALE
  5
48
102
{ACAD_REACTORS
330
47
102
}
330
47
100
AcDbScale
 70
     0
300
1:1
140
1.0
141
1.0
290
     1
  0
SCALE
  5
49
102
{ACAD_REACTORS
330
47
102
}
330
47
100
AcDbScale
 70
     0
300
1/128" = 1'-0"
140
0.0078125
141
12.0
290
     0
  0
SCALE
  5
4A
102
{ACAD_REACTORS
330
47
102
}
330
47
100
AcDbScale
 70
     0
300
1/64" = 1'-0"
140
0.015625
141
12.0
290
     0
  0
SCALE
  5
4B
102
{ACAD_REACTORS
330
47
102
}
330
47
100
AcDbScale
 70
     0
300
1/32" = 1'-0"
140
0.03125
141
12.0
290
     0
  0
SCALE
  5
4C
102
{ACAD_REACTORS
330
47
102
}
330
47
100
AcDbScale
 70
     0
300
1/16" = 1'-0"
140
0.0625
141
12.0
290
     0
  0
SCALE
  5
4D
102
{ACAD_REACTORS
330
47
102
}
330
47
100
AcDbScale
 70
     0
300
3/32" = 1'-0"
140
0.09375
141
12.0
290
     0
  0
SCALE
  5
4E
102
{ACAD_REACTORS
330
47
102
}
330
47
100
AcDbScale
 70
     0
300
1/8" = 1'-0"
140
0.125
141
12.0
290
     0
  0
SCALE
  5
4F
102
{ACAD_REACTORS
330
47
102
}
330
47
100
AcDbScale
 70
     0
300
3/16" = 1'-0"
140
0.1875
141
12.0
290
     0
  0
SCALE
  5
50
102
{ACAD_REACTORS
330
47
102
}
330
47
100
AcDbScale
 70
     0
300
1/4" = 1'-0"
140
0.25
141
12.0
290
     0
  0
SCALE
  5
51
102
{ACAD_REACTORS
330
47
102
}
330
47
100
AcDbScale
 70
     0
300
3/8" = 1'-0"
140
0.375
141
12.0
290
     0
  0
SCALE
  5
52
102
{ACAD_REACTORS
330
47
102
}
330
47
100
AcDbScale
 70
     0
300
1/2" = 1'-0"
140
0.5
141
12.0
290
     0
  0
SCALE
  5
53
102
{ACAD_REACTORS
330
47
102
}
330
47
100
AcDbScale
 70
     0
300
3/4" = 1'-0"
140
0.75
141
12.0
290
     0
  0
SCALE
  5
54
102
{ACAD_REACTORS
330
47
102
}
330
47
100
AcDbScale
 70
     0
300
1" = 1'-0"
140
1.0
141
12.0
290
     0
  0
SCALE
  5
55
102
{ACAD_REACTORS
330
47
102
}
330
47
100
AcDbScale
 70
     0
300
1-1/2" = 1'-0"
140
1.5
141
12.0
290
     0
  0
SCALE
  5
56
102
{ACAD_REACTORS
330
47
102
}
330
47
100
AcDbScale
 70
     0
300
3" = 1'-0"
140
3.0
141
12.0
290
     0
  0
SCALE
  5
57
102
{ACAD_REACTORS
330
47
102
}
330
47
100
AcDbScale
 70
     0
300
6" = 1'-0"
140
6.0
141
12.0
290
     0
  0
SCALE
  5
58
102
{ACAD_REACTORS
330
47
102
}
330
47
100
AcDbScale
 70
     0
300
1'-0" = 1'-0"
140
12.0
141
12.0
290
     0
  0
ENDSEC
  0
EOF
