  0
SECTION
  2
HEADER
  9
$ACADVER
  1
AC1015
  9
$ACADMAINTVER
 70
     6
  9
$DWGCODEPAGE
  3
ANSI_1252
  9
$INSBASE
 10
0.0
 20
0.0
 30
0.0
  9
$EXTMIN
 10
0.0
 20
0.0
 30
0.0
  9
$EXTMAX
 10
22.0
 20
17.0
 30
0.0
  9
$LIMMIN
 10
0.0
 20
0.0
  9
$LIMMAX
 10
22.0
 20
17.0
  9
$ORTHOMODE
 70
     0
  9
$REGENMODE
 70
     1
  9
$FILLMODE
 70
     1
  9
$QTEXTMODE
 70
     0
  9
$MIRRTEXT
 70
     1
  9
$LTSCALE
 40
2.0
  9
$ATTMODE
 70
     1
  9
$TEXTSIZE
 40
0.25
  9
$TRACEWID
 40
0.05
  9
$TEXTSTYLE
  7
STANDARD
  9
$CLAYER
  8
0
  9
$CELTYPE
  6
ByLayer
  9
$CECOLOR
 62
   256
  9
$CELTSCALE
 40
1.0
  9
$DISPSILH
 70
     0
  9
$DIMSCALE
 40
1.0
  9
$DIMASZ
 40
0.26
  9
$DIMEXO
 40
0.3
  9
$DIMDLI
 40
0.38
  9
$DIMRND
 40
0.0
  9
$DIMDLE
 40
0.0
  9
$DIMEXE
 40
0.2
  9
$DIMTP
 40
0.0
  9
$DIMTM
 40
0.0
  9
$DIMTXT
 40
0.25
  9
$DIMCEN
 40
0.09
  9
$DIMTSZ
 40
0.0
  9
$DIMTOL
 70
     0
  9
$DIMLIM
 70
     0
  9
$DIMTIH
 70
     1
  9
$DIMTOH
 70
     1
  9
$DIMSE1
 70
     0
  9
$DIMSE2
 70
     0
  9
$DIMTAD
 70
     0
  9
$DIMZIN
 70
     0
  9
$DIMBLK
  1

  9
$DIMASO
 70
     1
  9
$DIMSHO
 70
     1
  9
$DIMPOST
  1

  9
$DIMAPOST
  1

  9
$DIMALT
 70
     0
  9
$DIMALTD
 70
     2
  9
$DIMALTF
 40
25.4
  9
$DIMLFAC
 40
1.0
  9
$DIMTOFL
 70
     0
  9
$DIMTVP
 40
0.0
  9
$DIMTIX
 70
     0
  9
$DIMSOXD
 70
     0
  9
$DIMSAH
 70
     0
  9
$DIMBLK1
  1

  9
$DIMBLK2
  1

  9
$DIMSTYLE
  2
Standard
  9
$DIMCLRD
 70
     0
  9
$DIMCLRE
 70
     0
  9
$DIMCLRT
 70
     0
  9
$DIMTFAC
 40
1.0
  9
$DIMGAP
 40
0.12
  9
$DIMJUST
 70
     0
  9
$DIMSD1
 70
     0
  9
$DIMSD2
 70
     0
  9
$DIMTOLJ
 70
     1
  9
$DIMTZIN
 70
     0
  9
$DIMALTZ
 70
     0
  9
$DIMALTTZ
 70
     0
  9
$DIMUPT
 70
     0
  9
$DIMDEC
 70
     0
  9
$DIMTDEC
 70
     0
  9
$DIMALTU
 70
     2
  9
$DIMALTTD
 70
     2
  9
$DIMTXSTY
  7
STANDARD
  9
$DIMAUNIT
 70
     0
  9
$DIMADEC
 70
     0
  9
$DIMALTRND
 40
0.0
  9
$DIMAZIN
 70
     0
  9
$DIMDSEP
 70
    46
  9
$DIMATFIT
 70
     3
  9
$DIMFRAC
 70
     0
  9
$DIMLDRBLK
  1

  9
$DIMLUNIT
 70
     2
  9
$DIMLWD
 70
    -2
  9
$DIMLWE
 70
    -2
  9
$DIMTMOVE
 70
     0
  9
$LUNITS
 70
     2
  9
$LUPREC
 70
     0
  9
$SKETCHINC
 40
0.1
  9
$FILLETRAD
 40
0.0
  9
$AUNITS
 70
     0
  9
$AUPREC
 70
     0
  9
$MENU
  1
.
  9
$ELEVATION
 40
0.0
  9
$PELEVATION
 40
0.0
  9
$THICKNESS
 40
0.0
  9
$LIMCHECK
 70
     0
  9
$CHAMFERA
 40
0.0
  9
$CHAMFERB
 40
0.0
  9
$CHAMFERC
 40
0.0
  9
$CHAMFERD
 40
0.0
  9
$SKPOLY
 70
     0
  9
$TDCREATE
 40
2460503.944272037
  9
$TDUCREATE
 40
2460504.235938704
  9
$TDUPDATE
 40
2460503.944273229
  9
$TDUUPDATE
 40
2460504.235939896
  9
$TDINDWG
 40
0.0000000116
  9
$TDUSRTIMER
 40
0.0000000116
  9
$USRTIMER
 70
     1
  9
$ANGBASE
 50
0.0
  9
$ANGDIR
 70
     0
  9
$PDMODE
 70
     0
  9
$PDSIZE
 40
-1.0
  9
$PLINEWID
 40
0.0
  9
$SPLFRAME
 70
     0
  9
$SPLINETYPE
 70
     6
  9
$SPLINESEGS
 70
     8
  9
$HANDSEED
  5
1C2
  9
$SURFTAB1
 70
     6
  9
$SURFTAB2
 70
     6
  9
$SURFTYPE
 70
     6
  9
$SURFU
 70
     6
  9
$SURFV
 70
     6
  9
$UCSBASE
  2

  9
$UCSNAME
  2

  9
$UCSORG
 10
0.0
 20
0.0
 30
0.0
  9
$UCSXDIR
 10
1.0
 20
0.0
 30
0.0
  9
$UCSYDIR
 10
0.0
 20
1.0
 30
0.0
  9
$UCSORTHOREF
  2

  9
$UCSORTHOVIEW
 70
     0
  9
$UCSORGTOP
 10
0.0
 20
0.0
 30
0.0
  9
$UCSORGBOTTOM
 10
0.0
 20
0.0
 30
0.0
  9
$UCSORGLEFT
 10
0.0
 20
0.0
 30
0.0
  9
$UCSORGRIGHT
 10
0.0
 20
0.0
 30
0.0
  9
$UCSORGFRONT
 10
0.0
 20
0.0
 30
0.0
  9
$UCSORGBACK
 10
0.0
 20
0.0
 30
0.0
  9
$PUCSBASE
  2

  9
$PUCSNAME
  2

  9
$PUCSORG
 10
0.0
 20
0.0
 30
0.0
  9
$PUCSXDIR
 10
1.0
 20
0.0
 30
0.0
  9
$PUCSYDIR
 10
0.0
 20
1.0
 30
0.0
  9
$PUCSORTHOREF
  2

  9
$PUCSORTHOVIEW
 70
     0
  9
$PUCSORGTOP
 10
0.0
 20
0.0
 30
0.0
  9
$PUCSORGBOTTOM
 10
0.0
 20
0.0
 30
0.0
  9
$PUCSORGLEFT
 10
0.0
 20
0.0
 30
0.0
  9
$PUCSORGRIGHT
 10
0.0
 20
0.0
 30
0.0
  9
$PUCSORGFRONT
 10
0.0
 20
0.0
 30
0.0
  9
$PUCSORGBACK
 10
0.0
 20
0.0
 30
0.0
  9
$USERI1
 70
     0
  9
$USERI2
 70
     0
  9
$USERI3
 70
     0
  9
$USERI4
 70
     0
  9
$USERI5
 70
     0
  9
$USERR1
 40
0.0
  9
$USERR2
 40
0.0
  9
$USERR3
 40
0.0
  9
$USERR4
 40
0.0
  9
$USERR5
 40
0.0
  9
$WORLDVIEW
 70
     1
  9
$SHADEDGE
 70
     3
  9
$SHADEDIF
 70
    70
  9
$TILEMODE
 70
     1
  9
$MAXACTVP
 70
    64
  9
$PINSBASE
 10
0.0
 20
0.0
 30
0.0
  9
$PLIMCHECK
 70
     0
  9
$PEXTMIN
 10
1.0000000000E+20
 20
1.0000000000E+20
 30
1.0000000000E+20
  9
$PEXTMAX
 10
-1.0000000000E+20
 20
-1.0000000000E+20
 30
-1.0000000000E+20
  9
$PLIMMIN
 10
0.0
 20
0.0
  9
$PLIMMAX
 10
12.0
 20
9.0
  9
$UNITMODE
 70
     0
  9
$VISRETAIN
 70
     1
  9
$PLINEGEN
 70
     0
  9
$PSLTSCALE
 70
     1
  9
$TREEDEPTH
 70
  3020
  9
$CMLSTYLE
  2
Standard
  9
$CMLJUST
 70
     0
  9
$CMLSCALE
 40
1.0
  9
$PROXYGRAPHICS
 70
     1
  9
$MEASUREMENT
 70
     0
  9
$CELWEIGHT
370
    -1
  9
$ENDCAPS
280
     0
  9
$JOINSTYLE
280
     0
  9
$LWDISPLAY
290
     1
  9
$INSUNITS
 70
     1
  9
$HYPERLINKBASE
  1

  9
$STYLESHEET
  1

  9
$XEDIT
290
     1
  9
$CEPSNTYPE
380
     0
  9
$PSTYLEMODE
290
     1
  9
$FINGERPRINTGUID
  2
{b743775a-89bf-4481-819b-3044a40e6592}
  9
$VERSIONGUID
  2
{FAEB1C32-E019-11D5-929B-00C0DF256EC4}
  9
$EXTNAMES
290
     1
  9
$PSVPSCALE
 40
0.0
  9
$OLESTARTUP
290
     0
  0
ENDSEC
  0
SECTION
  2
CLASSES
  0
CLASS
  1
ACDBDICTIONARYWDFLT
  2
AcDbDictionaryWithDefault
  3
ObjectDBX Classes
 90
        0
280
     0
281
     0
  0
CLASS
  1
VISUALSTYLE
  2
AcDbVisualStyle
  3
ObjectDBX Classes
 90
     4095
280
     0
281
     0
  0
CLASS
  1
MATERIAL
  2
AcDbMaterial
  3
ObjectDBX Classes
 90
     1153
280
     0
281
     0
  0
CLASS
  1
SCALE
  2
AcDbScale
  3
ObjectDBX Classes
 90
     1153
280
     0
281
     0
  0
CLASS
  1
TABLESTYLE
  2
AcDbTableStyle
  3
ObjectDBX Classes
 90
     4095
280
     0
281
     0
  0
CLASS
  1
MLEADERSTYLE
  2
AcDbMLeaderStyle
  3
ACDB_MLEADERSTYLE_CLASS
 90
     4095
280
     0
281
     0
  0
CLASS
  1
SUN
  2
AcDbSun
  3
SCENEOE
 90
     1153
280
     0
281
     0
  0
CLASS
  1
ACDBPLACEHOLDER
  2
AcDbPlaceHolder
  3
ObjectDBX Classes
 90
        0
280
     0
281
     0
  0
CLASS
  1
LAYOUT
  2
AcDbLayout
  3
ObjectDBX Classes
 90
        0
280
     0
281
     0
  0
ENDSEC
  0
SECTION
  2
TABLES
  0
TABLE
  2
VPORT
  5
8
330
0
100
AcDbSymbolTable
 70
     1
  0
VPORT
  5
29
330
8
100
AcDbSymbolTableRecord
100
AcDbViewportTableRecord
  2
*Active
 70
     0
 10
0.0
 20
0.0
 11
1.0
 21
1.0
 12
11.0
 22
8.5
 13
0.0
 23
0.0
 14
0.5
 24
0.5
 15
0.5
 25
0.5
 16
0.0
 26
0.0
 36
1.0
 17
0.0
 27
0.0
 37
0.0
 40
17.0
 41
1.2941176471
 42
50.0
 43
0.0
 44
0.0
 50
0.0
 51
0.0
 71
     0
 72
  2000
 73
     1
 74
     3
 75
     0
 76
     0
 77
     0
 78
     0
281
     0
 65
     1
110
0.0
120
0.0
130
0.0
111
1.0
121
0.0
131
0.0
112
0.0
122
1.0
132
0.0
 79
     0
146
0.0
  0
ENDTAB
  0
TABLE
  2
LTYPE
  5
5
330
0
100
AcDbSymbolTable
 70
     6
  0
LTYPE
  5
14
330
5
100
AcDbSymbolTableRecord
100
AcDbLinetypeTableRecord
  2
ByBlock
 70
     0
  3

 72
    65
 73
     0
 40
0.0
  0
LTYPE
  5
15
330
5
100
AcDbSymbolTableRecord
100
AcDbLinetypeTableRecord
  2
ByLayer
 70
     0
  3

 72
    65
 73
     0
 40
0.0
  0
LTYPE
  5
16
330
5
100
AcDbSymbolTableRecord
100
AcDbLinetypeTableRecord
  2
Continuous
 70
     0
  3
Solid line
 72
    65
 73
     0
 40
0.0
  0
LTYPE
  5
5E
330
5
100
AcDbSymbolTableRecord
100
AcDbLinetypeTableRecord
  2
HIDDEN
 70
     0
  3
Hidden __ __ __ __ __ __ __ __ __ __ __ __ __ __
 72
    65
 73
     2
 40
0.075
 49
0.05
 74
     0
 49
-0.025
 74
     0
  0
LTYPE
  5
5F
330
5
100
AcDbSymbolTableRecord
100
AcDbLinetypeTableRecord
  2
PHANTOM
 70
     0
  3
Phantom ______  __  __  ______  __  __  ______
 72
    65
 73
     6
 40
0.5
 49
0.25
 74
     0
 49
-0.05
 74
     0
 49
0.05
 74
     0
 49
-0.05
 74
     0
 49
0.05
 74
     0
 49
-0.05
 74
     0
  0
LTYPE
  5
60
330
5
100
AcDbSymbolTableRecord
100
AcDbLinetypeTableRecord
  2
CENTER
 70
     0
  3
Center ____ _ ____ _ ____ _ ____ _ ____ _ ____
 72
    65
 73
     4
 40
0.4
 49
0.25
 74
     0
 49
-0.05
 74
     0
 49
0.05
 74
     0
 49
-0.05
 74
     0
  0
LTYPE
  5
61
330
5
100
AcDbSymbolTableRecord
100
AcDbLinetypeTableRecord
  2
CENTERX2
 70
     0
  3
Center (2x) ________  __  ________  __  _____
 72
    65
 73
     4
 40
0.8
 49
0.5
 74
     0
 49
-0.1
 74
     0
 49
0.1
 74
     0
 49
-0.1
 74
     0
  0
LTYPE
  5
62
330
5
100
AcDbSymbolTableRecord
100
AcDbLinetypeTableRecord
  2
DOT2
 70
     0
  3
Dot (.5x) ........................................
 72
    65
 73
     2
 40
0.025
 49
0.0
 74
     0
 49
-0.025
 74
     0
  0
ENDTAB
  0
TABLE
  2
LAYER
  5
2
330
0
100
AcDbSymbolTable
 70
    12
  0
LAYER
  5
10
330
2
100
AcDbSymbolTableRecord
100
AcDbLayerTableRecord
  2
0
 70
     0
 62
     7
  6
Continuous
370
    -3
390
F
  0
LAYER
  5
63
330
2
100
AcDbSymbolTableRecord
100
AcDbLayerTableRecord
  2
SLD-0
 70
     0
 62
     7
  6
Continuous
370
    -3
390
F
  0
LAYER
  5
64
330
2
100
AcDbSymbolTableRecord
100
AcDbLayerTableRecord
  2
DIM
 70
     0
 62
     7
  6
Continuous
370
    -3
390
F
  0
LAYER
  5
65
330
2
100
AcDbSymbolTableRecord
100
AcDbLayerTableRecord
  2
CEN
 70
     0
 62
     1
  6
CENTER
370
    -3
390
F
  0
LAYER
  5
66
330
2
100
AcDbSymbolTableRecord
100
AcDbLayerTableRecord
  2
HAT
 70
     0
 62
     4
  6
Continuous
370
    -3
390
F
  0
LAYER
  5
67
330
2
100
AcDbSymbolTableRecord
100
AcDbLayerTableRecord
  2
OBJ
 70
     0
 62
     5
  6
Continuous
370
    -3
390
F
  0
LAYER
  5
68
330
2
100
AcDbSymbolTableRecord
100
AcDbLayerTableRecord
  2
SLD-DEFPOINTS
 70
     0
 62
     7
  6
Continuous
370
    -3
390
F
  0
LAYER
  5
69
330
2
100
AcDbSymbolTableRecord
100
AcDbLayerTableRecord
  2
HID
 70
     0
 62
     4
  6
HIDDEN
370
    -3
390
F
  0
LAYER
  5
6A
330
2
100
AcDbSymbolTableRecord
100
AcDbLayerTableRecord
  2
NOTE
 70
     0
 62
     7
  6
Continuous
370
    -3
390
F
  0
LAYER
  5
6B
330
2
100
AcDbSymbolTableRecord
100
AcDbLayerTableRecord
  2
VP
 70
     0
 62
    -5
  6
Continuous
290
     0
370
    -3
390
F
  0
LAYER
  5
6C
330
2
100
AcDbSymbolTableRecord
100
AcDbLayerTableRecord
  2
TITLE
 70
     0
 62
     7
  6
Continuous
370
    -3
390
F
  0
LAYER
  5
6D
330
2
100
AcDbSymbolTableRecord
100
AcDbLayerTableRecord
  2
THICK_TITLE
 70
     0
 62
     7
  6
Continuous
370
   100
390
F
  0
ENDTAB
  0
TABLE
  2
STYLE
  5
3
330
0
100
AcDbSymbolTable
 70
     2
  0
STYLE
  5
11
330
3
100
AcDbSymbolTableRecord
100
AcDbTextStyleTableRecord
  2
STANDARD
 70
     0
 40
0.0
 41
1.0
 50
0.0
 71
     0
 42
0.25
  3
GOTHIC.TTF
  4

1001
ACAD
1000
CENTURY GOTHIC
1071
       34
  0
STYLE
  5
74
330
3
100
AcDbSymbolTableRecord
100
AcDbTextStyleTableRecord
  2
SLDTEXTSTYLE0
 70
     0
 40
0.0
 41
0.913
 50
0.0
 71
     0
 42
0.25
  3
GOTHIC.TTF
  4

1001
ACAD
1000
Century Gothic
1071
      290
  0
ENDTAB
  0
TABLE
  2
VIEW
  5
6
330
0
100
AcDbSymbolTable
 70
     0
  0
ENDTAB
  0
TABLE
  2
UCS
  5
7
330
0
100
AcDbSymbolTable
 70
     0
  0
ENDTAB
  0
TABLE
  2
APPID
  5
9
330
0
100
AcDbSymbolTable
 70
     1
  0
APPID
  5
12
330
9
100
AcDbSymbolTableRecord
100
AcDbRegAppTableRecord
  2
ACAD
 70
     0
  0
ENDTAB
  0
TABLE
  2
DIMSTYLE
  5
A
330
0
100
AcDbSymbolTable
 70
     7
100
AcDbDimStyleTable
  0
DIMSTYLE
105
27
330
A
100
AcDbSymbolTableRecord
100
AcDbDimStyleTableRecord
  2
Standard
 70
     0
178
     0
340
11
  0
DIMSTYLE
105
C9
102
{ACAD_REACTORS
330
C8
330
F1
330
106
102
}
330
A
100
AcDbSymbolTableRecord
100
AcDbDimStyleTableRecord
  2
SLDDIMSTYLE0
 70
     0
 41
0.26
 44
0.0
 45
0.000000001
 78
    12
 79
     3
140
0.25
147
0.0625
148
0.000000001
170
     1
171
     0
173
     1
178
     0
271
     6
272
     0
274
     0
276
     2
277
     5
284
    12
340
74
  0
DIMSTYLE
105
DE
102
{ACAD_REACTORS
330
DD
102
}
330
A
100
AcDbSymbolTableRecord
100
AcDbDimStyleTableRecord
  2
SLDDIMSTYLE1
 70
     0
 41
0.26
 44
0.0
 45
0.000000001
 78
    12
 79
     3
140
0.25
147
0.0625
148
0.000000001
170
     1
171
     0
172
     1
173
     1
178
     0
271
     0
272
     0
274
     0
276
     2
277
     5
284
    12
289
     0
340
74
  0
DIMSTYLE
105
11B
102
{ACAD_REACTORS
330
11A
102
}
330
A
100
AcDbSymbolTableRecord
100
AcDbDimStyleTableRecord
  2
SLDDIMSTYLE2
 70
     0
 41
0.26
 44
0.0
 45
0.000000001
 78
    12
 79
     3
140
0.25
147
0.0625
148
0.000000001
170
     1
171
     0
172
     1
173
     1
178
     0
271
     6
272
     0
274
     0
276
     2
277
     5
284
    12
289
     0
340
74
  0
DIMSTYLE
105
130
330
A
100
AcDbSymbolTableRecord
100
AcDbDimStyleTableRecord
  2
SLDDIMSTYLE3
 70
     0
 41
0.26
 44
0.0
 45
0.000000001
146
0.26
147
0.0
173
     1
178
     0
271
     0
272
     0
276
     2
277
     5
340
11
  0
DIMSTYLE
105
13C
102
{ACAD_REACTORS
330
13B
330
15C
102
}
330
A
100
AcDbSymbolTableRecord
100
AcDbDimStyleTableRecord
  2
SLDDIMSTYLE4
 70
     0
 41
0.26
 44
0.0
 45
0.000000001
 78
    12
 79
     3
140
0.25
144
1.25
147
0.0625
148
0.000000001
170
     1
171
     0
173
     1
178
     0
271
     6
272
     0
274
     0
276
     2
277
     5
284
    12
340
74
  0
DIMSTYLE
105
17D
102
{ACAD_REACTORS
330
17C
102
}
330
A
100
AcDbSymbolTableRecord
100
AcDbDimStyleTableRecord
  2
SLDDIMSTYLE5
 70
     0
 41
0.26
 44
0.0
 45
0.000000001
 78
    12
 79
     3
140
0.25
144
1.25
147
0.0625
148
0.000000001
170
     1
171
     0
172
     1
173
     1
178
     0
271
     6
272
     0
274
     0
276
     2
277
     5
284
    12
289
     0
340
74
  0
ENDTAB
  0
TABLE
  2
BLOCK_RECORD
  5
1
330
0
100
AcDbSymbolTable
 70
    15
  0
BLOCK_RECORD
  5
1F
330
1
100
AcDbSymbolTableRecord
100
AcDbBlockTableRecord
  2
*Model_Space
340
22
  0
BLOCK_RECORD
  5
1B
330
1
100
AcDbSymbolTableRecord
100
AcDbBlockTableRecord
  2
*Paper_Space
340
1E
  0
BLOCK_RECORD
  5
23
330
1
100
AcDbSymbolTableRecord
100
AcDbBlockTableRecord
  2
*Paper_Space0
340
26
  0
BLOCK_RECORD
  5
6E
330
1
100
AcDbSymbolTableRecord
100
AcDbBlockTableRecord
  2
Block1
340
0
102
{BLKREFS
331
13A
102
}
  0
BLOCK_RECORD
  5
71
330
1
100
AcDbSymbolTableRecord
100
AcDbBlockTableRecord
  2
SW_NOTE_0
340
0
102
{BLKREFS
331
76
102
}
  0
BLOCK_RECORD
  5
77
330
1
100
AcDbSymbolTableRecord
100
AcDbBlockTableRecord
  2
Block2
340
0
102
{BLKREFS
331
15B
102
}
  0
BLOCK_RECORD
  5
7A
330
1
100
AcDbSymbolTableRecord
100
AcDbBlockTableRecord
  2
SW_NOTE_0_1
340
0
102
{BLKREFS
331
7E
102
}
  0
BLOCK_RECORD
  5
7F
330
1
100
AcDbSymbolTableRecord
100
AcDbBlockTableRecord
  2
Block3
340
0
102
{BLKREFS
331
17B
102
}
  0
BLOCK_RECORD
  5
82
330
1
100
AcDbSymbolTableRecord
100
AcDbBlockTableRecord
  2
SW_NOTE_0_2
340
0
102
{BLKREFS
331
86
102
}
  0
BLOCK_RECORD
  5
CA
330
1
100
AcDbSymbolTableRecord
100
AcDbBlockTableRecord
  2
_D
340
0
  0
BLOCK_RECORD
  5
DF
330
1
100
AcDbSymbolTableRecord
100
AcDbBlockTableRecord
  2
_D_1
340
0
  0
BLOCK_RECORD
  5
F2
330
1
100
AcDbSymbolTableRecord
100
AcDbBlockTableRecord
  2
_D_2
340
0
  0
BLOCK_RECORD
  5
107
330
1
100
AcDbSymbolTableRecord
100
AcDbBlockTableRecord
  2
_D_3
340
0
  0
BLOCK_RECORD
  5
11C
330
1
100
AcDbSymbolTableRecord
100
AcDbBlockTableRecord
  2
_D_4
340
0
  0
BLOCK_RECORD
  5
13D
330
1
100
AcDbSymbolTableRecord
100
AcDbBlockTableRecord
  2
_D_5
340
0
  0
BLOCK_RECORD
  5
15D
330
1
100
AcDbSymbolTableRecord
100
AcDbBlockTableRecord
  2
_D_6
340
0
  0
BLOCK_RECORD
  5
17E
330
1
100
AcDbSymbolTableRecord
100
AcDbBlockTableRecord
  2
_D_7
340
0
  0
ENDTAB
  0
ENDSEC
  0
SECTION
  2
BLOCKS
  0
BLOCK
  5
20
330
1F
100
AcDbEntity
  8
0
100
AcDbBlockBegin
  2
*Model_Space
 70
     0
 10
0.0
 20
0.0
 30
0.0
  3
*Model_Space
  1

  0
ENDBLK
  5
21
330
1F
100
AcDbEntity
  8
0
100
AcDbBlockEnd
  0
BLOCK
  5
1C
330
1B
100
AcDbEntity
 67
     1
  8
0
100
AcDbBlockBegin
  2
*Paper_Space
 70
     0
 10
0.0
 20
0.0
 30
0.0
  3
*Paper_Space
  1

  0
ENDBLK
  5
1D
330
1B
100
AcDbEntity
 67
     1
  8
0
100
AcDbBlockEnd
  0
BLOCK
  5
24
330
23
100
AcDbEntity
  8
0
100
AcDbBlockBegin
  2
*Paper_Space0
 70
     0
 10
0.0
 20
0.0
 30
0.0
  3
*Paper_Space0
  1

  0
ENDBLK
  5
25
330
23
100
AcDbEntity
  8
0
100
AcDbBlockEnd
  0
BLOCK
  5
6F
330
6E
100
AcDbEntity
  8
0
100
AcDbBlockBegin
  2
Block1
 70
     0
 10
0.0
 20
0.0
 30
0.0
  3
Block1
  1

  0
INSERT
  5
76
330
6E
100
AcDbEntity
  8
0
  6
Continuous
 62
     7
370
     0
100
AcDbBlockReference
  2
SW_NOTE_0
 10
0.3277890427
 20
-0.0347641935
 30
0.0
  0
ENDBLK
  5
70
330
6E
100
AcDbEntity
  8
0
100
AcDbBlockEnd
  0
BLOCK
  5
72
330
71
100
AcDbEntity
  8
0
100
AcDbBlockBegin
  2
SW_NOTE_0
 70
     0
 10
0.0
 20
0.0
 30
0.0
  3
SW_NOTE_0
  1

  0
MTEXT
  5
75
330
71
100
AcDbEntity
  8
0
  6
Continuous
 62
     0
370
     0
100
AcDbMText
 10
0.8528645833
 20
0.5322265625
 30
0.0
 40
0.4166666667
 41
0.0
 71
     2
 72
     1
  1
D CAP
  7
SLDTEXTSTYLE0
 73
     1
 44
1.0
  0
ENDBLK
  5
73
330
71
100
AcDbEntity
  8
0
100
AcDbBlockEnd
  0
BLOCK
  5
78
330
77
100
AcDbEntity
  8
0
100
AcDbBlockBegin
  2
Block2
 70
     0
 10
0.0
 20
0.0
 30
0.0
  3
Block2
  1

  0
INSERT
  5
7E
330
77
100
AcDbEntity
  8
0
  6
Continuous
 62
     7
370
     0
100
AcDbBlockReference
  2
SW_NOTE_0_1
 10
0.2888435361
 20
0.5683615613
 30
0.0
  0
ENDBLK
  5
79
330
77
100
AcDbEntity
  8
0
100
AcDbBlockEnd
  0
BLOCK
  5
7B
330
7A
100
AcDbEntity
  8
0
100
AcDbBlockBegin
  2
SW_NOTE_0_1
 70
     0
 10
0.0
 20
0.0
 30
0.0
  3
SW_NOTE_0_1
  1

  0
MTEXT
  5
7D
330
7A
100
AcDbEntity
  8
0
  6
Continuous
 62
     0
370
     0
100
AcDbMText
 10
0.80078125
 20
0.5322265625
 30
0.0
 40
0.4166666667
 41
0.0
 71
     2
 72
     1
  1
E CAP
  7
SLDTEXTSTYLE0
 73
     1
 44
1.0
  0
ENDBLK
  5
7C
330
7A
100
AcDbEntity
  8
0
100
AcDbBlockEnd
  0
BLOCK
  5
80
330
7F
100
AcDbEntity
  8
0
100
AcDbBlockBegin
  2
Block3
 70
     0
 10
0.0
 20
0.0
 30
0.0
  3
Block3
  1

  0
INSERT
  5
86
330
7F
100
AcDbEntity
  8
0
  6
Continuous
 62
     7
370
     0
100
AcDbBlockReference
  2
SW_NOTE_0_2
 10
0.0226267664
 20
-0.0185493262
 30
0.0
  0
ENDBLK
  5
81
330
7F
100
AcDbEntity
  8
0
100
AcDbBlockEnd
  0
BLOCK
  5
83
330
82
100
AcDbEntity
  8
0
100
AcDbBlockBegin
  2
SW_NOTE_0_2
 70
     0
 10
0.0
 20
0.0
 30
0.0
  3
SW_NOTE_0_2
  1

  0
MTEXT
  5
85
330
82
100
AcDbEntity
  8
0
  6
Continuous
 62
     0
370
     0
100
AcDbMText
 10
0.8723958333
 20
0.5322265625
 30
0.0
 40
0.4166666667
 41
0.0
 71
     2
 72
     1
  1
C CAP
  7
SLDTEXTSTYLE0
 73
     1
 44
1.0
  0
ENDBLK
  5
84
330
82
100
AcDbEntity
  8
0
100
AcDbBlockEnd
  0
BLOCK
  5
CB
330
CA
100
AcDbEntity
  8
0
100
AcDbBlockBegin
  2
_D
 70
     0
 10
0.0
 20
0.0
 30
0.0
  3
_D
  1

  0
SOLID
  5
CD
330
CA
100
AcDbEntity
  8
SLD-0
100
AcDbTrace
 10
9.0539672042
 20
6.7607120389
 30
0.0
 11
9.0939672042
 21
7.0207120389
 31
0.0
 12
9.0139672042
 22
7.0207120389
 32
0.0
 13
9.0139672042
 23
7.0207120389
 33
0.0
  0
SOLID
  5
CE
330
CA
100
AcDbEntity
  8
SLD-0
100
AcDbTrace
 10
9.0539672042
 20
13.4657120389
 30
0.0
 11
9.0139672042
 21
13.2057120389
 31
0.0
 12
9.0939672042
 22
13.2057120389
 32
0.0
 13
9.0939672042
 23
13.2057120389
 33
0.0
  0
LINE
  5
CF
330
CA
100
AcDbEntity
  8
SLD-0
100
AcDbLine
 10
8.4643839151
 20
10.1113022776
 30
0.0
 11
8.3882120409
 21
10.1113022776
 31
0.0
  0
LINE
  5
D0
330
CA
100
AcDbEntity
  8
SLD-0
100
AcDbLine
 10
8.3882120409
 20
10.1113022776
 30
0.0
 11
8.3882120409
 21
9.7144272657
 31
0.0
  0
LINE
  5
D1
330
CA
100
AcDbEntity
  8
SLD-0
100
AcDbLine
 10
8.3882120409
 20
9.7144272657
 30
0.0
 11
8.4643839151
 21
9.7144272657
 31
0.0
  0
LINE
  5
D2
330
CA
100
AcDbEntity
  8
SLD-0
100
AcDbLine
 10
9.6435505666
 20
10.1113022776
 30
0.0
 11
9.7197224408
 21
10.1113022776
 31
0.0
  0
LINE
  5
D3
330
CA
100
AcDbEntity
  8
SLD-0
100
AcDbLine
 10
9.7197224408
 20
10.1113022776
 30
0.0
 11
9.7197224408
 21
9.7144272657
 31
0.0
  0
LINE
  5
D4
330
CA
100
AcDbEntity
  8
SLD-0
100
AcDbLine
 10
9.7197224408
 20
9.7144272657
 30
0.0
 11
9.6435505666
 21
9.7144272657
 31
0.0
  0
LINE
  5
D5
330
CA
100
AcDbEntity
  8
SLD-0
100
AcDbLine
 10
7.6736675979
 20
6.7607120389
 30
0.0
 11
9.2539672042
 21
6.7607120389
 31
0.0
  0
LINE
  5
D6
330
CA
100
AcDbEntity
  8
SLD-0
100
AcDbLine
 10
7.6436675979
 20
13.4657120389
 30
0.0
 11
9.2539672042
 21
13.4657120389
 31
0.0
  0
LINE
  5
D7
330
CA
100
AcDbEntity
  8
SLD-0
100
AcDbLine
 10
9.0539672042
 20
6.7607120389
 30
0.0
 11
9.0539672042
 21
9.6636460956
 31
0.0
  0
LINE
  5
D8
330
CA
100
AcDbEntity
  8
SLD-0
100
AcDbLine
 10
9.0539672042
 20
13.4657120389
 30
0.0
 11
9.0539672042
 21
10.5627779821
 31
0.0
  0
MTEXT
  5
D9
330
CA
100
AcDbEntity
  8
SLD-0
100
AcDbMText
 10
8.2196790553
 20
10.4852389352
 30
0.0
 40
0.25
 41
0.0
 71
     1
 72
     1
  1
 
  7
SLDTEXTSTYLE0
 73
     1
 44
1.0
  0
MTEXT
  5
DA
330
CA
100
AcDbEntity
  8
SLD-0
100
AcDbMText
 10
8.4215019554
 20
10.4814194722
 30
0.0
 40
0.25
 41
0.0
 71
     1
 72
     1
  1
6 11/16"
  7
SLDTEXTSTYLE0
 73
     1
 44
1.0
  0
MTEXT
  5
DB
330
CA
100
AcDbEntity
  8
SLD-0
100
AcDbMText
 10
8.4643839151
 20
10.0337632307
 30
0.0
 40
0.25
 41
0.0
 71
     1
 72
     1
  1
170mm
  7
SLDTEXTSTYLE0
 73
     1
 44
1.0
  0
MTEXT
  5
DC
330
CA
100
AcDbEntity
  8
SLD-0
100
AcDbMText
 10
9.79589426
 20
10.4852389352
 30
0.0
 40
0.25
 41
0.0
 71
     1
 72
     1
  1
 
  7
SLDTEXTSTYLE0
 73
     1
 44
1.0
  0
ENDBLK
  5
CC
330
CA
100
AcDbEntity
  8
0
100
AcDbBlockEnd
  0
BLOCK
  5
E0
330
DF
100
AcDbEntity
  8
0
100
AcDbBlockBegin
  2
_D_1
 70
     0
 10
0.0
 20
0.0
 30
0.0
  3
_D_1
  1

  0
SOLID
  5
E2
330
DF
100
AcDbEntity
  8
SLD-0
100
AcDbTrace
 10
5.7686675979
 20
14.7696358111
 30
0.0
 11
5.5086675979
 21
14.8096358111
 31
0.0
 12
5.5086675979
 22
14.7296358111
 32
0.0
 13
5.5086675979
 23
14.7296358111
 33
0.0
  0
SOLID
  5
E3
330
DF
100
AcDbEntity
  8
SLD-0
100
AcDbTrace
 10
6.7586675979
 20
14.7696358111
 30
0.0
 11
7.0186675979
 21
14.7296358111
 31
0.0
 12
7.0186675979
 22
14.8096358111
 32
0.0
 13
7.0186675979
 23
14.8096358111
 33
0.0
  0
LINE
  5
E4
330
DF
100
AcDbEntity
  8
SLD-0
100
AcDbLine
 10
8.3559535131
 20
14.7696357744
 30
0.0
 11
8.2797816389
 21
14.7696357744
 31
0.0
  0
LINE
  5
E5
330
DF
100
AcDbEntity
  8
SLD-0
100
AcDbLine
 10
8.2797816389
 20
14.7696357744
 30
0.0
 11
8.2797816389
 21
14.3727607625
 31
0.0
  0
LINE
  5
E6
330
DF
100
AcDbEntity
  8
SLD-0
100
AcDbLine
 10
8.2797816389
 20
14.3727607625
 30
0.0
 11
8.3559535131
 21
14.3727607625
 31
0.0
  0
LINE
  5
E7
330
DF
100
AcDbEntity
  8
SLD-0
100
AcDbLine
 10
9.3503979785
 20
14.7696357744
 30
0.0
 11
9.4265698527
 21
14.7696357744
 31
0.0
  0
LINE
  5
E8
330
DF
100
AcDbEntity
  8
SLD-0
100
AcDbLine
 10
9.4265698527
 20
14.7696357744
 30
0.0
 11
9.4265698527
 21
14.3727607625
 31
0.0
  0
LINE
  5
E9
330
DF
100
AcDbEntity
  8
SLD-0
100
AcDbLine
 10
9.4265698527
 20
14.3727607625
 30
0.0
 11
9.3503979785
 21
14.3727607625
 31
0.0
  0
LINE
  5
EA
330
DF
100
AcDbEntity
  8
SLD-0
100
AcDbLine
 10
5.7686675979
 20
14.3357120389
 30
0.0
 11
5.7686675979
 21
14.9696358111
 31
0.0
  0
LINE
  5
EB
330
DF
100
AcDbEntity
  8
SLD-0
100
AcDbLine
 10
6.7586675979
 20
14.3357120389
 30
0.0
 11
6.7586675979
 21
14.9696358111
 31
0.0
  0
LINE
  5
EC
330
DF
100
AcDbEntity
  8
SLD-0
100
AcDbLine
 10
5.7686675979
 20
14.7696358111
 30
0.0
 11
5.2686675979
 21
14.7696358111
 31
0.0
  0
LINE
  5
ED
330
DF
100
AcDbEntity
  8
SLD-0
100
AcDbLine
 10
6.7586675979
 20
14.7696358111
 30
0.0
 11
8.152903401
 21
14.7696358111
 31
0.0
  0
MTEXT
  5
EE
330
DF
100
AcDbEntity
  8
SLD-0
100
AcDbMText
 10
8.5207365045
 20
15.1397529874
 30
0.0
 40
0.25
 41
0.0
 71
     1
 72
     1
  1
%%c
  7
SLDTEXTSTYLE0
 73
     1
 44
1.0
  0
MTEXT
  5
EF
330
DF
100
AcDbEntity
  8
SLD-0
100
AcDbMText
 10
8.8977677457
 20
15.1397529874
 30
0.0
 40
0.25
 41
0.0
 71
     1
 72
     1
  1
1"
  7
SLDTEXTSTYLE0
 73
     1
 44
1.0
  0
MTEXT
  5
F0
330
DF
100
AcDbEntity
  8
SLD-0
100
AcDbMText
 10
8.3559535131
 20
14.6920967275
 30
0.0
 40
0.25
 41
0.0
 71
     1
 72
     1
  1
25mm
  7
SLDTEXTSTYLE0
 73
     1
 44
1.0
  0
ENDBLK
  5
E1
330
DF
100
AcDbEntity
  8
0
100
AcDbBlockEnd
  0
BLOCK
  5
F3
330
F2
100
AcDbEntity
  8
0
100
AcDbBlockBegin
  2
_D_2
 70
     0
 10
0.0
 20
0.0
 30
0.0
  3
_D_2
  1

  0
SOLID
  5
F5
330
F2
100
AcDbEntity
  8
SLD-0
100
AcDbTrace
 10
4.0301266669
 20
14.0657120389
 30
0.0
 11
3.9901266669
 21
13.8057120389
 31
0.0
 12
4.0701266669
 22
13.8057120389
 32
0.0
 13
4.0701266669
 23
13.8057120389
 33
0.0
  0
SOLID
  5
F6
330
F2
100
AcDbEntity
  8
SLD-0
100
AcDbTrace
 10
4.0301266669
 20
13.4657120389
 30
0.0
 11
4.0701266669
 21
13.7257120389
 31
0.0
 12
3.9901266669
 22
13.7257120389
 32
0.0
 13
3.9901266669
 23
13.7257120389
 33
0.0
  0
LINE
  5
F7
330
F2
100
AcDbEntity
  8
SLD-0
100
AcDbLine
 10
2.388858324
 20
14.7677260498
 30
0.0
 11
2.3126864498
 21
14.7677260498
 31
0.0
  0
LINE
  5
F8
330
F2
100
AcDbEntity
  8
SLD-0
100
AcDbLine
 10
2.3126864498
 20
14.7677260498
 30
0.0
 11
2.3126864498
 21
14.3708510379
 31
0.0
  0
LINE
  5
F9
330
F2
100
AcDbEntity
  8
SLD-0
100
AcDbLine
 10
2.3126864498
 20
14.3708510379
 30
0.0
 11
2.388858324
 21
14.3708510379
 31
0.0
  0
LINE
  5
FA
330
F2
100
AcDbEntity
  8
SLD-0
100
AcDbLine
 10
3.3833027895
 20
14.7677260498
 30
0.0
 11
3.4594746637
 21
14.7677260498
 31
0.0
  0
LINE
  5
FB
330
F2
100
AcDbEntity
  8
SLD-0
100
AcDbLine
 10
3.4594746637
 20
14.7677260498
 30
0.0
 11
3.4594746637
 21
14.3708510379
 31
0.0
  0
LINE
  5
FC
330
F2
100
AcDbEntity
  8
SLD-0
100
AcDbLine
 10
3.4594746637
 20
14.3708510379
 30
0.0
 11
3.3833027895
 21
14.3708510379
 31
0.0
  0
LINE
  5
FD
330
F2
100
AcDbEntity
  8
SLD-0
100
AcDbLine
 10
5.4986675979
 20
14.0657120389
 30
0.0
 11
3.8301266669
 21
14.0657120389
 31
0.0
  0
LINE
  5
FE
330
F2
100
AcDbEntity
  8
SLD-0
100
AcDbLine
 10
4.8836675979
 20
13.4657120389
 30
0.0
 11
3.8301266669
 21
13.4657120389
 31
0.0
  0
LINE
  5
FF
330
F2
100
AcDbEntity
  8
SLD-0
100
AcDbLine
 10
3.7801266669
 20
14.7696358111
 30
0.0
 11
4.0301266669
 21
14.7696358111
 31
0.0
  0
LINE
  5
100
330
F2
100
AcDbEntity
  8
SLD-0
100
AcDbLine
 10
4.0301266669
 20
14.7696358111
 30
0.0
 11
4.0301266669
 21
14.0657120389
 31
0.0
  0
LINE
  5
101
330
F2
100
AcDbEntity
  8
SLD-0
100
AcDbLine
 10
4.0301266669
 20
14.0657120389
 30
0.0
 11
4.0301266669
 21
13.4657120389
 31
0.0
  0
MTEXT
  5
102
330
F2
100
AcDbEntity
  8
SLD-0
100
AcDbMText
 10
2.1441534642
 20
15.1416627074
 30
0.0
 40
0.25
 41
0.0
 71
     1
 72
     1
  1
 
  7
SLDTEXTSTYLE0
 73
     1
 44
1.0
  0
MTEXT
  5
103
330
F2
100
AcDbEntity
  8
SLD-0
100
AcDbMText
 10
2.5768791337
 20
15.1378432444
 30
0.0
 40
0.25
 41
0.0
 71
     1
 72
     1
  1
5/8"
  7
SLDTEXTSTYLE0
 73
     1
 44
1.0
  0
MTEXT
  5
104
330
F2
100
AcDbEntity
  8
SLD-0
100
AcDbMText
 10
2.388858324
 20
14.6901870029
 30
0.0
 40
0.25
 41
0.0
 71
     1
 72
     1
  1
15mm
  7
SLDTEXTSTYLE0
 73
     1
 44
1.0
  0
MTEXT
  5
105
330
F2
100
AcDbEntity
  8
SLD-0
100
AcDbMText
 10
3.5356464829
 20
15.1416627074
 30
0.0
 40
0.25
 41
0.0
 71
     1
 72
     1
  1
 
  7
SLDTEXTSTYLE0
 73
     1
 44
1.0
  0
ENDBLK
  5
F4
330
F2
100
AcDbEntity
  8
0
100
AcDbBlockEnd
  0
BLOCK
  5
108
330
107
100
AcDbEntity
  8
0
100
AcDbBlockBegin
  2
_D_3
 70
     0
 10
0.0
 20
0.0
 30
0.0
  3
_D_3
  1

  0
SOLID
  5
10A
330
107
100
AcDbEntity
  8
SLD-0
100
AcDbTrace
 10
4.0301266669
 20
13.4657120389
 30
0.0
 11
3.9901266669
 21
13.2057120389
 31
0.0
 12
4.0701266669
 22
13.2057120389
 32
0.0
 13
4.0701266669
 23
13.2057120389
 33
0.0
  0
SOLID
  5
10B
330
107
100
AcDbEntity
  8
SLD-0
100
AcDbTrace
 10
4.0301266669
 20
11.5057120389
 30
0.0
 11
4.0701266669
 21
11.7657120389
 31
0.0
 12
3.9901266669
 22
11.7657120389
 32
0.0
 13
3.9901266669
 23
11.7657120389
 33
0.0
  0
LINE
  5
10C
330
107
100
AcDbEntity
  8
SLD-0
100
AcDbLine
 10
3.5329044708
 20
12.4838022776
 30
0.0
 11
3.4567325966
 21
12.4838022776
 31
0.0
  0
LINE
  5
10D
330
107
100
AcDbEntity
  8
SLD-0
100
AcDbLine
 10
3.4567325966
 20
12.4838022776
 30
0.0
 11
3.4567325966
 21
12.0869272657
 31
0.0
  0
LINE
  5
10E
330
107
100
AcDbEntity
  8
SLD-0
100
AcDbLine
 10
3.4567325966
 20
12.0869272657
 30
0.0
 11
3.5329044708
 21
12.0869272657
 31
0.0
  0
LINE
  5
10F
330
107
100
AcDbEntity
  8
SLD-0
100
AcDbLine
 10
4.5273489362
 20
12.4838022776
 30
0.0
 11
4.6035208105
 21
12.4838022776
 31
0.0
  0
LINE
  5
110
330
107
100
AcDbEntity
  8
SLD-0
100
AcDbLine
 10
4.6035208105
 20
12.4838022776
 30
0.0
 11
4.6035208105
 21
12.0869272657
 31
0.0
  0
LINE
  5
111
330
107
100
AcDbEntity
  8
SLD-0
100
AcDbLine
 10
4.6035208105
 20
12.0869272657
 30
0.0
 11
4.5273489362
 21
12.0869272657
 31
0.0
  0
LINE
  5
112
330
107
100
AcDbEntity
  8
SLD-0
100
AcDbLine
 10
4.8836675979
 20
13.4657120389
 30
0.0
 11
3.8301266669
 21
13.4657120389
 31
0.0
  0
LINE
  5
113
330
107
100
AcDbEntity
  8
SLD-0
100
AcDbLine
 10
4.8536675979
 20
11.5057120389
 30
0.0
 11
3.8301266669
 21
11.5057120389
 31
0.0
  0
LINE
  5
114
330
107
100
AcDbEntity
  8
SLD-0
100
AcDbLine
 10
4.0301266669
 20
13.4657120389
 30
0.0
 11
4.0301266669
 21
12.9352779821
 31
0.0
  0
LINE
  5
115
330
107
100
AcDbEntity
  8
SLD-0
100
AcDbLine
 10
4.0301266669
 20
11.5057120389
 30
0.0
 11
4.0301266669
 21
12.0361460956
 31
0.0
  0
MTEXT
  5
116
330
107
100
AcDbEntity
  8
SLD-0
100
AcDbMText
 10
3.288199611
 20
12.8577389352
 30
0.0
 40
0.25
 41
0.0
 71
     1
 72
     1
  1
 
  7
SLDTEXTSTYLE0
 73
     1
 44
1.0
  0
MTEXT
  5
117
330
107
100
AcDbEntity
  8
SLD-0
100
AcDbMText
 10
3.3976614182
 20
12.8539194722
 30
0.0
 40
0.25
 41
0.0
 71
     1
 72
     1
  1
1 15/16"
  7
SLDTEXTSTYLE0
 73
     1
 44
1.0
  0
MTEXT
  5
118
330
107
100
AcDbEntity
  8
SLD-0
100
AcDbMText
 10
3.5329044708
 20
12.4062632307
 30
0.0
 40
0.25
 41
0.0
 71
     1
 72
     1
  1
50mm
  7
SLDTEXTSTYLE0
 73
     1
 44
1.0
  0
MTEXT
  5
119
330
107
100
AcDbEntity
  8
SLD-0
100
AcDbMText
 10
4.6796926297
 20
12.8577389352
 30
0.0
 40
0.25
 41
0.0
 71
     1
 72
     1
  1
 
  7
SLDTEXTSTYLE0
 73
     1
 44
1.0
  0
ENDBLK
  5
109
330
107
100
AcDbEntity
  8
0
100
AcDbBlockEnd
  0
BLOCK
  5
11D
330
11C
100
AcDbEntity
  8
0
100
AcDbBlockBegin
  2
_D_4
 70
     0
 10
0.0
 20
0.0
 30
0.0
  3
_D_4
  1

  0
SOLID
  5
11F
330
11C
100
AcDbEntity
  8
SLD-0
100
AcDbTrace
 10
7.3736675979
 20
6.2399187964
 30
0.0
 11
7.6336675979
 21
6.1999187964
 31
0.0
 12
7.6336675979
 22
6.2799187964
 32
0.0
 13
7.6336675979
 23
6.2799187964
 33
0.0
  0
SOLID
  5
120
330
11C
100
AcDbEntity
  8
SLD-0
100
AcDbTrace
 10
5.1536675979
 20
6.2399187964
 30
0.0
 11
4.8936675979
 21
6.2799187964
 31
0.0
 12
4.8936675979
 22
6.1999187964
 32
0.0
 13
4.8936675979
 23
6.1999187964
 33
0.0
  0
LINE
  5
121
330
11C
100
AcDbEntity
  8
SLD-0
100
AcDbLine
 10
5.7664453835
 20
6.2399187597
 30
0.0
 11
5.6902735093
 21
6.2399187597
 31
0.0
  0
LINE
  5
122
330
11C
100
AcDbEntity
  8
SLD-0
100
AcDbLine
 10
5.6902735093
 20
6.2399187597
 30
0.0
 11
5.6902735093
 21
5.8430437478
 31
0.0
  0
LINE
  5
123
330
11C
100
AcDbEntity
  8
SLD-0
100
AcDbLine
 10
5.6902735093
 20
5.8430437478
 30
0.0
 11
5.7664453835
 21
5.8430437478
 31
0.0
  0
LINE
  5
124
330
11C
100
AcDbEntity
  8
SLD-0
100
AcDbLine
 10
6.760889849
 20
6.2399187597
 30
0.0
 11
6.8370617232
 21
6.2399187597
 31
0.0
  0
LINE
  5
125
330
11C
100
AcDbEntity
  8
SLD-0
100
AcDbLine
 10
6.8370617232
 20
6.2399187597
 30
0.0
 11
6.8370617232
 21
5.8430437478
 31
0.0
  0
LINE
  5
126
330
11C
100
AcDbEntity
  8
SLD-0
100
AcDbLine
 10
6.8370617232
 20
5.8430437478
 30
0.0
 11
6.760889849
 21
5.8430437478
 31
0.0
  0
LINE
  5
127
330
11C
100
AcDbEntity
  8
SLD-0
100
AcDbLine
 10
7.3736675979
 20
6.4607120389
 30
0.0
 11
7.3736675979
 21
6.0399187964
 31
0.0
  0
LINE
  5
128
330
11C
100
AcDbEntity
  8
SLD-0
100
AcDbLine
 10
5.1536675979
 20
8.6807120389
 30
0.0
 11
5.1536675979
 21
6.0399187964
 31
0.0
  0
LINE
  5
129
330
11C
100
AcDbEntity
  8
SLD-0
100
AcDbLine
 10
7.3736675979
 20
6.2399187964
 30
0.0
 11
7.8736675979
 21
6.2399187964
 31
0.0
  0
LINE
  5
12A
330
11C
100
AcDbEntity
  8
SLD-0
100
AcDbLine
 10
5.1536675979
 20
6.2399187964
 30
0.0
 11
4.6536675979
 21
6.2399187964
 31
0.0
  0
MTEXT
  5
12B
330
11C
100
AcDbEntity
  8
SLD-0
100
AcDbMText
 10
5.6274089147
 20
6.6100359727
 30
0.0
 40
0.25
 41
0.0
 71
     1
 72
     1
  1
%%c
  7
SLDTEXTSTYLE0
 73
     1
 44
1.0
  0
MTEXT
  5
12C
330
11C
100
AcDbEntity
  8
SLD-0
100
AcDbMText
 10
6.0044401559
 20
6.6100359727
 30
0.0
 40
0.25
 41
0.0
 71
     1
 72
     1
  1
2 1/4"
  7
SLDTEXTSTYLE0
 73
     1
 44
1.0
  0
MTEXT
  5
12D
330
11C
100
AcDbEntity
  8
SLD-0
100
AcDbMText
 10
5.7664453835
 20
6.1623797128
 30
0.0
 40
0.25
 41
0.0
 71
     1
 72
     1
  1
56mm
  7
SLDTEXTSTYLE0
 73
     1
 44
1.0
  0
ENDBLK
  5
11E
330
11C
100
AcDbEntity
  8
0
100
AcDbBlockEnd
  0
BLOCK
  5
13E
330
13D
100
AcDbEntity
  8
0
100
AcDbBlockBegin
  2
_D_5
 70
     0
 10
0.0
 20
0.0
 30
0.0
  3
_D_5
  1

  0
SOLID
  5
140
330
13D
100
AcDbEntity
  8
SLD-0
100
AcDbTrace
 10
4.0260281378
 20
5.1248117911
 30
0.0
 11
3.9860281378
 21
4.8648117911
 31
0.0
 12
4.0660281378
 22
4.8648117911
 32
0.0
 13
4.0660281378
 23
4.8648117911
 33
0.0
  0
SOLID
  5
141
330
13D
100
AcDbEntity
  8
SLD-0
100
AcDbTrace
 10
4.0260281378
 20
1.3288117911
 30
0.0
 11
4.0660281378
 21
1.5888117911
 31
0.0
 12
3.9860281378
 22
1.5888117911
 32
0.0
 13
3.9860281378
 23
1.5888117911
 33
0.0
  0
LINE
  5
142
330
13D
100
AcDbEntity
  8
SLD-0
100
AcDbLine
 10
3.4364448487
 20
3.2249020298
 30
0.0
 11
3.3602729745
 21
3.2249020298
 31
0.0
  0
LINE
  5
143
330
13D
100
AcDbEntity
  8
SLD-0
100
AcDbLine
 10
3.3602729745
 20
3.2249020298
 30
0.0
 11
3.3602729745
 21
2.8280270179
 31
0.0
  0
LINE
  5
144
330
13D
100
AcDbEntity
  8
SLD-0
100
AcDbLine
 10
3.3602729745
 20
2.8280270179
 30
0.0
 11
3.4364448487
 21
2.8280270179
 31
0.0
  0
LINE
  5
145
330
13D
100
AcDbEntity
  8
SLD-0
100
AcDbLine
 10
4.6156115002
 20
3.2249020298
 30
0.0
 11
4.6917833744
 21
3.2249020298
 31
0.0
  0
LINE
  5
146
330
13D
100
AcDbEntity
  8
SLD-0
100
AcDbLine
 10
4.6917833744
 20
3.2249020298
 30
0.0
 11
4.6917833744
 21
2.8280270179
 31
0.0
  0
LINE
  5
147
330
13D
100
AcDbEntity
  8
SLD-0
100
AcDbLine
 10
4.6917833744
 20
2.8280270179
 30
0.0
 11
4.6156115002
 21
2.8280270179
 31
0.0
  0
LINE
  5
148
330
13D
100
AcDbEntity
  8
SLD-0
100
AcDbLine
 10
5.0409781805
 20
5.1248117911
 30
0.0
 11
3.8260281378
 21
5.1248117911
 31
0.0
  0
LINE
  5
149
330
13D
100
AcDbEntity
  8
SLD-0
100
AcDbLine
 10
5.0409781805
 20
1.3288117911
 30
0.0
 11
3.8260281378
 21
1.3288117911
 31
0.0
  0
LINE
  5
14A
330
13D
100
AcDbEntity
  8
SLD-0
100
AcDbLine
 10
4.0260281378
 20
5.1248117911
 30
0.0
 11
4.0260281378
 21
3.6763777344
 31
0.0
  0
LINE
  5
14B
330
13D
100
AcDbEntity
  8
SLD-0
100
AcDbLine
 10
4.0260281378
 20
1.3288117911
 30
0.0
 11
4.0260281378
 21
2.7772458479
 31
0.0
  0
MTEXT
  5
14C
330
13D
100
AcDbEntity
  8
SLD-0
100
AcDbMText
 10
3.1917399889
 20
3.5988386874
 30
0.0
 40
0.25
 41
0.0
 71
     1
 72
     1
  1
 
  7
SLDTEXTSTYLE0
 73
     1
 44
1.0
  0
MTEXT
  5
14D
330
13D
100
AcDbEntity
  8
SLD-0
100
AcDbMText
 10
3.5782851118
 20
3.5950192245
 30
0.0
 40
0.25
 41
0.0
 71
     1
 72
     1
  1
4 3/4"
  7
SLDTEXTSTYLE0
 73
     1
 44
1.0
  0
MTEXT
  5
14E
330
13D
100
AcDbEntity
  8
SLD-0
100
AcDbMText
 10
3.4364448487
 20
3.1473629829
 30
0.0
 40
0.25
 41
0.0
 71
     1
 72
     1
  1
121mm
  7
SLDTEXTSTYLE0
 73
     1
 44
1.0
  0
MTEXT
  5
14F
330
13D
100
AcDbEntity
  8
SLD-0
100
AcDbMText
 10
4.7679551936
 20
3.5988386874
 30
0.0
 40
0.25
 41
0.0
 71
     1
 72
     1
  1
 
  7
SLDTEXTSTYLE0
 73
     1
 44
1.0
  0
ENDBLK
  5
13F
330
13D
100
AcDbEntity
  8
0
100
AcDbBlockEnd
  0
BLOCK
  5
15E
330
15D
100
AcDbEntity
  8
0
100
AcDbBlockBegin
  2
_D_6
 70
     0
 10
0.0
 20
0.0
 30
0.0
  3
_D_6
  1

  0
SOLID
  5
160
330
15D
100
AcDbEntity
  8
SLD-0
100
AcDbTrace
 10
9.4633815858
 20
3.3513774124
 30
0.0
 11
9.4233815858
 21
3.0913774124
 31
0.0
 12
9.5033815858
 22
3.0913774124
 32
0.0
 13
9.5033815858
 23
3.0913774124
 33
0.0
  0
SOLID
  5
161
330
15D
100
AcDbEntity
  8
SLD-0
100
AcDbTrace
 10
9.4633815858
 20
1.3113774124
 30
0.0
 11
9.5033815858
 21
1.5713774124
 31
0.0
 12
9.4233815858
 22
1.5713774124
 32
0.0
 13
9.4233815858
 23
1.5713774124
 33
0.0
  0
LINE
  5
162
330
15D
100
AcDbEntity
  8
SLD-0
100
AcDbLine
 10
8.9661593898
 20
2.3294676511
 30
0.0
 11
8.8899875156
 21
2.3294676511
 31
0.0
  0
LINE
  5
163
330
15D
100
AcDbEntity
  8
SLD-0
100
AcDbLine
 10
8.8899875156
 20
2.3294676511
 30
0.0
 11
8.8899875156
 21
1.9325926392
 31
0.0
  0
LINE
  5
164
330
15D
100
AcDbEntity
  8
SLD-0
100
AcDbLine
 10
8.8899875156
 20
1.9325926392
 30
0.0
 11
8.9661593898
 21
1.9325926392
 31
0.0
  0
LINE
  5
165
330
15D
100
AcDbEntity
  8
SLD-0
100
AcDbLine
 10
9.9606038552
 20
2.3294676511
 30
0.0
 11
10.0367757294
 21
2.3294676511
 31
0.0
  0
LINE
  5
166
330
15D
100
AcDbEntity
  8
SLD-0
100
AcDbLine
 10
10.0367757294
 20
2.3294676511
 30
0.0
 11
10.0367757294
 21
1.9325926392
 31
0.0
  0
LINE
  5
167
330
15D
100
AcDbEntity
  8
SLD-0
100
AcDbLine
 10
10.0367757294
 20
1.9325926392
 30
0.0
 11
9.9606038552
 21
1.9325926392
 31
0.0
  0
LINE
  5
168
330
15D
100
AcDbEntity
  8
SLD-0
100
AcDbLine
 10
10.4091719903
 20
3.3513774124
 30
0.0
 11
9.2633815858
 21
3.3513774124
 31
0.0
  0
LINE
  5
169
330
15D
100
AcDbEntity
  8
SLD-0
100
AcDbLine
 10
10.3251719903
 20
1.3113774124
 30
0.0
 11
9.2633815858
 21
1.3113774124
 31
0.0
  0
LINE
  5
16A
330
15D
100
AcDbEntity
  8
SLD-0
100
AcDbLine
 10
9.4633815858
 20
3.3513774124
 30
0.0
 11
9.4633815858
 21
2.7809433556
 31
0.0
  0
LINE
  5
16B
330
15D
100
AcDbEntity
  8
SLD-0
100
AcDbLine
 10
9.4633815858
 20
1.3113774124
 30
0.0
 11
9.4633815858
 21
1.8818114691
 31
0.0
  0
MTEXT
  5
16C
330
15D
100
AcDbEntity
  8
SLD-0
100
AcDbMText
 10
8.72145453
 20
2.7034043087
 30
0.0
 40
0.25
 41
0.0
 71
     1
 72
     1
  1
 
  7
SLDTEXTSTYLE0
 73
     1
 44
1.0
  0
MTEXT
  5
16D
330
15D
100
AcDbEntity
  8
SLD-0
100
AcDbMText
 10
8.9232774302
 20
2.6995848457
 30
0.0
 40
0.25
 41
0.0
 71
     1
 72
     1
  1
2 9/16"
  7
SLDTEXTSTYLE0
 73
     1
 44
1.0
  0
MTEXT
  5
16E
330
15D
100
AcDbEntity
  8
SLD-0
100
AcDbMText
 10
8.9661593898
 20
2.2519286042
 30
0.0
 40
0.25
 41
0.0
 71
     1
 72
     1
  1
65mm
  7
SLDTEXTSTYLE0
 73
     1
 44
1.0
  0
MTEXT
  5
16F
330
15D
100
AcDbEntity
  8
SLD-0
100
AcDbMText
 10
10.1129475487
 20
2.7034043087
 30
0.0
 40
0.25
 41
0.0
 71
     1
 72
     1
  1
 
  7
SLDTEXTSTYLE0
 73
     1
 44
1.0
  0
ENDBLK
  5
15F
330
15D
100
AcDbEntity
  8
0
100
AcDbBlockEnd
  0
BLOCK
  5
17F
330
17E
100
AcDbEntity
  8
0
100
AcDbBlockBegin
  2
_D_7
 70
     0
 10
0.0
 20
0.0
 30
0.0
  3
_D_7
  1

  0
SOLID
  5
181
330
17E
100
AcDbEntity
  8
SLD-0
100
AcDbTrace
 10
14.3607031826
 20
2.6488117911
 30
0.0
 11
14.4007031826
 21
2.9088117911
 31
0.0
 12
14.3207031826
 22
2.9088117911
 32
0.0
 13
14.3207031826
 23
2.9088117911
 33
0.0
  0
SOLID
  5
182
330
17E
100
AcDbEntity
  8
SLD-0
100
AcDbTrace
 10
14.3607031826
 20
1.3288117911
 30
0.0
 11
14.3207031826
 21
1.0688117911
 31
0.0
 12
14.4007031826
 22
1.0688117911
 32
0.0
 13
14.4007031826
 23
1.0688117911
 33
0.0
  0
LINE
  5
183
330
17E
100
AcDbEntity
  8
SLD-0
100
AcDbLine
 10
13.8634809865
 20
1.9869020298
 30
0.0
 11
13.7873091123
 21
1.9869020298
 31
0.0
  0
LINE
  5
184
330
17E
100
AcDbEntity
  8
SLD-0
100
AcDbLine
 10
13.7873091123
 20
1.9869020298
 30
0.0
 11
13.7873091123
 21
1.5900270179
 31
0.0
  0
LINE
  5
185
330
17E
100
AcDbEntity
  8
SLD-0
100
AcDbLine
 10
13.7873091123
 20
1.5900270179
 30
0.0
 11
13.8634809865
 21
1.5900270179
 31
0.0
  0
LINE
  5
186
330
17E
100
AcDbEntity
  8
SLD-0
100
AcDbLine
 10
14.857925452
 20
1.9869020298
 30
0.0
 11
14.9340973262
 21
1.9869020298
 31
0.0
  0
LINE
  5
187
330
17E
100
AcDbEntity
  8
SLD-0
100
AcDbLine
 10
14.9340973262
 20
1.9869020298
 30
0.0
 11
14.9340973262
 21
1.5900270179
 31
0.0
  0
LINE
  5
188
330
17E
100
AcDbEntity
  8
SLD-0
100
AcDbLine
 10
14.9340973262
 20
1.5900270179
 30
0.0
 11
14.857925452
 21
1.5900270179
 31
0.0
  0
LINE
  5
189
330
17E
100
AcDbEntity
  8
SLD-0
100
AcDbLine
 10
15.2551055521
 20
2.6488117911
 30
0.0
 11
14.1607031826
 21
2.6488117911
 31
0.0
  0
LINE
  5
18A
330
17E
100
AcDbEntity
  8
SLD-0
100
AcDbLine
 10
15.2311055521
 20
1.3288117911
 30
0.0
 11
14.1607031826
 21
1.3288117911
 31
0.0
  0
LINE
  5
18B
330
17E
100
AcDbEntity
  8
SLD-0
100
AcDbLine
 10
14.3607031826
 20
2.6488117911
 30
0.0
 11
14.3607031826
 21
3.1488117911
 31
0.0
  0
LINE
  5
18C
330
17E
100
AcDbEntity
  8
SLD-0
100
AcDbLine
 10
14.3607031826
 20
1.3288117911
 30
0.0
 11
14.3607031826
 21
0.8288117911
 31
0.0
  0
MTEXT
  5
18D
330
17E
100
AcDbEntity
  8
SLD-0
100
AcDbMText
 10
13.6187761267
 20
2.3608386874
 30
0.0
 40
0.25
 41
0.0
 71
     1
 72
     1
  1
 
  7
SLDTEXTSTYLE0
 73
     1
 44
1.0
  0
MTEXT
  5
18E
330
17E
100
AcDbEntity
  8
SLD-0
100
AcDbMText
 10
13.9129601566
 20
2.3570192245
 30
0.0
 40
0.25
 41
0.0
 71
     1
 72
     1
  1
1 5/8"
  7
SLDTEXTSTYLE0
 73
     1
 44
1.0
  0
MTEXT
  5
18F
330
17E
100
AcDbEntity
  8
SLD-0
100
AcDbMText
 10
13.8634809865
 20
1.9093629829
 30
0.0
 40
0.25
 41
0.0
 71
     1
 72
     1
  1
42mm
  7
SLDTEXTSTYLE0
 73
     1
 44
1.0
  0
MTEXT
  5
190
330
17E
100
AcDbEntity
  8
SLD-0
100
AcDbMText
 10
15.0102691454
 20
2.3608386874
 30
0.0
 40
0.25
 41
0.0
 71
     1
 72
     1
  1
 
  7
SLDTEXTSTYLE0
 73
     1
 44
1.0
  0
ENDBLK
  5
180
330
17E
100
AcDbEntity
  8
0
100
AcDbBlockEnd
  0
ENDSEC
  0
SECTION
  2
ENTITIES
  0
LINE
  5
87
330
1F
100
AcDbEntity
  8
0
  6
Continuous
 62
     7
370
    25
100
AcDbLine
 10
5.1536675979
 20
11.1878003424
 30
0.0
 11
5.1536675979
 21
8.9807120389
 31
0.0
  0
LINE
  5
88
330
1F
100
AcDbEntity
  8
0
  6
Continuous
 62
     7
370
    25
100
AcDbLine
 10
5.1536675979
 20
11.5057120389
 30
0.0
 11
5.1536675979
 21
11.3228436657
 31
0.0
  0
LINE
  5
89
330
1F
100
AcDbEntity
  8
0
  6
Continuous
 62
     7
370
    25
100
AcDbLine
 10
7.3736675979
 20
6.7607120389
 30
0.0
 11
7.3736675979
 21
11.5057120389
 31
0.0
  0
LINE
  5
8A
330
1F
100
AcDbEntity
  8
0
  6
Continuous
 62
     7
370
    25
100
AcDbLine
 10
6.3036675979
 20
14.2153071707
 30
0.0
 11
6.3036675979
 21
14.7630068813
 31
0.0
  0
LINE
  5
8B
330
1F
100
AcDbEntity
  8
0
  6
Continuous
 62
     7
370
    25
100
AcDbLine
 10
6.2236675979
 20
14.7630068813
 30
0.0
 11
6.2236675979
 21
14.2153071707
 31
0.0
  0
LINE
  5
8C
330
1F
100
AcDbEntity
  8
0
  6
Continuous
 62
     7
370
    25
100
AcDbLine
 10
6.2236675979
 20
14.2153071707
 30
0.0
 11
6.2236675979
 21
14.0978095214
 31
0.0
  0
LINE
  5
8D
330
1F
100
AcDbEntity
  8
0
  6
Continuous
 62
     7
370
    25
100
AcDbLine
 10
6.3036675979
 20
14.0978095214
 30
0.0
 11
6.3036675979
 21
14.2153071707
 31
0.0
  0
LINE
  5
8E
330
1F
100
AcDbEntity
  8
0
  6
Continuous
 62
     7
370
    25
100
AcDbLine
 10
6.2236675979
 20
14.0978095214
 30
0.0
 11
6.2236675979
 21
14.0657120389
 31
0.0
  0
LINE
  5
8F
330
1F
100
AcDbEntity
  8
0
  6
Continuous
 62
     7
370
    25
100
AcDbLine
 10
6.3036675979
 20
14.0657120389
 30
0.0
 11
6.3036675979
 21
14.0978095214
 31
0.0
  0
LINE
  5
90
330
1F
100
AcDbEntity
  8
0
  6
Continuous
 62
     7
370
    25
100
AcDbLine
 10
6.7586675979
 20
14.0357120389
 30
0.0
 11
6.7286675979
 21
14.0657120389
 31
0.0
  0
LINE
  5
91
330
1F
100
AcDbEntity
  8
0
  6
Continuous
 62
     7
370
    25
100
AcDbLine
 10
5.7986675979
 20
14.0657120389
 30
0.0
 11
5.7686675979
 21
14.0357120389
 31
0.0
  0
LINE
  5
92
330
1F
100
AcDbEntity
  8
0
  6
Continuous
 62
     7
370
    25
100
AcDbLine
 10
6.7586675979
 20
13.6007120389
 30
0.0
 11
6.7586675979
 21
14.0357120389
 31
0.0
  0
LINE
  5
93
330
1F
100
AcDbEntity
  8
0
  6
Continuous
 62
     7
370
    25
100
AcDbLine
 10
5.7686675979
 20
14.0357120389
 30
0.0
 11
5.7686675979
 21
13.6007120389
 31
0.0
  0
ARC
  5
94
330
1F
100
AcDbEntity
  8
0
  6
Continuous
 62
     7
370
    25
100
AcDbCircle
 10
6.7486675979
 20
13.6007120389
 30
0.0
 40
0.0100000000000007
100
AcDbArc
 50
270.0
 51
0.0
  0
ARC
  5
95
330
1F
100
AcDbEntity
  8
0
  6
Continuous
 62
     7
370
    25
100
AcDbCircle
 10
5.7786675979
 20
13.6007120389
 30
0.0
 40
0.0100000000000016
100
AcDbArc
 50
180.0
 51
270.0
  0
LINE
  5
96
330
1F
100
AcDbEntity
  8
0
  6
Continuous
 62
     7
370
    25
100
AcDbLine
 10
6.4924175979
 20
15.6177120389
 30
0.0
 11
6.4924175979
 21
16.1177120389
 31
0.0
  0
LINE
  5
97
330
1F
100
AcDbEntity
  8
0
  6
Continuous
 62
     7
370
    25
100
AcDbLine
 10
6.0761675979
 20
16.3677120389
 30
0.0
 11
6.0761675979
 21
14.0657120389
 31
0.0
  0
LINE
  5
98
330
1F
100
AcDbEntity
  8
0
  6
Continuous
 62
     7
370
    25
100
AcDbLine
 10
6.4511675979
 20
14.0657120389
 30
0.0
 11
6.4511675979
 21
15.6177120389
 31
0.0
  0
LINE
  5
99
330
1F
100
AcDbEntity
  8
0
  6
Continuous
 62
     7
370
    25
100
AcDbLine
 10
6.4511675979
 20
16.1177120389
 30
0.0
 11
6.4511675979
 21
16.3677120389
 31
0.0
  0
LINE
  5
9A
330
1F
100
AcDbEntity
  8
0
  6
Continuous
 62
     7
370
    25
100
AcDbLine
 10
5.7686675979
 20
13.5907120389
 30
0.0
 11
5.7686675979
 21
13.4657120389
 31
0.0
  0
LINE
  5
9B
330
1F
100
AcDbEntity
  8
0
  6
Continuous
 62
     7
370
    25
100
AcDbLine
 10
6.7586675979
 20
13.4657120389
 30
0.0
 11
6.7586675979
 21
13.5907120389
 31
0.0
  0
LINE
  5
9C
330
1F
100
AcDbEntity
  8
0
  6
Continuous
 62
     7
370
    25
100
AcDbLine
 10
5.1536675979
 20
13.4357120389
 30
0.0
 11
5.1536675979
 21
11.5157120389
 31
0.0
  0
LINE
  5
9D
330
1F
100
AcDbEntity
  8
0
  6
Continuous
 62
     7
370
    25
100
AcDbLine
 10
7.3736675979
 20
11.5157120389
 30
0.0
 11
7.3736675979
 21
13.4357120389
 31
0.0
  0
LINE
  5
9E
330
1F
100
AcDbEntity
  8
0
  6
Continuous
 62
     7
370
    25
100
AcDbLine
 10
7.3736675979
 20
13.4357120389
 30
0.0
 11
7.3436675979
 21
13.4657120389
 31
0.0
  0
LINE
  5
9F
330
1F
100
AcDbEntity
  8
0
  6
Continuous
 62
     7
370
    25
100
AcDbLine
 10
5.1836675979
 20
13.4657120389
 30
0.0
 11
5.1536675979
 21
13.4357120389
 31
0.0
  0
ARC
  5
A0
330
1F
100
AcDbEntity
  8
0
  6
Continuous
 62
     7
370
    25
100
AcDbCircle
 10
7.3636675979
 20
11.5157120389
 30
0.0
 40
0.0100000000000016
100
AcDbArc
 50
270.0000000001
 51
360.0
  0
ARC
  5
A1
330
1F
100
AcDbEntity
  8
0
  6
Continuous
 62
     7
370
    25
100
AcDbCircle
 10
5.1636675979
 20
11.5157120389
 30
0.0
 40
0.0099999999999998
100
AcDbArc
 50
180.0
 51
269.9999999999
  0
LINE
  5
A2
330
1F
100
AcDbEntity
  8
0
  6
Continuous
 62
     7
370
    25
100
AcDbLine
 10
7.3736675979
 20
11.5057120389
 30
0.0
 11
5.1536675979
 21
11.5057120389
 31
0.0
  0
SPLINE
  5
A3
330
1F
100
AcDbEntity
  8
0
  6
Continuous
 62
     7
370
    25
100
AcDbSpline
210
0.0
220
0.0
230
1.0
 70
     8
 71
     3
 72
    17
 73
    13
 74
     0
 42
0.00000001
 43
0.00000001
 40
0.0
 40
0.0
 40
0.0
 40
0.0
 40
0.0367829129270417
 40
0.1439469936102684
 40
0.2511849014537418
 40
0.3585983106853305
 40
0.4660155695098229
 40
0.5732581291689304
 40
0.6804203613538359
 40
0.7877217257819912
 40
0.8951646959147086
 40
1.0
 40
1.0
 40
1.0
 40
1.0
 10
5.153720306676875
 20
11.32284366571409
 30
0.0
 10
5.153705872741346
 20
11.3230817875476
 30
0.0
 10
5.153649386686819
 20
11.32401365833543
 30
0.0
 10
5.1540341202537
 20
11.31772299573833
 30
0.0
 10
5.154712001543404
 20
11.30463003484914
 30
0.0
 10
5.155419616332156
 20
11.28549910640023
 30
0.0
 10
5.155808327123412
 20
11.26313740521056
 30
0.0
 10
5.155718100884508
 20
11.23992864452792
 30
0.0
 10
5.155183985320077
 20
11.21847935914795
 30
0.0
 10
5.154451894103321
 20
11.20136201976016
 30
0.0
 10
5.153802987966347
 20
11.18986274186975
 30
0.0
 10
5.153715883154518
 20
11.18848215575925
 30
0.0
 10
5.153672865754509
 20
11.18780034239307
 30
0.0
  0
SPLINE
  5
A4
330
1F
100
AcDbEntity
  8
0
  6
Continuous
 62
     7
370
    25
100
AcDbSpline
210
0.0
220
0.0
230
1.0
 70
    11
 71
     3
 72
    26
 73
    22
 74
     0
 42
0.00000001
 43
0.00000001
 40
0.0
 40
0.0
 40
0.0
 40
0.0
 40
0.0536200607839432
 40
0.1072376822530341
 40
0.160918588366121
 40
0.2146408563604131
 40
0.2682944511770223
 40
0.3218767096526463
 40
0.375495881858669
 40
0.4292028051159858
 40
0.48291165317759
 40
0.5365331513008992
 40
0.5901144855235992
 40
0.6437653861511304
 40
0.6974870899191818
 40
0.7511704282073671
 40
0.8047662990509751
 40
0.8583618717573691
 40
0.9120446244252638
 40
0.9657664953707789
 40
1.0
 40
1.0
 40
1.0
 40
1.0
 10
6.75873545005005
 20
11.25571203887306
 30
0.0
 10
6.759408994562612
 20
11.26335051307016
 30
0.0
 10
6.760756052946458
 20
11.27862711397048
 30
0.0
 10
6.771215390498237
 20
11.2989641120307
 30
0.0
 10
6.786509205406703
 20
11.31444346464892
 30
0.0
 10
6.805431127647696
 20
11.32331034727343
 30
0.0
 10
6.825578928471272
 20
11.3245537501052
 30
0.0
 10
6.844704666024619
 20
11.31805154464316
 30
0.0
 10
6.860729109994906
 20
11.30454194082812
 30
0.0
 10
6.871974409945647
 20
11.28552225588643
 30
0.0
 10
6.877269061596671
 20
11.2631329803627
 30
0.0
 10
6.876078373837764
 20
11.2399232485226
 30
0.0
 10
6.868538761353991
 20
11.21850535553027
 30
0.0
 10
6.855406668352116
 20
11.20126322631178
 30
0.0
 10
6.838021859112157
 20
11.19014121259012
 30
0.0
 10
6.818248945578128
 20
11.18641351727527
 30
0.0
 10
6.798306756197551
 20
11.19048961574453
 30
0.0
 10
6.780434307384845
 20
11.20189782219476
 30
0.0
 10
6.766857580874338
 20
11.21936001526871
 30
0.0
 10
6.759729342232576
 20
11.23836261234552
 30
0.0
 10
6.759013907570691
 20
11.25085127190021
 30
0.0
 10
6.75873545005005
 20
11.25571203887306
 30
0.0
  0
LINE
  5
A5
330
1F
100
AcDbEntity
  8
0
  6
Continuous
 62
     7
370
    25
100
AcDbLine
 10
7.3736675979
 20
6.7607120389
 30
0.0
 11
5.1536675979
 21
8.9807120389
 31
0.0
  0
LINE
  5
A6
330
1F
100
AcDbEntity
  8
0
  6
Continuous
 62
     7
370
    25
100
AcDbLine
 10
6.2636675979
 20
14.0357120389
 30
0.0
 11
5.7686675979
 21
14.0357120389
 31
0.0
  0
LINE
  5
A7
330
1F
100
AcDbEntity
  8
0
  6
Continuous
 62
     7
370
    25
100
AcDbLine
 10
6.7586675979
 20
14.0357120389
 30
0.0
 11
6.2636675979
 21
14.0357120389
 31
0.0
  0
LINE
  5
A8
330
1F
100
AcDbEntity
  8
0
  6
Continuous
 62
     7
370
    25
100
AcDbLine
 10
6.2636675979
 20
14.0657120389
 30
0.0
 11
6.7286675979
 21
14.0657120389
 31
0.0
  0
LINE
  5
A9
330
1F
100
AcDbEntity
  8
0
  6
Continuous
 62
     7
370
    25
100
AcDbLine
 10
5.7986675979
 20
14.0657120389
 30
0.0
 11
6.2636675979
 21
14.0657120389
 31
0.0
  0
LINE
  5
AA
330
1F
100
AcDbEntity
  8
0
  6
Continuous
 62
     7
370
    25
100
AcDbLine
 10
6.3574175979
 20
15.6177120389
 30
0.0
 11
6.2385050979
 21
15.6177120389
 31
0.0
  0
LINE
  5
AB
330
1F
100
AcDbEntity
  8
0
  6
Continuous
 62
     7
370
    25
100
AcDbLine
 10
6.4924175979
 20
15.6177120389
 30
0.0
 11
6.3574175979
 21
15.6177120389
 31
0.0
  0
LINE
  5
AC
330
1F
100
AcDbEntity
  8
0
  6
Continuous
 62
     7
370
    25
100
AcDbLine
 10
6.3574175979
 20
16.1177120389
 30
0.0
 11
6.2385050979
 21
16.1177120389
 31
0.0
  0
LINE
  5
AD
330
1F
100
AcDbEntity
  8
0
  6
Continuous
 62
     7
370
    25
100
AcDbLine
 10
6.4924175979
 20
16.1177120389
 30
0.0
 11
6.3574175979
 21
16.1177120389
 31
0.0
  0
LINE
  5
AE
330
1F
100
AcDbEntity
  8
0
  6
Continuous
 62
     7
370
    25
100
AcDbLine
 10
6.2602727997
 20
14.8115616146
 30
0.0
 11
6.2602727997
 21
15.6177120389
 31
0.0
  0
LINE
  5
AF
330
1F
100
AcDbEntity
  8
0
  6
Continuous
 62
     7
370
    25
100
AcDbLine
 10
6.2602727997
 20
16.1177120389
 30
0.0
 11
6.2602727997
 21
16.3677120389
 31
0.0
  0
LINE
  5
B0
330
1F
100
AcDbEntity
  8
0
  6
Continuous
 62
     7
370
    25
100
AcDbLine
 10
6.2602727997
 20
16.3677120389
 30
0.0
 11
6.0761675979
 21
16.3677120389
 31
0.0
  0
LINE
  5
B1
330
1F
100
AcDbEntity
  8
0
  6
Continuous
 62
     7
370
    25
100
AcDbLine
 10
6.2670623961
 20
14.8115616146
 30
0.0
 11
6.2670623961
 21
15.6177120389
 31
0.0
  0
LINE
  5
B2
330
1F
100
AcDbEntity
  8
0
  6
Continuous
 62
     7
370
    25
100
AcDbLine
 10
6.2670623961
 20
16.1177120389
 30
0.0
 11
6.2670623961
 21
16.3677120389
 31
0.0
  0
LINE
  5
B3
330
1F
100
AcDbEntity
  8
0
  6
Continuous
 62
     7
370
    25
100
AcDbLine
 10
6.4511675979
 20
16.3677120389
 30
0.0
 11
6.2670623961
 21
16.3677120389
 31
0.0
  0
LINE
  5
B4
330
1F
100
AcDbEntity
  8
0
  6
Continuous
 62
     7
370
    25
100
AcDbLine
 10
6.2670623961
 20
16.3677120389
 30
0.0
 11
6.2602727997
 21
16.3677120389
 31
0.0
  0
LINE
  5
B5
330
1F
100
AcDbEntity
  8
0
  6
Continuous
 62
     7
370
    25
100
AcDbLine
 10
6.7586675979
 20
13.5907120389
 30
0.0
 11
5.7686675979
 21
13.5907120389
 31
0.0
  0
LWPOLYLINE
  5
B6
330
1F
100
AcDbEntity
  8
0
  6
Continuous
 62
     7
370
    25
100
AcDbPolyline
 90
       17
 70
   128
 43
0.0
 10
6.7637615873
 20
11.2557120389
 10
6.7679410585
 20
11.2314499093
 10
6.7798431855
 20
11.2108814689
 10
6.7976559773
 20
11.1971380765
 10
6.8186675979
 20
11.1923120389
 10
6.8396792185
 20
11.1971380765
 10
6.8574920103
 20
11.2108814689
 10
6.8693941373
 20
11.2314499093
 10
6.8735736085
 20
11.2557120389
 10
6.8693941373
 20
11.2799741685
 10
6.8574920103
 20
11.3005426088
 10
6.8396792185
 20
11.3142860012
 10
6.8186675979
 20
11.3191120389
 10
6.7976559773
 20
11.3142860012
 10
6.7798431855
 20
11.3005426088
 10
6.7679410585
 20
11.2799741685
 10
6.7637615873
 20
11.2557120389
  0
LINE
  5
B7
330
1F
100
AcDbEntity
  8
0
  6
Continuous
 62
     7
370
    25
100
AcDbLine
 10
6.8381675979
 20
11.2167120389
 30
0.0
 11
6.8576675979
 21
11.2557120389
 31
0.0
  0
LINE
  5
B8
330
1F
100
AcDbEntity
  8
0
  6
Continuous
 62
     7
370
    25
100
AcDbLine
 10
6.8381675979
 20
11.2947120389
 30
0.0
 11
6.8576675979
 21
11.2557120389
 31
0.0
  0
LINE
  5
B9
330
1F
100
AcDbEntity
  8
0
  6
Continuous
 62
     7
370
    25
100
AcDbLine
 10
6.7991675979
 20
11.2947120389
 30
0.0
 11
6.8381675979
 21
11.2947120389
 31
0.0
  0
LINE
  5
BA
330
1F
100
AcDbEntity
  8
0
  6
Continuous
 62
     7
370
    25
100
AcDbLine
 10
6.7991675979
 20
11.2947120389
 30
0.0
 11
6.7796675979
 21
11.2557120389
 31
0.0
  0
LINE
  5
BB
330
1F
100
AcDbEntity
  8
0
  6
Continuous
 62
     7
370
    25
100
AcDbLine
 10
6.7991675979
 20
11.2167120389
 30
0.0
 11
6.7796675979
 21
11.2557120389
 31
0.0
  0
LINE
  5
BC
330
1F
100
AcDbEntity
  8
0
  6
Continuous
 62
     7
370
    25
100
AcDbLine
 10
6.7991675979
 20
11.2167120389
 30
0.0
 11
6.8381675979
 21
11.2167120389
 31
0.0
  0
LINE
  5
BD
330
1F
100
AcDbEntity
  8
0
  6
Continuous
 62
     7
370
    25
100
AcDbLine
 10
6.8126675979
 20
11.2557120389
 30
0.0
 11
6.8576675979
 21
11.2557120389
 31
0.0
  0
LINE
  5
BE
330
1F
100
AcDbEntity
  8
0
  6
Continuous
 62
     7
370
    25
100
AcDbLine
 10
6.7961675979
 20
11.2887120389
 30
0.0
 11
6.8126675979
 21
11.2557120389
 31
0.0
  0
LINE
  5
BF
330
1F
100
AcDbEntity
  8
0
  6
Continuous
 62
     7
370
    25
100
AcDbLine
 10
6.7961675979
 20
11.2227120389
 30
0.0
 11
6.8126675979
 21
11.2557120389
 31
0.0
  0
LINE
  5
C0
330
1F
100
AcDbEntity
  8
0
  6
Continuous
 62
     7
370
    25
100
AcDbLine
 10
5.1536675979
 20
11.1923120389
 30
0.0
 11
5.1536675979
 21
11.3191120389
 31
0.0
  0
LINE
  5
C1
330
1F
100
AcDbEntity
  8
0
  6
Continuous
 62
     7
370
    25
100
AcDbLine
 10
7.3736675979
 20
13.4357120389
 30
0.0
 11
5.1536675979
 21
13.4357120389
 31
0.0
  0
LINE
  5
C2
330
1F
100
AcDbEntity
  8
0
  6
Continuous
 62
     7
370
    25
100
AcDbLine
 10
5.1836675979
 20
13.4657120389
 30
0.0
 11
7.3436675979
 21
13.4657120389
 31
0.0
  0
LWPOLYLINE
  5
C3
330
1F
100
AcDbEntity
  8
0
  6
Continuous
 62
     7
370
    25
100
AcDbPolyline
 90
       10
 70
   128
 43
0.0
 10
6.2236675979
 20
14.2153071707
 10
6.2267124166
 20
14.203316663
 10
6.2353833267
 20
14.1931516015
 10
6.2483602606
 20
14.1863595245
 10
6.2636675979
 20
14.1839744642
 10
6.2789749352
 20
14.1863595245
 10
6.2919518692
 20
14.1931516015
 10
6.3006227792
 20
14.203316663
 10
6.3036675979
 20
14.2153071707
 10
6.3036675979
 20
14.2153071707
  0
LINE
  5
C4
330
1F
100
AcDbEntity
  8
0
  6
Continuous
 62
     7
370
    25
100
AcDbLine
 10
6.2236675979
 20
14.0978095214
 30
0.0
 11
6.3036675979
 21
14.0978095214
 31
0.0
  0
LINE
  5
C5
330
1F
100
AcDbEntity
  8
0
  6
Continuous
 62
     7
370
    25
100
AcDbLine
 10
5.7686675979
 20
13.6007120389
 30
0.0
 11
6.7586675979
 21
13.6007120389
 31
0.0
  0
LINE
  5
C6
330
1F
100
AcDbEntity
  8
0
  6
Continuous
 62
     7
370
    25
100
AcDbLine
 10
5.1536675979
 20
11.5157120389
 30
0.0
 11
7.3736675979
 21
11.5157120389
 31
0.0
  0
LINE
  5
C7
330
1F
100
AcDbEntity
  8
VP
100
AcDbLine
 10
7.3736675979
 20
6.7607120389
 30
0.0
 11
6.7629300107
 21
6.7607120389
 31
0.0
  0
DIMENSION
  5
C8
330
1F
100
AcDbEntity
  8
SLD-0
100
AcDbDimension
  2
_D
 10
9.0539672042
 20
13.4657120389
 30
0.0
 11
9.0539672042
 21
10.1132120389
 31
0.0
 70
   160
  1
<>
 71
     2
 42
-1.0
  3
SLDDIMSTYLE0
100
AcDbAlignedDimension
 13
7.3736675979
 23
6.7607120389
 33
0.0
 14
7.3436675979
 24
13.4657120389
 34
0.0
 50
90.0
100
AcDbRotatedDimension
  0
DIMENSION
  5
DD
330
1F
100
AcDbEntity
  8
SLD-0
100
AcDbDimension
  2
_D_1
 10
6.7586675979
 20
14.7696358111
 30
0.0
 11
8.8531757275
 21
14.7696358111
 31
0.0
 70
   160
  1
%%c<>
 71
     2
 42
-1.0
  3
SLDDIMSTYLE1
100
AcDbAlignedDimension
 13
5.7686675979
 23
14.0357120389
 33
0.0
 14
6.7586675979
 24
14.0357120389
 34
0.0
100
AcDbRotatedDimension
  0
DIMENSION
  5
F1
330
1F
100
AcDbEntity
  8
SLD-0
100
AcDbDimension
  2
_D_2
 10
4.0301266669
 20
13.4657120389
 30
0.0
 11
4.0301266669
 21
14.7696358111
 31
0.0
 70
   160
  1
<>
 71
     2
 42
-1.0
  3
SLDDIMSTYLE0
100
AcDbAlignedDimension
 13
5.7986675979
 23
14.0657120389
 33
0.0
 14
5.1836675979
 24
13.4657120389
 34
0.0
 50
90.0
100
AcDbRotatedDimension
  0
DIMENSION
  5
106
330
1F
100
AcDbEntity
  8
SLD-0
100
AcDbDimension
  2
_D_3
 10
4.0301266669
 20
11.5057120389
 30
0.0
 11
4.0301266669
 21
12.4857120389
 31
0.0
 70
   160
  1
<>
 71
     2
 42
-1.0
  3
SLDDIMSTYLE0
100
AcDbAlignedDimension
 13
5.1836675979
 23
13.4657120389
 33
0.0
 14
5.1536675979
 24
11.5057120389
 34
0.0
 50
90.0
100
AcDbRotatedDimension
  0
DIMENSION
  5
11A
330
1F
100
AcDbEntity
  8
SLD-0
100
AcDbDimension
  2
_D_4
 10
5.1536675979
 20
6.2399187964
 30
0.0
 11
6.2636675979
 21
6.2399187964
 31
0.0
 70
   160
  1
%%c<>
 71
     2
 42
-1.0
  3
SLDDIMSTYLE2
100
AcDbAlignedDimension
 13
7.3736675979
 23
6.7607120389
 33
0.0
 14
5.1536675979
 24
8.9807120389
 34
0.0
100
AcDbRotatedDimension
  0
MTEXT
  5
12E
330
1F
100
AcDbEntity
  8
SLD-0
100
AcDbMText
 10
2.2669454545
 20
16.4249594202
 30
0.0
 40
0.25
 41
0.0
 71
     1
 72
     1
  1
SPECIFY: 5FT OR
  7
SLDTEXTSTYLE0
 73
     1
 44
1.0
  0
MTEXT
  5
12F
330
1F
100
AcDbEntity
  8
SLD-0
100
AcDbMText
 10
2.2669454545
 20
16.0962192712
 30
0.0
 40
0.25
 41
0.0
 71
     1
 72
     1
  1
25FT LEADS
  7
SLDTEXTSTYLE0
 73
     1
 44
1.0
  0
LEADER
  5
131
330
1F
100
AcDbEntity
  8
SLD-0
100
AcDbLeader
  3
SLDDIMSTYLE3
 76
     3
 10
6.0761675979
 20
16.1401090906
 30
0.0
 10
5.0555265956
 20
16.1335658563
 30
0.0
 10
4.8055265956
 20
16.1335658563
 30
0.0
  0
LINE
  5
132
330
1F
100
AcDbEntity
  8
0
  6
Continuous
 62
     7
370
    25
100
AcDbLine
 10
7.1169781805
 20
1.5831411483
 30
0.0
 11
7.1169781805
 21
3.3488117911
 31
0.0
  0
LINE
  5
133
330
1F
100
AcDbEntity
  8
0
  6
Continuous
 62
     7
370
    25
100
AcDbLine
 10
7.1169781805
 20
1.3288117911
 30
0.0
 11
7.1169781805
 21
1.4751064896
 31
0.0
  0
LINE
  5
134
330
1F
100
AcDbEntity
  8
0
  6
Continuous
 62
     7
370
    25
100
AcDbLine
 10
5.3409781805
 20
5.1248117911
 30
0.0
 11
5.3409781805
 21
1.3288117911
 31
0.0
  0
LINE
  5
135
330
1F
100
AcDbEntity
  8
0
  6
Continuous
 62
     7
370
    25
100
AcDbLine
 10
5.3409781805
 20
5.1248117911
 30
0.0
 11
7.1169781805
 21
3.3488117911
 31
0.0
  0
LINE
  5
136
330
1F
100
AcDbEntity
  8
0
  6
Continuous
 62
     7
370
    25
100
AcDbLine
 10
5.3409781805
 20
1.3288117911
 30
0.0
 11
7.1169781805
 21
1.3288117911
 31
0.0
  0
SPLINE
  5
137
330
1F
100
AcDbEntity
  8
0
  6
Continuous
 62
     7
370
    25
100
AcDbSpline
210
0.0
220
0.0
230
1.0
 70
     8
 71
     3
 72
    17
 73
    13
 74
     0
 42
0.00000001
 43
0.00000001
 40
0.0
 40
0.0
 40
0.0
 40
0.0
 40
0.0367829129270413
 40
0.143946993610268
 40
0.2511849014537413
 40
0.35859831068533
 40
0.4660155695098223
 40
0.5732581291689298
 40
0.6804203613538353
 40
0.7877217257819904
 40
0.8951646959147086
 40
1.0
 40
1.0
 40
1.0
 40
1.0
 10
7.116936013493757
 20
1.47510648964021
 30
0.0
 10
7.116947560642179
 20
1.474915992173394
 30
0.0
 10
7.116992749485801
 20
1.474170495543128
 30
0.0
 10
7.116684962632298
 20
1.479203025620816
 30
0.0
 10
7.116142657600534
 20
1.489677394332168
 30
0.0
 10
7.115576565769532
 20
1.504982137091293
 30
0.0
 10
7.115265597136528
 20
1.522871498043033
 30
0.0
 10
7.11533777812765
 20
1.541438506589141
 30
0.0
 10
7.115765070579195
 20
1.558597934893115
 30
0.0
 10
7.1163507435526
 20
1.572291806403348
 30
0.0
 10
7.116869868462179
 20
1.581491228715676
 30
0.0
 10
7.116939552311642
 20
1.58259569760408
 30
0.0
 10
7.11697396623165
 20
1.583141148297022
 30
0.0
  0
SPLINE
  5
138
330
1F
100
AcDbEntity
  8
0
  6
Continuous
 62
     7
370
    25
100
AcDbSpline
210
0.0
220
0.0
230
1.0
 70
    11
 71
     3
 72
    56
 73
    52
 74
     0
 42
0.00000001
 43
0.00000001
 40
0.0
 40
0.0
 40
0.0
 40
0.0
 40
0.0312500000000004
 40
0.0312500000000004
 40
0.0625000000000008
 40
0.0625000000000008
 40
0.0937500000000012
 40
0.0937500000000012
 40
0.1250000000000016
 40
0.1250000000000016
 40
0.1875000000000021
 40
0.1875000000000021
 40
0.2500000000000027
 40
0.2500000000000027
 40
0.2812500000000027
 40
0.2812500000000027
 40
0.3125000000000027
 40
0.3125000000000027
 40
0.3437500000000027
 40
0.3437500000000027
 40
0.3750000000000027
 40
0.3750000000000027
 40
0.4062500000000028
 40
0.4062500000000028
 40
0.4375000000000028
 40
0.4375000000000028
 40
0.4687500000000028
 40
0.4687500000000028
 40
0.5000000000000028
 40
0.5000000000000028
 40
0.5625000000000028
 40
0.5625000000000028
 40
0.6250000000000029
 40
0.6250000000000029
 40
0.6562500000000026
 40
0.6562500000000026
 40
0.6875000000000023
 40
0.6875000000000023
 40
0.7187500000000021
 40
0.7187500000000021
 40
0.7500000000000018
 40
0.7500000000000018
 40
0.8125000000000013
 40
0.8125000000000013
 40
0.8437500000000011
 40
0.8437500000000011
 40
0.8750000000000009
 40
0.8750000000000009
 40
0.9375000000000006
 40
0.9375000000000006
 40
1.0
 40
1.0
 40
1.0
 40
1.0
 10
5.832923898795216
 20
1.52881179111303
 30
0.0
 10
5.832923898795216
 20
1.525216962506648
 30
0.0
 10
5.832607418766416
 20
1.521682374493781
 30
0.0
 10
5.831368735905889
 20
1.514728700704834
 30
0.0
 10
5.830431468050785
 20
1.511273536510918
 30
0.0
 10
5.827989124559643
 20
1.504685991453478
 30
0.0
 10
5.826496168552107
 20
1.501561735437835
 30
0.0
 10
5.822976692778083
 20
1.495648947381733
 30
0.0
 10
5.820932022529901
 20
1.492850063930129
 30
0.0
 10
5.814250356432846
 20
1.485324562473741
 30
0.0
 10
5.808886563907016
 20
1.481271790162416
 30
0.0
 10
5.797395851207663
 20
1.475845122799857
 30
0.0
 10
5.791150022203836
 20
1.474415608734702
 30
0.0
 10
5.781930194004837
 20
1.474409894058623
 30
0.0
 10
5.778819486271046
 20
1.474763090576491
 30
0.0
 10
5.772818419347985
 20
1.47615100046761
 30
0.0
 10
5.769911876606775
 20
1.47717792213071
 30
0.0
 10
5.764284310205796
 20
1.479901619150948
 30
0.0
 10
5.76157265008445
 20
1.481604520068994
 30
0.0
 10
5.756567990743024
 20
1.485541305400186
 30
0.0
 10
5.754242486814402
 20
1.48778878108753
 30
0.0
 10
5.749952716976707
 20
1.492864390037027
 30
0.0
 10
5.748055026409502
 20
1.49561493321636
 30
0.0
 10
5.744742589747709
 20
1.501504690775237
 30
0.0
 10
5.743313862864939
 20
1.504683495678398
 30
0.0
 10
5.74102511376839
 20
1.51127412395541
 30
0.0
 10
5.74016418386214
 20
1.514664987393707
 30
0.0
 10
5.738999581293275
 20
1.521635851969498
 30
0.0
 10
5.738701401835052
 20
1.525241758576791
 30
0.0
 10
5.738698209693688
 20
1.535893306071472
 30
0.0
 10
5.739885542250049
 20
1.543051247886416
 30
0.0
 10
5.744422180776321
 20
1.556148185062611
 30
0.0
 10
5.747819851716787
 20
1.562220783912317
 30
0.0
 10
5.754165762921828
 20
1.569751311805132
 30
0.0
 10
5.756531253045748
 20
1.572050081188521
 30
0.0
 10
5.761551340769442
 20
1.576005558726607
 30
0.0
 10
5.764209722870874
 20
1.577678651808619
 30
0.0
 10
5.769829869570577
 20
1.580412982844579
 30
0.0
 10
5.772793911794405
 20
1.581464146990954
 30
0.0
 10
5.77877463174002
 20
1.582852852649417
 30
0.0
 10
5.781822679757705
 20
1.583208186077097
 30
0.0
 10
5.791148304008892
 20
1.583218920109246
 30
0.0
 10
5.797310026818692
 20
1.58181187115954
 30
0.0
 10
5.805995334198689
 20
1.577720742572622
 30
0.0
 10
5.808748325403586
 20
1.576051840452059
 30
0.0
 10
5.813969135321867
 20
1.57211208882848
 30
0.0
 10
5.816450985607456
 20
1.569816979503787
 30
0.0
 10
5.823140654199702
 20
1.562292882193881
 30
0.0
 10
5.826762190248171
 20
1.556230871257438
 30
0.0
 10
5.831626033845264
 20
1.543143963870702
 30
0.0
 10
5.832923898795216
 20
1.536001448325794
 30
0.0
 10
5.832923898795216
 20
1.52881179111303
 30
0.0
  0
SPLINE
  5
139
330
1F
100
AcDbEntity
  8
0
  6
Continuous
 62
     7
370
    25
100
AcDbSpline
210
0.0
220
0.0
230
1.0
 70
     8
 71
     3
 72
    15
 73
    11
 74
     0
 42
0.00000001
 43
0.00000001
 40
0.0
 40
0.0
 40
0.0
 40
0.0
 40
0.0571283598924172
 40
0.1925219633371827
 40
0.328170423623455
 40
0.4638248310067254
 40
0.5992255089659148
 40
0.7345092128641434
 40
0.8699947893297356
 40
1.0
 40
1.0
 40
1.0
 40
1.0
 10
5.800919832707972
 20
1.579908876505214
 30
0.0
 10
5.798770025686396
 20
1.579295691080121
 30
0.0
 10
5.791525198959892
 20
1.577229262739612
 30
0.0
 10
5.781433206724052
 20
1.567667105715913
 30
0.0
 10
5.772371735620769
 20
1.552732586902091
 30
0.0
 10
5.768167291578884
 20
1.534755002689137
 30
0.0
 10
5.769097459599759
 20
1.516182524036366
 30
0.0
 10
5.775142970562732
 20
1.499141721950086
 30
0.0
 10
5.785346750149407
 20
1.485178073165623
 30
0.0
 10
5.794667855865797
 20
1.480167616443608
 30
0.0
 10
5.799232203749249
 20
1.477714101996921
 30
0.0
  0
INSERT
  5
13A
330
1F
100
AcDbEntity
  8
0
  6
Continuous
 62
     7
100
AcDbBlockReference
  2
Block1
 10
5.5993148832
 20
0.5681966375
 30
0.0
 41
0.5
 42
0.5
 43
0.5
  0
DIMENSION
  5
13B
330
1F
100
AcDbEntity
  8
SLD-0
100
AcDbDimension
  2
_D_5
 10
4.0260281378
 20
1.3288117911
 30
0.0
 11
4.0260281378
 21
3.2268117911
 31
0.0
 70
   160
  1
<>
 71
     2
 42
-1.0
  3
SLDDIMSTYLE4
100
AcDbAlignedDimension
 13
5.3409781805
 23
5.1248117911
 33
0.0
 14
5.3409781805
 24
1.3288117911
 34
0.0
 50
90.0
100
AcDbRotatedDimension
  0
LINE
  5
150
330
1F
100
AcDbEntity
  8
0
  6
Continuous
 62
     7
370
    25
100
AcDbLine
 10
12.4011719903
 20
1.5657067696
 30
0.0
 11
12.4011719903
 21
3.3273774124
 31
0.0
  0
LINE
  5
151
330
1F
100
AcDbEntity
  8
0
  6
Continuous
 62
     7
370
    25
100
AcDbLine
 10
12.4011719903
 20
1.3113774124
 30
0.0
 11
12.4011719903
 21
1.4576721109
 31
0.0
  0
LINE
  5
152
330
1F
100
AcDbEntity
  8
0
  6
Continuous
 62
     7
370
    25
100
AcDbLine
 10
10.6251719903
 20
3.3273774124
 30
0.0
 11
10.6251719903
 21
1.3113774124
 31
0.0
  0
ARC
  5
153
330
1F
100
AcDbEntity
  8
0
  6
Continuous
 62
     7
370
    25
100
AcDbCircle
 10
10.6491719903
 20
3.3273774124
 30
0.0
 40
0.024
100
AcDbArc
 50
90.0
 51
180.0
  0
ARC
  5
154
330
1F
100
AcDbEntity
  8
0
  6
Continuous
 62
     7
370
    25
100
AcDbCircle
 10
12.3771719903
 20
3.3273774124
 30
0.0
 40
0.0240000000000009
100
AcDbArc
 50
0.0
 51
90.0
  0
LINE
  5
155
330
1F
100
AcDbEntity
  8
0
  6
Continuous
 62
     7
370
    25
100
AcDbLine
 10
10.6251719903
 20
1.3113774124
 30
0.0
 11
12.4011719903
 21
1.3113774124
 31
0.0
  0
SPLINE
  5
156
330
1F
100
AcDbEntity
  8
0
  6
Continuous
 62
     7
370
    25
100
AcDbSpline
210
0.0
220
0.0
230
1.0
 70
     8
 71
     3
 72
    17
 73
    13
 74
     0
 42
0.00000001
 43
0.00000001
 40
0.0
 40
0.0
 40
0.0
 40
0.0
 40
0.0367829129270425
 40
0.1439469936102697
 40
0.2511849014537401
 40
0.3585983106853322
 40
0.4660155695098221
 40
0.5732581291689317
 40
0.680420361353838
 40
0.7877217257819913
 40
0.8951646959147074
 40
1.0
 40
1.0
 40
1.0
 40
1.0
 10
12.40112982325003
 20
1.457672110912005
 30
0.0
 10
12.40114137039845
 20
1.457481613445189
 30
0.0
 10
12.40118655924207
 20
1.456736116814923
 30
0.0
 10
12.40087877238857
 20
1.46176864689261
 30
0.0
 10
12.40033646735681
 20
1.472243015603964
 30
0.0
 10
12.3997703755258
 20
1.487547758363088
 30
0.0
 10
12.3994594068928
 20
1.505437119314828
 30
0.0
 10
12.39953158788392
 20
1.524004127860936
 30
0.0
 10
12.39995888033547
 20
1.54116355616491
 30
0.0
 10
12.40054455330887
 20
1.554857427675143
 30
0.0
 10
12.40106367821845
 20
1.564056849987469
 30
0.0
 10
12.40113336206791
 20
1.565161318875874
 30
0.0
 10
12.40116777598792
 20
1.565706769568816
 30
0.0
  0
SPLINE
  5
157
330
1F
100
AcDbEntity
  8
0
  6
Continuous
 62
     7
370
    25
100
AcDbSpline
210
0.0
220
0.0
230
1.0
 70
    11
 71
     3
 72
    56
 73
    52
 74
     0
 42
0.00000001
 43
0.00000001
 40
0.0
 40
0.0
 40
0.0
 40
0.0
 40
0.0312500000000006
 40
0.0312500000000006
 40
0.0625000000000012
 40
0.0625000000000012
 40
0.0937500000000018
 40
0.0937500000000018
 40
0.1250000000000024
 40
0.1250000000000024
 40
0.1875000000000025
 40
0.1875000000000025
 40
0.2500000000000027
 40
0.2500000000000027
 40
0.2812500000000026
 40
0.2812500000000026
 40
0.3125000000000024
 40
0.3125000000000024
 40
0.3437500000000023
 40
0.3437500000000023
 40
0.3750000000000022
 40
0.3750000000000022
 40
0.4062500000000021
 40
0.4062500000000021
 40
0.4375000000000019
 40
0.4375000000000019
 40
0.4687500000000018
 40
0.4687500000000018
 40
0.5000000000000017
 40
0.5000000000000017
 40
0.5625000000000014
 40
0.5625000000000014
 40
0.6250000000000011
 40
0.6250000000000011
 40
0.6562500000000013
 40
0.6562500000000013
 40
0.6875000000000014
 40
0.6875000000000014
 40
0.7187500000000016
 40
0.7187500000000016
 40
0.7500000000000017
 40
0.7500000000000017
 40
0.8125000000000017
 40
0.8125000000000017
 40
0.8437500000000016
 40
0.8437500000000016
 40
0.8750000000000016
 40
0.8750000000000016
 40
0.9375000000000008
 40
0.9375000000000008
 40
1.0
 40
1.0
 40
1.0
 40
1.0
 10
11.11711770855149
 20
1.511377412384821
 30
0.0
 10
11.11711770855149
 20
1.50778258377844
 30
0.0
 10
11.11680122852269
 20
1.504247995765573
 30
0.0
 10
11.11556254566216
 20
1.497294321976626
 30
0.0
 10
11.11462527780706
 20
1.493839157782709
 30
0.0
 10
11.11218293431591
 20
1.48725161272527
 30
0.0
 10
11.11068997830838
 20
1.484127356709627
 30
0.0
 10
11.10717050253436
 20
1.478214568653525
 30
0.0
 10
11.10512583228617
 20
1.47541568520192
 30
0.0
 10
11.09844416618912
 20
1.467890183745532
 30
0.0
 10
11.09308037366329
 20
1.463837411434207
 30
0.0
 10
11.08158966096393
 20
1.458410744071649
 30
0.0
 10
11.07534383196011
 20
1.456981230006493
 30
0.0
 10
11.06612400376111
 20
1.456975515330415
 30
0.0
 10
11.06301329602732
 20
1.457328711848282
 30
0.0
 10
11.05701222910426
 20
1.458716621739402
 30
0.0
 10
11.05410568636305
 20
1.459743543402502
 30
0.0
 10
11.04847811996207
 20
1.462467240422739
 30
0.0
 10
11.04576645984072
 20
1.464170141340785
 30
0.0
 10
11.0407618004993
 20
1.468106926671978
 30
0.0
 10
11.03843629657067
 20
1.470354402359322
 30
0.0
 10
11.03414652673298
 20
1.475430011308819
 30
0.0
 10
11.03224883616577
 20
1.478180554488151
 30
0.0
 10
11.02893639950398
 20
1.484070312047029
 30
0.0
 10
11.02750767262121
 20
1.48724911695019
 30
0.0
 10
11.02521892352466
 20
1.493839745227202
 30
0.0
 10
11.02435799361841
 20
1.497230608665498
 30
0.0
 10
11.02319339104955
 20
1.50420147324129
 30
0.0
 10
11.02289521159132
 20
1.507807379848582
 30
0.0
 10
11.02289201944996
 20
1.518458927343264
 30
0.0
 10
11.02407935200632
 20
1.525616869158207
 30
0.0
 10
11.02861599053259
 20
1.538713806334403
 30
0.0
 10
11.03201366147306
 20
1.544786405184109
 30
0.0
 10
11.0383595726781
 20
1.552316933076924
 30
0.0
 10
11.04072506280202
 20
1.554615702460312
 30
0.0
 10
11.04574515052571
 20
1.558571179998398
 30
0.0
 10
11.04840353262715
 20
1.56024427308041
 30
0.0
 10
11.05402367932685
 20
1.562978604116371
 30
0.0
 10
11.05698772155068
 20
1.564029768262746
 30
0.0
 10
11.06296844149629
 20
1.565418473921208
 30
0.0
 10
11.06601648951398
 20
1.565773807348889
 30
0.0
 10
11.07534211376516
 20
1.565784541381038
 30
0.0
 10
11.08150383657496
 20
1.564377492431332
 30
0.0
 10
11.09018914395496
 20
1.560286363844413
 30
0.0
 10
11.09294213515986
 20
1.55861746172385
 30
0.0
 10
11.09816294507814
 20
1.554677710100272
 30
0.0
 10
11.10064479536373
 20
1.552382600775579
 30
0.0
 10
11.10733446395597
 20
1.544858503465673
 30
0.0
 10
11.11095600000444
 20
1.538796492529229
 30
0.0
 10
11.11581984360154
 20
1.525709585142494
 30
0.0
 10
11.11711770855149
 20
1.518567069597585
 30
0.0
 10
11.11711770855149
 20
1.511377412384822
 30
0.0
  0
LINE
  5
158
330
1F
100
AcDbEntity
  8
0
  6
Continuous
 62
     7
370
    25
100
AcDbLine
 10
12.3771719903
 20
3.3513774124
 30
0.0
 11
10.6491719903
 21
3.3513774124
 31
0.0
  0
SPLINE
  5
159
330
1F
100
AcDbEntity
  8
0
  6
Continuous
 62
     7
370
    25
100
AcDbSpline
210
0.0
220
0.0
230
1.0
 70
     8
 71
     3
 72
    15
 73
    11
 74
     0
 42
0.00000001
 43
0.00000001
 40
0.0
 40
0.0
 40
0.0
 40
0.0
 40
0.0571283598924166
 40
0.1925219633371809
 40
0.3281704236234503
 40
0.4638248310067257
 40
0.5992255089659164
 40
0.7345092128641435
 40
0.8699947893297361
 40
1.0
 40
1.0
 40
1.0
 40
1.0
 10
11.08511364246425
 20
1.562474497777008
 30
0.0
 10
11.08296383544267
 20
1.561861312351916
 30
0.0
 10
11.07571900871616
 20
1.559794884011406
 30
0.0
 10
11.06562701648033
 20
1.550232726987707
 30
0.0
 10
11.05656554537704
 20
1.535298208173886
 30
0.0
 10
11.05236110133515
 20
1.517320623960931
 30
0.0
 10
11.05329126935603
 20
1.498748145308159
 30
0.0
 10
11.059336780319
 20
1.48170734322188
 30
0.0
 10
11.06954055990568
 20
1.467743694437416
 30
0.0
 10
11.07886166562207
 20
1.462733237715401
 30
0.0
 10
11.08342601350552
 20
1.460279723268715
 30
0.0
  0
LINE
  5
15A
330
1F
100
AcDbEntity
  8
0
  6
Continuous
 62
     7
370
    25
100
AcDbLine
 10
12.4011719903
 20
3.3273774124
 30
0.0
 11
10.6251719903
 21
3.3273774124
 31
0.0
  0
INSERT
  5
15B
330
1F
100
AcDbEntity
  8
0
  6
Continuous
 62
     7
100
AcDbBlockReference
  2
Block2
 10
11.0186324636
 20
0.2684032596
 30
0.0
 41
0.5
 42
0.5
 43
0.5
  0
DIMENSION
  5
15C
330
1F
100
AcDbEntity
  8
SLD-0
100
AcDbDimension
  2
_D_6
 10
9.4633815858
 20
1.3113774124
 30
0.0
 11
9.4633815858
 21
2.3313774124
 31
0.0
 70
   160
  1
<>
 71
     2
 42
-1.0
  3
SLDDIMSTYLE4
100
AcDbAlignedDimension
 13
10.7091719903
 23
3.3513774124
 33
0.0
 14
10.6251719903
 24
1.3113774124
 34
0.0
 50
90.0
100
AcDbRotatedDimension
  0
ARC
  5
170
330
1F
100
AcDbEntity
  8
0
  6
Continuous
 62
     7
370
    25
100
AcDbCircle
 10
15.5551055521
 20
2.6248117911
 30
0.0
 40
0.0240000000000009
100
AcDbArc
 50
90.0
 51
180.0
  0
ARC
  5
171
330
1F
100
AcDbEntity
  8
0
  6
Continuous
 62
     7
370
    25
100
AcDbCircle
 10
17.2831055521
 20
2.6248117911
 30
0.0
 40
0.0240000000000009
100
AcDbArc
 50
0.0
 51
90.0
  0
LINE
  5
172
330
1F
100
AcDbEntity
  8
0
  6
Continuous
 62
     7
370
    25
100
AcDbLine
 10
17.3071055521
 20
1.5825170926
 30
0.0
 11
17.3071055521
 21
2.6248117911
 31
0.0
  0
LINE
  5
173
330
1F
100
AcDbEntity
  8
0
  6
Continuous
 62
     7
370
    25
100
AcDbLine
 10
17.3071055521
 20
1.3288117911
 30
0.0
 11
17.3071055521
 21
1.4744824339
 31
0.0
  0
LINE
  5
174
330
1F
100
AcDbEntity
  8
0
  6
Continuous
 62
     7
370
    25
100
AcDbLine
 10
15.5311055521
 20
2.6248117911
 30
0.0
 11
15.5311055521
 21
1.3288117911
 31
0.0
  0
LINE
  5
175
330
1F
100
AcDbEntity
  8
0
  6
Continuous
 62
     7
370
    25
100
AcDbLine
 10
15.5551055522
 20
2.6488117911
 30
0.0
 11
17.2831055521
 21
2.6488117911
 31
0.0
  0
LINE
  5
176
330
1F
100
AcDbEntity
  8
0
  6
Continuous
 62
     7
370
    25
100
AcDbLine
 10
17.3071055521
 20
1.3288117911
 30
0.0
 11
15.5311055521
 21
1.3288117911
 31
0.0
  0
SPLINE
  5
177
330
1F
100
AcDbEntity
  8
0
  6
Continuous
 62
     7
370
    25
100
AcDbSpline
210
0.0
220
0.0
230
1.0
 70
     8
 71
     3
 72
    17
 73
    13
 74
     0
 42
0.00000001
 43
0.00000001
 40
0.0
 40
0.0
 40
0.0
 40
0.0
 40
0.036782912927042
 40
0.1439469936102687
 40
0.2511849014537429
 40
0.3585983106853318
 40
0.4660155695098243
 40
0.5732581291689319
 40
0.6804203613538371
 40
0.787721725781993
 40
0.8951646959147084
 40
1.0
 40
1.0
 40
1.0
 40
1.0
 10
17.30706338510007
 20
1.582517092585846
 30
0.0
 10
17.30707493224849
 20
1.582707590052662
 30
0.0
 10
17.30712012109212
 20
1.583453086682928
 30
0.0
 10
17.30681233423861
 20
1.57842055660524
 30
0.0
 10
17.30627002920685
 20
1.567946187893888
 30
0.0
 10
17.30570393737585
 20
1.552641445134762
 30
0.0
 10
17.30539296874284
 20
1.534752084183022
 30
0.0
 10
17.30546514973396
 20
1.516185075636915
 30
0.0
 10
17.30589244218551
 20
1.499025647332941
 30
0.0
 10
17.30647811515891
 20
1.485331775822708
 30
0.0
 10
17.30699724006849
 20
1.476132353510382
 30
0.0
 10
17.30706692391795
 20
1.475027884621977
 30
0.0
 10
17.30710133783796
 20
1.474482433929035
 30
0.0
  0
SPLINE
  5
178
330
1F
100
AcDbEntity
  8
0
  6
Continuous
 62
     7
370
    25
100
AcDbSpline
210
0.0
220
0.0
230
1.0
 70
    11
 71
     3
 72
    56
 73
    52
 74
     0
 42
0.00000001
 43
0.00000001
 40
0.0
 40
0.0
 40
0.0
 40
0.0
 40
0.0312499999999998
 40
0.0312499999999998
 40
0.0624999999999995
 40
0.0624999999999995
 40
0.0937499999999993
 40
0.0937499999999993
 40
0.1249999999999991
 40
0.1249999999999991
 40
0.1874999999999986
 40
0.1874999999999986
 40
0.2499999999999982
 40
0.2499999999999982
 40
0.281249999999998
 40
0.281249999999998
 40
0.3124999999999978
 40
0.3124999999999978
 40
0.3437499999999977
 40
0.3437499999999977
 40
0.3749999999999974
 40
0.3749999999999974
 40
0.4062499999999973
 40
0.4062499999999973
 40
0.4374999999999971
 40
0.4374999999999971
 40
0.4687499999999969
 40
0.4687499999999969
 40
0.4999999999999968
 40
0.4999999999999968
 40
0.5624999999999967
 40
0.5624999999999967
 40
0.6249999999999966
 40
0.6249999999999966
 40
0.6562499999999966
 40
0.6562499999999966
 40
0.6874999999999966
 40
0.6874999999999966
 40
0.7187499999999966
 40
0.7187499999999966
 40
0.7499999999999964
 40
0.7499999999999964
 40
0.8124999999999969
 40
0.8124999999999969
 40
0.8437499999999974
 40
0.8437499999999974
 40
0.874999999999998
 40
0.874999999999998
 40
0.937499999999999
 40
0.937499999999999
 40
1.0
 40
1.0
 40
1.0
 40
1.0
 10
16.02305127040151
 20
1.528811791113027
 30
0.0
 10
16.02305127040151
 20
1.53240661971941
 30
0.0
 10
16.02273479037272
 20
1.535941207732277
 30
0.0
 10
16.02149610751219
 20
1.542894881521223
 30
0.0
 10
16.02055883965708
 20
1.54635004571514
 30
0.0
 10
16.01811649616594
 20
1.55293759077258
 30
0.0
 10
16.01662354015841
 20
1.556061846788223
 30
0.0
 10
16.01310406438438
 20
1.561974634844325
 30
0.0
 10
16.0110593941362
 20
1.56477351829593
 30
0.0
 10
16.00437772803915
 20
1.572299019752317
 30
0.0
 10
15.99901393551331
 20
1.576351792063643
 30
0.0
 10
15.98752322281396
 20
1.581778459426201
 30
0.0
 10
15.98127739381013
 20
1.583207973491357
 30
0.0
 10
15.97205756561113
 20
1.583213688167435
 30
0.0
 10
15.96894685787735
 20
1.582860491649567
 30
0.0
 10
15.96294579095428
 20
1.581472581758449
 30
0.0
 10
15.96003924821307
 20
1.580445660095349
 30
0.0
 10
15.95441168181209
 20
1.577721963075111
 30
0.0
 10
15.95170002169075
 20
1.576019062157065
 30
0.0
 10
15.94669536234932
 20
1.572082276825872
 30
0.0
 10
15.9443698584207
 20
1.569834801138528
 30
0.0
 10
15.940080088583
 20
1.564759192189031
 30
0.0
 10
15.9381823980158
 20
1.562008649009699
 30
0.0
 10
15.93486996135401
 20
1.556118891450821
 30
0.0
 10
15.93344123447124
 20
1.552940086547661
 30
0.0
 10
15.93115248537469
 20
1.546349458270648
 30
0.0
 10
15.93029155546844
 20
1.542958594832352
 30
0.0
 10
15.92912695289957
 20
1.53598773025656
 30
0.0
 10
15.92882877344135
 20
1.532381823649268
 30
0.0
 10
15.92882558129999
 20
1.521730276154586
 30
0.0
 10
15.93001291385635
 20
1.514572334339643
 30
0.0
 10
15.93454955238262
 20
1.501475397163447
 30
0.0
 10
15.93794722332309
 20
1.495402798313741
 30
0.0
 10
15.94429313452813
 20
1.487872270420926
 30
0.0
 10
15.94665862465205
 20
1.485573501037538
 30
0.0
 10
15.95167871237574
 20
1.481618023499452
 30
0.0
 10
15.95433709447717
 20
1.47994493041744
 30
0.0
 10
15.95995724117688
 20
1.477210599381479
 30
0.0
 10
15.96292128340071
 20
1.476159435235104
 30
0.0
 10
15.96890200334632
 20
1.474770729576642
 30
0.0
 10
15.971950051364
 20
1.474415396148961
 30
0.0
 10
15.98127567561519
 20
1.474404662116813
 30
0.0
 10
15.98743739842499
 20
1.475811711066518
 30
0.0
 10
15.99612270580499
 20
1.479902839653436
 30
0.0
 10
15.99887569700988
 20
1.481571741774
 30
0.0
 10
16.00409650692816
 20
1.485511493397578
 30
0.0
 10
16.00657835721375
 20
1.487806602722271
 30
0.0
 10
16.013268025806
 20
1.495330700032177
 30
0.0
 10
16.01688956185447
 20
1.50139271096862
 30
0.0
 10
16.02175340545156
 20
1.514479618355356
 30
0.0
 10
16.02305127040151
 20
1.521622133900263
 30
0.0
 10
16.02305127040151
 20
1.528811791113027
 30
0.0
  0
SPLINE
  5
179
330
1F
100
AcDbEntity
  8
0
  6
Continuous
 62
     7
370
    25
100
AcDbSpline
210
0.0
220
0.0
230
1.0
 70
     8
 71
     3
 72
    15
 73
    11
 74
     0
 42
0.00000001
 43
0.00000001
 40
0.0
 40
0.0
 40
0.0
 40
0.0
 40
0.049702451963088
 40
0.1853791834857772
 40
0.3213113047933784
 40
0.4572493856342386
 40
0.5929332064652119
 40
0.7284998086251395
 40
0.8642687054978664
 40
1.0
 40
1.0
 40
1.0
 40
1.0
 10
15.99021252798174
 20
1.579625298424995
 30
0.0
 10
15.98834919581777
 20
1.57908456932469
 30
0.0
 10
15.98139937782135
 20
1.577067769043365
 30
0.0
 10
15.97156849379317
 20
1.567645839642646
 30
0.0
 10
15.96249705322901
 20
1.552738404267606
 30
0.0
 10
15.95829495561321
 20
1.534753022124152
 30
0.0
 10
15.95922570895663
 20
1.516184635711788
 30
0.0
 10
15.96526654017563
 20
1.499135253521355
 30
0.0
 10
15.9756270506581
 20
1.485012234929592
 30
0.0
 10
15.98514754740804
 20
1.479912763631056
 30
0.0
 10
15.98990713649573
 20
1.477363381116363
 30
0.0
  0
LINE
  5
17A
330
1F
100
AcDbEntity
  8
0
  6
Continuous
 62
     7
370
    25
100
AcDbLine
 10
17.3071055521
 20
2.6248117911
 30
0.0
 11
15.5311055521
 21
2.6248117911
 31
0.0
  0
INSERT
  5
17B
330
1F
100
AcDbEntity
  8
0
  6
Continuous
 62
     7
100
AcDbBlockReference
  2
Block3
 10
15.9750894399
 20
0.546240033
 30
0.0
 41
0.5
 42
0.5
 43
0.5
  0
DIMENSION
  5
17C
330
1F
100
AcDbEntity
  8
SLD-0
100
AcDbDimension
  2
_D_7
 10
14.3607031826
 20
1.3288117911
 30
0.0
 11
14.3607031826
 21
1.9888117911
 31
0.0
 70
   160
  1
<>
 71
     2
 42
-1.0
  3
SLDDIMSTYLE5
100
AcDbAlignedDimension
 13
15.5551055521
 23
2.6488117911
 33
0.0
 14
15.5311055521
 24
1.3288117911
 34
0.0
 50
90.0
100
AcDbRotatedDimension
  0
LINE
  5
191
330
1F
100
AcDbEntity
  8
0
  6
Continuous
 62
     7
370
    25
100
AcDbLine
 10
16.6959669955
 20
11.3831521175
 30
0.0
 11
16.6959669955
 21
7.7741327512
 31
0.0
  0
LINE
  5
192
330
1F
100
AcDbEntity
  8
0
  6
Continuous
 62
     7
370
    25
100
AcDbLine
 10
18.9159669955
 20
9.0559197815
 30
0.0
 11
18.9159669955
 21
11.3831521175
 31
0.0
  0
SPLINE
  5
193
330
1F
100
AcDbEntity
  8
0
  6
Continuous
 62
     7
370
    25
100
AcDbSpline
210
0.0
220
0.0
230
1.0
 70
     8
 71
     3
 72
     9
 73
     5
 74
     0
 42
0.00000001
 43
0.00000001
 40
0.0
 40
0.0
 40
0.0
 40
0.0
 40
0.2009025536546388
 40
1.0
 40
1.0
 40
1.0
 40
1.0
 10
17.63019857699197
 20
13.71864989666992
 30
0.0
 10
17.63066701732501
 20
13.72265992991629
 30
0.0
 10
17.63299869666173
 20
13.74262002088291
 30
0.0
 10
17.64018398732073
 20
13.76437834921004
 30
0.0
 10
17.64592573473758
 20
13.781765373813
 30
0.0
  0
SPLINE
  5
194
330
1F
100
AcDbEntity
  8
0
  6
Continuous
 62
     7
370
    25
100
AcDbSpline
210
0.0
220
0.0
230
1.0
 70
     8
 71
     3
 72
    19
 73
    15
 74
     0
 42
0.00000001
 43
0.00000001
 40
0.0
 40
0.0
 40
0.0
 40
0.0
 40
0.0333432551829419
 40
0.1275675753761371
 40
0.2242660481031889
 40
0.3298413397058115
 40
0.4253471729312274
 40
0.5161687971517791
 40
0.6130133454767919
 40
0.708717776565335
 40
0.8045120331386244
 40
0.9008739488854663
 40
0.9977088295242064
 40
1.0
 40
1.0
 40
1.0
 40
1.0
 10
17.86682262156427
 20
14.03345314991504
 30
0.0
 10
17.87102951698999
 20
14.03503099870426
 30
0.0
 10
17.88712462967095
 20
14.04106767218581
 30
0.0
 10
17.91066221064277
 20
14.04160665230989
 30
0.0
 10
17.93586244724475
 20
14.03649429605642
 30
0.0
 10
17.95537534760976
 20
14.0235290667873
 30
0.0
 10
17.97154613238448
 20
14.0019335855871
 30
0.0
 10
17.98297587524731
 20
13.97124925074315
 30
0.0
 10
17.98812926549765
 20
13.93181871693407
 30
0.0
 10
17.98554163171848
 20
13.8849854578376
 30
0.0
 10
17.97506144718025
 20
13.83403539523921
 30
0.0
 10
17.95636648994924
 20
13.78156492972441
 30
0.0
 10
17.94005640353077
 20
13.74587777715206
 30
0.0
 10
17.92969102697912
 20
13.72906301609163
 30
0.0
 10
17.92945144470525
 20
13.72867436463557
 30
0.0
  0
SPLINE
  5
195
330
1F
100
AcDbEntity
  8
0
  6
Continuous
 62
     7
370
    25
100
AcDbSpline
210
0.0
220
0.0
230
1.0
 70
     8
 71
     3
 72
    19
 73
    15
 74
     0
 42
0.00000001
 43
0.00000001
 40
0.0
 40
0.0
 40
0.0
 40
0.0
 40
0.0450802653908921
 40
0.1366041503429476
 40
0.2285025621662143
 40
0.3210189817070305
 40
0.4142904498099556
 40
0.5078562047872361
 40
0.5904771386300469
 40
0.67887165991942
 40
0.7636275655395316
 40
0.8468909804510621
 40
0.9311022533733041
 40
1.0
 40
1.0
 40
1.0
 40
1.0
 10
18.01015974417242
 20
13.71170431958672
 30
0.0
 10
18.01524813044388
 20
13.72125874790412
 30
0.0
 10
18.03066717638788
 20
13.75021098567367
 30
0.0
 10
18.04859968113363
 20
13.80106593155768
 30
0.0
 10
18.06324610354395
 20
13.86166930366933
 30
0.0
 10
18.06851128453141
 20
13.92058442165349
 30
0.0
 10
18.06425373980497
 20
13.97576816218162
 30
0.0
 10
18.05034674956956
 20
14.02354302504715
 30
0.0
 10
18.02728062745357
 20
14.06373897286742
 30
0.0
 10
17.9961506568824
 20
14.09438129843616
 30
0.0
 10
17.95747941747728
 20
14.11435858071992
 30
0.0
 10
17.91497684797641
 20
14.12218756931865
 30
0.0
 10
17.87319463010474
 20
14.12014570583097
 30
0.0
 10
17.84576764360743
 20
14.11087912698576
 30
0.0
 10
17.83342573473758
 20
14.10670924592157
 30
0.0
  0
SPLINE
  5
196
330
1F
100
AcDbEntity
  8
0
  6
Continuous
 62
     7
370
    25
100
AcDbSpline
210
0.0
220
0.0
230
1.0
 70
     8
 71
     3
 72
    13
 73
     9
 74
     0
 42
0.00000001
 43
0.00000001
 40
0.0
 40
0.0
 40
0.0
 40
0.0
 40
0.0151224838339204
 40
0.2407625442251632
 40
0.4664752629370189
 40
0.6927105750163263
 40
0.9200327217950123
 40
1.0
 40
1.0
 40
1.0
 40
1.0
 10
17.64592573473758
 20
13.95318533634195
 30
0.0
 10
17.64502396724891
 20
13.95206100018499
 30
0.0
 10
17.63066707738502
 20
13.93416063165524
 30
0.0
 10
17.60774601286087
 20
13.89419573012887
 30
0.0
 10
17.57891573576824
 20
13.83518839499705
 30
0.0
 10
17.55896409948417
 20
13.7743347432354
 30
0.0
 10
17.54802835174498
 20
13.72660051643316
 30
0.0
 10
17.54724011346998
 20
13.70089648508846
 30
0.0
 10
17.54703498675782
 20
13.69420741199185
 30
0.0
  0
LINE
  5
197
330
1F
100
AcDbEntity
  8
0
  6
Continuous
 62
     7
370
    25
100
AcDbLine
 10
18.156041726
 20
13.6510285413
 30
0.0
 11
18.1348250757
 21
13.6632806342
 31
0.0
  0
LINE
  5
198
330
1F
100
AcDbEntity
  8
0
  6
Continuous
 62
     7
370
    25
100
AcDbLine
 10
17.4771089152
 20
13.6632806342
 30
0.0
 11
17.4558922649
 21
13.6510285413
 31
0.0
  0
LINE
  5
199
330
1F
100
AcDbEntity
  8
0
  6
Continuous
 62
     7
370
    25
100
AcDbLine
 10
17.6046757347
 20
15.1873074722
 30
0.0
 11
17.6046757347
 21
14.7790370662
 31
0.0
  0
LINE
  5
19A
330
1F
100
AcDbEntity
  8
0
  6
Continuous
 62
     7
370
    25
100
AcDbLine
 10
17.8746757347
 20
14.7790370662
 30
0.0
 11
17.8746757347
 21
15.1873074722
 31
0.0
  0
LINE
  5
19B
330
1F
100
AcDbEntity
  8
0
  6
Continuous
 62
     7
370
    25
100
AcDbLine
 10
17.6459257347
 20
15.3914426752
 30
0.0
 11
17.6459257347
 21
15.2433844812
 31
0.0
  0
LINE
  5
19C
330
1F
100
AcDbEntity
  8
0
  6
Continuous
 62
     7
370
    25
100
AcDbLine
 10
17.6459257347
 20
14.8267670575
 30
0.0
 11
17.6459257347
 21
13.7255352773
 31
0.0
  0
LINE
  5
19D
330
1F
100
AcDbEntity
  8
0
  6
Continuous
 62
     7
370
    25
100
AcDbLine
 10
17.8334257347
 20
13.7414669467
 30
0.0
 11
17.8334257347
 21
14.0587938647
 31
0.0
  0
LINE
  5
19E
330
1F
100
AcDbEntity
  8
0
  6
Continuous
 62
     7
370
    25
100
AcDbLine
 10
17.8334257347
 20
14.1074110314
 30
0.0
 11
17.8334257347
 21
14.8267670575
 31
0.0
  0
LINE
  5
19F
330
1F
100
AcDbEntity
  8
0
  6
Continuous
 62
     7
370
    25
100
AcDbLine
 10
17.8334257347
 20
15.2433844812
 30
0.0
 11
17.8334257347
 21
15.3914426752
 31
0.0
  0
LINE
  5
1A0
330
1F
100
AcDbEntity
  8
0
  6
Continuous
 62
     7
370
    25
100
AcDbLine
 10
17.9660082562
 20
13.8117608331
 30
0.0
 11
17.9660082562
 21
14.0068812511
 31
0.0
  0
LINE
  5
1A1
330
1F
100
AcDbEntity
  8
0
  6
Continuous
 62
     7
370
    25
100
AcDbLine
 10
17.9660082562
 20
14.1075661993
 30
0.0
 11
17.9660082562
 21
15.3149044147
 31
0.0
  0
LINE
  5
1A2
330
1F
100
AcDbEntity
  8
0
  6
Continuous
 62
     7
370
    25
100
AcDbLine
 10
16.6959669955
 20
12.9590758845
 30
0.0
 11
16.6959669955
 21
11.3913175256
 31
0.0
  0
LINE
  5
1A3
330
1F
100
AcDbEntity
  8
0
  6
Continuous
 62
     7
370
    25
100
AcDbLine
 10
18.9159669955
 20
11.3913175256
 30
0.0
 11
18.9159669955
 21
12.9590758845
 31
0.0
  0
LINE
  5
1A4
330
1F
100
AcDbEntity
  8
0
  6
Continuous
 62
     7
370
    25
100
AcDbLine
 10
18.590983058
 20
13.41210875
 30
0.0
 11
18.5697664076
 21
13.4243608428
 31
0.0
  0
LINE
  5
1A5
330
1F
100
AcDbEntity
  8
0
  6
Continuous
 62
     7
370
    25
100
AcDbLine
 10
17.0421675833
 20
13.4243608428
 30
0.0
 11
17.020950933
 21
13.41210875
 31
0.0
  0
ELLIPSE
  5
1A6
330
1F
100
AcDbEntity
  8
0
  6
Continuous
 62
     7
370
    25
100
AcDbEllipse
 10
17.8059669955
 20
8.4150262663
 30
0.0
 11
1.10999999929648
 21
0.640893518997803
 31
0.0
210
0.0
220
0.0
230
1.0
 40
0.0000703729
 41
3.141552021495557
 42
6.283144675291856
  0
LWPOLYLINE
  5
1A7
330
1F
100
AcDbEntity
  8
0
  6
Continuous
 62
     7
370
    25
100
AcDbPolyline
 90
       30
 70
   128
 43
0.0
 10
18.9159669955
 20
11.3831521175
 10
18.9089875485
 20
11.4548977626
 10
18.888136978
 20
11.5257411645
 10
18.8536774921
 20
11.5947914264
 10
18.8060424388
 20
11.6611802012
 10
18.7458308566
 20
11.7240726116
 10
18.673799941
 20
11.7826777489
 10
18.5908555226
 20
11.8362586196
 10
18.4980406755
 20
11.8841414131
 10
18.3965226004
 20
11.9257239756
 10
18.2875779459
 20
11.9604833821
 10
18.1725767542
 20
11.9879825131
 10
18.0529652322
 20
12.0078755508
 10
17.9302475639
 20
12.0199123289
 10
17.8059669955
 20
12.0239414779
 10
17.681686427
 20
12.0199123289
 10
17.5589687588
 20
12.0078755508
 10
17.4393572367
 20
11.9879825131
 10
17.3243560451
 20
11.9604833821
 10
17.2154113905
 20
11.9257239756
 10
17.1138933154
 20
11.8841414131
 10
17.0210784684
 20
11.8362586196
 10
16.9381340499
 20
11.7826777489
 10
16.8661031343
 20
11.7240726116
 10
16.8058915521
 20
11.6611802012
 10
16.7582564988
 20
11.5947914264
 10
16.723797013
 20
11.5257411645
 10
16.7029464425
 20
11.4548977626
 10
16.6959669955
 20
11.3831521175
 10
16.6959669955
 20
11.3831521175
  0
SPLINE
  5
1A8
330
1F
100
AcDbEntity
  8
0
  6
Continuous
 62
     7
370
    25
100
AcDbSpline
210
0.0
220
0.0
230
1.0
 70
    11
 71
     3
 72
    26
 73
    22
 74
     0
 42
0.00000001
 43
0.00000001
 40
0.0
 40
0.0
 40
0.0
 40
0.0
 40
0.0536200607839432
 40
0.1072376822530343
 40
0.1609185883661211
 40
0.2146408563604134
 40
0.2682944511770226
 40
0.3218767096526464
 40
0.3754958818586698
 40
0.4292028051159859
 40
0.4829116531775904
 40
0.5365331513008995
 40
0.5901144855235996
 40
0.6437653861511308
 40
0.6974870899191821
 40
0.7511704282073676
 40
0.8047662990509753
 40
0.8583618717573698
 40
0.9120446244252641
 40
0.9657664953707792
 40
1.0
 40
1.0
 40
1.0
 40
1.0
 10
18.02703358284667
 20
11.80696945179495
 30
0.0
 10
18.02777066435399
 20
11.81312087965946
 30
0.0
 10
18.02924479383691
 20
11.82542345554417
 30
0.0
 10
18.04071392561105
 20
11.84064880002394
 30
0.0
 10
18.05755331934183
 20
11.85112077537045
 30
0.0
 10
18.07850073030652
 20
11.85543519014422
 30
0.0
 10
18.10094912805434
 20
11.85302517942994
 30
0.0
 10
18.12240031857815
 20
11.84415933368991
 30
0.0
 10
18.14048338027037
 20
11.82991084640777
 30
0.0
 10
18.15323532771718
 20
11.81198913319661
 30
0.0
 10
18.15925750015666
 20
11.79254235717443
 30
0.0
 10
18.15790218288402
 20
11.77385485886063
 30
0.0
 10
18.14933387818312
 20
11.75800953776549
 30
0.0
 10
18.13446578766973
 20
11.74667272800297
 30
0.0
 10
18.11488883997817
 20
11.74099277069614
 30
0.0
 10
18.0927647614335
 20
11.74151169443365
 30
0.0
 10
18.07059868138065
 20
11.74811566071617
 30
0.0
 10
18.05085488966732
 20
11.76010434295384
 30
0.0
 10
18.03593087267623
 20
11.77623377943771
 30
0.0
 10
18.02812164786863
 20
11.79267558185738
 30
0.0
 10
18.02733842465309
 20
11.80296475626242
 30
0.0
 10
18.02703358284667
 20
11.80696945179495
 30
0.0
  0
LWPOLYLINE
  5
1A9
330
1F
100
AcDbEntity
  8
0
  6
Continuous
 62
     7
370
    25
100
AcDbPolyline
 90
       17
 70
   128
 43
0.0
 10
18.2714807702
 20
13.5461528092
 10
18.2690860307
 20
13.5498949373
 10
18.2328876284
 20
13.593626525
 10
18.1844074967
 20
13.6331974816
 10
18.1250403209
 20
13.6674694227
 10
18.0564939864
 20
13.695456407
 10
17.9807404466
 20
13.7163532999
 10
17.8999589927
 20
13.7295589358
 10
17.8164735602
 20
13.7346934126
 10
17.732685873
 20
13.7316090207
 10
17.6510063503
 20
13.7203944926
 10
17.5737847631
 20
13.7013724498
 10
17.5032426361
 20
13.6750901217
 10
17.4414093377
 20
13.6423036032
 10
17.3900636994
 20
13.6039561027
 10
17.3506828417
 20
13.5611508078
 10
17.3404532208
 20
13.5461528092
  0
ARC
  5
1AA
330
1F
100
AcDbEntity
  8
0
  6
Continuous
 62
     7
370
    25
100
AcDbCircle
 10
17.8059669955
 20
13.0400391365
 30
0.0
 40
0.7046826245762011
100
AcDbArc
 50
62.1812917722
 51
117.8187082278
  0
LWPOLYLINE
  5
1AB
330
1F
100
AcDbEntity
  8
0
  6
Continuous
 62
     7
370
    25
100
AcDbPolyline
 90
       14
 70
   128
 43
0.0
 10
17.8581358772
 20
14.7560019509
 10
17.860416463
 20
14.7603604344
 10
17.864200072
 20
14.7853263087
 10
17.8529642081
 20
14.8095336074
 10
17.8280640824
 20
14.8300625732
 10
17.7925030175
 20
14.8444371098
 10
17.7505702026
 20
14.850923436
 10
17.7073233541
 20
14.848739205
 10
17.6679786802
 20
14.8381478674
 10
17.6372817292
 20
14.8204268948
 10
17.6189350065
 20
14.797713698
 10
17.6151513975
 20
14.7727478238
 10
17.6263872614
 20
14.7485405251
 10
17.6459257347
 20
14.731307075
  0
LWPOLYLINE
  5
1AC
330
1F
100
AcDbEntity
  8
0
  6
Continuous
 62
     7
370
    25
100
AcDbPolyline
 90
       15
 70
   128
 43
0.0
 10
17.8689525856
 20
14.7565858741
 10
17.8745604121
 20
14.7758164523
 10
17.8690634449
 20
14.8012744142
 10
17.8495453116
 20
14.8243226145
 10
17.8181211048
 20
14.8424634229
 10
17.778196125
 20
14.8537310014
 10
17.7340968632
 20
14.856904333
 10
17.6906021587
 20
14.8516395381
 10
17.6524253376
 20
14.8385071388
 10
17.6237034509
 20
14.8189302343
 10
17.6075489606
 20
14.7950302861
 10
17.6057124565
 20
14.7693972244
 10
17.6183929522
 20
14.7448087891
 10
17.6442163193
 20
14.7239295187
 10
17.6442163193
 20
14.7239295187
  0
LWPOLYLINE
  5
1AD
330
1F
100
AcDbEntity
  8
0
  6
Continuous
 62
     7
370
    25
100
AcDbPolyline
 90
       11
 70
   128
 43
0.0
 10
17.8746757347
 20
15.1873074722
 10
17.8690634449
 20
15.2095448202
 10
17.8495453116
 20
15.2325930204
 10
17.8181211048
 20
15.2507338288
 10
17.778196125
 20
15.2620014073
 10
17.7340968632
 20
15.265174739
 10
17.6906021587
 20
15.259909944
 10
17.6524253376
 20
15.2467775447
 10
17.6237034509
 20
15.2272006403
 10
17.6075489606
 20
15.2033006921
 10
17.6046757347
 20
15.1873074722
  0
LWPOLYLINE
  5
1AE
330
1F
100
AcDbEntity
  8
0
  6
Continuous
 62
     7
370
    25
100
AcDbPolyline
 90
        9
 70
   128
 43
0.0
 10
17.8334257347
 20
15.3914426752
 10
17.8290986366
 20
15.4076952172
 10
17.8104506038
 20
15.4269352158
 10
17.7800576623
 20
15.4402853179
 10
17.7429634431
 20
15.4455301084
 10
17.7053236372
 20
15.4417992275
 10
17.673384474
 20
15.4297118054
 10
17.6524461761
 20
15.411273719
 10
17.6459257347
 20
15.3914426752
  0
LWPOLYLINE
  5
1AF
330
1F
100
AcDbEntity
  8
0
  6
Continuous
 62
     7
370
    25
100
AcDbPolyline
 90
        7
 70
   128
 43
0.0
 10
17.9660082562
 20
15.3149044147
 10
17.9659505903
 20
15.3168023683
 10
17.9568653625
 20
15.3382164052
 10
17.9337398015
 20
15.3557618769
 10
17.9004115352
 20
15.3665271571
 10
17.8624113043
 20
15.3687257751
 10
17.8334257347
 20
15.3641639993
  0
LWPOLYLINE
  5
1B0
330
1F
100
AcDbEntity
  8
0
  6
Continuous
 62
     7
370
    25
100
AcDbPolyline
 90
       17
 70
   128
 43
0.0
 10
18.0352443967
 20
11.8235309328
 10
18.0321520841
 20
11.8039799878
 10
18.0383623094
 20
11.7835143671
 10
18.0529296221
 20
11.7652497757
 10
18.0736362809
 20
11.7519668322
 10
18.0973298848
 20
11.7456877443
 10
18.1204032972
 20
11.7473684462
 10
18.1393438004
 20
11.7567530663
 10
18.1512678744
 20
11.7724128812
 10
18.154360187
 20
11.7919638261
 10
18.1481499617
 20
11.8124294469
 10
18.133582649
 20
11.8306940383
 10
18.1128759901
 20
11.8439769818
 10
18.0891823863
 20
11.8502560697
 10
18.0661089739
 20
11.8485753678
 10
18.0471684707
 20
11.8391907477
 10
18.0352443967
 20
11.8235309328
  0
LINE
  5
1B1
330
1F
100
AcDbEntity
  8
0
  6
Continuous
 62
     7
370
    25
100
AcDbLine
 10
18.1017901466
 20
11.7605949066
 30
0.0
 11
18.134462149
 21
11.7798172096
 31
0.0
  0
LINE
  5
1B2
330
1F
100
AcDbEntity
  8
0
  6
Continuous
 62
     7
370
    25
100
AcDbLine
 10
18.125928138
 20
11.81719421
 30
0.0
 11
18.134462149
 21
11.7798172096
 31
0.0
  0
LINE
  5
1B3
330
1F
100
AcDbEntity
  8
0
  6
Continuous
 62
     7
370
    25
100
AcDbLine
 10
18.0847221245
 20
11.8353489074
 30
0.0
 11
18.125928138
 21
11.81719421
 31
0.0
  0
LINE
  5
1B4
330
1F
100
AcDbEntity
  8
0
  6
Continuous
 62
     7
370
    25
100
AcDbLine
 10
18.0847221245
 20
11.8353489074
 30
0.0
 11
18.052050122
 21
11.8161266043
 31
0.0
  0
LINE
  5
1B5
330
1F
100
AcDbEntity
  8
0
  6
Continuous
 62
     7
370
    25
100
AcDbLine
 10
18.0605841331
 20
11.778749604
 30
0.0
 11
18.052050122
 21
11.8161266043
 31
0.0
  0
LINE
  5
1B6
330
1F
100
AcDbEntity
  8
0
  6
Continuous
 62
     7
370
    25
100
AcDbLine
 10
18.0605841331
 20
11.778749604
 30
0.0
 11
18.1017901466
 21
11.7605949066
 31
0.0
  0
LINE
  5
1B7
330
1F
100
AcDbEntity
  8
0
  6
Continuous
 62
     7
370
    25
100
AcDbLine
 10
18.0614284105
 20
11.7851633675
 30
0.0
 11
18.0847221245
 21
11.8353489074
 31
0.0
  0
LINE
  5
1B8
330
1F
100
AcDbEntity
  8
0
  6
Continuous
 62
     7
370
    25
100
AcDbLine
 10
18.0614284105
 20
11.7851633675
 30
0.0
 11
18.0593931291
 21
11.7839659265
 31
0.0
  0
LINE
  5
1B9
330
1F
100
AcDbEntity
  8
0
  6
Continuous
 62
     7
370
    25
100
AcDbLine
 10
18.102634424
 20
11.7670086701
 30
0.0
 11
18.1038254279
 21
11.7617923476
 31
0.0
  0
LINE
  5
1BA
330
1F
100
AcDbEntity
  8
0
  6
Continuous
 62
     7
370
    25
100
AcDbLine
 10
18.102634424
 20
11.7670086701
 30
0.0
 11
18.125928138
 21
11.81719421
 31
0.0
  0
LINE
  5
1BB
330
1F
100
AcDbEntity
  8
0
  6
Continuous
 62
     7
370
    25
100
AcDbLine
 10
18.0614284105
 20
11.7851633675
 30
0.0
 11
18.102634424
 21
11.7670086701
 31
0.0
  0
LINE
  5
1BC
330
1F
100
AcDbEntity
  8
0
  6
Continuous
 62
     7
370
    25
100
AcDbLine
 10
16.6959895255
 20
11.3872348215
 30
0.0
 11
16.6959669955
 21
11.3913175256
 31
0.0
  0
LWPOLYLINE
  5
1BD
330
1F
100
AcDbEntity
  8
0
  6
Continuous
 62
     7
370
    25
100
AcDbPolyline
 90
       24
 70
   128
 43
0.0
 10
16.9187027836
 20
11.7763568396
 10
16.9381340499
 20
11.790843157
 10
17.0210784684
 20
11.8444240277
 10
17.1138933154
 20
11.8923068213
 10
17.2154113905
 20
11.9338893837
 10
17.3243560451
 20
11.9686487903
 10
17.4393572367
 20
11.9961479212
 10
17.5589687588
 20
12.0160409589
 10
17.681686427
 20
12.0280777371
 10
17.8059669955
 20
12.0321068861
 10
17.9302475639
 20
12.0280777371
 10
18.0529652322
 20
12.0160409589
 10
18.1725767542
 20
11.9961479212
 10
18.2875779459
 20
11.9686487903
 10
18.3965226004
 20
11.9338893837
 10
18.4980406755
 20
11.8923068213
 10
18.5908555226
 20
11.8444240277
 10
18.673799941
 20
11.790843157
 10
18.7458308566
 20
11.7322380197
 10
18.8060424388
 20
11.6693456093
 10
18.8536774921
 20
11.6029568345
 10
18.888136978
 20
11.5339065726
 10
18.9089875485
 20
11.4630631707
 10
18.9159669955
 20
11.3913175256
  0
LWPOLYLINE
  5
1BE
330
1F
100
AcDbEntity
  8
0
  6
Continuous
 62
     7
370
    25
100
AcDbPolyline
 90
       29
 70
   128
 43
0.0
 10
18.9159669955
 20
12.9590758845
 10
18.9089875485
 20
13.0308215295
 10
18.888136978
 20
13.1016649314
 10
18.8536774921
 20
13.1707151933
 10
18.8060424388
 20
13.2371039682
 10
18.7458308566
 20
13.2999963785
 10
18.673799941
 20
13.3586015158
 10
18.5908555226
 20
13.4121823865
 10
18.4980406755
 20
13.4600651801
 10
18.3965226004
 20
13.5016477425
 10
18.2875779459
 20
13.5364071491
 10
18.1725767542
 20
13.56390628
 10
18.0529652322
 20
13.5837993178
 10
17.9302475639
 20
13.5958360959
 10
17.8059669955
 20
13.5998652449
 10
17.681686427
 20
13.5958360959
 10
17.5589687588
 20
13.5837993178
 10
17.4393572367
 20
13.56390628
 10
17.3243560451
 20
13.5364071491
 10
17.2154113905
 20
13.5016477425
 10
17.1138933154
 20
13.4600651801
 10
17.0210784684
 20
13.4121823865
 10
16.9381340499
 20
13.3586015158
 10
16.8661031343
 20
13.2999963785
 10
16.8058915521
 20
13.2371039682
 10
16.7582564988
 20
13.1707151933
 10
16.723797013
 20
13.1016649314
 10
16.7029464425
 20
13.0308215295
 10
16.6959669955
 20
12.9590758845
  0
LWPOLYLINE
  5
1BF
330
1F
100
AcDbEntity
  8
0
  6
Continuous
 62
     7
370
    25
100
AcDbPolyline
 90
       16
 70
   128
 43
0.0
 10
17.0421675833
 20
13.4243608428
 10
17.087134463
 20
13.4488816866
 10
17.1837001766
 20
13.4931520544
 10
17.2883780898
 20
13.5307792683
 10
17.399803566
 20
13.5612728001
 10
17.5165240036
 20
13.5842351198
 10
17.6370177732
 20
13.5993668786
 10
17.7597140544
 20
13.6064708109
 10
17.8830133133
 20
13.6054543059
 10
18.0053081557
 20
13.5963306155
 10
18.1250042812
 20
13.5792186808
 10
18.2405412678
 20
13.5543415822
 10
18.3504129141
 20
13.5220236306
 10
18.4531868753
 20
13.4826861399
 10
18.5475233355
 20
13.4368419346
 10
18.5697664076
 20
13.4243608428
  0
ARC
  5
1C0
330
1F
100
AcDbEntity
  8
0
  6
Continuous
 62
     7
370
    25
100
AcDbCircle
 10
17.2001795605
 20
11.3565861872
 30
0.0
 40
0.5054073373311322
100
AcDbArc
 50
123.843788202
 51
176.0595572706
  0
ENDSEC
  0
SECTION
  2
OBJECTS
  0
DICTIONARY
  5
C
330
0
100
AcDbDictionary
281
     1
  3
ACAD_GROUP
350
D
  3
ACAD_LAYOUT
350
1A
  3
ACAD_MLINESTYLE
350
17
  3
ACAD_PLOTSETTINGS
350
19
  3
ACAD_PLOTSTYLENAME
350
E
  3
ACAD_SCALELIST
350
47
  3
DWGPROPS
350
1C1
  0
DICTIONARY
  5
D
102
{ACAD_REACTORS
330
C
102
}
330
C
100
AcDbDictionary
281
     1
  0
DICTIONARY
  5
1A
102
{ACAD_REACTORS
330
C
102
}
330
C
100
AcDbDictionary
281
     1
  3
Layout1
350
1E
  3
Layout2
350
26
  3
Model
350
22
  0
DICTIONARY
  5
17
102
{ACAD_REACTORS
330
C
102
}
330
C
100
AcDbDictionary
281
     1
  3
Standard
350
18
  0
DICTIONARY
  5
19
102
{ACAD_REACTORS
330
C
102
}
330
C
100
AcDbDictionary
281
     1
  0
ACDBDICTIONARYWDFLT
  5
E
102
{ACAD_REACTORS
330
C
102
}
330
C
100
AcDbDictionary
281
     1
  3
Normal
350
F
100
AcDbDictionaryWithDefault
340
F
  0
DICTIONARY
  5
47
102
{ACAD_REACTORS
330
C
102
}
330
C
100
AcDbDictionary
281
     1
  3
A0
350
48
  3
A1
350
49
  3
A2
350
4A
  3
A3
350
4B
  3
A4
350
4C
  3
A5
350
4D
  3
A6
350
4E
  3
A7
350
4F
  3
A8
350
50
  3
A9
350
51
  3
B1
350
52
  3
B2
350
53
  3
B3
350
54
  3
B4
350
55
  3
B5
350
56
  3
B6
350
57
  3
B7
350
58
  0
XRECORD
  5
1C1
102
{ACAD_REACTORS
330
C
102
}
330
C
100
AcDbXrecord
280
     1
  1
DWGPROPS COOKIE
  2

  3

  4

  6

  7

  8
stevend
  9

300
=
301
=
302
=
303
=
304
=
305
=
306
=
307
=
308
=
309
=
 40
0.0
 41
2460504.235938704
 42
2460504.235939896
  1

 90
        0
  0
LAYOUT
  5
1E
102
{ACAD_REACTORS
330
1A
102
}
330
1A
100
AcDbPlotSettings
  1

  2
none_device
  4

  6

 40
0.0
 41
0.0
 42
0.0
 43
0.0
 44
0.0
 45
0.0
 46
0.0
 47
0.0
 48
0.0
 49
0.0
140
0.0
141
0.0
142
1.0
143
1.0
 70
   688
 72
     0
 73
     0
 74
     5
  7

 75
    16
147
1.0
148
0.0
149
0.0
100
AcDbLayout
  1
Layout1
 70
     1
 71
     1
 10
0.0
 20
0.0
 11
12.0
 21
9.0
 12
0.0
 22
0.0
 32
0.0
 14
1.0000000000E+20
 24
1.0000000000E+20
 34
1.0000000000E+20
 15
-1.0000000000E+20
 25
-1.0000000000E+20
 35
-1.0000000000E+20
146
0.0
 13
0.0
 23
0.0
 33
0.0
 16
1.0
 26
0.0
 36
0.0
 17
0.0
 27
1.0
 37
0.0
 76
     0
330
1B
  0
LAYOUT
  5
26
102
{ACAD_REACTORS
330
1A
102
}
330
1A
100
AcDbPlotSettings
  1

  2
none_device
  4

  6

 40
0.0
 41
0.0
 42
0.0
 43
0.0
 44
0.0
 45
0.0
 46
0.0
 47
0.0
 48
0.0
 49
0.0
140
0.0
141
0.0
142
1.0
143
1.0
 70
   688
 72
     0
 73
     0
 74
     5
  7

 75
    16
147
1.0
148
0.0
149
0.0
100
AcDbLayout
  1
Layout2
 70
     1
 71
     2
 10
0.0
 20
0.0
 11
0.0
 21
0.0
 12
0.0
 22
0.0
 32
0.0
 14
0.0
 24
0.0
 34
0.0
 15
0.0
 25
0.0
 35
0.0
146
0.0
 13
0.0
 23
0.0
 33
0.0
 16
1.0
 26
0.0
 36
0.0
 17
0.0
 27
1.0
 37
0.0
 76
     0
330
23
  0
LAYOUT
  5
22
102
{ACAD_REACTORS
330
1A
102
}
330
1A
100
AcDbPlotSettings
  1

  2
none_device
  4
Letter_(8.50_x_11.00_Inches)
  6

 40
6.35
 41
6.35
 42
6.35000508
 43
6.35000508
 44
215.9
 45
279.4
 46
0.0
 47
0.0
 48
0.0
 49
0.0
140
0.0
141
0.0
142
1.0
143
1.0
 70
  1712
 72
     0
 73
     0
 74
     0
  7

 75
     0
147
1.0
148
0.0
149
0.0
100
AcDbLayout
  1
Model
 70
     1
 71
     0
 10
0.0
 20
0.0
 11
22.0
 21
17.0
 12
0.0
 22
0.0
 32
0.0
 14
0.0
 24
0.0
 34
0.0
 15
22.0
 25
17.0
 35
0.0
146
0.0
 13
0.0
 23
0.0
 33
0.0
 16
1.0
 26
0.0
 36
0.0
 17
0.0
 27
1.0
 37
0.0
 76
     0
330
1F
331
29
  0
MLINESTYLE
  5
18
102
{ACAD_REACTORS
330
17
102
}
330
17
100
AcDbMlineStyle
  2
Standard
 70
     0
  3

 62
   256
 51
90.0
 52
90.0
 71
     2
 49
0.5
 62
   256
  6
BYLAYER
 49
-0.5
 62
   256
  6
BYLAYER
  0
ACDBPLACEHOLDER
  5
F
102
{ACAD_REACTORS
330
E
102
}
330
E
  0
SCALE
  5
48
102
{ACAD_REACTORS
330
47
102
}
330
47
100
AcDbScale
 70
     0
300
1:1
140
1.0
141
1.0
290
     1
  0
SCALE
  5
49
102
{ACAD_REACTORS
330
47
102
}
330
47
100
AcDbScale
 70
     0
300
1/128" = 1'-0"
140
0.0078125
141
12.0
290
     0
  0
SCALE
  5
4A
102
{ACAD_REACTORS
330
47
102
}
330
47
100
AcDbScale
 70
     0
300
1/64" = 1'-0"
140
0.015625
141
12.0
290
     0
  0
SCALE
  5
4B
102
{ACAD_REACTORS
330
47
102
}
330
47
100
AcDbScale
 70
     0
300
1/32" = 1'-0"
140
0.03125
141
12.0
290
     0
  0
SCALE
  5
4C
102
{ACAD_REACTORS
330
47
102
}
330
47
100
AcDbScale
 70
     0
300
1/16" = 1'-0"
140
0.0625
141
12.0
290
     0
  0
SCALE
  5
4D
102
{ACAD_REACTORS
330
47
102
}
330
47
100
AcDbScale
 70
     0
300
3/32" = 1'-0"
140
0.09375
141
12.0
290
     0
  0
SCALE
  5
4E
102
{ACAD_REACTORS
330
47
102
}
330
47
100
AcDbScale
 70
     0
300
1/8" = 1'-0"
140
0.125
141
12.0
290
     0
  0
SCALE
  5
4F
102
{ACAD_REACTORS
330
47
102
}
330
47
100
AcDbScale
 70
     0
300
3/16" = 1'-0"
140
0.1875
141
12.0
290
     0
  0
SCALE
  5
50
102
{ACAD_REACTORS
330
47
102
}
330
47
100
AcDbScale
 70
     0
300
1/4" = 1'-0"
140
0.25
141
12.0
290
     0
  0
SCALE
  5
51
102
{ACAD_REACTORS
330
47
102
}
330
47
100
AcDbScale
 70
     0
300
3/8" = 1'-0"
140
0.375
141
12.0
290
     0
  0
SCALE
  5
52
102
{ACAD_REACTORS
330
47
102
}
330
47
100
AcDbScale
 70
     0
300
1/2" = 1'-0"
140
0.5
141
12.0
290
     0
  0
SCALE
  5
53
102
{ACAD_REACTORS
330
47
102
}
330
47
100
AcDbScale
 70
     0
300
3/4" = 1'-0"
140
0.75
141
12.0
290
     0
  0
SCALE
  5
54
102
{ACAD_REACTORS
330
47
102
}
330
47
100
AcDbScale
 70
     0
300
1" = 1'-0"
140
1.0
141
12.0
290
     0
  0
SCALE
  5
55
102
{ACAD_REACTORS
330
47
102
}
330
47
100
AcDbScale
 70
     0
300
1-1/2" = 1'-0"
140
1.5
141
12.0
290
     0
  0
SCALE
  5
56
102
{ACAD_REACTORS
330
47
102
}
330
47
100
AcDbScale
 70
     0
300
3" = 1'-0"
140
3.0
141
12.0
290
     0
  0
SCALE
  5
57
102
{ACAD_REACTORS
330
47
102
}
330
47
100
AcDbScale
 70
     0
300
6" = 1'-0"
140
6.0
141
12.0
290
     0
  0
SCALE
  5
58
102
{ACAD_REACTORS
330
47
102
}
330
47
100
AcDbScale
 70
     0
300
1'-0" = 1'-0"
140
12.0
141
12.0
290
     0
  0
ENDSEC
  0
EOF
