  0
SECTION
  2
HEADER
  9
$ACADVER
  1
AC1015
  9
$ACADMAINTVER
 70
     6
  9
$DWGCODEPAGE
  3
ANSI_1252
  9
$INSBASE
 10
0.0
 20
0.0
 30
0.0
  9
$EXTMIN
 10
0.0
 20
0.0
 30
0.0
  9
$EXTMAX
 10
44.0
 20
34.0
 30
0.0
  9
$LIMMIN
 10
0.0
 20
0.0
  9
$LIMMAX
 10
44.0
 20
34.0
  9
$ORTHOMODE
 70
     0
  9
$REGENMODE
 70
     1
  9
$FILLMODE
 70
     1
  9
$QTEXTMODE
 70
     0
  9
$MIRRTEXT
 70
     1
  9
$LTSCALE
 40
4.0
  9
$ATTMODE
 70
     1
  9
$TEXTSIZE
 40
0.5
  9
$TRACEWID
 40
0.05
  9
$TEXTSTYLE
  7
Standard
  9
$CLAYER
  8
0
  9
$CELTYPE
  6
ByLayer
  9
$CECOLOR
 62
   256
  9
$CELTSCALE
 40
1.0
  9
$DISPSILH
 70
     0
  9
$DIMSCALE
 40
1.0
  9
$DIMASZ
 40
0.52
  9
$DIMEXO
 40
0.2
  9
$DIMDLI
 40
0.38
  9
$DIMRND
 40
0.0
  9
$DIMDLE
 40
0.0
  9
$DIMEXE
 40
0.5
  9
$DIMTP
 40
0.0
  9
$DIMTM
 40
0.0
  9
$DIMTXT
 40
0.5
  9
$DIMCEN
 40
0.09
  9
$DIMTSZ
 40
0.0
  9
$DIMTOL
 70
     0
  9
$DIMLIM
 70
     0
  9
$DIMTIH
 70
     1
  9
$DIMTOH
 70
     1
  9
$DIMSE1
 70
     0
  9
$DIMSE2
 70
     0
  9
$DIMTAD
 70
     0
  9
$DIMZIN
 70
     1
  9
$DIMBLK
  1

  9
$DIMASO
 70
     1
  9
$DIMSHO
 70
     1
  9
$DIMPOST
  1

  9
$DIMAPOST
  1

  9
$DIMALT
 70
     0
  9
$DIMALTD
 70
     2
  9
$DIMALTF
 40
25.4
  9
$DIMLFAC
 40
1.0
  9
$DIMTOFL
 70
     0
  9
$DIMTVP
 40
0.0
  9
$DIMTIX
 70
     0
  9
$DIMSOXD
 70
     0
  9
$DIMSAH
 70
     0
  9
$DIMBLK1
  1

  9
$DIMBLK2
  1

  9
$DIMSTYLE
  2
Standard
  9
$DIMCLRD
 70
     0
  9
$DIMCLRE
 70
     0
  9
$DIMCLRT
 70
     0
  9
$DIMTFAC
 40
1.0
  9
$DIMGAP
 40
0.24
  9
$DIMJUST
 70
     0
  9
$DIMSD1
 70
     0
  9
$DIMSD2
 70
     0
  9
$DIMTOLJ
 70
     1
  9
$DIMTZIN
 70
     1
  9
$DIMALTZ
 70
     0
  9
$DIMALTTZ
 70
     0
  9
$DIMUPT
 70
     0
  9
$DIMDEC
 70
     0
  9
$DIMTDEC
 70
     0
  9
$DIMALTU
 70
     2
  9
$DIMALTTD
 70
     2
  9
$DIMTXSTY
  7
Standard
  9
$DIMAUNIT
 70
     0
  9
$DIMADEC
 70
     0
  9
$DIMALTRND
 40
0.0
  9
$DIMAZIN
 70
     0
  9
$DIMDSEP
 70
    46
  9
$DIMATFIT
 70
     3
  9
$DIMFRAC
 70
     0
  9
$DIMLDRBLK
  1

  9
$DIMLUNIT
 70
     2
  9
$DIMLWD
 70
    -2
  9
$DIMLWE
 70
    -2
  9
$DIMTMOVE
 70
     0
  9
$LUNITS
 70
     2
  9
$LUPREC
 70
     6
  9
$SKETCHINC
 40
0.1
  9
$FILLETRAD
 40
0.0
  9
$AUNITS
 70
     0
  9
$AUPREC
 70
     2
  9
$MENU
  1
.
  9
$ELEVATION
 40
0.0
  9
$PELEVATION
 40
0.0
  9
$THICKNESS
 40
0.0
  9
$LIMCHECK
 70
     0
  9
$CHAMFERA
 40
0.0
  9
$CHAMFERB
 40
0.0
  9
$CHAMFERC
 40
0.0
  9
$CHAMFERD
 40
0.0
  9
$SKPOLY
 70
     0
  9
$TDCREATE
 40
2460887.480707292
  9
$TDUCREATE
 40
2460887.772373959
  9
$TDUPDATE
 40
2460887.480707778
  9
$TDUUPDATE
 40
2460887.772374445
  9
$TDINDWG
 40
0.0000000116
  9
$TDUSRTIMER
 40
0.0000000116
  9
$USRTIMER
 70
     1
  9
$ANGBASE
 50
0.0
  9
$ANGDIR
 70
     0
  9
$PDMODE
 70
     0
  9
$PDSIZE
 40
-1.0
  9
$PLINEWID
 40
0.0
  9
$SPLFRAME
 70
     0
  9
$SPLINETYPE
 70
     6
  9
$SPLINESEGS
 70
     8
  9
$HANDSEED
  5
1AE
  9
$SURFTAB1
 70
     6
  9
$SURFTAB2
 70
     6
  9
$SURFTYPE
 70
     6
  9
$SURFU
 70
     6
  9
$SURFV
 70
     6
  9
$UCSBASE
  2

  9
$UCSNAME
  2

  9
$UCSORG
 10
0.0
 20
0.0
 30
0.0
  9
$UCSXDIR
 10
1.0
 20
0.0
 30
0.0
  9
$UCSYDIR
 10
0.0
 20
1.0
 30
0.0
  9
$UCSORTHOREF
  2

  9
$UCSORTHOVIEW
 70
     0
  9
$UCSORGTOP
 10
0.0
 20
0.0
 30
0.0
  9
$UCSORGBOTTOM
 10
0.0
 20
0.0
 30
0.0
  9
$UCSORGLEFT
 10
0.0
 20
0.0
 30
0.0
  9
$UCSORGRIGHT
 10
0.0
 20
0.0
 30
0.0
  9
$UCSORGFRONT
 10
0.0
 20
0.0
 30
0.0
  9
$UCSORGBACK
 10
0.0
 20
0.0
 30
0.0
  9
$PUCSBASE
  2

  9
$PUCSNAME
  2

  9
$PUCSORG
 10
0.0
 20
0.0
 30
0.0
  9
$PUCSXDIR
 10
1.0
 20
0.0
 30
0.0
  9
$PUCSYDIR
 10
0.0
 20
1.0
 30
0.0
  9
$PUCSORTHOREF
  2

  9
$PUCSORTHOVIEW
 70
     0
  9
$PUCSORGTOP
 10
0.0
 20
0.0
 30
0.0
  9
$PUCSORGBOTTOM
 10
0.0
 20
0.0
 30
0.0
  9
$PUCSORGLEFT
 10
0.0
 20
0.0
 30
0.0
  9
$PUCSORGRIGHT
 10
0.0
 20
0.0
 30
0.0
  9
$PUCSORGFRONT
 10
0.0
 20
0.0
 30
0.0
  9
$PUCSORGBACK
 10
0.0
 20
0.0
 30
0.0
  9
$USERI1
 70
     0
  9
$USERI2
 70
     0
  9
$USERI3
 70
     0
  9
$USERI4
 70
     0
  9
$USERI5
 70
     0
  9
$USERR1
 40
0.0
  9
$USERR2
 40
0.0
  9
$USERR3
 40
0.0
  9
$USERR4
 40
0.0
  9
$USERR5
 40
0.0
  9
$WORLDVIEW
 70
     1
  9
$SHADEDGE
 70
     3
  9
$SHADEDIF
 70
    70
  9
$TILEMODE
 70
     1
  9
$MAXACTVP
 70
    64
  9
$PINSBASE
 10
0.0
 20
0.0
 30
0.0
  9
$PLIMCHECK
 70
     0
  9
$PEXTMIN
 10
1.0000000000E+20
 20
1.0000000000E+20
 30
1.0000000000E+20
  9
$PEXTMAX
 10
-1.0000000000E+20
 20
-1.0000000000E+20
 30
-1.0000000000E+20
  9
$PLIMMIN
 10
0.0
 20
0.0
  9
$PLIMMAX
 10
12.0
 20
9.0
  9
$UNITMODE
 70
     0
  9
$VISRETAIN
 70
     1
  9
$PLINEGEN
 70
     0
  9
$PSLTSCALE
 70
     1
  9
$TREEDEPTH
 70
  3020
  9
$CMLSTYLE
  2
Standard
  9
$CMLJUST
 70
     0
  9
$CMLSCALE
 40
1.0
  9
$PROXYGRAPHICS
 70
     1
  9
$MEASUREMENT
 70
     0
  9
$CELWEIGHT
370
    -1
  9
$ENDCAPS
280
     0
  9
$JOINSTYLE
280
     0
  9
$LWDISPLAY
290
     1
  9
$INSUNITS
 70
     1
  9
$HYPERLINKBASE
  1

  9
$STYLESHEET
  1

  9
$XEDIT
290
     1
  9
$CEPSNTYPE
380
     0
  9
$PSTYLEMODE
290
     1
  9
$FINGERPRINTGUID
  2
{1651d859-f5c4-45ea-ab8d-5e0f99c957e5}
  9
$VERSIONGUID
  2
{FAEB1C32-E019-11D5-929B-00C0DF256EC4}
  9
$EXTNAMES
290
     1
  9
$PSVPSCALE
 40
0.0
  9
$OLESTARTUP
290
     0
  0
ENDSEC
  0
SECTION
  2
CLASSES
  0
CLASS
  1
ACDBDICTIONARYWDFLT
  2
AcDbDictionaryWithDefault
  3
ObjectDBX Classes
 90
        0
280
     0
281
     0
  0
CLASS
  1
VISUALSTYLE
  2
AcDbVisualStyle
  3
ObjectDBX Classes
 90
     4095
280
     0
281
     0
  0
CLASS
  1
MATERIAL
  2
AcDbMaterial
  3
ObjectDBX Classes
 90
     1153
280
     0
281
     0
  0
CLASS
  1
SCALE
  2
AcDbScale
  3
ObjectDBX Classes
 90
     1153
280
     0
281
     0
  0
CLASS
  1
TABLESTYLE
  2
AcDbTableStyle
  3
ObjectDBX Classes
 90
     4095
280
     0
281
     0
  0
CLASS
  1
MLEADERSTYLE
  2
AcDbMLeaderStyle
  3
ACDB_MLEADERSTYLE_CLASS
 90
     4095
280
     0
281
     0
  0
CLASS
  1
SUN
  2
AcDbSun
  3
SCENEOE
 90
     1153
280
     0
281
     0
  0
CLASS
  1
ACDBPLACEHOLDER
  2
AcDbPlaceHolder
  3
ObjectDBX Classes
 90
        0
280
     0
281
     0
  0
CLASS
  1
LAYOUT
  2
AcDbLayout
  3
ObjectDBX Classes
 90
        0
280
     0
281
     0
  0
ENDSEC
  0
SECTION
  2
TABLES
  0
TABLE
  2
VPORT
  5
8
330
0
100
AcDbSymbolTable
 70
     1
  0
VPORT
  5
29
330
8
100
AcDbSymbolTableRecord
100
AcDbViewportTableRecord
  2
*Active
 70
     0
 10
0.0
 20
0.0
 11
1.0
 21
1.0
 12
22.0
 22
17.0
 13
0.0
 23
0.0
 14
0.5
 24
0.5
 15
0.5
 25
0.5
 16
0.0
 26
0.0
 36
1.0
 17
0.0
 27
0.0
 37
0.0
 40
34.0
 41
1.2941176471
 42
50.0
 43
0.0
 44
0.0
 50
0.0
 51
0.0
 71
     0
 72
  2000
 73
     1
 74
     3
 75
     0
 76
     0
 77
     0
 78
     0
281
     0
 65
     1
110
0.0
120
0.0
130
0.0
111
1.0
121
0.0
131
0.0
112
0.0
122
1.0
132
0.0
 79
     0
146
0.0
  0
ENDTAB
  0
TABLE
  2
LTYPE
  5
5
330
0
100
AcDbSymbolTable
 70
     6
  0
LTYPE
  5
14
330
5
100
AcDbSymbolTableRecord
100
AcDbLinetypeTableRecord
  2
ByBlock
 70
     0
  3

 72
    65
 73
     0
 40
0.0
  0
LTYPE
  5
15
330
5
100
AcDbSymbolTableRecord
100
AcDbLinetypeTableRecord
  2
ByLayer
 70
     0
  3

 72
    65
 73
     0
 40
0.0
  0
LTYPE
  5
16
330
5
100
AcDbSymbolTableRecord
100
AcDbLinetypeTableRecord
  2
Continuous
 70
     0
  3
Solid line
 72
    65
 73
     0
 40
0.0
  0
LTYPE
  5
5E
330
5
100
AcDbSymbolTableRecord
100
AcDbLinetypeTableRecord
  2
HIDDEN
 70
     0
  3
Hidden __ __ __ __ __ __ __ __ __ __ __ __ __ __
 72
    65
 73
     2
 40
0.075
 49
0.05
 74
     0
 49
-0.025
 74
     0
  0
LTYPE
  5
5F
330
5
100
AcDbSymbolTableRecord
100
AcDbLinetypeTableRecord
  2
PHANTOM
 70
     0
  3
Phantom ______  __  __  ______  __  __  ______
 72
    65
 73
     6
 40
0.5
 49
0.25
 74
     0
 49
-0.05
 74
     0
 49
0.05
 74
     0
 49
-0.05
 74
     0
 49
0.05
 74
     0
 49
-0.05
 74
     0
  0
LTYPE
  5
60
330
5
100
AcDbSymbolTableRecord
100
AcDbLinetypeTableRecord
  2
CENTER
 70
     0
  3
Center ____ _ ____ _ ____ _ ____ _ ____ _ ____
 72
    65
 73
     4
 40
0.4
 49
0.25
 74
     0
 49
-0.05
 74
     0
 49
0.05
 74
     0
 49
-0.05
 74
     0
  0
LTYPE
  5
61
330
5
100
AcDbSymbolTableRecord
100
AcDbLinetypeTableRecord
  2
CENTERX2
 70
     0
  3
Center (2x) ________  __  ________  __  _____
 72
    65
 73
     4
 40
0.8
 49
0.5
 74
     0
 49
-0.1
 74
     0
 49
0.1
 74
     0
 49
-0.1
 74
     0
  0
LTYPE
  5
62
330
5
100
AcDbSymbolTableRecord
100
AcDbLinetypeTableRecord
  2
DOT2
 70
     0
  3
Dot (.5x) ........................................
 72
    65
 73
     2
 40
0.025
 49
0.0
 74
     0
 49
-0.025
 74
     0
  0
ENDTAB
  0
TABLE
  2
LAYER
  5
2
330
0
100
AcDbSymbolTable
 70
    11
  0
LAYER
  5
10
330
2
100
AcDbSymbolTableRecord
100
AcDbLayerTableRecord
  2
0
 70
     0
 62
     7
  6
Continuous
370
    -3
390
F
  0
LAYER
  5
63
330
2
100
AcDbSymbolTableRecord
100
AcDbLayerTableRecord
  2
SLD-0
 70
     0
 62
     7
  6
Continuous
370
    -3
390
F
  0
LAYER
  5
64
330
2
100
AcDbSymbolTableRecord
100
AcDbLayerTableRecord
  2
DIM
 70
     0
 62
     7
  6
Continuous
370
    -3
390
F
  0
LAYER
  5
65
330
2
100
AcDbSymbolTableRecord
100
AcDbLayerTableRecord
  2
CEN
 70
     0
 62
     1
  6
CENTER
370
    -3
390
F
  0
LAYER
  5
66
330
2
100
AcDbSymbolTableRecord
100
AcDbLayerTableRecord
  2
HAT
 70
     0
 62
     4
  6
Continuous
370
    -3
390
F
  0
LAYER
  5
67
330
2
100
AcDbSymbolTableRecord
100
AcDbLayerTableRecord
  2
OBJ
 70
     0
 62
     5
  6
Continuous
370
    -3
390
F
  0
LAYER
  5
68
330
2
100
AcDbSymbolTableRecord
100
AcDbLayerTableRecord
  2
SLD-DEFPOINTS
 70
     0
 62
     7
  6
Continuous
370
    -3
390
F
  0
LAYER
  5
69
330
2
100
AcDbSymbolTableRecord
100
AcDbLayerTableRecord
  2
HID
 70
     0
 62
     4
  6
HIDDEN
370
    -3
390
F
  0
LAYER
  5
6A
330
2
100
AcDbSymbolTableRecord
100
AcDbLayerTableRecord
  2
NOTE
 70
     0
 62
     7
  6
Continuous
370
    -3
390
F
  0
LAYER
  5
6B
330
2
100
AcDbSymbolTableRecord
100
AcDbLayerTableRecord
  2
TITLE
 70
     0
 62
     7
  6
Continuous
370
    -3
390
F
  0
LAYER
  5
6C
330
2
100
AcDbSymbolTableRecord
100
AcDbLayerTableRecord
  2
THICK_TITLE
 70
     0
 62
     7
  6
Continuous
370
   100
390
F
  0
ENDTAB
  0
TABLE
  2
STYLE
  5
3
330
0
100
AcDbSymbolTable
 70
     2
  0
STYLE
  5
11
330
3
100
AcDbSymbolTableRecord
100
AcDbTextStyleTableRecord
  2
Standard
 70
     0
 40
0.0
 41
1.0
 50
0.0
 71
     0
 42
0.5
  3
txt
  4

  0
STYLE
  5
6D
330
3
100
AcDbSymbolTableRecord
100
AcDbTextStyleTableRecord
  2
SLDTEXTSTYLE0
 70
     0
 40
0.0
 41
0.75
 50
0.0
 71
     0
 42
0.5
  3
TXT
  4

  0
ENDTAB
  0
TABLE
  2
VIEW
  5
6
330
0
100
AcDbSymbolTable
 70
     0
  0
ENDTAB
  0
TABLE
  2
UCS
  5
7
330
0
100
AcDbSymbolTable
 70
     0
  0
ENDTAB
  0
TABLE
  2
APPID
  5
9
330
0
100
AcDbSymbolTable
 70
     1
  0
APPID
  5
12
330
9
100
AcDbSymbolTableRecord
100
AcDbRegAppTableRecord
  2
ACAD
 70
     0
  0
ENDTAB
  0
TABLE
  2
DIMSTYLE
  5
A
330
0
100
AcDbSymbolTable
 70
     6
100
AcDbDimStyleTable
  0
DIMSTYLE
105
27
330
A
100
AcDbSymbolTableRecord
100
AcDbDimStyleTableRecord
  2
Standard
 70
     0
178
     0
340
11
  0
DIMSTYLE
105
96
102
{ACAD_REACTORS
330
95
330
D4
330
FC
102
}
330
A
100
AcDbSymbolTableRecord
100
AcDbDimStyleTableRecord
  2
SLDDIMSTYLE0
 70
     0
 41
0.52
 44
0.0
 45
0.000000001
 78
    12
 79
     3
140
0.5
147
0.125
148
0.000000001
170
     1
172
     1
173
     1
178
     0
271
     6
272
     0
276
     2
277
     5
284
    12
289
     0
340
6D
  0
DIMSTYLE
105
AC
102
{ACAD_REACTORS
330
AB
102
}
330
A
100
AcDbSymbolTableRecord
100
AcDbDimStyleTableRecord
  2
SLDDIMSTYLE1
 70
     0
 41
0.52
 44
0.0
 45
0.000000001
 78
    12
 79
     3
140
0.5
147
0.125
148
0.000000001
170
     1
173
     1
178
     0
271
     0
272
     0
276
     2
277
     5
284
    12
340
6D
  0
DIMSTYLE
105
C1
102
{ACAD_REACTORS
330
C0
330
E7
102
}
330
A
100
AcDbSymbolTableRecord
100
AcDbDimStyleTableRecord
  2
SLDDIMSTYLE2
 70
     0
 41
0.52
 44
0.0
 45
0.000000001
 78
    12
 79
     3
140
0.5
147
0.125
148
0.000000001
170
     1
173
     1
178
     0
271
     6
272
     0
276
     2
277
     5
284
    12
340
6D
  0
DIMSTYLE
105
110
102
{ACAD_REACTORS
330
10F
330
11C
102
}
330
A
100
AcDbSymbolTableRecord
100
AcDbDimStyleTableRecord
  2
SLDDIMSTYLE3
 70
     0
 41
0.52
 44
0.0
 45
0.000000001
 78
    12
 79
     3
140
0.5
147
0.125
148
0.000000001
170
     1
172
     1
173
     1
178
     0
271
     0
272
     0
276
     2
277
     5
284
    12
289
     0
340
6D
  0
DIMSTYLE
105
131
330
A
100
AcDbSymbolTableRecord
100
AcDbDimStyleTableRecord
  2
SLDDIMSTYLE4
 70
     0
 41
0.52
 44
0.0
 45
0.000000001
146
0.52
147
0.0
173
     1
178
     0
271
     0
272
     0
276
     2
277
     5
340
11
  0
ENDTAB
  0
TABLE
  2
BLOCK_RECORD
  5
1
330
0
100
AcDbSymbolTable
 70
     9
  0
BLOCK_RECORD
  5
1F
330
1
100
AcDbSymbolTableRecord
100
AcDbBlockTableRecord
  2
*Model_Space
340
22
  0
BLOCK_RECORD
  5
1B
330
1
100
AcDbSymbolTableRecord
100
AcDbBlockTableRecord
  2
*Paper_Space
340
1E
  0
BLOCK_RECORD
  5
23
330
1
100
AcDbSymbolTableRecord
100
AcDbBlockTableRecord
  2
*Paper_Space0
340
26
  0
BLOCK_RECORD
  5
97
330
1
100
AcDbSymbolTableRecord
100
AcDbBlockTableRecord
  2
_D
340
0
  0
BLOCK_RECORD
  5
AD
330
1
100
AcDbSymbolTableRecord
100
AcDbBlockTableRecord
  2
_D_1
340
0
  0
BLOCK_RECORD
  5
C2
330
1
100
AcDbSymbolTableRecord
100
AcDbBlockTableRecord
  2
_D_2
340
0
  0
BLOCK_RECORD
  5
D5
330
1
100
AcDbSymbolTableRecord
100
AcDbBlockTableRecord
  2
_D_3
340
0
  0
BLOCK_RECORD
  5
E8
330
1
100
AcDbSymbolTableRecord
100
AcDbBlockTableRecord
  2
_D_4
340
0
  0
BLOCK_RECORD
  5
FD
330
1
100
AcDbSymbolTableRecord
100
AcDbBlockTableRecord
  2
_D_5
340
0
  0
BLOCK_RECORD
  5
111
330
1
100
AcDbSymbolTableRecord
100
AcDbBlockTableRecord
  2
_D_6
340
0
  0
BLOCK_RECORD
  5
11D
330
1
100
AcDbSymbolTableRecord
100
AcDbBlockTableRecord
  2
_D_7
340
0
  0
ENDTAB
  0
ENDSEC
  0
SECTION
  2
BLOCKS
  0
BLOCK
  5
20
330
1F
100
AcDbEntity
  8
0
100
AcDbBlockBegin
  2
*Model_Space
 70
     0
 10
0.0
 20
0.0
 30
0.0
  3
*Model_Space
  1

  0
ENDBLK
  5
21
330
1F
100
AcDbEntity
  8
0
100
AcDbBlockEnd
  0
BLOCK
  5
1C
330
1B
100
AcDbEntity
 67
     1
  8
0
100
AcDbBlockBegin
  2
*Paper_Space
 70
     0
 10
0.0
 20
0.0
 30
0.0
  3
*Paper_Space
  1

  0
ENDBLK
  5
1D
330
1B
100
AcDbEntity
 67
     1
  8
0
100
AcDbBlockEnd
  0
BLOCK
  5
24
330
23
100
AcDbEntity
  8
0
100
AcDbBlockBegin
  2
*Paper_Space0
 70
     0
 10
0.0
 20
0.0
 30
0.0
  3
*Paper_Space0
  1

  0
ENDBLK
  5
25
330
23
100
AcDbEntity
  8
0
100
AcDbBlockEnd
  0
BLOCK
  5
98
330
97
100
AcDbEntity
  8
0
100
AcDbBlockBegin
  2
_D
 70
     0
 10
0.0
 20
0.0
 30
0.0
  3
_D
  1

  0
SOLID
  5
9A
330
97
100
AcDbEntity
  8
SLD-0
100
AcDbTrace
 10
18.766614226
 20
14.4910795864
 30
0.0
 11
18.846614226
 21
15.0110795864
 31
0.0
 12
18.686614226
 22
15.0110795864
 32
0.0
 13
18.686614226
 23
15.0110795864
 33
0.0
  0
SOLID
  5
9B
330
97
100
AcDbEntity
  8
SLD-0
100
AcDbTrace
 10
18.766614226
 20
13.6160795864
 30
0.0
 11
18.686614226
 21
13.0960795864
 31
0.0
 12
18.846614226
 22
13.0960795864
 32
0.0
 13
18.846614226
 23
13.0960795864
 33
0.0
  0
LINE
  5
9C
330
97
100
AcDbEntity
  8
SLD-0
100
AcDbLine
 10
20.5601904746
 20
11.7131281774
 30
0.0
 11
20.4078467261
 21
11.7131281774
 31
0.0
  0
LINE
  5
9D
330
97
100
AcDbEntity
  8
SLD-0
100
AcDbLine
 10
20.4078467261
 20
11.7131281774
 30
0.0
 11
20.4078467261
 21
10.9193781535
 31
0.0
  0
LINE
  5
9E
330
97
100
AcDbEntity
  8
SLD-0
100
AcDbLine
 10
20.4078467261
 20
10.9193781535
 30
0.0
 11
20.5601904746
 21
10.9193781535
 31
0.0
  0
LINE
  5
9F
330
97
100
AcDbEntity
  8
SLD-0
100
AcDbLine
 10
22.5490794054
 20
11.7131281774
 30
0.0
 11
22.7014231539
 21
11.7131281774
 31
0.0
  0
LINE
  5
A0
330
97
100
AcDbEntity
  8
SLD-0
100
AcDbLine
 10
22.7014231539
 20
11.7131281774
 30
0.0
 11
22.7014231539
 21
10.9193781535
 31
0.0
  0
LINE
  5
A1
330
97
100
AcDbEntity
  8
SLD-0
100
AcDbLine
 10
22.7014231539
 20
10.9193781535
 30
0.0
 11
22.5490794054
 21
10.9193781535
 31
0.0
  0
LINE
  5
A2
330
97
100
AcDbEntity
  8
SLD-0
100
AcDbLine
 10
17.2226307902
 20
14.4910795864
 30
0.0
 11
19.266614226
 21
14.4910795864
 31
0.0
  0
LINE
  5
A3
330
97
100
AcDbEntity
  8
SLD-0
100
AcDbLine
 10
17.1920751169
 20
13.6160795864
 30
0.0
 11
19.266614226
 21
13.6160795864
 31
0.0
  0
LINE
  5
A4
330
97
100
AcDbEntity
  8
SLD-0
100
AcDbLine
 10
19.766614226
 20
11.7169476999
 30
0.0
 11
18.766614226
 21
11.7169476999
 31
0.0
  0
LINE
  5
A5
330
97
100
AcDbEntity
  8
SLD-0
100
AcDbLine
 10
18.766614226
 20
11.7169476999
 30
0.0
 11
18.766614226
 21
13.6160795864
 31
0.0
  0
LINE
  5
A6
330
97
100
AcDbEntity
  8
SLD-0
100
AcDbLine
 10
18.766614226
 20
14.4910795864
 30
0.0
 11
18.766614226
 21
15.4910795864
 31
0.0
  0
MTEXT
  5
A7
330
97
100
AcDbEntity
  8
SLD-0
100
AcDbMText
 10
20.2582807549
 20
12.4668634874
 30
0.0
 40
0.5
 41
0.0
 71
     1
 72
     1
  1

  7
SLDTEXTSTYLE0
 73
     1
 44
1.0
  0
MTEXT
  5
A8
330
97
100
AcDbEntity
  8
SLD-0
100
AcDbMText
 10
20.9362320938
 20
12.4592245615
 30
0.0
 40
0.5
 41
0.0
 71
     1
 72
     1
  1
7/8"
  7
SLDTEXTSTYLE0
 73
     1
 44
1.0
  0
MTEXT
  5
A9
330
97
100
AcDbEntity
  8
SLD-0
100
AcDbMText
 10
20.5601904746
 20
11.5639120784
 30
0.0
 40
0.5
 41
0.0
 71
     1
 72
     1
  1
22mm
  7
SLDTEXTSTYLE0
 73
     1
 44
1.0
  0
MTEXT
  5
AA
330
97
100
AcDbEntity
  8
SLD-0
100
AcDbMText
 10
23.0412667923
 20
12.4668634874
 30
0.0
 40
0.5
 41
0.0
 71
     1
 72
     1
  1

  7
SLDTEXTSTYLE0
 73
     1
 44
1.0
  0
ENDBLK
  5
99
330
97
100
AcDbEntity
  8
0
100
AcDbBlockEnd
  0
BLOCK
  5
AE
330
AD
100
AcDbEntity
  8
0
100
AcDbBlockBegin
  2
_D_1
 70
     0
 10
0.0
 20
0.0
 30
0.0
  3
_D_1
  1

  0
SOLID
  5
B0
330
AD
100
AcDbEntity
  8
SLD-0
100
AcDbTrace
 10
8.4884867102
 20
22.5535795864
 30
0.0
 11
8.4084867102
 21
22.0335795864
 31
0.0
 12
8.5684867102
 22
22.0335795864
 32
0.0
 13
8.5684867102
 23
22.0335795864
 33
0.0
  0
SOLID
  5
B1
330
AD
100
AcDbEntity
  8
SLD-0
100
AcDbTrace
 10
8.4884867102
 20
4.5535795864
 30
0.0
 11
8.5684867102
 21
5.0735795864
 31
0.0
 12
8.4084867102
 22
5.0735795864
 32
0.0
 13
8.4084867102
 23
5.0735795864
 33
0.0
  0
LINE
  5
B2
330
AD
100
AcDbEntity
  8
SLD-0
100
AcDbLine
 10
7.309320132
 20
13.5497600639
 30
0.0
 11
7.1569763836
 21
13.5497600639
 31
0.0
  0
LINE
  5
B3
330
AD
100
AcDbEntity
  8
SLD-0
100
AcDbLine
 10
7.1569763836
 20
13.5497600639
 30
0.0
 11
7.1569763836
 21
12.75601004
 31
0.0
  0
LINE
  5
B4
330
AD
100
AcDbEntity
  8
SLD-0
100
AcDbLine
 10
7.1569763836
 20
12.75601004
 30
0.0
 11
7.309320132
 21
12.75601004
 31
0.0
  0
LINE
  5
B5
330
AD
100
AcDbEntity
  8
SLD-0
100
AcDbLine
 10
9.667653435
 20
13.5497600639
 30
0.0
 11
9.8199971835
 21
13.5497600639
 31
0.0
  0
LINE
  5
B6
330
AD
100
AcDbEntity
  8
SLD-0
100
AcDbLine
 10
9.8199971835
 20
13.5497600639
 30
0.0
 11
9.8199971835
 21
12.75601004
 31
0.0
  0
LINE
  5
B7
330
AD
100
AcDbEntity
  8
SLD-0
100
AcDbLine
 10
9.8199971835
 20
12.75601004
 30
0.0
 11
9.667653435
 21
12.75601004
 31
0.0
  0
LINE
  5
B8
330
AD
100
AcDbEntity
  8
SLD-0
100
AcDbLine
 10
12.6726307902
 20
22.5535795864
 30
0.0
 11
7.9884867102
 21
22.5535795864
 31
0.0
  0
LINE
  5
B9
330
AD
100
AcDbEntity
  8
SLD-0
100
AcDbLine
 10
12.6726307902
 20
4.5535795864
 30
0.0
 11
7.9884867102
 21
4.5535795864
 31
0.0
  0
LINE
  5
BA
330
AD
100
AcDbEntity
  8
SLD-0
100
AcDbLine
 10
8.4884867102
 20
22.5535795864
 30
0.0
 11
8.4884867102
 21
14.4527114729
 31
0.0
  0
LINE
  5
BB
330
AD
100
AcDbEntity
  8
SLD-0
100
AcDbLine
 10
8.4884867102
 20
4.5535795864
 30
0.0
 11
8.4884867102
 21
12.6544476999
 31
0.0
  0
MTEXT
  5
BC
330
AD
100
AcDbEntity
  8
SLD-0
100
AcDbMText
 10
7.0074104124
 20
14.3034953739
 30
0.0
 40
0.5
 41
0.0
 71
     1
 72
     1
  1

  7
SLDTEXTSTYLE0
 73
     1
 44
1.0
  0
MTEXT
  5
BD
330
AD
100
AcDbEntity
  8
SLD-0
100
AcDbMText
 10
8.0159173194
 20
14.295856448
 30
0.0
 40
0.5
 41
0.0
 71
     1
 72
     1
  1
18"
  7
SLDTEXTSTYLE0
 73
     1
 44
1.0
  0
MTEXT
  5
BE
330
AD
100
AcDbEntity
  8
SLD-0
100
AcDbMText
 10
7.309320132
 20
13.4005439649
 30
0.0
 40
0.5
 41
0.0
 71
     1
 72
     1
  1
457mm
  7
SLDTEXTSTYLE0
 73
     1
 44
1.0
  0
MTEXT
  5
BF
330
AD
100
AcDbEntity
  8
SLD-0
100
AcDbMText
 10
10.1598408219
 20
14.3034953739
 30
0.0
 40
0.5
 41
0.0
 71
     1
 72
     1
  1

  7
SLDTEXTSTYLE0
 73
     1
 44
1.0
  0
ENDBLK
  5
AF
330
AD
100
AcDbEntity
  8
0
100
AcDbBlockEnd
  0
BLOCK
  5
C3
330
C2
100
AcDbEntity
  8
0
100
AcDbBlockBegin
  2
_D_2
 70
     0
 10
0.0
 20
0.0
 30
0.0
  3
_D_2
  1

  0
SOLID
  5
C5
330
C2
100
AcDbEntity
  8
SLD-0
100
AcDbTrace
 10
12.8726307902
 20
2.9787764368
 30
0.0
 11
13.3926307902
 21
2.8987764368
 31
0.0
 12
13.3926307902
 22
3.0587764368
 32
0.0
 13
13.3926307902
 23
3.0587764368
 33
0.0
  0
SOLID
  5
C6
330
C2
100
AcDbEntity
  8
SLD-0
100
AcDbTrace
 10
15.2476307902
 20
2.9787764368
 30
0.0
 11
14.7276307902
 21
3.0587764368
 31
0.0
 12
14.7276307902
 22
2.8987764368
 32
0.0
 13
14.7276307902
 23
2.8987764368
 33
0.0
  0
LINE
  5
C7
330
C2
100
AcDbEntity
  8
SLD-0
100
AcDbLine
 10
16.552318287
 20
2.9787763635
 30
0.0
 11
16.3999745386
 21
2.9787763635
 31
0.0
  0
LINE
  5
C8
330
C2
100
AcDbEntity
  8
SLD-0
100
AcDbLine
 10
16.3999745386
 20
2.9787763635
 30
0.0
 11
16.3999745386
 21
2.1850263396
 31
0.0
  0
LINE
  5
C9
330
C2
100
AcDbEntity
  8
SLD-0
100
AcDbLine
 10
16.3999745386
 20
2.1850263396
 30
0.0
 11
16.552318287
 21
2.1850263396
 31
0.0
  0
LINE
  5
CA
330
C2
100
AcDbEntity
  8
SLD-0
100
AcDbLine
 10
18.5412072179
 20
2.9787763635
 30
0.0
 11
18.6935509663
 21
2.9787763635
 31
0.0
  0
LINE
  5
CB
330
C2
100
AcDbEntity
  8
SLD-0
100
AcDbLine
 10
18.6935509663
 20
2.9787763635
 30
0.0
 11
18.6935509663
 21
2.1850263396
 31
0.0
  0
LINE
  5
CC
330
C2
100
AcDbEntity
  8
SLD-0
100
AcDbLine
 10
18.6935509663
 20
2.1850263396
 30
0.0
 11
18.5412072179
 21
2.1850263396
 31
0.0
  0
LINE
  5
CD
330
C2
100
AcDbEntity
  8
SLD-0
100
AcDbLine
 10
12.8726307902
 20
4.3535795864
 30
0.0
 11
12.8726307902
 21
2.4787764368
 31
0.0
  0
LINE
  5
CE
330
C2
100
AcDbEntity
  8
SLD-0
100
AcDbLine
 10
15.2476307902
 20
8.4672002544
 30
0.0
 11
15.2476307902
 21
2.4787764368
 31
0.0
  0
LINE
  5
CF
330
C2
100
AcDbEntity
  8
SLD-0
100
AcDbLine
 10
12.8726307902
 20
2.9787764368
 30
0.0
 11
15.2476307902
 21
2.9787764368
 31
0.0
  0
LINE
  5
D0
330
C2
100
AcDbEntity
  8
SLD-0
100
AcDbLine
 10
15.2476307902
 20
2.9787764368
 30
0.0
 11
16.1462419472
 21
2.9787764368
 31
0.0
  0
MTEXT
  5
D1
330
C2
100
AcDbEntity
  8
SLD-0
100
AcDbMText
 10
16.2742453494
 20
3.7248727843
 30
0.0
 40
0.5
 41
0.0
 71
     1
 72
     1
  1
%%c
  7
SLDTEXTSTYLE0
 73
     1
 44
1.0
  0
MTEXT
  5
D2
330
C2
100
AcDbEntity
  8
SLD-0
100
AcDbMText
 10
17.0283078317
 20
3.7248727843
 30
0.0
 40
0.5
 41
0.0
 71
     1
 72
     1
  1
2 3/8"
  7
SLDTEXTSTYLE0
 73
     1
 44
1.0
  0
MTEXT
  5
D3
330
C2
100
AcDbEntity
  8
SLD-0
100
AcDbMText
 10
16.552318287
 20
2.8295602645
 30
0.0
 40
0.5
 41
0.0
 71
     1
 72
     1
  1
60mm
  7
SLDTEXTSTYLE0
 73
     1
 44
1.0
  0
ENDBLK
  5
C4
330
C2
100
AcDbEntity
  8
0
100
AcDbBlockEnd
  0
BLOCK
  5
D6
330
D5
100
AcDbEntity
  8
0
100
AcDbBlockBegin
  2
_D_3
 70
     0
 10
0.0
 20
0.0
 30
0.0
  3
_D_3
  1

  0
SOLID
  5
D8
330
D5
100
AcDbEntity
  8
SLD-0
100
AcDbTrace
 10
17.0226307902
 20
16.506020451
 30
0.0
 11
17.5426307902
 21
16.426020451
 31
0.0
 12
17.5426307902
 22
16.586020451
 32
0.0
 13
17.5426307902
 23
16.586020451
 33
0.0
  0
SOLID
  5
D9
330
D5
100
AcDbEntity
  8
SLD-0
100
AcDbTrace
 10
11.0976307902
 20
16.506020451
 30
0.0
 11
10.5776307902
 21
16.586020451
 31
0.0
 12
10.5776307902
 22
16.426020451
 32
0.0
 13
10.5776307902
 23
16.426020451
 33
0.0
  0
LINE
  5
DA
330
D5
100
AcDbEntity
  8
SLD-0
100
AcDbLine
 10
18.5323295009
 20
16.5060203777
 30
0.0
 11
18.3799857525
 21
16.5060203777
 31
0.0
  0
LINE
  5
DB
330
D5
100
AcDbEntity
  8
SLD-0
100
AcDbLine
 10
18.3799857525
 20
16.5060203777
 30
0.0
 11
18.3799857525
 21
15.7122703538
 31
0.0
  0
LINE
  5
DC
330
D5
100
AcDbEntity
  8
SLD-0
100
AcDbLine
 10
18.3799857525
 20
15.7122703538
 30
0.0
 11
18.5323295009
 21
15.7122703538
 31
0.0
  0
LINE
  5
DD
330
D5
100
AcDbEntity
  8
SLD-0
100
AcDbLine
 10
20.8906628039
 20
16.5060203777
 30
0.0
 11
21.0430065524
 21
16.5060203777
 31
0.0
  0
LINE
  5
DE
330
D5
100
AcDbEntity
  8
SLD-0
100
AcDbLine
 10
21.0430065524
 20
16.5060203777
 30
0.0
 11
21.0430065524
 21
15.7122703538
 31
0.0
  0
LINE
  5
DF
330
D5
100
AcDbEntity
  8
SLD-0
100
AcDbLine
 10
21.0430065524
 20
15.7122703538
 30
0.0
 11
20.8906628039
 21
15.7122703538
 31
0.0
  0
LINE
  5
E0
330
D5
100
AcDbEntity
  8
SLD-0
100
AcDbLine
 10
17.0226307902
 20
14.6910795864
 30
0.0
 11
17.0226307902
 21
17.006020451
 31
0.0
  0
LINE
  5
E1
330
D5
100
AcDbEntity
  8
SLD-0
100
AcDbLine
 10
11.0976307902
 20
14.6910795864
 30
0.0
 11
11.0976307902
 21
17.006020451
 31
0.0
  0
LINE
  5
E2
330
D5
100
AcDbEntity
  8
SLD-0
100
AcDbLine
 10
17.0226307902
 20
16.506020451
 30
0.0
 11
17.9681455342
 21
16.506020451
 31
0.0
  0
LINE
  5
E3
330
D5
100
AcDbEntity
  8
SLD-0
100
AcDbLine
 10
11.0976307902
 20
16.506020451
 30
0.0
 11
10.0976307902
 21
16.506020451
 31
0.0
  0
MTEXT
  5
E4
330
D5
100
AcDbEntity
  8
SLD-0
100
AcDbMText
 10
18.0695343772
 20
17.2521167985
 30
0.0
 40
0.5
 41
0.0
 71
     1
 72
     1
  1
%%c
  7
SLDTEXTSTYLE0
 73
     1
 44
1.0
  0
MTEXT
  5
E5
330
D5
100
AcDbEntity
  8
SLD-0
100
AcDbMText
 10
18.8235968595
 20
17.2521167985
 30
0.0
 40
0.5
 41
0.0
 71
     1
 72
     1
  1
5 15/16"
  7
SLDTEXTSTYLE0
 73
     1
 44
1.0
  0
MTEXT
  5
E6
330
D5
100
AcDbEntity
  8
SLD-0
100
AcDbMText
 10
18.5323295009
 20
16.3568042787
 30
0.0
 40
0.5
 41
0.0
 71
     1
 72
     1
  1
150mm
  7
SLDTEXTSTYLE0
 73
     1
 44
1.0
  0
ENDBLK
  5
D7
330
D5
100
AcDbEntity
  8
0
100
AcDbBlockEnd
  0
BLOCK
  5
E9
330
E8
100
AcDbEntity
  8
0
100
AcDbBlockBegin
  2
_D_4
 70
     0
 10
0.0
 20
0.0
 30
0.0
  3
_D_4
  1

  0
SOLID
  5
EB
330
E8
100
AcDbEntity
  8
SLD-0
100
AcDbTrace
 10
17.0344081639
 20
22.5535795864
 30
0.0
 11
17.1144081639
 21
23.0735795864
 31
0.0
 12
16.9544081639
 22
23.0735795864
 32
0.0
 13
16.9544081639
 23
23.0735795864
 33
0.0
  0
SOLID
  5
EC
330
E8
100
AcDbEntity
  8
SLD-0
100
AcDbTrace
 10
17.0344081639
 20
24.2185795864
 30
0.0
 11
16.9544081639
 21
23.6985795864
 31
0.0
 12
17.1144081639
 22
23.6985795864
 32
0.0
 13
17.1144081639
 23
23.6985795864
 33
0.0
  0
LINE
  5
ED
330
E8
100
AcDbEntity
  8
SLD-0
100
AcDbLine
 10
18.8279844124
 20
20.9245400463
 30
0.0
 11
18.675640664
 21
20.9245400463
 31
0.0
  0
LINE
  5
EE
330
E8
100
AcDbEntity
  8
SLD-0
100
AcDbLine
 10
18.675640664
 20
20.9245400463
 30
0.0
 11
18.675640664
 21
20.1307900224
 31
0.0
  0
LINE
  5
EF
330
E8
100
AcDbEntity
  8
SLD-0
100
AcDbLine
 10
18.675640664
 20
20.1307900224
 30
0.0
 11
18.8279844124
 21
20.1307900224
 31
0.0
  0
LINE
  5
F0
330
E8
100
AcDbEntity
  8
SLD-0
100
AcDbLine
 10
20.8168733433
 20
20.9245400463
 30
0.0
 11
20.9692170917
 21
20.9245400463
 31
0.0
  0
LINE
  5
F1
330
E8
100
AcDbEntity
  8
SLD-0
100
AcDbLine
 10
20.9692170917
 20
20.9245400463
 30
0.0
 11
20.9692170917
 21
20.1307900224
 31
0.0
  0
LINE
  5
F2
330
E8
100
AcDbEntity
  8
SLD-0
100
AcDbLine
 10
20.9692170917
 20
20.1307900224
 30
0.0
 11
20.8168733433
 21
20.1307900224
 31
0.0
  0
LINE
  5
F3
330
E8
100
AcDbEntity
  8
SLD-0
100
AcDbLine
 10
15.4476307902
 20
22.5535795864
 30
0.0
 11
17.5344081639
 21
22.5535795864
 31
0.0
  0
LINE
  5
F4
330
E8
100
AcDbEntity
  8
SLD-0
100
AcDbLine
 10
15.3401307902
 20
24.2185795864
 30
0.0
 11
17.5344081639
 21
24.2185795864
 31
0.0
  0
LINE
  5
F5
330
E8
100
AcDbEntity
  8
SLD-0
100
AcDbLine
 10
18.0344081639
 20
20.9283595688
 30
0.0
 11
17.0344081639
 21
20.9283595688
 31
0.0
  0
LINE
  5
F6
330
E8
100
AcDbEntity
  8
SLD-0
100
AcDbLine
 10
17.0344081639
 20
20.9283595688
 30
0.0
 11
17.0344081639
 21
22.5535795864
 31
0.0
  0
LINE
  5
F7
330
E8
100
AcDbEntity
  8
SLD-0
100
AcDbLine
 10
17.0344081639
 20
22.5535795864
 30
0.0
 11
17.0344081639
 21
24.2185795864
 31
0.0
  0
MTEXT
  5
F8
330
E8
100
AcDbEntity
  8
SLD-0
100
AcDbMText
 10
18.5260746928
 20
21.6782753564
 30
0.0
 40
0.5
 41
0.0
 71
     1
 72
     1
  1

  7
SLDTEXTSTYLE0
 73
     1
 44
1.0
  0
MTEXT
  5
F9
330
E8
100
AcDbEntity
  8
SLD-0
100
AcDbMText
 10
18.5574983071
 20
21.6706364304
 30
0.0
 40
0.5
 41
0.0
 71
     1
 72
     1
  1
1 11/16"
  7
SLDTEXTSTYLE0
 73
     1
 44
1.0
  0
MTEXT
  5
FA
330
E8
100
AcDbEntity
  8
SLD-0
100
AcDbMText
 10
18.8279844124
 20
20.7753239473
 30
0.0
 40
0.5
 41
0.0
 71
     1
 72
     1
  1
42mm
  7
SLDTEXTSTYLE0
 73
     1
 44
1.0
  0
MTEXT
  5
FB
330
E8
100
AcDbEntity
  8
SLD-0
100
AcDbMText
 10
21.3090607302
 20
21.6782753564
 30
0.0
 40
0.5
 41
0.0
 71
     1
 72
     1
  1

  7
SLDTEXTSTYLE0
 73
     1
 44
1.0
  0
ENDBLK
  5
EA
330
E8
100
AcDbEntity
  8
0
100
AcDbBlockEnd
  0
BLOCK
  5
FE
330
FD
100
AcDbEntity
  8
0
100
AcDbBlockBegin
  2
_D_5
 70
     0
 10
0.0
 20
0.0
 30
0.0
  3
_D_5
  1

  0
SOLID
  5
100
330
FD
100
AcDbEntity
  8
SLD-0
100
AcDbTrace
 10
15.1701307902
 20
25.7013208754
 30
0.0
 11
15.6901307902
 21
25.6213208754
 31
0.0
 12
15.6901307902
 22
25.7813208754
 32
0.0
 13
15.6901307902
 23
25.7813208754
 33
0.0
  0
SOLID
  5
101
330
FD
100
AcDbEntity
  8
SLD-0
100
AcDbTrace
 10
12.9501307902
 20
25.7013208754
 30
0.0
 11
12.4301307902
 21
25.7813208754
 31
0.0
 12
12.4301307902
 22
25.6213208754
 32
0.0
 13
12.4301307902
 23
25.6213208754
 33
0.0
  0
LINE
  5
102
330
FD
100
AcDbEntity
  8
SLD-0
100
AcDbLine
 10
9.0770991688
 20
25.7013208021
 30
0.0
 11
8.9247554203
 21
25.7013208021
 31
0.0
  0
LINE
  5
103
330
FD
100
AcDbEntity
  8
SLD-0
100
AcDbLine
 10
8.9247554203
 20
25.7013208021
 30
0.0
 11
8.9247554203
 21
24.9075707782
 31
0.0
  0
LINE
  5
104
330
FD
100
AcDbEntity
  8
SLD-0
100
AcDbLine
 10
8.9247554203
 20
24.9075707782
 30
0.0
 11
9.0770991688
 21
24.9075707782
 31
0.0
  0
LINE
  5
105
330
FD
100
AcDbEntity
  8
SLD-0
100
AcDbLine
 10
11.0659880996
 20
25.7013208021
 30
0.0
 11
11.2183318481
 21
25.7013208021
 31
0.0
  0
LINE
  5
106
330
FD
100
AcDbEntity
  8
SLD-0
100
AcDbLine
 10
11.2183318481
 20
25.7013208021
 30
0.0
 11
11.2183318481
 21
24.9075707782
 31
0.0
  0
LINE
  5
107
330
FD
100
AcDbEntity
  8
SLD-0
100
AcDbLine
 10
11.2183318481
 20
24.9075707782
 30
0.0
 11
11.0659880996
 21
24.9075707782
 31
0.0
  0
LINE
  5
108
330
FD
100
AcDbEntity
  8
SLD-0
100
AcDbLine
 10
15.1701307902
 20
24.3885795864
 30
0.0
 11
15.1701307902
 21
26.2013208754
 31
0.0
  0
LINE
  5
109
330
FD
100
AcDbEntity
  8
SLD-0
100
AcDbLine
 10
12.9501307902
 20
24.3885795864
 30
0.0
 11
12.9501307902
 21
26.2013208754
 31
0.0
  0
LINE
  5
10A
330
FD
100
AcDbEntity
  8
SLD-0
100
AcDbLine
 10
15.1701307902
 20
25.7013208754
 30
0.0
 11
16.1701307902
 21
25.7013208754
 31
0.0
  0
LINE
  5
10B
330
FD
100
AcDbEntity
  8
SLD-0
100
AcDbLine
 10
12.9501307902
 20
25.7013208754
 30
0.0
 11
11.4720643662
 21
25.7013208754
 31
0.0
  0
MTEXT
  5
10C
330
FD
100
AcDbEntity
  8
SLD-0
100
AcDbMText
 10
8.7990262311
 20
26.4474172229
 30
0.0
 40
0.5
 41
0.0
 71
     1
 72
     1
  1
%%c
  7
SLDTEXTSTYLE0
 73
     1
 44
1.0
  0
MTEXT
  5
10D
330
FD
100
AcDbEntity
  8
SLD-0
100
AcDbMText
 10
9.5530887134
 20
26.4474172229
 30
0.0
 40
0.5
 41
0.0
 71
     1
 72
     1
  1
2 1/4"
  7
SLDTEXTSTYLE0
 73
     1
 44
1.0
  0
MTEXT
  5
10E
330
FD
100
AcDbEntity
  8
SLD-0
100
AcDbMText
 10
9.0770991688
 20
25.5521047031
 30
0.0
 40
0.5
 41
0.0
 71
     1
 72
     1
  1
56mm
  7
SLDTEXTSTYLE0
 73
     1
 44
1.0
  0
ENDBLK
  5
FF
330
FD
100
AcDbEntity
  8
0
100
AcDbBlockEnd
  0
BLOCK
  5
112
330
111
100
AcDbEntity
  8
0
100
AcDbBlockBegin
  2
_D_6
 70
     0
 10
0.0
 20
0.0
 30
0.0
  3
_D_6
  1

  0
SOLID
  5
114
330
111
100
AcDbEntity
  8
SLD-0
100
AcDbTrace
 10
21.325775023
 20
24.2185795864
 30
0.0
 11
21.245775023
 21
23.6985795864
 31
0.0
 12
21.405775023
 22
23.6985795864
 32
0.0
 13
21.405775023
 23
23.6985795864
 33
0.0
  0
SOLID
  5
115
330
111
100
AcDbEntity
  8
SLD-0
100
AcDbTrace
 10
21.325775023
 20
27.2185795864
 30
0.0
 11
21.405775023
 21
27.7385795864
 31
0.0
 12
21.245775023
 22
27.7385795864
 32
0.0
 13
21.245775023
 23
27.7385795864
 33
0.0
  0
LINE
  5
116
330
111
100
AcDbEntity
  8
SLD-0
100
AcDbLine
 10
15.3401307902
 20
24.2185795864
 30
0.0
 11
21.825775023
 21
24.2185795864
 31
0.0
  0
LINE
  5
117
330
111
100
AcDbEntity
  8
SLD-0
100
AcDbLine
 10
14.7601307902
 20
27.2185795864
 30
0.0
 11
21.825775023
 21
27.2185795864
 31
0.0
  0
LINE
  5
118
330
111
100
AcDbEntity
  8
SLD-0
100
AcDbLine
 10
21.325775023
 20
24.2185795864
 30
0.0
 11
21.325775023
 21
23.2185795864
 31
0.0
  0
LINE
  5
119
330
111
100
AcDbEntity
  8
SLD-0
100
AcDbLine
 10
21.325775023
 20
27.2185795864
 30
0.0
 11
21.325775023
 21
28.2185795864
 31
0.0
  0
MTEXT
  5
11A
330
111
100
AcDbEntity
  8
SLD-0
100
AcDbMText
 10
17.5247334396
 20
26.3631135113
 30
0.0
 40
0.5
 41
0.0
 71
     1
 72
     1
  1
0"-18" ADJUSTABLE STEM
  7
SLDTEXTSTYLE0
 73
     1
 44
1.0
  0
MTEXT
  5
11B
330
111
100
AcDbEntity
  8
SLD-0
100
AcDbMText
 10
18.9920946352
 20
25.5693634874
 30
0.0
 40
0.5
 41
0.0
 71
     1
 72
     1
  1
[0mm-457mm]
  7
SLDTEXTSTYLE0
 73
     1
 44
1.0
  0
ENDBLK
  5
113
330
111
100
AcDbEntity
  8
0
100
AcDbBlockEnd
  0
BLOCK
  5
11E
330
11D
100
AcDbEntity
  8
0
100
AcDbBlockBegin
  2
_D_7
 70
     0
 10
0.0
 20
0.0
 30
0.0
  3
_D_7
  1

  0
SOLID
  5
120
330
11D
100
AcDbEntity
  8
SLD-0
100
AcDbTrace
 10
13.5601307902
 20
28.793382736
 30
0.0
 11
13.0401307902
 21
28.873382736
 31
0.0
 12
13.0401307902
 22
28.713382736
 32
0.0
 13
13.0401307902
 23
28.713382736
 33
0.0
  0
SOLID
  5
121
330
11D
100
AcDbEntity
  8
SLD-0
100
AcDbTrace
 10
14.5601307902
 20
28.793382736
 30
0.0
 11
15.0801307902
 21
28.713382736
 31
0.0
 12
15.0801307902
 22
28.873382736
 32
0.0
 13
15.0801307902
 23
28.873382736
 33
0.0
  0
LINE
  5
122
330
11D
100
AcDbEntity
  8
SLD-0
100
AcDbLine
 10
10.2665544357
 20
28.7933826627
 30
0.0
 11
10.1142106873
 21
28.7933826627
 31
0.0
  0
LINE
  5
123
330
11D
100
AcDbEntity
  8
SLD-0
100
AcDbLine
 10
10.1142106873
 20
28.7933826627
 30
0.0
 11
10.1142106873
 21
27.9996326388
 31
0.0
  0
LINE
  5
124
330
11D
100
AcDbEntity
  8
SLD-0
100
AcDbLine
 10
10.1142106873
 20
27.9996326388
 30
0.0
 11
10.2665544357
 21
27.9996326388
 31
0.0
  0
LINE
  5
125
330
11D
100
AcDbEntity
  8
SLD-0
100
AcDbLine
 10
12.2554433666
 20
28.7933826627
 30
0.0
 11
12.407787115
 21
28.7933826627
 31
0.0
  0
LINE
  5
126
330
11D
100
AcDbEntity
  8
SLD-0
100
AcDbLine
 10
12.407787115
 20
28.7933826627
 30
0.0
 11
12.407787115
 21
27.9996326388
 31
0.0
  0
LINE
  5
127
330
11D
100
AcDbEntity
  8
SLD-0
100
AcDbLine
 10
12.407787115
 20
27.9996326388
 30
0.0
 11
12.2554433666
 21
27.9996326388
 31
0.0
  0
LINE
  5
128
330
11D
100
AcDbEntity
  8
SLD-0
100
AcDbLine
 10
13.5601307902
 20
27.4185795864
 30
0.0
 11
13.5601307902
 21
29.293382736
 31
0.0
  0
LINE
  5
129
330
11D
100
AcDbEntity
  8
SLD-0
100
AcDbLine
 10
14.5601307902
 20
27.4185795864
 30
0.0
 11
14.5601307902
 21
29.293382736
 31
0.0
  0
LINE
  5
12A
330
11D
100
AcDbEntity
  8
SLD-0
100
AcDbLine
 10
13.5601307902
 20
28.793382736
 30
0.0
 11
12.6615196331
 21
28.793382736
 31
0.0
  0
LINE
  5
12B
330
11D
100
AcDbEntity
  8
SLD-0
100
AcDbLine
 10
14.5601307902
 20
28.793382736
 30
0.0
 11
15.5601307902
 21
28.793382736
 31
0.0
  0
MTEXT
  5
12C
330
11D
100
AcDbEntity
  8
SLD-0
100
AcDbMText
 10
10.5961204186
 20
29.5394790835
 30
0.0
 40
0.5
 41
0.0
 71
     1
 72
     1
  1
%%c
  7
SLDTEXTSTYLE0
 73
     1
 44
1.0
  0
MTEXT
  5
12D
330
11D
100
AcDbEntity
  8
SLD-0
100
AcDbMText
 10
11.3501829009
 20
29.5394790835
 30
0.0
 40
0.5
 41
0.0
 71
     1
 72
     1
  1
1"
  7
SLDTEXTSTYLE0
 73
     1
 44
1.0
  0
MTEXT
  5
12E
330
11D
100
AcDbEntity
  8
SLD-0
100
AcDbMText
 10
10.2665544357
 20
28.6441665637
 30
0.0
 40
0.5
 41
0.0
 71
     1
 72
     1
  1
25mm
  7
SLDTEXTSTYLE0
 73
     1
 44
1.0
  0
ENDBLK
  5
11F
330
11D
100
AcDbEntity
  8
0
100
AcDbBlockEnd
  0
ENDSEC
  0
SECTION
  2
ENTITIES
  0
MTEXT
  5
6E
330
1F
100
AcDbEntity
  8
SLD-0
100
AcDbMText
 10
35.0169421488
 20
3.373003985
 30
0.0
 40
0.5
 41
0.0
 71
     1
 72
     1
  1
PI1-A18
  7
SLDTEXTSTYLE0
 73
     1
 44
1.0
  0
LINE
  5
6F
330
1F
100
AcDbEntity
  8
0
  6
Continuous
 62
     7
370
    25
100
AcDbLine
 10
15.2476307902
 20
8.6672002544
 30
0.0
 11
15.2476307902
 21
13.6160795864
 31
0.0
  0
LINE
  5
70
330
1F
100
AcDbEntity
  8
0
  6
Continuous
 62
     7
370
    25
100
AcDbLine
 10
15.2476307902
 20
14.4910795864
 30
0.0
 11
15.2476307902
 21
22.5535795864
 31
0.0
  0
LINE
  5
71
330
1F
100
AcDbEntity
  8
0
  6
Continuous
 62
     7
370
    25
100
AcDbLine
 10
12.8726307902
 20
21.0535795864
 30
0.0
 11
12.8726307902
 21
14.4910795864
 31
0.0
  0
LINE
  5
72
330
1F
100
AcDbEntity
  8
0
  6
Continuous
 62
     7
370
    25
100
AcDbLine
 10
12.8726307902
 20
13.6160795864
 30
0.0
 11
12.8726307902
 21
4.5535795864
 31
0.0
  0
LINE
  5
73
330
1F
100
AcDbEntity
  8
0
  6
Continuous
 62
     7
370
    25
100
AcDbLine
 10
15.1701307902
 20
22.5535795864
 30
0.0
 11
15.1701307902
 21
24.1885795864
 31
0.0
  0
LINE
  5
74
330
1F
100
AcDbEntity
  8
0
  6
Continuous
 62
     7
370
    25
100
AcDbLine
 10
12.9501307902
 20
24.1885795864
 30
0.0
 11
12.9501307902
 21
22.5535795864
 31
0.0
  0
LINE
  5
75
330
1F
100
AcDbEntity
  8
0
  6
Continuous
 62
     7
370
    25
100
AcDbLine
 10
15.1701307902
 20
24.1885795864
 30
0.0
 11
15.1401307902
 21
24.2185795864
 31
0.0
  0
LINE
  5
76
330
1F
100
AcDbEntity
  8
0
  6
Continuous
 62
     7
370
    25
100
AcDbLine
 10
12.9801307902
 20
24.2185795864
 30
0.0
 11
12.9501307902
 21
24.1885795864
 31
0.0
  0
LINE
  5
77
330
1F
100
AcDbEntity
  8
0
  6
Continuous
 62
     7
370
    25
100
AcDbLine
 10
13.5601307902
 20
27.2185795864
 30
0.0
 11
13.5601307902
 21
24.2185795864
 31
0.0
  0
LINE
  5
78
330
1F
100
AcDbEntity
  8
0
  6
Continuous
 62
     7
370
    25
100
AcDbLine
 10
14.5601307902
 20
24.2185795864
 30
0.0
 11
14.5601307902
 21
27.2185795864
 31
0.0
  0
LINE
  5
79
330
1F
100
AcDbEntity
  8
0
  6
Continuous
 62
     7
370
    25
100
AcDbLine
 10
11.0976307902
 20
14.4910795864
 30
0.0
 11
11.1281864635
 21
13.6160795864
 31
0.0
  0
LINE
  5
7A
330
1F
100
AcDbEntity
  8
0
  6
Continuous
 62
     7
370
    25
100
AcDbLine
 10
16.9920751169
 20
13.6160795864
 30
0.0
 11
17.0226307902
 21
14.4910795864
 31
0.0
  0
LINE
  5
7B
330
1F
100
AcDbEntity
  8
0
  6
Continuous
 62
     7
370
    25
100
AcDbLine
 10
12.8626307902
 20
22.4874175464
 30
0.0
 11
12.8620057902
 21
22.4874175464
 31
0.0
  0
LINE
  5
7C
330
1F
100
AcDbEntity
  8
0
  6
Continuous
 62
     7
370
    25
100
AcDbLine
 10
14.0601307902
 20
22.5535795864
 30
0.0
 11
15.2476307902
 21
22.5535795864
 31
0.0
  0
LINE
  5
7D
330
1F
100
AcDbEntity
  8
0
  6
Continuous
 62
     7
370
    25
100
AcDbLine
 10
12.8726307902
 20
22.5535795864
 30
0.0
 11
14.0601307902
 21
22.5535795864
 31
0.0
  0
LINE
  5
7E
330
1F
100
AcDbEntity
  8
0
  6
Continuous
 62
     7
370
    25
100
AcDbLine
 10
12.8726307902
 20
4.5535795864
 30
0.0
 11
15.2476307902
 21
8.6672002544
 31
0.0
  0
LINE
  5
7F
330
1F
100
AcDbEntity
  8
0
  6
Continuous
 62
     7
370
    25
100
AcDbLine
 10
14.0601307902
 20
24.1885795864
 30
0.0
 11
12.9501307902
 21
24.1885795864
 31
0.0
  0
LINE
  5
80
330
1F
100
AcDbEntity
  8
0
  6
Continuous
 62
     7
370
    25
100
AcDbLine
 10
15.1701307902
 20
24.1885795864
 30
0.0
 11
14.0601307902
 21
24.1885795864
 31
0.0
  0
SPLINE
  5
81
330
1F
100
AcDbEntity
  8
0
  6
Continuous
 62
     7
370
    25
100
AcDbSpline
210
0.0
220
0.0
230
1.0
 70
    11
 71
     3
 72
    26
 73
    22
 74
     0
 42
0.00000001
 43
0.00000001
 40
0.0
 40
0.0
 40
0.0
 40
0.0
 40
0.0536200607839429
 40
0.1072376822530292
 40
0.1609185883661217
 40
0.2146408563604111
 40
0.2682944511770213
 40
0.3218767096526456
 40
0.3754958818586727
 40
0.4292028051159865
 40
0.4829116531775884
 40
0.5365331513008951
 40
0.5901144855236028
 40
0.6437653861511283
 40
0.6974870899191795
 40
0.7511704282073659
 40
0.8047662990509749
 40
0.8583618717573684
 40
0.9120446244252595
 40
0.9657664953707731
 40
1.0
 40
1.0
 40
1.0
 40
1.0
 10
14.12813079015542
 20
24.01857958642355
 30
0.0
 10
14.12738040253997
 20
24.01094111222644
 30
0.0
 10
14.12587966144613
 20
23.99566451132613
 30
0.0
 10
14.11418233782638
 20
23.97532751326591
 30
0.0
 10
14.09694494212764
 20
23.95984816064768
 30
0.0
 10
14.07539957387926
 20
23.95098127802319
 30
0.0
 10
14.05218040041598
 20
23.9497378751914
 30
0.0
 10
14.02986562010614
 20
23.95624008065345
 30
0.0
 10
14.01095627146264
 20
23.96974968446849
 30
0.0
 10
13.99756670066468
 20
23.98876936941017
 30
0.0
 10
13.99122740853637
 20
24.01115864493391
 30
0.0
 10
13.99265499269039
 20
24.034368376774
 30
0.0
 10
14.00166807380284
 20
24.05578626976634
 30
0.0
 10
14.01725892602993
 20
24.07302839898483
 30
0.0
 10
14.03769387554035
 20
24.08415041270649
 30
0.0
 10
14.06066139970462
 20
24.08787810802134
 30
0.0
 10
14.08354078870531
 20
24.08380200955207
 30
0.0
 10
14.10381041654216
 20
24.07239380310184
 30
0.0
 10
14.11906467691901
 20
24.0549316100279
 30
0.0
 10
14.12702270212716
 20
24.03592901295108
 30
0.0
 10
14.12782033852855
 20
24.0234403533964
 30
0.0
 10
14.12813079015542
 20
24.01857958642355
 30
0.0
  0
SPLINE
  5
82
330
1F
100
AcDbEntity
  8
0
  6
Continuous
 62
     7
370
    25
100
AcDbSpline
210
0.0
220
0.0
230
1.0
 70
    11
 71
     3
 72
    26
 73
    22
 74
     0
 42
0.00000001
 43
0.00000001
 40
0.0
 40
0.0
 40
0.0
 40
0.0
 40
0.0536200607839532
 40
0.1072376822530396
 40
0.1609185883661256
 40
0.214640856360419
 40
0.2682944511770284
 40
0.3218767096526529
 40
0.3754958818586738
 40
0.4292028051159962
 40
0.482911653177598
 40
0.5365331513009046
 40
0.5901144855236031
 40
0.6437653861511363
 40
0.697487089919188
 40
0.7511704282073728
 40
0.80476629905098
 40
0.8583618717573788
 40
0.9120446244252698
 40
0.9657664953707832
 40
0.9999999999999999
 40
0.9999999999999999
 40
0.9999999999999999
 40
0.9999999999999999
 10
14.12813079015542
 20
22.80357958642355
 30
0.0
 10
14.12738040253997
 20
22.79594111222644
 30
0.0
 10
14.12587966144613
 20
22.78066451132613
 30
0.0
 10
14.11418233782639
 20
22.76032751326591
 30
0.0
 10
14.09694494212764
 20
22.74484816064769
 30
0.0
 10
14.07539957387926
 20
22.73598127802318
 30
0.0
 10
14.05218040041597
 20
22.73473787519141
 30
0.0
 10
14.02986562010614
 20
22.74124008065345
 30
0.0
 10
14.01095627146264
 20
22.75474968446849
 30
0.0
 10
13.99756670066468
 20
22.77376936941018
 30
0.0
 10
13.99122740853637
 20
22.79615864493391
 30
0.0
 10
13.99265499269039
 20
22.819368376774
 30
0.0
 10
14.00166807380285
 20
22.84078626976633
 30
0.0
 10
14.01725892602993
 20
22.85802839898483
 30
0.0
 10
14.03769387554035
 20
22.86915041270649
 30
0.0
 10
14.06066139970462
 20
22.87287810802133
 30
0.0
 10
14.08354078870532
 20
22.86880200955209
 30
0.0
 10
14.10381041654216
 20
22.85739380310183
 30
0.0
 10
14.11906467691901
 20
22.8399316100279
 30
0.0
 10
14.12702270212716
 20
22.82092901295109
 30
0.0
 10
14.12782033852855
 20
22.8084403533964
 30
0.0
 10
14.12813079015542
 20
22.80357958642355
 30
0.0
  0
LINE
  5
83
330
1F
100
AcDbEntity
  8
0
  6
Continuous
 62
     7
370
    25
100
AcDbLine
 10
14.0601307902
 20
24.2185795864
 30
0.0
 11
15.1401307902
 21
24.2185795864
 31
0.0
  0
LINE
  5
84
330
1F
100
AcDbEntity
  8
0
  6
Continuous
 62
     7
370
    25
100
AcDbLine
 10
12.9801307902
 20
24.2185795864
 30
0.0
 11
14.0601307902
 21
24.2185795864
 31
0.0
  0
LINE
  5
85
330
1F
100
AcDbEntity
  8
0
  6
Continuous
 62
     7
370
    25
100
AcDbLine
 10
13.5601307902
 20
27.2185795864
 30
0.0
 11
14.5601307902
 21
27.2185795864
 31
0.0
  0
LINE
  5
86
330
1F
100
AcDbEntity
  8
0
  6
Continuous
 62
     7
370
    25
100
AcDbLine
 10
14.0152725938
 20
24.0225472336
 30
0.0
 11
14.0342656088
 21
23.9817150724
 31
0.0
  0
LINE
  5
87
330
1F
100
AcDbEntity
  8
0
  6
Continuous
 62
     7
370
    25
100
AcDbLine
 10
14.0791238051
 20
23.9777474253
 30
0.0
 11
14.0342656088
 21
23.9817150724
 31
0.0
  0
LINE
  5
88
330
1F
100
AcDbEntity
  8
0
  6
Continuous
 62
     7
370
    25
100
AcDbLine
 10
14.1049889865
 20
24.0146119393
 30
0.0
 11
14.0791238051
 21
23.9777474253
 31
0.0
  0
LINE
  5
89
330
1F
100
AcDbEntity
  8
0
  6
Continuous
 62
     7
370
    25
100
AcDbLine
 10
14.1049889865
 20
24.0146119393
 30
0.0
 11
14.0859959715
 21
24.0554441004
 31
0.0
  0
LINE
  5
8A
330
1F
100
AcDbEntity
  8
0
  6
Continuous
 62
     7
370
    25
100
AcDbLine
 10
14.0411377752
 20
24.0594117476
 30
0.0
 11
14.0859959715
 21
24.0554441004
 31
0.0
  0
LINE
  5
8B
330
1F
100
AcDbEntity
  8
0
  6
Continuous
 62
     7
370
    25
100
AcDbLine
 10
14.0411377752
 20
24.0594117476
 30
0.0
 11
14.0152725938
 21
24.0225472336
 31
0.0
  0
CIRCLE
  5
8C
330
1F
100
AcDbEntity
  8
0
  6
Continuous
 62
     7
370
    25
100
AcDbCircle
 10
14.0601307902
 20
24.0185795864
 30
0.0
 40
0.063400000000003
  0
LINE
  5
8D
330
1F
100
AcDbEntity
  8
0
  6
Continuous
 62
     7
370
    25
100
AcDbLine
 10
14.2326459062
 20
13.6160795864
 30
0.0
 11
16.9920751169
 21
13.6160795864
 31
0.0
  0
LINE
  5
8E
330
1F
100
AcDbEntity
  8
0
  6
Continuous
 62
     7
370
    25
100
AcDbLine
 10
11.1281864635
 20
13.6160795864
 30
0.0
 11
14.2326459062
 21
13.6160795864
 31
0.0
  0
LINE
  5
8F
330
1F
100
AcDbEntity
  8
0
  6
Continuous
 62
     7
370
    25
100
AcDbLine
 10
14.2344437969
 20
14.4910795864
 30
0.0
 11
17.0226307902
 21
14.4910795864
 31
0.0
  0
LINE
  5
90
330
1F
100
AcDbEntity
  8
0
  6
Continuous
 62
     7
370
    25
100
AcDbLine
 10
11.0976307902
 20
14.4910795864
 30
0.0
 11
14.2344437969
 21
14.4910795864
 31
0.0
  0
LINE
  5
91
330
1F
100
AcDbEntity
  8
0
  6
Continuous
 62
     7
370
    25
100
AcDbLine
 10
12.8626307902
 20
21.0535795864
 30
0.0
 11
12.8726307902
 21
21.0535795864
 31
0.0
  0
LINE
  5
92
330
1F
100
AcDbEntity
  8
0
  6
Continuous
 62
     7
370
    25
100
AcDbLine
 10
12.8626307902
 20
21.0535795864
 30
0.0
 11
12.8626307902
 21
22.5535795864
 31
0.0
  0
LINE
  5
93
330
1F
100
AcDbEntity
  8
0
  6
Continuous
 62
     7
370
    25
100
AcDbLine
 10
12.8626307902
 20
22.5535795864
 30
0.0
 11
12.8726307902
 21
22.5535795864
 31
0.0
  0
LINE
  5
94
330
1F
100
AcDbEntity
  8
0
  6
Continuous
 62
     7
370
    25
100
AcDbLine
 10
12.8726307902
 20
21.0535795864
 30
0.0
 11
12.8726307902
 21
22.5535795864
 31
0.0
  0
DIMENSION
  5
95
330
1F
100
AcDbEntity
  8
SLD-0
100
AcDbDimension
  2
_D
 10
18.766614226
 20
13.6160795864
 30
0.0
 11
18.766614226
 21
11.7169476999
 31
0.0
 70
   160
  1
<>
 71
     2
 42
-1.0
  3
SLDDIMSTYLE0
100
AcDbAlignedDimension
 13
17.0226307902
 23
14.4910795864
 33
0.0
 14
16.9920751169
 24
13.6160795864
 34
0.0
 50
90.0
100
AcDbRotatedDimension
  0
DIMENSION
  5
AB
330
1F
100
AcDbEntity
  8
SLD-0
100
AcDbDimension
  2
_D_1
 10
8.4884867102
 20
4.5535795864
 30
0.0
 11
8.4884867102
 21
13.5535795864
 31
0.0
 70
   160
  1
<>
 71
     2
 42
-1.0
  3
SLDDIMSTYLE1
100
AcDbAlignedDimension
 13
12.8726307902
 23
22.5535795864
 33
0.0
 14
12.8726307902
 24
4.5535795864
 34
0.0
 50
90.0
100
AcDbRotatedDimension
  0
DIMENSION
  5
C0
330
1F
100
AcDbEntity
  8
SLD-0
100
AcDbDimension
  2
_D_2
 10
15.2476307902
 20
2.9787764368
 30
0.0
 11
17.5467627158
 21
2.9787764368
 31
0.0
 70
   160
  1
%%c<>
 71
     2
 42
-1.0
  3
SLDDIMSTYLE2
100
AcDbAlignedDimension
 13
12.8726307902
 23
4.5535795864
 33
0.0
 14
15.2476307902
 24
8.6672002544
 34
0.0
100
AcDbRotatedDimension
  0
DIMENSION
  5
D4
330
1F
100
AcDbEntity
  8
SLD-0
100
AcDbDimension
  2
_D_3
 10
11.0976307902
 20
16.506020451
 30
0.0
 11
19.7114961158
 21
16.506020451
 31
0.0
 70
   160
  1
%%c<>
 71
     2
 42
-1.0
  3
SLDDIMSTYLE0
100
AcDbAlignedDimension
 13
17.0226307902
 23
14.4910795864
 33
0.0
 14
11.0976307902
 24
14.4910795864
 34
0.0
100
AcDbRotatedDimension
  0
DIMENSION
  5
E7
330
1F
100
AcDbEntity
  8
SLD-0
100
AcDbDimension
  2
_D_4
 10
17.0344081639
 20
24.2185795864
 30
0.0
 11
17.0344081639
 21
20.9283595688
 31
0.0
 70
   160
  1
<>
 71
     2
 42
-1.0
  3
SLDDIMSTYLE2
100
AcDbAlignedDimension
 13
15.2476307902
 23
22.5535795864
 33
0.0
 14
15.1401307902
 24
24.2185795864
 34
0.0
 50
90.0
100
AcDbRotatedDimension
  0
DIMENSION
  5
FC
330
1F
100
AcDbEntity
  8
SLD-0
100
AcDbDimension
  2
_D_5
 10
12.9501307902
 20
25.7013208754
 30
0.0
 11
10.0715435975
 21
25.7013208754
 31
0.0
 70
   160
  1
%%c<>
 71
     2
 42
-1.0
  3
SLDDIMSTYLE0
100
AcDbAlignedDimension
 13
15.1701307902
 23
24.1885795864
 33
0.0
 14
12.9501307902
 24
24.1885795864
 34
0.0
100
AcDbRotatedDimension
  0
DIMENSION
  5
10F
330
1F
100
AcDbEntity
  8
SLD-0
100
AcDbDimension
  2
_D_6
 10
21.325775023
 20
27.2185795864
 30
0.0
 11
21.325775023
 21
25.7185795864
 31
0.0
 70
   160
  1
0"-18" ADJUSTABLE STEM\P[0mm-457mm]
 71
     2
 42
-1.0
  3
SLDDIMSTYLE3
100
AcDbAlignedDimension
 13
15.1401307902
 23
24.2185795864
 33
0.0
 14
14.5601307902
 24
27.2185795864
 34
0.0
 50
90.0
100
AcDbRotatedDimension
  0
DIMENSION
  5
11C
330
1F
100
AcDbEntity
  8
SLD-0
100
AcDbDimension
  2
_D_7
 10
14.5601307902
 20
28.793382736
 30
0.0
 11
11.2609988645
 21
28.793382736
 31
0.0
 70
   160
  1
%%c<>
 71
     2
 42
-1.0
  3
SLDDIMSTYLE3
100
AcDbAlignedDimension
 13
13.5601307902
 23
27.2185795864
 33
0.0
 14
14.5601307902
 24
27.2185795864
 34
0.0
100
AcDbRotatedDimension
  0
MTEXT
  5
12F
330
1F
100
AcDbEntity
  8
SLD-0
100
AcDbMText
 10
21.5021448673
 20
10.1137380269
 30
0.0
 40
0.5
 41
0.0
 71
     2
 72
     1
  1
STABILITY FLANGE
  7
SLDTEXTSTYLE0
 73
     1
 44
1.0
  0
MTEXT
  5
130
330
1F
100
AcDbEntity
  8
SLD-0
100
AcDbMText
 10
21.5160337926
 20
9.4562577288
 30
0.0
 40
0.5
 41
0.0
 71
     2
 72
     1
  1
(OPTIONAL)
  7
SLDTEXTSTYLE0
 73
     1
 44
1.0
  0
LEADER
  5
132
330
1F
100
AcDbEntity
  8
SLD-0
100
AcDbLeader
  3
SLDDIMSTYLE4
 76
     3
 10
16.4659312584
 20
13.6160795864
 30
0.0
 10
17.7012004238
 20
9.8744558402
 30
0.0
 10
18.7012004238
 20
9.8744558402
 30
0.0
  0
LINE
  5
133
330
1F
100
AcDbEntity
  8
0
  6
Continuous
 62
     7
370
    25
100
AcDbLine
 10
31.2396061633
 20
14.3613983047
 30
0.0
 11
31.2396061633
 21
17.3467315403
 31
0.0
  0
LINE
  5
134
330
1F
100
AcDbEntity
  8
0
  6
Continuous
 62
     7
370
    25
100
AcDbLine
 10
31.2396061633
 20
19.608738714
 30
0.0
 11
31.2396061633
 21
26.1920990098
 31
0.0
  0
LINE
  5
135
330
1F
100
AcDbEntity
  8
0
  6
Continuous
 62
     7
370
    25
100
AcDbLine
 10
28.8646061633
 20
26.1920990098
 30
0.0
 11
28.8646061633
 21
19.608738714
 31
0.0
  0
LINE
  5
136
330
1F
100
AcDbEntity
  8
0
  6
Continuous
 62
     7
370
    25
100
AcDbLine
 10
28.8646061633
 20
17.3467315403
 30
0.0
 11
28.8646061633
 21
11.9862696471
 31
0.0
  0
LINE
  5
137
330
1F
100
AcDbEntity
  8
0
  6
Continuous
 62
     7
370
    25
100
AcDbLine
 10
30.8371222258
 20
27.9801761028
 30
0.0
 11
30.8159055755
 21
27.9924281956
 31
0.0
  0
LINE
  5
138
330
1F
100
AcDbEntity
  8
0
  6
Continuous
 62
     7
370
    25
100
AcDbLine
 10
29.2883067512
 20
27.9924281956
 30
0.0
 11
29.2670901009
 21
27.9801761028
 31
0.0
  0
LINE
  5
139
330
1F
100
AcDbEntity
  8
0
  6
Continuous
 62
     7
370
    25
100
AcDbLine
 10
31.1621061633
 20
26.1920990098
 30
0.0
 11
31.1621061633
 21
27.5271432373
 31
0.0
  0
LINE
  5
13A
330
1F
100
AcDbEntity
  8
0
  6
Continuous
 62
     7
370
    25
100
AcDbLine
 10
28.9421061633
 20
27.5271432373
 30
0.0
 11
28.9421061633
 21
26.1920990098
 31
0.0
  0
LINE
  5
13B
330
1F
100
AcDbEntity
  8
0
  6
Continuous
 62
     7
370
    25
100
AcDbLine
 10
29.5521061633
 20
30.0012618973
 30
0.0
 11
29.5521061633
 21
27.4893773025
 31
0.0
  0
LINE
  5
13C
330
1F
100
AcDbEntity
  8
0
  6
Continuous
 62
     7
370
    25
100
AcDbLine
 10
30.5521061633
 20
27.4893773025
 30
0.0
 11
30.5521061633
 21
30.0012618973
 31
0.0
  0
LINE
  5
13D
330
1F
100
AcDbEntity
  8
0
  6
Continuous
 62
     7
370
    25
100
AcDbLine
 10
29.2223870663
 20
26.9648604117
 30
0.0
 11
29.2223870663
 21
26.9611049343
 31
0.0
  0
LINE
  5
13E
330
1F
100
AcDbEntity
  8
0
  6
Continuous
 62
     7
370
    25
100
AcDbLine
 10
31.1366092825
 20
27.2832126819
 30
0.0
 11
31.1327198019
 21
27.2887949388
 31
0.0
  0
LINE
  5
13F
330
1F
100
AcDbEntity
  8
0
  6
Continuous
 62
     7
370
    25
100
AcDbLine
 10
27.0905091701
 20
19.5665157328
 30
0.0
 11
27.1210555297
 21
18.8524780166
 31
0.0
  0
LINE
  5
140
330
1F
100
AcDbEntity
  8
0
  6
Continuous
 62
     7
370
    25
100
AcDbLine
 10
32.983156797
 20
18.8524780166
 30
0.0
 11
33.0137031566
 21
19.5665157328
 31
0.0
  0
ELLIPSE
  5
141
330
1F
100
AcDbEntity
  8
0
  6
Continuous
 62
     7
370
    25
100
AcDbEllipse
 10
30.0521061633
 20
13.1738339759
 30
0.0
 11
0.9466958958099313
 21
1.035121683215984
 31
0.0
210
0.0
220
0.0
230
1.0
 40
0.2019459068
 41
0.0
 42
6.283185307179586
  0
LWPOLYLINE
  5
142
330
1F
100
AcDbEntity
  8
0
  6
Continuous
 62
     7
370
    25
100
AcDbPolyline
 90
       27
 70
   128
 43
0.0
 10
29.2124168607
 20
25.7073566935
 10
29.3081255385
 20
25.6577884102
 10
29.412556709
 20
25.6144844303
 10
29.524486012
 20
25.5779524532
 10
29.642601179
 20
25.5486207829
 10
29.7655174174
 20
25.5268333065
 10
29.8917936469
 20
25.5128454622
 10
30.019949394
 20
25.5068212447
 10
30.1484821499
 20
25.5088312825
 10
30.2758849854
 20
25.5188520096
 10
30.4006642189
 20
25.5367659423
 10
30.5213569278
 20
25.562363056
 10
30.6365481006
 20
25.595343248
 10
30.744887226
 20
25.6353198557
 10
30.8451041269
 20
25.6818241899
 10
30.9360238517
 20
25.7343110298
 10
31.0165804498
 20
25.7921650152
 10
31.0858294687
 20
25.854707861
 10
31.1429590269
 20
25.9212063096
 10
31.1872993328
 20
25.9908807274
 10
31.2183305366
 20
26.0629142456
 10
31.2356888259
 20
26.1364623371
 10
31.2391706907
 20
26.2106627176
 10
31.2287353093
 20
26.2846454557
 10
31.2045050269
 20
26.3575431713
 10
31.1667639215
 20
26.4285012054
 10
31.1621061633
 20
26.4356954429
  0
LWPOLYLINE
  5
143
330
1F
100
AcDbEntity
  8
0
  6
Continuous
 62
     7
370
    25
100
AcDbPolyline
 90
       12
 70
   128
 43
0.0
 10
28.9421061633
 20
26.4356954429
 10
28.9169129939
 20
26.3933172923
 10
28.8858817901
 20
26.3212837741
 10
28.8685235007
 20
26.2477356826
 10
28.865041636
 20
26.1735353021
 10
28.8754770174
 20
26.099552564
 10
28.8997072998
 20
26.0266548484
 10
28.9374484052
 20
25.9556968143
 10
28.9882578537
 20
25.8875103799
 10
29.0515399509
 20
25.8228949686
 10
29.1265527722
 20
25.7626081371
 10
29.2124168607
 20
25.7073566935
  0
ELLIPSE
  5
144
330
1F
100
AcDbEntity
  8
0
  6
Continuous
 62
     7
370
    25
100
AcDbEllipse
 10
30.0521061633
 20
13.1738339759
 30
0.0
 11
1.159568206574825
 21
1.267877255099515
 31
0.0
210
0.0
220
0.0
230
1.0
 40
0.2019459068
 41
0.0
 42
6.283185307179586
  0
LWPOLYLINE
  5
145
330
1F
100
AcDbEntity
  8
0
  6
Continuous
 62
     7
370
    25
100
AcDbPolyline
 90
       32
 70
   128
 43
0.0
 10
29.2884308397
 20
27.1107790813
 10
29.3804611044
 20
27.0633984296
 10
29.4812472896
 20
27.0223827464
 10
29.5894754932
 20
26.9882667339
 10
29.7037347951
 20
26.9614951465
 10
29.8225356506
 20
26.9424169927
 10
29.9443293088
 20
26.9312809855
 10
30.0675280031
 20
26.9282322998
 10
30.1905256502
 20
26.9333106798
 10
30.3117187875
 20
26.9464499211
 10
30.4295274773
 20
26.9674787335
 10
30.5424159031
 20
26.9961229744
 10
30.6489123915
 20
27.0320092223
 10
30.7476285981
 20
27.074669645
 10
30.8372776061
 20
27.1235480987
 10
30.9166907035
 20
27.178007378
 10
30.9848326193
 20
27.2373375229
 10
31.0408150193
 20
27.3007650742
 10
31.0839080873
 20
27.3674631569
 10
31.1135500393
 20
27.4365622593
 10
31.1293544471
 20
27.5071615691
 10
31.1311152761
 20
27.5783407162
 10
31.1188095712
 20
27.6491717716
 10
31.092597756
 20
27.7187313442
 10
31.0528215417
 20
27.7861126186
 10
30.9999994721
 20
27.8504371768
 10
30.9348201635
 20
27.9108664498
 10
30.8581333281
 20
27.9666126497
 10
30.7709386958
 20
28.0169490394
 10
30.6743729822
 20
28.0612194072
 10
30.569695069
 20
28.0988466211
 10
30.5521061633
 20
28.104269966
  0
LWPOLYLINE
  5
146
330
1F
100
AcDbEntity
  8
0
  6
Continuous
 62
     7
370
    25
100
AcDbPolyline
 90
       18
 70
   128
 43
0.0
 10
29.5521061633
 20
28.104269966
 10
29.5076602447
 20
28.0900909834
 10
29.4048862835
 20
28.0507534928
 10
29.3105498233
 20
28.0049092874
 10
29.225880684
 20
27.9531560167
 10
29.1519826574
 20
27.8961683637
 10
29.0898191172
 20
27.8346892495
 10
29.0402004603
 20
27.7695201485
 10
29.0037735418
 20
27.7015106395
 10
28.9810132422
 20
27.6315473305
 10
28.9722162769
 20
27.5605423002
 10
28.9774973277
 20
27.4894212079
 10
28.9967875481
 20
27.4191112256
 10
29.0298354605
 20
27.3505289515
 10
29.0762102349
 20
27.2845684605
 10
29.1353073052
 20
27.2220896485
 10
29.2063562507
 20
27.1639070222
 10
29.2884308397
 20
27.1107790813
  0
LWPOLYLINE
  5
147
330
1F
100
AcDbEntity
  8
0
  6
Continuous
 62
     7
370
    25
100
AcDbPolyline
 90
       15
 70
   128
 43
0.0
 10
29.2672176362
 20
27.0740367352
 10
29.1842732178
 20
27.1276176059
 10
29.1122423022
 20
27.1862227432
 10
29.05203072
 20
27.2491151536
 10
29.0043956667
 20
27.3155039284
 10
28.9699361808
 20
27.3845541903
 10
28.9490856104
 20
27.4553975922
 10
28.9421061633
 20
27.5271432373
 10
28.9490856104
 20
27.5988888823
 10
28.9699361808
 20
27.6697322842
 10
29.0043956667
 20
27.7387825461
 10
29.05203072
 20
27.805171321
 10
29.1122423022
 20
27.8680637313
 10
29.1842732178
 20
27.9266688686
 10
29.2670901009
 20
27.9801761028
  0
LWPOLYLINE
  5
148
330
1F
100
AcDbEntity
  8
0
  6
Continuous
 62
     7
370
    25
100
AcDbPolyline
 90
       29
 70
   128
 43
0.0
 10
30.8371222258
 20
27.9801761028
 10
30.9199391089
 20
27.9266688686
 10
30.9919700245
 20
27.8680637313
 10
31.0521816067
 20
27.805171321
 10
31.09981666
 20
27.7387825461
 10
31.1342761459
 20
27.6697322842
 10
31.1551267163
 20
27.5988888823
 10
31.1621061633
 20
27.5271432373
 10
31.1551267163
 20
27.4553975922
 10
31.1342761459
 20
27.3845541903
 10
31.09981666
 20
27.3155039284
 10
31.0521816067
 20
27.2491151536
 10
30.9919700245
 20
27.1862227432
 10
30.9199391089
 20
27.1276176059
 10
30.8369946905
 20
27.0740367352
 10
30.7441798434
 20
27.0261539417
 10
30.6426617683
 20
26.9845713792
 10
30.5337171138
 20
26.9498119727
 10
30.4187159221
 20
26.9223128417
 10
30.2991044
 20
26.902419804
 10
30.1763867318
 20
26.8903830259
 10
30.0521061633
 20
26.8863538769
 10
29.9278255949
 20
26.8903830259
 10
29.8051079267
 20
26.902419804
 10
29.6854964046
 20
26.9223128417
 10
29.5704952129
 20
26.9498119727
 10
29.4615505584
 20
26.9845713792
 10
29.3600324833
 20
27.0261539417
 10
29.2672176362
 20
27.0740367352
  0
LWPOLYLINE
  5
149
330
1F
100
AcDbEntity
  8
0
  6
Continuous
 62
     7
370
    25
100
AcDbPolyline
 90
       22
 70
   128
 43
0.0
 10
29.2672176362
 20
25.7389925078
 10
29.3600324833
 20
25.6911097142
 10
29.4615505584
 20
25.6495271518
 10
29.5704952129
 20
25.6147677452
 10
29.6854964046
 20
25.5872686143
 10
29.8051079267
 20
25.5673755765
 10
29.9278255949
 20
25.5553387984
 10
30.0521061633
 20
25.5513096494
 10
30.1763867318
 20
25.5553387984
 10
30.2991044
 20
25.5673755765
 10
30.4187159221
 20
25.5872686143
 10
30.5337171138
 20
25.6147677452
 10
30.6426617683
 20
25.6495271518
 10
30.7441798434
 20
25.6911097142
 10
30.8369946905
 20
25.7389925078
 10
30.9199391089
 20
25.7925733785
 10
30.9919700245
 20
25.8511785158
 10
31.0521816067
 20
25.9140709262
 10
31.09981666
 20
25.980459701
 10
31.1342761459
 20
26.0495099629
 10
31.1551267163
 20
26.1203533648
 10
31.1621061633
 20
26.1920990098
  0
LWPOLYLINE
  5
14A
330
1F
100
AcDbEntity
  8
0
  6
Continuous
 62
     7
370
    25
100
AcDbPolyline
 90
        8
 70
   128
 43
0.0
 10
28.9421061633
 20
26.1920990098
 10
28.9490856104
 20
26.1203533648
 10
28.9699361808
 20
26.0495099629
 10
29.0043956667
 20
25.980459701
 10
29.05203072
 20
25.9140709262
 10
29.1122423022
 20
25.8511785158
 10
29.1842732178
 20
25.7925733785
 10
29.2672176362
 20
25.7389925078
  0
SPLINE
  5
14B
330
1F
100
AcDbEntity
  8
0
  6
Continuous
 62
     7
370
    25
100
AcDbSpline
210
0.0
220
0.0
230
1.0
 70
    11
 71
     3
 72
    26
 73
    22
 74
     0
 42
0.00000001
 43
0.00000001
 40
0.0
 40
0.0
 40
0.0
 40
0.0
 40
0.0536200607839532
 40
0.1072376822530396
 40
0.1609185883661256
 40
0.214640856360419
 40
0.2682944511770284
 40
0.3218767096526529
 40
0.3754958818586738
 40
0.4292028051159962
 40
0.482911653177598
 40
0.5365331513009046
 40
0.5901144855236031
 40
0.6437653861511363
 40
0.697487089919188
 40
0.7511704282073728
 40
0.80476629905098
 40
0.8583618717573788
 40
0.9120446244252698
 40
0.9657664953707832
 40
0.9999999999999999
 40
0.9999999999999999
 40
0.9999999999999999
 40
0.9999999999999999
 10
29.31677510241028
 20
25.91622087542228
 30
0.0
 10
29.31621099583793
 20
25.91027072024355
 30
0.0
 10
29.31508280835589
 20
25.89837068057399
 30
0.0
 10
29.30634605159577
 20
25.88627085923526
 30
0.0
 10
29.2936400637214
 20
25.88036907508629
 30
0.0
 10
29.27803312793487
 20
25.88170902470648
 30
0.0
 10
29.26155896336585
 20
25.89013972434141
 30
0.0
 10
29.24606206619045
 20
25.90472083981211
 30
0.0
 10
29.23318827931703
 20
25.92375784933129
 30
0.0
 10
29.22421597547025
 20
25.94503995176883
 30
0.0
 10
29.22000966636789
 20
25.96606890794125
 30
0.0
 10
29.22095458120999
 20
25.98440059766527
 30
0.0
 10
29.22695168934567
 20
25.99799288570016
 30
0.0
 10
29.23745285439976
 20
26.00540548321076
 30
0.0
 10
29.25146077916818
 20
26.00589040562048
 30
0.0
 10
29.2675350363105
 20
25.9994628190723
 30
0.0
 10
29.28389430776854
 20
25.98689960593658
 30
0.0
 10
29.29867743582965
 20
25.96957016936577
 30
0.0
 10
29.30998164038449
 20
25.94938365252876
 30
0.0
 10
29.31594311517695
 20
25.9308117462933
 30
0.0
 10
29.31654200559528
 20
25.92030878133216
 30
0.0
 10
29.31677510241028
 20
25.91622087542228
 30
0.0
  0
SPLINE
  5
14C
330
1F
100
AcDbEntity
  8
0
  6
Continuous
 62
     7
370
    25
100
AcDbSpline
210
0.0
220
0.0
230
1.0
 70
    11
 71
     3
 72
    26
 73
    22
 74
     0
 42
0.00000001
 43
0.00000001
 40
0.0
 40
0.0
 40
0.0
 40
0.0
 40
0.0536200607839429
 40
0.1072376822530292
 40
0.1609185883661217
 40
0.2146408563604111
 40
0.2682944511770213
 40
0.3218767096526456
 40
0.3754958818586727
 40
0.4292028051159865
 40
0.4829116531775884
 40
0.5365331513008951
 40
0.5901144855236028
 40
0.6437653861511283
 40
0.6974870899191795
 40
0.7511704282073659
 40
0.8047662990509749
 40
0.8583618717573684
 40
0.9120446244252595
 40
0.9657664953707731
 40
1.0
 40
1.0
 40
1.0
 40
1.0
 10
29.31677510241028
 20
26.90831796186346
 30
0.0
 10
29.31621099583793
 20
26.90236780668473
 30
0.0
 10
29.31508280835589
 20
26.89046776701517
 30
0.0
 10
29.30634605159577
 20
26.87836794567645
 30
0.0
 10
29.2936400637214
 20
26.87246616152747
 30
0.0
 10
29.27803312793487
 20
26.87380611114767
 30
0.0
 10
29.26155896336586
 20
26.88223681078259
 30
0.0
 10
29.24606206619045
 20
26.89681792625329
 30
0.0
 10
29.23318827931703
 20
26.91585493577248
 30
0.0
 10
29.22421597547025
 20
26.93713703821001
 30
0.0
 10
29.22000966636789
 20
26.95816599438243
 30
0.0
 10
29.22095458120999
 20
26.97649768410646
 30
0.0
 10
29.22695168934566
 20
26.99008997214135
 30
0.0
 10
29.23745285439977
 20
26.99750256965195
 30
0.0
 10
29.25146077916818
 20
26.99798749206166
 30
0.0
 10
29.2675350363105
 20
26.99155990551349
 30
0.0
 10
29.28389430776854
 20
26.97899669237775
 30
0.0
 10
29.29867743582966
 20
26.96166725580696
 30
0.0
 10
29.30998164038449
 20
26.94148073896996
 30
0.0
 10
29.31594311517695
 20
26.92290883273448
 30
0.0
 10
29.31654200559528
 20
26.91240586777334
 30
0.0
 10
29.31677510241028
 20
26.90831796186346
 30
0.0
  0
SPLINE
  5
14D
330
1F
100
AcDbEntity
  8
0
  6
Continuous
 62
     7
370
    25
100
AcDbSpline
210
0.0
220
0.0
230
1.0
 70
    11
 71
     3
 72
    26
 73
    22
 74
     0
 42
0.00000001
 43
0.00000001
 40
0.0
 40
0.0
 40
0.0
 40
0.0
 40
0.0536200607839427
 40
0.1072376822530287
 40
0.1609185883661212
 40
0.2146408563604105
 40
0.2682944511770197
 40
0.3218767096526439
 40
0.3754958818586644
 40
0.4292028051159867
 40
0.4829116531775882
 40
0.5365331513009048
 40
0.5901144855235934
 40
0.6437653861511349
 40
0.6974870899191864
 40
0.751170428207369
 40
0.8047662990509739
 40
0.8583618717573722
 40
0.9120446244252696
 40
0.9657664953707733
 40
1.0
 40
1.0
 40
1.0
 40
1.0
 10
31.13986972402591
 20
26.26861518837506
 30
0.0
 10
31.1397212745506
 20
26.26195255435561
 30
0.0
 10
31.13942438235333
 20
26.2486275894171
 30
0.0
 10
31.13703277692206
 20
26.22540061166819
 30
0.0
 10
31.13327806716043
 20
26.20303991343409
 30
0.0
 10
31.12820995865562
 20
26.18370705894706
 30
0.0
 10
31.12227652234591
 20
26.16973258561347
 30
0.0
 10
31.11611576482664
 20
26.1626583930415
 30
0.0
 10
31.11054255696617
 20
26.16325040659708
 30
0.0
 10
31.10640014378639
 20
26.17141921301497
 30
0.0
 10
31.104382053354
 20
26.18622444407928
 30
0.0
 10
31.10483970204639
 20
26.20595854536712
 30
0.0
 10
31.10768622485173
 20
26.2283935061172
 30
0.0
 10
31.11243618292425
 20
26.25105557426346
 30
0.0
 10
31.11832860144632
 20
26.27143868372003
 30
0.0
 10
31.12450011527171
 20
26.28725445776393
 30
0.0
 10
31.13017434921178
 20
26.29672236265014
 30
0.0
 10
31.1348053434711
 20
26.29880494483917
 30
0.0
 10
31.13804609004303
 20
26.29316180315318
 30
0.0
 10
31.1396491145926
 20
26.28215357663049
 30
0.0
 10
31.13980791615891
 20
26.27240822155649
 30
0.0
 10
31.13986972402591
 20
26.26861518837506
 30
0.0
  0
SPLINE
  5
14E
330
1F
100
AcDbEntity
  8
0
  6
Continuous
 62
     7
370
    25
100
AcDbSpline
210
0.0
220
0.0
230
1.0
 70
     8
 71
     3
 72
    23
 73
    19
 74
     0
 42
0.00000001
 43
0.00000001
 40
0.0
 40
0.0
 40
0.0
 40
0.0
 40
0.0532354225477212
 40
0.1170214596843911
 40
0.1807259591268185
 40
0.2443457588224713
 40
0.3080093872816109
 40
0.3717772051583891
 40
0.4355473084122188
 40
0.4992136985017195
 40
0.5628324008045468
 40
0.6265337013566272
 40
0.690319068570803
 40
0.7540588833164237
 40
0.8176948453790432
 40
0.8813304534545351
 40
0.9450695728758755
 40
1.0
 40
1.0
 40
1.0
 40
1.0
 10
31.13618982491634
 20
27.21402774120733
 30
0.0
 10
31.13521795924771
 20
27.20776225246247
 30
0.0
 10
31.1330816159312
 20
27.1939895311527
 30
0.0
 10
31.12818640496095
 20
27.17582882377537
 30
0.0
 10
31.12228282063554
 20
27.16182307308682
 30
0.0
 10
31.11611407690028
 20
27.15475724774381
 30
0.0
 10
31.11054301039515
 20
27.15534701894935
 30
0.0
 10
31.10640002147217
 20
27.16351642390305
 30
0.0
 10
31.10438208876513
 20
27.17832150724695
 30
0.0
 10
31.10483968253671
 20
27.1980556007508
 30
0.0
 10
31.10768626752961
 20
27.22049073999412
 30
0.0
 10
31.11243603142192
 20
27.24315210086412
 30
0.0
 10
31.11832916532476
 20
27.26353786414263
 30
0.0
 10
31.12449801464857
 20
27.27934374070744
 30
0.0
 10
31.13018217461178
 20
27.28884852000924
 30
0.0
 10
31.13477611719459
 20
27.29079345711961
 30
0.0
 10
31.1379988569583
 20
27.28590252263959
 30
0.0
 10
31.13889840659964
 20
27.27734310328672
 30
0.0
 10
31.13931479519685
 20
27.27338107111693
 30
0.0
  0
LWPOLYLINE
  5
14F
330
1F
100
AcDbEntity
  8
0
  6
Continuous
 62
     7
370
    25
100
AcDbPolyline
 90
       21
 70
   128
 43
0.0
 10
29.613699959
 20
27.298552947
 10
29.6839376483
 20
27.2636591265
 10
29.7623996138
 20
27.2351983109
 10
29.8473331449
 20
27.2138062677
 10
29.9368409669
 20
27.1999608598
 10
30.0289236229
 20
27.1939713708
 10
30.1215241385
 20
27.1959715958
 10
30.2125739713
 20
27.2059168532
 10
30.3000392184
 20
27.2235849825
 10
30.3819660508
 20
27.2485813067
 10
30.4565243583
 20
27.2803474493
 10
30.5220486317
 20
27.3181738071
 10
30.5770751669
 20
27.3612154019
 10
30.620374762
 20
27.4085107555
 10
30.6509801756
 20
27.4590033679
 10
30.6682077335
 20
27.5115653176
 10
30.6716726003
 20
27.5650224574
 10
30.6612973767
 20
27.6181806432
 10
30.6373138281
 20
27.6698524089
 10
30.6002577073
 20
27.7188834928
 10
30.5521061633
 20
27.7632766327
  0
LWPOLYLINE
  5
150
330
1F
100
AcDbEntity
  8
0
  6
Continuous
 62
     7
370
    25
100
AcDbPolyline
 90
       11
 70
   128
 43
0.0
 10
29.5521061633
 20
27.7632766327
 10
29.5271371598
 20
27.7420635214
 10
29.4838375647
 20
27.6947681678
 10
29.453232151
 20
27.6442755554
 10
29.4360045932
 20
27.5917136057
 10
29.4325397264
 20
27.5382564659
 10
29.4429149499
 20
27.4850982801
 10
29.4668984986
 20
27.4334265143
 10
29.5039546194
 20
27.3843954305
 10
29.5532555399
 20
27.3391003019
 10
29.613699959
 20
27.298552947
  0
LWPOLYLINE
  5
151
330
1F
100
AcDbEntity
  8
0
  6
Continuous
 62
     7
370
    25
100
AcDbPolyline
 90
       13
 70
   128
 43
0.0
 10
30.318013126
 20
27.2369590152
 10
30.3981061757
 20
27.2640793379
 10
30.4700892785
 20
27.2979398261
 10
30.5322752112
 20
27.3377468188
 10
30.5832063885
 20
27.3825672738
 10
30.6216890266
 20
27.4313506375
 10
30.6468211252
 20
27.4829534694
 10
30.6580136091
 20
27.5361662426
 10
30.655004136
 20
27.5897416951
 10
30.6378632455
 20
27.6424240634
 10
30.6069927054
 20
27.6929785176
 10
30.563116095
 20
27.7402201042
 10
30.5521061633
 20
27.7498117053
  0
LWPOLYLINE
  5
152
330
1F
100
AcDbEntity
  8
0
  6
Continuous
 62
     7
370
    25
100
AcDbPolyline
 90
       19
 70
   128
 43
0.0
 10
29.5521061633
 20
27.7498117053
 10
29.5449835282
 20
27.7436853779
 10
29.5001450555
 20
27.6967457383
 10
29.4682440834
 20
27.6464049305
 10
29.4500283435
 20
27.5938429005
 10
29.4459247975
 20
27.5402916577
 10
29.4560296289
 20
27.4870063978
 10
29.480105989
 20
27.4352360821
 10
29.5175895485
 20
27.386194163
 10
29.5676017243
 20
27.3410301414
 10
29.6289702736
 20
27.3008026238
 10
29.7002567695
 20
27.2664545091
 10
29.7797903169
 20
27.2387908879
 10
29.865706717
 20
27.2184601722
 10
29.9559921622
 20
27.2059388966
 10
30.048530438
 20
27.2015205493
 10
30.1411525258
 20
27.2053086925
 10
30.2316874424
 20
27.2172145354
 10
30.318013126
 20
27.2369590152
  0
ARC
  5
153
330
1F
100
AcDbEntity
  8
0
  6
Continuous
 62
     7
370
    25
100
AcDbCircle
 10
29.7097596464
 20
27.5214157559
 30
0.0
 40
0.2797316376329263
100
AcDbArc
 50
124.3043189024
 51
176.3156266594
  0
ARC
  5
154
330
1F
100
AcDbEntity
  8
0
  6
Continuous
 62
     7
370
    25
100
AcDbCircle
 10
30.3989967552
 20
27.5240066023
 30
0.0
 40
0.2750400289106044
100
AcDbArc
 50
3.2065928941
 51
56.1734615441
  0
LWPOLYLINE
  5
155
330
1F
100
AcDbEntity
  8
0
  6
Continuous
 62
     7
370
    25
100
AcDbPolyline
 90
       10
 70
   128
 43
0.0
 10
30.2763624064
 20
27.2862494396
 10
30.3489710733
 20
27.3111774907
 10
30.4134820393
 20
27.3426647176
 10
30.4681356134
 20
27.3798522307
 10
30.5114409887
 20
27.4217256516
 10
30.5422169073
 20
27.4671427827
 10
30.5596238825
 20
27.5148647628
 10
30.5631870973
 20
27.5635898609
 10
30.5528093565
 20
27.6119889832
 10
30.5521061633
 20
27.6139016208
  0
LWPOLYLINE
  5
156
330
1F
100
AcDbEntity
  8
0
  6
Continuous
 62
     7
370
    25
100
AcDbPolyline
 90
       15
 70
   128
 43
0.0
 10
29.5521061633
 20
27.6139016208
 10
29.5445884442
 20
27.5884141605
 10
29.5410252294
 20
27.5396890624
 10
29.5514029702
 20
27.49128994
 10
29.5754385889
 20
27.4445369953
 10
29.6124764565
 20
27.4007055267
 10
29.6615062764
 20
27.3609911423
 10
29.721190643
 20
27.3264771472
 10
29.7899015223
 20
27.298104993
 10
29.8657646608
 20
27.2766485982
 10
29.9467107097
 20
27.2626932373
 10
30.0305316718
 20
27.2566195762
 10
30.1149411298
 20
27.2585932885
 10
30.1976366138
 20
27.2685605365
 10
30.2763624064
 20
27.2862494396
  0
LWPOLYLINE
  5
157
330
1F
100
AcDbEntity
  8
0
  6
Continuous
 62
     7
370
    25
100
AcDbPolyline
 90
       38
 70
   128
 43
0.0
 10
30.450298005
 20
29.8266924821
 10
30.4956755266
 20
29.8680519353
 10
30.5282923652
 20
29.9132435965
 10
30.5472101937
 20
29.960967384
 10
30.5518847807
 20
30.0098503713
 10
30.5421816469
 20
30.0584862838
 10
30.5183799336
 20
30.1054759549
 10
30.481164373
 20
30.1494675773
 10
30.4316055888
 20
30.1891955922
 10
30.3711292971
 20
30.2235170968
 10
30.3014752907
 20
30.2514447239
 10
30.2246473885
 20
30.2721750467
 10
30.1428557894
 20
30.2851116914
 10
30.0584534888
 20
30.2898824943
 10
29.9738685873
 20
30.2863502082
 10
29.8915344383
 20
30.2746164504
 10
29.8138196455
 20
30.2550187798
 10
29.742959922
 20
30.2281209857
 10
29.6809937729
 20
30.1946968686
 10
29.6297038517
 20
30.1557079797
 10
29.5905656759
 20
30.1122759581
 10
29.5647051796
 20
30.0656502642
 10
29.5528663222
 20
30.0171722341
 10
29.5553896861
 20
29.9682364926
 10
29.5722026786
 20
29.9202508319
 10
29.6028216207
 20
29.8745957121
 10
29.646365661
 20
29.8325845478
 10
29.7015821169
 20
29.7954259237
 10
29.7668825113
 20
29.7641888258
 10
29.840388271
 20
29.7397718885
 10
29.9199847689
 20
29.7228775427
 10
30.0033821588
 20
29.7139918079
 10
30.0881812496
 20
29.7133703106
 10
30.1719425258
 20
29.7210309301
 10
30.2522563281
 20
29.7367532842
 10
30.3268121745
 20
29.7600850696
 10
30.3934652292
 20
29.7903550732
 10
30.450298005
 20
29.8266924821
  0
LWPOLYLINE
  5
158
330
1F
100
AcDbEntity
  8
0
  6
Continuous
 62
     7
370
    25
100
AcDbPolyline
 90
       37
 70
   128
 43
0.0
 10
30.4303884129
 20
29.8354209529
 10
30.4745264214
 20
29.8758613381
 10
30.5058294041
 20
29.9201119559
 10
30.5233462356
 20
29.9668282736
 10
30.5265446761
 20
30.0145908396
 10
30.5153275424
 20
30.0619484123
 10
30.4900356615
 20
30.107462056
 10
30.4514375144
 20
30.1497488617
 10
30.4007058863
 20
30.187523966
 10
30.339382232
 20
30.2196395917
 10
30.2693298397
 20
30.2451199216
 10
30.192677216
 20
30.2631907488
 10
30.1117534119
 20
30.2733030005
 10
30.0290172564
 20
30.2751494208
 10
29.9469826456
 20
30.2686739074
 10
29.8681421597
 20
30.2540732154
 10
29.794891327
 20
30.2317909793
 10
29.7294558369
 20
30.2025042338
 10
29.6738239137
 20
30.1671028417
 10
29.6296859053
 20
30.1266624565
 10
29.5983829226
 20
30.0824118387
 10
29.580866091
 20
30.035695521
 10
29.5776676506
 20
29.987932955
 10
29.5888847843
 20
29.9405753823
 10
29.6141766652
 20
29.8950617385
 10
29.6527748122
 20
29.8527749329
 10
29.7035064404
 20
29.8149998286
 10
29.7648300947
 20
29.7828842029
 10
29.8348824869
 20
29.757403873
 10
29.9115351107
 20
29.7393330457
 10
29.9924589148
 20
29.7292207941
 10
30.0751950703
 20
29.7273743737
 10
30.1572296811
 20
29.7338498872
 10
30.236070167
 20
29.7484505792
 10
30.3093209997
 20
29.7707328153
 10
30.3747564898
 20
29.8000195608
 10
30.4303884129
 20
29.8354209529
  0
LWPOLYLINE
  5
159
330
1F
100
AcDbEntity
  8
0
  6
Continuous
 62
     7
370
    25
100
AcDbPolyline
 90
       19
 70
   128
 43
0.0
 10
30.5260388282
 20
29.982889729
 10
30.5153275424
 20
30.0252040758
 10
30.4900356615
 20
30.0707177195
 10
30.4514375144
 20
30.1130045251
 10
30.4007058863
 20
30.1507796295
 10
30.339382232
 20
30.1828952552
 10
30.2693298397
 20
30.2083755851
 10
30.192677216
 20
30.2264464123
 10
30.1117534119
 20
30.2365586639
 10
30.0290172564
 20
30.2384050843
 10
29.9469826456
 20
30.2319295709
 10
29.8681421597
 20
30.2173288788
 10
29.794891327
 20
30.1950466428
 10
29.7294558369
 20
30.1657598973
 10
29.6738239137
 20
30.1303585052
 10
29.6296859053
 20
30.0899181199
 10
29.5983829226
 20
30.0456675021
 10
29.580866091
 20
29.9989511844
 10
29.5781734985
 20
29.982889729
  0
LWPOLYLINE
  5
15A
330
1F
100
AcDbEntity
  8
0
  6
Continuous
 62
     7
370
    25
100
AcDbPolyline
 90
       33
 70
   128
 43
0.0
 10
30.3507500446
 20
29.8335904994
 10
30.3892575657
 20
29.8697404693
 10
30.4148085475
 20
29.9095326698
 10
30.4264210801
 20
29.9514379088
 10
30.4236489003
 20
29.9938457914
 10
30.4065985415
 20
30.0351266066
 10
30.3759252394
 20
30.0736939558
 10
30.3328077519
 20
30.1080657173
 10
30.2789030597
 20
30.1369210037
 10
30.2162826899
 20
30.1591509225
 10
30.1473531084
 20
30.1739011903
 10
30.0747632401
 20
30.1806049626
 10
30.0013026731
 20
30.1790046173
 10
29.9297944557
 20
30.1691616547
 10
29.8629866087
 20
30.1514543343
 10
29.8034465201
 20
30.1265631386
 10
29.7534622821
 20
30.0954446221
 10
29.714954761
 20
30.0592946522
 10
29.6894037792
 20
30.0195024517
 10
29.6777912466
 20
29.9775972128
 10
29.6805634264
 20
29.9351893301
 10
29.6976137852
 20
29.8939085149
 10
29.7282870873
 20
29.8553411657
 10
29.7714045748
 20
29.8209694042
 10
29.825309267
 20
29.7921141178
 10
29.8879296367
 20
29.7698841991
 10
29.9568592183
 20
29.7551339312
 10
30.0294490866
 20
29.7484301589
 10
30.1029096536
 20
29.7500305042
 10
30.174417871
 20
29.7598734668
 10
30.241225718
 20
29.7775807872
 10
30.3007658066
 20
29.8024719829
 10
30.3507500446
 20
29.8335904994
  0
LWPOLYLINE
  5
15B
330
1F
100
AcDbEntity
  8
0
  6
Continuous
 62
     7
370
    25
100
AcDbPolyline
 90
       17
 70
   128
 43
0.0
 10
30.4242779156
 20
29.9379799844
 10
30.4236489003
 20
29.9407706386
 10
30.4065985415
 20
29.9820514538
 10
30.3759252394
 20
30.020618803
 10
30.3328077519
 20
30.0549905645
 10
30.2789030597
 20
30.0838458509
 10
30.2162826899
 20
30.1060757697
 10
30.1473531084
 20
30.1208260375
 10
30.0747632401
 20
30.1275298099
 10
30.0013026731
 20
30.1259294645
 10
29.9297944557
 20
30.1160865019
 10
29.8629866087
 20
30.0983791816
 10
29.8034465201
 20
30.0734879858
 10
29.7534622821
 20
30.0423694694
 10
29.714954761
 20
30.0062194994
 10
29.6894037792
 20
29.966427299
 10
29.679934411
 20
29.9379799844
  0
LWPOLYLINE
  5
15C
330
1F
100
AcDbEntity
  8
0
  6
Continuous
 62
     7
370
    25
100
AcDbPolyline
 90
       16
 70
   128
 43
0.0
 10
30.4156611837
 20
29.911442408
 10
30.4065985415
 20
29.9289763011
 10
30.3759252394
 20
29.9675436502
 10
30.3328077519
 20
30.0019154118
 10
30.2789030597
 20
30.0307706982
 10
30.2162826899
 20
30.0530006169
 10
30.1473531084
 20
30.0677508847
 10
30.0747632401
 20
30.0744546571
 10
30.0013026731
 20
30.0728543118
 10
29.9297944557
 20
30.0630113492
 10
29.8629866087
 20
30.0453040288
 10
29.8034465201
 20
30.020412833
 10
29.7534622821
 20
29.9892943166
 10
29.714954761
 20
29.9531443466
 10
29.6894037792
 20
29.9133521462
 10
29.688551143
 20
29.911442408
  0
LWPOLYLINE
  5
15D
330
1F
100
AcDbEntity
  8
0
  6
Continuous
 62
     7
370
    25
100
AcDbPolyline
 90
       14
 70
   128
 43
0.0
 10
30.400827139
 20
29.8849048316
 10
30.3759252394
 20
29.9144684975
 10
30.3328077519
 20
29.948840259
 10
30.2789030597
 20
29.9776955454
 10
30.2162826899
 20
29.9999254641
 10
30.1473531084
 20
30.014675732
 10
30.0747632401
 20
30.0213795043
 10
30.0013026731
 20
30.019779159
 10
29.9297944557
 20
30.0099361964
 10
29.8629866087
 20
29.992228876
 10
29.8034465201
 20
29.9673376803
 10
29.7534622821
 20
29.9362191638
 10
29.714954761
 20
29.9000691939
 10
29.7033851877
 20
29.8849048316
  0
LWPOLYLINE
  5
15E
330
1F
100
AcDbEntity
  8
0
  6
Continuous
 62
     7
370
    25
100
AcDbPolyline
 90
       13
 70
   128
 43
0.0
 10
30.3789302924
 20
29.8583672552
 10
30.3759252394
 20
29.8613933447
 10
30.3328077519
 20
29.8957651062
 10
30.2789030597
 20
29.9246203926
 10
30.2162826899
 20
29.9468503114
 10
30.1473531084
 20
29.9616005792
 10
30.0747632401
 20
29.9683043515
 10
30.0013026731
 20
29.9667040062
 10
29.9297944557
 20
29.9568610436
 10
29.8629866087
 20
29.9391537232
 10
29.8034465201
 20
29.9142625275
 10
29.7534622821
 20
29.8831440111
 10
29.7252820343
 20
29.8583672552
  0
ARC
  5
15F
330
1F
100
AcDbEntity
  8
0
  6
Continuous
 62
     7
370
    25
100
AcDbCircle
 10
30.0521061633
 20
29.3745392119
 30
0.0
 40
0.5448943946591711
100
AcDbArc
 50
57.0586557745
 51
122.9413442255
  0
ARC
  5
160
330
1F
100
AcDbEntity
  8
0
  6
Continuous
 62
     7
370
    25
100
AcDbCircle
 10
30.0521061633
 20
29.288039095
 30
0.0
 40
0.5762820048722594
100
AcDbArc
 50
63.8403730696
 51
116.1596269304
  0
ARC
  5
161
330
1F
100
AcDbEntity
  8
0
  6
Continuous
 62
     7
370
    25
100
AcDbCircle
 10
30.0521061633
 20
29.2034993838
 30
0.0
 40
0.6066278313731502
100
AcDbArc
 50
71.492744313
 51
108.507255687
  0
ARC
  5
162
330
1F
100
AcDbEntity
  8
0
  6
Continuous
 62
     7
370
    25
100
AcDbCircle
 10
30.0521061633
 20
29.1121894856
 30
0.0
 40
0.6442175098768552
100
AcDbArc
 50
83.4616762005
 51
96.5383237995
  0
LWPOLYLINE
  5
163
330
1F
100
AcDbEntity
  8
0
  6
Continuous
 62
     7
370
    25
100
AcDbPolyline
 90
       17
 70
   128
 43
0.0
 10
29.2929663662
 20
26.9627384923
 10
29.2769624373
 20
26.9801301093
 10
29.2594749507
 20
26.9906852997
 10
29.2431662178
 20
26.9927971313
 10
29.2305190953
 20
26.9861440969
 10
29.223458993
 20
26.9717390607
 10
29.2230607475
 20
26.951775059
 10
29.229384988
 20
26.9292914298
 10
29.2414689062
 20
26.9077111021
 10
29.2574728352
 20
26.8903194851
 10
29.2749603218
 20
26.8797642947
 10
29.2912690547
 20
26.8776524631
 10
29.3039161771
 20
26.8843054975
 10
29.3109762794
 20
26.8987105336
 10
29.3113745249
 20
26.9186745354
 10
29.3050502844
 20
26.9411581646
 10
29.2929663662
 20
26.9627384923
  0
LINE
  5
164
330
1F
100
AcDbEntity
  8
0
  6
Continuous
 62
     7
370
    25
100
AcDbLine
 10
29.2354981014
 20
26.9567758407
 30
0.0
 11
29.2489281911
 21
26.915681689
 31
0.0
  0
LINE
  5
165
330
1F
100
AcDbEntity
  8
0
  6
Continuous
 62
     7
370
    25
100
AcDbLine
 10
29.2806477259
 20
26.8941306455
 30
0.0
 11
29.2489281911
 21
26.915681689
 31
0.0
  0
LINE
  5
166
330
1F
100
AcDbEntity
  8
0
  6
Continuous
 62
     7
370
    25
100
AcDbLine
 10
29.298937171
 20
26.9136737537
 30
0.0
 11
29.2806477259
 21
26.8941306455
 31
0.0
  0
LINE
  5
167
330
1F
100
AcDbEntity
  8
0
  6
Continuous
 62
     7
370
    25
100
AcDbLine
 10
29.298937171
 20
26.9136737537
 30
0.0
 11
29.2855070814
 21
26.9547679054
 31
0.0
  0
LINE
  5
168
330
1F
100
AcDbEntity
  8
0
  6
Continuous
 62
     7
370
    25
100
AcDbLine
 10
29.2537875466
 20
26.9763189489
 30
0.0
 11
29.2855070814
 21
26.9547679054
 31
0.0
  0
LINE
  5
169
330
1F
100
AcDbEntity
  8
0
  6
Continuous
 62
     7
370
    25
100
AcDbLine
 10
29.2537875466
 20
26.9763189489
 30
0.0
 11
29.2354981014
 21
26.9567758407
 31
0.0
  0
LINE
  5
16A
330
1F
100
AcDbEntity
  8
0
  6
Continuous
 62
     7
370
    25
100
AcDbLine
 10
29.260937022
 20
26.9714614169
 30
0.0
 11
29.2354981014
 21
26.9567758407
 31
0.0
  0
LINE
  5
16B
330
1F
100
AcDbEntity
  8
0
  6
Continuous
 62
     7
370
    25
100
AcDbLine
 10
29.2904476803
 20
26.9396503799
 30
0.0
 11
29.2489281911
 21
26.915681689
 31
0.0
  0
LWPOLYLINE
  5
16C
330
1F
100
AcDbEntity
  8
0
  6
Continuous
 62
     7
370
    25
100
AcDbPolyline
 90
       17
 70
   128
 43
0.0
 10
31.1282130998
 20
27.2812108784
 10
31.1218171895
 20
27.2683489621
 10
31.1157968028
 20
27.2485043398
 10
31.1110684892
 20
27.2246981753
 10
31.1083520916
 20
27.2005547413
 10
31.1080611567
 20
27.1797496569
 10
31.1102399769
 20
27.1654503074
 10
31.1145568465
 20
27.1598336393
 10
31.1203545612
 20
27.1637547394
 10
31.1267504716
 20
27.1766166556
 10
31.1327708582
 20
27.196461278
 10
31.1374991718
 20
27.2202674425
 10
31.1402155695
 20
27.2444108764
 10
31.1405065043
 20
27.2652159609
 10
31.1383276842
 20
27.2795153103
 10
31.1340108146
 20
27.2851319784
 10
31.1282130998
 20
27.2812108784
  0
LINE
  5
16D
330
1F
100
AcDbEntity
  8
0
  6
Continuous
 62
     7
370
    25
100
AcDbLine
 10
31.1130880601
 20
27.1881365212
 30
0.0
 11
31.1214928519
 21
27.1807679823
 31
0.0
  0
LINE
  5
16E
330
1F
100
AcDbEntity
  8
0
  6
Continuous
 62
     7
370
    25
100
AcDbLine
 10
31.1326886223
 20
27.21511427
 30
0.0
 11
31.1214928519
 21
27.1807679823
 31
0.0
  0
LINE
  5
16F
330
1F
100
AcDbEntity
  8
0
  6
Continuous
 62
     7
370
    25
100
AcDbLine
 10
31.1354796009
 20
27.2568290965
 30
0.0
 11
31.1326886223
 21
27.21511427
 31
0.0
  0
LINE
  5
170
330
1F
100
AcDbEntity
  8
0
  6
Continuous
 62
     7
370
    25
100
AcDbLine
 10
31.1354796009
 20
27.2568290965
 30
0.0
 11
31.1270748092
 21
27.2641976355
 31
0.0
  0
LINE
  5
171
330
1F
100
AcDbEntity
  8
0
  6
Continuous
 62
     7
370
    25
100
AcDbLine
 10
31.1158790388
 20
27.2298513478
 30
0.0
 11
31.1270748092
 21
27.2641976355
 31
0.0
  0
LINE
  5
172
330
1F
100
AcDbEntity
  8
0
  6
Continuous
 62
     7
370
    25
100
AcDbLine
 10
31.1158790388
 20
27.2298513478
 30
0.0
 11
31.1130880601
 21
27.1881365212
 31
0.0
  0
LINE
  5
173
330
1F
100
AcDbEntity
  8
0
  6
Continuous
 62
     7
370
    25
100
AcDbLine
 10
31.1251916437
 20
27.2584204766
 30
0.0
 11
31.1354796009
 21
27.2568290965
 31
0.0
  0
LINE
  5
174
330
1F
100
AcDbEntity
  8
0
  6
Continuous
 62
     7
370
    25
100
AcDbLine
 10
31.1150753228
 20
27.2178387616
 30
0.0
 11
31.1326886223
 21
27.21511427
 31
0.0
  0
LWPOLYLINE
  5
175
330
1F
100
AcDbEntity
  8
0
  6
Continuous
 62
     7
370
    25
100
AcDbPolyline
 90
       34
 70
   128
 43
0.0
 10
28.1044870038
 20
17.6290861548
 10
28.260328116
 20
17.5545314634
 10
28.4247078666
 20
17.4863612148
 10
28.5968429112
 20
17.4249002712
 10
28.7759129479
 20
17.3704415222
 10
28.9610646265
 20
17.3232444883
 10
29.1514156148
 20
17.283534085
 10
29.3460588038
 20
17.2514995505
 10
29.54406663
 20
17.2272935438
 10
29.7444954959
 20
17.2110314177
 10
29.9463902667
 20
17.2027906685
 10
30.148788822
 20
17.2026105672
 10
30.3507266403
 20
17.2104919721
 10
30.551241396
 20
17.2263973246
 10
30.7493775451
 20
17.2502508285
 10
30.9441908785
 20
17.2819388111
 10
31.134753022
 20
17.3213102646
 10
31.3201558602
 20
17.3681775661
 10
31.4995158641
 20
17.4223173716
 10
31.6719783016
 20
17.4834716803
 10
31.8367213107
 20
17.551349064
 10
31.9929598159
 20
17.6256260561
 10
32.1399492696
 20
17.7059486929
 10
32.2769892001
 20
17.7919342005
 10
32.4034265497
 20
17.8831728188
 10
32.5186587869
 20
17.9792297541
 10
32.6221367776
 20
18.0796472515
 10
32.713367402
 20
18.1839467758
 10
32.7919159047
 20
18.2916312924
 10
32.8574079662
 20
18.4021876354
 10
32.9095314872
 20
18.5150889535
 10
32.9480380752
 20
18.6297972206
 10
32.9727442289
 20
18.7457657994
 10
32.983156797
 20
18.8524780166
  0
LWPOLYLINE
  5
176
330
1F
100
AcDbEntity
  8
0
  6
Continuous
 62
     7
370
    25
100
AcDbPolyline
 90
       13
 70
   128
 43
0.0
 10
27.1210555297
 20
18.8524780166
 10
27.130688965
 20
18.750964264
 10
27.1547757112
 20
18.6349522675
 10
27.1926695565
 20
18.5201760166
 10
27.2441899194
 20
18.4071824725
 10
27.3090912819
 20
18.2965101009
 10
27.3870643594
 20
18.188686306
 10
27.4777375748
 20
18.0842249173
 10
27.5806788289
 20
17.9836237409
 10
27.6953975598
 20
17.8873621872
 10
27.8213470803
 20
17.7958989863
 10
27.9579271838
 20
17.709670002
 10
28.1044870038
 20
17.6290861548
  0
LWPOLYLINE
  5
177
330
1F
100
AcDbEntity
  8
0
  6
Continuous
 62
     7
370
    25
100
AcDbPolyline
 90
       52
 70
   128
 43
0.0
 10
28.0841896147
 20
18.3303741194
 10
28.2398954913
 20
18.2558272128
 10
28.4040507307
 20
18.1875882041
 10
28.5758899652
 20
18.1259752551
 10
28.7546120011
 20
18.0712756339
 10
28.9393835538
 20
18.0237443753
 10
29.1293431329
 20
17.9836030919
 10
29.3236050592
 20
17.951038941
 10
29.5212635939
 20
17.9262037517
 10
29.7213971618
 20
17.909213317
 10
29.9230726477
 20
17.9001468543
 10
30.1253497474
 20
17.8990466356
 10
30.3272853517
 20
17.9059177905
 10
30.5279379436
 20
17.9207282827
 10
30.7263719881
 20
17.9434090587
 10
30.921662294
 20
17.9738543703
 10
31.1128983279
 20
18.0119222674
 10
31.299188459
 20
18.0574352599
 10
31.4796641168
 20
18.1101811452
 10
31.6534838404
 20
18.1699139977
 10
31.819837202
 20
18.2363553152
 10
31.9779485856
 20
18.3091953176
 10
32.1270808027
 20
18.3880943912
 10
32.2665385303
 20
18.4726846721
 10
32.3956715519
 20
18.5625717614
 10
32.5138777898
 20
18.6573365639
 10
32.620606112
 20
18.7565372425
 10
32.7153589018
 20
18.8597112777
 10
32.7976943779
 20
18.9663776246
 10
32.8672286544
 20
19.0760389554
 10
32.9236375303
 20
19.1881839784
 10
32.9666580014
 20
19.3022898217
 10
32.9960894864
 20
19.4178244712
 10
33.0117947621
 20
19.534249251
 10
33.0137006034
 20
19.6510213351
 10
33.0017981243
 20
19.7675962781
 10
32.9761428196
 20
19.8834305538
 10
32.9368543062
 20
19.9979840893
 10
32.8841157653
 20
20.1107227832
 10
32.8181730884
 20
20.2211209957
 10
32.7393337305
 20
20.3286639993
 10
32.6479652773
 20
20.4328503788
 10
32.5444937306
 20
20.5331943694
 10
32.4294015225
 20
20.6292281209
 10
32.3032252661
 20
20.7205038798
 10
32.1665532532
 20
20.8065960762
 10
32.020022712
 20
20.8871033087
 10
31.8643168353
 20
20.9616502153
 10
31.700161596
 20
21.0298892239
 10
31.5283223615
 20
21.0915021729
 10
31.3496003255
 20
21.1462017941
 10
31.2396061633
 20
21.1755458484
  0
LWPOLYLINE
  5
178
330
1F
100
AcDbEntity
  8
0
  6
Continuous
 62
     7
370
    25
100
AcDbPolyline
 90
       31
 70
   128
 43
0.0
 10
28.8646061633
 20
21.1755458484
 10
28.8050238677
 20
21.1600421681
 10
28.6245482099
 20
21.1072962828
 10
28.4507284863
 20
21.0475634304
 10
28.2843751247
 20
20.9811221129
 10
28.1262637411
 20
20.9082821105
 10
27.977131524
 20
20.8293830369
 10
27.8376737964
 20
20.744792756
 10
27.7085407748
 20
20.6549056667
 10
27.5903345369
 20
20.5601408641
 10
27.4836062147
 20
20.4609401856
 10
27.3888534249
 20
20.3577661504
 10
27.3065179487
 20
20.2510998035
 10
27.2369836723
 20
20.1414384727
 10
27.1805747964
 20
20.0292934497
 10
27.1375543253
 20
19.9151876064
 10
27.1081228403
 20
19.7996529569
 10
27.0924175645
 20
19.6832281771
 10
27.0905117233
 20
19.566456093
 10
27.1024142024
 20
19.44988115
 10
27.1280695071
 20
19.3340468743
 10
27.1673580205
 20
19.2194933387
 10
27.2200965614
 20
19.1067546448
 10
27.2860392383
 20
18.9963564324
 10
27.3648785961
 20
18.8888134288
 10
27.4562470494
 20
18.7846270492
 10
27.5597185961
 20
18.6842830587
 10
27.6748108041
 20
18.5882493071
 10
27.8009870606
 20
18.4969735483
 10
27.9376590734
 20
18.4108813518
 10
28.0841896147
 20
18.3303741194
  0
ARC
  5
179
330
1F
100
AcDbEntity
  8
0
  6
Continuous
 62
     7
370
    25
100
AcDbCircle
 10
29.2759159855
 20
19.5927992548
 30
0.0
 40
0.4924829790972229
100
AcDbArc
 50
146.6341388471
 51
170.0758463109
  0
SPLINE
  5
17A
330
1F
100
AcDbEntity
  8
0
  6
Continuous
 62
     7
370
    25
100
AcDbSpline
210
0.0
220
0.0
230
1.0
 70
     8
 71
     3
 72
    12
 73
     8
 74
     0
 42
0.00000001
 43
0.00000001
 40
0.0
 40
0.0
 40
0.0
 40
0.0
 40
0.1140310720544645
 40
0.329784230846863
 40
0.5453472673578751
 40
0.760794099964581
 40
1.0
 40
1.0
 40
1.0
 40
1.0
 10
28.84445951594315
 20
19.63997239333202
 30
0.0
 10
28.84094536937901
 20
19.64028740386559
 30
0.0
 10
28.83078226119406
 20
19.64119843192706
 30
0.0
 10
28.81515262870303
 20
19.64565022572589
 30
0.0
 10
28.80074785171207
 20
19.6539738785921
 30
0.0
 10
28.79110420516664
 20
19.66506320311647
 30
0.0
 10
28.79090628104058
 20
19.6733277217676
 30
0.0
 10
28.79080214745617
 20
19.67767592310978
 30
0.0
  0
SPLINE
  5
17B
330
1F
100
AcDbEntity
  8
0
  6
Continuous
 62
     7
370
    25
100
AcDbSpline
210
0.0
220
0.0
230
1.0
 70
     8
 71
     3
 72
     9
 73
     5
 74
     0
 42
0.00000001
 43
0.00000001
 40
0.0
 40
0.0
 40
0.0
 40
0.0
 40
0.8248120126419338
 40
1.0
 40
1.0
 40
1.0
 40
1.0
 10
28.86460616334403
 20
19.63642394816613
 30
0.0
 10
28.8592228048137
 20
19.63778133090073
 30
0.0
 10
28.85269603453417
 20
19.63942701829834
 30
0.0
 10
28.84568735279165
 20
19.63989109301621
 30
0.0
 10
28.84445951594315
 20
19.63997239333202
 30
0.0
  0
SPLINE
  5
17C
330
1F
100
AcDbEntity
  8
0
  6
Continuous
 62
     7
370
    25
100
AcDbSpline
210
0.0
220
0.0
230
1.0
 70
     8
 71
     3
 72
     9
 73
     5
 74
     0
 42
0.00000001
 43
0.00000001
 40
0.0
 40
0.0
 40
0.0
 40
0.0
 40
0.9146685926388382
 40
1.0
 40
1.0
 40
1.0
 40
1.0
 10
28.85917749660201
 20
19.49582194065563
 30
0.0
 10
28.86593532994758
 20
19.49677870752041
 30
0.0
 10
28.87332361615305
 20
19.49782473323122
 30
0.0
 10
28.87876206055962
 20
19.50068317901126
 30
0.0
 10
28.87922613067469
 20
19.50092709421254
 30
0.0
  0
SPLINE
  5
17D
330
1F
100
AcDbEntity
  8
0
  6
Continuous
 62
     7
370
    25
100
AcDbSpline
210
0.0
220
0.0
230
1.0
 70
     8
 71
     3
 72
    12
 73
     8
 74
     0
 42
0.00000001
 43
0.00000001
 40
0.0
 40
0.0
 40
0.0
 40
0.0
 40
0.2156883841321431
 40
0.4313850930993783
 40
0.6468917445481017
 40
0.8622822096388082
 40
0.9999999999999999
 40
0.9999999999999999
 40
0.9999999999999999
 40
0.9999999999999999
 10
28.8135641853139
 20
19.45474058047842
 30
0.0
 10
28.81279159691551
 20
19.45862783332392
 30
0.0
 10
28.81124639029946
 20
19.46640248904961
 30
0.0
 10
28.81757030767371
 20
19.47780420447251
 30
0.0
 10
28.82959263357206
 20
19.48730458725289
 30
0.0
 10
28.8444534450424
 20
19.49335699547141
 30
0.0
 10
28.85504616766531
 20
19.49513031720364
 30
0.0
 10
28.85917749660201
 20
19.49582194065563
 30
0.0
  0
ARC
  5
17E
330
1F
100
AcDbEntity
  8
0
  6
Continuous
 62
     7
370
    25
100
AcDbCircle
 10
29.4487568141
 20
19.7221702581
 30
0.0
 40
0.6891939553311935
100
AcDbArc
 50
202.8321332543
 51
237.2370915456
  0
SPLINE
  5
17F
330
1F
100
AcDbEntity
  8
0
  6
Continuous
 62
     7
370
    25
100
AcDbSpline
210
0.0
220
0.0
230
1.0
 70
     8
 71
     3
 72
    12
 73
     8
 74
     0
 42
0.00000001
 43
0.00000001
 40
0.0
 40
0.0
 40
0.0
 40
0.0
 40
0.1140310720546536
 40
0.3297842308467209
 40
0.5453472673578688
 40
0.760794099964651
 40
1.0
 40
1.0
 40
1.0
 40
1.0
 10
29.15991359586227
 20
19.1378580008855
 30
0.0
 10
29.15704286965368
 20
19.13664625808939
 30
0.0
 10
29.14874056908232
 20
19.13314183022774
 30
0.0
 10
29.13223584750351
 20
19.12990964443611
 30
0.0
 10
29.11185467615372
 20
19.12991526742984
 30
0.0
 10
29.09145252319426
 20
19.13382002836617
 30
0.0
 10
29.08118954601937
 20
19.13958313211661
 30
0.0
 10
29.07578989807732
 20
19.14261526702012
 30
0.0
  0
SPLINE
  5
180
330
1F
100
AcDbEntity
  8
0
  6
Continuous
 62
     7
370
    25
100
AcDbSpline
210
0.0
220
0.0
230
1.0
 70
     8
 71
     3
 72
     9
 73
     5
 74
     0
 42
0.00000001
 43
0.00000001
 40
0.0
 40
0.0
 40
0.0
 40
0.0
 40
0.8321870323124173
 40
1.0
 40
1.0
 40
1.0
 40
1.0
 10
29.17933996617434
 20
19.1438080734325
 30
0.0
 10
29.17357695251255
 20
19.14250663659976
 30
0.0
 10
29.16665181016111
 20
19.1409427611941
 30
0.0
 10
29.16088186712632
 20
19.13830127630401
 30
0.0
 10
29.15991359586227
 20
19.1378580008855
 30
0.0
  0
SPLINE
  5
181
330
1F
100
AcDbEntity
  8
0
  6
Continuous
 62
     7
370
    25
100
AcDbSpline
210
0.0
220
0.0
230
1.0
 70
     8
 71
     3
 72
     9
 73
     5
 74
     0
 42
0.00000001
 43
0.00000001
 40
0.0
 40
0.0
 40
0.0
 40
0.0
 40
0.9146685926387544
 40
1.0
 40
1.0
 40
1.0
 40
1.0
 10
29.34688743878093
 20
19.0419361776867
 30
0.0
 10
29.35049402627473
 20
19.04537128900562
 30
0.0
 10
29.35443708010081
 20
19.04912686927434
 30
0.0
 10
29.35478139484324
 20
19.05336809073367
 30
0.0
 10
29.35481077570478
 20
19.05373000012973
 30
0.0
  0
SPLINE
  5
182
330
1F
100
AcDbEntity
  8
0
  6
Continuous
 62
     7
370
    25
100
AcDbSpline
210
0.0
220
0.0
230
1.0
 70
     8
 71
     3
 72
    12
 73
     8
 74
     0
 42
0.00000001
 43
0.00000001
 40
0.0
 40
0.0
 40
0.0
 40
0.0
 40
0.2156883841321469
 40
0.4313850930993072
 40
0.6468917445480821
 40
0.8622822096388092
 40
1.0
 40
1.0
 40
1.0
 40
1.0
 10
29.36495359448106
 20
18.99426773065365
 30
0.0
 10
29.3596458830906
 20
18.99670105978312
 30
0.0
 10
29.34903025545013
 20
19.00156781196026
 30
0.0
 10
29.33953623460655
 20
19.01221149097436
 30
0.0
 10
29.33640049681624
 20
19.02383683825544
 30
0.0
 10
29.3394952181919
 20
19.0341827806656
 30
0.0
 10
29.34481330214113
 20
19.0397607008255
 30
0.0
 10
29.34688743878093
 20
19.0419361776867
 30
0.0
  0
ARC
  5
183
330
1F
100
AcDbEntity
  8
0
  6
Continuous
 62
     7
370
    25
100
AcDbCircle
 10
30.0258200461
 20
20.8204861439
 30
0.0
 40
1.942116927411239
100
AcDbArc
 50
250.1059748088
 51
267.2514639433
  0
SPLINE
  5
184
330
1F
100
AcDbEntity
  8
0
  6
Continuous
 62
     7
370
    25
100
AcDbSpline
210
0.0
220
0.0
230
1.0
 70
     8
 71
     3
 72
    12
 73
     8
 74
     0
 42
0.00000001
 43
0.00000001
 40
0.0
 40
0.0
 40
0.0
 40
0.0
 40
0.1140310720544557
 40
0.3297842308467729
 40
0.5453472673577933
 40
0.7607940999646087
 40
1.0
 40
1.0
 40
1.0
 40
1.0
 10
29.99800198156371
 20
18.91157914393197
 30
0.0
 10
29.99745630818981
 20
18.90955047030203
 30
0.0
 10
29.99587819030786
 20
18.90368343283026
 30
0.0
 10
29.98816662169894
 20
18.89466063804877
 30
0.0
 10
29.97374806974996
 20
18.88634493729657
 30
0.0
 10
29.95453871487853
 20
18.88077777864618
 30
0.0
 10
29.94022259749354
 20
18.88066351948029
 30
0.0
 10
29.93269047572626
 20
18.8806034044416
 30
0.0
  0
SPLINE
  5
185
330
1F
100
AcDbEntity
  8
0
  6
Continuous
 62
     7
370
    25
100
AcDbSpline
210
0.0
220
0.0
230
1.0
 70
     8
 71
     3
 72
     9
 73
     5
 74
     0
 42
0.00000001
 43
0.00000001
 40
0.0
 40
0.0
 40
0.0
 40
0.0
 40
0.8321870323128362
 40
1.0
 40
1.0
 40
1.0
 40
1.0
 10
30.00445038922693
 20
18.92371640373154
 30
0.0
 10
30.0019694239971
 20
18.9204436633708
 30
0.0
 10
29.99898816481678
 20
18.9165109652709
 30
0.0
 10
29.99814369461448
 20
18.91228783924354
 30
0.0
 10
29.99800198156371
 20
18.91157914393197
 30
0.0
  0
SPLINE
  5
186
330
1F
100
AcDbEntity
  8
0
  6
Continuous
 62
     7
370
    25
100
AcDbSpline
210
0.0
220
0.0
230
1.0
 70
     8
 71
     3
 72
     9
 73
     5
 74
     0
 42
0.00000001
 43
0.00000001
 40
0.0
 40
0.0
 40
0.0
 40
0.0
 40
0.9146685926383754
 40
1.0
 40
1.0
 40
1.0
 40
1.0
 10
30.24770494536945
 20
18.92007565331305
 30
0.0
 10
30.24604759697151
 20
18.92397686746376
 30
0.0
 10
30.24423563096406
 20
18.92824203430354
 30
0.0
 10
30.23928412113595
 20
18.93138158143232
 30
0.0
 10
30.23886160183375
 20
18.93164948340729
 30
0.0
  0
SPLINE
  5
187
330
1F
100
AcDbEntity
  8
0
  6
Continuous
 62
     7
370
    25
100
AcDbSpline
210
0.0
220
0.0
230
1.0
 70
     8
 71
     3
 72
    12
 73
     8
 74
     0
 42
0.00000001
 43
0.00000001
 40
0.0
 40
0.0
 40
0.0
 40
0.0
 40
0.2156883841321946
 40
0.4313850930994006
 40
0.6468917445480517
 40
0.8622822096388171
 40
1.0
 40
1.0
 40
1.0
 40
1.0
 10
30.31886765906866
 20
18.89374364919887
 30
0.0
 10
30.31213401003348
 20
18.89329764340999
 30
0.0
 10
30.29866645206727
 20
18.89240561461791
 30
0.0
 10
30.27891596165461
 20
18.89605633441032
 30
0.0
 10
30.26245903284511
 20
18.90299667542212
 30
0.0
 10
30.251974818316
 20
18.91157563927556
 30
0.0
 10
30.24890300213994
 20
18.9176906878833
 30
0.0
 10
30.24770494536945
 20
18.92007565331305
 30
0.0
  0
ARC
  5
188
330
1F
100
AcDbEntity
  8
0
  6
Continuous
 62
     7
370
    25
100
AcDbCircle
 10
30.1175887999
 20
20.6538836853
 30
0.0
 40
1.771611166693634
100
AcDbArc
 50
276.5236575122
 51
294.7589773872
  0
SPLINE
  5
189
330
1F
100
AcDbEntity
  8
0
  6
Continuous
 62
     7
370
    25
100
AcDbSpline
210
0.0
220
0.0
230
1.0
 70
     8
 71
     3
 72
    12
 73
     8
 74
     0
 42
0.00000001
 43
0.00000001
 40
0.0
 40
0.0
 40
0.0
 40
0.0
 40
0.1140310720544543
 40
0.329784230846773
 40
0.545347267357786
 40
0.7607940999645627
 40
1.0
 40
1.0
 40
1.0
 40
1.0
 10
30.86778386317099
 20
19.09368690799652
 30
0.0
 10
30.86988289069356
 20
19.09202967303154
 30
0.0
 10
30.87595339555324
 20
19.08723685692966
 30
0.0
 10
30.88155231221814
 20
19.07770888397082
 30
0.0
 10
30.88154257185191
 20
19.06594308419267
 30
0.0
 10
30.87477859462776
 20
19.05416517198908
 30
0.0
 10
30.86479552443626
 20
19.04824048137661
 30
0.0
 10
30.85954314362157
 20
19.04512333097007
 30
0.0
  0
SPLINE
  5
18A
330
1F
100
AcDbEntity
  8
0
  6
Continuous
 62
     7
370
    25
100
AcDbSpline
210
0.0
220
0.0
230
1.0
 70
     8
 71
     3
 72
     9
 73
     5
 74
     0
 42
0.00000001
 43
0.00000001
 40
0.0
 40
0.0
 40
0.0
 40
0.0
 40
0.8321870323123652
 40
1.0
 40
1.0
 40
1.0
 40
1.0
 10
30.85747691843194
 20
19.10490151286809
 30
0.0
 10
30.85973131741791
 20
19.10157459589656
 30
0.0
 10
30.86244032260356
 20
19.09757679631263
 30
0.0
 10
30.86701600442529
 20
19.09424587909922
 30
0.0
 10
30.86778386317099
 20
19.09368690799652
 30
0.0
  0
SPLINE
  5
18B
330
1F
100
AcDbEntity
  8
0
  6
Continuous
 62
     7
370
    25
100
AcDbSpline
210
0.0
220
0.0
230
1.0
 70
     8
 71
     3
 72
     9
 73
     5
 74
     0
 42
0.00000001
 43
0.00000001
 40
0.0
 40
0.0
 40
0.0
 40
0.0
 40
0.9146685926382901
 40
1.0
 40
1.0
 40
1.0
 40
1.0
 10
31.03394333823114
 20
19.20162460999488
 30
0.0
 10
31.02799290615539
 20
19.20370664863761
 30
0.0
 10
31.02148734542702
 20
19.20598292515951
 30
0.0
 10
31.01414053833145
 20
19.2061816938294
 30
0.0
 10
31.01351362494237
 20
19.20619865503974
 30
0.0
  0
SPLINE
  5
18C
330
1F
100
AcDbEntity
  8
0
  6
Continuous
 62
     7
370
    25
100
AcDbSpline
210
0.0
220
0.0
230
1.0
 70
     8
 71
     3
 72
    12
 73
     8
 74
     0
 42
0.00000001
 43
0.00000001
 40
0.0
 40
0.0
 40
0.0
 40
0.0
 40
0.2156883841322632
 40
0.4313850930994513
 40
0.6468917445481522
 40
0.862282209638914
 40
1.0
 40
1.0
 40
1.0
 40
1.0
 10
31.1165164573797
 20
19.2120539796852
 30
0.0
 10
31.11230135098036
 20
19.20898990312018
 30
0.0
 10
31.10387097549296
 20
19.20286163172727
 30
0.0
 10
31.08543358493143
 20
19.19738085015598
 30
0.0
 10
31.06529571080436
 20
19.19557062726131
 30
0.0
 10
31.0473740710508
 20
19.19735717188381
 30
0.0
 10
31.03771178300426
 20
19.20042723639954
 30
0.0
 10
31.03394333823114
 20
19.20162460999488
 30
0.0
  0
ARC
  5
18D
330
1F
100
AcDbEntity
  8
0
  6
Continuous
 62
     7
370
    25
100
AcDbCircle
 10
30.7516330648
 20
19.6542725383
 30
0.0
 40
0.5733211524326833
100
AcDbArc
 50
309.5267232579
 51
348.4827458721
  0
SPLINE
  5
18E
330
1F
100
AcDbEntity
  8
0
  6
Continuous
 62
     7
370
    25
100
AcDbSpline
210
0.0
220
0.0
230
1.0
 70
     8
 71
     3
 72
    12
 73
     8
 74
     0
 42
0.00000001
 43
0.00000001
 40
0.0
 40
0.0
 40
0.0
 40
0.0
 40
0.1140310720544541
 40
0.3297842308468962
 40
0.5453472673579322
 40
0.7607940999646259
 40
1.0
 40
1.0
 40
1.0
 40
1.0
 10
31.25975281074491
 20
19.57750503470357
 30
0.0
 10
31.26326695730904
 20
19.57719002417001
 30
0.0
 10
31.273430065494
 20
19.57627899610854
 30
0.0
 10
31.28905969798502
 20
19.5718272023097
 30
0.0
 10
31.30346447497598
 20
19.56350354944349
 30
0.0
 10
31.31310812152141
 20
19.55241422491913
 30
0.0
 10
31.31330604564748
 20
19.54414970626799
 30
0.0
 10
31.31341017923189
 20
19.53980150492581
 30
0.0
  0
SPLINE
  5
18F
330
1F
100
AcDbEntity
  8
0
  6
Continuous
 62
     7
370
    25
100
AcDbSpline
210
0.0
220
0.0
230
1.0
 70
     8
 71
     3
 72
     9
 73
     5
 74
     0
 42
0.00000001
 43
0.00000001
 40
0.0
 40
0.0
 40
0.0
 40
0.0
 40
0.8321870323128311
 40
1.0
 40
1.0
 40
1.0
 40
1.0
 10
31.23872818204508
 20
19.58122762121007
 30
0.0
 10
31.24439734889589
 20
19.57979539046878
 30
0.0
 10
31.25120971995034
 20
19.57807434617744
 30
0.0
 10
31.25852518144199
 20
19.57758684390643
 30
0.0
 10
31.25975281074491
 20
19.57750503470357
 30
0.0
  0
LINE
  5
190
330
1F
100
AcDbEntity
  8
0
  6
Continuous
 62
     7
370
    25
100
AcDbLine
 10
31.2450348301
 20
19.7216554874
 30
0.0
 11
31.2396061633
 21
19.7203780961
 31
0.0
  0
SPLINE
  5
191
330
1F
100
AcDbEntity
  8
0
  6
Continuous
 62
     7
370
    25
100
AcDbSpline
210
0.0
220
0.0
230
1.0
 70
     8
 71
     3
 72
    12
 73
     8
 74
     0
 42
0.00000001
 43
0.00000001
 40
0.0
 40
0.0
 40
0.0
 40
0.0
 40
0.215688384132202
 40
0.4313850930994129
 40
0.6468917445479881
 40
0.8622822096388468
 40
1.0
 40
1.0
 40
1.0
 40
1.0
 10
31.29064814137417
 20
19.76273684755719
 30
0.0
 10
31.29142072977255
 20
19.75884959471168
 30
0.0
 10
31.29296593638859
 20
19.75107493898598
 30
0.0
 10
31.28664201901434
 20
19.73967322356309
 30
0.0
 10
31.274619693116
 20
19.7301728407827
 30
0.0
 10
31.25975888164566
 20
19.72412043256418
 30
0.0
 10
31.24916615902274
 20
19.72234711083195
 30
0.0
 10
31.24503483008604
 20
19.72165548737996
 30
0.0
  0
ARC
  5
192
330
1F
100
AcDbEntity
  8
0
  6
Continuous
 62
     7
370
    25
100
AcDbCircle
 10
30.7941277481
 20
19.5749803836
 30
0.0
 40
0.5308342402960257
100
AcDbArc
 50
20.7138367776
 51
32.9438016169
  0
LWPOLYLINE
  5
193
330
1F
100
AcDbEntity
  8
0
  6
Continuous
 62
     7
370
    25
100
AcDbPolyline
 90
       21
 70
   128
 43
0.0
 10
31.7505888432
 20
18.6176714555
 10
31.7914310908
 20
18.602577339
 10
31.8383541233
 20
18.5955078996
 10
31.8867647873
 20
18.5971551434
 10
31.9319243098
 20
18.6073578267
 10
31.969412162
 20
18.6251172397
 10
31.9955587718
 20
18.6486949674
 10
32.0078047268
 20
18.6757830575
 10
32.0049513077
 20
18.7037299389
 10
31.9872778269
 20
18.7297999764
 10
31.956514288
 20
18.7514412528
 10
31.9156720404
 20
18.7665353693
 10
31.8687490079
 20
18.7736048087
 10
31.8203383439
 20
18.7719575649
 10
31.7751788214
 20
18.7617548816
 10
31.7376909692
 20
18.7439954686
 10
31.7115443594
 20
18.7204177409
 10
31.6992984044
 20
18.6933296509
 10
31.7021518235
 20
18.6653827694
 10
31.7198253043
 20
18.639312732
 10
31.7505888432
 20
18.6176714555
  0
LWPOLYLINE
  5
194
330
1F
100
AcDbEntity
  8
0
  6
Continuous
 62
     7
370
    25
100
AcDbPolyline
 90
       21
 70
   128
 43
0.0
 10
32.2261015157
 20
19.0859931625
 10
32.2669437633
 20
19.0708990459
 10
32.3138667958
 20
19.0638296066
 10
32.3622774598
 20
19.0654768504
 10
32.4074369823
 20
19.0756795336
 10
32.4449248345
 20
19.0934389467
 10
32.4710714443
 20
19.1170166743
 10
32.4833173993
 20
19.1441047644
 10
32.4804639802
 20
19.1720516459
 10
32.4627904994
 20
19.1981216833
 10
32.4320269605
 20
19.2197629597
 10
32.3911847129
 20
19.2348570763
 10
32.3442616804
 20
19.2419265156
 10
32.2958510164
 20
19.2402792718
 10
32.2506914939
 20
19.2300765885
 10
32.2132036417
 20
19.2123171755
 10
32.1870570319
 20
19.1887394478
 10
32.1748110769
 20
19.1616513578
 10
32.177664496
 20
19.1337044763
 10
32.1953379768
 20
19.1076344389
 10
32.2261015157
 20
19.0859931625
  0
LWPOLYLINE
  5
195
330
1F
100
AcDbEntity
  8
0
  6
Continuous
 62
     7
370
    25
100
AcDbPolyline
 90
       21
 70
   128
 43
0.0
 10
32.354967962
 20
19.6237155214
 10
32.3958102096
 20
19.6086214049
 10
32.4427332421
 20
19.6015519655
 10
32.4911439061
 20
19.6031992093
 10
32.5363034286
 20
19.6134018926
 10
32.5737912808
 20
19.6311613056
 10
32.5999378906
 20
19.6547390333
 10
32.6121838456
 20
19.6818271233
 10
32.6093304264
 20
19.7097740048
 10
32.5916569457
 20
19.7358440422
 10
32.5608934067
 20
19.7574853186
 10
32.5200511591
 20
19.7725794352
 10
32.4731281267
 20
19.7796488745
 10
32.4247174626
 20
19.7780016307
 10
32.3795579402
 20
19.7677989475
 10
32.342070088
 20
19.7500395345
 10
32.3159234782
 20
19.7264618068
 10
32.3036775231
 20
19.6993737167
 10
32.3065309423
 20
19.6714268352
 10
32.324204423
 20
19.6453567978
 10
32.354967962
 20
19.6237155214
  0
LWPOLYLINE
  5
196
330
1F
100
AcDbEntity
  8
0
  6
Continuous
 62
     7
370
    25
100
AcDbPolyline
 90
       21
 70
   128
 43
0.0
 10
32.1175694338
 20
20.1489751777
 10
32.1584116814
 20
20.1338810611
 10
32.2053347139
 20
20.1268116218
 10
32.2537453779
 20
20.1284588656
 10
32.2989049004
 20
20.1386615489
 10
32.3363927526
 20
20.1564209619
 10
32.3625393624
 20
20.1799986895
 10
32.3747853174
 20
20.2070867796
 10
32.3719318982
 20
20.2350336611
 10
32.3542584175
 20
20.2611036985
 10
32.3234948785
 20
20.2827449749
 10
32.2826526309
 20
20.2978390915
 10
32.2357295985
 20
20.3049085308
 10
32.1873189344
 20
20.303261287
 10
32.142159412
 20
20.2930586037
 10
32.1046715597
 20
20.2752991907
 10
32.07852495
 20
20.2517214631
 10
32.0662789949
 20
20.224633373
 10
32.0691324141
 20
20.1966864915
 10
32.0868058948
 20
20.1706164541
 10
32.1175694338
 20
20.1489751777
  0
LWPOLYLINE
  5
197
330
1F
100
AcDbEntity
  8
0
  6
Continuous
 62
     7
370
    25
100
AcDbPolyline
 90
       21
 70
   128
 43
0.0
 10
31.550047705
 20
20.5818061101
 10
31.5908899526
 20
20.5667119936
 10
31.6378129851
 20
20.5596425542
 10
31.6862236491
 20
20.561289798
 10
31.7313831716
 20
20.5714924813
 10
31.7688710238
 20
20.5892518943
 10
31.7950176336
 20
20.612829622
 10
31.8072635886
 20
20.6399177121
 10
31.8044101695
 20
20.6678645935
 10
31.7867366887
 20
20.6939346309
 10
31.7559731498
 20
20.7155759074
 10
31.7151309022
 20
20.7306700239
 10
31.6682078697
 20
20.7377394633
 10
31.6197972057
 20
20.7360922195
 10
31.5746376832
 20
20.7258895362
 10
31.537149831
 20
20.7081301232
 10
31.5110032212
 20
20.6845523955
 10
31.4987572662
 20
20.6574643054
 10
31.5016106853
 20
20.629517424
 10
31.5192841661
 20
20.6034473866
 10
31.550047705
 20
20.5818061101
  0
ARC
  5
198
330
1F
100
AcDbEntity
  8
0
  6
Continuous
 62
     7
370
    25
100
AcDbCircle
 10
28.9054031918
 20
20.8605443942
 30
0.0
 40
0.059356659925398
100
AcDbArc
 50
133.4183482162
 51
226.5816517838
  0
LWPOLYLINE
  5
199
330
1F
100
AcDbEntity
  8
0
  6
Continuous
 62
     7
370
    25
100
AcDbPolyline
 90
       21
 70
   128
 43
0.0
 10
28.1476980387
 20
20.4660361752
 10
28.1885402863
 20
20.4509420587
 10
28.2354633188
 20
20.4438726193
 10
28.2838739828
 20
20.4455198632
 10
28.3290335053
 20
20.4557225464
 10
28.3665213575
 20
20.4734819594
 10
28.3926679673
 20
20.4970596871
 10
28.4049139223
 20
20.5241477772
 10
28.4020605031
 20
20.5520946587
 10
28.3843870224
 20
20.5781646961
 10
28.3536234834
 20
20.5998059725
 10
28.3127812358
 20
20.614900089
 10
28.2658582034
 20
20.6219695284
 10
28.2174475393
 20
20.6203222846
 10
28.1722880169
 20
20.6101196013
 10
28.1348001647
 20
20.5923601883
 10
28.1086535549
 20
20.5687824606
 10
28.0964075998
 20
20.5416943706
 10
28.099261019
 20
20.5137474891
 10
28.1169344997
 20
20.4876774517
 10
28.1476980387
 20
20.4660361752
  0
LWPOLYLINE
  5
19A
330
1F
100
AcDbEntity
  8
0
  6
Continuous
 62
     7
370
    25
100
AcDbPolyline
 90
       21
 70
   128
 43
0.0
 10
27.6721853662
 20
19.9977144683
 10
27.7130276138
 20
19.9826203518
 10
27.7599506463
 20
19.9755509124
 10
27.8083613103
 20
19.9771981562
 10
27.8535208328
 20
19.9874008395
 10
27.891008685
 20
20.0051602525
 10
27.9171552948
 20
20.0287379802
 10
27.9294012498
 20
20.0558260703
 10
27.9265478307
 20
20.0837729517
 10
27.9088743499
 20
20.1098429891
 10
27.878110811
 20
20.1314842656
 10
27.8372685634
 20
20.1465783821
 10
27.7903455309
 20
20.1536478215
 10
27.7419348669
 20
20.1520005777
 10
27.6967753444
 20
20.1417978944
 10
27.6592874922
 20
20.1240384814
 10
27.6331408824
 20
20.1004607537
 10
27.6208949274
 20
20.0733726636
 10
27.6237483465
 20
20.0454257822
 10
27.6414218273
 20
20.0193557448
 10
27.6721853662
 20
19.9977144683
  0
LWPOLYLINE
  5
19B
330
1F
100
AcDbEntity
  8
0
  6
Continuous
 62
     7
370
    25
100
AcDbPolyline
 90
       21
 70
   128
 43
0.0
 10
27.5433189199
 20
19.4599921094
 10
27.5841611675
 20
19.4448979928
 10
27.6310842
 20
19.4378285535
 10
27.6794948641
 20
19.4394757973
 10
27.7246543865
 20
19.4496784806
 10
27.7621422387
 20
19.4674378936
 10
27.7882888485
 20
19.4910156213
 10
27.8005348035
 20
19.5181037113
 10
27.7976813844
 20
19.5460505928
 10
27.7800079036
 20
19.5721206302
 10
27.7492443647
 20
19.5937619066
 10
27.7084021171
 20
19.6088560232
 10
27.6614790846
 20
19.6159254625
 10
27.6130684206
 20
19.6142782187
 10
27.5679088981
 20
19.6040755355
 10
27.5304210459
 20
19.5863161224
 10
27.5042744361
 20
19.5627383948
 10
27.4920284811
 20
19.5356503047
 10
27.4948819002
 20
19.5077034232
 10
27.512555381
 20
19.4816333858
 10
27.5433189199
 20
19.4599921094
  0
LWPOLYLINE
  5
19C
330
1F
100
AcDbEntity
  8
0
  6
Continuous
 62
     7
370
    25
100
AcDbPolyline
 90
       21
 70
   128
 43
0.0
 10
27.7807174482
 20
18.9347324531
 10
27.8215596957
 20
18.9196383366
 10
27.8684827282
 20
18.9125688972
 10
27.9168933923
 20
18.914216141
 10
27.9620529147
 20
18.9244188243
 10
27.9995407669
 20
18.9421782373
 10
28.0256873767
 20
18.965755965
 10
28.0379333318
 20
18.992844055
 10
28.0350799126
 20
19.0207909365
 10
28.0174064318
 20
19.0468609739
 10
27.9866428929
 20
19.0685022504
 10
27.9458006453
 20
19.0835963669
 10
27.8988776128
 20
19.0906658063
 10
27.8504669488
 20
19.0890185624
 10
27.8053074263
 20
19.0788158792
 10
27.7678195741
 20
19.0610564662
 10
27.7416729643
 20
19.0374787385
 10
27.7294270093
 20
19.0103906484
 10
27.7322804284
 20
18.9824437669
 10
27.7499539092
 20
18.9563737295
 10
27.7807174482
 20
18.9347324531
  0
LWPOLYLINE
  5
19D
330
1F
100
AcDbEntity
  8
0
  6
Continuous
 62
     7
370
    25
100
AcDbPolyline
 90
       21
 70
   128
 43
0.0
 10
28.3482391769
 20
18.5019015207
 10
28.3890814245
 20
18.4868074041
 10
28.436004457
 20
18.4797379648
 10
28.484415121
 20
18.4813852086
 10
28.5295746435
 20
18.4915878918
 10
28.5670624957
 20
18.5093473049
 10
28.5932091055
 20
18.5329250325
 10
28.6054550605
 20
18.5600131226
 10
28.6026016414
 20
18.5879600041
 10
28.5849281606
 20
18.6140300415
 10
28.5541646217
 20
18.6356713179
 10
28.5133223741
 20
18.6507654345
 10
28.4663993416
 20
18.6578348738
 10
28.4179886776
 20
18.65618763
 10
28.3728291551
 20
18.6459849467
 10
28.3353413029
 20
18.6282255337
 10
28.3091946931
 20
18.6046478061
 10
28.2969487381
 20
18.577559716
 10
28.2998021572
 20
18.5496128345
 10
28.317475638
 20
18.5235427971
 10
28.3482391769
 20
18.5019015207
  0
LWPOLYLINE
  5
19E
330
1F
100
AcDbEntity
  8
0
  6
Continuous
 62
     7
370
    25
100
AcDbPolyline
 90
       21
 70
   128
 43
0.0
 10
29.1594840677
 20
18.2273938979
 10
29.2003263153
 20
18.2122997814
 10
29.2472493478
 20
18.205230342
 10
29.2956600118
 20
18.2068775858
 10
29.3408195342
 20
18.2170802691
 10
29.3783073865
 20
18.2348396821
 10
29.4044539963
 20
18.2584174098
 10
29.4166999513
 20
18.2855054998
 10
29.4138465321
 20
18.3134523813
 10
29.3961730514
 20
18.3395224187
 10
29.3654095124
 20
18.3611636952
 10
29.3245672648
 20
18.3762578117
 10
29.2776442323
 20
18.3833272511
 10
29.2292335683
 20
18.3816800072
 10
29.1840740459
 20
18.371477324
 10
29.1465861936
 20
18.353717911
 10
29.1204395839
 20
18.3301401833
 10
29.1081936288
 20
18.3030520932
 10
29.111047048
 20
18.2751052117
 10
29.1287205287
 20
18.2490351743
 10
29.1594840677
 20
18.2273938979
  0
LWPOLYLINE
  5
19F
330
1F
100
AcDbEntity
  8
0
  6
Continuous
 62
     7
370
    25
100
AcDbPolyline
 90
       21
 70
   128
 43
0.0
 10
30.0909474397
 20
18.153000882
 10
30.1317896873
 20
18.1379067654
 10
30.1787127198
 20
18.1308373261
 10
30.2271233838
 20
18.1324845699
 10
30.2722829063
 20
18.1426872532
 10
30.3097707585
 20
18.1604466662
 10
30.3359173683
 20
18.1840243938
 10
30.3481633233
 20
18.2111124839
 10
30.3453099042
 20
18.2390593654
 10
30.3276364234
 20
18.2651294028
 10
30.2968728845
 20
18.2867706792
 10
30.2560306369
 20
18.3018647958
 10
30.2091076044
 20
18.3089342351
 10
30.1606969404
 20
18.3072869913
 10
30.1155374179
 20
18.297084308
 10
30.0780495657
 20
18.279324895
 10
30.0519029559
 20
18.2557471674
 10
30.0396570009
 20
18.2286590773
 10
30.04251042
 20
18.2007121958
 10
30.0601839008
 20
18.1746421584
 10
30.0909474397
 20
18.153000882
  0
LWPOLYLINE
  5
1A0
330
1F
100
AcDbEntity
  8
0
  6
Continuous
 62
     7
370
    25
100
AcDbPolyline
 90
       21
 70
   128
 43
0.0
 10
31.0008224384
 20
18.2900481352
 10
31.041664686
 20
18.2749540186
 10
31.0885877185
 20
18.2678845793
 10
31.1369983825
 20
18.2695318231
 10
31.182157905
 20
18.2797345064
 10
31.2196457572
 20
18.2974939194
 10
31.245792367
 20
18.321071647
 10
31.258038322
 20
18.3481597371
 10
31.2551849029
 20
18.3761066186
 10
31.2375114221
 20
18.402176656
 10
31.2067478832
 20
18.4238179324
 10
31.1659056356
 20
18.438912049
 10
31.1189826031
 20
18.4459814883
 10
31.0705719391
 20
18.4443342445
 10
31.0254124166
 20
18.4341315612
 10
30.9879245644
 20
18.4163721482
 10
30.9617779546
 20
18.3927944206
 10
30.9495319996
 20
18.3657063305
 10
30.9523854187
 20
18.337759449
 10
30.9700588995
 20
18.3116894116
 10
31.0008224384
 20
18.2900481352
  0
LINE
  5
1A1
330
1F
100
AcDbEntity
  8
0
  6
Continuous
 62
     7
370
    25
100
AcDbLine
 10
28.8517924023
 20
25.252010121
 30
0.0
 11
28.8588634701
 21
25.2479280805
 31
0.0
  0
LINE
  5
1A2
330
1F
100
AcDbEntity
  8
0
  6
Continuous
 62
     7
370
    25
100
AcDbLine
 10
28.8517924023
 20
25.252010121
 30
0.0
 11
28.8517924023
 21
26.4768213388
 31
0.0
  0
LINE
  5
1A3
330
1F
100
AcDbEntity
  8
0
  6
Continuous
 62
     7
370
    25
100
AcDbLine
 10
28.8517924023
 20
26.4768213388
 30
0.0
 11
28.8588634701
 21
26.4727392983
 31
0.0
  0
LINE
  5
1A4
330
1F
100
AcDbEntity
  8
0
  6
Continuous
 62
     7
370
    25
100
AcDbLine
 10
28.8588634701
 20
25.2479280805
 30
0.0
 11
28.8588634701
 21
26.4727392983
 31
0.0
  0
LINE
  5
1A5
330
1F
100
AcDbEntity
  8
0
  6
Continuous
 62
     7
370
    25
100
AcDbLine
 10
28.8646061633
 20
25.2512432667
 30
0.0
 11
28.8588634701
 21
25.2479280805
 31
0.0
  0
LINE
  5
1A6
330
1F
100
AcDbEntity
  8
0
  6
Continuous
 62
     7
370
    25
100
AcDbLine
 10
28.8588634701
 20
26.4727392983
 30
0.0
 11
28.9421061633
 21
26.5207942822
 31
0.0
  0
LINE
  5
1A7
330
1F
100
AcDbEntity
  8
0
  6
Continuous
 62
     7
370
    25
100
AcDbLine
 10
28.8517924023
 20
26.4768213388
 30
0.0
 11
28.9421061633
 21
26.5289583633
 31
0.0
  0
LINE
  5
1A8
330
1F
100
AcDbEntity
  8
0
  6
Continuous
 62
     7
370
    25
100
AcDbLine
 10
29.3447482359
 20
19.0078987676
 30
0.0
 11
29.3468874388
 21
19.0419361777
 31
0.0
  0
LINE
  5
1A9
330
1F
100
AcDbEntity
  8
0
  6
Continuous
 62
     7
370
    25
100
AcDbLine
 10
30.8677838632
 20
19.093686908
 30
0.0
 11
30.8703855939
 21
19.0526662125
 31
0.0
  0
LINE
  5
1AA
330
1F
100
AcDbEntity
  8
0
  6
Continuous
 62
     7
370
    25
100
AcDbLine
 10
28.8536115966
 20
19.3841456194
 30
0.0
 11
28.8591774966
 21
19.4958219407
 31
0.0
  0
SPLINE
  5
1AB
330
1F
100
AcDbEntity
  8
0
  6
Continuous
 62
     7
370
    25
100
AcDbSpline
210
0.0
220
0.0
230
1.0
 70
     8
 71
     3
 72
     9
 73
     5
 74
     0
 42
0.00000001
 43
0.00000001
 40
0.0
 40
0.0
 40
0.0
 40
0.0
 40
0.5884699700930911
 40
1.0
 40
1.0
 40
1.0
 40
1.0
 10
31.25975281074491
 20
19.57750503470357
 30
0.0
 10
31.26117869037631
 20
19.5457532830195
 30
0.0
 10
31.26360171908442
 20
19.49179683103767
 30
0.0
 10
31.26600453650551
 20
19.43783480116548
 30
0.0
 10
31.26699336803067
 20
19.41562780539833
 30
0.0
  0
LINE
  5
1AC
330
1F
100
AcDbEntity
  8
0
  6
Continuous
 62
     7
370
    25
100
AcDbLine
 10
31.291268069
 20
19.7506271866
 30
0.0
 11
31.2906481414
 21
19.7627368476
 31
0.0
  0
ENDSEC
  0
SECTION
  2
OBJECTS
  0
DICTIONARY
  5
C
330
0
100
AcDbDictionary
281
     1
  3
ACAD_GROUP
350
D
  3
ACAD_LAYOUT
350
1A
  3
ACAD_MLINESTYLE
350
17
  3
ACAD_PLOTSETTINGS
350
19
  3
ACAD_PLOTSTYLENAME
350
E
  3
ACAD_SCALELIST
350
47
  3
DWGPROPS
350
1AD
  0
DICTIONARY
  5
D
102
{ACAD_REACTORS
330
C
102
}
330
C
100
AcDbDictionary
281
     1
  0
DICTIONARY
  5
1A
102
{ACAD_REACTORS
330
C
102
}
330
C
100
AcDbDictionary
281
     1
  3
Layout1
350
1E
  3
Layout2
350
26
  3
Model
350
22
  0
DICTIONARY
  5
17
102
{ACAD_REACTORS
330
C
102
}
330
C
100
AcDbDictionary
281
     1
  3
Standard
350
18
  0
DICTIONARY
  5
19
102
{ACAD_REACTORS
330
C
102
}
330
C
100
AcDbDictionary
281
     1
  0
ACDBDICTIONARYWDFLT
  5
E
102
{ACAD_REACTORS
330
C
102
}
330
C
100
AcDbDictionary
281
     1
  3
Normal
350
F
100
AcDbDictionaryWithDefault
340
F
  0
DICTIONARY
  5
47
102
{ACAD_REACTORS
330
C
102
}
330
C
100
AcDbDictionary
281
     1
  3
A0
350
48
  3
A1
350
49
  3
A2
350
4A
  3
A3
350
4B
  3
A4
350
4C
  3
A5
350
4D
  3
A6
350
4E
  3
A7
350
4F
  3
A8
350
50
  3
A9
350
51
  3
B1
350
52
  3
B2
350
53
  3
B3
350
54
  3
B4
350
55
  3
B5
350
56
  3
B6
350
57
  3
B7
350
58
  0
XRECORD
  5
1AD
102
{ACAD_REACTORS
330
C
102
}
330
C
100
AcDbXrecord
280
     1
  1
DWGPROPS COOKIE
  2

  3

  4

  6

  7

  8
shawnd
  9

300
=
301
=
302
=
303
=
304
=
305
=
306
=
307
=
308
=
309
=
 40
0.0
 41
2460887.772373959
 42
2460887.772374445
  1

 90
        0
  0
LAYOUT
  5
1E
102
{ACAD_REACTORS
330
1A
102
}
330
1A
100
AcDbPlotSettings
  1

  2
none_device
  4

  6

 40
0.0
 41
0.0
 42
0.0
 43
0.0
 44
0.0
 45
0.0
 46
0.0
 47
0.0
 48
0.0
 49
0.0
140
0.0
141
0.0
142
1.0
143
1.0
 70
   688
 72
     0
 73
     0
 74
     5
  7

 75
    16
147
1.0
148
0.0
149
0.0
100
AcDbLayout
  1
Layout1
 70
     1
 71
     1
 10
0.0
 20
0.0
 11
12.0
 21
9.0
 12
0.0
 22
0.0
 32
0.0
 14
1.0000000000E+20
 24
1.0000000000E+20
 34
1.0000000000E+20
 15
-1.0000000000E+20
 25
-1.0000000000E+20
 35
-1.0000000000E+20
146
0.0
 13
0.0
 23
0.0
 33
0.0
 16
1.0
 26
0.0
 36
0.0
 17
0.0
 27
1.0
 37
0.0
 76
     0
330
1B
  0
LAYOUT
  5
26
102
{ACAD_REACTORS
330
1A
102
}
330
1A
100
AcDbPlotSettings
  1

  2
none_device
  4

  6

 40
0.0
 41
0.0
 42
0.0
 43
0.0
 44
0.0
 45
0.0
 46
0.0
 47
0.0
 48
0.0
 49
0.0
140
0.0
141
0.0
142
1.0
143
1.0
 70
   688
 72
     0
 73
     0
 74
     5
  7

 75
    16
147
1.0
148
0.0
149
0.0
100
AcDbLayout
  1
Layout2
 70
     1
 71
     2
 10
0.0
 20
0.0
 11
0.0
 21
0.0
 12
0.0
 22
0.0
 32
0.0
 14
0.0
 24
0.0
 34
0.0
 15
0.0
 25
0.0
 35
0.0
146
0.0
 13
0.0
 23
0.0
 33
0.0
 16
1.0
 26
0.0
 36
0.0
 17
0.0
 27
1.0
 37
0.0
 76
     0
330
23
  0
LAYOUT
  5
22
102
{ACAD_REACTORS
330
1A
102
}
330
1A
100
AcDbPlotSettings
  1

  2
none_device
  4
Letter_(8.50_x_11.00_Inches)
  6

 40
6.35
 41
6.35
 42
6.35000508
 43
6.35000508
 44
215.9
 45
279.4
 46
0.0
 47
0.0
 48
0.0
 49
0.0
140
0.0
141
0.0
142
1.0
143
1.0
 70
  1712
 72
     0
 73
     0
 74
     0
  7

 75
     0
147
1.0
148
0.0
149
0.0
100
AcDbLayout
  1
Model
 70
     1
 71
     0
 10
0.0
 20
0.0
 11
44.0
 21
34.0
 12
0.0
 22
0.0
 32
0.0
 14
0.0
 24
0.0
 34
0.0
 15
44.0
 25
34.0
 35
0.0
146
0.0
 13
0.0
 23
0.0
 33
0.0
 16
1.0
 26
0.0
 36
0.0
 17
0.0
 27
1.0
 37
0.0
 76
     0
330
1F
331
29
  0
MLINESTYLE
  5
18
102
{ACAD_REACTORS
330
17
102
}
330
17
100
AcDbMlineStyle
  2
Standard
 70
     0
  3

 62
   256
 51
90.0
 52
90.0
 71
     2
 49
0.5
 62
   256
  6
BYLAYER
 49
-0.5
 62
   256
  6
BYLAYER
  0
ACDBPLACEHOLDER
  5
F
102
{ACAD_REACTORS
330
E
102
}
330
E
  0
SCALE
  5
48
102
{ACAD_REACTORS
330
47
102
}
330
47
100
AcDbScale
 70
     0
300
1:1
140
1.0
141
1.0
290
     1
  0
SCALE
  5
49
102
{ACAD_REACTORS
330
47
102
}
330
47
100
AcDbScale
 70
     0
300
1/128" = 1'-0"
140
0.0078125
141
12.0
290
     0
  0
SCALE
  5
4A
102
{ACAD_REACTORS
330
47
102
}
330
47
100
AcDbScale
 70
     0
300
1/64" = 1'-0"
140
0.015625
141
12.0
290
     0
  0
SCALE
  5
4B
102
{ACAD_REACTORS
330
47
102
}
330
47
100
AcDbScale
 70
     0
300
1/32" = 1'-0"
140
0.03125
141
12.0
290
     0
  0
SCALE
  5
4C
102
{ACAD_REACTORS
330
47
102
}
330
47
100
AcDbScale
 70
     0
300
1/16" = 1'-0"
140
0.0625
141
12.0
290
     0
  0
SCALE
  5
4D
102
{ACAD_REACTORS
330
47
102
}
330
47
100
AcDbScale
 70
     0
300
3/32" = 1'-0"
140
0.09375
141
12.0
290
     0
  0
SCALE
  5
4E
102
{ACAD_REACTORS
330
47
102
}
330
47
100
AcDbScale
 70
     0
300
1/8" = 1'-0"
140
0.125
141
12.0
290
     0
  0
SCALE
  5
4F
102
{ACAD_REACTORS
330
47
102
}
330
47
100
AcDbScale
 70
     0
300
3/16" = 1'-0"
140
0.1875
141
12.0
290
     0
  0
SCALE
  5
50
102
{ACAD_REACTORS
330
47
102
}
330
47
100
AcDbScale
 70
     0
300
1/4" = 1'-0"
140
0.25
141
12.0
290
     0
  0
SCALE
  5
51
102
{ACAD_REACTORS
330
47
102
}
330
47
100
AcDbScale
 70
     0
300
3/8" = 1'-0"
140
0.375
141
12.0
290
     0
  0
SCALE
  5
52
102
{ACAD_REACTORS
330
47
102
}
330
47
100
AcDbScale
 70
     0
300
1/2" = 1'-0"
140
0.5
141
12.0
290
     0
  0
SCALE
  5
53
102
{ACAD_REACTORS
330
47
102
}
330
47
100
AcDbScale
 70
     0
300
3/4" = 1'-0"
140
0.75
141
12.0
290
     0
  0
SCALE
  5
54
102
{ACAD_REACTORS
330
47
102
}
330
47
100
AcDbScale
 70
     0
300
1" = 1'-0"
140
1.0
141
12.0
290
     0
  0
SCALE
  5
55
102
{ACAD_REACTORS
330
47
102
}
330
47
100
AcDbScale
 70
     0
300
1-1/2" = 1'-0"
140
1.5
141
12.0
290
     0
  0
SCALE
  5
56
102
{ACAD_REACTORS
330
47
102
}
330
47
100
AcDbScale
 70
     0
300
3" = 1'-0"
140
3.0
141
12.0
290
     0
  0
SCALE
  5
57
102
{ACAD_REACTORS
330
47
102
}
330
47
100
AcDbScale
 70
     0
300
6" = 1'-0"
140
6.0
141
12.0
290
     0
  0
SCALE
  5
58
102
{ACAD_REACTORS
330
47
102
}
330
47
100
AcDbScale
 70
     0
300
1'-0" = 1'-0"
140
12.0
141
12.0
290
     0
  0
ENDSEC
  0
EOF
