  0
SECTION
  2
HEADER
  9
$ACADVER
  1
AC1015
  9
$ACADMAINTVER
 70
     6
  9
$DWGCODEPAGE
  3
ANSI_1252
  9
$INSBASE
 10
0.0
 20
0.0
 30
0.0
  9
$EXTMIN
 10
0.0
 20
0.0
 30
0.0
  9
$EXTMAX
 10
44.0
 20
34.0
 30
0.0
  9
$LIMMIN
 10
0.0
 20
0.0
  9
$LIMMAX
 10
44.0
 20
34.0
  9
$ORTHOMODE
 70
     0
  9
$REGENMODE
 70
     1
  9
$FILLMODE
 70
     1
  9
$QTEXTMODE
 70
     0
  9
$MIRRTEXT
 70
     1
  9
$LTSCALE
 40
4.0
  9
$ATTMODE
 70
     1
  9
$TEXTSIZE
 40
0.5
  9
$TRACEWID
 40
0.05
  9
$TEXTSTYLE
  7
Standard
  9
$CLAYER
  8
0
  9
$CELTYPE
  6
ByLayer
  9
$CECOLOR
 62
   256
  9
$CELTSCALE
 40
1.0
  9
$DISPSILH
 70
     0
  9
$DIMSCALE
 40
1.0
  9
$DIMASZ
 40
0.52
  9
$DIMEXO
 40
0.2
  9
$DIMDLI
 40
0.38
  9
$DIMRND
 40
0.0
  9
$DIMDLE
 40
0.0
  9
$DIMEXE
 40
0.5
  9
$DIMTP
 40
0.0
  9
$DIMTM
 40
0.0
  9
$DIMTXT
 40
0.5
  9
$DIMCEN
 40
0.09
  9
$DIMTSZ
 40
0.0
  9
$DIMTOL
 70
     0
  9
$DIMLIM
 70
     0
  9
$DIMTIH
 70
     1
  9
$DIMTOH
 70
     1
  9
$DIMSE1
 70
     0
  9
$DIMSE2
 70
     0
  9
$DIMTAD
 70
     0
  9
$DIMZIN
 70
     1
  9
$DIMBLK
  1

  9
$DIMASO
 70
     1
  9
$DIMSHO
 70
     1
  9
$DIMPOST
  1

  9
$DIMAPOST
  1

  9
$DIMALT
 70
     0
  9
$DIMALTD
 70
     2
  9
$DIMALTF
 40
25.4
  9
$DIMLFAC
 40
1.0
  9
$DIMTOFL
 70
     0
  9
$DIMTVP
 40
0.0
  9
$DIMTIX
 70
     0
  9
$DIMSOXD
 70
     0
  9
$DIMSAH
 70
     0
  9
$DIMBLK1
  1

  9
$DIMBLK2
  1

  9
$DIMSTYLE
  2
Standard
  9
$DIMCLRD
 70
     0
  9
$DIMCLRE
 70
     0
  9
$DIMCLRT
 70
     0
  9
$DIMTFAC
 40
1.0
  9
$DIMGAP
 40
0.24
  9
$DIMJUST
 70
     0
  9
$DIMSD1
 70
     0
  9
$DIMSD2
 70
     0
  9
$DIMTOLJ
 70
     1
  9
$DIMTZIN
 70
     1
  9
$DIMALTZ
 70
     0
  9
$DIMALTTZ
 70
     0
  9
$DIMUPT
 70
     0
  9
$DIMDEC
 70
     0
  9
$DIMTDEC
 70
     0
  9
$DIMALTU
 70
     2
  9
$DIMALTTD
 70
     2
  9
$DIMTXSTY
  7
Standard
  9
$DIMAUNIT
 70
     0
  9
$DIMADEC
 70
     0
  9
$DIMALTRND
 40
0.0
  9
$DIMAZIN
 70
     0
  9
$DIMDSEP
 70
    46
  9
$DIMATFIT
 70
     3
  9
$DIMFRAC
 70
     0
  9
$DIMLDRBLK
  1

  9
$DIMLUNIT
 70
     2
  9
$DIMLWD
 70
    -2
  9
$DIMLWE
 70
    -2
  9
$DIMTMOVE
 70
     0
  9
$LUNITS
 70
     2
  9
$LUPREC
 70
     6
  9
$SKETCHINC
 40
0.1
  9
$FILLETRAD
 40
0.0
  9
$AUNITS
 70
     0
  9
$AUPREC
 70
     2
  9
$MENU
  1
.
  9
$ELEVATION
 40
0.0
  9
$PELEVATION
 40
0.0
  9
$THICKNESS
 40
0.0
  9
$LIMCHECK
 70
     0
  9
$CHAMFERA
 40
0.0
  9
$CHAMFERB
 40
0.0
  9
$CHAMFERC
 40
0.0
  9
$CHAMFERD
 40
0.0
  9
$SKPOLY
 70
     0
  9
$TDCREATE
 40
2460887.474573264
  9
$TDUCREATE
 40
2460887.766239931
  9
$TDUPDATE
 40
2460887.474573739
  9
$TDUUPDATE
 40
2460887.766240405
  9
$TDINDWG
 40
0.0000000116
  9
$TDUSRTIMER
 40
0.0000000116
  9
$USRTIMER
 70
     1
  9
$ANGBASE
 50
0.0
  9
$ANGDIR
 70
     0
  9
$PDMODE
 70
     0
  9
$PDSIZE
 40
-1.0
  9
$PLINEWID
 40
0.0
  9
$SPLFRAME
 70
     0
  9
$SPLINETYPE
 70
     6
  9
$SPLINESEGS
 70
     8
  9
$HANDSEED
  5
1E0
  9
$SURFTAB1
 70
     6
  9
$SURFTAB2
 70
     6
  9
$SURFTYPE
 70
     6
  9
$SURFU
 70
     6
  9
$SURFV
 70
     6
  9
$UCSBASE
  2

  9
$UCSNAME
  2

  9
$UCSORG
 10
0.0
 20
0.0
 30
0.0
  9
$UCSXDIR
 10
1.0
 20
0.0
 30
0.0
  9
$UCSYDIR
 10
0.0
 20
1.0
 30
0.0
  9
$UCSORTHOREF
  2

  9
$UCSORTHOVIEW
 70
     0
  9
$UCSORGTOP
 10
0.0
 20
0.0
 30
0.0
  9
$UCSORGBOTTOM
 10
0.0
 20
0.0
 30
0.0
  9
$UCSORGLEFT
 10
0.0
 20
0.0
 30
0.0
  9
$UCSORGRIGHT
 10
0.0
 20
0.0
 30
0.0
  9
$UCSORGFRONT
 10
0.0
 20
0.0
 30
0.0
  9
$UCSORGBACK
 10
0.0
 20
0.0
 30
0.0
  9
$PUCSBASE
  2

  9
$PUCSNAME
  2

  9
$PUCSORG
 10
0.0
 20
0.0
 30
0.0
  9
$PUCSXDIR
 10
1.0
 20
0.0
 30
0.0
  9
$PUCSYDIR
 10
0.0
 20
1.0
 30
0.0
  9
$PUCSORTHOREF
  2

  9
$PUCSORTHOVIEW
 70
     0
  9
$PUCSORGTOP
 10
0.0
 20
0.0
 30
0.0
  9
$PUCSORGBOTTOM
 10
0.0
 20
0.0
 30
0.0
  9
$PUCSORGLEFT
 10
0.0
 20
0.0
 30
0.0
  9
$PUCSORGRIGHT
 10
0.0
 20
0.0
 30
0.0
  9
$PUCSORGFRONT
 10
0.0
 20
0.0
 30
0.0
  9
$PUCSORGBACK
 10
0.0
 20
0.0
 30
0.0
  9
$USERI1
 70
     0
  9
$USERI2
 70
     0
  9
$USERI3
 70
     0
  9
$USERI4
 70
     0
  9
$USERI5
 70
     0
  9
$USERR1
 40
0.0
  9
$USERR2
 40
0.0
  9
$USERR3
 40
0.0
  9
$USERR4
 40
0.0
  9
$USERR5
 40
0.0
  9
$WORLDVIEW
 70
     1
  9
$SHADEDGE
 70
     3
  9
$SHADEDIF
 70
    70
  9
$TILEMODE
 70
     1
  9
$MAXACTVP
 70
    64
  9
$PINSBASE
 10
0.0
 20
0.0
 30
0.0
  9
$PLIMCHECK
 70
     0
  9
$PEXTMIN
 10
1.0000000000E+20
 20
1.0000000000E+20
 30
1.0000000000E+20
  9
$PEXTMAX
 10
-1.0000000000E+20
 20
-1.0000000000E+20
 30
-1.0000000000E+20
  9
$PLIMMIN
 10
0.0
 20
0.0
  9
$PLIMMAX
 10
12.0
 20
9.0
  9
$UNITMODE
 70
     0
  9
$VISRETAIN
 70
     1
  9
$PLINEGEN
 70
     0
  9
$PSLTSCALE
 70
     1
  9
$TREEDEPTH
 70
  3020
  9
$CMLSTYLE
  2
Standard
  9
$CMLJUST
 70
     0
  9
$CMLSCALE
 40
1.0
  9
$PROXYGRAPHICS
 70
     1
  9
$MEASUREMENT
 70
     0
  9
$CELWEIGHT
370
    -1
  9
$ENDCAPS
280
     0
  9
$JOINSTYLE
280
     0
  9
$LWDISPLAY
290
     1
  9
$INSUNITS
 70
     1
  9
$HYPERLINKBASE
  1

  9
$STYLESHEET
  1

  9
$XEDIT
290
     1
  9
$CEPSNTYPE
380
     0
  9
$PSTYLEMODE
290
     1
  9
$FINGERPRINTGUID
  2
{649362cb-c659-4f6d-8aba-e33d0b58724a}
  9
$VERSIONGUID
  2
{FAEB1C32-E019-11D5-929B-00C0DF256EC4}
  9
$EXTNAMES
290
     1
  9
$PSVPSCALE
 40
0.0
  9
$OLESTARTUP
290
     0
  0
ENDSEC
  0
SECTION
  2
CLASSES
  0
CLASS
  1
ACDBDICTIONARYWDFLT
  2
AcDbDictionaryWithDefault
  3
ObjectDBX Classes
 90
        0
280
     0
281
     0
  0
CLASS
  1
VISUALSTYLE
  2
AcDbVisualStyle
  3
ObjectDBX Classes
 90
     4095
280
     0
281
     0
  0
CLASS
  1
MATERIAL
  2
AcDbMaterial
  3
ObjectDBX Classes
 90
     1153
280
     0
281
     0
  0
CLASS
  1
SCALE
  2
AcDbScale
  3
ObjectDBX Classes
 90
     1153
280
     0
281
     0
  0
CLASS
  1
TABLESTYLE
  2
AcDbTableStyle
  3
ObjectDBX Classes
 90
     4095
280
     0
281
     0
  0
CLASS
  1
MLEADERSTYLE
  2
AcDbMLeaderStyle
  3
ACDB_MLEADERSTYLE_CLASS
 90
     4095
280
     0
281
     0
  0
CLASS
  1
SUN
  2
AcDbSun
  3
SCENEOE
 90
     1153
280
     0
281
     0
  0
CLASS
  1
ACDBPLACEHOLDER
  2
AcDbPlaceHolder
  3
ObjectDBX Classes
 90
        0
280
     0
281
     0
  0
CLASS
  1
LAYOUT
  2
AcDbLayout
  3
ObjectDBX Classes
 90
        0
280
     0
281
     0
  0
ENDSEC
  0
SECTION
  2
TABLES
  0
TABLE
  2
VPORT
  5
8
330
0
100
AcDbSymbolTable
 70
     1
  0
VPORT
  5
29
330
8
100
AcDbSymbolTableRecord
100
AcDbViewportTableRecord
  2
*Active
 70
     0
 10
0.0
 20
0.0
 11
1.0
 21
1.0
 12
22.0
 22
17.0
 13
0.0
 23
0.0
 14
0.5
 24
0.5
 15
0.5
 25
0.5
 16
0.0
 26
0.0
 36
1.0
 17
0.0
 27
0.0
 37
0.0
 40
34.0
 41
1.2941176471
 42
50.0
 43
0.0
 44
0.0
 50
0.0
 51
0.0
 71
     0
 72
  2000
 73
     1
 74
     3
 75
     0
 76
     0
 77
     0
 78
     0
281
     0
 65
     1
110
0.0
120
0.0
130
0.0
111
1.0
121
0.0
131
0.0
112
0.0
122
1.0
132
0.0
 79
     0
146
0.0
  0
ENDTAB
  0
TABLE
  2
LTYPE
  5
5
330
0
100
AcDbSymbolTable
 70
     6
  0
LTYPE
  5
14
330
5
100
AcDbSymbolTableRecord
100
AcDbLinetypeTableRecord
  2
ByBlock
 70
     0
  3

 72
    65
 73
     0
 40
0.0
  0
LTYPE
  5
15
330
5
100
AcDbSymbolTableRecord
100
AcDbLinetypeTableRecord
  2
ByLayer
 70
     0
  3

 72
    65
 73
     0
 40
0.0
  0
LTYPE
  5
16
330
5
100
AcDbSymbolTableRecord
100
AcDbLinetypeTableRecord
  2
Continuous
 70
     0
  3
Solid line
 72
    65
 73
     0
 40
0.0
  0
LTYPE
  5
5E
330
5
100
AcDbSymbolTableRecord
100
AcDbLinetypeTableRecord
  2
HIDDEN
 70
     0
  3
Hidden __ __ __ __ __ __ __ __ __ __ __ __ __ __
 72
    65
 73
     2
 40
0.075
 49
0.05
 74
     0
 49
-0.025
 74
     0
  0
LTYPE
  5
5F
330
5
100
AcDbSymbolTableRecord
100
AcDbLinetypeTableRecord
  2
PHANTOM
 70
     0
  3
Phantom ______  __  __  ______  __  __  ______
 72
    65
 73
     6
 40
0.5
 49
0.25
 74
     0
 49
-0.05
 74
     0
 49
0.05
 74
     0
 49
-0.05
 74
     0
 49
0.05
 74
     0
 49
-0.05
 74
     0
  0
LTYPE
  5
60
330
5
100
AcDbSymbolTableRecord
100
AcDbLinetypeTableRecord
  2
CENTER
 70
     0
  3
Center ____ _ ____ _ ____ _ ____ _ ____ _ ____
 72
    65
 73
     4
 40
0.4
 49
0.25
 74
     0
 49
-0.05
 74
     0
 49
0.05
 74
     0
 49
-0.05
 74
     0
  0
LTYPE
  5
61
330
5
100
AcDbSymbolTableRecord
100
AcDbLinetypeTableRecord
  2
CENTERX2
 70
     0
  3
Center (2x) ________  __  ________  __  _____
 72
    65
 73
     4
 40
0.8
 49
0.5
 74
     0
 49
-0.1
 74
     0
 49
0.1
 74
     0
 49
-0.1
 74
     0
  0
LTYPE
  5
62
330
5
100
AcDbSymbolTableRecord
100
AcDbLinetypeTableRecord
  2
DOT2
 70
     0
  3
Dot (.5x) ........................................
 72
    65
 73
     2
 40
0.025
 49
0.0
 74
     0
 49
-0.025
 74
     0
  0
ENDTAB
  0
TABLE
  2
LAYER
  5
2
330
0
100
AcDbSymbolTable
 70
    11
  0
LAYER
  5
10
330
2
100
AcDbSymbolTableRecord
100
AcDbLayerTableRecord
  2
0
 70
     0
 62
     7
  6
Continuous
370
    -3
390
F
  0
LAYER
  5
63
330
2
100
AcDbSymbolTableRecord
100
AcDbLayerTableRecord
  2
SLD-0
 70
     0
 62
     7
  6
Continuous
370
    -3
390
F
  0
LAYER
  5
64
330
2
100
AcDbSymbolTableRecord
100
AcDbLayerTableRecord
  2
DIM
 70
     0
 62
     7
  6
Continuous
370
    -3
390
F
  0
LAYER
  5
65
330
2
100
AcDbSymbolTableRecord
100
AcDbLayerTableRecord
  2
CEN
 70
     0
 62
     1
  6
CENTER
370
    -3
390
F
  0
LAYER
  5
66
330
2
100
AcDbSymbolTableRecord
100
AcDbLayerTableRecord
  2
HAT
 70
     0
 62
     4
  6
Continuous
370
    -3
390
F
  0
LAYER
  5
67
330
2
100
AcDbSymbolTableRecord
100
AcDbLayerTableRecord
  2
OBJ
 70
     0
 62
     5
  6
Continuous
370
    -3
390
F
  0
LAYER
  5
68
330
2
100
AcDbSymbolTableRecord
100
AcDbLayerTableRecord
  2
SLD-DEFPOINTS
 70
     0
 62
     7
  6
Continuous
370
    -3
390
F
  0
LAYER
  5
69
330
2
100
AcDbSymbolTableRecord
100
AcDbLayerTableRecord
  2
HID
 70
     0
 62
     4
  6
HIDDEN
370
    -3
390
F
  0
LAYER
  5
6A
330
2
100
AcDbSymbolTableRecord
100
AcDbLayerTableRecord
  2
NOTE
 70
     0
 62
     7
  6
Continuous
370
    -3
390
F
  0
LAYER
  5
6B
330
2
100
AcDbSymbolTableRecord
100
AcDbLayerTableRecord
  2
TITLE
 70
     0
 62
     7
  6
Continuous
370
    -3
390
F
  0
LAYER
  5
6C
330
2
100
AcDbSymbolTableRecord
100
AcDbLayerTableRecord
  2
THICK_TITLE
 70
     0
 62
     7
  6
Continuous
370
   100
390
F
  0
ENDTAB
  0
TABLE
  2
STYLE
  5
3
330
0
100
AcDbSymbolTable
 70
     3
  0
STYLE
  5
11
330
3
100
AcDbSymbolTableRecord
100
AcDbTextStyleTableRecord
  2
Standard
 70
     0
 40
0.0
 41
1.0
 50
0.0
 71
     0
 42
0.5
  3
txt
  4

  0
STYLE
  5
6D
330
3
100
AcDbSymbolTableRecord
100
AcDbTextStyleTableRecord
  2
SLDTEXTSTYLE0
 70
     0
 40
0.0
 41
0.75
 50
0.0
 71
     0
 42
0.5
  3
TXT
  4

  0
STYLE
  5
AF
330
3
100
AcDbSymbolTableRecord
100
AcDbTextStyleTableRecord
  2
SLDTEXTSTYLE1
 70
     0
 40
0.0
 41
0.7
 50
0.0
 71
     0
 42
0.5
  3
TXT
  4

  0
ENDTAB
  0
TABLE
  2
VIEW
  5
6
330
0
100
AcDbSymbolTable
 70
     0
  0
ENDTAB
  0
TABLE
  2
UCS
  5
7
330
0
100
AcDbSymbolTable
 70
     0
  0
ENDTAB
  0
TABLE
  2
APPID
  5
9
330
0
100
AcDbSymbolTable
 70
     1
  0
APPID
  5
12
330
9
100
AcDbSymbolTableRecord
100
AcDbRegAppTableRecord
  2
ACAD
 70
     0
  0
ENDTAB
  0
TABLE
  2
DIMSTYLE
  5
A
330
0
100
AcDbSymbolTable
 70
     6
100
AcDbDimStyleTable
  0
DIMSTYLE
105
27
330
A
100
AcDbSymbolTableRecord
100
AcDbDimStyleTableRecord
  2
Standard
 70
     0
178
     0
340
11
  0
DIMSTYLE
105
A4
102
{ACAD_REACTORS
330
A3
102
}
330
A
100
AcDbSymbolTableRecord
100
AcDbDimStyleTableRecord
  2
SLDDIMSTYLE0
 70
     0
 41
0.52
 44
0.0
 45
0.000000001
 78
    12
 79
     3
140
0.5
147
0.125
148
0.000000001
170
     1
173
     1
178
     0
271
     0
272
     0
276
     2
277
     5
284
    12
340
6D
  0
DIMSTYLE
105
B3
102
{ACAD_REACTORS
330
B2
330
C8
102
}
330
A
100
AcDbSymbolTableRecord
100
AcDbDimStyleTableRecord
  2
SLDDIMSTYLE1
 70
     0
 41
0.52
 44
0.0
 45
0.000000001
 78
    12
 79
     3
140
0.5
147
0.125
148
0.000000001
170
     1
172
     1
173
     1
178
     0
271
     6
272
     0
276
     2
277
     5
284
    12
289
     0
340
6D
  0
DIMSTYLE
105
DC
102
{ACAD_REACTORS
330
DB
330
EF
330
104
102
}
330
A
100
AcDbSymbolTableRecord
100
AcDbDimStyleTableRecord
  2
SLDDIMSTYLE2
 70
     0
 41
0.52
 44
0.0
 45
0.000000001
 78
    12
 79
     3
140
0.5
147
0.125
148
0.000000001
170
     1
173
     1
178
     0
271
     6
272
     0
276
     2
277
     5
284
    12
340
6D
  0
DIMSTYLE
105
119
330
A
100
AcDbSymbolTableRecord
100
AcDbDimStyleTableRecord
  2
SLDDIMSTYLE3
 70
     0
 41
0.52
 44
0.0
 45
0.000000001
146
0.52
147
0.0
173
     1
178
     0
271
     0
272
     0
276
     2
277
     5
340
11
  0
DIMSTYLE
105
1CD
102
{ACAD_REACTORS
330
1CC
102
}
330
A
100
AcDbSymbolTableRecord
100
AcDbDimStyleTableRecord
  2
SLDDIMSTYLE4
 70
     0
 41
0.52
 44
0.0
 45
0.000000001
 78
    12
 79
     3
140
0.5
141
0.0
147
0.125
148
0.000000001
170
     1
173
     1
178
     0
271
     0
272
     0
276
     2
277
     5
284
    12
340
6D
  0
ENDTAB
  0
TABLE
  2
BLOCK_RECORD
  5
1
330
0
100
AcDbSymbolTable
 70
     8
  0
BLOCK_RECORD
  5
1F
330
1
100
AcDbSymbolTableRecord
100
AcDbBlockTableRecord
  2
*Model_Space
340
22
  0
BLOCK_RECORD
  5
1B
330
1
100
AcDbSymbolTableRecord
100
AcDbBlockTableRecord
  2
*Paper_Space
340
1E
  0
BLOCK_RECORD
  5
23
330
1
100
AcDbSymbolTableRecord
100
AcDbBlockTableRecord
  2
*Paper_Space0
340
26
  0
BLOCK_RECORD
  5
A5
330
1
100
AcDbSymbolTableRecord
100
AcDbBlockTableRecord
  2
_D
340
0
  0
BLOCK_RECORD
  5
B4
330
1
100
AcDbSymbolTableRecord
100
AcDbBlockTableRecord
  2
_D_1
340
0
  0
BLOCK_RECORD
  5
C9
330
1
100
AcDbSymbolTableRecord
100
AcDbBlockTableRecord
  2
_D_2
340
0
  0
BLOCK_RECORD
  5
DD
330
1
100
AcDbSymbolTableRecord
100
AcDbBlockTableRecord
  2
_D_3
340
0
  0
BLOCK_RECORD
  5
F0
330
1
100
AcDbSymbolTableRecord
100
AcDbBlockTableRecord
  2
_D_4
340
0
  0
BLOCK_RECORD
  5
105
330
1
100
AcDbSymbolTableRecord
100
AcDbBlockTableRecord
  2
_D_5
340
0
  0
BLOCK_RECORD
  5
1CE
330
1
100
AcDbSymbolTableRecord
100
AcDbBlockTableRecord
  2
_D_6
340
0
  0
ENDTAB
  0
ENDSEC
  0
SECTION
  2
BLOCKS
  0
BLOCK
  5
20
330
1F
100
AcDbEntity
  8
0
100
AcDbBlockBegin
  2
*Model_Space
 70
     0
 10
0.0
 20
0.0
 30
0.0
  3
*Model_Space
  1

  0
ENDBLK
  5
21
330
1F
100
AcDbEntity
  8
0
100
AcDbBlockEnd
  0
BLOCK
  5
1C
330
1B
100
AcDbEntity
 67
     1
  8
0
100
AcDbBlockBegin
  2
*Paper_Space
 70
     0
 10
0.0
 20
0.0
 30
0.0
  3
*Paper_Space
  1

  0
ENDBLK
  5
1D
330
1B
100
AcDbEntity
 67
     1
  8
0
100
AcDbBlockEnd
  0
BLOCK
  5
24
330
23
100
AcDbEntity
  8
0
100
AcDbBlockBegin
  2
*Paper_Space0
 70
     0
 10
0.0
 20
0.0
 30
0.0
  3
*Paper_Space0
  1

  0
ENDBLK
  5
25
330
23
100
AcDbEntity
  8
0
100
AcDbBlockEnd
  0
BLOCK
  5
A6
330
A5
100
AcDbEntity
  8
0
100
AcDbBlockBegin
  2
_D
 70
     0
 10
0.0
 20
0.0
 30
0.0
  3
_D
  1

  0
SOLID
  5
A8
330
A5
100
AcDbEntity
  8
SLD-0
100
AcDbTrace
 10
6.519001685
 20
19.5535795864
 30
0.0
 11
6.439001685
 21
19.0335795864
 31
0.0
 12
6.599001685
 22
19.0335795864
 32
0.0
 13
6.599001685
 23
19.0335795864
 33
0.0
  0
SOLID
  5
A9
330
A5
100
AcDbEntity
  8
SLD-0
100
AcDbTrace
 10
6.519001685
 20
7.5535795864
 30
0.0
 11
6.599001685
 21
8.0735795864
 31
0.0
 12
6.439001685
 22
8.0735795864
 32
0.0
 13
6.439001685
 23
8.0735795864
 33
0.0
  0
LINE
  5
AA
330
A5
100
AcDbEntity
  8
SLD-0
100
AcDbLine
 10
12.6726307902
 20
19.5535795864
 30
0.0
 11
6.019001685
 21
19.5535795864
 31
0.0
  0
LINE
  5
AB
330
A5
100
AcDbEntity
  8
SLD-0
100
AcDbLine
 10
12.6726307902
 20
7.5535795864
 30
0.0
 11
6.019001685
 21
7.5535795864
 31
0.0
  0
LINE
  5
AC
330
A5
100
AcDbEntity
  8
SLD-0
100
AcDbLine
 10
6.519001685
 20
19.5535795864
 30
0.0
 11
6.519001685
 21
14.7442046589
 31
0.0
  0
LINE
  5
AD
330
A5
100
AcDbEntity
  8
SLD-0
100
AcDbLine
 10
6.519001685
 20
7.5535795864
 30
0.0
 11
6.519001685
 21
12.362954514
 31
0.0
  0
MTEXT
  5
AE
330
A5
100
AcDbEntity
  8
SLD-0
100
AcDbMText
 10
3.9401820891
 20
14.5949885599
 30
0.0
 40
0.5
 41
0.0
 71
     1
 72
     1
  1
SPECIFY LENGTH
  7
SLDTEXTSTYLE0
 73
     1
 44
1.0
  0
MTEXT
  5
B0
330
A5
100
AcDbEntity
  8
SLD-0
100
AcDbMText
 10
4.8971268877
 20
13.801238536
 30
0.0
 40
0.5
 41
0.0
 71
     1
 72
     1
  1
12" OR 18"
  7
SLDTEXTSTYLE1
 73
     1
 44
1.0
  0
MTEXT
  5
B1
330
A5
100
AcDbEntity
  8
SLD-0
100
AcDbMText
 10
3.2499045699
 20
13.0074885122
 30
0.0
 40
0.5
 41
0.0
 71
     1
 72
     1
  1
[305mm OR 457mm]
  7
SLDTEXTSTYLE0
 73
     1
 44
1.0
  0
ENDBLK
  5
A7
330
A5
100
AcDbEntity
  8
0
100
AcDbBlockEnd
  0
BLOCK
  5
B5
330
B4
100
AcDbEntity
  8
0
100
AcDbBlockBegin
  2
_D_1
 70
     0
 10
0.0
 20
0.0
 30
0.0
  3
_D_1
  1

  0
SOLID
  5
B7
330
B4
100
AcDbEntity
  8
SLD-0
100
AcDbTrace
 10
18.766614226
 20
14.4910795864
 30
0.0
 11
18.846614226
 21
15.0110795864
 31
0.0
 12
18.686614226
 22
15.0110795864
 32
0.0
 13
18.686614226
 23
15.0110795864
 33
0.0
  0
SOLID
  5
B8
330
B4
100
AcDbEntity
  8
SLD-0
100
AcDbTrace
 10
18.766614226
 20
13.6160795864
 30
0.0
 11
18.686614226
 21
13.0960795864
 31
0.0
 12
18.846614226
 22
13.0960795864
 32
0.0
 13
18.846614226
 23
13.0960795864
 33
0.0
  0
LINE
  5
B9
330
B4
100
AcDbEntity
  8
SLD-0
100
AcDbLine
 10
20.5601904746
 20
11.7131281774
 30
0.0
 11
20.4078467261
 21
11.7131281774
 31
0.0
  0
LINE
  5
BA
330
B4
100
AcDbEntity
  8
SLD-0
100
AcDbLine
 10
20.4078467261
 20
11.7131281774
 30
0.0
 11
20.4078467261
 21
10.9193781535
 31
0.0
  0
LINE
  5
BB
330
B4
100
AcDbEntity
  8
SLD-0
100
AcDbLine
 10
20.4078467261
 20
10.9193781535
 30
0.0
 11
20.5601904746
 21
10.9193781535
 31
0.0
  0
LINE
  5
BC
330
B4
100
AcDbEntity
  8
SLD-0
100
AcDbLine
 10
22.5490794054
 20
11.7131281774
 30
0.0
 11
22.7014231539
 21
11.7131281774
 31
0.0
  0
LINE
  5
BD
330
B4
100
AcDbEntity
  8
SLD-0
100
AcDbLine
 10
22.7014231539
 20
11.7131281774
 30
0.0
 11
22.7014231539
 21
10.9193781535
 31
0.0
  0
LINE
  5
BE
330
B4
100
AcDbEntity
  8
SLD-0
100
AcDbLine
 10
22.7014231539
 20
10.9193781535
 30
0.0
 11
22.5490794054
 21
10.9193781535
 31
0.0
  0
LINE
  5
BF
330
B4
100
AcDbEntity
  8
SLD-0
100
AcDbLine
 10
17.2226307902
 20
14.4910795864
 30
0.0
 11
19.266614226
 21
14.4910795864
 31
0.0
  0
LINE
  5
C0
330
B4
100
AcDbEntity
  8
SLD-0
100
AcDbLine
 10
17.1920751169
 20
13.6160795864
 30
0.0
 11
19.266614226
 21
13.6160795864
 31
0.0
  0
LINE
  5
C1
330
B4
100
AcDbEntity
  8
SLD-0
100
AcDbLine
 10
19.766614226
 20
11.7169476999
 30
0.0
 11
18.766614226
 21
11.7169476999
 31
0.0
  0
LINE
  5
C2
330
B4
100
AcDbEntity
  8
SLD-0
100
AcDbLine
 10
18.766614226
 20
11.7169476999
 30
0.0
 11
18.766614226
 21
13.6160795864
 31
0.0
  0
LINE
  5
C3
330
B4
100
AcDbEntity
  8
SLD-0
100
AcDbLine
 10
18.766614226
 20
14.4910795864
 30
0.0
 11
18.766614226
 21
15.4910795864
 31
0.0
  0
MTEXT
  5
C4
330
B4
100
AcDbEntity
  8
SLD-0
100
AcDbMText
 10
20.2582807549
 20
12.4668634874
 30
0.0
 40
0.5
 41
0.0
 71
     1
 72
     1
  1

  7
SLDTEXTSTYLE0
 73
     1
 44
1.0
  0
MTEXT
  5
C5
330
B4
100
AcDbEntity
  8
SLD-0
100
AcDbMText
 10
20.9362320938
 20
12.4592245615
 30
0.0
 40
0.5
 41
0.0
 71
     1
 72
     1
  1
7/8"
  7
SLDTEXTSTYLE0
 73
     1
 44
1.0
  0
MTEXT
  5
C6
330
B4
100
AcDbEntity
  8
SLD-0
100
AcDbMText
 10
20.5601904746
 20
11.5639120784
 30
0.0
 40
0.5
 41
0.0
 71
     1
 72
     1
  1
22mm
  7
SLDTEXTSTYLE0
 73
     1
 44
1.0
  0
MTEXT
  5
C7
330
B4
100
AcDbEntity
  8
SLD-0
100
AcDbMText
 10
23.0412667923
 20
12.4668634874
 30
0.0
 40
0.5
 41
0.0
 71
     1
 72
     1
  1

  7
SLDTEXTSTYLE0
 73
     1
 44
1.0
  0
ENDBLK
  5
B6
330
B4
100
AcDbEntity
  8
0
100
AcDbBlockEnd
  0
BLOCK
  5
CA
330
C9
100
AcDbEntity
  8
0
100
AcDbBlockBegin
  2
_D_2
 70
     0
 10
0.0
 20
0.0
 30
0.0
  3
_D_2
  1

  0
SOLID
  5
CC
330
C9
100
AcDbEntity
  8
SLD-0
100
AcDbTrace
 10
17.0226307902
 20
16.506020451
 30
0.0
 11
17.5426307902
 21
16.426020451
 31
0.0
 12
17.5426307902
 22
16.586020451
 32
0.0
 13
17.5426307902
 23
16.586020451
 33
0.0
  0
SOLID
  5
CD
330
C9
100
AcDbEntity
  8
SLD-0
100
AcDbTrace
 10
11.0976307902
 20
16.506020451
 30
0.0
 11
10.5776307902
 21
16.586020451
 31
0.0
 12
10.5776307902
 22
16.426020451
 32
0.0
 13
10.5776307902
 23
16.426020451
 33
0.0
  0
LINE
  5
CE
330
C9
100
AcDbEntity
  8
SLD-0
100
AcDbLine
 10
18.5323295009
 20
16.5060203777
 30
0.0
 11
18.3799857525
 21
16.5060203777
 31
0.0
  0
LINE
  5
CF
330
C9
100
AcDbEntity
  8
SLD-0
100
AcDbLine
 10
18.3799857525
 20
16.5060203777
 30
0.0
 11
18.3799857525
 21
15.7122703538
 31
0.0
  0
LINE
  5
D0
330
C9
100
AcDbEntity
  8
SLD-0
100
AcDbLine
 10
18.3799857525
 20
15.7122703538
 30
0.0
 11
18.5323295009
 21
15.7122703538
 31
0.0
  0
LINE
  5
D1
330
C9
100
AcDbEntity
  8
SLD-0
100
AcDbLine
 10
20.8906628039
 20
16.5060203777
 30
0.0
 11
21.0430065524
 21
16.5060203777
 31
0.0
  0
LINE
  5
D2
330
C9
100
AcDbEntity
  8
SLD-0
100
AcDbLine
 10
21.0430065524
 20
16.5060203777
 30
0.0
 11
21.0430065524
 21
15.7122703538
 31
0.0
  0
LINE
  5
D3
330
C9
100
AcDbEntity
  8
SLD-0
100
AcDbLine
 10
21.0430065524
 20
15.7122703538
 30
0.0
 11
20.8906628039
 21
15.7122703538
 31
0.0
  0
LINE
  5
D4
330
C9
100
AcDbEntity
  8
SLD-0
100
AcDbLine
 10
17.0226307902
 20
14.6910795864
 30
0.0
 11
17.0226307902
 21
17.006020451
 31
0.0
  0
LINE
  5
D5
330
C9
100
AcDbEntity
  8
SLD-0
100
AcDbLine
 10
11.0976307902
 20
14.6910795864
 30
0.0
 11
11.0976307902
 21
17.006020451
 31
0.0
  0
LINE
  5
D6
330
C9
100
AcDbEntity
  8
SLD-0
100
AcDbLine
 10
17.0226307902
 20
16.506020451
 30
0.0
 11
17.9681455342
 21
16.506020451
 31
0.0
  0
LINE
  5
D7
330
C9
100
AcDbEntity
  8
SLD-0
100
AcDbLine
 10
11.0976307902
 20
16.506020451
 30
0.0
 11
10.0976307902
 21
16.506020451
 31
0.0
  0
MTEXT
  5
D8
330
C9
100
AcDbEntity
  8
SLD-0
100
AcDbMText
 10
18.0695343772
 20
17.2521167985
 30
0.0
 40
0.5
 41
0.0
 71
     1
 72
     1
  1
%%c
  7
SLDTEXTSTYLE0
 73
     1
 44
1.0
  0
MTEXT
  5
D9
330
C9
100
AcDbEntity
  8
SLD-0
100
AcDbMText
 10
18.8235968595
 20
17.2521167985
 30
0.0
 40
0.5
 41
0.0
 71
     1
 72
     1
  1
5 15/16"
  7
SLDTEXTSTYLE0
 73
     1
 44
1.0
  0
MTEXT
  5
DA
330
C9
100
AcDbEntity
  8
SLD-0
100
AcDbMText
 10
18.5323295009
 20
16.3568042787
 30
0.0
 40
0.5
 41
0.0
 71
     1
 72
     1
  1
150mm
  7
SLDTEXTSTYLE0
 73
     1
 44
1.0
  0
ENDBLK
  5
CB
330
C9
100
AcDbEntity
  8
0
100
AcDbBlockEnd
  0
BLOCK
  5
DE
330
DD
100
AcDbEntity
  8
0
100
AcDbBlockBegin
  2
_D_3
 70
     0
 10
0.0
 20
0.0
 30
0.0
  3
_D_3
  1

  0
SOLID
  5
E0
330
DD
100
AcDbEntity
  8
SLD-0
100
AcDbTrace
 10
12.8726307902
 20
5.9787764368
 30
0.0
 11
13.3926307902
 21
5.8987764368
 31
0.0
 12
13.3926307902
 22
6.0587764368
 32
0.0
 13
13.3926307902
 23
6.0587764368
 33
0.0
  0
SOLID
  5
E1
330
DD
100
AcDbEntity
  8
SLD-0
100
AcDbTrace
 10
15.2476307902
 20
5.9787764368
 30
0.0
 11
14.7276307902
 21
6.0587764368
 31
0.0
 12
14.7276307902
 22
5.8987764368
 32
0.0
 13
14.7276307902
 23
5.8987764368
 33
0.0
  0
LINE
  5
E2
330
DD
100
AcDbEntity
  8
SLD-0
100
AcDbLine
 10
9.5790544357
 20
5.9787763635
 30
0.0
 11
9.4267106873
 21
5.9787763635
 31
0.0
  0
LINE
  5
E3
330
DD
100
AcDbEntity
  8
SLD-0
100
AcDbLine
 10
9.4267106873
 20
5.9787763635
 30
0.0
 11
9.4267106873
 21
5.1850263396
 31
0.0
  0
LINE
  5
E4
330
DD
100
AcDbEntity
  8
SLD-0
100
AcDbLine
 10
9.4267106873
 20
5.1850263396
 30
0.0
 11
9.5790544357
 21
5.1850263396
 31
0.0
  0
LINE
  5
E5
330
DD
100
AcDbEntity
  8
SLD-0
100
AcDbLine
 10
11.5679433666
 20
5.9787763635
 30
0.0
 11
11.720287115
 21
5.9787763635
 31
0.0
  0
LINE
  5
E6
330
DD
100
AcDbEntity
  8
SLD-0
100
AcDbLine
 10
11.720287115
 20
5.9787763635
 30
0.0
 11
11.720287115
 21
5.1850263396
 31
0.0
  0
LINE
  5
E7
330
DD
100
AcDbEntity
  8
SLD-0
100
AcDbLine
 10
11.720287115
 20
5.1850263396
 30
0.0
 11
11.5679433666
 21
5.1850263396
 31
0.0
  0
LINE
  5
E8
330
DD
100
AcDbEntity
  8
SLD-0
100
AcDbLine
 10
12.8726307902
 20
7.3535795864
 30
0.0
 11
12.8726307902
 21
5.4787764368
 31
0.0
  0
LINE
  5
E9
330
DD
100
AcDbEntity
  8
SLD-0
100
AcDbLine
 10
15.2476307902
 20
11.4672002544
 30
0.0
 11
15.2476307902
 21
5.4787764368
 31
0.0
  0
LINE
  5
EA
330
DD
100
AcDbEntity
  8
SLD-0
100
AcDbLine
 10
12.8726307902
 20
5.9787764368
 30
0.0
 11
11.9740196331
 21
5.9787764368
 31
0.0
  0
LINE
  5
EB
330
DD
100
AcDbEntity
  8
SLD-0
100
AcDbLine
 10
15.2476307902
 20
5.9787764368
 30
0.0
 11
12.8726307902
 21
5.9787764368
 31
0.0
  0
MTEXT
  5
EC
330
DD
100
AcDbEntity
  8
SLD-0
100
AcDbMText
 10
9.3009814981
 20
6.7248727843
 30
0.0
 40
0.5
 41
0.0
 71
     1
 72
     1
  1
%%c
  7
SLDTEXTSTYLE0
 73
     1
 44
1.0
  0
MTEXT
  5
ED
330
DD
100
AcDbEntity
  8
SLD-0
100
AcDbMText
 10
10.0550439804
 20
6.7248727843
 30
0.0
 40
0.5
 41
0.0
 71
     1
 72
     1
  1
2 3/8"
  7
SLDTEXTSTYLE0
 73
     1
 44
1.0
  0
MTEXT
  5
EE
330
DD
100
AcDbEntity
  8
SLD-0
100
AcDbMText
 10
9.5790544357
 20
5.8295602645
 30
0.0
 40
0.5
 41
0.0
 71
     1
 72
     1
  1
60mm
  7
SLDTEXTSTYLE0
 73
     1
 44
1.0
  0
ENDBLK
  5
DF
330
DD
100
AcDbEntity
  8
0
100
AcDbBlockEnd
  0
BLOCK
  5
F1
330
F0
100
AcDbEntity
  8
0
100
AcDbBlockBegin
  2
_D_4
 70
     0
 10
0.0
 20
0.0
 30
0.0
  3
_D_4
  1

  0
SOLID
  5
F3
330
F0
100
AcDbEntity
  8
SLD-0
100
AcDbTrace
 10
17.0527456834
 20
19.5535795864
 30
0.0
 11
17.1327456834
 21
20.0735795864
 31
0.0
 12
16.9727456834
 22
20.0735795864
 32
0.0
 13
16.9727456834
 23
20.0735795864
 33
0.0
  0
SOLID
  5
F4
330
F0
100
AcDbEntity
  8
SLD-0
100
AcDbTrace
 10
17.0527456834
 20
20.9185795864
 30
0.0
 11
16.9727456834
 21
20.3985795864
 31
0.0
 12
17.1327456834
 22
20.3985795864
 32
0.0
 13
17.1327456834
 23
20.3985795864
 33
0.0
  0
LINE
  5
F5
330
F0
100
AcDbEntity
  8
SLD-0
100
AcDbLine
 10
18.8463219319
 20
21.8345384974
 30
0.0
 11
18.6939781835
 21
21.8345384974
 31
0.0
  0
LINE
  5
F6
330
F0
100
AcDbEntity
  8
SLD-0
100
AcDbLine
 10
18.6939781835
 20
21.8345384974
 30
0.0
 11
18.6939781835
 21
21.0407884736
 31
0.0
  0
LINE
  5
F7
330
F0
100
AcDbEntity
  8
SLD-0
100
AcDbLine
 10
18.6939781835
 20
21.0407884736
 30
0.0
 11
18.8463219319
 21
21.0407884736
 31
0.0
  0
LINE
  5
F8
330
F0
100
AcDbEntity
  8
SLD-0
100
AcDbLine
 10
20.8352108628
 20
21.8345384974
 30
0.0
 11
20.9875546112
 21
21.8345384974
 31
0.0
  0
LINE
  5
F9
330
F0
100
AcDbEntity
  8
SLD-0
100
AcDbLine
 10
20.9875546112
 20
21.8345384974
 30
0.0
 11
20.9875546112
 21
21.0407884736
 31
0.0
  0
LINE
  5
FA
330
F0
100
AcDbEntity
  8
SLD-0
100
AcDbLine
 10
20.9875546112
 20
21.0407884736
 30
0.0
 11
20.8352108628
 21
21.0407884736
 31
0.0
  0
LINE
  5
FB
330
F0
100
AcDbEntity
  8
SLD-0
100
AcDbLine
 10
15.4476307902
 20
19.5535795864
 30
0.0
 11
17.5527456834
 21
19.5535795864
 31
0.0
  0
LINE
  5
FC
330
F0
100
AcDbEntity
  8
SLD-0
100
AcDbLine
 10
15.3401307902
 20
20.9185795864
 30
0.0
 11
17.5527456834
 21
20.9185795864
 31
0.0
  0
LINE
  5
FD
330
F0
100
AcDbEntity
  8
SLD-0
100
AcDbLine
 10
18.0527456834
 20
21.83835802
 30
0.0
 11
17.0527456834
 21
21.83835802
 31
0.0
  0
LINE
  5
FE
330
F0
100
AcDbEntity
  8
SLD-0
100
AcDbLine
 10
17.0527456834
 20
21.83835802
 30
0.0
 11
17.0527456834
 21
20.9185795864
 31
0.0
  0
LINE
  5
FF
330
F0
100
AcDbEntity
  8
SLD-0
100
AcDbLine
 10
17.0527456834
 20
19.5535795864
 30
0.0
 11
17.0527456834
 21
20.9185795864
 31
0.0
  0
MTEXT
  5
100
330
F0
100
AcDbEntity
  8
SLD-0
100
AcDbMText
 10
18.5444122123
 20
22.5882738075
 30
0.0
 40
0.5
 41
0.0
 71
     1
 72
     1
  1

  7
SLDTEXTSTYLE0
 73
     1
 44
1.0
  0
MTEXT
  5
101
330
F0
100
AcDbEntity
  8
SLD-0
100
AcDbMText
 10
18.9452802721
 20
22.5806348816
 30
0.0
 40
0.5
 41
0.0
 71
     1
 72
     1
  1
1 3/8"
  7
SLDTEXTSTYLE0
 73
     1
 44
1.0
  0
MTEXT
  5
102
330
F0
100
AcDbEntity
  8
SLD-0
100
AcDbMText
 10
18.8463219319
 20
21.6853223985
 30
0.0
 40
0.5
 41
0.0
 71
     1
 72
     1
  1
35mm
  7
SLDTEXTSTYLE0
 73
     1
 44
1.0
  0
MTEXT
  5
103
330
F0
100
AcDbEntity
  8
SLD-0
100
AcDbMText
 10
21.3273982497
 20
22.5882738075
 30
0.0
 40
0.5
 41
0.0
 71
     1
 72
     1
  1

  7
SLDTEXTSTYLE0
 73
     1
 44
1.0
  0
ENDBLK
  5
F2
330
F0
100
AcDbEntity
  8
0
100
AcDbBlockEnd
  0
BLOCK
  5
106
330
105
100
AcDbEntity
  8
0
100
AcDbBlockBegin
  2
_D_5
 70
     0
 10
0.0
 20
0.0
 30
0.0
  3
_D_5
  1

  0
SOLID
  5
108
330
105
100
AcDbEntity
  8
SLD-0
100
AcDbTrace
 10
12.9501307902
 20
22.493382736
 30
0.0
 11
13.4701307902
 21
22.413382736
 31
0.0
 12
13.4701307902
 22
22.573382736
 32
0.0
 13
13.4701307902
 23
22.573382736
 33
0.0
  0
SOLID
  5
109
330
105
100
AcDbEntity
  8
SLD-0
100
AcDbTrace
 10
15.1701307902
 20
22.493382736
 30
0.0
 11
14.6501307902
 21
22.573382736
 31
0.0
 12
14.6501307902
 22
22.413382736
 32
0.0
 13
14.6501307902
 23
22.413382736
 33
0.0
  0
LINE
  5
10A
330
105
100
AcDbEntity
  8
SLD-0
100
AcDbLine
 10
9.6565544357
 20
22.4933826627
 30
0.0
 11
9.5042106873
 21
22.4933826627
 31
0.0
  0
LINE
  5
10B
330
105
100
AcDbEntity
  8
SLD-0
100
AcDbLine
 10
9.5042106873
 20
22.4933826627
 30
0.0
 11
9.5042106873
 21
21.6996326388
 31
0.0
  0
LINE
  5
10C
330
105
100
AcDbEntity
  8
SLD-0
100
AcDbLine
 10
9.5042106873
 20
21.6996326388
 30
0.0
 11
9.6565544357
 21
21.6996326388
 31
0.0
  0
LINE
  5
10D
330
105
100
AcDbEntity
  8
SLD-0
100
AcDbLine
 10
11.6454433666
 20
22.4933826627
 30
0.0
 11
11.797787115
 21
22.4933826627
 31
0.0
  0
LINE
  5
10E
330
105
100
AcDbEntity
  8
SLD-0
100
AcDbLine
 10
11.797787115
 20
22.4933826627
 30
0.0
 11
11.797787115
 21
21.6996326388
 31
0.0
  0
LINE
  5
10F
330
105
100
AcDbEntity
  8
SLD-0
100
AcDbLine
 10
11.797787115
 20
21.6996326388
 30
0.0
 11
11.6454433666
 21
21.6996326388
 31
0.0
  0
LINE
  5
110
330
105
100
AcDbEntity
  8
SLD-0
100
AcDbLine
 10
12.9501307902
 20
21.0885795864
 30
0.0
 11
12.9501307902
 21
22.993382736
 31
0.0
  0
LINE
  5
111
330
105
100
AcDbEntity
  8
SLD-0
100
AcDbLine
 10
15.1701307902
 20
21.0885795864
 30
0.0
 11
15.1701307902
 21
22.993382736
 31
0.0
  0
LINE
  5
112
330
105
100
AcDbEntity
  8
SLD-0
100
AcDbLine
 10
12.9501307902
 20
22.493382736
 30
0.0
 11
12.0515196331
 21
22.493382736
 31
0.0
  0
LINE
  5
113
330
105
100
AcDbEntity
  8
SLD-0
100
AcDbLine
 10
15.1701307902
 20
22.493382736
 30
0.0
 11
12.9501307902
 21
22.493382736
 31
0.0
  0
MTEXT
  5
114
330
105
100
AcDbEntity
  8
SLD-0
100
AcDbMText
 10
9.3784814981
 20
23.2394790835
 30
0.0
 40
0.5
 41
0.0
 71
     1
 72
     1
  1
%%c
  7
SLDTEXTSTYLE0
 73
     1
 44
1.0
  0
MTEXT
  5
115
330
105
100
AcDbEntity
  8
SLD-0
100
AcDbMText
 10
10.1325439804
 20
23.2394790835
 30
0.0
 40
0.5
 41
0.0
 71
     1
 72
     1
  1
2 1/4"
  7
SLDTEXTSTYLE0
 73
     1
 44
1.0
  0
MTEXT
  5
116
330
105
100
AcDbEntity
  8
SLD-0
100
AcDbMText
 10
9.6565544357
 20
22.3441665637
 30
0.0
 40
0.5
 41
0.0
 71
     1
 72
     1
  1
56mm
  7
SLDTEXTSTYLE0
 73
     1
 44
1.0
  0
ENDBLK
  5
107
330
105
100
AcDbEntity
  8
0
100
AcDbBlockEnd
  0
BLOCK
  5
1CF
330
1CE
100
AcDbEntity
  8
0
100
AcDbBlockBegin
  2
_D_6
 70
     0
 10
0.0
 20
0.0
 30
0.0
  3
_D_6
  1

  0
SOLID
  5
1D1
330
1CE
100
AcDbEntity
  8
SLD-0
100
AcDbTrace
 10
14.2671307902
 20
27.3572015779
 30
0.0
 11
14.5964128225
 21
27.7675347879
 31
0.0
 12
14.4578487579
 22
27.8475347879
 32
0.0
 13
14.4578487579
 23
27.8475347879
 33
0.0
  0
LINE
  5
1D2
330
1CE
100
AcDbEntity
  8
SLD-0
100
AcDbLine
 10
18.5974244394
 20
30.3980085984
 30
0.0
 11
18.4450806909
 21
30.3980085984
 31
0.0
  0
LINE
  5
1D3
330
1CE
100
AcDbEntity
  8
SLD-0
100
AcDbLine
 10
18.4450806909
 20
30.3980085984
 30
0.0
 11
18.4450806909
 21
29.6042585745
 31
0.0
  0
LINE
  5
1D4
330
1CE
100
AcDbEntity
  8
SLD-0
100
AcDbLine
 10
18.4450806909
 20
29.6042585745
 30
0.0
 11
18.5974244394
 21
29.6042585745
 31
0.0
  0
LINE
  5
1D5
330
1CE
100
AcDbEntity
  8
SLD-0
100
AcDbLine
 10
20.5863133702
 20
30.3980085984
 30
0.0
 11
20.7386571187
 21
30.3980085984
 31
0.0
  0
LINE
  5
1D6
330
1CE
100
AcDbEntity
  8
SLD-0
100
AcDbLine
 10
20.7386571187
 20
30.3980085984
 30
0.0
 11
20.7386571187
 21
29.6042585745
 31
0.0
  0
LINE
  5
1D7
330
1CE
100
AcDbEntity
  8
SLD-0
100
AcDbLine
 10
20.7386571187
 20
29.6042585745
 30
0.0
 11
20.5863133702
 21
29.6042585745
 31
0.0
  0
LINE
  5
1D8
330
1CE
100
AcDbEntity
  8
SLD-0
100
AcDbLine
 10
14.2671307902
 20
27.3572015779
 30
0.0
 11
15.3776328752
 21
29.2806476112
 31
0.0
  0
LINE
  5
1D9
330
1CE
100
AcDbEntity
  8
SLD-0
100
AcDbLine
 10
15.3776328752
 20
29.2806476112
 30
0.0
 11
16.2526328752
 21
29.2806476112
 31
0.0
  0
MTEXT
  5
1DA
330
1CE
100
AcDbEntity
  8
SLD-0
100
AcDbMText
 10
18.2269904087
 20
31.1441049825
 30
0.0
 40
0.5
 41
0.0
 71
     1
 72
     1
  1
%%c
  7
SLDTEXTSTYLE0
 73
     1
 44
1.0
  0
MTEXT
  5
1DB
330
1CE
100
AcDbEntity
  8
SLD-0
100
AcDbMText
 10
18.981052891
 20
31.1441049825
 30
0.0
 40
0.5
 41
0.0
 71
     1
 72
     1
  1
13/16"
  7
SLDTEXTSTYLE0
 73
     1
 44
1.0
  0
MTEXT
  5
1DC
330
1CE
100
AcDbEntity
  8
SLD-0
100
AcDbMText
 10
18.5974244394
 20
30.2487924994
 30
0.0
 40
0.5
 41
0.0
 71
     1
 72
     1
  1
21mm
  7
SLDTEXTSTYLE0
 73
     1
 44
1.0
  0
MTEXT
  5
1DD
330
1CE
100
AcDbEntity
  8
SLD-0
100
AcDbMText
 10
16.5026328752
 20
29.3534800988
 30
0.0
 40
0.5
 41
0.0
 71
     1
 72
     1
  1
FIXTURE MOUNTING
  7
SLDTEXTSTYLE0
 73
     1
 44
1.0
  0
MTEXT
  5
1DE
330
1CE
100
AcDbEntity
  8
SLD-0
100
AcDbMText
 10
18.7418688674
 20
28.5597300749
 30
0.0
 40
0.5
 41
0.0
 71
     1
 72
     1
  1
HOLE
  7
SLDTEXTSTYLE0
 73
     1
 44
1.0
  0
ENDBLK
  5
1D0
330
1CE
100
AcDbEntity
  8
0
100
AcDbBlockEnd
  0
ENDSEC
  0
SECTION
  2
ENTITIES
  0
MTEXT
  5
6E
330
1F
100
AcDbEntity
  8
SLD-0
100
AcDbMText
 10
35.0169421488
 20
3.373003985
 30
0.0
 40
0.5
 41
0.0
 71
     1
 72
     1
  1
PI1-STAKE-CB
  7
SLDTEXTSTYLE0
 73
     1
 44
1.0
  0
SPLINE
  5
6F
330
1F
100
AcDbEntity
  8
0
  6
Continuous
 62
     7
370
    25
100
AcDbSpline
210
0.0
220
0.0
230
1.0
 70
     8
 71
     3
 72
    11
 73
     7
 74
     0
 42
0.00000001
 43
0.00000001
 40
0.0
 40
0.0
 40
0.0
 40
0.0
 40
0.1563095689194082
 40
0.4681607050877316
 40
0.7801483226525981
 40
1.0
 40
1.0
 40
1.0
 40
1.0
 10
15.17013079015543
 20
19.74030982660735
 30
0.0
 10
15.17194431359477
 20
19.74656250647239
 30
0.0
 10
15.17737597346004
 20
19.7652898245409
 30
0.0
 10
15.17953229785472
 20
19.79953448425325
 30
0.0
 10
15.17814239023861
 20
19.83662578423821
 30
0.0
 10
15.17247399205824
 20
19.85821463526024
 30
0.0
 10
15.17013079015542
 20
19.86713903245051
 30
0.0
  0
SPLINE
  5
70
330
1F
100
AcDbEntity
  8
0
  6
Continuous
 62
     7
370
    25
100
AcDbSpline
210
0.0
220
0.0
230
1.0
 70
     8
 71
     3
 72
    11
 73
     7
 74
     0
 42
0.00000001
 43
0.00000001
 40
0.0
 40
0.0
 40
0.0
 40
0.0
 40
0.0852603880505512
 40
0.3898377562116315
 40
0.693439502668356
 40
1.0
 40
1.0
 40
1.0
 40
1.0
 10
12.95013079015542
 20
19.86749749805364
 30
0.0
 10
12.94901182153669
 20
19.86406730853301
 30
0.0
 10
12.94389553922116
 20
19.84838338524015
 30
0.0
 10
12.94106457530878
 20
19.81724804996474
 30
0.0
 10
12.94137235519292
 20
19.77606528769745
 30
0.0
 10
12.94720188912841
 20
19.75018257128765
 30
0.0
 10
12.95013079015542
 20
19.73717845886401
 30
0.0
  0
LINE
  5
71
330
1F
100
AcDbEntity
  8
0
  6
Continuous
 62
     7
370
    25
100
AcDbLine
 10
15.1701307902
 20
20.8885795864
 30
0.0
 11
15.1401307902
 21
20.9185795864
 31
0.0
  0
LINE
  5
72
330
1F
100
AcDbEntity
  8
0
  6
Continuous
 62
     7
370
    25
100
AcDbLine
 10
12.9801307902
 20
20.9185795864
 30
0.0
 11
12.9501307902
 21
20.8885795864
 31
0.0
  0
LINE
  5
73
330
1F
100
AcDbEntity
  8
0
  6
Continuous
 62
     7
370
    25
100
AcDbLine
 10
15.1701307902
 20
19.5535795864
 30
0.0
 11
15.1701307902
 21
20.8885795864
 31
0.0
  0
LINE
  5
74
330
1F
100
AcDbEntity
  8
0
  6
Continuous
 62
     7
370
    25
100
AcDbLine
 10
12.9501307902
 20
20.8885795864
 30
0.0
 11
12.9501307902
 21
19.5535795864
 31
0.0
  0
LINE
  5
75
330
1F
100
AcDbEntity
  8
0
  6
Continuous
 62
     7
370
    25
100
AcDbLine
 10
11.0976307902
 20
14.4910795864
 30
0.0
 11
11.1281864635
 21
13.6160795864
 31
0.0
  0
LINE
  5
76
330
1F
100
AcDbEntity
  8
0
  6
Continuous
 62
     7
370
    25
100
AcDbLine
 10
16.9920751169
 20
13.6160795864
 30
0.0
 11
17.0226307902
 21
14.4910795864
 31
0.0
  0
LINE
  5
77
330
1F
100
AcDbEntity
  8
0
  6
Continuous
 62
     7
370
    25
100
AcDbLine
 10
12.8626307902
 20
19.4874175464
 30
0.0
 11
12.8620057902
 21
19.4874175464
 31
0.0
  0
LINE
  5
78
330
1F
100
AcDbEntity
  8
0
  6
Continuous
 62
     7
370
    25
100
AcDbLine
 10
15.2476307902
 20
11.6672002544
 30
0.0
 11
15.2476307902
 21
13.6160795864
 31
0.0
  0
LINE
  5
79
330
1F
100
AcDbEntity
  8
0
  6
Continuous
 62
     7
370
    25
100
AcDbLine
 10
15.2476307902
 20
14.4910795864
 30
0.0
 11
15.2476307902
 21
19.5535795864
 31
0.0
  0
LINE
  5
7A
330
1F
100
AcDbEntity
  8
0
  6
Continuous
 62
     7
370
    25
100
AcDbLine
 10
12.8726307902
 20
18.0535795864
 30
0.0
 11
12.8726307902
 21
14.4910795864
 31
0.0
  0
LINE
  5
7B
330
1F
100
AcDbEntity
  8
0
  6
Continuous
 62
     7
370
    25
100
AcDbLine
 10
12.8726307902
 20
13.6160795864
 30
0.0
 11
12.8726307902
 21
7.5535795864
 31
0.0
  0
CIRCLE
  5
7C
330
1F
100
AcDbEntity
  8
0
  6
Continuous
 62
     7
370
    25
100
AcDbCircle
 10
14.0601307902
 20
19.8035795864
 30
0.0
 40
0.0954229900769891
  0
LINE
  5
7D
330
1F
100
AcDbEntity
  8
0
  6
Continuous
 62
     7
370
    25
100
AcDbLine
 10
14.1173447635
 20
19.8733144288
 30
0.0
 11
14.0654416985
 21
19.8360163617
 31
0.0
  0
LINE
  5
7E
330
1F
100
AcDbEntity
  8
0
  6
Continuous
 62
     7
370
    25
100
AcDbLine
 10
14.0654416985
 20
19.8360163617
 30
0.0
 11
14.0281436315
 21
19.8879194267
 31
0.0
  0
LINE
  5
7F
330
1F
100
AcDbEntity
  8
0
  6
Continuous
 62
     7
370
    25
100
AcDbLine
 10
14.0281436315
 20
19.8879194267
 30
0.0
 11
13.9903959478
 21
19.8607935598
 31
0.0
  0
LINE
  5
80
330
1F
100
AcDbEntity
  8
0
  6
Continuous
 62
     7
370
    25
100
AcDbLine
 10
13.9903959478
 20
19.8607935598
 30
0.0
 11
14.0276940149
 21
19.8088904948
 31
0.0
  0
LINE
  5
81
330
1F
100
AcDbEntity
  8
0
  6
Continuous
 62
     7
370
    25
100
AcDbLine
 10
14.0276940149
 20
19.8088904948
 30
0.0
 11
13.9757909499
 21
19.7715924277
 31
0.0
  0
LINE
  5
82
330
1F
100
AcDbEntity
  8
0
  6
Continuous
 62
     7
370
    25
100
AcDbLine
 10
13.9757909499
 20
19.7715924277
 30
0.0
 11
14.0029168168
 21
19.7338447441
 31
0.0
  0
LINE
  5
83
330
1F
100
AcDbEntity
  8
0
  6
Continuous
 62
     7
370
    25
100
AcDbLine
 10
14.0029168168
 20
19.7338447441
 30
0.0
 11
14.0548198818
 21
19.7711428111
 31
0.0
  0
LINE
  5
84
330
1F
100
AcDbEntity
  8
0
  6
Continuous
 62
     7
370
    25
100
AcDbLine
 10
14.0548198818
 20
19.7711428111
 30
0.0
 11
14.0921179489
 21
19.7192397461
 31
0.0
  0
LINE
  5
85
330
1F
100
AcDbEntity
  8
0
  6
Continuous
 62
     7
370
    25
100
AcDbLine
 10
14.0921179489
 20
19.7192397461
 30
0.0
 11
14.1298656325
 21
19.7463656131
 31
0.0
  0
LINE
  5
86
330
1F
100
AcDbEntity
  8
0
  6
Continuous
 62
     7
370
    25
100
AcDbLine
 10
14.1298656325
 20
19.7463656131
 30
0.0
 11
14.0925675654
 21
19.7982686781
 31
0.0
  0
LINE
  5
87
330
1F
100
AcDbEntity
  8
0
  6
Continuous
 62
     7
370
    25
100
AcDbLine
 10
14.1444706305
 20
19.8355667451
 30
0.0
 11
14.0925675654
 21
19.7982686781
 31
0.0
  0
LINE
  5
88
330
1F
100
AcDbEntity
  8
0
  6
Continuous
 62
     7
370
    25
100
AcDbLine
 10
14.1444706305
 20
19.8355667451
 30
0.0
 11
14.1173447635
 21
19.8733144288
 31
0.0
  0
LINE
  5
89
330
1F
100
AcDbEntity
  8
0
  6
Continuous
 62
     7
370
    25
100
AcDbLine
 10
14.0654416985
 20
19.8360163617
 30
0.0
 11
14.0925675654
 21
19.7982686781
 31
0.0
  0
LINE
  5
8A
330
1F
100
AcDbEntity
  8
0
  6
Continuous
 62
     7
370
    25
100
AcDbLine
 10
14.0276940149
 20
19.8088904948
 30
0.0
 11
14.0654416985
 21
19.8360163617
 31
0.0
  0
LINE
  5
8B
330
1F
100
AcDbEntity
  8
0
  6
Continuous
 62
     7
370
    25
100
AcDbLine
 10
14.0548198818
 20
19.7711428111
 30
0.0
 11
14.0276940149
 21
19.8088904948
 31
0.0
  0
LINE
  5
8C
330
1F
100
AcDbEntity
  8
0
  6
Continuous
 62
     7
370
    25
100
AcDbLine
 10
14.0925675654
 20
19.7982686781
 30
0.0
 11
14.0548198818
 21
19.7711428111
 31
0.0
  0
CIRCLE
  5
8D
330
1F
100
AcDbEntity
  8
0
  6
Continuous
 62
     7
370
    25
100
AcDbCircle
 10
14.0601307902
 20
19.8035795864
 30
0.0
 40
0.1610229900769887
  0
LINE
  5
8E
330
1F
100
AcDbEntity
  8
0
  6
Continuous
 62
     7
370
    25
100
AcDbLine
 10
14.0654416985
 20
19.8360163617
 30
0.0
 11
14.0601307902
 21
19.8035795864
 31
0.0
  0
LINE
  5
8F
330
1F
100
AcDbEntity
  8
0
  6
Continuous
 62
     7
370
    25
100
AcDbLine
 10
14.0465678567
 20
19.8224534282
 30
0.0
 11
14.0601307902
 21
19.8035795864
 31
0.0
  0
LINE
  5
90
330
1F
100
AcDbEntity
  8
0
  6
Continuous
 62
     7
370
    25
100
AcDbLine
 10
14.079004632
 20
19.8171425199
 30
0.0
 11
14.0601307902
 21
19.8035795864
 31
0.0
  0
LINE
  5
91
330
1F
100
AcDbEntity
  8
0
  6
Continuous
 62
     7
370
    25
100
AcDbLine
 10
14.0601307902
 20
19.8035795864
 30
0.0
 11
14.0925675654
 21
19.7982686781
 31
0.0
  0
LINE
  5
92
330
1F
100
AcDbEntity
  8
0
  6
Continuous
 62
     7
370
    25
100
AcDbLine
 10
14.0276940149
 20
19.8088904948
 30
0.0
 11
14.0601307902
 21
19.8035795864
 31
0.0
  0
LINE
  5
93
330
1F
100
AcDbEntity
  8
0
  6
Continuous
 62
     7
370
    25
100
AcDbLine
 10
14.0601307902
 20
19.8035795864
 30
0.0
 11
14.0412569483
 21
19.790016653
 31
0.0
  0
LINE
  5
94
330
1F
100
AcDbEntity
  8
0
  6
Continuous
 62
     7
370
    25
100
AcDbLine
 10
14.0601307902
 20
19.8035795864
 30
0.0
 11
14.0736937236
 21
19.7847057446
 31
0.0
  0
LINE
  5
95
330
1F
100
AcDbEntity
  8
0
  6
Continuous
 62
     7
370
    25
100
AcDbLine
 10
14.0601307902
 20
19.8035795864
 30
0.0
 11
14.0548198818
 21
19.7711428111
 31
0.0
  0
LINE
  5
96
330
1F
100
AcDbEntity
  8
0
  6
Continuous
 62
     7
370
    25
100
AcDbLine
 10
12.9801307902
 20
20.9185795864
 30
0.0
 11
15.1401307902
 21
20.9185795864
 31
0.0
  0
LINE
  5
97
330
1F
100
AcDbEntity
  8
0
  6
Continuous
 62
     7
370
    25
100
AcDbLine
 10
15.1701307902
 20
20.8885795864
 30
0.0
 11
12.9501307902
 21
20.8885795864
 31
0.0
  0
LINE
  5
98
330
1F
100
AcDbEntity
  8
0
  6
Continuous
 62
     7
370
    25
100
AcDbLine
 10
14.2326459062
 20
13.6160795864
 30
0.0
 11
16.9920751169
 21
13.6160795864
 31
0.0
  0
LINE
  5
99
330
1F
100
AcDbEntity
  8
0
  6
Continuous
 62
     7
370
    25
100
AcDbLine
 10
11.1281864635
 20
13.6160795864
 30
0.0
 11
14.2326459062
 21
13.6160795864
 31
0.0
  0
LINE
  5
9A
330
1F
100
AcDbEntity
  8
0
  6
Continuous
 62
     7
370
    25
100
AcDbLine
 10
14.2344437969
 20
14.4910795864
 30
0.0
 11
17.0226307902
 21
14.4910795864
 31
0.0
  0
LINE
  5
9B
330
1F
100
AcDbEntity
  8
0
  6
Continuous
 62
     7
370
    25
100
AcDbLine
 10
11.0976307902
 20
14.4910795864
 30
0.0
 11
14.2344437969
 21
14.4910795864
 31
0.0
  0
LINE
  5
9C
330
1F
100
AcDbEntity
  8
0
  6
Continuous
 62
     7
370
    25
100
AcDbLine
 10
12.8626307902
 20
18.0535795864
 30
0.0
 11
12.8726307902
 21
18.0535795864
 31
0.0
  0
LINE
  5
9D
330
1F
100
AcDbEntity
  8
0
  6
Continuous
 62
     7
370
    25
100
AcDbLine
 10
12.8626307902
 20
18.0535795864
 30
0.0
 11
12.8626307902
 21
19.5535795864
 31
0.0
  0
LINE
  5
9E
330
1F
100
AcDbEntity
  8
0
  6
Continuous
 62
     7
370
    25
100
AcDbLine
 10
12.8726307902
 20
18.0535795864
 30
0.0
 11
12.8726307902
 21
19.5535795864
 31
0.0
  0
LINE
  5
9F
330
1F
100
AcDbEntity
  8
0
  6
Continuous
 62
     7
370
    25
100
AcDbLine
 10
12.8626307902
 20
19.5535795864
 30
0.0
 11
12.8726307902
 21
19.5535795864
 31
0.0
  0
LINE
  5
A0
330
1F
100
AcDbEntity
  8
0
  6
Continuous
 62
     7
370
    25
100
AcDbLine
 10
12.8726307902
 20
7.5535795864
 30
0.0
 11
15.2476307902
 21
11.6672002544
 31
0.0
  0
LINE
  5
A1
330
1F
100
AcDbEntity
  8
0
  6
Continuous
 62
     7
370
    25
100
AcDbLine
 10
14.0601307902
 20
19.5535795864
 30
0.0
 11
15.2476307902
 21
19.5535795864
 31
0.0
  0
LINE
  5
A2
330
1F
100
AcDbEntity
  8
0
  6
Continuous
 62
     7
370
    25
100
AcDbLine
 10
12.8726307902
 20
19.5535795864
 30
0.0
 11
14.0601307902
 21
19.5535795864
 31
0.0
  0
DIMENSION
  5
A3
330
1F
100
AcDbEntity
  8
SLD-0
100
AcDbDimension
  2
_D
 10
6.519001685
 20
7.5535795864
 30
0.0
 11
6.519001685
 21
13.5535795864
 31
0.0
 70
   160
  1
SPECIFY LENGTH\P12" OR 18"\P[305mm OR 457mm]
 71
     2
 42
-1.0
  3
SLDDIMSTYLE0
100
AcDbAlignedDimension
 13
12.8726307902
 23
19.5535795864
 33
0.0
 14
12.8726307902
 24
7.5535795864
 34
0.0
 50
90.0
100
AcDbRotatedDimension
  0
DIMENSION
  5
B2
330
1F
100
AcDbEntity
  8
SLD-0
100
AcDbDimension
  2
_D_1
 10
18.766614226
 20
13.6160795864
 30
0.0
 11
18.766614226
 21
11.7169476999
 31
0.0
 70
   160
  1
<>
 71
     2
 42
-1.0
  3
SLDDIMSTYLE1
100
AcDbAlignedDimension
 13
17.0226307902
 23
14.4910795864
 33
0.0
 14
16.9920751169
 24
13.6160795864
 34
0.0
 50
90.0
100
AcDbRotatedDimension
  0
DIMENSION
  5
C8
330
1F
100
AcDbEntity
  8
SLD-0
100
AcDbDimension
  2
_D_2
 10
11.0976307902
 20
16.506020451
 30
0.0
 11
19.7114961158
 21
16.506020451
 31
0.0
 70
   160
  1
%%c<>
 71
     2
 42
-1.0
  3
SLDDIMSTYLE1
100
AcDbAlignedDimension
 13
17.0226307902
 23
14.4910795864
 33
0.0
 14
11.0976307902
 24
14.4910795864
 34
0.0
100
AcDbRotatedDimension
  0
DIMENSION
  5
DB
330
1F
100
AcDbEntity
  8
SLD-0
100
AcDbDimension
  2
_D_3
 10
15.2476307902
 20
5.9787764368
 30
0.0
 11
10.5734988645
 21
5.9787764368
 31
0.0
 70
   160
  1
%%c<>
 71
     2
 42
-1.0
  3
SLDDIMSTYLE2
100
AcDbAlignedDimension
 13
12.8726307902
 23
7.5535795864
 33
0.0
 14
15.2476307902
 24
11.6672002544
 34
0.0
100
AcDbRotatedDimension
  0
DIMENSION
  5
EF
330
1F
100
AcDbEntity
  8
SLD-0
100
AcDbDimension
  2
_D_4
 10
17.0527456834
 20
20.9185795864
 30
0.0
 11
17.0527456834
 21
21.83835802
 31
0.0
 70
   160
  1
<>
 71
     2
 42
-1.0
  3
SLDDIMSTYLE2
100
AcDbAlignedDimension
 13
15.2476307902
 23
19.5535795864
 33
0.0
 14
15.1401307902
 24
20.9185795864
 34
0.0
 50
90.0
100
AcDbRotatedDimension
  0
DIMENSION
  5
104
330
1F
100
AcDbEntity
  8
SLD-0
100
AcDbDimension
  2
_D_5
 10
15.1701307902
 20
22.493382736
 30
0.0
 11
10.6509988645
 21
22.493382736
 31
0.0
 70
   160
  1
%%c<>
 71
     2
 42
-1.0
  3
SLDDIMSTYLE2
100
AcDbAlignedDimension
 13
12.9501307902
 23
20.8885795864
 33
0.0
 14
15.1701307902
 24
20.8885795864
 34
0.0
100
AcDbRotatedDimension
  0
MTEXT
  5
117
330
1F
100
AcDbEntity
  8
SLD-0
100
AcDbMText
 10
21.5021448673
 20
10.1137380269
 30
0.0
 40
0.5
 41
0.0
 71
     2
 72
     1
  1
STABILITY FLANGE
  7
SLDTEXTSTYLE0
 73
     1
 44
1.0
  0
MTEXT
  5
118
330
1F
100
AcDbEntity
  8
SLD-0
100
AcDbMText
 10
21.5160337926
 20
9.4562577288
 30
0.0
 40
0.5
 41
0.0
 71
     2
 72
     1
  1
(OPTIONAL)
  7
SLDTEXTSTYLE0
 73
     1
 44
1.0
  0
LEADER
  5
11A
330
1F
100
AcDbEntity
  8
SLD-0
100
AcDbLeader
  3
SLDDIMSTYLE3
 76
     3
 10
16.4659312584
 20
13.6160795864
 30
0.0
 10
17.7012004238
 20
9.8744558402
 30
0.0
 10
18.7012004238
 20
9.8744558402
 30
0.0
  0
SPLINE
  5
11B
330
1F
100
AcDbEntity
  8
0
  6
Continuous
 62
     7
370
    25
100
AcDbSpline
210
0.0
220
0.0
230
1.0
 70
     8
 71
     3
 72
    13
 73
     9
 74
     0
 42
0.00000001
 43
0.00000001
 40
0.0
 40
0.0
 40
0.0
 40
0.0
 40
0.0088561612607463
 40
0.2010318144653413
 40
0.3898997933825565
 40
0.598784508278141
 40
0.8788901572018284
 40
1.0
 40
1.0
 40
1.0
 40
1.0
 10
31.17906996868508
 20
26.38166837849026
 30
0.0
 10
31.17942436589037
 20
26.38175171521607
 30
0.0
 10
31.18746906055244
 20
26.3836434302275
 30
0.0
 10
31.20033928273883
 20
26.39363049004329
 30
0.0
 10
31.21610896782754
 20
26.40915513481816
 30
0.0
 10
31.22840261115889
 20
26.42917584057606
 30
0.0
 10
31.23660689611015
 20
26.44816639540699
 30
0.0
 10
31.24121458385951
 20
26.4624381030647
 30
0.0
 10
31.24260544824661
 20
26.466746122836
 30
0.0
  0
SPLINE
  5
11C
330
1F
100
AcDbEntity
  8
0
  6
Continuous
 62
     7
370
    25
100
AcDbSpline
210
0.0
220
0.0
230
1.0
 70
     8
 71
     3
 72
    15
 73
    11
 74
     0
 42
0.00000001
 43
0.00000001
 40
0.0
 40
0.0
 40
0.0
 40
0.0
 40
0.0809076667170825
 40
0.2389626628358329
 40
0.3920465155633107
 40
0.5481596964573402
 40
0.7209645282632171
 40
0.8392215846436549
 40
0.943849989214285
 40
1.0
 40
1.0
 40
1.0
 40
1.0
 10
31.24260544824661
 20
26.466746122836
 30
0.0
 10
31.24439713632739
 20
26.47291163768081
 30
0.0
 10
31.24968892846682
 20
26.49112162821509
 30
0.0
 10
31.2565503791703
 20
26.52490240282711
 30
0.0
 10
31.26176871101614
 20
26.56589750087393
 30
0.0
 10
31.26328884488603
 20
26.60523028766954
 30
0.0
 10
31.26094875292623
 20
26.63653151435392
 30
0.0
 10
31.25298747716233
 20
26.66345855647517
 30
0.0
 10
31.24241311576505
 20
26.68362202468306
 30
0.0
 10
31.2318123641992
 20
26.69205888933475
 30
0.0
 10
31.22811017374384
 20
26.6950053671946
 30
0.0
  0
LINE
  5
11D
330
1F
100
AcDbEntity
  8
0
  6
Continuous
 62
     7
370
    25
100
AcDbLine
 10
31.0996689269
 20
26.3922113186
 30
0.0
 11
31.1741889453
 21
26.3806842807
 31
0.0
  0
LINE
  5
11E
330
1F
100
AcDbEntity
  8
0
  6
Continuous
 62
     7
370
    25
100
AcDbLine
 10
31.2234187526
 20
26.6989452419
 30
0.0
 11
31.1488987342
 21
26.7104722798
 31
0.0
  0
SPLINE
  5
11F
330
1F
100
AcDbEntity
  8
0
  6
Continuous
 62
     7
370
    25
100
AcDbSpline
210
0.0
220
0.0
230
1.0
 70
     8
 71
     3
 72
    16
 73
    12
 74
     0
 42
0.00000001
 43
0.00000001
 40
0.0
 40
0.0
 40
0.0
 40
0.0
 40
0.0809790043468284
 40
0.1990642947466968
 40
0.3279200097924145
 40
0.4631693417238616
 40
0.6001523216165013
 40
0.7410832513737379
 40
0.8725152414786717
 40
0.993904174566431
 40
1.0
 40
1.0
 40
1.0
 40
1.0
 10
29.10552023310041
 20
26.33644262484986
 30
0.0
 10
29.10275141756044
 20
26.32853381624969
 30
0.0
 10
29.09594505686
 20
26.30909221630687
 30
0.0
 10
29.09547010060117
 20
26.27428432116544
 30
0.0
 10
29.10268210398485
 20
26.23346423752053
 30
0.0
 10
29.1196531084127
 20
26.19142157070728
 30
0.0
 10
29.1451793934903
 20
26.15202886350412
 30
0.0
 10
29.17696484501726
 20
26.11929903110138
 30
0.0
 10
29.21236402264063
 20
26.09782234056548
 30
0.0
 10
29.237885137744
 20
26.08696808393093
 30
0.0
 10
29.2510453642539
 20
26.08681292621407
 30
0.0
 10
29.25167463511264
 20
26.08680550717537
 30
0.0
  0
LINE
  5
120
330
1F
100
AcDbEntity
  8
0
  6
Continuous
 62
     7
370
    25
100
AcDbLine
 10
29.1867126841
 20
26.4035375649
 30
0.0
 11
29.1321602445
 21
26.3720451118
 31
0.0
  0
LINE
  5
121
330
1F
100
AcDbEntity
  8
0
  6
Continuous
 62
     7
370
    25
100
AcDbLine
 10
29.2931701487
 20
26.0931375571
 30
0.0
 11
29.3477225883
 21
26.1246300101
 31
0.0
  0
LINE
  5
122
330
1F
100
AcDbEntity
  8
0
  6
Continuous
 62
     7
370
    25
100
AcDbLine
 10
30.8371222258
 20
28.0561699359
 30
0.0
 11
30.8159055755
 21
28.0684220288
 31
0.0
  0
LINE
  5
123
330
1F
100
AcDbEntity
  8
0
  6
Continuous
 62
     7
370
    25
100
AcDbLine
 10
29.2883067512
 20
28.0684220288
 30
0.0
 11
29.2670901009
 21
28.0561699359
 31
0.0
  0
LINE
  5
124
330
1F
100
AcDbEntity
  8
0
  6
Continuous
 62
     7
370
    25
100
AcDbLine
 10
31.1621061633
 20
26.7084293048
 30
0.0
 11
31.1621061633
 21
27.6031370705
 31
0.0
  0
LINE
  5
125
330
1F
100
AcDbEntity
  8
0
  6
Continuous
 62
     7
370
    25
100
AcDbLine
 10
28.9421061633
 20
27.6031370705
 30
0.0
 11
28.9421061633
 21
26.5130550866
 31
0.0
  0
LINE
  5
126
330
1F
100
AcDbEntity
  8
0
  6
Continuous
 62
     7
370
    25
100
AcDbLine
 10
27.0905091701
 20
22.3370942452
 30
0.0
 11
27.1210555297
 21
21.623056529
 31
0.0
  0
LINE
  5
127
330
1F
100
AcDbEntity
  8
0
  6
Continuous
 62
     7
370
    25
100
AcDbLine
 10
32.983156797
 20
21.623056529
 30
0.0
 11
33.0137031566
 21
22.3370942452
 31
0.0
  0
LINE
  5
128
330
1F
100
AcDbEntity
  8
0
  6
Continuous
 62
     7
370
    25
100
AcDbLine
 10
31.2396061633
 20
19.5815992528
 30
0.0
 11
31.2396061633
 21
20.1173100527
 31
0.0
  0
LINE
  5
129
330
1F
100
AcDbEntity
  8
0
  6
Continuous
 62
     7
370
    25
100
AcDbLine
 10
31.2396061633
 20
22.3793172264
 30
0.0
 11
31.2396061633
 21
26.4577281245
 31
0.0
  0
LINE
  5
12A
330
1F
100
AcDbEntity
  8
0
  6
Continuous
 62
     7
370
    25
100
AcDbLine
 10
28.8646061633
 20
26.5130550866
 30
0.0
 11
28.8646061633
 21
22.3793172264
 31
0.0
  0
LINE
  5
12B
330
1F
100
AcDbEntity
  8
0
  6
Continuous
 62
     7
370
    25
100
AcDbLine
 10
28.8646061633
 20
20.1173100527
 30
0.0
 11
28.8646061633
 21
17.2064705951
 31
0.0
  0
LWPOLYLINE
  5
12C
330
1F
100
AcDbEntity
  8
0
  6
Continuous
 62
     7
370
    25
100
AcDbPolyline
 90
       17
 70
   128
 43
0.0
 10
31.2433952683
 20
26.4777762538
 10
31.2338462914
 20
26.4531173913
 10
31.2245285698
 20
26.4407964245
 10
31.2168606423
 20
26.4426891088
 10
31.2120098812
 20
26.4585073002
 10
31.210714771
 20
26.4858428225
 10
31.2131724805
 20
26.5205340902
 10
31.2190088457
 20
26.5572996723
 10
31.2273353328
 20
26.5905423421
 10
31.2368843097
 20
26.6152012046
 10
31.2462020313
 20
26.6275221714
 10
31.2538699588
 20
26.6256294871
 10
31.2587207199
 20
26.6098112957
 10
31.2600158301
 20
26.5824757734
 10
31.2575581206
 20
26.5477845057
 10
31.2517217554
 20
26.5110189236
 10
31.2433952683
 20
26.4777762538
  0
LWPOLYLINE
  5
12D
330
1F
100
AcDbEntity
  8
0
  6
Continuous
 62
     7
370
    25
100
AcDbPolyline
 90
       10
 70
   128
 43
0.0
 10
31.1593923879
 20
26.4121546359
 10
31.1571493097
 20
26.4458705313
 10
31.1586074202
 20
26.4879337838
 10
31.1636371597
 20
26.5346068888
 10
31.1717916139
 20
26.5817427361
 10
31.1823462237
 20
26.6251530989
 10
31.1943631658
 20
26.6609807758
 10
31.206774682
 20
26.6860423207
 10
31.2184779547
 20
26.6981109052
 10
31.2276809719
 20
26.6968325636
  0
LWPOLYLINE
  5
12E
330
1F
100
AcDbEntity
  8
0
  6
Continuous
 62
     7
370
    25
100
AcDbPolyline
 90
        4
 70
   128
 43
0.0
 10
31.1786629015
 20
26.3813136449
 10
31.1738737232
 20
26.3807402478
 10
31.1651373473
 20
26.389781903
 10
31.1593923879
 20
26.4121546359
  0
LWPOLYLINE
  5
12F
330
1F
100
AcDbEntity
  8
0
  6
Continuous
 62
     7
370
    25
100
AcDbPolyline
 90
       12
 70
   128
 43
0.0
 10
31.0996689269
 20
26.3922113186
 10
31.0925472138
 20
26.3977461748
 10
31.0859951866
 20
26.416928485
 10
31.0828452734
 20
26.4480540079
 10
31.0833773579
 20
26.4883571044
 10
31.087544162
 20
26.5342566675
 10
31.0949754469
 20
26.5816743194
 10
31.1050109102
 20
26.6263967939
 10
31.1167588572
 20
26.6644503026
 10
31.129175431
 20
26.6924536245
 10
31.1411573647
 20
26.7079185415
 10
31.1488987342
 20
26.7104722798
  0
LINE
  5
130
330
1F
100
AcDbEntity
  8
0
  6
Continuous
 62
     7
370
    25
100
AcDbLine
 10
31.2547415633
 20
26.6169902838
 30
0.0
 11
31.2390980387
 21
26.566318366
 31
0.0
  0
LINE
  5
131
330
1F
100
AcDbEntity
  8
0
  6
Continuous
 62
     7
370
    25
100
AcDbLine
 10
31.2390980387
 20
26.566318366
 30
0.0
 11
31.2337195441
 21
26.6040838853
 31
0.0
  0
LINE
  5
132
330
1F
100
AcDbEntity
  8
0
  6
Continuous
 62
     7
370
    25
100
AcDbLine
 10
31.2337195441
 20
26.6040838853
 30
0.0
 11
31.2223424352
 21
26.5672315814
 31
0.0
  0
LINE
  5
133
330
1F
100
AcDbEntity
  8
0
  6
Continuous
 62
     7
370
    25
100
AcDbLine
 10
31.2223424352
 20
26.5672315814
 30
0.0
 11
31.2277209299
 21
26.5294660621
 31
0.0
  0
LINE
  5
134
330
1F
100
AcDbEntity
  8
0
  6
Continuous
 62
     7
370
    25
100
AcDbLine
 10
31.2277209299
 20
26.5294660621
 30
0.0
 11
31.2120774053
 21
26.4787941443
 31
0.0
  0
LINE
  5
135
330
1F
100
AcDbEntity
  8
0
  6
Continuous
 62
     7
370
    25
100
AcDbLine
 10
31.2120774053
 20
26.4787941443
 30
0.0
 11
31.2159890378
 21
26.451328312
 31
0.0
  0
LINE
  5
136
330
1F
100
AcDbEntity
  8
0
  6
Continuous
 62
     7
370
    25
100
AcDbLine
 10
31.2159890378
 20
26.451328312
 30
0.0
 11
31.2316325624
 21
26.5020002299
 31
0.0
  0
LINE
  5
137
330
1F
100
AcDbEntity
  8
0
  6
Continuous
 62
     7
370
    25
100
AcDbLine
 10
31.2316325624
 20
26.5020002299
 30
0.0
 11
31.237011057
 21
26.4642347106
 31
0.0
  0
LINE
  5
138
330
1F
100
AcDbEntity
  8
0
  6
Continuous
 62
     7
370
    25
100
AcDbLine
 10
31.237011057
 20
26.4642347106
 30
0.0
 11
31.2483881659
 21
26.5010870144
 31
0.0
  0
LINE
  5
139
330
1F
100
AcDbEntity
  8
0
  6
Continuous
 62
     7
370
    25
100
AcDbLine
 10
31.2483881659
 20
26.5010870144
 30
0.0
 11
31.2430096712
 21
26.5388525338
 31
0.0
  0
LINE
  5
13A
330
1F
100
AcDbEntity
  8
0
  6
Continuous
 62
     7
370
    25
100
AcDbLine
 10
31.2586531958
 20
26.5895244516
 30
0.0
 11
31.2430096712
 21
26.5388525338
 31
0.0
  0
LINE
  5
13B
330
1F
100
AcDbEntity
  8
0
  6
Continuous
 62
     7
370
    25
100
AcDbLine
 10
31.2586531958
 20
26.5895244516
 30
0.0
 11
31.2547415633
 21
26.6169902838
 31
0.0
  0
LINE
  5
13C
330
1F
100
AcDbEntity
  8
0
  6
Continuous
 62
     7
370
    25
100
AcDbLine
 10
31.2390980387
 20
26.566318366
 30
0.0
 11
31.2228370377
 21
26.568833679
 31
0.0
  0
LINE
  5
13D
330
1F
100
AcDbEntity
  8
0
  6
Continuous
 62
     7
370
    25
100
AcDbLine
 10
31.2316325624
 20
26.5020002299
 30
0.0
 11
31.2198063798
 21
26.5038295485
 31
0.0
  0
LINE
  5
13E
330
1F
100
AcDbEntity
  8
0
  6
Continuous
 62
     7
370
    25
100
AcDbLine
 10
31.2586531958
 20
26.5895244516
 30
0.0
 11
31.2438303672
 21
26.5816471467
 31
0.0
  0
LINE
  5
13F
330
1F
100
AcDbEntity
  8
0
  6
Continuous
 62
     7
370
    25
100
AcDbLine
 10
31.2483881659
 20
26.5010870144
 30
0.0
 11
31.2242197999
 21
26.5181253333
 31
0.0
  0
LINE
  5
140
330
1F
100
AcDbEntity
  8
0
  6
Continuous
 62
     7
370
    25
100
AcDbLine
 10
31.2430096712
 20
26.5388525338
 30
0.0
 11
31.2260096188
 21
26.541482166
 31
0.0
  0
LWPOLYLINE
  5
141
330
1F
100
AcDbEntity
  8
0
  6
Continuous
 62
     7
370
    25
100
AcDbPolyline
 90
       17
 70
   128
 43
0.0
 10
29.2252757027
 20
26.1311356113
 10
29.2013097706
 20
26.1323869729
 10
29.1749978948
 20
26.1465412635
 10
29.15034582
 20
26.1714436206
 10
29.1311066011
 20
26.2033028861
 10
29.1202092347
 20
26.2372687757
 10
29.1193127461
 20
26.2681702905
 10
29.1285536175
 20
26.291302955
 10
29.1465250101
 20
26.3031450309
 10
29.1704909422
 20
26.3018936692
 10
29.1968028179
 20
26.2877393787
 10
29.2214548927
 20
26.2628370215
 10
29.2406941117
 20
26.230977756
 10
29.2515914781
 20
26.1970118665
 10
29.2524879667
 20
26.1661103516
 10
29.2432470953
 20
26.1429776871
 10
29.2252757027
 20
26.1311356113
  0
LWPOLYLINE
  5
142
330
1F
100
AcDbEntity
  8
0
  6
Continuous
 62
     7
370
    25
100
AcDbPolyline
 90
       15
 70
   128
 43
0.0
 10
29.1052186684
 20
26.3381252016
 10
29.1170333574
 20
26.359158229
 10
29.1394967201
 20
26.3755705279
 10
29.168461423
 20
26.379278498
 10
29.2013538251
 20
26.36995267
 10
29.2352512923
 20
26.3484216844
 10
29.2671418857
 20
26.3165986639
 10
29.2941919863
 20
26.2773112236
 10
29.3139980738
 20
26.2340502248
 10
29.3248002905
 20
26.1906595973
 10
29.3256388119
 20
26.1509947886
 10
29.3164391319
 20
26.118580191
 10
29.2980186823
 20
26.0962959839
 10
29.272014201
 20
26.0861222168
 10
29.2521759618
 20
26.0864705278
  0
LWPOLYLINE
  5
143
330
1F
100
AcDbEntity
  8
0
  6
Continuous
 62
     7
370
    25
100
AcDbPolyline
 90
       13
 70
   128
 43
0.0
 10
29.1867126841
 20
26.4035375649
 10
29.1877344039
 20
26.4041126085
 10
29.215296064
 20
26.4110729396
 10
29.2474711836
 20
26.4049726395
 10
29.2814008623
 20
26.3863537466
 10
29.314070299
 20
26.3568706312
 10
29.3425766711
 20
26.3191429977
 10
29.3643870622
 20
26.2765231116
 10
29.3775635234
 20
26.2327979371
 10
29.3809352682
 20
26.1918526476
 10
29.3742027025
 20
26.1573254119
 10
29.3579640441
 20
26.1322841264
 10
29.3477225883
 20
26.1246300101
  0
LINE
  5
144
330
1F
100
AcDbEntity
  8
0
  6
Continuous
 62
     7
370
    25
100
AcDbLine
 10
29.2263567449
 20
26.2507266899
 30
0.0
 11
29.1896557357
 21
26.2414583376
 31
0.0
  0
LINE
  5
145
330
1F
100
AcDbEntity
  8
0
  6
Continuous
 62
     7
370
    25
100
AcDbLine
 10
29.1896557357
 20
26.2414583376
 30
0.0
 11
29.1632820196
 21
26.2990645307
 31
0.0
  0
LINE
  5
146
330
1F
100
AcDbEntity
  8
0
  6
Continuous
 62
     7
370
    25
100
AcDbLine
 10
29.1632820196
 20
26.2990645307
 30
0.0
 11
29.1365903765
 21
26.2923239108
 31
0.0
  0
LINE
  5
147
330
1F
100
AcDbEntity
  8
0
  6
Continuous
 62
     7
370
    25
100
AcDbLine
 10
29.1365903765
 20
26.2923239108
 30
0.0
 11
29.1629640926
 21
26.2347177177
 31
0.0
  0
LINE
  5
148
330
1F
100
AcDbEntity
  8
0
  6
Continuous
 62
     7
370
    25
100
AcDbLine
 10
29.1629640926
 20
26.2347177177
 30
0.0
 11
29.1262630834
 21
26.2254493654
 31
0.0
  0
LINE
  5
149
330
1F
100
AcDbEntity
  8
0
  6
Continuous
 62
     7
370
    25
100
AcDbLine
 10
29.1262630834
 20
26.2254493654
 30
0.0
 11
29.1454439679
 21
26.1835539523
 31
0.0
  0
LINE
  5
14A
330
1F
100
AcDbEntity
  8
0
  6
Continuous
 62
     7
370
    25
100
AcDbLine
 10
29.1454439679
 20
26.1835539523
 30
0.0
 11
29.1821449771
 21
26.1928223046
 31
0.0
  0
LINE
  5
14B
330
1F
100
AcDbEntity
  8
0
  6
Continuous
 62
     7
370
    25
100
AcDbLine
 10
29.1821449771
 20
26.1928223046
 30
0.0
 11
29.2085186932
 21
26.1352161115
 31
0.0
  0
LINE
  5
14C
330
1F
100
AcDbEntity
  8
0
  6
Continuous
 62
     7
370
    25
100
AcDbLine
 10
29.2085186932
 20
26.1352161115
 30
0.0
 11
29.2352103363
 21
26.1419567313
 31
0.0
  0
LINE
  5
14D
330
1F
100
AcDbEntity
  8
0
  6
Continuous
 62
     7
370
    25
100
AcDbLine
 10
29.2352103363
 20
26.1419567313
 30
0.0
 11
29.2088366202
 21
26.1995629244
 31
0.0
  0
LINE
  5
14E
330
1F
100
AcDbEntity
  8
0
  6
Continuous
 62
     7
370
    25
100
AcDbLine
 10
29.2455376294
 20
26.2088312767
 30
0.0
 11
29.2088366202
 21
26.1995629244
 31
0.0
  0
LINE
  5
14F
330
1F
100
AcDbEntity
  8
0
  6
Continuous
 62
     7
370
    25
100
AcDbLine
 10
29.2455376294
 20
26.2088312767
 30
0.0
 11
29.2263567449
 21
26.2507266899
 31
0.0
  0
LINE
  5
150
330
1F
100
AcDbEntity
  8
0
  6
Continuous
 62
     7
370
    25
100
AcDbLine
 10
29.2088366202
 20
26.1995629244
 30
0.0
 11
29.2412216329
 21
26.2182583944
 31
0.0
  0
LINE
  5
151
330
1F
100
AcDbEntity
  8
0
  6
Continuous
 62
     7
370
    25
100
AcDbLine
 10
29.1365903765
 20
26.2923239108
 30
0.0
 11
29.1738875748
 21
26.2758995864
 31
0.0
  0
LINE
  5
152
330
1F
100
AcDbEntity
  8
0
  6
Continuous
 62
     7
370
    25
100
AcDbLine
 10
29.2085186932
 20
26.1352161115
 30
0.0
 11
29.218326968
 21
26.1788338467
 31
0.0
  0
LINE
  5
153
330
1F
100
AcDbEntity
  8
0
  6
Continuous
 62
     7
370
    25
100
AcDbLine
 10
29.2250994369
 20
26.2089512487
 30
0.0
 11
29.2273394124
 21
26.2189124967
 31
0.0
  0
LINE
  5
154
330
1F
100
AcDbEntity
  8
0
  6
Continuous
 62
     7
370
    25
100
AcDbLine
 10
29.2395145031
 20
26.2219871541
 30
0.0
 11
29.2273394124
 21
26.2189124967
 31
0.0
  0
LINE
  5
155
330
1F
100
AcDbEntity
  8
0
  6
Continuous
 62
     7
370
    25
100
AcDbLine
 10
29.1629640926
 20
26.2347177177
 30
0.0
 11
29.1865168292
 21
26.2483144231
 31
0.0
  0
LINE
  5
156
330
1F
100
AcDbEntity
  8
0
  6
Continuous
 62
     7
370
    25
100
AcDbLine
 10
29.2273394124
 20
26.2189124967
 30
0.0
 11
29.2141816542
 21
26.2476520325
 31
0.0
  0
LINE
  5
157
330
1F
100
AcDbEntity
  8
0
  6
Continuous
 62
     7
370
    25
100
AcDbLine
 10
29.1454439679
 20
26.1835539523
 30
0.0
 11
29.2273394124
 21
26.2189124967
 31
0.0
  0
LINE
  5
158
330
1F
100
AcDbEntity
  8
0
  6
Continuous
 62
     7
370
    25
100
AcDbLine
 10
29.2386804119
 20
26.223808999
 30
0.0
 11
29.2273394124
 21
26.2189124967
 31
0.0
  0
LINE
  5
159
330
1F
100
AcDbEntity
  8
0
  6
Continuous
 62
     7
370
    25
100
AcDbLine
 10
29.1821449771
 20
26.1928223046
 30
0.0
 11
29.2273394124
 21
26.2189124967
 31
0.0
  0
LINE
  5
15A
330
1F
100
AcDbEntity
  8
0
  6
Continuous
 62
     7
370
    25
100
AcDbLine
 10
29.2350281415
 20
26.2317863879
 30
0.0
 11
29.2273394124
 21
26.2189124967
 31
0.0
  0
LINE
  5
15B
330
1F
100
AcDbEntity
  8
0
  6
Continuous
 62
     7
370
    25
100
AcDbLine
 10
29.2318133458
 20
26.2388082327
 30
0.0
 11
29.2273394124
 21
26.2189124967
 31
0.0
  0
LWPOLYLINE
  5
15C
330
1F
100
AcDbEntity
  8
0
  6
Continuous
 62
     7
370
    25
100
AcDbPolyline
 90
       56
 70
   128
 43
0.0
 10
30.815781487
 20
27.1867729144
 10
30.897856076
 20
27.2399008554
 10
30.9689050215
 20
27.2980834817
 10
31.0280020917
 20
27.3605622937
 10
31.0743768662
 20
27.4265227847
 10
31.1074247786
 20
27.4951050588
 10
31.126714999
 20
27.565415041
 10
31.1319960498
 20
27.6365361334
 10
31.1231990845
 20
27.7075411637
 10
31.1004387849
 20
27.7775044727
 10
31.0640118663
 20
27.8455139816
 10
31.0143932095
 20
27.9106830827
 10
30.9522296693
 20
27.9721621968
 10
30.8783316427
 20
28.0291498499
 10
30.7936625034
 20
28.0809031206
 10
30.6993260432
 20
28.1267473259
 10
30.596552082
 20
28.1660848166
 10
30.4866804357
 20
28.1984027682
 10
30.3711434491
 20
28.2232798668
 10
30.2514473236
 20
28.2403918015
 10
30.1291524812
 20
28.2495154919
 10
30.0058532222
 20
28.2505319968
 10
29.8831569411
 20
28.2434280646
 10
29.7626631714
 20
28.2282963058
 10
29.6459427338
 20
28.205333986
 10
29.5345172577
 20
28.1748404543
 10
29.4298393445
 20
28.1372132404
 10
29.3332736309
 20
28.0929428726
 10
29.2460789986
 20
28.0426064829
 10
29.1693921632
 20
27.986860283
 10
29.1042128546
 20
27.92643101
 10
29.051390785
 20
27.8621064518
 10
29.0116145707
 20
27.7947251774
 10
28.9854027555
 20
27.7251656048
 10
28.9730970506
 20
27.6543345494
 10
28.9748578796
 20
27.5831554023
 10
28.9906622874
 20
27.5125560925
 10
29.0203042394
 20
27.4434569901
 10
29.0633973074
 20
27.3767589074
 10
29.1193797074
 20
27.3133313561
 10
29.1875216231
 20
27.2540012112
 10
29.2669347206
 20
27.1995419319
 10
29.3565837286
 20
27.1506634782
 10
29.4552999352
 20
27.1080030555
 10
29.5617964236
 20
27.0721168076
 10
29.6746848494
 20
27.0434725667
 10
29.7924935391
 20
27.0224437542
 10
29.9136866765
 20
27.0093045129
 10
30.0366843236
 20
27.004226133
 10
30.1598830179
 20
27.0072748187
 10
30.2816766761
 20
27.0184108259
 10
30.4004775315
 20
27.0374889797
 10
30.5147368335
 20
27.0642605671
 10
30.6229650371
 20
27.0983765796
 10
30.7237512223
 20
27.1393922627
 10
30.815781487
 20
27.1867729144
  0
LWPOLYLINE
  5
15D
330
1F
100
AcDbEntity
  8
0
  6
Continuous
 62
     7
370
    25
100
AcDbPolyline
 90
       29
 70
   128
 43
0.0
 10
30.8369946905
 20
27.1500305684
 10
30.7441798434
 20
27.1021477749
 10
30.6426617683
 20
27.0605652124
 10
30.5337171138
 20
27.0258058058
 10
30.4187159221
 20
26.9983066749
 10
30.2991044
 20
26.9784136372
 10
30.1763867318
 20
26.966376859
 10
30.0521061633
 20
26.96234771
 10
29.9278255949
 20
26.966376859
 10
29.8051079267
 20
26.9784136372
 10
29.6854964046
 20
26.9983066749
 10
29.5704952129
 20
27.0258058058
 10
29.4615505584
 20
27.0605652124
 10
29.3600324833
 20
27.1021477749
 10
29.2672176362
 20
27.1500305684
 10
29.1842732178
 20
27.2036114391
 10
29.1122423022
 20
27.2622165764
 10
29.05203072
 20
27.3251089868
 10
29.0043956667
 20
27.3914977616
 10
28.9699361808
 20
27.4605480235
 10
28.9490856104
 20
27.5313914254
 10
28.9421061633
 20
27.6031370705
 10
28.9490856104
 20
27.6748827155
 10
28.9699361808
 20
27.7457261174
 10
29.0043956667
 20
27.8147763793
 10
29.05203072
 20
27.8811651541
 10
29.1122423022
 20
27.9440575645
 10
29.1842732178
 20
28.0026627018
 10
29.2670901009
 20
28.0561699359
  0
LWPOLYLINE
  5
15E
330
1F
100
AcDbEntity
  8
0
  6
Continuous
 62
     7
370
    25
100
AcDbPolyline
 90
       15
 70
   128
 43
0.0
 10
30.8371222258
 20
28.0561699359
 10
30.9199391089
 20
28.0026627018
 10
30.9919700245
 20
27.9440575645
 10
31.0521816067
 20
27.8811651541
 10
31.09981666
 20
27.8147763793
 10
31.1342761459
 20
27.7457261174
 10
31.1551267163
 20
27.6748827155
 10
31.1621061633
 20
27.6031370705
 10
31.1551267163
 20
27.5313914254
 10
31.1342761459
 20
27.4605480235
 10
31.09981666
 20
27.3914977616
 10
31.0521816067
 20
27.3251089868
 10
30.9919700245
 20
27.2622165764
 10
30.9199391089
 20
27.2036114391
 10
30.8369946905
 20
27.1500305684
  0
LWPOLYLINE
  5
15F
330
1F
100
AcDbEntity
  8
0
  6
Continuous
 62
     7
370
    25
100
AcDbPolyline
 90
       22
 70
   128
 43
0.0
 10
31.1400552541
 20
26.385964209
 10
31.1342761459
 20
26.3704660396
 10
31.09981666
 20
26.3014157777
 10
31.0521816067
 20
26.2350270029
 10
30.9919700245
 20
26.1721345926
 10
30.9199391089
 20
26.1135294552
 10
30.8369946905
 20
26.0599485845
 10
30.7441798434
 20
26.012065791
 10
30.6426617683
 20
25.9704832285
 10
30.5337171138
 20
25.935723822
 10
30.4187159221
 20
25.9082246911
 10
30.2991044
 20
25.8883316533
 10
30.1763867318
 20
25.8762948752
 10
30.0521061633
 20
25.8722657262
 10
29.9278255949
 20
25.8762948752
 10
29.8051079267
 20
25.8883316533
 10
29.6854964046
 20
25.9082246911
 10
29.5704952129
 20
25.935723822
 10
29.4615505584
 20
25.9704832285
 10
29.3600324833
 20
26.012065791
 10
29.2672176362
 20
26.0599485845
 10
29.2112567001
 20
26.0947416471
  0
ARC
  5
160
330
1F
100
AcDbEntity
  8
0
  6
Continuous
 62
     7
370
    25
100
AcDbCircle
 10
29.4470560095
 20
26.5480138869
 30
0.0
 40
0.5061585372869357
100
AcDbArc
 50
183.9603947245
 51
236.3680487909
  0
LWPOLYLINE
  5
161
330
1F
100
AcDbEntity
  8
0
  6
Continuous
 62
     7
370
    25
100
AcDbPolyline
 90
       35
 70
   128
 43
0.0
 10
30.3448483708
 20
27.4586368157
 10
30.3936551178
 20
27.4925673234
 10
30.4308308249
 20
27.5310973408
 10
30.4551095178
 20
27.5729147744
 10
30.4656644149
 20
27.6165955815
 10
30.4621360817
 20
27.6606522648
 10
30.4446446714
 20
27.7035845266
 10
30.4137858331
 20
27.7439303603
 10
30.3706104273
 20
27.7803158369
 10
30.3165887409
 20
27.8115018927
 10
30.2535604175
 20
27.8364265239
 10
30.1836718111
 20
27.8542409521
 10
30.1093028943
 20
27.8643385283
 10
30.0329862115
 20
27.8663753917
 10
29.9573206357
 20
27.8602821793
 10
29.8848828673
 20
27.8462663882
 10
29.8181396878
 20
27.8248053093
 10
29.7593639559
 20
27.796629774
 10
29.7105572089
 20
27.7626992662
 10
29.6733815018
 20
27.7241692488
 10
29.6491028088
 20
27.6823518152
 10
29.6385479118
 20
27.6386710081
 10
29.642076245
 20
27.5946143249
 10
29.6595676552
 20
27.5516820631
 10
29.6904264936
 20
27.5113362294
 10
29.7336018994
 20
27.4749507527
 10
29.7876235858
 20
27.443764697
 10
29.8506519092
 20
27.4188400658
 10
29.9205405156
 20
27.4010256376
 10
29.9949094324
 20
27.3909280613
 10
30.0712261152
 20
27.3888911979
 10
30.146891691
 20
27.3949844103
 10
30.2193294594
 20
27.4090002014
 10
30.2860726389
 20
27.4304612803
 10
30.3448483708
 20
27.4586368157
  0
LWPOLYLINE
  5
162
330
1F
100
AcDbEntity
  8
0
  6
Continuous
 62
     7
370
    25
100
AcDbPolyline
 90
       17
 70
   128
 43
0.0
 10
30.460020829
 20
27.5868062542
 10
30.4446446714
 20
27.6219304454
 10
30.4137858331
 20
27.6622762791
 10
30.3706104273
 20
27.6986617557
 10
30.3165887409
 20
27.7298478115
 10
30.2535604175
 20
27.7547724427
 10
30.1836718111
 20
27.7725868709
 10
30.1093028943
 20
27.7826844471
 10
30.0329862115
 20
27.7847213105
 10
29.9573206357
 20
27.7786280981
 10
29.8848828673
 20
27.764612307
 10
29.8181396878
 20
27.7431512281
 10
29.7593639559
 20
27.7149756928
 10
29.7105572089
 20
27.681045185
 10
29.6733815018
 20
27.6425151676
 10
29.6491028088
 20
27.600697734
 10
29.6441914977
 20
27.5868062542
  0
ARC
  5
163
330
1F
100
AcDbEntity
  8
0
  6
Continuous
 62
     7
370
    25
100
AcDbCircle
 10
29.2759159855
 20
22.3633777672
 30
0.0
 40
0.492482979097241
100
AcDbArc
 50
146.6341388471
 51
170.0758463109
  0
SPLINE
  5
164
330
1F
100
AcDbEntity
  8
0
  6
Continuous
 62
     7
370
    25
100
AcDbSpline
210
0.0
220
0.0
230
1.0
 70
     8
 71
     3
 72
    12
 73
     8
 74
     0
 42
0.00000001
 43
0.00000001
 40
0.0
 40
0.0
 40
0.0
 40
0.0
 40
0.1140310720544651
 40
0.3297842308468664
 40
0.5453472673578766
 40
0.7607940999645827
 40
1.0
 40
1.0
 40
1.0
 40
1.0
 10
28.84445951594315
 20
22.41055090572871
 30
0.0
 10
28.84094536937901
 20
22.41086591626227
 30
0.0
 10
28.83078226119406
 20
22.41177694432374
 30
0.0
 10
28.81515262870303
 20
22.41622873812258
 30
0.0
 10
28.80074785171207
 20
22.42455239098879
 30
0.0
 10
28.79110420516664
 20
22.43564171551315
 30
0.0
 10
28.79090628104058
 20
22.44390623416428
 30
0.0
 10
28.79080214745617
 20
22.44825443550647
 30
0.0
  0
SPLINE
  5
165
330
1F
100
AcDbEntity
  8
0
  6
Continuous
 62
     7
370
    25
100
AcDbSpline
210
0.0
220
0.0
230
1.0
 70
     8
 71
     3
 72
     9
 73
     5
 74
     0
 42
0.00000001
 43
0.00000001
 40
0.0
 40
0.0
 40
0.0
 40
0.0
 40
0.8248120126419491
 40
1.0
 40
1.0
 40
1.0
 40
1.0
 10
28.86460616334403
 20
22.40700246056282
 30
0.0
 10
28.8592228048137
 20
22.40835984329741
 30
0.0
 10
28.85269603453417
 20
22.41000553069503
 30
0.0
 10
28.84568735279165
 20
22.4104696054129
 30
0.0
 10
28.84445951594315
 20
22.41055090572871
 30
0.0
  0
SPLINE
  5
166
330
1F
100
AcDbEntity
  8
0
  6
Continuous
 62
     7
370
    25
100
AcDbSpline
210
0.0
220
0.0
230
1.0
 70
     8
 71
     3
 72
     9
 73
     5
 74
     0
 42
0.00000001
 43
0.00000001
 40
0.0
 40
0.0
 40
0.0
 40
0.0
 40
0.914668592638827
 40
1.0
 40
1.0
 40
1.0
 40
1.0
 10
28.85917749660201
 20
22.26640045305232
 30
0.0
 10
28.86593532994758
 20
22.26735721991709
 30
0.0
 10
28.87332361615305
 20
22.2684032456279
 30
0.0
 10
28.87876206055962
 20
22.27126169140795
 30
0.0
 10
28.87922613067469
 20
22.27150560660922
 30
0.0
  0
SPLINE
  5
167
330
1F
100
AcDbEntity
  8
0
  6
Continuous
 62
     7
370
    25
100
AcDbSpline
210
0.0
220
0.0
230
1.0
 70
     8
 71
     3
 72
    12
 73
     8
 74
     0
 42
0.00000001
 43
0.00000001
 40
0.0
 40
0.0
 40
0.0
 40
0.0
 40
0.2156883841321432
 40
0.4313850930993797
 40
0.6468917445481034
 40
0.8622822096388103
 40
1.0
 40
1.0
 40
1.0
 40
1.0
 10
28.8135641853139
 20
22.2253190928751
 30
0.0
 10
28.81279159691551
 20
22.22920634572061
 30
0.0
 10
28.81124639029946
 20
22.2369810014463
 30
0.0
 10
28.81757030767371
 20
22.24838271686919
 30
0.0
 10
28.82959263357206
 20
22.25788309964958
 30
0.0
 10
28.8444534450424
 20
22.2639355078681
 30
0.0
 10
28.85504616766531
 20
22.26570882960033
 30
0.0
 10
28.85917749660201
 20
22.26640045305232
 30
0.0
  0
ARC
  5
168
330
1F
100
AcDbEntity
  8
0
  6
Continuous
 62
     7
370
    25
100
AcDbCircle
 10
29.4487568141
 20
22.4927487705
 30
0.0
 40
0.6891939553312108
100
AcDbArc
 50
202.8321332543
 51
237.2370915456
  0
SPLINE
  5
169
330
1F
100
AcDbEntity
  8
0
  6
Continuous
 62
     7
370
    25
100
AcDbSpline
210
0.0
220
0.0
230
1.0
 70
     8
 71
     3
 72
    12
 73
     8
 74
     0
 42
0.00000001
 43
0.00000001
 40
0.0
 40
0.0
 40
0.0
 40
0.0
 40
0.1140310720546536
 40
0.3297842308467209
 40
0.5453472673578688
 40
0.7607940999646512
 40
0.9999999999999999
 40
0.9999999999999999
 40
0.9999999999999999
 40
0.9999999999999999
 10
29.15991359586227
 20
21.90843651328219
 30
0.0
 10
29.15704286965368
 20
21.90722477048607
 30
0.0
 10
29.14874056908232
 20
21.90372034262443
 30
0.0
 10
29.13223584750351
 20
21.9004881568328
 30
0.0
 10
29.11185467615372
 20
21.90049377982652
 30
0.0
 10
29.09145252319426
 20
21.90439854076286
 30
0.0
 10
29.08118954601937
 20
21.91016164451329
 30
0.0
 10
29.07578989807732
 20
21.9131937794168
 30
0.0
  0
SPLINE
  5
16A
330
1F
100
AcDbEntity
  8
0
  6
Continuous
 62
     7
370
    25
100
AcDbSpline
210
0.0
220
0.0
230
1.0
 70
     8
 71
     3
 72
     9
 73
     5
 74
     0
 42
0.00000001
 43
0.00000001
 40
0.0
 40
0.0
 40
0.0
 40
0.0
 40
0.8321870323124256
 40
1.0
 40
1.0
 40
1.0
 40
1.0
 10
29.17933996617434
 20
21.91438658582919
 30
0.0
 10
29.17357695251255
 20
21.91308514899645
 30
0.0
 10
29.16665181016111
 20
21.91152127359079
 30
0.0
 10
29.16088186712632
 20
21.90887978870069
 30
0.0
 10
29.15991359586227
 20
21.90843651328219
 30
0.0
  0
SPLINE
  5
16B
330
1F
100
AcDbEntity
  8
0
  6
Continuous
 62
     7
370
    25
100
AcDbSpline
210
0.0
220
0.0
230
1.0
 70
     8
 71
     3
 72
     9
 73
     5
 74
     0
 42
0.00000001
 43
0.00000001
 40
0.0
 40
0.0
 40
0.0
 40
0.0
 40
0.9146685926387408
 40
1.0
 40
1.0
 40
1.0
 40
1.0
 10
29.34688743878093
 20
21.81251469008338
 30
0.0
 10
29.35049402627473
 20
21.81594980140231
 30
0.0
 10
29.35443708010081
 20
21.81970538167102
 30
0.0
 10
29.35478139484324
 20
21.82394660313035
 30
0.0
 10
29.35481077570478
 20
21.82430851252641
 30
0.0
  0
SPLINE
  5
16C
330
1F
100
AcDbEntity
  8
0
  6
Continuous
 62
     7
370
    25
100
AcDbSpline
210
0.0
220
0.0
230
1.0
 70
     8
 71
     3
 72
    12
 73
     8
 74
     0
 42
0.00000001
 43
0.00000001
 40
0.0
 40
0.0
 40
0.0
 40
0.0
 40
0.2156883841321468
 40
0.4313850930993063
 40
0.6468917445480832
 40
0.8622822096388091
 40
1.0
 40
1.0
 40
1.0
 40
1.0
 10
29.36495359448106
 20
21.76484624305034
 30
0.0
 10
29.3596458830906
 20
21.76727957217981
 30
0.0
 10
29.34903025545013
 20
21.77214632435695
 30
0.0
 10
29.33953623460655
 20
21.78279000337104
 30
0.0
 10
29.33640049681624
 20
21.79441535065212
 30
0.0
 10
29.33949521819189
 20
21.80476129306228
 30
0.0
 10
29.34481330214113
 20
21.81033921322219
 30
0.0
 10
29.34688743878093
 20
21.81251469008338
 30
0.0
  0
ARC
  5
16D
330
1F
100
AcDbEntity
  8
0
  6
Continuous
 62
     7
370
    25
100
AcDbCircle
 10
30.0258200461
 20
23.5910646563
 30
0.0
 40
1.942116927411107
100
AcDbArc
 50
250.1059748088
 51
267.2514639433
  0
SPLINE
  5
16E
330
1F
100
AcDbEntity
  8
0
  6
Continuous
 62
     7
370
    25
100
AcDbSpline
210
0.0
220
0.0
230
1.0
 70
     8
 71
     3
 72
    12
 73
     8
 74
     0
 42
0.00000001
 43
0.00000001
 40
0.0
 40
0.0
 40
0.0
 40
0.0
 40
0.1140310720544546
 40
0.329784230846773
 40
0.5453472673577913
 40
0.7607940999646051
 40
1.0
 40
1.0
 40
1.0
 40
1.0
 10
29.99800198156371
 20
21.68215765632865
 30
0.0
 10
29.99745630818981
 20
21.68012898269871
 30
0.0
 10
29.99587819030786
 20
21.67426194522694
 30
0.0
 10
29.98816662169894
 20
21.66523915044546
 30
0.0
 10
29.97374806974996
 20
21.65692344969325
 30
0.0
 10
29.95453871487853
 20
21.65135629104287
 30
0.0
 10
29.94022259749354
 20
21.65124203187698
 30
0.0
 10
29.93269047572626
 20
21.65118191683828
 30
0.0
  0
SPLINE
  5
16F
330
1F
100
AcDbEntity
  8
0
  6
Continuous
 62
     7
370
    25
100
AcDbSpline
210
0.0
220
0.0
230
1.0
 70
     8
 71
     3
 72
     9
 73
     5
 74
     0
 42
0.00000001
 43
0.00000001
 40
0.0
 40
0.0
 40
0.0
 40
0.0
 40
0.8321870323128373
 40
1.0
 40
1.0
 40
1.0
 40
1.0
 10
30.00445038922693
 20
21.69429491612822
 30
0.0
 10
30.0019694239971
 20
21.69102217576749
 30
0.0
 10
29.99898816481678
 20
21.68708947766759
 30
0.0
 10
29.99814369461448
 20
21.68286635164022
 30
0.0
 10
29.99800198156371
 20
21.68215765632865
 30
0.0
  0
SPLINE
  5
170
330
1F
100
AcDbEntity
  8
0
  6
Continuous
 62
     7
370
    25
100
AcDbSpline
210
0.0
220
0.0
230
1.0
 70
     8
 71
     3
 72
     9
 73
     5
 74
     0
 42
0.00000001
 43
0.00000001
 40
0.0
 40
0.0
 40
0.0
 40
0.0
 40
0.9146685926383703
 40
1.0
 40
1.0
 40
1.0
 40
1.0
 10
30.24770494536945
 20
21.69065416570973
 30
0.0
 10
30.24604759697151
 20
21.69455537986045
 30
0.0
 10
30.24423563096406
 20
21.69882054670023
 30
0.0
 10
30.23928412113595
 20
21.701960093829
 30
0.0
 10
30.23886160183375
 20
21.70222799580398
 30
0.0
  0
SPLINE
  5
171
330
1F
100
AcDbEntity
  8
0
  6
Continuous
 62
     7
370
    25
100
AcDbSpline
210
0.0
220
0.0
230
1.0
 70
     8
 71
     3
 72
    12
 73
     8
 74
     0
 42
0.00000001
 43
0.00000001
 40
0.0
 40
0.0
 40
0.0
 40
0.0
 40
0.2156883841321942
 40
0.4313850930994006
 40
0.6468917445480515
 40
0.8622822096388166
 40
1.0
 40
1.0
 40
1.0
 40
1.0
 10
30.31886765906866
 20
21.66432216159556
 30
0.0
 10
30.31213401003348
 20
21.66387615580667
 30
0.0
 10
30.29866645206727
 20
21.66298412701459
 30
0.0
 10
30.27891596165461
 20
21.666634846807
 30
0.0
 10
30.26245903284511
 20
21.6735751878188
 30
0.0
 10
30.251974818316
 20
21.68215415167225
 30
0.0
 10
30.24890300213994
 20
21.68826920027999
 30
0.0
 10
30.24770494536945
 20
21.69065416570973
 30
0.0
  0
ARC
  5
172
330
1F
100
AcDbEntity
  8
0
  6
Continuous
 62
     7
370
    25
100
AcDbCircle
 10
30.1175887999
 20
23.4244621977
 30
0.0
 40
1.771611166693634
100
AcDbArc
 50
276.5236575122
 51
294.7589773872
  0
SPLINE
  5
173
330
1F
100
AcDbEntity
  8
0
  6
Continuous
 62
     7
370
    25
100
AcDbSpline
210
0.0
220
0.0
230
1.0
 70
     8
 71
     3
 72
    12
 73
     8
 74
     0
 42
0.00000001
 43
0.00000001
 40
0.0
 40
0.0
 40
0.0
 40
0.0
 40
0.1140310720544543
 40
0.3297842308467717
 40
0.5453472673577845
 40
0.7607940999645628
 40
0.9999999999999999
 40
0.9999999999999999
 40
0.9999999999999999
 40
0.9999999999999999
 10
30.86778386317099
 20
21.86426542039321
 30
0.0
 10
30.86988289069356
 20
21.86260818542823
 30
0.0
 10
30.87595339555324
 20
21.85781536932634
 30
0.0
 10
30.88155231221814
 20
21.8482873963675
 30
0.0
 10
30.88154257185191
 20
21.83652159658935
 30
0.0
 10
30.87477859462776
 20
21.82474368438577
 30
0.0
 10
30.86479552443626
 20
21.81881899377329
 30
0.0
 10
30.85954314362157
 20
21.81570184336676
 30
0.0
  0
SPLINE
  5
174
330
1F
100
AcDbEntity
  8
0
  6
Continuous
 62
     7
370
    25
100
AcDbSpline
210
0.0
220
0.0
230
1.0
 70
     8
 71
     3
 72
     9
 73
     5
 74
     0
 42
0.00000001
 43
0.00000001
 40
0.0
 40
0.0
 40
0.0
 40
0.0
 40
0.8321870323123686
 40
1.0
 40
1.0
 40
1.0
 40
1.0
 10
30.85747691843194
 20
21.87548002526477
 30
0.0
 10
30.85973131741791
 20
21.87215310829324
 30
0.0
 10
30.86244032260357
 20
21.86815530870932
 30
0.0
 10
30.86701600442529
 20
21.86482439149591
 30
0.0
 10
30.86778386317099
 20
21.86426542039321
 30
0.0
  0
SPLINE
  5
175
330
1F
100
AcDbEntity
  8
0
  6
Continuous
 62
     7
370
    25
100
AcDbSpline
210
0.0
220
0.0
230
1.0
 70
     8
 71
     3
 72
     9
 73
     5
 74
     0
 42
0.00000001
 43
0.00000001
 40
0.0
 40
0.0
 40
0.0
 40
0.0
 40
0.9146685926382812
 40
1.0
 40
1.0
 40
1.0
 40
1.0
 10
31.03394333823114
 20
21.97220312239156
 30
0.0
 10
31.02799290615539
 20
21.9742851610343
 30
0.0
 10
31.02148734542702
 20
21.9765614375562
 30
0.0
 10
31.01414053833145
 20
21.97676020622608
 30
0.0
 10
31.01351362494237
 20
21.97677716743642
 30
0.0
  0
SPLINE
  5
176
330
1F
100
AcDbEntity
  8
0
  6
Continuous
 62
     7
370
    25
100
AcDbSpline
210
0.0
220
0.0
230
1.0
 70
     8
 71
     3
 72
    12
 73
     8
 74
     0
 42
0.00000001
 43
0.00000001
 40
0.0
 40
0.0
 40
0.0
 40
0.0
 40
0.2156883841322632
 40
0.4313850930994516
 40
0.6468917445481522
 40
0.8622822096389142
 40
1.0
 40
1.0
 40
1.0
 40
1.0
 10
31.1165164573797
 20
21.98263249208188
 30
0.0
 10
31.11230135098036
 20
21.97956841551687
 30
0.0
 10
31.10387097549296
 20
21.97344014412395
 30
0.0
 10
31.08543358493143
 20
21.96795936255267
 30
0.0
 10
31.06529571080436
 20
21.96614913965799
 30
0.0
 10
31.0473740710508
 20
21.96793568428049
 30
0.0
 10
31.03771178300426
 20
21.97100574879622
 30
0.0
 10
31.03394333823114
 20
21.97220312239156
 30
0.0
  0
ARC
  5
177
330
1F
100
AcDbEntity
  8
0
  6
Continuous
 62
     7
370
    25
100
AcDbCircle
 10
30.7516330648
 20
22.4248510507
 30
0.0
 40
0.5733211524326512
100
AcDbArc
 50
309.5267232579
 51
348.4827458721
  0
SPLINE
  5
178
330
1F
100
AcDbEntity
  8
0
  6
Continuous
 62
     7
370
    25
100
AcDbSpline
210
0.0
220
0.0
230
1.0
 70
     8
 71
     3
 72
    12
 73
     8
 74
     0
 42
0.00000001
 43
0.00000001
 40
0.0
 40
0.0
 40
0.0
 40
0.0
 40
0.1140310720544544
 40
0.3297842308468986
 40
0.5453472673579344
 40
0.7607940999646265
 40
1.0
 40
1.0
 40
1.0
 40
1.0
 10
31.25975281074491
 20
22.34808354710026
 30
0.0
 10
31.26326695730904
 20
22.34776853656669
 30
0.0
 10
31.273430065494
 20
22.34685750850523
 30
0.0
 10
31.28905969798502
 20
22.34240571470638
 30
0.0
 10
31.30346447497598
 20
22.33408206184017
 30
0.0
 10
31.31310812152142
 20
22.32299273731581
 30
0.0
 10
31.31330604564748
 20
22.31472821866468
 30
0.0
 10
31.31341017923189
 20
22.3103800173225
 30
0.0
  0
SPLINE
  5
179
330
1F
100
AcDbEntity
  8
0
  6
Continuous
 62
     7
370
    25
100
AcDbSpline
210
0.0
220
0.0
230
1.0
 70
     8
 71
     3
 72
     9
 73
     5
 74
     0
 42
0.00000001
 43
0.00000001
 40
0.0
 40
0.0
 40
0.0
 40
0.0
 40
0.8321870323128405
 40
1.0
 40
1.0
 40
1.0
 40
1.0
 10
31.23872818204508
 20
22.35180613360676
 30
0.0
 10
31.24439734889589
 20
22.35037390286547
 30
0.0
 10
31.25120971995034
 20
22.34865285857413
 30
0.0
 10
31.25852518144199
 20
22.34816535630311
 30
0.0
 10
31.25975281074491
 20
22.34808354710026
 30
0.0
  0
LINE
  5
17A
330
1F
100
AcDbEntity
  8
0
  6
Continuous
 62
     7
370
    25
100
AcDbLine
 10
31.2450348301
 20
22.4922339998
 30
0.0
 11
31.2396061633
 21
22.4909566085
 31
0.0
  0
SPLINE
  5
17B
330
1F
100
AcDbEntity
  8
0
  6
Continuous
 62
     7
370
    25
100
AcDbSpline
210
0.0
220
0.0
230
1.0
 70
     8
 71
     3
 72
    12
 73
     8
 74
     0
 42
0.00000001
 43
0.00000001
 40
0.0
 40
0.0
 40
0.0
 40
0.0
 40
0.2156883841322027
 40
0.4313850930994159
 40
0.6468917445479891
 40
0.8622822096388478
 40
0.9999999999999999
 40
0.9999999999999999
 40
0.9999999999999999
 40
0.9999999999999999
 10
31.29064814137417
 20
22.53331535995387
 30
0.0
 10
31.29142072977255
 20
22.52942810710836
 30
0.0
 10
31.29296593638859
 20
22.52165345138267
 30
0.0
 10
31.28664201901434
 20
22.51025173595978
 30
0.0
 10
31.274619693116
 20
22.50075135317939
 30
0.0
 10
31.25975888164566
 20
22.49469894496086
 30
0.0
 10
31.24916615902274
 20
22.49292562322864
 30
0.0
 10
31.24503483008604
 20
22.49223399977665
 30
0.0
  0
ARC
  5
17C
330
1F
100
AcDbEntity
  8
0
  6
Continuous
 62
     7
370
    25
100
AcDbCircle
 10
30.7941277481
 20
22.345558896
 30
0.0
 40
0.5308342402958249
100
AcDbArc
 50
20.7138367776
 51
32.9438016169
  0
LWPOLYLINE
  5
17D
330
1F
100
AcDbEntity
  8
0
  6
Continuous
 62
     7
370
    25
100
AcDbPolyline
 90
       52
 70
   128
 43
0.0
 10
28.0841896147
 20
21.1009526318
 10
28.2398954913
 20
21.0264057251
 10
28.4040507307
 20
20.9581667165
 10
28.5758899652
 20
20.8965537675
 10
28.7546120011
 20
20.8418541463
 10
28.9393835538
 20
20.7943228877
 10
29.1293431329
 20
20.7541816043
 10
29.3236050592
 20
20.7216174534
 10
29.5212635939
 20
20.6967822641
 10
29.7213971618
 20
20.6797918294
 10
29.9230726477
 20
20.6707253667
 10
30.1253497474
 20
20.669625148
 10
30.3272853517
 20
20.6764963029
 10
30.5279379436
 20
20.6913067951
 10
30.7263719881
 20
20.7139875711
 10
30.921662294
 20
20.7444328827
 10
31.1128983279
 20
20.7825007798
 10
31.299188459
 20
20.8280137723
 10
31.4796641168
 20
20.8807596576
 10
31.6534838404
 20
20.9404925101
 10
31.819837202
 20
21.0069338275
 10
31.9779485856
 20
21.07977383
 10
32.1270808027
 20
21.1586729036
 10
32.2665385303
 20
21.2432631845
 10
32.3956715519
 20
21.3331502738
 10
32.5138777898
 20
21.4279150763
 10
32.620606112
 20
21.5271157549
 10
32.7153589018
 20
21.6302897901
 10
32.7976943779
 20
21.736956137
 10
32.8672286544
 20
21.8466174678
 10
32.9236375303
 20
21.9587624907
 10
32.9666580014
 20
22.072868334
 10
32.9960894864
 20
22.1884029835
 10
33.0117947621
 20
22.3048277634
 10
33.0137006034
 20
22.4215998475
 10
33.0017981243
 20
22.5381747905
 10
32.9761428196
 20
22.6540090662
 10
32.9368543062
 20
22.7685626017
 10
32.8841157653
 20
22.8813012956
 10
32.8181730884
 20
22.9916995081
 10
32.7393337305
 20
23.0992425116
 10
32.6479652773
 20
23.2034288912
 10
32.5444937306
 20
23.3037728818
 10
32.4294015225
 20
23.3998066333
 10
32.3032252661
 20
23.4910823922
 10
32.1665532532
 20
23.5771745886
 10
32.020022712
 20
23.6576818211
 10
31.8643168353
 20
23.7322287277
 10
31.700161596
 20
23.8004677363
 10
31.5283223615
 20
23.8620806853
 10
31.3496003255
 20
23.9167803065
 10
31.2396061633
 20
23.9461243608
  0
LWPOLYLINE
  5
17E
330
1F
100
AcDbEntity
  8
0
  6
Continuous
 62
     7
370
    25
100
AcDbPolyline
 90
       31
 70
   128
 43
0.0
 10
28.8646061633
 20
23.9461243608
 10
28.8050238677
 20
23.9306206805
 10
28.6245482099
 20
23.8778747952
 10
28.4507284863
 20
23.8181419428
 10
28.2843751247
 20
23.7517006253
 10
28.1262637411
 20
23.6788606229
 10
27.977131524
 20
23.5999615493
 10
27.8376737964
 20
23.5153712684
 10
27.7085407748
 20
23.4254841791
 10
27.5903345369
 20
23.3307193765
 10
27.4836062147
 20
23.231518698
 10
27.3888534249
 20
23.1283446628
 10
27.3065179487
 20
23.0216783159
 10
27.2369836723
 20
22.9120169851
 10
27.1805747964
 20
22.7998719621
 10
27.1375543253
 20
22.6857661188
 10
27.1081228403
 20
22.5702314693
 10
27.0924175645
 20
22.4538066895
 10
27.0905117233
 20
22.3370346054
 10
27.1024142024
 20
22.2204596624
 10
27.1280695071
 20
22.1046253867
 10
27.1673580205
 20
21.9900718511
 10
27.2200965614
 20
21.8773331572
 10
27.2860392383
 20
21.7669349448
 10
27.3648785961
 20
21.6593919412
 10
27.4562470494
 20
21.5552055616
 10
27.5597185961
 20
21.4548615711
 10
27.6748108041
 20
21.3588278195
 10
27.8009870606
 20
21.2675520607
 10
27.9376590734
 20
21.1814598642
 10
28.0841896147
 20
21.1009526318
  0
LWPOLYLINE
  5
17F
330
1F
100
AcDbEntity
  8
0
  6
Continuous
 62
     7
370
    25
100
AcDbPolyline
 90
       21
 70
   128
 43
0.0
 10
31.7505888432
 20
21.3882499679
 10
31.7914310908
 20
21.3731558514
 10
31.8383541233
 20
21.366086412
 10
31.8867647873
 20
21.3677336558
 10
31.9319243098
 20
21.3779363391
 10
31.969412162
 20
21.3956957521
 10
31.9955587718
 20
21.4192734798
 10
32.0078047268
 20
21.4463615699
 10
32.0049513077
 20
21.4743084513
 10
31.9872778269
 20
21.5003784887
 10
31.956514288
 20
21.5220197652
 10
31.9156720404
 20
21.5371138817
 10
31.8687490079
 20
21.5441833211
 10
31.8203383439
 20
21.5425360773
 10
31.7751788214
 20
21.532333394
 10
31.7376909692
 20
21.514573981
 10
31.7115443594
 20
21.4909962533
 10
31.6992984044
 20
21.4639081633
 10
31.7021518235
 20
21.4359612818
 10
31.7198253043
 20
21.4098912444
 10
31.7505888432
 20
21.3882499679
  0
LWPOLYLINE
  5
180
330
1F
100
AcDbEntity
  8
0
  6
Continuous
 62
     7
370
    25
100
AcDbPolyline
 90
       21
 70
   128
 43
0.0
 10
32.2261015157
 20
21.8565716749
 10
32.2669437633
 20
21.8414775583
 10
32.3138667958
 20
21.834408119
 10
32.3622774598
 20
21.8360553628
 10
32.4074369823
 20
21.846258046
 10
32.4449248345
 20
21.864017459
 10
32.4710714443
 20
21.8875951867
 10
32.4833173993
 20
21.9146832768
 10
32.4804639802
 20
21.9426301583
 10
32.4627904994
 20
21.9687001957
 10
32.4320269605
 20
21.9903414721
 10
32.3911847129
 20
22.0054355886
 10
32.3442616804
 20
22.012505028
 10
32.2958510164
 20
22.0108577842
 10
32.2506914939
 20
22.0006551009
 10
32.2132036417
 20
21.9828956879
 10
32.1870570319
 20
21.9593179602
 10
32.1748110769
 20
21.9322298702
 10
32.177664496
 20
21.9042829887
 10
32.1953379768
 20
21.8782129513
 10
32.2261015157
 20
21.8565716749
  0
LWPOLYLINE
  5
181
330
1F
100
AcDbEntity
  8
0
  6
Continuous
 62
     7
370
    25
100
AcDbPolyline
 90
       21
 70
   128
 43
0.0
 10
32.354967962
 20
22.3942940338
 10
32.3958102096
 20
22.3791999173
 10
32.4427332421
 20
22.3721304779
 10
32.4911439061
 20
22.3737777217
 10
32.5363034286
 20
22.383980405
 10
32.5737912808
 20
22.401739818
 10
32.5999378906
 20
22.4253175457
 10
32.6121838456
 20
22.4524056357
 10
32.6093304264
 20
22.4803525172
 10
32.5916569457
 20
22.5064225546
 10
32.5608934067
 20
22.528063831
 10
32.5200511591
 20
22.5431579476
 10
32.4731281267
 20
22.5502273869
 10
32.4247174626
 20
22.5485801431
 10
32.3795579402
 20
22.5383774599
 10
32.342070088
 20
22.5206180469
 10
32.3159234782
 20
22.4970403192
 10
32.3036775231
 20
22.4699522291
 10
32.3065309423
 20
22.4420053476
 10
32.324204423
 20
22.4159353102
 10
32.354967962
 20
22.3942940338
  0
LWPOLYLINE
  5
182
330
1F
100
AcDbEntity
  8
0
  6
Continuous
 62
     7
370
    25
100
AcDbPolyline
 90
       21
 70
   128
 43
0.0
 10
32.1175694338
 20
22.9195536901
 10
32.1584116814
 20
22.9044595735
 10
32.2053347139
 20
22.8973901342
 10
32.2537453779
 20
22.899037378
 10
32.2989049004
 20
22.9092400613
 10
32.3363927526
 20
22.9269994743
 10
32.3625393624
 20
22.9505772019
 10
32.3747853174
 20
22.977665292
 10
32.3719318982
 20
23.0056121735
 10
32.3542584175
 20
23.0316822109
 10
32.3234948785
 20
23.0533234873
 10
32.2826526309
 20
23.0684176039
 10
32.2357295985
 20
23.0754870432
 10
32.1873189344
 20
23.0738397994
 10
32.142159412
 20
23.0636371161
 10
32.1046715597
 20
23.0458777031
 10
32.07852495
 20
23.0222999755
 10
32.0662789949
 20
22.9952118854
 10
32.0691324141
 20
22.9672650039
 10
32.0868058948
 20
22.9411949665
 10
32.1175694338
 20
22.9195536901
  0
LWPOLYLINE
  5
183
330
1F
100
AcDbEntity
  8
0
  6
Continuous
 62
     7
370
    25
100
AcDbPolyline
 90
       21
 70
   128
 43
0.0
 10
31.550047705
 20
23.3523846225
 10
31.5908899526
 20
23.337290506
 10
31.6378129851
 20
23.3302210666
 10
31.6862236491
 20
23.3318683104
 10
31.7313831716
 20
23.3420709937
 10
31.7688710238
 20
23.3598304067
 10
31.7950176336
 20
23.3834081344
 10
31.8072635886
 20
23.4104962244
 10
31.8044101695
 20
23.4384431059
 10
31.7867366887
 20
23.4645131433
 10
31.7559731498
 20
23.4861544198
 10
31.7151309022
 20
23.5012485363
 10
31.6682078697
 20
23.5083179757
 10
31.6197972057
 20
23.5066707319
 10
31.5746376832
 20
23.4964680486
 10
31.537149831
 20
23.4787086356
 10
31.5110032212
 20
23.4551309079
 10
31.4987572662
 20
23.4280428178
 10
31.5016106853
 20
23.4000959364
 10
31.5192841661
 20
23.374025899
 10
31.550047705
 20
23.3523846225
  0
ARC
  5
184
330
1F
100
AcDbEntity
  8
0
  6
Continuous
 62
     7
370
    25
100
AcDbCircle
 10
28.9054031918
 20
23.6311229066
 30
0.0
 40
0.0593566599253956
100
AcDbArc
 50
133.4183482162
 51
226.5816517838
  0
LWPOLYLINE
  5
185
330
1F
100
AcDbEntity
  8
0
  6
Continuous
 62
     7
370
    25
100
AcDbPolyline
 90
       21
 70
   128
 43
0.0
 10
28.1476980387
 20
23.2366146876
 10
28.1885402863
 20
23.2215205711
 10
28.2354633188
 20
23.2144511317
 10
28.2838739828
 20
23.2160983756
 10
28.3290335053
 20
23.2263010588
 10
28.3665213575
 20
23.2440604718
 10
28.3926679673
 20
23.2676381995
 10
28.4049139223
 20
23.2947262896
 10
28.4020605031
 20
23.3226731711
 10
28.3843870224
 20
23.3487432085
 10
28.3536234834
 20
23.3703844849
 10
28.3127812358
 20
23.3854786014
 10
28.2658582034
 20
23.3925480408
 10
28.2174475393
 20
23.390900797
 10
28.1722880169
 20
23.3806981137
 10
28.1348001647
 20
23.3629387007
 10
28.1086535549
 20
23.339360973
 10
28.0964075998
 20
23.312272883
 10
28.099261019
 20
23.2843260015
 10
28.1169344997
 20
23.2582559641
 10
28.1476980387
 20
23.2366146876
  0
LWPOLYLINE
  5
186
330
1F
100
AcDbEntity
  8
0
  6
Continuous
 62
     7
370
    25
100
AcDbPolyline
 90
       21
 70
   128
 43
0.0
 10
27.6721853662
 20
22.7682929807
 10
27.7130276138
 20
22.7531988642
 10
27.7599506463
 20
22.7461294248
 10
27.8083613103
 20
22.7477766686
 10
27.8535208328
 20
22.7579793519
 10
27.891008685
 20
22.7757387649
 10
27.9171552948
 20
22.7993164926
 10
27.9294012498
 20
22.8264045827
 10
27.9265478307
 20
22.8543514641
 10
27.9088743499
 20
22.8804215015
 10
27.878110811
 20
22.902062778
 10
27.8372685634
 20
22.9171568945
 10
27.7903455309
 20
22.9242263339
 10
27.7419348669
 20
22.9225790901
 10
27.6967753444
 20
22.9123764068
 10
27.6592874922
 20
22.8946169938
 10
27.6331408824
 20
22.8710392661
 10
27.6208949274
 20
22.843951176
 10
27.6237483465
 20
22.8160042946
 10
27.6414218273
 20
22.7899342572
 10
27.6721853662
 20
22.7682929807
  0
LWPOLYLINE
  5
187
330
1F
100
AcDbEntity
  8
0
  6
Continuous
 62
     7
370
    25
100
AcDbPolyline
 90
       21
 70
   128
 43
0.0
 10
27.5433189199
 20
22.2305706218
 10
27.5841611675
 20
22.2154765052
 10
27.6310842
 20
22.2084070659
 10
27.6794948641
 20
22.2100543097
 10
27.7246543865
 20
22.220256993
 10
27.7621422387
 20
22.238016406
 10
27.7882888485
 20
22.2615941336
 10
27.8005348035
 20
22.2886822237
 10
27.7976813844
 20
22.3166291052
 10
27.7800079036
 20
22.3426991426
 10
27.7492443647
 20
22.364340419
 10
27.7084021171
 20
22.3794345356
 10
27.6614790846
 20
22.3865039749
 10
27.6130684206
 20
22.3848567311
 10
27.5679088981
 20
22.3746540479
 10
27.5304210459
 20
22.3568946348
 10
27.5042744361
 20
22.3333169072
 10
27.4920284811
 20
22.3062288171
 10
27.4948819002
 20
22.2782819356
 10
27.512555381
 20
22.2522118982
 10
27.5433189199
 20
22.2305706218
  0
LWPOLYLINE
  5
188
330
1F
100
AcDbEntity
  8
0
  6
Continuous
 62
     7
370
    25
100
AcDbPolyline
 90
       21
 70
   128
 43
0.0
 10
27.7807174482
 20
21.7053109655
 10
27.8215596957
 20
21.690216849
 10
27.8684827282
 20
21.6831474096
 10
27.9168933923
 20
21.6847946534
 10
27.9620529147
 20
21.6949973367
 10
27.9995407669
 20
21.7127567497
 10
28.0256873767
 20
21.7363344774
 10
28.0379333318
 20
21.7634225674
 10
28.0350799126
 20
21.7913694489
 10
28.0174064318
 20
21.8174394863
 10
27.9866428929
 20
21.8390807628
 10
27.9458006453
 20
21.8541748793
 10
27.8988776128
 20
21.8612443187
 10
27.8504669488
 20
21.8595970748
 10
27.8053074263
 20
21.8493943916
 10
27.7678195741
 20
21.8316349786
 10
27.7416729643
 20
21.8080572509
 10
27.7294270093
 20
21.7809691608
 10
27.7322804284
 20
21.7530222793
 10
27.7499539092
 20
21.7269522419
 10
27.7807174482
 20
21.7053109655
  0
LWPOLYLINE
  5
189
330
1F
100
AcDbEntity
  8
0
  6
Continuous
 62
     7
370
    25
100
AcDbPolyline
 90
       21
 70
   128
 43
0.0
 10
28.3482391769
 20
21.2724800331
 10
28.3890814245
 20
21.2573859165
 10
28.436004457
 20
21.2503164772
 10
28.484415121
 20
21.251963721
 10
28.5295746435
 20
21.2621664042
 10
28.5670624957
 20
21.2799258173
 10
28.5932091055
 20
21.3035035449
 10
28.6054550605
 20
21.330591635
 10
28.6026016414
 20
21.3585385165
 10
28.5849281606
 20
21.3846085539
 10
28.5541646217
 20
21.4062498303
 10
28.5133223741
 20
21.4213439469
 10
28.4663993416
 20
21.4284133862
 10
28.4179886776
 20
21.4267661424
 10
28.3728291551
 20
21.4165634591
 10
28.3353413029
 20
21.3988040461
 10
28.3091946931
 20
21.3752263184
 10
28.2969487381
 20
21.3481382284
 10
28.2998021572
 20
21.3201913469
 10
28.317475638
 20
21.2941213095
 10
28.3482391769
 20
21.2724800331
  0
LWPOLYLINE
  5
18A
330
1F
100
AcDbEntity
  8
0
  6
Continuous
 62
     7
370
    25
100
AcDbPolyline
 90
       21
 70
   128
 43
0.0
 10
29.1594840677
 20
20.9979724103
 10
29.2003263153
 20
20.9828782938
 10
29.2472493478
 20
20.9758088544
 10
29.2956600118
 20
20.9774560982
 10
29.3408195342
 20
20.9876587815
 10
29.3783073865
 20
21.0054181945
 10
29.4044539963
 20
21.0289959222
 10
29.4166999513
 20
21.0560840122
 10
29.4138465321
 20
21.0840308937
 10
29.3961730514
 20
21.1101009311
 10
29.3654095124
 20
21.1317422076
 10
29.3245672648
 20
21.1468363241
 10
29.2776442323
 20
21.1539057635
 10
29.2292335683
 20
21.1522585196
 10
29.1840740459
 20
21.1420558364
 10
29.1465861936
 20
21.1242964234
 10
29.1204395839
 20
21.1007186957
 10
29.1081936288
 20
21.0736306056
 10
29.111047048
 20
21.0456837241
 10
29.1287205287
 20
21.0196136867
 10
29.1594840677
 20
20.9979724103
  0
LWPOLYLINE
  5
18B
330
1F
100
AcDbEntity
  8
0
  6
Continuous
 62
     7
370
    25
100
AcDbPolyline
 90
       21
 70
   128
 43
0.0
 10
30.0909474397
 20
20.9235793944
 10
30.1317896873
 20
20.9084852778
 10
30.1787127198
 20
20.9014158385
 10
30.2271233838
 20
20.9030630823
 10
30.2722829063
 20
20.9132657656
 10
30.3097707585
 20
20.9310251786
 10
30.3359173683
 20
20.9546029062
 10
30.3481633233
 20
20.9816909963
 10
30.3453099042
 20
21.0096378778
 10
30.3276364234
 20
21.0357079152
 10
30.2968728845
 20
21.0573491916
 10
30.2560306369
 20
21.0724433082
 10
30.2091076044
 20
21.0795127475
 10
30.1606969404
 20
21.0778655037
 10
30.1155374179
 20
21.0676628204
 10
30.0780495657
 20
21.0499034074
 10
30.0519029559
 20
21.0263256798
 10
30.0396570009
 20
20.9992375897
 10
30.04251042
 20
20.9712907082
 10
30.0601839008
 20
20.9452206708
 10
30.0909474397
 20
20.9235793944
  0
LWPOLYLINE
  5
18C
330
1F
100
AcDbEntity
  8
0
  6
Continuous
 62
     7
370
    25
100
AcDbPolyline
 90
       21
 70
   128
 43
0.0
 10
31.0008224384
 20
21.0606266476
 10
31.041664686
 20
21.045532531
 10
31.0885877185
 20
21.0384630917
 10
31.1369983825
 20
21.0401103355
 10
31.182157905
 20
21.0503130188
 10
31.2196457572
 20
21.0680724318
 10
31.245792367
 20
21.0916501594
 10
31.258038322
 20
21.1187382495
 10
31.2551849029
 20
21.146685131
 10
31.2375114221
 20
21.1727551684
 10
31.2067478832
 20
21.1943964448
 10
31.1659056356
 20
21.2094905614
 10
31.1189826031
 20
21.2165600007
 10
31.0705719391
 20
21.2149127569
 10
31.0254124166
 20
21.2047100736
 10
30.9879245644
 20
21.1869506606
 10
30.9617779546
 20
21.163372933
 10
30.9495319996
 20
21.1362848429
 10
30.9523854187
 20
21.1083379614
 10
30.9700588995
 20
21.082267924
 10
31.0008224384
 20
21.0606266476
  0
LWPOLYLINE
  5
18D
330
1F
100
AcDbEntity
  8
0
  6
Continuous
 62
     7
370
    25
100
AcDbPolyline
 90
       34
 70
   128
 43
0.0
 10
28.1044870038
 20
20.3996646672
 10
28.260328116
 20
20.3251099758
 10
28.4247078666
 20
20.2569397272
 10
28.5968429112
 20
20.1954787836
 10
28.7759129479
 20
20.1410200345
 10
28.9610646265
 20
20.0938230007
 10
29.1514156148
 20
20.0541125974
 10
29.3460588038
 20
20.0220780629
 10
29.54406663
 20
19.9978720562
 10
29.7444954959
 20
19.9816099301
 10
29.9463902667
 20
19.9733691809
 10
30.148788822
 20
19.9731890796
 10
30.3507266403
 20
19.9810704845
 10
30.551241396
 20
19.996975837
 10
30.7493775451
 20
20.0208293409
 10
30.9441908785
 20
20.0525173235
 10
31.134753022
 20
20.091888777
 10
31.3201558602
 20
20.1387560785
 10
31.4995158641
 20
20.192895884
 10
31.6719783016
 20
20.2540501927
 10
31.8367213107
 20
20.3219275764
 10
31.9929598159
 20
20.3962045685
 10
32.1399492696
 20
20.4765272053
 10
32.2769892001
 20
20.5625127129
 10
32.4034265497
 20
20.6537513312
 10
32.5186587869
 20
20.7498082665
 10
32.6221367776
 20
20.8502257639
 10
32.713367402
 20
20.9545252882
 10
32.7919159047
 20
21.0622098048
 10
32.8574079662
 20
21.1727661478
 10
32.9095314872
 20
21.2856674659
 10
32.9480380752
 20
21.400375733
 10
32.9727442289
 20
21.5163443118
 10
32.983156797
 20
21.623056529
  0
LWPOLYLINE
  5
18E
330
1F
100
AcDbEntity
  8
0
  6
Continuous
 62
     7
370
    25
100
AcDbPolyline
 90
       13
 70
   128
 43
0.0
 10
27.1210555297
 20
21.623056529
 10
27.130688965
 20
21.5215427763
 10
27.1547757112
 20
21.4055307798
 10
27.1926695565
 20
21.290754529
 10
27.2441899194
 20
21.1777609849
 10
27.3090912819
 20
21.0670886133
 10
27.3870643594
 20
20.9592648184
 10
27.4777375748
 20
20.8548034297
 10
27.5806788289
 20
20.7542022533
 10
27.6953975598
 20
20.6579406995
 10
27.8213470803
 20
20.5664774987
 10
27.9579271838
 20
20.4802485144
 10
28.1044870038
 20
20.3996646672
  0
LINE
  5
18F
330
1F
100
AcDbEntity
  8
0
  6
Continuous
 62
     7
370
    25
100
AcDbLine
 10
28.8517924023
 20
25.5729661978
 30
0.0
 11
28.8588634701
 21
25.5688841572
 31
0.0
  0
LINE
  5
190
330
1F
100
AcDbEntity
  8
0
  6
Continuous
 62
     7
370
    25
100
AcDbLine
 10
28.8517924023
 20
25.5729661978
 30
0.0
 11
28.8517924023
 21
26.7977774156
 31
0.0
  0
LINE
  5
191
330
1F
100
AcDbEntity
  8
0
  6
Continuous
 62
     7
370
    25
100
AcDbLine
 10
28.8517924023
 20
26.7977774156
 30
0.0
 11
28.8588634701
 21
26.793695375
 31
0.0
  0
LINE
  5
192
330
1F
100
AcDbEntity
  8
0
  6
Continuous
 62
     7
370
    25
100
AcDbLine
 10
28.8588634701
 20
25.5688841572
 30
0.0
 11
28.8588634701
 21
26.793695375
 31
0.0
  0
LINE
  5
193
330
1F
100
AcDbEntity
  8
0
  6
Continuous
 62
     7
370
    25
100
AcDbLine
 10
28.8646061633
 20
25.5721993434
 30
0.0
 11
28.8588634701
 21
25.5688841572
 31
0.0
  0
LINE
  5
194
330
1F
100
AcDbEntity
  8
0
  6
Continuous
 62
     7
370
    25
100
AcDbLine
 10
28.8588634701
 20
26.793695375
 30
0.0
 11
28.9421061633
 21
26.841750359
 31
0.0
  0
LINE
  5
195
330
1F
100
AcDbEntity
  8
0
  6
Continuous
 62
     7
370
    25
100
AcDbLine
 10
28.8517924023
 20
26.7977774156
 30
0.0
 11
28.9421061633
 21
26.8499144401
 31
0.0
  0
ELLIPSE
  5
196
330
1F
100
AcDbEntity
  8
0
  6
Continuous
 62
     7
370
    25
100
AcDbEllipse
 10
30.0521061633
 20
18.394034924
 30
0.0
 11
0.9466958958099313
 21
1.035121683215984
 31
0.0
210
0.0
220
0.0
230
1.0
 40
0.2019459068
 41
0.0
 42
6.283185307179586
  0
LWPOLYLINE
  5
197
330
1F
100
AcDbEntity
  8
0
  6
Continuous
 62
     7
370
    25
100
AcDbPolyline
 90
       22
 70
   128
 43
0.0
 10
29.2124168607
 20
26.0283127702
 10
29.3081255385
 20
25.978744487
 10
29.412556709
 20
25.935440507
 10
29.524486012
 20
25.8989085299
 10
29.642601179
 20
25.8695768596
 10
29.7655174174
 20
25.8477893832
 10
29.8917936469
 20
25.833801539
 10
30.019949394
 20
25.8277773215
 10
30.1484821499
 20
25.8297873592
 10
30.2758849854
 20
25.8398080864
 10
30.4006642189
 20
25.857722019
 10
30.5213569278
 20
25.8833191327
 10
30.6365481006
 20
25.9162993247
 10
30.744887226
 20
25.9562759324
 10
30.8451041269
 20
26.0027802666
 10
30.9360238517
 20
26.0552671065
 10
31.0165804498
 20
26.1131210919
 10
31.0858294687
 20
26.1756639378
 10
31.1429590269
 20
26.2421623864
 10
31.1872993328
 20
26.3118368042
 10
31.2183305366
 20
26.3838703224
 10
31.2289151011
 20
26.4212736491
  0
LWPOLYLINE
  5
198
330
1F
100
AcDbEntity
  8
0
  6
Continuous
 62
     7
370
    25
100
AcDbPolyline
 90
        3
 70
   128
 43
0.0
 10
31.1927690853
 20
26.7036862482
 10
31.1667639215
 20
26.7494572821
 10
31.1621061633
 20
26.7566515196
  0
LWPOLYLINE
  5
199
330
1F
100
AcDbEntity
  8
0
  6
Continuous
 62
     7
370
    25
100
AcDbPolyline
 90
       12
 70
   128
 43
0.0
 10
28.9421061633
 20
26.7566515196
 10
28.9169129939
 20
26.714273369
 10
28.8858817901
 20
26.6422398508
 10
28.8685235007
 20
26.5686917594
 10
28.865041636
 20
26.4944913788
 10
28.8754770174
 20
26.4205086407
 10
28.8997072998
 20
26.3476109251
 10
28.9374484052
 20
26.2766528911
 10
28.9882578537
 20
26.2084664566
 10
29.0515399509
 20
26.1438510453
 10
29.1265527722
 20
26.0835642139
 10
29.2124168607
 20
26.0283127702
  0
ELLIPSE
  5
19A
330
1F
100
AcDbEntity
  8
0
  6
Continuous
 62
     7
370
    25
100
AcDbEllipse
 10
30.0521061633
 20
18.394034924
 30
0.0
 11
1.159568206574825
 21
1.267877255099513
 31
0.0
210
0.0
220
0.0
230
1.0
 40
0.2019459068
 41
0.0
 42
6.283185307179586
  0
LINE
  5
19B
330
1F
100
AcDbEntity
  8
0
  6
Continuous
 62
     7
370
    25
100
AcDbLine
 10
29.3447482359
 20
21.77847728
 30
0.0
 11
29.3468874388
 21
21.8125146901
 31
0.0
  0
LINE
  5
19C
330
1F
100
AcDbEntity
  8
0
  6
Continuous
 62
     7
370
    25
100
AcDbLine
 10
30.8677838632
 20
21.8642654204
 30
0.0
 11
30.8703855939
 21
21.8232447249
 31
0.0
  0
LINE
  5
19D
330
1F
100
AcDbEntity
  8
0
  6
Continuous
 62
     7
370
    25
100
AcDbLine
 10
28.8536115966
 20
22.1547241318
 30
0.0
 11
28.8591774966
 21
22.2664004531
 31
0.0
  0
SPLINE
  5
19E
330
1F
100
AcDbEntity
  8
0
  6
Continuous
 62
     7
370
    25
100
AcDbSpline
210
0.0
220
0.0
230
1.0
 70
     8
 71
     3
 72
     9
 73
     5
 74
     0
 42
0.00000001
 43
0.00000001
 40
0.0
 40
0.0
 40
0.0
 40
0.0
 40
0.5884699700930911
 40
1.0
 40
1.0
 40
1.0
 40
1.0
 10
31.25975281074491
 20
22.34808354710026
 30
0.0
 10
31.26117869037631
 20
22.31633179541618
 30
0.0
 10
31.26360171908442
 20
22.26237534343435
 30
0.0
 10
31.26600453650551
 20
22.20841331356216
 30
0.0
 10
31.26699336803067
 20
22.18620631779502
 30
0.0
  0
LINE
  5
19F
330
1F
100
AcDbEntity
  8
0
  6
Continuous
 62
     7
370
    25
100
AcDbLine
 10
31.291268069
 20
22.521205699
 30
0.0
 11
31.2906481414
 21
22.53331536
 31
0.0
  0
LINE
  5
1A0
330
1F
100
AcDbEntity
  8
0
  6
Continuous
 62
     7
370
    25
100
AcDbLine
 10
15.1019304834
 20
27.4142170608
 30
0.0
 11
15.1687433041
 21
27.4527914608
 31
0.0
  0
LINE
  5
1A1
330
1F
100
AcDbEntity
  8
0
  6
Continuous
 62
     7
370
    25
100
AcDbLine
 10
15.007720314
 20
27.7316914608
 30
0.0
 11
14.9409074933
 21
27.6931170608
 31
0.0
  0
ARC
  5
1A2
330
1F
100
AcDbEntity
  8
0
  6
Continuous
 62
     7
370
    25
100
AcDbCircle
 10
15.1031034875
 20
27.4906426503
 30
0.0
 40
0.0757713538994746
100
AcDbArc
 50
330.0301079852
 51
30.0
  0
ARC
  5
1A3
330
1F
100
AcDbEntity
  8
0
  6
Continuous
 62
     7
370
    25
100
AcDbCircle
 10
15.0076804974
 20
27.6559201173
 30
0.0
 40
0.0757713538994722
100
AcDbArc
 50
30.0
 51
89.9698920148
  0
LINE
  5
1A4
330
1F
100
AcDbEntity
  8
0
  6
Continuous
 62
     7
370
    25
100
AcDbLine
 10
14.9804189886
 20
27.6246811439
 30
0.0
 11
14.9804189885
 21
27.6192874214
 31
0.0
  0
LINE
  5
1A5
330
1F
100
AcDbEntity
  8
0
  6
Continuous
 62
     7
370
    25
100
AcDbLine
 10
15.0577478877
 20
27.485349839
 30
0.0
 11
15.0624189885
 21
27.4826529778
 31
0.0
  0
LINE
  5
1A6
330
1F
100
AcDbEntity
  8
0
  6
Continuous
 62
     7
370
    25
100
AcDbLine
 10
13.8991078001
 20
25.8886670608
 30
0.0
 11
13.8991078001
 21
25.8115182608
 31
0.0
  0
LINE
  5
1A7
330
1F
100
AcDbEntity
  8
0
  6
Continuous
 62
     7
370
    25
100
AcDbLine
 10
14.2211537802
 20
25.8115182608
 30
0.0
 11
14.2211537802
 21
25.8886670608
 31
0.0
  0
ARC
  5
1A8
330
1F
100
AcDbEntity
  8
0
  6
Continuous
 62
     7
370
    25
100
AcDbCircle
 10
13.9647078001
 20
25.8494384147
 30
0.0
 40
0.0757713538994737
100
AcDbArc
 50
210.0301079852
 51
270.0
  0
ARC
  5
1A9
330
1F
100
AcDbEntity
  8
0
  6
Continuous
 62
     7
370
    25
100
AcDbCircle
 10
14.1555537802
 20
25.8494384147
 30
0.0
 40
0.0757713538994737
100
AcDbArc
 50
270.0
 51
329.9698920148
  0
LINE
  5
1AA
330
1F
100
AcDbEntity
  8
0
  6
Continuous
 62
     7
370
    25
100
AcDbLine
 10
14.1421307901
 20
25.8886670606
 30
0.0
 11
14.1374596894
 21
25.8913639219
 31
0.0
  0
LINE
  5
1AB
330
1F
100
AcDbEntity
  8
0
  6
Continuous
 62
     7
370
    25
100
AcDbLine
 10
13.9828018909
 20
25.8913639219
 30
0.0
 11
13.9781307903
 21
25.8886670606
 31
0.0
  0
LINE
  5
1AC
330
1F
100
AcDbEntity
  8
0
  6
Continuous
 62
     7
370
    25
100
AcDbLine
 10
13.179354087
 20
27.6931170608
 30
0.0
 11
13.1125412663
 21
27.7316914608
 31
0.0
  0
LINE
  5
1AD
330
1F
100
AcDbEntity
  8
0
  6
Continuous
 62
     7
370
    25
100
AcDbLine
 10
12.9515182762
 20
27.4527914608
 30
0.0
 11
13.0183310969
 21
27.4142170608
 31
0.0
  0
ARC
  5
1AE
330
1F
100
AcDbEntity
  8
0
  6
Continuous
 62
     7
370
    25
100
AcDbCircle
 10
13.1125810829
 20
27.6559201173
 30
0.0
 40
0.0757713538994767
100
AcDbArc
 50
90.0301079852
 51
150.0
  0
ARC
  5
1AF
330
1F
100
AcDbEntity
  8
0
  6
Continuous
 62
     7
370
    25
100
AcDbCircle
 10
13.0171580928
 20
27.4906426503
 30
0.0
 40
0.075771353899473
100
AcDbArc
 50
150.0
 51
209.9698920148
  0
LINE
  5
1B0
330
1F
100
AcDbEntity
  8
0
  6
Continuous
 62
     7
370
    25
100
AcDbLine
 10
13.0578425918
 20
27.4826529778
 30
0.0
 11
13.0625136926
 21
27.485349839
 31
0.0
  0
LINE
  5
1B1
330
1F
100
AcDbEntity
  8
0
  6
Continuous
 62
     7
370
    25
100
AcDbLine
 10
13.1398425918
 20
27.6192874214
 30
0.0
 11
13.1398425917
 21
27.6246811439
 31
0.0
  0
LINE
  5
1B2
330
1F
100
AcDbEntity
  8
0
  6
Continuous
 62
     7
370
    25
100
AcDbLine
 10
15.1687433041
 20
27.4527914608
 30
0.0
 11
15.007720314
 21
27.7316914608
 31
0.0
  0
LINE
  5
1B3
330
1F
100
AcDbEntity
  8
0
  6
Continuous
 62
     7
370
    25
100
AcDbLine
 10
15.1019304834
 20
27.4142170608
 30
0.0
 11
14.9409074933
 21
27.6931170608
 31
0.0
  0
LINE
  5
1B4
330
1F
100
AcDbEntity
  8
0
  6
Continuous
 62
     7
370
    25
100
AcDbLine
 10
15.1687234048
 20
27.5285283273
 30
0.0
 11
15.0733004148
 21
27.6938057943
 31
0.0
  0
LINE
  5
1B5
330
1F
100
AcDbEntity
  8
0
  6
Continuous
 62
     7
370
    25
100
AcDbLine
 10
13.8991078001
 20
25.8115182608
 30
0.0
 11
14.2211537802
 21
25.8115182608
 31
0.0
  0
LINE
  5
1B6
330
1F
100
AcDbEntity
  8
0
  6
Continuous
 62
     7
370
    25
100
AcDbLine
 10
13.8991078001
 20
25.8886670608
 30
0.0
 11
14.2211537802
 21
25.8886670608
 31
0.0
  0
LINE
  5
1B7
330
1F
100
AcDbEntity
  8
0
  6
Continuous
 62
     7
370
    25
100
AcDbLine
 10
13.9647078001
 20
25.7736670608
 30
0.0
 11
14.1555537802
 21
25.7736670608
 31
0.0
  0
LINE
  5
1B8
330
1F
100
AcDbEntity
  8
0
  6
Continuous
 62
     7
370
    25
100
AcDbLine
 10
13.1125412663
 20
27.7316914608
 30
0.0
 11
12.9515182762
 21
27.4527914608
 31
0.0
  0
LINE
  5
1B9
330
1F
100
AcDbEntity
  8
0
  6
Continuous
 62
     7
370
    25
100
AcDbLine
 10
13.0770173917
 20
27.515864705
 30
0.0
 11
13.0183310969
 21
27.4142170608
 31
0.0
  0
LINE
  5
1BA
330
1F
100
AcDbEntity
  8
0
  6
Continuous
 62
     7
370
    25
100
AcDbLine
 10
13.179354087
 20
27.6931170608
 30
0.0
 11
13.0770173917
 21
27.515864705
 31
0.0
  0
LINE
  5
1BB
330
1F
100
AcDbEntity
  8
0
  6
Continuous
 62
     7
370
    25
100
AcDbLine
 10
12.986315953
 20
27.5887652049
 30
0.0
 11
12.9515381755
 21
27.5285283273
 31
0.0
  0
LINE
  5
1BC
330
1F
100
AcDbEntity
  8
0
  6
Continuous
 62
     7
370
    25
100
AcDbLine
 10
13.0469611656
 20
27.6938057943
 30
0.0
 11
12.986315953
 21
27.5887652049
 31
0.0
  0
CIRCLE
  5
1BD
330
1F
100
AcDbEntity
  8
0
  6
Continuous
 62
     7
370
    25
100
AcDbCircle
 10
14.0601307902
 20
26.9986670608
 30
0.0
 40
1.080000000000014
  0
CIRCLE
  5
1BE
330
1F
100
AcDbEntity
  8
0
  6
Continuous
 62
     7
370
    25
100
AcDbCircle
 10
14.0601307902
 20
26.9986670608
 30
0.0
 40
1.110000000000015
  0
CIRCLE
  5
1BF
330
1F
100
AcDbEntity
  8
0
  6
Continuous
 62
     7
370
    25
100
AcDbCircle
 10
14.0601307902
 20
26.9986670608
 30
0.0
 40
0.414000000000005
  0
LINE
  5
1C0
330
1F
100
AcDbEntity
  8
0
  6
Continuous
 62
     7
370
    25
100
AcDbLine
 10
12.8676307902
 20
27.2461670608
 30
0.0
 11
12.8676307902
 21
27.2486670608
 31
0.0
  0
LINE
  5
1C1
330
1F
100
AcDbEntity
  8
0
  6
Continuous
 62
     7
370
    25
100
AcDbLine
 10
12.8676307902
 20
27.2486670608
 30
0.0
 11
12.8626307902
 21
27.2486670608
 31
0.0
  0
LINE
  5
1C2
330
1F
100
AcDbEntity
  8
0
  6
Continuous
 62
     7
370
    25
100
AcDbLine
 10
12.8626307902
 20
27.2486670608
 30
0.0
 11
12.8626307902
 21
27.4986670608
 31
0.0
  0
LINE
  5
1C3
330
1F
100
AcDbEntity
  8
0
  6
Continuous
 62
     7
370
    25
100
AcDbLine
 10
12.8626307902
 20
27.4986670608
 30
0.0
 11
12.8726307902
 21
27.4986670608
 31
0.0
  0
LINE
  5
1C4
330
1F
100
AcDbEntity
  8
0
  6
Continuous
 62
     7
370
    25
100
AcDbLine
 10
12.8626307902
 20
26.4986670608
 30
0.0
 11
12.8726307902
 21
26.4986670608
 31
0.0
  0
LINE
  5
1C5
330
1F
100
AcDbEntity
  8
0
  6
Continuous
 62
     7
370
    25
100
AcDbLine
 10
12.8626307902
 20
26.4986670608
 30
0.0
 11
12.8626307902
 21
27.2461670608
 31
0.0
  0
LINE
  5
1C6
330
1F
100
AcDbEntity
  8
0
  6
Continuous
 62
     7
370
    25
100
AcDbLine
 10
12.8676307902
 20
27.2461670608
 30
0.0
 11
12.8626307902
 21
27.2461670608
 31
0.0
  0
LINE
  5
1C7
330
1F
100
AcDbEntity
  8
0
  6
Continuous
 62
     7
370
    25
100
AcDbLine
 10
12.8726307902
 20
26.4986670608
 30
0.0
 11
12.8726307902
 21
27.4986670608
 31
0.0
  0
LINE
  5
1C8
330
1F
100
AcDbEntity
  8
0
  6
Continuous
 62
     7
370
    25
100
AcDbLine
 10
12.8626307902
 20
27.2486670608
 30
0.0
 11
12.8626307902
 21
27.2461670608
 31
0.0
  0
ARC
  5
1C9
330
1F
100
AcDbEntity
  8
0
  6
Continuous
 62
     7
370
    25
100
AcDbCircle
 10
14.0601307902
 20
26.9986670608
 30
0.0
 40
1.187500000000001
100
AcDbArc
 50
277.7932185215
 51
22.2067814785
  0
ARC
  5
1CA
330
1F
100
AcDbEntity
  8
0
  6
Continuous
 62
     7
370
    25
100
AcDbCircle
 10
14.0601307902
 20
26.9986670608
 30
0.0
 40
1.187500000000004
100
AcDbArc
 50
37.7932185215
 51
142.2067814785
  0
ARC
  5
1CB
330
1F
100
AcDbEntity
  8
0
  6
Continuous
 62
     7
370
    25
100
AcDbCircle
 10
14.0601307902
 20
26.9986670608
 30
0.0
 40
1.187500000000002
100
AcDbArc
 50
157.7932185215
 51
262.2067814785
  0
DIMENSION
  5
1CC
330
1F
100
AcDbEntity
  8
SLD-0
100
AcDbDimension
  2
_D_6
 10
13.8531307902
 20
26.6401325436
 30
0.0
 11
19.5918688681
 21
29.5306476082
 31
0.0
 70
   163
  1
<>\PFIXTURE MOUNTING\PHOLE
 71
     1
 42
-1.0
  3
SLDDIMSTYLE4
100
AcDbDiametricDimension
 15
14.2671307902
 25
27.3572015779
 35
0.0
 40
0.0
  0
ENDSEC
  0
SECTION
  2
OBJECTS
  0
DICTIONARY
  5
C
330
0
100
AcDbDictionary
281
     1
  3
ACAD_GROUP
350
D
  3
ACAD_LAYOUT
350
1A
  3
ACAD_MLINESTYLE
350
17
  3
ACAD_PLOTSETTINGS
350
19
  3
ACAD_PLOTSTYLENAME
350
E
  3
ACAD_SCALELIST
350
47
  3
DWGPROPS
350
1DF
  0
DICTIONARY
  5
D
102
{ACAD_REACTORS
330
C
102
}
330
C
100
AcDbDictionary
281
     1
  0
DICTIONARY
  5
1A
102
{ACAD_REACTORS
330
C
102
}
330
C
100
AcDbDictionary
281
     1
  3
Layout1
350
1E
  3
Layout2
350
26
  3
Model
350
22
  0
DICTIONARY
  5
17
102
{ACAD_REACTORS
330
C
102
}
330
C
100
AcDbDictionary
281
     1
  3
Standard
350
18
  0
DICTIONARY
  5
19
102
{ACAD_REACTORS
330
C
102
}
330
C
100
AcDbDictionary
281
     1
  0
ACDBDICTIONARYWDFLT
  5
E
102
{ACAD_REACTORS
330
C
102
}
330
C
100
AcDbDictionary
281
     1
  3
Normal
350
F
100
AcDbDictionaryWithDefault
340
F
  0
DICTIONARY
  5
47
102
{ACAD_REACTORS
330
C
102
}
330
C
100
AcDbDictionary
281
     1
  3
A0
350
48
  3
A1
350
49
  3
A2
350
4A
  3
A3
350
4B
  3
A4
350
4C
  3
A5
350
4D
  3
A6
350
4E
  3
A7
350
4F
  3
A8
350
50
  3
A9
350
51
  3
B1
350
52
  3
B2
350
53
  3
B3
350
54
  3
B4
350
55
  3
B5
350
56
  3
B6
350
57
  3
B7
350
58
  0
XRECORD
  5
1DF
102
{ACAD_REACTORS
330
C
102
}
330
C
100
AcDbXrecord
280
     1
  1
DWGPROPS COOKIE
  2

  3

  4

  6

  7

  8
shawnd
  9

300
=
301
=
302
=
303
=
304
=
305
=
306
=
307
=
308
=
309
=
 40
0.0
 41
2460887.766239931
 42
2460887.766240405
  1

 90
        0
  0
LAYOUT
  5
1E
102
{ACAD_REACTORS
330
1A
102
}
330
1A
100
AcDbPlotSettings
  1

  2
none_device
  4

  6

 40
0.0
 41
0.0
 42
0.0
 43
0.0
 44
0.0
 45
0.0
 46
0.0
 47
0.0
 48
0.0
 49
0.0
140
0.0
141
0.0
142
1.0
143
1.0
 70
   688
 72
     0
 73
     0
 74
     5
  7

 75
    16
147
1.0
148
0.0
149
0.0
100
AcDbLayout
  1
Layout1
 70
     1
 71
     1
 10
0.0
 20
0.0
 11
12.0
 21
9.0
 12
0.0
 22
0.0
 32
0.0
 14
1.0000000000E+20
 24
1.0000000000E+20
 34
1.0000000000E+20
 15
-1.0000000000E+20
 25
-1.0000000000E+20
 35
-1.0000000000E+20
146
0.0
 13
0.0
 23
0.0
 33
0.0
 16
1.0
 26
0.0
 36
0.0
 17
0.0
 27
1.0
 37
0.0
 76
     0
330
1B
  0
LAYOUT
  5
26
102
{ACAD_REACTORS
330
1A
102
}
330
1A
100
AcDbPlotSettings
  1

  2
none_device
  4

  6

 40
0.0
 41
0.0
 42
0.0
 43
0.0
 44
0.0
 45
0.0
 46
0.0
 47
0.0
 48
0.0
 49
0.0
140
0.0
141
0.0
142
1.0
143
1.0
 70
   688
 72
     0
 73
     0
 74
     5
  7

 75
    16
147
1.0
148
0.0
149
0.0
100
AcDbLayout
  1
Layout2
 70
     1
 71
     2
 10
0.0
 20
0.0
 11
0.0
 21
0.0
 12
0.0
 22
0.0
 32
0.0
 14
0.0
 24
0.0
 34
0.0
 15
0.0
 25
0.0
 35
0.0
146
0.0
 13
0.0
 23
0.0
 33
0.0
 16
1.0
 26
0.0
 36
0.0
 17
0.0
 27
1.0
 37
0.0
 76
     0
330
23
  0
LAYOUT
  5
22
102
{ACAD_REACTORS
330
1A
102
}
330
1A
100
AcDbPlotSettings
  1

  2
none_device
  4
Letter_(8.50_x_11.00_Inches)
  6

 40
6.35
 41
6.35
 42
6.35000508
 43
6.35000508
 44
215.9
 45
279.4
 46
0.0
 47
0.0
 48
0.0
 49
0.0
140
0.0
141
0.0
142
1.0
143
1.0
 70
  1712
 72
     0
 73
     0
 74
     0
  7

 75
     0
147
1.0
148
0.0
149
0.0
100
AcDbLayout
  1
Model
 70
     1
 71
     0
 10
0.0
 20
0.0
 11
44.0
 21
34.0
 12
0.0
 22
0.0
 32
0.0
 14
0.0
 24
0.0
 34
0.0
 15
44.0
 25
34.0
 35
0.0
146
0.0
 13
0.0
 23
0.0
 33
0.0
 16
1.0
 26
0.0
 36
0.0
 17
0.0
 27
1.0
 37
0.0
 76
     0
330
1F
331
29
  0
MLINESTYLE
  5
18
102
{ACAD_REACTORS
330
17
102
}
330
17
100
AcDbMlineStyle
  2
Standard
 70
     0
  3

 62
   256
 51
90.0
 52
90.0
 71
     2
 49
0.5
 62
   256
  6
BYLAYER
 49
-0.5
 62
   256
  6
BYLAYER
  0
ACDBPLACEHOLDER
  5
F
102
{ACAD_REACTORS
330
E
102
}
330
E
  0
SCALE
  5
48
102
{ACAD_REACTORS
330
47
102
}
330
47
100
AcDbScale
 70
     0
300
1:1
140
1.0
141
1.0
290
     1
  0
SCALE
  5
49
102
{ACAD_REACTORS
330
47
102
}
330
47
100
AcDbScale
 70
     0
300
1/128" = 1'-0"
140
0.0078125
141
12.0
290
     0
  0
SCALE
  5
4A
102
{ACAD_REACTORS
330
47
102
}
330
47
100
AcDbScale
 70
     0
300
1/64" = 1'-0"
140
0.015625
141
12.0
290
     0
  0
SCALE
  5
4B
102
{ACAD_REACTORS
330
47
102
}
330
47
100
AcDbScale
 70
     0
300
1/32" = 1'-0"
140
0.03125
141
12.0
290
     0
  0
SCALE
  5
4C
102
{ACAD_REACTORS
330
47
102
}
330
47
100
AcDbScale
 70
     0
300
1/16" = 1'-0"
140
0.0625
141
12.0
290
     0
  0
SCALE
  5
4D
102
{ACAD_REACTORS
330
47
102
}
330
47
100
AcDbScale
 70
     0
300
3/32" = 1'-0"
140
0.09375
141
12.0
290
     0
  0
SCALE
  5
4E
102
{ACAD_REACTORS
330
47
102
}
330
47
100
AcDbScale
 70
     0
300
1/8" = 1'-0"
140
0.125
141
12.0
290
     0
  0
SCALE
  5
4F
102
{ACAD_REACTORS
330
47
102
}
330
47
100
AcDbScale
 70
     0
300
3/16" = 1'-0"
140
0.1875
141
12.0
290
     0
  0
SCALE
  5
50
102
{ACAD_REACTORS
330
47
102
}
330
47
100
AcDbScale
 70
     0
300
1/4" = 1'-0"
140
0.25
141
12.0
290
     0
  0
SCALE
  5
51
102
{ACAD_REACTORS
330
47
102
}
330
47
100
AcDbScale
 70
     0
300
3/8" = 1'-0"
140
0.375
141
12.0
290
     0
  0
SCALE
  5
52
102
{ACAD_REACTORS
330
47
102
}
330
47
100
AcDbScale
 70
     0
300
1/2" = 1'-0"
140
0.5
141
12.0
290
     0
  0
SCALE
  5
53
102
{ACAD_REACTORS
330
47
102
}
330
47
100
AcDbScale
 70
     0
300
3/4" = 1'-0"
140
0.75
141
12.0
290
     0
  0
SCALE
  5
54
102
{ACAD_REACTORS
330
47
102
}
330
47
100
AcDbScale
 70
     0
300
1" = 1'-0"
140
1.0
141
12.0
290
     0
  0
SCALE
  5
55
102
{ACAD_REACTORS
330
47
102
}
330
47
100
AcDbScale
 70
     0
300
1-1/2" = 1'-0"
140
1.5
141
12.0
290
     0
  0
SCALE
  5
56
102
{ACAD_REACTORS
330
47
102
}
330
47
100
AcDbScale
 70
     0
300
3" = 1'-0"
140
3.0
141
12.0
290
     0
  0
SCALE
  5
57
102
{ACAD_REACTORS
330
47
102
}
330
47
100
AcDbScale
 70
     0
300
6" = 1'-0"
140
6.0
141
12.0
290
     0
  0
SCALE
  5
58
102
{ACAD_REACTORS
330
47
102
}
330
47
100
AcDbScale
 70
     0
300
1'-0" = 1'-0"
140
12.0
141
12.0
290
     0
  0
ENDSEC
  0
EOF
