  0
SECTION
  2
HEADER
  9
$ACADVER
  1
AC1015
  9
$ACADMAINTVER
 70
     6
  9
$DWGCODEPAGE
  3
ANSI_1252
  9
$INSBASE
 10
0.0
 20
0.0
 30
0.0
  9
$EXTMIN
 10
0.0
 20
0.0
 30
0.0
  9
$EXTMAX
 10
44.0
 20
34.0
 30
0.0
  9
$LIMMIN
 10
0.0
 20
0.0
  9
$LIMMAX
 10
44.0
 20
34.0
  9
$ORTHOMODE
 70
     0
  9
$REGENMODE
 70
     1
  9
$FILLMODE
 70
     1
  9
$QTEXTMODE
 70
     0
  9
$MIRRTEXT
 70
     1
  9
$LTSCALE
 40
4.0
  9
$ATTMODE
 70
     1
  9
$TEXTSIZE
 40
0.5
  9
$TRACEWID
 40
0.05
  9
$TEXTSTYLE
  7
Standard
  9
$CLAYER
  8
0
  9
$CELTYPE
  6
ByLayer
  9
$CECOLOR
 62
   256
  9
$CELTSCALE
 40
1.0
  9
$DISPSILH
 70
     0
  9
$DIMSCALE
 40
1.0
  9
$DIMASZ
 40
0.52
  9
$DIMEXO
 40
0.2
  9
$DIMDLI
 40
0.38
  9
$DIMRND
 40
0.0
  9
$DIMDLE
 40
0.0
  9
$DIMEXE
 40
0.5
  9
$DIMTP
 40
0.0
  9
$DIMTM
 40
0.0
  9
$DIMTXT
 40
0.5
  9
$DIMCEN
 40
0.09
  9
$DIMTSZ
 40
0.0
  9
$DIMTOL
 70
     0
  9
$DIMLIM
 70
     0
  9
$DIMTIH
 70
     1
  9
$DIMTOH
 70
     1
  9
$DIMSE1
 70
     0
  9
$DIMSE2
 70
     0
  9
$DIMTAD
 70
     0
  9
$DIMZIN
 70
     1
  9
$DIMBLK
  1

  9
$DIMASO
 70
     1
  9
$DIMSHO
 70
     1
  9
$DIMPOST
  1

  9
$DIMAPOST
  1

  9
$DIMALT
 70
     0
  9
$DIMALTD
 70
     2
  9
$DIMALTF
 40
25.4
  9
$DIMLFAC
 40
1.0
  9
$DIMTOFL
 70
     0
  9
$DIMTVP
 40
0.0
  9
$DIMTIX
 70
     0
  9
$DIMSOXD
 70
     0
  9
$DIMSAH
 70
     0
  9
$DIMBLK1
  1

  9
$DIMBLK2
  1

  9
$DIMSTYLE
  2
Standard
  9
$DIMCLRD
 70
     0
  9
$DIMCLRE
 70
     0
  9
$DIMCLRT
 70
     0
  9
$DIMTFAC
 40
1.0
  9
$DIMGAP
 40
0.24
  9
$DIMJUST
 70
     0
  9
$DIMSD1
 70
     0
  9
$DIMSD2
 70
     0
  9
$DIMTOLJ
 70
     1
  9
$DIMTZIN
 70
     1
  9
$DIMALTZ
 70
     0
  9
$DIMALTTZ
 70
     0
  9
$DIMUPT
 70
     0
  9
$DIMDEC
 70
     0
  9
$DIMTDEC
 70
     0
  9
$DIMALTU
 70
     2
  9
$DIMALTTD
 70
     2
  9
$DIMTXSTY
  7
Standard
  9
$DIMAUNIT
 70
     0
  9
$DIMADEC
 70
     0
  9
$DIMALTRND
 40
0.0
  9
$DIMAZIN
 70
     0
  9
$DIMDSEP
 70
    46
  9
$DIMATFIT
 70
     3
  9
$DIMFRAC
 70
     0
  9
$DIMLDRBLK
  1

  9
$DIMLUNIT
 70
     2
  9
$DIMLWD
 70
    -2
  9
$DIMLWE
 70
    -2
  9
$DIMTMOVE
 70
     0
  9
$LUNITS
 70
     2
  9
$LUPREC
 70
     6
  9
$SKETCHINC
 40
0.1
  9
$FILLETRAD
 40
0.0
  9
$AUNITS
 70
     0
  9
$AUPREC
 70
     2
  9
$MENU
  1
.
  9
$ELEVATION
 40
0.0
  9
$PELEVATION
 40
0.0
  9
$THICKNESS
 40
0.0
  9
$LIMCHECK
 70
     0
  9
$CHAMFERA
 40
0.0
  9
$CHAMFERB
 40
0.0
  9
$CHAMFERC
 40
0.0
  9
$CHAMFERD
 40
0.0
  9
$SKPOLY
 70
     0
  9
$TDCREATE
 40
2460887.477940787
  9
$TDUCREATE
 40
2460887.769607454
  9
$TDUPDATE
 40
2460887.477941424
  9
$TDUUPDATE
 40
2460887.76960809
  9
$TDINDWG
 40
0.0000000116
  9
$TDUSRTIMER
 40
0.0000000116
  9
$USRTIMER
 70
     1
  9
$ANGBASE
 50
0.0
  9
$ANGDIR
 70
     0
  9
$PDMODE
 70
     0
  9
$PDSIZE
 40
-1.0
  9
$PLINEWID
 40
0.0
  9
$SPLFRAME
 70
     0
  9
$SPLINETYPE
 70
     6
  9
$SPLINESEGS
 70
     8
  9
$HANDSEED
  5
302
  9
$SURFTAB1
 70
     6
  9
$SURFTAB2
 70
     6
  9
$SURFTYPE
 70
     6
  9
$SURFU
 70
     6
  9
$SURFV
 70
     6
  9
$UCSBASE
  2

  9
$UCSNAME
  2

  9
$UCSORG
 10
0.0
 20
0.0
 30
0.0
  9
$UCSXDIR
 10
1.0
 20
0.0
 30
0.0
  9
$UCSYDIR
 10
0.0
 20
1.0
 30
0.0
  9
$UCSORTHOREF
  2

  9
$UCSORTHOVIEW
 70
     0
  9
$UCSORGTOP
 10
0.0
 20
0.0
 30
0.0
  9
$UCSORGBOTTOM
 10
0.0
 20
0.0
 30
0.0
  9
$UCSORGLEFT
 10
0.0
 20
0.0
 30
0.0
  9
$UCSORGRIGHT
 10
0.0
 20
0.0
 30
0.0
  9
$UCSORGFRONT
 10
0.0
 20
0.0
 30
0.0
  9
$UCSORGBACK
 10
0.0
 20
0.0
 30
0.0
  9
$PUCSBASE
  2

  9
$PUCSNAME
  2

  9
$PUCSORG
 10
0.0
 20
0.0
 30
0.0
  9
$PUCSXDIR
 10
1.0
 20
0.0
 30
0.0
  9
$PUCSYDIR
 10
0.0
 20
1.0
 30
0.0
  9
$PUCSORTHOREF
  2

  9
$PUCSORTHOVIEW
 70
     0
  9
$PUCSORGTOP
 10
0.0
 20
0.0
 30
0.0
  9
$PUCSORGBOTTOM
 10
0.0
 20
0.0
 30
0.0
  9
$PUCSORGLEFT
 10
0.0
 20
0.0
 30
0.0
  9
$PUCSORGRIGHT
 10
0.0
 20
0.0
 30
0.0
  9
$PUCSORGFRONT
 10
0.0
 20
0.0
 30
0.0
  9
$PUCSORGBACK
 10
0.0
 20
0.0
 30
0.0
  9
$USERI1
 70
     0
  9
$USERI2
 70
     0
  9
$USERI3
 70
     0
  9
$USERI4
 70
     0
  9
$USERI5
 70
     0
  9
$USERR1
 40
0.0
  9
$USERR2
 40
0.0
  9
$USERR3
 40
0.0
  9
$USERR4
 40
0.0
  9
$USERR5
 40
0.0
  9
$WORLDVIEW
 70
     1
  9
$SHADEDGE
 70
     3
  9
$SHADEDIF
 70
    70
  9
$TILEMODE
 70
     1
  9
$MAXACTVP
 70
    64
  9
$PINSBASE
 10
0.0
 20
0.0
 30
0.0
  9
$PLIMCHECK
 70
     0
  9
$PEXTMIN
 10
1.0000000000E+20
 20
1.0000000000E+20
 30
1.0000000000E+20
  9
$PEXTMAX
 10
-1.0000000000E+20
 20
-1.0000000000E+20
 30
-1.0000000000E+20
  9
$PLIMMIN
 10
0.0
 20
0.0
  9
$PLIMMAX
 10
12.0
 20
9.0
  9
$UNITMODE
 70
     0
  9
$VISRETAIN
 70
     1
  9
$PLINEGEN
 70
     0
  9
$PSLTSCALE
 70
     1
  9
$TREEDEPTH
 70
  3020
  9
$CMLSTYLE
  2
Standard
  9
$CMLJUST
 70
     0
  9
$CMLSCALE
 40
1.0
  9
$PROXYGRAPHICS
 70
     1
  9
$MEASUREMENT
 70
     0
  9
$CELWEIGHT
370
    -1
  9
$ENDCAPS
280
     0
  9
$JOINSTYLE
280
     0
  9
$LWDISPLAY
290
     1
  9
$INSUNITS
 70
     1
  9
$HYPERLINKBASE
  1

  9
$STYLESHEET
  1

  9
$XEDIT
290
     1
  9
$CEPSNTYPE
380
     0
  9
$PSTYLEMODE
290
     1
  9
$FINGERPRINTGUID
  2
{f7610cef-baf5-437c-b01b-51b7fe7f41e2}
  9
$VERSIONGUID
  2
{FAEB1C32-E019-11D5-929B-00C0DF256EC4}
  9
$EXTNAMES
290
     1
  9
$PSVPSCALE
 40
0.0
  9
$OLESTARTUP
290
     0
  0
ENDSEC
  0
SECTION
  2
CLASSES
  0
CLASS
  1
ACDBDICTIONARYWDFLT
  2
AcDbDictionaryWithDefault
  3
ObjectDBX Classes
 90
        0
280
     0
281
     0
  0
CLASS
  1
VISUALSTYLE
  2
AcDbVisualStyle
  3
ObjectDBX Classes
 90
     4095
280
     0
281
     0
  0
CLASS
  1
MATERIAL
  2
AcDbMaterial
  3
ObjectDBX Classes
 90
     1153
280
     0
281
     0
  0
CLASS
  1
SCALE
  2
AcDbScale
  3
ObjectDBX Classes
 90
     1153
280
     0
281
     0
  0
CLASS
  1
TABLESTYLE
  2
AcDbTableStyle
  3
ObjectDBX Classes
 90
     4095
280
     0
281
     0
  0
CLASS
  1
MLEADERSTYLE
  2
AcDbMLeaderStyle
  3
ACDB_MLEADERSTYLE_CLASS
 90
     4095
280
     0
281
     0
  0
CLASS
  1
SUN
  2
AcDbSun
  3
SCENEOE
 90
     1153
280
     0
281
     0
  0
CLASS
  1
ACDBPLACEHOLDER
  2
AcDbPlaceHolder
  3
ObjectDBX Classes
 90
        0
280
     0
281
     0
  0
CLASS
  1
LAYOUT
  2
AcDbLayout
  3
ObjectDBX Classes
 90
        0
280
     0
281
     0
  0
ENDSEC
  0
SECTION
  2
TABLES
  0
TABLE
  2
VPORT
  5
8
330
0
100
AcDbSymbolTable
 70
     1
  0
VPORT
  5
29
330
8
100
AcDbSymbolTableRecord
100
AcDbViewportTableRecord
  2
*Active
 70
     0
 10
0.0
 20
0.0
 11
1.0
 21
1.0
 12
22.0
 22
17.0
 13
0.0
 23
0.0
 14
0.5
 24
0.5
 15
0.5
 25
0.5
 16
0.0
 26
0.0
 36
1.0
 17
0.0
 27
0.0
 37
0.0
 40
34.0
 41
1.2941176471
 42
50.0
 43
0.0
 44
0.0
 50
0.0
 51
0.0
 71
     0
 72
  2000
 73
     1
 74
     3
 75
     0
 76
     0
 77
     0
 78
     0
281
     0
 65
     1
110
0.0
120
0.0
130
0.0
111
1.0
121
0.0
131
0.0
112
0.0
122
1.0
132
0.0
 79
     0
146
0.0
  0
ENDTAB
  0
TABLE
  2
LTYPE
  5
5
330
0
100
AcDbSymbolTable
 70
     6
  0
LTYPE
  5
14
330
5
100
AcDbSymbolTableRecord
100
AcDbLinetypeTableRecord
  2
ByBlock
 70
     0
  3

 72
    65
 73
     0
 40
0.0
  0
LTYPE
  5
15
330
5
100
AcDbSymbolTableRecord
100
AcDbLinetypeTableRecord
  2
ByLayer
 70
     0
  3

 72
    65
 73
     0
 40
0.0
  0
LTYPE
  5
16
330
5
100
AcDbSymbolTableRecord
100
AcDbLinetypeTableRecord
  2
Continuous
 70
     0
  3
Solid line
 72
    65
 73
     0
 40
0.0
  0
LTYPE
  5
5E
330
5
100
AcDbSymbolTableRecord
100
AcDbLinetypeTableRecord
  2
HIDDEN
 70
     0
  3
Hidden __ __ __ __ __ __ __ __ __ __ __ __ __ __
 72
    65
 73
     2
 40
0.075
 49
0.05
 74
     0
 49
-0.025
 74
     0
  0
LTYPE
  5
5F
330
5
100
AcDbSymbolTableRecord
100
AcDbLinetypeTableRecord
  2
PHANTOM
 70
     0
  3
Phantom ______  __  __  ______  __  __  ______
 72
    65
 73
     6
 40
0.5
 49
0.25
 74
     0
 49
-0.05
 74
     0
 49
0.05
 74
     0
 49
-0.05
 74
     0
 49
0.05
 74
     0
 49
-0.05
 74
     0
  0
LTYPE
  5
60
330
5
100
AcDbSymbolTableRecord
100
AcDbLinetypeTableRecord
  2
CENTER
 70
     0
  3
Center ____ _ ____ _ ____ _ ____ _ ____ _ ____
 72
    65
 73
     4
 40
0.4
 49
0.25
 74
     0
 49
-0.05
 74
     0
 49
0.05
 74
     0
 49
-0.05
 74
     0
  0
LTYPE
  5
61
330
5
100
AcDbSymbolTableRecord
100
AcDbLinetypeTableRecord
  2
CENTERX2
 70
     0
  3
Center (2x) ________  __  ________  __  _____
 72
    65
 73
     4
 40
0.8
 49
0.5
 74
     0
 49
-0.1
 74
     0
 49
0.1
 74
     0
 49
-0.1
 74
     0
  0
LTYPE
  5
62
330
5
100
AcDbSymbolTableRecord
100
AcDbLinetypeTableRecord
  2
DOT2
 70
     0
  3
Dot (.5x) ........................................
 72
    65
 73
     2
 40
0.025
 49
0.0
 74
     0
 49
-0.025
 74
     0
  0
ENDTAB
  0
TABLE
  2
LAYER
  5
2
330
0
100
AcDbSymbolTable
 70
    11
  0
LAYER
  5
10
330
2
100
AcDbSymbolTableRecord
100
AcDbLayerTableRecord
  2
0
 70
     0
 62
     7
  6
Continuous
370
    -3
390
F
  0
LAYER
  5
63
330
2
100
AcDbSymbolTableRecord
100
AcDbLayerTableRecord
  2
SLD-0
 70
     0
 62
     7
  6
Continuous
370
    -3
390
F
  0
LAYER
  5
64
330
2
100
AcDbSymbolTableRecord
100
AcDbLayerTableRecord
  2
DIM
 70
     0
 62
     7
  6
Continuous
370
    -3
390
F
  0
LAYER
  5
65
330
2
100
AcDbSymbolTableRecord
100
AcDbLayerTableRecord
  2
CEN
 70
     0
 62
     1
  6
CENTER
370
    -3
390
F
  0
LAYER
  5
66
330
2
100
AcDbSymbolTableRecord
100
AcDbLayerTableRecord
  2
HAT
 70
     0
 62
     4
  6
Continuous
370
    -3
390
F
  0
LAYER
  5
67
330
2
100
AcDbSymbolTableRecord
100
AcDbLayerTableRecord
  2
OBJ
 70
     0
 62
     5
  6
Continuous
370
    -3
390
F
  0
LAYER
  5
68
330
2
100
AcDbSymbolTableRecord
100
AcDbLayerTableRecord
  2
SLD-DEFPOINTS
 70
     0
 62
     7
  6
Continuous
370
    -3
390
F
  0
LAYER
  5
69
330
2
100
AcDbSymbolTableRecord
100
AcDbLayerTableRecord
  2
HID
 70
     0
 62
     4
  6
HIDDEN
370
    -3
390
F
  0
LAYER
  5
6A
330
2
100
AcDbSymbolTableRecord
100
AcDbLayerTableRecord
  2
NOTE
 70
     0
 62
     7
  6
Continuous
370
    -3
390
F
  0
LAYER
  5
6B
330
2
100
AcDbSymbolTableRecord
100
AcDbLayerTableRecord
  2
TITLE
 70
     0
 62
     7
  6
Continuous
370
    -3
390
F
  0
LAYER
  5
6C
330
2
100
AcDbSymbolTableRecord
100
AcDbLayerTableRecord
  2
THICK_TITLE
 70
     0
 62
     7
  6
Continuous
370
   100
390
F
  0
ENDTAB
  0
TABLE
  2
STYLE
  5
3
330
0
100
AcDbSymbolTable
 70
     4
  0
STYLE
  5
11
330
3
100
AcDbSymbolTableRecord
100
AcDbTextStyleTableRecord
  2
Standard
 70
     0
 40
0.0
 41
1.0
 50
0.0
 71
     0
 42
0.5
  3
txt
  4

  0
STYLE
  5
6D
330
3
100
AcDbSymbolTableRecord
100
AcDbTextStyleTableRecord
  2
SLDTEXTSTYLE0
 70
     0
 40
0.0
 41
0.75
 50
0.0
 71
     0
 42
0.5
  3
TXT
  4

  0
STYLE
  5
154
330
3
100
AcDbSymbolTableRecord
100
AcDbTextStyleTableRecord
  2
SLDTEXTSTYLE1
 70
     0
 40
0.0
 41
0.7
 50
0.0
 71
     0
 42
0.5
  3
TXT
  4

  0
STYLE
  5
198
330
3
100
AcDbSymbolTableRecord
100
AcDbTextStyleTableRecord
  2
SLDTEXTSTYLE2
 70
     0
 40
0.0
 41
0.6875
 50
0.0
 71
     0
 42
0.5
  3
TXT
  4

  0
ENDTAB
  0
TABLE
  2
VIEW
  5
6
330
0
100
AcDbSymbolTable
 70
     0
  0
ENDTAB
  0
TABLE
  2
UCS
  5
7
330
0
100
AcDbSymbolTable
 70
     0
  0
ENDTAB
  0
TABLE
  2
APPID
  5
9
330
0
100
AcDbSymbolTable
 70
     1
  0
APPID
  5
12
330
9
100
AcDbSymbolTableRecord
100
AcDbRegAppTableRecord
  2
ACAD
 70
     0
  0
ENDTAB
  0
TABLE
  2
DIMSTYLE
  5
A
330
0
100
AcDbSymbolTable
 70
     5
100
AcDbDimStyleTable
  0
DIMSTYLE
105
27
330
A
100
AcDbSymbolTableRecord
100
AcDbDimStyleTableRecord
  2
Standard
 70
     0
178
     0
340
11
  0
DIMSTYLE
105
122
102
{ACAD_REACTORS
330
121
330
135
330
157
102
}
330
A
100
AcDbSymbolTableRecord
100
AcDbDimStyleTableRecord
  2
SLDDIMSTYLE0
 70
     0
 41
0.52
 44
0.0
 45
0.000000001
 78
    12
 79
     3
140
0.5
147
0.125
148
0.000000001
170
     1
172
     1
173
     1
178
     0
271
     6
272
     0
276
     2
277
     5
284
    12
289
     0
340
6D
  0
DIMSTYLE
105
149
102
{ACAD_REACTORS
330
148
102
}
330
A
100
AcDbSymbolTableRecord
100
AcDbDimStyleTableRecord
  2
SLDDIMSTYLE1
 70
     0
 41
0.52
 44
0.0
 45
0.000000001
 78
    12
 79
     3
140
0.5
147
0.125
148
0.000000001
170
     1
173
     1
178
     0
271
     0
272
     0
276
     2
277
     5
284
    12
340
6D
  0
DIMSTYLE
105
16D
102
{ACAD_REACTORS
330
16C
330
180
102
}
330
A
100
AcDbSymbolTableRecord
100
AcDbDimStyleTableRecord
  2
SLDDIMSTYLE2
 70
     0
 41
0.52
 44
0.0
 45
0.000000001
 78
    12
 79
     3
140
0.5
147
0.125
148
0.000000001
170
     1
173
     1
178
     0
271
     6
272
     0
276
     2
277
     5
284
    12
340
6D
  0
DIMSTYLE
105
196
330
A
100
AcDbSymbolTableRecord
100
AcDbDimStyleTableRecord
  2
SLDDIMSTYLE3
 70
     0
 41
0.52
 44
0.0
 45
0.000000001
146
0.52
147
0.0
173
     1
178
     0
271
     0
272
     0
276
     2
277
     5
340
11
  0
ENDTAB
  0
TABLE
  2
BLOCK_RECORD
  5
1
330
0
100
AcDbSymbolTable
 70
     7
  0
BLOCK_RECORD
  5
1F
330
1
100
AcDbSymbolTableRecord
100
AcDbBlockTableRecord
  2
*Model_Space
340
22
  0
BLOCK_RECORD
  5
1B
330
1
100
AcDbSymbolTableRecord
100
AcDbBlockTableRecord
  2
*Paper_Space
340
1E
  0
BLOCK_RECORD
  5
23
330
1
100
AcDbSymbolTableRecord
100
AcDbBlockTableRecord
  2
*Paper_Space0
340
26
  0
BLOCK_RECORD
  5
123
330
1
100
AcDbSymbolTableRecord
100
AcDbBlockTableRecord
  2
_D
340
0
  0
BLOCK_RECORD
  5
136
330
1
100
AcDbSymbolTableRecord
100
AcDbBlockTableRecord
  2
_D_1
340
0
  0
BLOCK_RECORD
  5
14A
330
1
100
AcDbSymbolTableRecord
100
AcDbBlockTableRecord
  2
_D_2
340
0
  0
BLOCK_RECORD
  5
158
330
1
100
AcDbSymbolTableRecord
100
AcDbBlockTableRecord
  2
_D_3
340
0
  0
BLOCK_RECORD
  5
16E
330
1
100
AcDbSymbolTableRecord
100
AcDbBlockTableRecord
  2
_D_4
340
0
  0
BLOCK_RECORD
  5
181
330
1
100
AcDbSymbolTableRecord
100
AcDbBlockTableRecord
  2
_D_5
340
0
  0
ENDTAB
  0
ENDSEC
  0
SECTION
  2
BLOCKS
  0
BLOCK
  5
20
330
1F
100
AcDbEntity
  8
0
100
AcDbBlockBegin
  2
*Model_Space
 70
     0
 10
0.0
 20
0.0
 30
0.0
  3
*Model_Space
  1

  0
ENDBLK
  5
21
330
1F
100
AcDbEntity
  8
0
100
AcDbBlockEnd
  0
BLOCK
  5
1C
330
1B
100
AcDbEntity
 67
     1
  8
0
100
AcDbBlockBegin
  2
*Paper_Space
 70
     0
 10
0.0
 20
0.0
 30
0.0
  3
*Paper_Space
  1

  0
ENDBLK
  5
1D
330
1B
100
AcDbEntity
 67
     1
  8
0
100
AcDbBlockEnd
  0
BLOCK
  5
24
330
23
100
AcDbEntity
  8
0
100
AcDbBlockBegin
  2
*Paper_Space0
 70
     0
 10
0.0
 20
0.0
 30
0.0
  3
*Paper_Space0
  1

  0
ENDBLK
  5
25
330
23
100
AcDbEntity
  8
0
100
AcDbBlockEnd
  0
BLOCK
  5
124
330
123
100
AcDbEntity
  8
0
100
AcDbBlockBegin
  2
_D
 70
     0
 10
0.0
 20
0.0
 30
0.0
  3
_D
  1

  0
SOLID
  5
126
330
123
100
AcDbEntity
  8
SLD-0
100
AcDbTrace
 10
17.0226307902
 20
17.3262006214
 30
0.0
 11
17.5426307902
 21
17.2462006214
 31
0.0
 12
17.5426307902
 22
17.4062006214
 32
0.0
 13
17.5426307902
 23
17.4062006214
 33
0.0
  0
SOLID
  5
127
330
123
100
AcDbEntity
  8
SLD-0
100
AcDbTrace
 10
11.0976307902
 20
17.3262006214
 30
0.0
 11
10.5776307902
 21
17.4062006214
 31
0.0
 12
10.5776307902
 22
17.2462006214
 32
0.0
 13
10.5776307902
 23
17.2462006214
 33
0.0
  0
LINE
  5
128
330
123
100
AcDbEntity
  8
SLD-0
100
AcDbLine
 10
20.4220932805
 20
17.3262005481
 30
0.0
 11
20.269749532
 21
17.3262005481
 31
0.0
  0
LINE
  5
129
330
123
100
AcDbEntity
  8
SLD-0
100
AcDbLine
 10
20.269749532
 20
17.3262005481
 30
0.0
 11
20.269749532
 21
16.5324505242
 31
0.0
  0
LINE
  5
12A
330
123
100
AcDbEntity
  8
SLD-0
100
AcDbLine
 10
20.269749532
 20
16.5324505242
 30
0.0
 11
20.4220932805
 21
16.5324505242
 31
0.0
  0
LINE
  5
12B
330
123
100
AcDbEntity
  8
SLD-0
100
AcDbLine
 10
22.7804265835
 20
17.3262005481
 30
0.0
 11
22.9327703319
 21
17.3262005481
 31
0.0
  0
LINE
  5
12C
330
123
100
AcDbEntity
  8
SLD-0
100
AcDbLine
 10
22.9327703319
 20
17.3262005481
 30
0.0
 11
22.9327703319
 21
16.5324505242
 31
0.0
  0
LINE
  5
12D
330
123
100
AcDbEntity
  8
SLD-0
100
AcDbLine
 10
22.9327703319
 20
16.5324505242
 30
0.0
 11
22.7804265835
 21
16.5324505242
 31
0.0
  0
LINE
  5
12E
330
123
100
AcDbEntity
  8
SLD-0
100
AcDbLine
 10
17.0226307902
 20
14.6910795864
 30
0.0
 11
17.0226307902
 21
17.8262006214
 31
0.0
  0
LINE
  5
12F
330
123
100
AcDbEntity
  8
SLD-0
100
AcDbLine
 10
11.0976307902
 20
14.6910795864
 30
0.0
 11
11.0976307902
 21
17.8262006214
 31
0.0
  0
LINE
  5
130
330
123
100
AcDbEntity
  8
SLD-0
100
AcDbLine
 10
17.0226307902
 20
17.3262006214
 30
0.0
 11
19.8578794834
 21
17.3262006214
 31
0.0
  0
LINE
  5
131
330
123
100
AcDbEntity
  8
SLD-0
100
AcDbLine
 10
11.0976307902
 20
17.3262006214
 30
0.0
 11
10.0976307902
 21
17.3262006214
 31
0.0
  0
MTEXT
  5
132
330
123
100
AcDbEntity
  8
SLD-0
100
AcDbMText
 10
19.9592981567
 20
18.0722969689
 30
0.0
 40
0.5
 41
0.0
 71
     1
 72
     1
  1
%%c
  7
SLDTEXTSTYLE0
 73
     1
 44
1.0
  0
MTEXT
  5
133
330
123
100
AcDbEntity
  8
SLD-0
100
AcDbMText
 10
20.713360639
 20
18.0722969689
 30
0.0
 40
0.5
 41
0.0
 71
     1
 72
     1
  1
5 15/16"
  7
SLDTEXTSTYLE0
 73
     1
 44
1.0
  0
MTEXT
  5
134
330
123
100
AcDbEntity
  8
SLD-0
100
AcDbMText
 10
20.4220932805
 20
17.1769844491
 30
0.0
 40
0.5
 41
0.0
 71
     1
 72
     1
  1
150mm
  7
SLDTEXTSTYLE0
 73
     1
 44
1.0
  0
ENDBLK
  5
125
330
123
100
AcDbEntity
  8
0
100
AcDbBlockEnd
  0
BLOCK
  5
137
330
136
100
AcDbEntity
  8
0
100
AcDbBlockBegin
  2
_D_1
 70
     0
 10
0.0
 20
0.0
 30
0.0
  3
_D_1
  1

  0
SOLID
  5
139
330
136
100
AcDbEntity
  8
SLD-0
100
AcDbTrace
 10
12.8726307902
 20
7.522145388
 30
0.0
 11
12.3526307902
 21
7.602145388
 31
0.0
 12
12.3526307902
 22
7.442145388
 32
0.0
 13
12.3526307902
 23
7.442145388
 33
0.0
  0
SOLID
  5
13A
330
136
100
AcDbEntity
  8
SLD-0
100
AcDbTrace
 10
15.2476307902
 20
7.522145388
 30
0.0
 11
15.7676307902
 21
7.442145388
 31
0.0
 12
15.7676307902
 22
7.602145388
 32
0.0
 13
15.7676307902
 23
7.602145388
 33
0.0
  0
LINE
  5
13B
330
136
100
AcDbEntity
  8
SLD-0
100
AcDbLine
 10
16.7687036664
 20
7.5221453147
 30
0.0
 11
16.6163599179
 21
7.5221453147
 31
0.0
  0
LINE
  5
13C
330
136
100
AcDbEntity
  8
SLD-0
100
AcDbLine
 10
16.6163599179
 20
7.5221453147
 30
0.0
 11
16.6163599179
 21
6.7283952908
 31
0.0
  0
LINE
  5
13D
330
136
100
AcDbEntity
  8
SLD-0
100
AcDbLine
 10
16.6163599179
 20
6.7283952908
 30
0.0
 11
16.7687036664
 21
6.7283952908
 31
0.0
  0
LINE
  5
13E
330
136
100
AcDbEntity
  8
SLD-0
100
AcDbLine
 10
18.7575925972
 20
7.5221453147
 30
0.0
 11
18.9099363457
 21
7.5221453147
 31
0.0
  0
LINE
  5
13F
330
136
100
AcDbEntity
  8
SLD-0
100
AcDbLine
 10
18.9099363457
 20
7.5221453147
 30
0.0
 11
18.9099363457
 21
6.7283952908
 31
0.0
  0
LINE
  5
140
330
136
100
AcDbEntity
  8
SLD-0
100
AcDbLine
 10
18.9099363457
 20
6.7283952908
 30
0.0
 11
18.7575925972
 21
6.7283952908
 31
0.0
  0
LINE
  5
141
330
136
100
AcDbEntity
  8
SLD-0
100
AcDbLine
 10
12.8726307902
 20
7.3535795864
 30
0.0
 11
12.8726307902
 21
7.022145388
 31
0.0
  0
LINE
  5
142
330
136
100
AcDbEntity
  8
SLD-0
100
AcDbLine
 10
15.2476307902
 20
11.4672002544
 30
0.0
 11
15.2476307902
 21
7.022145388
 31
0.0
  0
LINE
  5
143
330
136
100
AcDbEntity
  8
SLD-0
100
AcDbLine
 10
12.8726307902
 20
7.522145388
 30
0.0
 11
11.8726307902
 21
7.522145388
 31
0.0
  0
LINE
  5
144
330
136
100
AcDbEntity
  8
SLD-0
100
AcDbLine
 10
15.2476307902
 20
7.522145388
 30
0.0
 11
16.3625974961
 21
7.522145388
 31
0.0
  0
MTEXT
  5
145
330
136
100
AcDbEntity
  8
SLD-0
100
AcDbMText
 10
16.4906307287
 20
8.2682417354
 30
0.0
 40
0.5
 41
0.0
 71
     1
 72
     1
  1
%%c
  7
SLDTEXTSTYLE0
 73
     1
 44
1.0
  0
MTEXT
  5
146
330
136
100
AcDbEntity
  8
SLD-0
100
AcDbMText
 10
17.244693211
 20
8.2682417354
 30
0.0
 40
0.5
 41
0.0
 71
     1
 72
     1
  1
2 3/8"
  7
SLDTEXTSTYLE0
 73
     1
 44
1.0
  0
MTEXT
  5
147
330
136
100
AcDbEntity
  8
SLD-0
100
AcDbMText
 10
16.7687036664
 20
7.3729292157
 30
0.0
 40
0.5
 41
0.0
 71
     1
 72
     1
  1
60mm
  7
SLDTEXTSTYLE0
 73
     1
 44
1.0
  0
ENDBLK
  5
138
330
136
100
AcDbEntity
  8
0
100
AcDbBlockEnd
  0
BLOCK
  5
14B
330
14A
100
AcDbEntity
  8
0
100
AcDbBlockBegin
  2
_D_2
 70
     0
 10
0.0
 20
0.0
 30
0.0
  3
_D_2
  1

  0
SOLID
  5
14D
330
14A
100
AcDbEntity
  8
SLD-0
100
AcDbTrace
 10
8.4087654645
 20
21.7835795864
 30
0.0
 11
8.3287654645
 21
21.2635795864
 31
0.0
 12
8.4887654645
 22
21.2635795864
 32
0.0
 13
8.4887654645
 23
21.2635795864
 33
0.0
  0
SOLID
  5
14E
330
14A
100
AcDbEntity
  8
SLD-0
100
AcDbTrace
 10
8.4087654645
 20
3.7835795864
 30
0.0
 11
8.4887654645
 21
4.3035795864
 31
0.0
 12
8.3287654645
 22
4.3035795864
 32
0.0
 13
8.3287654645
 23
4.3035795864
 33
0.0
  0
LINE
  5
14F
330
14A
100
AcDbEntity
  8
SLD-0
100
AcDbLine
 10
12.6726307902
 20
21.7835795864
 30
0.0
 11
7.9087654645
 21
21.7835795864
 31
0.0
  0
LINE
  5
150
330
14A
100
AcDbEntity
  8
SLD-0
100
AcDbLine
 10
14.0651307902
 20
3.7835795864
 30
0.0
 11
7.9087654645
 21
3.7835795864
 31
0.0
  0
LINE
  5
151
330
14A
100
AcDbEntity
  8
SLD-0
100
AcDbLine
 10
8.4087654645
 20
21.7835795864
 30
0.0
 11
8.4087654645
 21
13.9742046589
 31
0.0
  0
LINE
  5
152
330
14A
100
AcDbEntity
  8
SLD-0
100
AcDbLine
 10
8.4087654645
 20
3.7835795864
 30
0.0
 11
8.4087654645
 21
11.592954514
 31
0.0
  0
MTEXT
  5
153
330
14A
100
AcDbEntity
  8
SLD-0
100
AcDbMText
 10
5.8299458686
 20
13.8249885599
 30
0.0
 40
0.5
 41
0.0
 71
     1
 72
     1
  1
SPECIFY LENGTH
  7
SLDTEXTSTYLE0
 73
     1
 44
1.0
  0
MTEXT
  5
155
330
14A
100
AcDbEntity
  8
SLD-0
100
AcDbMText
 10
6.7868906672
 20
13.031238536
 30
0.0
 40
0.5
 41
0.0
 71
     1
 72
     1
  1
12" OR 18"
  7
SLDTEXTSTYLE1
 73
     1
 44
1.0
  0
MTEXT
  5
156
330
14A
100
AcDbEntity
  8
SLD-0
100
AcDbMText
 10
5.1396683494
 20
12.2374885122
 30
0.0
 40
0.5
 41
0.0
 71
     1
 72
     1
  1
[305mm OR 457mm]
  7
SLDTEXTSTYLE0
 73
     1
 44
1.0
  0
ENDBLK
  5
14C
330
14A
100
AcDbEntity
  8
0
100
AcDbBlockEnd
  0
BLOCK
  5
159
330
158
100
AcDbEntity
  8
0
100
AcDbBlockBegin
  2
_D_3
 70
     0
 10
0.0
 20
0.0
 30
0.0
  3
_D_3
  1

  0
SOLID
  5
15B
330
158
100
AcDbEntity
  8
SLD-0
100
AcDbTrace
 10
18.766614226
 20
14.4910795864
 30
0.0
 11
18.846614226
 21
15.0110795864
 31
0.0
 12
18.686614226
 22
15.0110795864
 32
0.0
 13
18.686614226
 23
15.0110795864
 33
0.0
  0
SOLID
  5
15C
330
158
100
AcDbEntity
  8
SLD-0
100
AcDbTrace
 10
18.766614226
 20
13.6160795864
 30
0.0
 11
18.686614226
 21
13.0960795864
 31
0.0
 12
18.846614226
 22
13.0960795864
 32
0.0
 13
18.846614226
 23
13.0960795864
 33
0.0
  0
LINE
  5
15D
330
158
100
AcDbEntity
  8
SLD-0
100
AcDbLine
 10
20.5602799657
 20
12.6251027687
 30
0.0
 11
20.4079362172
 21
12.6251027687
 31
0.0
  0
LINE
  5
15E
330
158
100
AcDbEntity
  8
SLD-0
100
AcDbLine
 10
20.4079362172
 20
12.6251027687
 30
0.0
 11
20.4079362172
 21
11.8313527448
 31
0.0
  0
LINE
  5
15F
330
158
100
AcDbEntity
  8
SLD-0
100
AcDbLine
 10
20.4079362172
 20
11.8313527448
 30
0.0
 11
20.5602799657
 21
11.8313527448
 31
0.0
  0
LINE
  5
160
330
158
100
AcDbEntity
  8
SLD-0
100
AcDbLine
 10
22.5491688965
 20
12.6251027687
 30
0.0
 11
22.701512645
 21
12.6251027687
 31
0.0
  0
LINE
  5
161
330
158
100
AcDbEntity
  8
SLD-0
100
AcDbLine
 10
22.701512645
 20
12.6251027687
 30
0.0
 11
22.701512645
 21
11.8313527448
 31
0.0
  0
LINE
  5
162
330
158
100
AcDbEntity
  8
SLD-0
100
AcDbLine
 10
22.701512645
 20
11.8313527448
 30
0.0
 11
22.5491688965
 21
11.8313527448
 31
0.0
  0
LINE
  5
163
330
158
100
AcDbEntity
  8
SLD-0
100
AcDbLine
 10
17.2226307902
 20
14.4910795864
 30
0.0
 11
19.266614226
 21
14.4910795864
 31
0.0
  0
LINE
  5
164
330
158
100
AcDbEntity
  8
SLD-0
100
AcDbLine
 10
17.1920751169
 20
13.6160795864
 30
0.0
 11
19.266614226
 21
13.6160795864
 31
0.0
  0
LINE
  5
165
330
158
100
AcDbEntity
  8
SLD-0
100
AcDbLine
 10
19.766614226
 20
12.6289222912
 30
0.0
 11
18.766614226
 21
12.6289222912
 31
0.0
  0
LINE
  5
166
330
158
100
AcDbEntity
  8
SLD-0
100
AcDbLine
 10
18.766614226
 20
12.6289222912
 30
0.0
 11
18.766614226
 21
13.6160795864
 31
0.0
  0
LINE
  5
167
330
158
100
AcDbEntity
  8
SLD-0
100
AcDbLine
 10
18.766614226
 20
14.4910795864
 30
0.0
 11
18.766614226
 21
15.4910795864
 31
0.0
  0
MTEXT
  5
168
330
158
100
AcDbEntity
  8
SLD-0
100
AcDbMText
 10
20.258370246
 20
13.3788380787
 30
0.0
 40
0.5
 41
0.0
 71
     1
 72
     1
  1

  7
SLDTEXTSTYLE0
 73
     1
 44
1.0
  0
MTEXT
  5
169
330
158
100
AcDbEntity
  8
SLD-0
100
AcDbMText
 10
20.9363215849
 20
13.3711991528
 30
0.0
 40
0.5
 41
0.0
 71
     1
 72
     1
  1
7/8"
  7
SLDTEXTSTYLE0
 73
     1
 44
1.0
  0
MTEXT
  5
16A
330
158
100
AcDbEntity
  8
SLD-0
100
AcDbMText
 10
20.5602799657
 20
12.4758866697
 30
0.0
 40
0.5
 41
0.0
 71
     1
 72
     1
  1
22mm
  7
SLDTEXTSTYLE0
 73
     1
 44
1.0
  0
MTEXT
  5
16B
330
158
100
AcDbEntity
  8
SLD-0
100
AcDbMText
 10
23.0413562834
 20
13.3788380787
 30
0.0
 40
0.5
 41
0.0
 71
     1
 72
     1
  1

  7
SLDTEXTSTYLE0
 73
     1
 44
1.0
  0
ENDBLK
  5
15A
330
158
100
AcDbEntity
  8
0
100
AcDbBlockEnd
  0
BLOCK
  5
16F
330
16E
100
AcDbEntity
  8
0
100
AcDbBlockBegin
  2
_D_4
 70
     0
 10
0.0
 20
0.0
 30
0.0
  3
_D_4
  1

  0
SOLID
  5
171
330
16E
100
AcDbEntity
  8
SLD-0
100
AcDbTrace
 10
12.9501307902
 20
27.358382736
 30
0.0
 11
13.4701307902
 21
27.278382736
 31
0.0
 12
13.4701307902
 22
27.438382736
 32
0.0
 13
13.4701307902
 23
27.438382736
 33
0.0
  0
SOLID
  5
172
330
16E
100
AcDbEntity
  8
SLD-0
100
AcDbTrace
 10
15.1701307902
 20
27.358382736
 30
0.0
 11
14.6501307902
 21
27.438382736
 31
0.0
 12
14.6501307902
 22
27.278382736
 32
0.0
 13
14.6501307902
 23
27.278382736
 33
0.0
  0
LINE
  5
173
330
16E
100
AcDbEntity
  8
SLD-0
100
AcDbLine
 10
9.6565544357
 20
27.3583826627
 30
0.0
 11
9.5042106873
 21
27.3583826627
 31
0.0
  0
LINE
  5
174
330
16E
100
AcDbEntity
  8
SLD-0
100
AcDbLine
 10
9.5042106873
 20
27.3583826627
 30
0.0
 11
9.5042106873
 21
26.5646326388
 31
0.0
  0
LINE
  5
175
330
16E
100
AcDbEntity
  8
SLD-0
100
AcDbLine
 10
9.5042106873
 20
26.5646326388
 30
0.0
 11
9.6565544357
 21
26.5646326388
 31
0.0
  0
LINE
  5
176
330
16E
100
AcDbEntity
  8
SLD-0
100
AcDbLine
 10
11.6454433666
 20
27.3583826627
 30
0.0
 11
11.797787115
 21
27.3583826627
 31
0.0
  0
LINE
  5
177
330
16E
100
AcDbEntity
  8
SLD-0
100
AcDbLine
 10
11.797787115
 20
27.3583826627
 30
0.0
 11
11.797787115
 21
26.5646326388
 31
0.0
  0
LINE
  5
178
330
16E
100
AcDbEntity
  8
SLD-0
100
AcDbLine
 10
11.797787115
 20
26.5646326388
 30
0.0
 11
11.6454433666
 21
26.5646326388
 31
0.0
  0
LINE
  5
179
330
16E
100
AcDbEntity
  8
SLD-0
100
AcDbLine
 10
12.9501307902
 20
25.3435795864
 30
0.0
 11
12.9501307902
 21
27.858382736
 31
0.0
  0
LINE
  5
17A
330
16E
100
AcDbEntity
  8
SLD-0
100
AcDbLine
 10
15.1701307902
 20
25.3435795864
 30
0.0
 11
15.1701307902
 21
27.858382736
 31
0.0
  0
LINE
  5
17B
330
16E
100
AcDbEntity
  8
SLD-0
100
AcDbLine
 10
12.9501307902
 20
27.358382736
 30
0.0
 11
12.0515494635
 21
27.358382736
 31
0.0
  0
LINE
  5
17C
330
16E
100
AcDbEntity
  8
SLD-0
100
AcDbLine
 10
15.1701307902
 20
27.358382736
 30
0.0
 11
12.9501307902
 21
27.358382736
 31
0.0
  0
MTEXT
  5
17D
330
16E
100
AcDbEntity
  8
SLD-0
100
AcDbMText
 10
9.3784814981
 20
28.1044790835
 30
0.0
 40
0.5
 41
0.0
 71
     1
 72
     1
  1
%%c
  7
SLDTEXTSTYLE0
 73
     1
 44
1.0
  0
MTEXT
  5
17E
330
16E
100
AcDbEntity
  8
SLD-0
100
AcDbMText
 10
10.1325439804
 20
28.1044790835
 30
0.0
 40
0.5
 41
0.0
 71
     1
 72
     1
  1
2 1/4"
  7
SLDTEXTSTYLE0
 73
     1
 44
1.0
  0
MTEXT
  5
17F
330
16E
100
AcDbEntity
  8
SLD-0
100
AcDbMText
 10
9.6565544357
 20
27.2091665637
 30
0.0
 40
0.5
 41
0.0
 71
     1
 72
     1
  1
56mm
  7
SLDTEXTSTYLE0
 73
     1
 44
1.0
  0
ENDBLK
  5
170
330
16E
100
AcDbEntity
  8
0
100
AcDbBlockEnd
  0
BLOCK
  5
182
330
181
100
AcDbEntity
  8
0
100
AcDbBlockBegin
  2
_D_5
 70
     0
 10
0.0
 20
0.0
 30
0.0
  3
_D_5
  1

  0
SOLID
  5
184
330
181
100
AcDbEntity
  8
SLD-0
100
AcDbTrace
 10
19.4855455062
 20
26.5085795864
 30
0.0
 11
19.4055455062
 21
25.9885795864
 31
0.0
 12
19.5655455062
 22
25.9885795864
 32
0.0
 13
19.5655455062
 23
25.9885795864
 33
0.0
  0
SOLID
  5
185
330
181
100
AcDbEntity
  8
SLD-0
100
AcDbTrace
 10
19.4855455062
 20
21.7835795864
 30
0.0
 11
19.5655455062
 21
22.3035795864
 31
0.0
 12
19.4055455062
 22
22.3035795864
 32
0.0
 13
19.4055455062
 23
22.3035795864
 33
0.0
  0
LINE
  5
186
330
181
100
AcDbEntity
  8
SLD-0
100
AcDbLine
 10
18.306378928
 20
24.1422600639
 30
0.0
 11
18.1540351796
 21
24.1422600639
 31
0.0
  0
LINE
  5
187
330
181
100
AcDbEntity
  8
SLD-0
100
AcDbLine
 10
18.1540351796
 20
24.1422600639
 30
0.0
 11
18.1540351796
 21
23.34851004
 31
0.0
  0
LINE
  5
188
330
181
100
AcDbEntity
  8
SLD-0
100
AcDbLine
 10
18.1540351796
 20
23.34851004
 30
0.0
 11
18.306378928
 21
23.34851004
 31
0.0
  0
LINE
  5
189
330
181
100
AcDbEntity
  8
SLD-0
100
AcDbLine
 10
20.664712231
 20
24.1422600639
 30
0.0
 11
20.8170559795
 21
24.1422600639
 31
0.0
  0
LINE
  5
18A
330
181
100
AcDbEntity
  8
SLD-0
100
AcDbLine
 10
20.8170559795
 20
24.1422600639
 30
0.0
 11
20.8170559795
 21
23.34851004
 31
0.0
  0
LINE
  5
18B
330
181
100
AcDbEntity
  8
SLD-0
100
AcDbLine
 10
20.8170559795
 20
23.34851004
 30
0.0
 11
20.664712231
 21
23.34851004
 31
0.0
  0
LINE
  5
18C
330
181
100
AcDbEntity
  8
SLD-0
100
AcDbLine
 10
15.3401307902
 20
26.5085795864
 30
0.0
 11
19.9855455062
 21
26.5085795864
 31
0.0
  0
LINE
  5
18D
330
181
100
AcDbEntity
  8
SLD-0
100
AcDbLine
 10
15.4476307902
 20
21.7835795864
 30
0.0
 11
19.9855455062
 21
21.7835795864
 31
0.0
  0
LINE
  5
18E
330
181
100
AcDbEntity
  8
SLD-0
100
AcDbLine
 10
19.4855455062
 20
26.5085795864
 30
0.0
 11
19.4855455062
 21
25.0452114729
 31
0.0
  0
LINE
  5
18F
330
181
100
AcDbEntity
  8
SLD-0
100
AcDbLine
 10
19.4855455062
 20
21.7835795864
 30
0.0
 11
19.4855455062
 21
23.2469476999
 31
0.0
  0
MTEXT
  5
190
330
181
100
AcDbEntity
  8
SLD-0
100
AcDbMText
 10
18.0044692084
 20
24.8959953739
 30
0.0
 40
0.5
 41
0.0
 71
     1
 72
     1
  1

  7
SLDTEXTSTYLE0
 73
     1
 44
1.0
  0
MTEXT
  5
191
330
181
100
AcDbEntity
  8
SLD-0
100
AcDbMText
 10
18.5900594543
 20
24.888356448
 30
0.0
 40
0.5
 41
0.0
 71
     1
 72
     1
  1
4 3/4"
  7
SLDTEXTSTYLE0
 73
     1
 44
1.0
  0
MTEXT
  5
192
330
181
100
AcDbEntity
  8
SLD-0
100
AcDbMText
 10
18.306378928
 20
23.9930439649
 30
0.0
 40
0.5
 41
0.0
 71
     1
 72
     1
  1
120mm
  7
SLDTEXTSTYLE0
 73
     1
 44
1.0
  0
MTEXT
  5
193
330
181
100
AcDbEntity
  8
SLD-0
100
AcDbMText
 10
21.1568996179
 20
24.8959953739
 30
0.0
 40
0.5
 41
0.0
 71
     1
 72
     1
  1

  7
SLDTEXTSTYLE0
 73
     1
 44
1.0
  0
ENDBLK
  5
183
330
181
100
AcDbEntity
  8
0
100
AcDbBlockEnd
  0
ENDSEC
  0
SECTION
  2
ENTITIES
  0
MTEXT
  5
6E
330
1F
100
AcDbEntity
  8
SLD-0
100
AcDbMText
 10
35.0169421488
 20
3.373003985
 30
0.0
 40
0.5
 41
0.0
 71
     1
 72
     1
  1
PP1-JUNCTION-CC
  7
SLDTEXTSTYLE0
 73
     1
 44
1.0
  0
LINE
  5
6F
330
1F
100
AcDbEntity
  8
0
  6
Continuous
 62
     7
370
    25
100
AcDbLine
 10
15.1701307902
 20
25.1435795864
 30
0.0
 11
15.1701307902
 21
26.4785795864
 31
0.0
  0
LINE
  5
70
330
1F
100
AcDbEntity
  8
0
  6
Continuous
 62
     7
370
    25
100
AcDbLine
 10
12.9501307902
 20
26.4785795864
 30
0.0
 11
12.9501307902
 21
25.1435795864
 31
0.0
  0
LINE
  5
71
330
1F
100
AcDbEntity
  8
0
  6
Continuous
 62
     7
370
    25
100
AcDbLine
 10
15.1701307902
 20
26.4785795864
 30
0.0
 11
15.1401307902
 21
26.5085795864
 31
0.0
  0
LINE
  5
72
330
1F
100
AcDbEntity
  8
0
  6
Continuous
 62
     7
370
    25
100
AcDbLine
 10
12.9801307902
 20
26.5085795864
 30
0.0
 11
12.9501307902
 21
26.4785795864
 31
0.0
  0
LINE
  5
73
330
1F
100
AcDbEntity
  8
0
  6
Continuous
 62
     7
370
    25
100
AcDbLine
 10
12.9501307902
 20
25.1435795864
 30
0.0
 11
12.9501307902
 21
21.7835795864
 31
0.0
  0
LINE
  5
74
330
1F
100
AcDbEntity
  8
0
  6
Continuous
 62
     7
370
    25
100
AcDbLine
 10
15.1701307902
 20
21.7835795864
 30
0.0
 11
15.1701307902
 21
25.1435795864
 31
0.0
  0
LINE
  5
75
330
1F
100
AcDbEntity
  8
0
  6
Continuous
 62
     7
370
    25
100
AcDbLine
 10
14.2651307902
 20
4.6235795864
 30
0.0
 11
14.2651307902
 21
3.7835795864
 31
0.0
  0
LINE
  5
76
330
1F
100
AcDbEntity
  8
0
  6
Continuous
 62
     7
370
    25
100
AcDbLine
 10
15.3551307902
 20
3.7835795864
 30
0.0
 11
15.3551307902
 21
4.6235795864
 31
0.0
  0
LINE
  5
77
330
1F
100
AcDbEntity
  8
0
  6
Continuous
 62
     7
370
    25
100
AcDbLine
 10
12.7651307902
 20
4.6235795864
 30
0.0
 11
12.7651307902
 21
3.7835795864
 31
0.0
  0
LINE
  5
78
330
1F
100
AcDbEntity
  8
0
  6
Continuous
 62
     7
370
    25
100
AcDbLine
 10
13.8551307902
 20
3.7835795864
 30
0.0
 11
13.8551307902
 21
4.6235795864
 31
0.0
  0
LINE
  5
79
330
1F
100
AcDbEntity
  8
0
  6
Continuous
 62
     7
370
    25
100
AcDbLine
 10
12.7163807902
 20
5.9360795864
 30
0.0
 11
12.7163807902
 21
4.7798295864
 31
0.0
  0
LINE
  5
7A
330
1F
100
AcDbEntity
  8
0
  6
Continuous
 62
     7
370
    25
100
AcDbLine
 10
15.4038807902
 20
4.7798295864
 30
0.0
 11
15.4038807902
 21
5.9360795864
 31
0.0
  0
ARC
  5
7B
330
1F
100
AcDbEntity
  8
0
  6
Continuous
 62
     7
370
    25
100
AcDbCircle
 10
15.2476307902
 20
4.7798295864
 30
0.0
 40
0.15625
100
AcDbArc
 50
270.0
 51
0.0
  0
ARC
  5
7C
330
1F
100
AcDbEntity
  8
0
  6
Continuous
 62
     7
370
    25
100
AcDbCircle
 10
12.8726307902
 20
4.7798295864
 30
0.0
 40
0.1562500000000018
100
AcDbArc
 50
180.0
 51
270.0
  0
LINE
  5
7D
330
1F
100
AcDbEntity
  8
0
  6
Continuous
 62
     7
370
    25
100
AcDbLine
 10
15.2476307902
 20
5.9360795864
 30
0.0
 11
15.2476307902
 21
13.6160795864
 31
0.0
  0
LINE
  5
7E
330
1F
100
AcDbEntity
  8
0
  6
Continuous
 62
     7
370
    25
100
AcDbLine
 10
15.2476307902
 20
14.4910795864
 30
0.0
 11
15.2476307902
 21
21.7835795864
 31
0.0
  0
LINE
  5
7F
330
1F
100
AcDbEntity
  8
0
  6
Continuous
 62
     7
370
    25
100
AcDbLine
 10
12.8726307902
 20
21.7835795864
 30
0.0
 11
12.8726307902
 21
14.4910795864
 31
0.0
  0
LINE
  5
80
330
1F
100
AcDbEntity
  8
0
  6
Continuous
 62
     7
370
    25
100
AcDbLine
 10
12.8726307902
 20
13.6160795864
 30
0.0
 11
12.8726307902
 21
5.9360795864
 31
0.0
  0
LINE
  5
81
330
1F
100
AcDbEntity
  8
0
  6
Continuous
 62
     7
370
    25
100
AcDbLine
 10
11.0976307902
 20
14.4910795864
 30
0.0
 11
11.1281864635
 21
13.6160795864
 31
0.0
  0
LINE
  5
82
330
1F
100
AcDbEntity
  8
0
  6
Continuous
 62
     7
370
    25
100
AcDbLine
 10
16.9920751169
 20
13.6160795864
 30
0.0
 11
17.0226307902
 21
14.4910795864
 31
0.0
  0
SPLINE
  5
83
330
1F
100
AcDbEntity
  8
0
  6
Continuous
 62
     7
370
    25
100
AcDbSpline
210
0.0
220
0.0
230
1.0
 70
    11
 71
     3
 72
    26
 73
    22
 74
     0
 42
0.00000001
 43
0.00000001
 40
0.0
 40
0.0
 40
0.0
 40
0.0
 40
0.0536200607839425
 40
0.107237682253033
 40
0.1609185883661187
 40
0.2146408563604118
 40
0.2682944511770212
 40
0.3218767096526439
 40
0.3754958818586674
 40
0.4292028051159852
 40
0.4829116531775864
 40
0.5365331513008976
 40
0.5901144855235956
 40
0.6437653861511284
 40
0.69748708991918
 40
0.7511704282073653
 40
0.804766299050973
 40
0.8583618717573664
 40
0.9120446244252609
 40
0.9657664953707786
 40
1.0
 40
1.0
 40
1.0
 40
1.0
 10
14.12813079015542
 20
25.39357958642354
 30
0.0
 10
14.12738040253997
 20
25.40121806062064
 30
0.0
 10
14.12587966144613
 20
25.41649466152096
 30
0.0
 10
14.11418233782639
 20
25.43683165958117
 30
0.0
 10
14.09694494212764
 20
25.45231101219941
 30
0.0
 10
14.07539957387926
 20
25.4611778948239
 30
0.0
 10
14.05218040041597
 20
25.46242129765568
 30
0.0
 10
14.02986562010614
 20
25.45591909219364
 30
0.0
 10
14.01095627146264
 20
25.44240948837859
 30
0.0
 10
13.99756670066468
 20
25.42338980343691
 30
0.0
 10
13.99122740853637
 20
25.40100052791318
 30
0.0
 10
13.99265499269039
 20
25.37779079607309
 30
0.0
 10
14.00166807380285
 20
25.35637290308075
 30
0.0
 10
14.01725892602993
 20
25.33913077386225
 30
0.0
 10
14.03769387554035
 20
25.3280087601406
 30
0.0
 10
14.06066139970462
 20
25.32428106482574
 30
0.0
 10
14.08354078870531
 20
25.328357163295
 30
0.0
 10
14.10381041654216
 20
25.33976536974524
 30
0.0
 10
14.11906467691901
 20
25.35722756281919
 30
0.0
 10
14.12702270212716
 20
25.376230159896
 30
0.0
 10
14.12782033852855
 20
25.38871881945069
 30
0.0
 10
14.12813079015542
 20
25.39357958642354
 30
0.0
  0
LINE
  5
84
330
1F
100
AcDbEntity
  8
0
  6
Continuous
 62
     7
370
    25
100
AcDbLine
 10
15.1701307902
 20
25.1435795864
 30
0.0
 11
12.9501307902
 21
25.1435795864
 31
0.0
  0
LINE
  5
85
330
1F
100
AcDbEntity
  8
0
  6
Continuous
 62
     7
370
    25
100
AcDbLine
 10
15.1701307902
 20
26.4785795864
 30
0.0
 11
12.9501307902
 21
26.4785795864
 31
0.0
  0
LINE
  5
86
330
1F
100
AcDbEntity
  8
0
  6
Continuous
 62
     7
370
    25
100
AcDbLine
 10
12.9801307902
 20
26.5085795864
 30
0.0
 11
15.1401307902
 21
26.5085795864
 31
0.0
  0
CIRCLE
  5
87
330
1F
100
AcDbEntity
  8
0
  6
Continuous
 62
     7
370
    25
100
AcDbCircle
 10
14.0601307902
 20
22.0335795864
 30
0.0
 40
0.0954229900769862
  0
LINE
  5
88
330
1F
100
AcDbEntity
  8
0
  6
Continuous
 62
     7
370
    25
100
AcDbLine
 10
14.1173447635
 20
22.1033144288
 30
0.0
 11
14.0654416985
 21
22.0660163617
 31
0.0
  0
LINE
  5
89
330
1F
100
AcDbEntity
  8
0
  6
Continuous
 62
     7
370
    25
100
AcDbLine
 10
14.0654416985
 20
22.0660163617
 30
0.0
 11
14.0281436315
 21
22.1179194267
 31
0.0
  0
LINE
  5
8A
330
1F
100
AcDbEntity
  8
0
  6
Continuous
 62
     7
370
    25
100
AcDbLine
 10
14.0281436315
 20
22.1179194267
 30
0.0
 11
13.9903959478
 21
22.0907935598
 31
0.0
  0
LINE
  5
8B
330
1F
100
AcDbEntity
  8
0
  6
Continuous
 62
     7
370
    25
100
AcDbLine
 10
13.9903959478
 20
22.0907935598
 30
0.0
 11
14.0276940149
 21
22.0388904948
 31
0.0
  0
LINE
  5
8C
330
1F
100
AcDbEntity
  8
0
  6
Continuous
 62
     7
370
    25
100
AcDbLine
 10
14.0276940149
 20
22.0388904948
 30
0.0
 11
13.9757909499
 21
22.0015924277
 31
0.0
  0
LINE
  5
8D
330
1F
100
AcDbEntity
  8
0
  6
Continuous
 62
     7
370
    25
100
AcDbLine
 10
13.9757909499
 20
22.0015924277
 30
0.0
 11
14.0029168168
 21
21.9638447441
 31
0.0
  0
LINE
  5
8E
330
1F
100
AcDbEntity
  8
0
  6
Continuous
 62
     7
370
    25
100
AcDbLine
 10
14.0029168168
 20
21.9638447441
 30
0.0
 11
14.0548198818
 21
22.0011428111
 31
0.0
  0
LINE
  5
8F
330
1F
100
AcDbEntity
  8
0
  6
Continuous
 62
     7
370
    25
100
AcDbLine
 10
14.0548198818
 20
22.0011428111
 30
0.0
 11
14.0921179489
 21
21.9492397461
 31
0.0
  0
LINE
  5
90
330
1F
100
AcDbEntity
  8
0
  6
Continuous
 62
     7
370
    25
100
AcDbLine
 10
14.0921179489
 20
21.9492397461
 30
0.0
 11
14.1298656325
 21
21.9763656131
 31
0.0
  0
LINE
  5
91
330
1F
100
AcDbEntity
  8
0
  6
Continuous
 62
     7
370
    25
100
AcDbLine
 10
14.1298656325
 20
21.9763656131
 30
0.0
 11
14.0925675654
 21
22.0282686781
 31
0.0
  0
LINE
  5
92
330
1F
100
AcDbEntity
  8
0
  6
Continuous
 62
     7
370
    25
100
AcDbLine
 10
14.1444706305
 20
22.0655667451
 30
0.0
 11
14.0925675654
 21
22.0282686781
 31
0.0
  0
LINE
  5
93
330
1F
100
AcDbEntity
  8
0
  6
Continuous
 62
     7
370
    25
100
AcDbLine
 10
14.1444706305
 20
22.0655667451
 30
0.0
 11
14.1173447635
 21
22.1033144288
 31
0.0
  0
LINE
  5
94
330
1F
100
AcDbEntity
  8
0
  6
Continuous
 62
     7
370
    25
100
AcDbLine
 10
14.0654416985
 20
22.0660163617
 30
0.0
 11
14.0925675654
 21
22.0282686781
 31
0.0
  0
LINE
  5
95
330
1F
100
AcDbEntity
  8
0
  6
Continuous
 62
     7
370
    25
100
AcDbLine
 10
14.0276940149
 20
22.0388904948
 30
0.0
 11
14.0654416985
 21
22.0660163617
 31
0.0
  0
LINE
  5
96
330
1F
100
AcDbEntity
  8
0
  6
Continuous
 62
     7
370
    25
100
AcDbLine
 10
14.0548198818
 20
22.0011428111
 30
0.0
 11
14.0276940149
 21
22.0388904948
 31
0.0
  0
LINE
  5
97
330
1F
100
AcDbEntity
  8
0
  6
Continuous
 62
     7
370
    25
100
AcDbLine
 10
14.0925675654
 20
22.0282686781
 30
0.0
 11
14.0548198818
 21
22.0011428111
 31
0.0
  0
CIRCLE
  5
98
330
1F
100
AcDbEntity
  8
0
  6
Continuous
 62
     7
370
    25
100
AcDbCircle
 10
14.0601307902
 20
22.0335795864
 30
0.0
 40
0.1610229900769916
  0
LINE
  5
99
330
1F
100
AcDbEntity
  8
0
  6
Continuous
 62
     7
370
    25
100
AcDbLine
 10
14.0654416985
 20
22.0660163617
 30
0.0
 11
14.0601307902
 21
22.0335795864
 31
0.0
  0
LINE
  5
9A
330
1F
100
AcDbEntity
  8
0
  6
Continuous
 62
     7
370
    25
100
AcDbLine
 10
14.079004632
 20
22.0471425199
 30
0.0
 11
14.0601307902
 21
22.0335795864
 31
0.0
  0
LINE
  5
9B
330
1F
100
AcDbEntity
  8
0
  6
Continuous
 62
     7
370
    25
100
AcDbLine
 10
14.0465678567
 20
22.0524534282
 30
0.0
 11
14.0601307902
 21
22.0335795864
 31
0.0
  0
LINE
  5
9C
330
1F
100
AcDbEntity
  8
0
  6
Continuous
 62
     7
370
    25
100
AcDbLine
 10
14.0276940149
 20
22.0388904948
 30
0.0
 11
14.0601307902
 21
22.0335795864
 31
0.0
  0
LINE
  5
9D
330
1F
100
AcDbEntity
  8
0
  6
Continuous
 62
     7
370
    25
100
AcDbLine
 10
14.0601307902
 20
22.0335795864
 30
0.0
 11
14.0412569483
 21
22.020016653
 31
0.0
  0
LINE
  5
9E
330
1F
100
AcDbEntity
  8
0
  6
Continuous
 62
     7
370
    25
100
AcDbLine
 10
14.0601307902
 20
22.0335795864
 30
0.0
 11
14.0925675654
 21
22.0282686781
 31
0.0
  0
LINE
  5
9F
330
1F
100
AcDbEntity
  8
0
  6
Continuous
 62
     7
370
    25
100
AcDbLine
 10
14.0601307902
 20
22.0335795864
 30
0.0
 11
14.0736937236
 21
22.0147057446
 31
0.0
  0
LINE
  5
A0
330
1F
100
AcDbEntity
  8
0
  6
Continuous
 62
     7
370
    25
100
AcDbLine
 10
14.0601307902
 20
22.0335795864
 30
0.0
 11
14.0548198818
 21
22.0011428111
 31
0.0
  0
LINE
  5
A1
330
1F
100
AcDbEntity
  8
0
  6
Continuous
 62
     7
370
    25
100
AcDbLine
 10
14.0872662528
 20
24.7365795864
 30
0.0
 11
14.0329953275
 21
24.7365795864
 31
0.0
  0
LINE
  5
A2
330
1F
100
AcDbEntity
  8
0
  6
Continuous
 62
     7
370
    25
100
AcDbLine
 10
14.1144017155
 20
24.7835795864
 30
0.0
 11
14.0872662528
 21
24.7365795864
 31
0.0
  0
LINE
  5
A3
330
1F
100
AcDbEntity
  8
0
  6
Continuous
 62
     7
370
    25
100
AcDbLine
 10
14.0872662528
 20
24.8305795864
 30
0.0
 11
14.1144017155
 21
24.7835795864
 31
0.0
  0
LINE
  5
A4
330
1F
100
AcDbEntity
  8
0
  6
Continuous
 62
     7
370
    25
100
AcDbLine
 10
14.0329953275
 20
24.8305795864
 30
0.0
 11
14.0872662528
 21
24.8305795864
 31
0.0
  0
LINE
  5
A5
330
1F
100
AcDbEntity
  8
0
  6
Continuous
 62
     7
370
    25
100
AcDbLine
 10
14.0058598649
 20
24.7835795864
 30
0.0
 11
14.0329953275
 21
24.8305795864
 31
0.0
  0
LINE
  5
A6
330
1F
100
AcDbEntity
  8
0
  6
Continuous
 62
     7
370
    25
100
AcDbLine
 10
14.0329953275
 20
24.7365795864
 30
0.0
 11
14.0058598649
 21
24.7835795864
 31
0.0
  0
CIRCLE
  5
A7
330
1F
100
AcDbEntity
  8
0
  6
Continuous
 62
     7
370
    25
100
AcDbCircle
 10
14.0601307902
 20
24.7835795864
 30
0.0
 40
0.1794999999999993
  0
ARC
  5
A8
330
1F
100
AcDbEntity
  8
0
  6
Continuous
 62
     7
370
    25
100
AcDbCircle
 10
14.0601307902
 20
24.7835795864
 30
0.0
 40
0.0470000000000009
100
AcDbArc
 50
270.0
 51
330.0
  0
ARC
  5
A9
330
1F
100
AcDbEntity
  8
0
  6
Continuous
 62
     7
370
    25
100
AcDbCircle
 10
14.0601307902
 20
24.7835795864
 30
0.0
 40
0.0470000000000041
100
AcDbArc
 50
90.0
 51
150.0
  0
ARC
  5
AA
330
1F
100
AcDbEntity
  8
0
  6
Continuous
 62
     7
370
    25
100
AcDbCircle
 10
14.0601307902
 20
24.7835795864
 30
0.0
 40
0.0470000000000041
100
AcDbArc
 50
30.0
 51
90.0
  0
ARC
  5
AB
330
1F
100
AcDbEntity
  8
0
  6
Continuous
 62
     7
370
    25
100
AcDbCircle
 10
14.0601307902
 20
24.7835795864
 30
0.0
 40
0.0470000000000009
100
AcDbArc
 50
330.0
 51
30.0
  0
ARC
  5
AC
330
1F
100
AcDbEntity
  8
0
  6
Continuous
 62
     7
370
    25
100
AcDbCircle
 10
14.0601307902
 20
24.7835795864
 30
0.0
 40
0.0470000000000006
100
AcDbArc
 50
210.0
 51
270.0
  0
ARC
  5
AD
330
1F
100
AcDbEntity
  8
0
  6
Continuous
 62
     7
370
    25
100
AcDbCircle
 10
14.0601307902
 20
24.7835795864
 30
0.0
 40
0.0469999999999994
100
AcDbArc
 50
150.0
 51
210.0
  0
SPLINE
  5
AE
330
1F
100
AcDbEntity
  8
0
  6
Continuous
 62
     7
370
    25
100
AcDbSpline
210
0.0
220
0.0
230
1.0
 70
     8
 71
     3
 72
    12
 73
     8
 74
     0
 42
0.00000001
 43
0.00000001
 40
0.0
 40
0.0
 40
0.0
 40
0.0
 40
0.1244586459814132
 40
0.3806289589967679
 40
0.6433078249079143
 40
0.9229472893031009
 40
1.0
 40
1.0
 40
1.0
 40
1.0
 10
14.06013079015542
 20
24.97357958642354
 30
0.0
 10
14.06904540083393
 20
24.97314115006771
 30
0.0
 10
14.09630874566359
 20
24.97180029044008
 30
0.0
 10
14.14098916395739
 20
24.95617990008877
 30
0.0
 10
14.18601194716364
 20
24.92085821751444
 30
0.0
 10
14.21469305311284
 20
24.88484807466392
 30
0.0
 10
14.22121396316617
 20
24.86008049193952
 30
0.0
 10
14.22262261138137
 20
24.8547301940648
 30
0.0
  0
SPLINE
  5
AF
330
1F
100
AcDbEntity
  8
0
  6
Continuous
 62
     7
370
    25
100
AcDbSpline
210
0.0
220
0.0
230
1.0
 70
     8
 71
     3
 72
    11
 73
     7
 74
     0
 42
0.00000001
 43
0.00000001
 40
0.0
 40
0.0
 40
0.0
 40
0.0
 40
0.0904281062209954
 40
0.4247087849983506
 40
0.74290450026107
 40
1.0
 40
1.0
 40
1.0
 40
1.0
 10
14.21570264258852
 20
24.69711316858381
 30
0.0
 10
14.2137105136923
 20
24.69147785293136
 30
0.0
 10
14.20435418988513
 20
24.66501077135845
 30
0.0
 10
14.16810795719955
 20
24.62925093033531
 30
0.0
 10
14.11537224318209
 20
24.59852764499511
 30
0.0
 10
14.07719296657017
 20
24.59510787077583
 30
0.0
 10
14.06013079015542
 20
24.59357958642354
 30
0.0
  0
SPLINE
  5
B0
330
1F
100
AcDbEntity
  8
0
  6
Continuous
 62
     7
370
    25
100
AcDbSpline
210
0.0
220
0.0
230
1.0
 70
     8
 71
     3
 72
    12
 73
     8
 74
     0
 42
0.00000001
 43
0.00000001
 40
0.0
 40
0.0
 40
0.0
 40
0.0
 40
0.0342423781479439
 40
0.2824817200055454
 40
0.5320727796452186
 40
0.7954785635041085
 40
1.0
 40
1.0
 40
1.0
 40
1.0
 10
14.06013079015542
 20
24.59357958642354
 30
0.0
 10
14.0575873801506
 20
24.59361706126158
 30
0.0
 10
14.03660557714208
 20
24.59392620908602
 30
0.0
 10
13.99705310911267
 20
24.60267080934
 30
0.0
 10
13.94840375483793
 20
24.63240584357685
 30
0.0
 10
13.91154659042035
 20
24.6727607903862
 30
0.0
 10
13.89994051116772
 20
24.70574625627839
 30
0.0
 10
13.89486773083442
 20
24.72016353010709
 30
0.0
  0
SPLINE
  5
B1
330
1F
100
AcDbEntity
  8
0
  6
Continuous
 62
     7
370
    25
100
AcDbSpline
210
0.0
220
0.0
230
1.0
 70
     8
 71
     3
 72
    11
 73
     7
 74
     0
 42
0.00000001
 43
0.00000001
 40
0.0
 40
0.0
 40
0.0
 40
0.0
 40
0.2442077093867078
 40
0.5312262467202922
 40
0.843870392855773
 40
1.0
 40
1.0
 40
1.0
 40
1.0
 10
13.90454155839978
 20
24.8729186451751
 30
0.0
 10
13.91236432501573
 20
24.88683252380915
 30
0.0
 10
13.92938122820357
 20
24.9170994533121
 30
0.0
 10
13.9727777572305
 20
24.95234499087926
 30
0.0
 10
14.01941152877068
 20
24.97133296063598
 30
0.0
 10
14.04995724543502
 20
24.97301827594927
 30
0.0
 10
14.06013079015542
 20
24.97357958642354
 30
0.0
  0
LINE
  5
B2
330
1F
100
AcDbEntity
  8
0
  6
Continuous
 62
     7
370
    25
100
AcDbLine
 10
13.5988059248
 20
3.7835795864
 30
0.0
 11
13.5988059248
 21
3.6585795864
 31
0.0
  0
LINE
  5
B3
330
1F
100
AcDbEntity
  8
0
  6
Continuous
 62
     7
370
    25
100
AcDbLine
 10
13.8874810593
 20
3.7835795864
 30
0.0
 11
13.8874810593
 21
3.6585795864
 31
0.0
  0
LINE
  5
B4
330
1F
100
AcDbEntity
  8
0
  6
Continuous
 62
     7
370
    25
100
AcDbLine
 10
13.8874810593
 20
3.6585795864
 30
0.0
 11
13.5988059248
 21
3.6585795864
 31
0.0
  0
LINE
  5
B5
330
1F
100
AcDbEntity
  8
0
  6
Continuous
 62
     7
370
    25
100
AcDbLine
 10
13.8874810593
 20
3.7835795864
 30
0.0
 11
13.8515697343
 21
3.7835795864
 31
0.0
  0
LINE
  5
B6
330
1F
100
AcDbEntity
  8
0
  6
Continuous
 62
     7
370
    25
100
AcDbLine
 10
13.6347172498
 20
3.7835795864
 30
0.0
 11
13.5988059248
 21
3.7835795864
 31
0.0
  0
LINE
  5
B7
330
1F
100
AcDbEntity
  8
0
  6
Continuous
 62
     7
370
    25
100
AcDbLine
 10
13.0214556556
 20
3.7835795864
 30
0.0
 11
13.0214556556
 21
3.6585795864
 31
0.0
  0
LINE
  5
B8
330
1F
100
AcDbEntity
  8
0
  6
Continuous
 62
     7
370
    25
100
AcDbLine
 10
13.5988059248
 20
3.6585795864
 30
0.0
 11
13.0214556556
 21
3.6585795864
 31
0.0
  0
LINE
  5
B9
330
1F
100
AcDbEntity
  8
0
  6
Continuous
 62
     7
370
    25
100
AcDbLine
 10
13.5988059248
 20
3.7835795864
 30
0.0
 11
13.5269832746
 21
3.7835795864
 31
0.0
  0
LINE
  5
BA
330
1F
100
AcDbEntity
  8
0
  6
Continuous
 62
     7
370
    25
100
AcDbLine
 10
13.0932783057
 20
3.7835795864
 30
0.0
 11
13.0214556556
 21
3.7835795864
 31
0.0
  0
LINE
  5
BB
330
1F
100
AcDbEntity
  8
0
  6
Continuous
 62
     7
370
    25
100
AcDbLine
 10
12.732780521
 20
3.7835795864
 30
0.0
 11
12.732780521
 21
3.6585795864
 31
0.0
  0
LINE
  5
BC
330
1F
100
AcDbEntity
  8
0
  6
Continuous
 62
     7
370
    25
100
AcDbLine
 10
13.0214556556
 20
3.6585795864
 30
0.0
 11
12.732780521
 21
3.6585795864
 31
0.0
  0
LINE
  5
BD
330
1F
100
AcDbEntity
  8
0
  6
Continuous
 62
     7
370
    25
100
AcDbLine
 10
13.0214556556
 20
3.7835795864
 30
0.0
 11
12.9855443305
 21
3.7835795864
 31
0.0
  0
LINE
  5
BE
330
1F
100
AcDbEntity
  8
0
  6
Continuous
 62
     7
370
    25
100
AcDbLine
 10
12.7686918461
 20
3.7835795864
 30
0.0
 11
12.732780521
 21
3.7835795864
 31
0.0
  0
LINE
  5
BF
330
1F
100
AcDbEntity
  8
0
  6
Continuous
 62
     7
370
    25
100
AcDbLine
 10
15.3551307902
 20
4.6235795864
 30
0.0
 11
15.1772182902
 21
4.6235795864
 31
0.0
  0
LINE
  5
C0
330
1F
100
AcDbEntity
  8
0
  6
Continuous
 62
     7
370
    25
100
AcDbLine
 10
15.3551307902
 20
3.7835795864
 30
0.0
 11
14.2651307902
 21
3.7835795864
 31
0.0
  0
LINE
  5
C1
330
1F
100
AcDbEntity
  8
0
  6
Continuous
 62
     7
370
    25
100
AcDbLine
 10
12.9430432902
 20
4.6235795864
 30
0.0
 11
12.7651307902
 21
4.6235795864
 31
0.0
  0
LINE
  5
C2
330
1F
100
AcDbEntity
  8
0
  6
Continuous
 62
     7
370
    25
100
AcDbLine
 10
13.8515697343
 20
3.7835795864
 30
0.0
 11
13.6347172498
 21
3.7835795864
 31
0.0
  0
LINE
  5
C3
330
1F
100
AcDbEntity
  8
0
  6
Continuous
 62
     7
370
    25
100
AcDbLine
 10
13.5269832746
 20
3.7835795864
 30
0.0
 11
13.0932783057
 21
3.7835795864
 31
0.0
  0
LINE
  5
C4
330
1F
100
AcDbEntity
  8
0
  6
Continuous
 62
     7
370
    25
100
AcDbLine
 10
12.9855443305
 20
3.7835795864
 30
0.0
 11
12.7686918461
 21
3.7835795864
 31
0.0
  0
LINE
  5
C5
330
1F
100
AcDbEntity
  8
0
  6
Continuous
 62
     7
370
    25
100
AcDbLine
 10
15.4038807902
 20
5.9360795864
 30
0.0
 11
12.7163807902
 21
5.9360795864
 31
0.0
  0
LINE
  5
C6
330
1F
100
AcDbEntity
  8
0
  6
Continuous
 62
     7
370
    25
100
AcDbLine
 10
15.1772182902
 20
4.6235795864
 30
0.0
 11
12.9430432902
 21
4.6235795864
 31
0.0
  0
LINE
  5
C7
330
1F
100
AcDbEntity
  8
0
  6
Continuous
 62
     7
370
    25
100
AcDbLine
 10
12.8726307902
 20
21.7835795864
 30
0.0
 11
13.5601307902
 21
21.7835795864
 31
0.0
  0
LINE
  5
C8
330
1F
100
AcDbEntity
  8
0
  6
Continuous
 62
     7
370
    25
100
AcDbLine
 10
14.5601307902
 20
21.7835795864
 30
0.0
 11
15.2476307902
 21
21.7835795864
 31
0.0
  0
LINE
  5
C9
330
1F
100
AcDbEntity
  8
0
  6
Continuous
 62
     7
370
    25
100
AcDbLine
 10
14.2326459062
 20
13.6160795864
 30
0.0
 11
16.9920751169
 21
13.6160795864
 31
0.0
  0
LINE
  5
CA
330
1F
100
AcDbEntity
  8
0
  6
Continuous
 62
     7
370
    25
100
AcDbLine
 10
11.1281864635
 20
13.6160795864
 30
0.0
 11
14.2326459062
 21
13.6160795864
 31
0.0
  0
LINE
  5
CB
330
1F
100
AcDbEntity
  8
0
  6
Continuous
 62
     7
370
    25
100
AcDbLine
 10
14.2344437969
 20
14.4910795864
 30
0.0
 11
17.0226307902
 21
14.4910795864
 31
0.0
  0
LINE
  5
CC
330
1F
100
AcDbEntity
  8
0
  6
Continuous
 62
     7
370
    25
100
AcDbLine
 10
11.0976307902
 20
14.4910795864
 30
0.0
 11
14.2344437969
 21
14.4910795864
 31
0.0
  0
SPLINE
  5
CD
330
1F
100
AcDbEntity
  8
0
  6
Continuous
 62
     7
370
    25
100
AcDbSpline
210
0.0
220
0.0
230
1.0
 70
     8
 71
     3
 72
    11
 73
     7
 74
     0
 42
0.00000001
 43
0.00000001
 40
0.0
 40
0.0
 40
0.0
 40
0.0
 40
0.2798157723866329
 40
0.5582434525783414
 40
0.7787575721023114
 40
0.9999999999999999
 40
0.9999999999999999
 40
0.9999999999999999
 40
0.9999999999999999
 10
14.1876529847577
 20
21.68390674873267
 30
0.0
 10
14.18735699165997
 20
21.68706991977324
 30
0.0
 10
14.18676647380815
 20
21.69338057019771
 30
0.0
 10
14.18042999632535
 20
21.70021455087587
 30
0.0
 10
14.17272656593288
 20
21.70289108868705
 30
0.0
 10
14.16780844390859
 20
21.70312032105077
 30
0.0
 10
14.16534532872964
 20
21.70323512619627
 30
0.0
  0
SPLINE
  5
CE
330
1F
100
AcDbEntity
  8
0
  6
Continuous
 62
     7
370
    25
100
AcDbSpline
210
0.0
220
0.0
230
1.0
 70
     8
 71
     3
 72
    11
 73
     7
 74
     0
 42
0.00000001
 43
0.00000001
 40
0.0
 40
0.0
 40
0.0
 40
0.0
 40
0.2814679941090468
 40
0.5598819086306253
 40
0.7797191212695566
 40
0.9999999999999999
 40
0.9999999999999999
 40
0.9999999999999999
 40
0.9999999999999999
 10
14.16207058452243
 20
21.66383970716218
 30
0.0
 10
14.16554563021539
 20
21.66388937817829
 30
0.0
 10
14.17245801548077
 20
21.66398818125318
 30
0.0
 10
14.18165005270172
 20
21.6680618262462
 30
0.0
 10
14.18689695400325
 20
21.67572451094643
 30
0.0
 10
14.18740080520189
 20
21.68117750381991
 30
0.0
 10
14.1876529847577
 20
21.68390674873267
 30
0.0
  0
LINE
  5
CF
330
1F
100
AcDbEntity
  8
0
  6
Continuous
 62
     7
370
    25
100
AcDbLine
 10
14.1324993981
 20
21.6638397072
 30
0.0
 11
14.1620705845
 21
21.6638397072
 31
0.0
  0
LINE
  5
D0
330
1F
100
AcDbEntity
  8
0
  6
Continuous
 62
     7
370
    25
100
AcDbLine
 10
14.1324993981
 20
21.7032351262
 30
0.0
 11
14.1324993981
 21
21.6638397072
 31
0.0
  0
LINE
  5
D1
330
1F
100
AcDbEntity
  8
0
  6
Continuous
 62
     7
370
    25
100
AcDbLine
 10
14.1653453287
 20
21.7032351262
 30
0.0
 11
14.1324993981
 21
21.7032351262
 31
0.0
  0
SPLINE
  5
D2
330
1F
100
AcDbEntity
  8
0
  6
Continuous
 62
     7
370
    25
100
AcDbSpline
210
0.0
220
0.0
230
1.0
 70
     8
 71
     3
 72
     9
 73
     5
 74
     0
 42
0.00000001
 43
0.00000001
 40
0.0
 40
0.0
 40
0.0
 40
0.0
 40
0.5590457952192168
 40
0.9999999999999999
 40
0.9999999999999999
 40
0.9999999999999999
 40
0.9999999999999999
 10
14.36478463758973
 20
21.70082215678043
 30
0.0
 10
14.36163928362304
 20
21.70167699433618
 30
0.0
 10
14.35601299326617
 20
21.70320609546359
 30
0.0
 10
14.35019047297695
 20
21.70322624234444
 30
0.0
 10
14.347623008173
 20
21.70323512619627
 30
0.0
  0
SPLINE
  5
D3
330
1F
100
AcDbEntity
  8
0
  6
Continuous
 62
     7
370
    25
100
AcDbSpline
210
0.0
220
0.0
230
1.0
 70
     8
 71
     3
 72
    10
 73
     6
 74
     0
 42
0.00000001
 43
0.00000001
 40
0.0
 40
0.0
 40
0.0
 40
0.0
 40
0.5599552451968851
 40
0.780640280608843
 40
1.0
 40
1.0
 40
1.0
 40
1.0
 10
14.38305426316679
 20
21.65758568439052
 30
0.0
 10
14.38259399333194
 20
21.66687944188607
 30
0.0
 10
14.38195232566991
 20
21.67983597996919
 30
0.0
 10
14.37392332678296
 20
21.69476879218328
 30
0.0
 10
14.36782474480083
 20
21.69880842406952
 30
0.0
 10
14.36478463758973
 20
21.70082215678043
 30
0.0
  0
SPLINE
  5
D4
330
1F
100
AcDbEntity
  8
0
  6
Continuous
 62
     7
370
    25
100
AcDbSpline
210
0.0
220
0.0
230
1.0
 70
     8
 71
     3
 72
     9
 73
     5
 74
     0
 42
0.00000001
 43
0.00000001
 40
0.0
 40
0.0
 40
0.0
 40
0.0
 40
0.5595654112245922
 40
1.0
 40
1.0
 40
1.0
 40
1.0
 10
14.37822832433511
 20
21.62794063156737
 30
0.0
 10
14.37984583925701
 20
21.63336117347641
 30
0.0
 10
14.38273650206328
 20
21.64304823025354
 30
0.0
 10
14.38295710291943
 20
21.65314063864907
 30
0.0
 10
14.38305426316679
 20
21.65758568439052
 30
0.0
  0
SPLINE
  5
D5
330
1F
100
AcDbEntity
  8
0
  6
Continuous
 62
     7
370
    25
100
AcDbSpline
210
0.0
220
0.0
230
1.0
 70
     8
 71
     3
 72
    11
 73
     7
 74
     0
 42
0.00000001
 43
0.00000001
 40
0.0
 40
0.0
 40
0.0
 40
0.0
 40
0.2807474483783169
 40
0.55999953898194
 40
0.7797085369030178
 40
1.0
 40
1.0
 40
1.0
 40
1.0
 10
14.34796771808955
 20
21.61026193727582
 30
0.0
 10
14.35149787506932
 20
21.61038203171346
 30
0.0
 10
14.35853938619481
 20
21.61062158092433
 30
0.0
 10
14.36815576428049
 20
21.61376607120618
 30
0.0
 10
14.37475845887587
 20
21.62035395729647
 30
0.0
 10
14.3770706822213
 20
21.62540950932561
 30
0.0
 10
14.37822832433511
 20
21.62794063156737
 30
0.0
  0
LINE
  5
D6
330
1F
100
AcDbEntity
  8
0
  6
Continuous
 62
     7
370
    25
100
AcDbLine
 10
14.3263248598
 20
21.7032351262
 30
0.0
 11
14.3263248598
 21
21.6102619373
 31
0.0
  0
LINE
  5
D7
330
1F
100
AcDbEntity
  8
0
  6
Continuous
 62
     7
370
    25
100
AcDbLine
 10
14.3476230082
 20
21.7032351262
 30
0.0
 11
14.3263248598
 21
21.7032351262
 31
0.0
  0
LINE
  5
D8
330
1F
100
AcDbEntity
  8
0
  6
Continuous
 62
     7
370
    25
100
AcDbLine
 10
14.3263248598
 20
21.6102619373
 30
0.0
 11
14.3479677181
 21
21.6102619373
 31
0.0
  0
LINE
  5
D9
330
1F
100
AcDbEntity
  8
0
  6
Continuous
 62
     7
370
    25
100
AcDbLine
 10
14.4271771325
 20
21.6102619373
 30
0.0
 11
14.4886339862
 21
21.6102619373
 31
0.0
  0
LINE
  5
DA
330
1F
100
AcDbEntity
  8
0
  6
Continuous
 62
     7
370
    25
100
AcDbLine
 10
14.4271771325
 20
21.6512331731
 30
0.0
 11
14.4271771325
 21
21.6102619373
 31
0.0
  0
LINE
  5
DB
330
1F
100
AcDbEntity
  8
0
  6
Continuous
 62
     7
370
    25
100
AcDbLine
 10
14.4839065359
 20
21.6512331731
 30
0.0
 11
14.4271771325
 21
21.6512331731
 31
0.0
  0
LINE
  5
DC
330
1F
100
AcDbEntity
  8
0
  6
Continuous
 62
     7
370
    25
100
AcDbLine
 10
14.4870581694
 20
21.7032351262
 30
0.0
 11
14.4271771325
 21
21.7032351262
 31
0.0
  0
LINE
  5
DD
330
1F
100
AcDbEntity
  8
0
  6
Continuous
 62
     7
370
    25
100
AcDbLine
 10
14.4870581694
 20
21.717417477
 30
0.0
 11
14.4870581694
 21
21.7032351262
 31
0.0
  0
LINE
  5
DE
330
1F
100
AcDbEntity
  8
0
  6
Continuous
 62
     7
370
    25
100
AcDbLine
 10
14.4886339862
 20
21.5960795864
 30
0.0
 11
14.4145705984
 21
21.5960795864
 31
0.0
  0
LINE
  5
DF
330
1F
100
AcDbEntity
  8
0
  6
Continuous
 62
     7
370
    25
100
AcDbLine
 10
14.4886339862
 20
21.6102619373
 30
0.0
 11
14.4886339862
 21
21.5960795864
 31
0.0
  0
LINE
  5
E0
330
1F
100
AcDbEntity
  8
0
  6
Continuous
 62
     7
370
    25
100
AcDbLine
 10
14.275824857
 20
21.6323233719
 30
0.0
 11
14.2334255372
 21
21.6323233719
 31
0.0
  0
LINE
  5
E1
330
1F
100
AcDbEntity
  8
0
  6
Continuous
 62
     7
370
    25
100
AcDbLine
 10
14.286436998
 20
21.5960795864
 30
0.0
 11
14.275824857
 21
21.6323233719
 31
0.0
  0
LINE
  5
E2
330
1F
100
AcDbEntity
  8
0
  6
Continuous
 62
     7
370
    25
100
AcDbLine
 10
14.2995359748
 20
21.5960795864
 30
0.0
 11
14.286436998
 21
21.5960795864
 31
0.0
  0
LINE
  5
E3
330
1F
100
AcDbEntity
  8
0
  6
Continuous
 62
     7
370
    25
100
AcDbLine
 10
14.2484696629
 20
21.717417477
 30
0.0
 11
14.2607561092
 21
21.717417477
 31
0.0
  0
LINE
  5
E4
330
1F
100
AcDbEntity
  8
0
  6
Continuous
 62
     7
370
    25
100
AcDbLine
 10
14.2097144194
 20
21.5960795864
 30
0.0
 11
14.2484696629
 21
21.717417477
 31
0.0
  0
LINE
  5
E5
330
1F
100
AcDbEntity
  8
0
  6
Continuous
 62
     7
370
    25
100
AcDbLine
 10
14.2334255372
 20
21.6323233719
 30
0.0
 11
14.2228380184
 21
21.5960795864
 31
0.0
  0
SPLINE
  5
E6
330
1F
100
AcDbEntity
  8
0
  6
Continuous
 62
     7
370
    25
100
AcDbSpline
210
0.0
220
0.0
230
1.0
 70
     8
 71
     3
 72
    11
 73
     7
 74
     0
 42
0.00000001
 43
0.00000001
 40
0.0
 40
0.0
 40
0.0
 40
0.0
 40
0.2808041604286786
 40
0.5593155177302198
 40
0.779566927714578
 40
1.0
 40
1.0
 40
1.0
 40
1.0
 10
14.08680071203042
 20
21.67959787477582
 30
0.0
 10
14.08575543603101
 20
21.6834654986074
 30
0.0
 10
14.08367341884902
 20
21.69116916661021
 30
0.0
 10
14.07613100528761
 20
21.69985271232318
 30
0.0
 10
14.06663487593065
 20
21.70415612085013
 30
0.0
 10
14.06038191636093
 20
21.70459260894432
 30
0.0
 10
14.05725414775485
 20
21.70481094295764
 30
0.0
  0
SPLINE
  5
E7
330
1F
100
AcDbEntity
  8
0
  6
Continuous
 62
     7
370
    25
100
AcDbSpline
210
0.0
220
0.0
230
1.0
 70
     8
 71
     3
 72
    11
 73
     7
 74
     0
 42
0.00000001
 43
0.00000001
 40
0.0
 40
0.0
 40
0.0
 40
0.0
 40
0.2808704908630506
 40
0.5607643858929071
 40
0.7800038250546892
 40
1.0
 40
1.0
 40
1.0
 40
1.0
 10
14.00800987396224
 20
21.65618222258743
 30
0.0
 10
14.00856354303112
 20
21.66465997982112
 30
0.0
 10
14.00966895604352
 20
21.68158601685085
 30
0.0
 10
14.02042256183339
 20
21.70331412654382
 30
0.0
 10
14.03834415674839
 20
21.71720250916639
 30
0.0
 10
14.05173103795044
 20
21.71839568037823
 30
0.0
 10
14.05843601032588
 20
21.7189932938099
 30
0.0
  0
SPLINE
  5
E8
330
1F
100
AcDbEntity
  8
0
  6
Continuous
 62
     7
370
    25
100
AcDbSpline
210
0.0
220
0.0
230
1.0
 70
     8
 71
     3
 72
    11
 73
     7
 74
     0
 42
0.00000001
 43
0.00000001
 40
0.0
 40
0.0
 40
0.0
 40
0.0
 40
0.2790871395362525
 40
0.5580210855610602
 40
0.7787760248986322
 40
1.0
 40
1.0
 40
1.0
 40
1.0
 10
14.05927316298035
 20
21.59450376966218
 30
0.0
 10
14.05078758115723
 20
21.59560426964314
 30
0.0
 10
14.03382107532532
 20
21.59780466553043
 30
0.0
 10
14.0168595041335
 20
21.61598298969114
 30
0.0
 10
14.00899222947872
 20
21.6362934369723
 30
0.0
 10
14.00833755738423
 20
21.64954793874592
 30
0.0
 10
14.00800987396224
 20
21.65618222258743
 30
0.0
  0
SPLINE
  5
E9
330
1F
100
AcDbEntity
  8
0
  6
Continuous
 62
     7
370
    25
100
AcDbSpline
210
0.0
220
0.0
230
1.0
 70
     8
 71
     3
 72
     9
 73
     5
 74
     0
 42
0.00000001
 43
0.00000001
 40
0.0
 40
0.0
 40
0.0
 40
0.0
 40
0.5602350202430281
 40
1.0
 40
1.0
 40
1.0
 40
1.0
 10
14.1009830628827
 20
21.61309348301889
 30
0.0
 10
14.09413418165752
 20
21.60736864943506
 30
0.0
 10
14.08190916719448
 20
21.59715002086494
 30
0.0
 10
14.06618715385731
 20
21.59531204644553
 30
0.0
 10
14.05927316298035
 20
21.59450376966218
 30
0.0
  0
LINE
  5
EA
330
1F
100
AcDbEntity
  8
0
  6
Continuous
 62
     7
370
    25
100
AcDbLine
 10
14.1009830629
 20
21.6575364401
 30
0.0
 11
14.1009830629
 21
21.613093483
 31
0.0
  0
LINE
  5
EB
330
1F
100
AcDbEntity
  8
0
  6
Continuous
 62
     7
370
    25
100
AcDbLine
 10
13.8101307902
 20
20.4085795864
 30
0.0
 11
13.8126307902
 21
20.4085795864
 31
0.0
  0
LINE
  5
EC
330
1F
100
AcDbEntity
  8
0
  6
Continuous
 62
     7
370
    25
100
AcDbLine
 10
14.2607561092
 20
21.717417477
 30
0.0
 11
14.2995359748
 21
21.5960795864
 31
0.0
  0
LINE
  5
ED
330
1F
100
AcDbEntity
  8
0
  6
Continuous
 62
     7
370
    25
100
AcDbLine
 10
14.3137183257
 20
21.717417477
 30
0.0
 11
14.3479184738
 21
21.717417477
 31
0.0
  0
LINE
  5
EE
330
1F
100
AcDbEntity
  8
0
  6
Continuous
 62
     7
370
    25
100
AcDbLine
 10
14.4271771325
 20
21.7032351262
 30
0.0
 11
14.4271771325
 21
21.6654155239
 31
0.0
  0
LINE
  5
EF
330
1F
100
AcDbEntity
  8
0
  6
Continuous
 62
     7
370
    25
100
AcDbLine
 10
13.8738807902
 20
21.5835795864
 30
0.0
 11
13.8126307902
 21
21.7835795864
 31
0.0
  0
LINE
  5
F0
330
1F
100
AcDbEntity
  8
0
  6
Continuous
 62
     7
370
    25
100
AcDbLine
 10
13.8126307902
 20
21.6227795864
 30
0.0
 11
13.8738807902
 21
21.5835795864
 31
0.0
  0
LINE
  5
F1
330
1F
100
AcDbEntity
  8
0
  6
Continuous
 62
     7
370
    25
100
AcDbLine
 10
14.4145705984
 20
21.717417477
 30
0.0
 11
14.4870581694
 21
21.717417477
 31
0.0
  0
LINE
  5
F2
330
1F
100
AcDbEntity
  8
0
  6
Continuous
 62
     7
370
    25
100
AcDbLine
 10
14.4145705984
 20
21.5960795864
 30
0.0
 11
14.4145705984
 21
21.717417477
 31
0.0
  0
LINE
  5
F3
330
1F
100
AcDbEntity
  8
0
  6
Continuous
 62
     7
370
    25
100
AcDbLine
 10
14.4839065359
 20
21.6654155239
 30
0.0
 11
14.4839065359
 21
21.6512331731
 31
0.0
  0
LINE
  5
F4
330
1F
100
AcDbEntity
  8
0
  6
Continuous
 62
     7
370
    25
100
AcDbLine
 10
14.4271771325
 20
21.6654155239
 30
0.0
 11
14.4839065359
 21
21.6654155239
 31
0.0
  0
LINE
  5
F5
330
1F
100
AcDbEntity
  8
0
  6
Continuous
 62
     7
370
    25
100
AcDbLine
 10
13.8101307902
 20
21.7835795864
 30
0.0
 11
13.5601307902
 21
21.7835795864
 31
0.0
  0
LINE
  5
F6
330
1F
100
AcDbEntity
  8
0
  6
Continuous
 62
     7
370
    25
100
AcDbLine
 10
14.5601307902
 20
21.7835795864
 30
0.0
 11
13.8126307902
 21
21.7835795864
 31
0.0
  0
LINE
  5
F7
330
1F
100
AcDbEntity
  8
0
  6
Continuous
 62
     7
370
    25
100
AcDbLine
 10
14.5601307902
 20
20.2835795864
 30
0.0
 11
14.5601307902
 21
21.7835795864
 31
0.0
  0
LINE
  5
F8
330
1F
100
AcDbEntity
  8
0
  6
Continuous
 62
     7
370
    25
100
AcDbLine
 10
13.5601307902
 20
20.2835795864
 30
0.0
 11
14.5601307902
 21
20.2835795864
 31
0.0
  0
LINE
  5
F9
330
1F
100
AcDbEntity
  8
0
  6
Continuous
 62
     7
370
    25
100
AcDbLine
 10
13.5601307902
 20
21.7835795864
 30
0.0
 11
13.5601307902
 21
20.2835795864
 31
0.0
  0
LINE
  5
FA
330
1F
100
AcDbEntity
  8
0
  6
Continuous
 62
     7
370
    25
100
AcDbLine
 10
14.193808519
 20
21.5960795864
 30
0.0
 11
14.1797985231
 21
21.6220313187
 31
0.0
  0
LINE
  5
FB
330
1F
100
AcDbEntity
  8
0
  6
Continuous
 62
     7
370
    25
100
AcDbLine
 10
14.0584360103
 20
21.6575364401
 30
0.0
 11
14.1009830629
 21
21.6575364401
 31
0.0
  0
LINE
  5
FC
330
1F
100
AcDbEntity
  8
0
  6
Continuous
 62
     7
370
    25
100
AcDbLine
 10
14.0584360103
 20
21.6433540893
 30
0.0
 11
14.0584360103
 21
21.6575364401
 31
0.0
  0
SPLINE
  5
FD
330
1F
100
AcDbEntity
  8
0
  6
Continuous
 62
     7
370
    25
100
AcDbSpline
210
0.0
220
0.0
230
1.0
 70
     8
 71
     3
 72
     9
 73
     5
 74
     0
 42
0.00000001
 43
0.00000001
 40
0.0
 40
0.0
 40
0.0
 40
0.0
 40
0.5603093479473512
 40
1.0
 40
1.0
 40
1.0
 40
1.0
 10
14.34791847381576
 20
21.71741747704854
 30
0.0
 10
14.35157316307014
 20
21.71739251434653
 30
0.0
 10
14.35809579073604
 20
21.71734796270357
 30
0.0
 10
14.3644349569961
 20
21.71583993032905
 30
0.0
 10
14.36722222914246
 20
21.71517686259098
 30
0.0
  0
SPLINE
  5
FE
330
1F
100
AcDbEntity
  8
0
  6
Continuous
 62
     7
370
    25
100
AcDbSpline
210
0.0
220
0.0
230
1.0
 70
     8
 71
     3
 72
    11
 73
     7
 74
     0
 42
0.00000001
 43
0.00000001
 40
0.0
 40
0.0
 40
0.0
 40
0.0
 40
0.2814723071154657
 40
0.5582297695646814
 40
0.7789098815581049
 40
1.0
 40
1.0
 40
1.0
 40
1.0
 10
14.16445893180138
 20
21.71741747704854
 30
0.0
 10
14.16978324447761
 20
21.71739328143148
 30
0.0
 10
14.18034268412127
 20
21.7173452954897
 30
0.0
 10
14.19334256964987
 20
21.70883263873399
 30
0.0
 10
14.19936928059576
 20
21.69637255584713
 30
0.0
 10
14.19996258921464
 20
21.68811381701999
 30
0.0
 10
14.20025951884861
 20
21.68398061514335
 30
0.0
  0
LINE
  5
FF
330
1F
100
AcDbEntity
  8
0
  6
Continuous
 62
     7
370
    25
100
AcDbLine
 10
14.3137183257
 20
21.5960795864
 30
0.0
 11
14.3137183257
 21
21.717417477
 31
0.0
  0
LINE
  5
100
330
1F
100
AcDbEntity
  8
0
  6
Continuous
 62
     7
370
    25
100
AcDbLine
 10
14.3494942906
 20
21.5960795864
 30
0.0
 11
14.3137183257
 21
21.5960795864
 31
0.0
  0
LINE
  5
101
330
1F
100
AcDbEntity
  8
0
  6
Continuous
 62
     7
370
    25
100
AcDbLine
 10
14.1324993981
 20
21.5960795864
 30
0.0
 11
14.119892864
 21
21.5960795864
 31
0.0
  0
LINE
  5
102
330
1F
100
AcDbEntity
  8
0
  6
Continuous
 62
     7
370
    25
100
AcDbLine
 10
14.2081386027
 20
21.5960795864
 30
0.0
 11
14.193808519
 21
21.5960795864
 31
0.0
  0
SPLINE
  5
103
330
1F
100
AcDbEntity
  8
0
  6
Continuous
 62
     7
370
    25
100
AcDbSpline
210
0.0
220
0.0
230
1.0
 70
     8
 71
     3
 72
    11
 73
     7
 74
     0
 42
0.00000001
 43
0.00000001
 40
0.0
 40
0.0
 40
0.0
 40
0.0
 40
0.1871408907891723
 40
0.3737682473159177
 40
0.5609148849662406
 40
1.0
 40
1.0
 40
1.0
 40
1.0
 10
14.05725414775485
 20
21.70481094295764
 30
0.0
 10
14.05298589363374
 20
21.70448523267022
 30
0.0
 10
14.04446109792919
 20
21.70383470587862
 30
0.0
 10
14.03331268382495
 20
21.69678410866026
 30
0.0
 10
14.02262622685179
 20
21.68128816434667
 30
0.0
 10
14.02144478273221
 20
21.66683393393459
 30
0.0
 10
14.02061640805315
 20
21.65669928746225
 30
0.0
  0
LINE
  5
104
330
1F
100
AcDbEntity
  8
0
  6
Continuous
 62
     7
370
    25
100
AcDbLine
 10
14.0994072461
 20
21.6827495083
 30
0.0
 11
14.086800712
 21
21.6795978748
 31
0.0
  0
SPLINE
  5
105
330
1F
100
AcDbEntity
  8
0
  6
Continuous
 62
     7
370
    25
100
AcDbSpline
210
0.0
220
0.0
230
1.0
 70
     8
 71
     3
 72
    10
 73
     6
 74
     0
 42
0.00000001
 43
0.00000001
 40
0.0
 40
0.0
 40
0.0
 40
0.0
 40
0.2810174711329134
 40
0.5612809230786844
 40
0.9999999999999999
 40
0.9999999999999999
 40
0.9999999999999999
 40
0.9999999999999999
 10
14.05843601032588
 20
21.7189932938099
 30
0.0
 10
14.06406305215536
 20
21.71852844569098
 30
0.0
 10
14.07530203747368
 20
21.71759999672221
 30
0.0
 10
14.092766407095
 20
21.70557692577497
 30
0.0
 10
14.09689065397613
 20
21.69140011694734
 30
0.0
 10
14.09940724612133
 20
21.68274950829854
 30
0.0
  0
SPLINE
  5
106
330
1F
100
AcDbEntity
  8
0
  6
Continuous
 62
     7
370
    25
100
AcDbSpline
210
0.0
220
0.0
230
1.0
 70
     8
 71
     3
 72
    10
 73
     6
 74
     0
 42
0.00000001
 43
0.00000001
 40
0.0
 40
0.0
 40
0.0
 40
0.0
 40
0.5609767169391883
 40
0.7797398293731671
 40
1.0
 40
1.0
 40
1.0
 40
1.0
 10
14.17979852308777
 20
21.62203131871225
 30
0.0
 10
14.1761104854162
 20
21.62959378987266
 30
0.0
 10
14.17098423012267
 20
21.64010538472892
 30
0.0
 10
14.15858549794158
 20
21.64948432816141
 30
0.0
 10
14.15192117670449
 20
21.64959954929336
 30
0.0
 10
14.14857765350326
 20
21.6496573563099
 30
0.0
  0
LINE
  5
107
330
1F
100
AcDbEntity
  8
0
  6
Continuous
 62
     7
370
    25
100
AcDbLine
 10
13.7488807902
 20
21.5835795864
 30
0.0
 11
13.8101307902
 21
21.6227795864
 31
0.0
  0
LINE
  5
108
330
1F
100
AcDbEntity
  8
0
  6
Continuous
 62
     7
370
    25
100
AcDbLine
 10
13.8101307902
 20
21.7835795864
 30
0.0
 11
13.7488807902
 21
21.5835795864
 31
0.0
  0
LINE
  5
109
330
1F
100
AcDbEntity
  8
0
  6
Continuous
 62
     7
370
    25
100
AcDbLine
 10
14.190386042
 20
21.6292456048
 30
0.0
 11
14.2081386027
 21
21.5960795864
 31
0.0
  0
SPLINE
  5
10A
330
1F
100
AcDbEntity
  8
0
  6
Continuous
 62
     7
370
    25
100
AcDbSpline
210
0.0
220
0.0
230
1.0
 70
     8
 71
     3
 72
    11
 73
     7
 74
     0
 42
0.00000001
 43
0.00000001
 40
0.0
 40
0.0
 40
0.0
 40
0.0
 40
0.4986209472086349
 40
0.6243884791871334
 40
0.7498206800077762
 40
1.0
 40
1.0
 40
1.0
 40
1.0
 10
14.3956607972577
 20
21.65741332943224
 30
0.0
 10
14.39440486777801
 20
21.64258676921893
 30
0.0
 10
14.39283215427255
 20
21.62402049470721
 30
0.0
 10
14.38006600500415
 20
21.60612569378017
 30
0.0
 10
14.36801507420963
 20
21.59736979371881
 30
0.0
 10
14.35689854892156
 20
21.59659538685194
 30
0.0
 10
14.34949429057712
 20
21.59607958642354
 30
0.0
  0
SPLINE
  5
10B
330
1F
100
AcDbEntity
  8
0
  6
Continuous
 62
     7
370
    25
100
AcDbSpline
210
0.0
220
0.0
230
1.0
 70
     8
 71
     3
 72
     9
 73
     5
 74
     0
 42
0.00000001
 43
0.00000001
 40
0.0
 40
0.0
 40
0.0
 40
0.0
 40
0.5601468224864691
 40
1.0
 40
1.0
 40
1.0
 40
1.0
 10
14.17189481714406
 20
21.65044526469058
 30
0.0
 10
14.17350123132858
 20
21.64956076000359
 30
0.0
 10
14.17636907618646
 20
21.64798170135058
 30
0.0
 10
14.17876797983313
 20
21.64575958023705
 30
0.0
 10
14.17982314522467
 20
21.64478217320444
 30
0.0
  0
LINE
  5
10C
330
1F
100
AcDbEntity
  8
0
  6
Continuous
 62
     7
370
    25
100
AcDbLine
 10
14.0883765288
 20
21.6433540893
 30
0.0
 11
14.0584360103
 21
21.6433540893
 31
0.0
  0
LINE
  5
10D
330
1F
100
AcDbEntity
  8
0
  6
Continuous
 62
     7
370
    25
100
AcDbLine
 10
14.2228380184
 20
21.5960795864
 30
0.0
 11
14.2097144194
 21
21.5960795864
 31
0.0
  0
LINE
  5
10E
330
1F
100
AcDbEntity
  8
0
  6
Continuous
 62
     7
370
    25
100
AcDbLine
 10
14.119892864
 20
21.717417477
 30
0.0
 11
14.1644589318
 21
21.717417477
 31
0.0
  0
LINE
  5
10F
330
1F
100
AcDbEntity
  8
0
  6
Continuous
 62
     7
370
    25
100
AcDbLine
 10
13.8126307902
 20
20.4085795864
 30
0.0
 11
13.8126307902
 21
21.6227795864
 31
0.0
  0
LINE
  5
110
330
1F
100
AcDbEntity
  8
0
  6
Continuous
 62
     7
370
    25
100
AcDbLine
 10
14.119892864
 20
21.5960795864
 30
0.0
 11
14.119892864
 21
21.717417477
 31
0.0
  0
LINE
  5
111
330
1F
100
AcDbEntity
  8
0
  6
Continuous
 62
     7
370
    25
100
AcDbLine
 10
13.8101307902
 20
21.6227795864
 30
0.0
 11
13.8101307902
 21
20.4085795864
 31
0.0
  0
LINE
  5
112
330
1F
100
AcDbEntity
  8
0
  6
Continuous
 62
     7
370
    25
100
AcDbLine
 10
14.0883765288
 20
21.6210956775
 30
0.0
 11
14.0883765288
 21
21.6433540893
 31
0.0
  0
LINE
  5
113
330
1F
100
AcDbEntity
  8
0
  6
Continuous
 62
     7
370
    25
100
AcDbLine
 10
14.1324993981
 20
21.6496573563
 30
0.0
 11
14.1324993981
 21
21.5960795864
 31
0.0
  0
LINE
  5
114
330
1F
100
AcDbEntity
  8
0
  6
Continuous
 62
     7
370
    25
100
AcDbLine
 10
14.1485776535
 20
21.6496573563
 30
0.0
 11
14.1324993981
 21
21.6496573563
 31
0.0
  0
SPLINE
  5
115
330
1F
100
AcDbEntity
  8
0
  6
Continuous
 62
     7
370
    25
100
AcDbSpline
210
0.0
220
0.0
230
1.0
 70
     8
 71
     3
 72
     9
 73
     5
 74
     0
 42
0.00000001
 43
0.00000001
 40
0.0
 40
0.0
 40
0.0
 40
0.0
 40
0.5599729811101068
 40
1.0
 40
1.0
 40
1.0
 40
1.0
 10
14.17982314522467
 20
21.64478217320444
 30
0.0
 10
14.18202401458658
 20
21.6420358095213
 30
0.0
 10
14.18595432807698
 20
21.63713135202819
 30
0.0
 10
14.18903184941378
 20
21.63165524144007
 30
0.0
 10
14.19038604195318
 20
21.62924560482287
 30
0.0
  0
SPLINE
  5
116
330
1F
100
AcDbEntity
  8
0
  6
Continuous
 62
     7
370
    25
100
AcDbSpline
210
0.0
220
0.0
230
1.0
 70
     8
 71
     3
 72
    10
 73
     6
 74
     0
 42
0.00000001
 43
0.00000001
 40
0.0
 40
0.0
 40
0.0
 40
0.0
 40
0.2781954152419034
 40
0.5587789786535856
 40
1.0
 40
1.0
 40
1.0
 40
1.0
 10
14.36722222914246
 20
21.71517686259098
 30
0.0
 10
14.37282089915987
 20
21.71195329825622
 30
0.0
 10
14.38406630056746
 20
21.70547849713472
 30
0.0
 10
14.39400252828481
 20
21.68381002531178
 30
0.0
 10
14.39503169405821
 20
21.66742753466986
 30
0.0
 10
14.3956607972577
 20
21.65741332943224
 30
0.0
  0
SPLINE
  5
117
330
1F
100
AcDbEntity
  8
0
  6
Continuous
 62
     7
370
    25
100
AcDbSpline
210
0.0
220
0.0
230
1.0
 70
     8
 71
     3
 72
    11
 73
     7
 74
     0
 42
0.00000001
 43
0.00000001
 40
0.0
 40
0.0
 40
0.0
 40
0.0
 40
0.2811479210678386
 40
0.5603076782956925
 40
0.7800098757594317
 40
1.0
 40
1.0
 40
1.0
 40
1.0
 10
14.02061640805315
 20
21.65669928746225
 30
0.0
 10
14.02089744869059
 20
21.65022587581494
 30
0.0
 10
14.0214575425603
 20
21.63732482985672
 30
0.0
 10
14.02938445712983
 20
21.62052515655654
 30
0.0
 10
14.04322930361098
 20
21.61017751080546
 30
0.0
 10
14.05341412922801
 20
21.6091834675902
 30
0.0
 10
14.05850987673657
 20
21.60868612051445
 30
0.0
  0
SPLINE
  5
118
330
1F
100
AcDbEntity
  8
0
  6
Continuous
 62
     7
370
    25
100
AcDbSpline
210
0.0
220
0.0
230
1.0
 70
     8
 71
     3
 72
     9
 73
     5
 74
     0
 42
0.00000001
 43
0.00000001
 40
0.0
 40
0.0
 40
0.0
 40
0.0
 40
0.5592944490097158
 40
1.0
 40
1.0
 40
1.0
 40
1.0
 10
14.05850987673657
 20
21.60868612051445
 30
0.0
 10
14.06471303167082
 20
21.6095593552726
 30
0.0
 10
14.07580406778828
 20
21.61112067017514
 30
0.0
 10
14.08453066774818
 20
21.61804436622684
 30
0.0
 10
14.08837652879179
 20
21.62109567751019
 30
0.0
  0
SPLINE
  5
119
330
1F
100
AcDbEntity
  8
0
  6
Continuous
 62
     7
370
    25
100
AcDbSpline
210
0.0
220
0.0
230
1.0
 70
     8
 71
     3
 72
    11
 73
     7
 74
     0
 42
0.00000001
 43
0.00000001
 40
0.0
 40
0.0
 40
0.0
 40
0.0
 40
0.2801901840608401
 40
0.5591444930642858
 40
0.7793137207320882
 40
0.9999999999999999
 40
0.9999999999999999
 40
0.9999999999999999
 40
0.9999999999999999
 10
14.20025951884861
 20
21.68398061514335
 30
0.0
 10
14.19993576625671
 20
21.67943555250236
 30
0.0
 10
14.19928968909494
 20
21.67036547478047
 30
0.0
 10
14.19224731834643
 20
21.65928709761733
 30
0.0
 10
14.18233119564843
 20
21.65280547556304
 30
0.0
 10
14.17537632895358
 20
21.65123261655043
 30
0.0
 10
14.17189481714406
 20
21.65044526469058
 30
0.0
  0
LINE
  5
11A
330
1F
100
AcDbEntity
  8
0
  6
Continuous
 62
     7
370
    25
100
AcDbLine
 10
14.2489867278
 20
21.6818138671
 30
0.0
 11
14.2375620562
 21
21.6465057228
 31
0.0
  0
LINE
  5
11B
330
1F
100
AcDbEntity
  8
0
  6
Continuous
 62
     7
370
    25
100
AcDbLine
 10
14.2716637158
 20
21.6465057228
 30
0.0
 11
14.2615193954
 21
21.6798440961
 31
0.0
  0
SPLINE
  5
11C
330
1F
100
AcDbEntity
  8
0
  6
Continuous
 62
     7
370
    25
100
AcDbSpline
210
0.0
220
0.0
230
1.0
 70
     8
 71
     3
 72
     9
 73
     5
 74
     0
 42
0.00000001
 43
0.00000001
 40
0.0
 40
0.0
 40
0.0
 40
0.0
 40
0.5600121541624075
 40
0.9999999999999999
 40
0.9999999999999999
 40
0.9999999999999999
 40
0.9999999999999999
 10
14.26151939544662
 20
21.67984409614478
 30
0.0
 10
14.26012221428072
 20
21.68446984301618
 30
0.0
 10
14.25762730206228
 20
21.69272992601086
 30
0.0
 10
14.25554248936382
 20
21.70110249307434
 30
0.0
 10
14.25462519711565
 20
21.70478632082073
 30
0.0
  0
SPLINE
  5
11D
330
1F
100
AcDbEntity
  8
0
  6
Continuous
 62
     7
370
    25
100
AcDbSpline
210
0.0
220
0.0
230
1.0
 70
     8
 71
     3
 72
     9
 73
     5
 74
     0
 42
0.00000001
 43
0.00000001
 40
0.0
 40
0.0
 40
0.0
 40
0.0
 40
0.5599894472996129
 40
1.0
 40
1.0
 40
1.0
 40
1.0
 10
14.25462519711565
 20
21.70478632082073
 30
0.0
 10
14.25378441431782
 20
21.70044532150393
 30
0.0
 10
14.25228298817151
 20
21.69269339093142
 30
0.0
 10
14.24999393522052
 20
21.68513822141232
 30
0.0
 10
14.2489867277664
 20
21.68181386709648
 30
0.0
  0
LINE
  5
11E
330
1F
100
AcDbEntity
  8
0
  6
Continuous
 62
     7
370
    25
100
AcDbLine
 10
14.2375620562
 20
21.6465057228
 30
0.0
 11
14.2716637158
 21
21.6465057228
 31
0.0
  0
LINE
  5
11F
330
1F
100
AcDbEntity
  8
0
  6
Continuous
 62
     7
370
    25
100
AcDbLine
 10
13.8126307902
 20
21.7835795864
 30
0.0
 11
13.8101307902
 21
21.7835795864
 31
0.0
  0
LINE
  5
120
330
1F
100
AcDbEntity
  8
0
  6
Continuous
 62
     7
370
    25
100
AcDbLine
 10
12.7163807902
 20
4.7798295864
 30
0.0
 11
15.4038807902
 21
4.7798295864
 31
0.0
  0
DIMENSION
  5
121
330
1F
100
AcDbEntity
  8
SLD-0
100
AcDbDimension
  2
_D
 10
11.0976307902
 20
17.3262006214
 30
0.0
 11
21.6012598953
 21
17.3262006214
 31
0.0
 70
   160
  1
%%c<>
 71
     2
 42
-1.0
  3
SLDDIMSTYLE0
100
AcDbAlignedDimension
 13
17.0226307902
 23
14.4910795864
 33
0.0
 14
11.0976307902
 24
14.4910795864
 34
0.0
100
AcDbRotatedDimension
  0
DIMENSION
  5
135
330
1F
100
AcDbEntity
  8
SLD-0
100
AcDbDimension
  2
_D_1
 10
15.2476307902
 20
7.522145388
 30
0.0
 11
17.7631480951
 21
7.522145388
 31
0.0
 70
   160
  1
%%c<>
 71
     2
 42
-1.0
  3
SLDDIMSTYLE0
100
AcDbAlignedDimension
 13
12.8726307902
 23
7.5535795864
 33
0.0
 14
15.2476307902
 24
11.6672002544
 34
0.0
100
AcDbRotatedDimension
  0
DIMENSION
  5
148
330
1F
100
AcDbEntity
  8
SLD-0
100
AcDbDimension
  2
_D_2
 10
8.4087654645
 20
3.7835795864
 30
0.0
 11
8.4087654645
 21
12.7835795864
 31
0.0
 70
   160
  1
SPECIFY LENGTH\P12" OR 18"\P[305mm OR 457mm]
 71
     2
 42
-1.0
  3
SLDDIMSTYLE1
100
AcDbAlignedDimension
 13
12.8726307902
 23
21.7835795864
 33
0.0
 14
14.2651307902
 24
3.7835795864
 34
0.0
 50
90.0
100
AcDbRotatedDimension
  0
DIMENSION
  5
157
330
1F
100
AcDbEntity
  8
SLD-0
100
AcDbDimension
  2
_D_3
 10
18.766614226
 20
13.6160795864
 30
0.0
 11
18.766614226
 21
12.6289222912
 31
0.0
 70
   160
  1
<>
 71
     2
 42
-1.0
  3
SLDDIMSTYLE0
100
AcDbAlignedDimension
 13
17.0226307902
 23
14.4910795864
 33
0.0
 14
16.9920751169
 24
13.6160795864
 34
0.0
 50
90.0
100
AcDbRotatedDimension
  0
DIMENSION
  5
16C
330
1F
100
AcDbEntity
  8
SLD-0
100
AcDbDimension
  2
_D_4
 10
15.1701307902
 20
27.358382736
 30
0.0
 11
10.6509988645
 21
27.358382736
 31
0.0
 70
   160
  1
%%c<>
 71
     2
 42
-1.0
  3
SLDDIMSTYLE2
100
AcDbAlignedDimension
 13
12.9501307902
 23
25.1435795864
 33
0.0
 14
15.1701307902
 24
25.1435795864
 34
0.0
100
AcDbRotatedDimension
  0
DIMENSION
  5
180
330
1F
100
AcDbEntity
  8
SLD-0
100
AcDbDimension
  2
_D_5
 10
19.4855455062
 20
21.7835795864
 30
0.0
 11
19.4855455062
 21
24.1460795864
 31
0.0
 70
   160
  1
<>
 71
     2
 42
-1.0
  3
SLDDIMSTYLE2
100
AcDbAlignedDimension
 13
15.1401307902
 23
26.5085795864
 33
0.0
 14
15.2476307902
 24
21.7835795864
 34
0.0
 50
90.0
100
AcDbRotatedDimension
  0
MTEXT
  5
194
330
1F
100
AcDbEntity
  8
SLD-0
100
AcDbMText
 10
20.8447000227
 20
11.2069032774
 30
0.0
 40
0.5
 41
0.0
 71
     2
 72
     1
  1
STABILITY FLANGE
  7
SLDTEXTSTYLE0
 73
     1
 44
1.0
  0
MTEXT
  5
195
330
1F
100
AcDbEntity
  8
SLD-0
100
AcDbMText
 10
20.858588948
 20
10.5494229793
 30
0.0
 40
0.5
 41
0.0
 71
     2
 72
     1
  1
(OPTIONAL)
  7
SLDTEXTSTYLE0
 73
     1
 44
1.0
  0
LEADER
  5
197
330
1F
100
AcDbEntity
  8
SLD-0
100
AcDbLeader
  3
SLDDIMSTYLE3
 76
     3
 10
16.4335067767
 20
13.6160795864
 30
0.0
 10
17.0396095689
 20
10.9807225156
 30
0.0
 10
18.0396095689
 20
10.9807225156
 30
0.0
  0
MTEXT
  5
199
330
1F
100
AcDbEntity
  8
SLD-0
100
AcDbMText
 10
18.4289519241
 20
2.5817530508
 30
0.0
 40
0.5
 41
0.0
 71
     2
 72
     1
  1
2 X 1/2" PVC
  7
SLDTEXTSTYLE2
 73
     1
 44
1.0
  0
MTEXT
  5
19A
330
1F
100
AcDbEntity
  8
SLD-0
100
AcDbMText
 10
18.4343336843
 20
1.9242727528
 30
0.0
 40
0.5
 41
0.0
 71
     2
 72
     1
  1
SLIP CONNECTORS
  7
SLDTEXTSTYLE0
 73
     1
 44
1.0
  0
LEADER
  5
19B
330
1F
100
AcDbEntity
  8
SLD-0
100
AcDbLeader
  3
SLDDIMSTYLE3
 76
     3
 10
14.7801516856
 20
3.7835795864
 30
0.0
 10
15.384466879
 20
2.3475041472
 30
0.0
 10
16.384466879
 20
2.3475041472
 30
0.0
  0
MTEXT
  5
19C
330
1F
100
AcDbEntity
  8
SLD-0
100
AcDbMText
 10
6.8253982651
 20
25.0489203416
 30
0.0
 40
0.5
 41
0.0
 71
     2
 72
     1
  1
MACHINED POWER SUPPLY
  7
SLDTEXTSTYLE0
 73
     1
 44
1.0
  0
MTEXT
  5
19D
330
1F
100
AcDbEntity
  8
SLD-0
100
AcDbMText
 10
6.8873774716
 20
24.3914400435
 30
0.0
 40
0.5
 41
0.0
 71
     2
 72
     1
  1
HOUSING
  7
SLDTEXTSTYLE0
 73
     1
 44
1.0
  0
LEADER
  5
19E
330
1F
100
AcDbEntity
  8
SLD-0
100
AcDbLeader
  3
SLDDIMSTYLE3
 76
     3
 10
12.9501307902
 20
23.8271891434
 30
0.0
 10
9.4691828014
 20
24.1407299076
 30
0.0
 10
8.4691828014
 20
24.1407299076
 30
0.0
  0
MTEXT
  5
19F
330
1F
100
AcDbEntity
  8
SLD-0
100
AcDbMText
 10
17.8797318417
 20
28.2732866763
 30
0.0
 40
0.5
 41
0.0
 71
     1
 72
     1
  1
SOLID CAP
  7
SLDTEXTSTYLE0
 73
     1
 44
1.0
  0
LEADER
  5
1A0
330
1F
100
AcDbEntity
  8
SLD-0
100
AcDbLeader
  3
SLDDIMSTYLE3
 76
     3
 10
15.1701307902
 20
26.4248464112
 30
0.0
 10
16.7842129238
 20
28.0302442179
 30
0.0
 10
17.7842129238
 20
28.0302442179
 30
0.0
  0
LINE
  5
1A1
330
1F
100
AcDbEntity
  8
0
  6
Continuous
 62
     7
370
    25
100
AcDbLine
 10
30.8371222258
 20
32.6206330744
 30
0.0
 11
30.8159055755
 21
32.6328851672
 31
0.0
  0
LINE
  5
1A2
330
1F
100
AcDbEntity
  8
0
  6
Continuous
 62
     7
370
    25
100
AcDbLine
 10
29.2883067512
 20
32.6328851672
 30
0.0
 11
29.2670901009
 21
32.6206330744
 31
0.0
  0
LINE
  5
1A3
330
1F
100
AcDbEntity
  8
0
  6
Continuous
 62
     7
370
    25
100
AcDbLine
 10
31.1621061633
 20
31.077518225
 30
0.0
 11
31.1621061633
 21
32.1676002089
 31
0.0
  0
LINE
  5
1A4
330
1F
100
AcDbEntity
  8
0
  6
Continuous
 62
     7
370
    25
100
AcDbLine
 10
28.9421061633
 20
32.1676002089
 30
0.0
 11
28.9421061633
 21
31.077518225
 31
0.0
  0
SPLINE
  5
1A5
330
1F
100
AcDbEntity
  8
0
  6
Continuous
 62
     7
370
    25
100
AcDbSpline
210
0.0
220
0.0
230
1.0
 70
     8
 71
     3
 72
    16
 73
    12
 74
     0
 42
0.00000001
 43
0.00000001
 40
0.0
 40
0.0
 40
0.0
 40
0.0
 40
0.0809790043468328
 40
0.1990642947466986
 40
0.3279200097924134
 40
0.4631693417238545
 40
0.6001523216164928
 40
0.7410832513737248
 40
0.8725152414786561
 40
0.9939041745664137
 40
1.0
 40
1.0
 40
1.0
 40
1.0
 10
29.10552023310032
 20
28.15732863535503
 30
0.0
 10
29.10275141756036
 20
28.14941982675486
 30
0.0
 10
29.09594505685992
 20
28.12997822681204
 30
0.0
 10
29.09547010060109
 20
28.09517033167061
 30
0.0
 10
29.10268210398477
 20
28.05435024802571
 30
0.0
 10
29.11965310841261
 20
28.01230758121245
 30
0.0
 10
29.14517939349022
 20
27.97291487400929
 30
0.0
 10
29.17696484501717
 20
27.94018504160655
 30
0.0
 10
29.21236402264055
 20
27.91870835107065
 30
0.0
 10
29.23788513774392
 20
27.90785409443611
 30
0.0
 10
29.25104536425382
 20
27.90769893671924
 30
0.0
 10
29.25167463511256
 20
27.90769151768054
 30
0.0
  0
LINE
  5
1A6
330
1F
100
AcDbEntity
  8
0
  6
Continuous
 62
     7
370
    25
100
AcDbLine
 10
29.1867126841
 20
28.2244235754
 30
0.0
 11
29.1321602445
 21
28.1929311223
 31
0.0
  0
LINE
  5
1A7
330
1F
100
AcDbEntity
  8
0
  6
Continuous
 62
     7
370
    25
100
AcDbLine
 10
29.2931701487
 20
27.9140235676
 30
0.0
 11
29.3477225883
 21
27.9455160206
 31
0.0
  0
SPLINE
  5
1A8
330
1F
100
AcDbEntity
  8
0
  6
Continuous
 62
     7
370
    25
100
AcDbSpline
210
0.0
220
0.0
230
1.0
 70
     8
 71
     3
 72
    13
 73
     9
 74
     0
 42
0.00000001
 43
0.00000001
 40
0.0
 40
0.0
 40
0.0
 40
0.0
 40
0.0088561612607987
 40
0.2010318144653782
 40
0.389899793382592
 40
0.5987845082781721
 40
0.8788901572018034
 40
1.0
 40
1.0
 40
1.0
 40
1.0
 10
31.17906996868517
 20
28.20255438899545
 30
0.0
 10
31.17942436589046
 20
28.20263772572126
 30
0.0
 10
31.18746906055254
 20
28.20452944073267
 30
0.0
 10
31.20033928273892
 20
28.21451650054848
 30
0.0
 10
31.21610896782764
 20
28.23004114532336
 30
0.0
 10
31.22840261115898
 20
28.25006185108125
 30
0.0
 10
31.23660689611024
 20
28.26905240591218
 30
0.0
 10
31.2412145838596
 20
28.28332411356989
 30
0.0
 10
31.2426054482467
 20
28.28763213334118
 30
0.0
  0
SPLINE
  5
1A9
330
1F
100
AcDbEntity
  8
0
  6
Continuous
 62
     7
370
    25
100
AcDbSpline
210
0.0
220
0.0
230
1.0
 70
     8
 71
     3
 72
    15
 73
    11
 74
     0
 42
0.00000001
 43
0.00000001
 40
0.0
 40
0.0
 40
0.0
 40
0.0
 40
0.0809076667170882
 40
0.2389626628358406
 40
0.3920465155633228
 40
0.5481596964573555
 40
0.7209645282632368
 40
0.8392215846436738
 40
0.9438499892143063
 40
1.0
 40
1.0
 40
1.0
 40
1.0
 10
31.2426054482467
 20
28.28763213334118
 30
0.0
 10
31.24439713632748
 20
28.29379764818599
 30
0.0
 10
31.24968892846691
 20
28.31200763872028
 30
0.0
 10
31.2565503791704
 20
28.34578841333229
 30
0.0
 10
31.26176871101623
 20
28.38678351137911
 30
0.0
 10
31.26328884488613
 20
28.42611629817473
 30
0.0
 10
31.26094875292632
 20
28.45741752485911
 30
0.0
 10
31.25298747716242
 20
28.48434456698036
 30
0.0
 10
31.24241311576515
 20
28.50450803518825
 30
0.0
 10
31.2318123641993
 20
28.51294489983993
 30
0.0
 10
31.22811017374394
 20
28.51589137769979
 30
0.0
  0
LINE
  5
1AA
330
1F
100
AcDbEntity
  8
0
  6
Continuous
 62
     7
370
    25
100
AcDbLine
 10
31.0996689269
 20
28.2130973291
 30
0.0
 11
31.1741889453
 21
28.2015702913
 31
0.0
  0
LINE
  5
1AB
330
1F
100
AcDbEntity
  8
0
  6
Continuous
 62
     7
370
    25
100
AcDbLine
 10
31.2234187526
 20
28.5198312524
 30
0.0
 11
31.1488987342
 21
28.5313582903
 31
0.0
  0
LINE
  5
1AC
330
1F
100
AcDbEntity
  8
0
  6
Continuous
 62
     7
370
    25
100
AcDbLine
 10
29.3569603425
 20
30.1750012599
 30
0.0
 11
29.3604958764
 21
30.1770422802
 31
0.0
  0
LINE
  5
1AD
330
1F
100
AcDbEntity
  8
0
  6
Continuous
 62
     7
370
    25
100
AcDbLine
 10
29.1810104639
 20
30.4879538218
 30
0.0
 11
29.17747493
 21
30.4859128015
 31
0.0
  0
LINE
  5
1AE
330
1F
100
AcDbEntity
  8
0
  6
Continuous
 62
     7
370
    25
100
AcDbLine
 10
29.3967130894
 20
30.2417366927
 30
0.0
 11
29.4014602489
 21
30.2831802283
 31
0.0
  0
LINE
  5
1AF
330
1F
100
AcDbEntity
  8
0
  6
Continuous
 62
     7
370
    25
100
AcDbLine
 10
29.284692296
 20
30.4741354236
 30
0.0
 11
29.2551459826
 21
30.4869646852
 31
0.0
  0
LINE
  5
1B0
330
1F
100
AcDbEntity
  8
0
  6
Continuous
 62
     7
370
    25
100
AcDbLine
 10
28.9421061633
 20
31.077518225
 30
0.0
 11
28.9421061633
 21
28.3339410971
 31
0.0
  0
LINE
  5
1B1
330
1F
100
AcDbEntity
  8
0
  6
Continuous
 62
     7
370
    25
100
AcDbLine
 10
31.1621061633
 20
28.5293153153
 30
0.0
 11
31.1621061633
 21
31.077518225
 31
0.0
  0
LINE
  5
1B2
330
1F
100
AcDbEntity
  8
0
  6
Continuous
 62
     7
370
    25
100
AcDbLine
 10
30.0374362492
 20
13.6085154029
 30
0.0
 11
30.0374362492
 21
13.3300534412
 31
0.0
  0
LINE
  5
1B3
330
1F
100
AcDbEntity
  8
0
  6
Continuous
 62
     7
370
    25
100
AcDbLine
 10
31.1274362492
 20
13.3300534412
 30
0.0
 11
31.1274362492
 21
13.9399243751
 31
0.0
  0
LINE
  5
1B4
330
1F
100
AcDbEntity
  8
0
  6
Continuous
 62
     7
370
    25
100
AcDbLine
 10
28.7083561633
 20
15.3938105807
 30
0.0
 11
28.7083561633
 21
14.449685267
 31
0.0
  0
LINE
  5
1B5
330
1F
100
AcDbEntity
  8
0
  6
Continuous
 62
     7
370
    25
100
AcDbLine
 10
31.3958561633
 20
14.449685267
 30
0.0
 11
31.3958561633
 21
15.3938105807
 31
0.0
  0
SPLINE
  5
1B6
330
1F
100
AcDbEntity
  8
0
  6
Continuous
 62
     7
370
    25
100
AcDbSpline
210
0.0
220
0.0
230
1.0
 70
     8
 71
     3
 72
    15
 73
    11
 74
     0
 42
0.00000001
 43
0.00000001
 40
0.0
 40
0.0
 40
0.0
 40
0.0
 40
0.1199109522668395
 40
0.2588303718102887
 40
0.3958175346689615
 40
0.5305262752675061
 40
0.6634907932896354
 40
0.7954093465384885
 40
0.9268244017426304
 40
1.0
 40
1.0
 40
1.0
 40
1.0
 10
31.247700851781
 20
15.33364250135486
 30
0.0
 10
31.24651330678856
 20
15.31447891700311
 30
0.0
 10
31.2439499653579
 20
15.27311390764231
 30
0.0
 10
31.22496066473057
 20
15.2099401953602
 30
0.0
 10
31.1940320816145
 20
15.14485574278252
 30
0.0
 10
31.15106569340007
 20
15.0818313790608
 30
0.0
 10
31.09708486065621
 20
15.02148657722752
 30
0.0
 10
31.03236727513838
 20
14.96443084597349
 30
0.0
 10
30.96902080029828
 20
14.91875623401697
 30
0.0
 10
30.92598191746373
 20
14.89306250188511
 30
0.0
 10
30.91058827192587
 20
14.88387266750898
 30
0.0
  0
SPLINE
  5
1B7
330
1F
100
AcDbEntity
  8
0
  6
Continuous
 62
     7
370
    25
100
AcDbSpline
210
0.0
220
0.0
230
1.0
 70
     8
 71
     3
 72
    31
 73
    27
 74
     0
 42
0.00000001
 43
0.00000001
 40
0.0
 40
0.0
 40
0.0
 40
0.0
 40
0.0221612280498078
 40
0.0645038666585021
 40
0.1068994653923011
 40
0.1493424882692315
 40
0.1918338927000069
 40
0.2343678048191631
 40
0.2769348730702755
 40
0.3195240899463399
 40
0.3621237052861292
 40
0.4047209860599403
 40
0.4473002767701324
 40
0.4898492775029763
 40
0.5323558900158442
 40
0.5748088065993262
 40
0.6171987670914816
 40
0.6595209786536755
 40
0.7017794577437637
 40
0.7439943392411167
 40
0.786202316911648
 40
0.8284703969529835
 40
0.8709280844320445
 40
0.9137682566429105
 40
0.9572205507843613
 40
1.0
 40
1.0
 40
1.0
 40
1.0
 10
30.91058827192587
 20
14.88387266750898
 30
0.0
 10
30.89563444335243
 20
14.87550812267837
 30
0.0
 10
30.85210888772134
 20
14.85116175147547
 30
0.0
 10
30.77341439238696
 20
14.81447006492138
 30
0.0
 10
30.6727499596793
 20
14.77602696936862
 30
0.0
 10
30.56539167309354
 20
14.74349911998968
 30
0.0
 10
30.45262166720354
 20
14.71721046605361
 30
0.0
 10
30.33557799014233
 20
14.69750127893794
 30
0.0
 10
30.21550767033112
 20
14.68460713958473
 30
0.0
 10
30.09368094987932
 20
14.67868808830966
 30
0.0
 10
29.97139454183101
 20
14.67981817406947
 30
0.0
 10
29.84995430521222
 20
14.68798657047049
 30
0.0
 10
29.73065853008713
 20
14.70309601979545
 30
0.0
 10
29.61478210632309
 20
14.72496328734545
 30
0.0
 10
29.50355952205649
 20
14.75332062629056
 30
0.0
 10
29.3981727893558
 20
14.7878165209052
 30
0.0
 10
29.29973490106484
 20
14.82801756797931
 30
0.0
 10
29.20927170935131
 20
14.87341224495425
 30
0.0
 10
29.12770078480037
 20
14.92341835584363
 30
0.0
 10
29.05581780379393
 20
14.9773926040112
 30
0.0
 10
28.99426722529497
 20
15.03464887398706
 30
0.0
 10
28.94354979125434
 20
15.09450042770649
 30
0.0
 10
28.90388989629917
 20
15.15632777127173
 30
0.0
 10
28.87576256993352
 20
15.21966148788318
 30
0.0
 10
28.85836981158103
 20
15.28351186777935
 30
0.0
 10
28.85665542734515
 20
15.32621259152752
 30
0.0
 10
28.8558049236849
 20
15.34739636181837
 30
0.0
  0
SPLINE
  5
1B8
330
1F
100
AcDbEntity
  8
0
  6
Continuous
 62
     7
370
    25
100
AcDbSpline
210
0.0
220
0.0
230
1.0
 70
     8
 71
     3
 72
    32
 73
    28
 74
     0
 42
0.00000001
 43
0.00000001
 40
0.0
 40
0.0
 40
0.0
 40
0.0
 40
0.0364767232942472
 40
0.0750074673392627
 40
0.1137698025827329
 40
0.1530988483806132
 40
0.1932096151518113
 40
0.2341583366145016
 40
0.2758438987053363
 40
0.3180607760642443
 40
0.3605799205036641
 40
0.403209503604777
 40
0.4458048361768871
 40
0.4883188846886675
 40
0.5307399372996628
 40
0.5730768340990658
 40
0.6153493571512267
 40
0.6575827635074882
 40
0.6998049669397329
 40
0.7420431929766605
 40
0.7843195598582107
 40
0.8266643113384944
 40
0.8691071878841332
 40
0.9116756168482952
 40
0.9543909103305581
 40
0.9949258635095566
 40
1.0
 40
1.0
 40
1.0
 40
1.0
 10
28.7087062727193
 20
14.44464977563713
 30
0.0
 10
28.70988455162021
 20
14.4185385005248
 30
0.0
 10
28.71230745883869
 20
14.36484561261446
 30
0.0
 10
28.73134823220415
 20
14.28483272952634
 30
0.0
 10
28.76161224998239
 20
14.2054919035478
 30
0.0
 10
28.80380762424407
 20
14.12875910594202
 30
0.0
 10
28.8574465194996
 20
14.05503829138862
 30
0.0
 10
28.92243900462756
 20
13.98487261279117
 30
0.0
 10
28.99836494687773
 20
13.91893866087761
 30
0.0
 10
29.0845509294674
 20
13.85797168370315
 30
0.0
 10
29.18005151075064
 20
13.80266181852721
 30
0.0
 10
29.28374541169491
 20
13.75358627956275
 30
0.0
 10
29.39446101056925
 20
13.7111715323012
 30
0.0
 10
29.5110412860949
 20
13.67571903009286
 30
0.0
 10
29.6323778552281
 20
13.64743919960468
 30
0.0
 10
29.7573674786604
 20
13.62648823457457
 30
0.0
 10
29.88490443269216
 20
13.61297784677207
 30
0.0
 10
30.01387771748097
 20
13.60697872465561
 30
0.0
 10
30.14317103906765
 20
13.60852132345221
 30
0.0
 10
30.27166257484419
 20
13.61759520842502
 30
0.0
 10
30.39824048635017
 20
13.63414927081782
 30
0.0
 10
30.52181494481536
 20
13.65809448703758
 30
0.0
 10
30.64132321991933
 20
13.68931480375426
 30
0.0
 10
30.75574641802555
 20
13.72765856783646
 30
0.0
 10
30.86204711532556
 20
13.77216710114015
 30
0.0
 10
30.93177785338549
 20
13.80777619346495
 30
0.0
 10
30.96609611601781
 20
13.82743564758232
 30
0.0
 10
30.96991411699027
 20
13.82962281584729
 30
0.0
  0
SPLINE
  5
1B9
330
1F
100
AcDbEntity
  8
0
  6
Continuous
 62
     7
370
    25
100
AcDbSpline
210
0.0
220
0.0
230
1.0
 70
     8
 71
     3
 72
    16
 73
    12
 74
     0
 42
0.00000001
 43
0.00000001
 40
0.0
 40
0.0
 40
0.0
 40
0.0
 40
0.066683648337169
 40
0.1918842916747932
 40
0.3171227171217336
 40
0.4415986135999324
 40
0.5645037297158383
 40
0.6850627293619338
 40
0.8028534164459915
 40
0.9180200198349607
 40
1.0
 40
1.0
 40
1.0
 40
1.0
 10
30.96991411699027
 20
13.82962281584729
 30
0.0
 10
30.98684960078856
 20
13.83972151656421
 30
0.0
 10
31.03558198712072
 20
13.86878084493363
 30
0.0
 10
31.10933651371632
 20
13.92167999034801
 30
0.0
 10
31.18720060892829
 20
13.98992938011663
 30
0.0
 10
31.25397484930488
 20
14.063618193744
 30
0.0
 10
31.30870043235421
 20
14.141715651695
 30
0.0
 10
31.35073381083052
 20
14.2231177649031
 30
0.0
 10
31.37908103223926
 20
14.3065475583789
 30
0.0
 10
31.39438116241941
 20
14.38315151038771
 30
0.0
 10
31.39452924551037
 20
14.43165003453955
 30
0.0
 10
31.39459082328991
 20
14.45181730285498
 30
0.0
  0
LINE
  5
1BA
330
1F
100
AcDbEntity
  8
0
  6
Continuous
 62
     7
370
    25
100
AcDbLine
 10
31.2396061633
 20
15.2677396294
 30
0.0
 11
31.2396061633
 21
20.1173100527
 31
0.0
  0
LINE
  5
1BB
330
1F
100
AcDbEntity
  8
0
  6
Continuous
 62
     7
370
    25
100
AcDbLine
 10
31.2396061633
 20
22.3793172264
 30
0.0
 11
31.2396061633
 21
28.278614135
 31
0.0
  0
LINE
  5
1BC
330
1F
100
AcDbEntity
  8
0
  6
Continuous
 62
     7
370
    25
100
AcDbLine
 10
28.8646061633
 20
28.3339410971
 30
0.0
 11
28.8646061633
 21
28.0499856224
 31
0.0
  0
LINE
  5
1BD
330
1F
100
AcDbEntity
  8
0
  6
Continuous
 62
     7
370
    25
100
AcDbLine
 10
28.8646061633
 20
26.8170103235
 30
0.0
 11
28.8646061633
 21
22.3793172264
 31
0.0
  0
LINE
  5
1BE
330
1F
100
AcDbEntity
  8
0
  6
Continuous
 62
     7
370
    25
100
AcDbLine
 10
28.8646061633
 20
20.1173100527
 30
0.0
 11
28.8646061633
 21
15.2693066942
 31
0.0
  0
LINE
  5
1BF
330
1F
100
AcDbEntity
  8
0
  6
Continuous
 62
     7
370
    25
100
AcDbLine
 10
27.0905091701
 20
22.3370942452
 30
0.0
 11
27.1210555297
 21
21.623056529
 31
0.0
  0
LINE
  5
1C0
330
1F
100
AcDbEntity
  8
0
  6
Continuous
 62
     7
370
    25
100
AcDbLine
 10
32.983156797
 20
21.623056529
 30
0.0
 11
33.0137031566
 21
22.3370942452
 31
0.0
  0
LINE
  5
1C1
330
1F
100
AcDbEntity
  8
0
  6
Continuous
 62
     7
370
    25
100
AcDbLine
 10
29.4251594192
 20
27.5820323543
 30
0.0
 11
29.4295788366
 21
27.5845836297
 31
0.0
  0
LINE
  5
1C2
330
1F
100
AcDbEntity
  8
0
  6
Continuous
 62
     7
370
    25
100
AcDbLine
 10
29.2911669046
 20
27.7020581268
 30
0.0
 11
29.295586322
 21
27.7046094022
 31
0.0
  0
LWPOLYLINE
  5
1C3
330
1F
100
AcDbEntity
  8
0
  6
Continuous
 62
     7
370
    25
100
AcDbPolyline
 90
       56
 70
   128
 43
0.0
 10
30.815781487
 20
31.7512360529
 10
30.897856076
 20
31.8043639938
 10
30.9689050215
 20
31.8625466201
 10
31.0280020917
 20
31.9250254322
 10
31.0743768662
 20
31.9909859232
 10
31.1074247786
 20
32.0595681972
 10
31.126714999
 20
32.1298781795
 10
31.1319960498
 20
32.2009992719
 10
31.1231990845
 20
32.2720043021
 10
31.1004387849
 20
32.3419676111
 10
31.0640118663
 20
32.4099771201
 10
31.0143932095
 20
32.4751462211
 10
30.9522296693
 20
32.5366253353
 10
30.8783316427
 20
32.5936129883
 10
30.7936625034
 20
32.645366259
 10
30.6993260432
 20
32.6912104644
 10
30.596552082
 20
32.730547955
 10
30.4866804357
 20
32.7628659066
 10
30.3711434491
 20
32.7877430053
 10
30.2514473236
 20
32.8048549399
 10
30.1291524812
 20
32.8139786303
 10
30.0058532222
 20
32.8149951353
 10
29.8831569411
 20
32.807891203
 10
29.7626631714
 20
32.7927594442
 10
29.6459427338
 20
32.7697971245
 10
29.5345172577
 20
32.7393035928
 10
29.4298393445
 20
32.7016763788
 10
29.3332736309
 20
32.657406011
 10
29.2460789986
 20
32.6070696213
 10
29.1693921632
 20
32.5513234214
 10
29.1042128546
 20
32.4908941484
 10
29.051390785
 20
32.4265695902
 10
29.0116145707
 20
32.3591883158
 10
28.9854027555
 20
32.2896287432
 10
28.9730970506
 20
32.2187976878
 10
28.9748578796
 20
32.1476185407
 10
28.9906622874
 20
32.0770192309
 10
29.0203042394
 20
32.0079201285
 10
29.0633973074
 20
31.9412220459
 10
29.1193797074
 20
31.8777944945
 10
29.1875216231
 20
31.8184643496
 10
29.2669347206
 20
31.7640050703
 10
29.3565837286
 20
31.7151266166
 10
29.4552999352
 20
31.6724661939
 10
29.5617964236
 20
31.636579946
 10
29.6746848494
 20
31.6079357051
 10
29.7924935391
 20
31.5869068927
 10
29.9136866765
 20
31.5737676514
 10
30.0366843236
 20
31.5686892714
 10
30.1598830179
 20
31.5717379571
 10
30.2816766761
 20
31.5828739643
 10
30.4004775315
 20
31.6019521181
 10
30.5147368335
 20
31.6287237055
 10
30.6229650371
 20
31.662839718
 10
30.7237512223
 20
31.7038554012
 10
30.815781487
 20
31.7512360529
  0
LWPOLYLINE
  5
1C4
330
1F
100
AcDbEntity
  8
0
  6
Continuous
 62
     7
370
    25
100
AcDbPolyline
 90
       29
 70
   128
 43
0.0
 10
30.8369946905
 20
31.7144937068
 10
30.7441798434
 20
31.6666109133
 10
30.6426617683
 20
31.6250283508
 10
30.5337171138
 20
31.5902689443
 10
30.4187159221
 20
31.5627698134
 10
30.2991044
 20
31.5428767756
 10
30.1763867318
 20
31.5308399975
 10
30.0521061633
 20
31.5268108485
 10
29.9278255949
 20
31.5308399975
 10
29.8051079267
 20
31.5428767756
 10
29.6854964046
 20
31.5627698134
 10
29.5704952129
 20
31.5902689443
 10
29.4615505584
 20
31.6250283508
 10
29.3600324833
 20
31.6666109133
 10
29.2672176362
 20
31.7144937068
 10
29.1842732178
 20
31.7680745775
 10
29.1122423022
 20
31.8266797149
 10
29.05203072
 20
31.8895721252
 10
29.0043956667
 20
31.9559609
 10
28.9699361808
 20
32.0250111619
 10
28.9490856104
 20
32.0958545639
 10
28.9421061633
 20
32.1676002089
 10
28.9490856104
 20
32.2393458539
 10
28.9699361808
 20
32.3101892558
 10
29.0043956667
 20
32.3792395178
 10
29.05203072
 20
32.4456282926
 10
29.1122423022
 20
32.5085207029
 10
29.1842732178
 20
32.5671258403
 10
29.2670901009
 20
32.6206330744
  0
LWPOLYLINE
  5
1C5
330
1F
100
AcDbEntity
  8
0
  6
Continuous
 62
     7
370
    25
100
AcDbPolyline
 90
       15
 70
   128
 43
0.0
 10
30.8371222258
 20
32.6206330744
 10
30.9199391089
 20
32.5671258403
 10
30.9919700245
 20
32.5085207029
 10
31.0521816067
 20
32.4456282926
 10
31.09981666
 20
32.3792395178
 10
31.1342761459
 20
32.3101892558
 10
31.1551267163
 20
32.2393458539
 10
31.1621061633
 20
32.1676002089
 10
31.1551267163
 20
32.0958545639
 10
31.1342761459
 20
32.0250111619
 10
31.09981666
 20
31.9559609
 10
31.0521816067
 20
31.8895721252
 10
30.9919700245
 20
31.8266797149
 10
30.9199391089
 20
31.7680745775
 10
30.8369946905
 20
31.7144937068
  0
SPLINE
  5
1C6
330
1F
100
AcDbEntity
  8
0
  6
Continuous
 62
     7
370
    25
100
AcDbSpline
210
0.0
220
0.0
230
1.0
 70
    11
 71
     3
 72
    26
 73
    22
 74
     0
 42
0.00000001
 43
0.00000001
 40
0.0
 40
0.0
 40
0.0
 40
0.0
 40
0.0536200607839427
 40
0.1072376822530334
 40
0.1609185883661194
 40
0.2146408563604129
 40
0.2682944511770218
 40
0.3218767096526448
 40
0.3754958818586687
 40
0.4292028051159822
 40
0.4829116531775887
 40
0.5365331513009001
 40
0.5901144855235982
 40
0.6437653861511312
 40
0.6974870899191827
 40
0.7511704282073675
 40
0.8047662990509744
 40
0.8583618717573707
 40
0.9120446244252651
 40
0.9657664953707784
 40
1.0
 40
1.0
 40
1.0
 40
1.0
 10
31.13986972402591
 20
31.15403440355583
 30
0.0
 10
31.1397212745506
 20
31.15984602138132
 30
0.0
 10
31.13942438235333
 20
31.17146899264682
 30
0.0
 10
31.13703277692205
 20
31.18145399271271
 30
0.0
 10
31.13327806716042
 20
31.18437234078732
 30
0.0
 10
31.12820995865562
 20
31.17951982937451
 30
0.0
 10
31.1222765223459
 20
31.16757593435643
 30
0.0
 10
31.11611576482664
 20
31.14988310953041
 30
0.0
 10
31.11054255696617
 20
31.12841283735122
 30
0.0
 10
31.10640014378639
 20
31.10552094580092
 30
0.0
 10
31.10438205335399
 20
31.08376266243787
 30
0.0
 10
31.10483970204638
 20
31.06559337716498
 30
0.0
 10
31.10768622485172
 20
31.05305117044937
 30
0.0
 10
31.11243618292425
 20
31.04755543421421
 30
0.0
 10
31.11832860144632
 20
31.0497753874426
 30
0.0
 10
31.1245001152717
 20
31.05950353076881
 30
0.0
 10
31.13017434921177
 20
31.07562803716185
 30
0.0
 10
31.13480534347109
 20
31.09634115166496
 30
0.0
 10
31.13804609004303
 20
31.11921519659878
 30
0.0
 10
31.1396491145926
 20
31.13923976216615
 30
0.0
 10
31.1398079161589
 20
31.14988940751645
 30
0.0
 10
31.13986972402591
 20
31.15403440355583
 30
0.0
  0
SPLINE
  5
1C7
330
1F
100
AcDbEntity
  8
0
  6
Continuous
 62
     7
370
    25
100
AcDbSpline
210
0.0
220
0.0
230
1.0
 70
    11
 71
     3
 72
    26
 73
    22
 74
     0
 42
0.00000001
 43
0.00000001
 40
0.0
 40
0.0
 40
0.0
 40
0.0
 40
0.0536200607839424
 40
0.1072376822530329
 40
0.1609185883661186
 40
0.2146408563604116
 40
0.2682944511770211
 40
0.3218767096526438
 40
0.3754958818586673
 40
0.4292028051159851
 40
0.4829116531775863
 40
0.5365331513008976
 40
0.5901144855235956
 40
0.6437653861511283
 40
0.6974870899191798
 40
0.7511704282073652
 40
0.8047662990509731
 40
0.8583618717573664
 40
0.9120446244252608
 40
0.9657664953707785
 40
1.0
 40
1.0
 40
1.0
 40
1.0
 10
29.31677510241028
 20
30.80164009060304
 30
0.0
 10
29.31621099583792
 20
30.80816418726925
 30
0.0
 10
29.31508280835589
 20
30.8212120838037
 30
0.0
 10
29.30634605159576
 20
30.84232424027979
 30
0.0
 10
29.29364006372139
 20
30.86170150243951
 30
0.0
 10
29.27803312793486
 20
30.87752179513393
 30
0.0
 10
29.26155896336585
 20
30.88798307308436
 30
0.0
 10
29.24606206619045
 20
30.89194555630102
 30
0.0
 10
29.23318827931702
 20
30.88892028008543
 30
0.0
 10
29.22421597547025
 20
30.87914168455477
 30
0.0
 10
29.22000966636788
 20
30.86360712629982
 30
0.0
 10
29.22095458120998
 20
30.84403542946312
 30
0.0
 10
29.22695168934566
 20
30.82265055003234
 30
0.0
 10
29.23745285439975
 20
30.80190534316151
 30
0.0
 10
29.25146077916817
 20
30.78422710934306
 30
0.0
 10
29.26753503631049
 20
30.77171189207717
 30
0.0
 10
29.28389430776854
 20
30.76580528044828
 30
0.0
 10
29.29867743582965
 20
30.76710637619156
 30
0.0
 10
29.30998164038448
 20
30.77543704597436
 30
0.0
 10
29.31594311517694
 20
30.78789793182896
 30
0.0
 10
29.31654200559528
 20
30.79778996729213
 30
0.0
 10
29.31677510241028
 20
30.80164009060304
 30
0.0
  0
LWPOLYLINE
  5
1C8
330
1F
100
AcDbEntity
  8
0
  6
Continuous
 62
     7
370
    25
100
AcDbPolyline
 90
       29
 70
   128
 43
0.0
 10
31.1621061633
 20
31.077518225
 10
31.1551267163
 20
31.00577258
 10
31.1342761459
 20
30.9349291781
 10
31.09981666
 20
30.8658789162
 10
31.0521816067
 20
30.7994901413
 10
30.9919700245
 20
30.736597731
 10
30.9199391089
 20
30.6779925937
 10
30.8369946905
 20
30.624411723
 10
30.7441798434
 20
30.5765289294
 10
30.6426617683
 20
30.534946367
 10
30.5337171138
 20
30.5001869604
 10
30.4187159221
 20
30.4726878295
 10
30.2991044
 20
30.4527947917
 10
30.1763867318
 20
30.4407580136
 10
30.0521061633
 20
30.4367288646
 10
29.9278255949
 20
30.4407580136
 10
29.8051079267
 20
30.4527947917
 10
29.6854964046
 20
30.4726878295
 10
29.5704952129
 20
30.5001869604
 10
29.4615505584
 20
30.534946367
 10
29.3600324833
 20
30.5765289294
 10
29.2672176362
 20
30.624411723
 10
29.1842732178
 20
30.6779925937
 10
29.1122423022
 20
30.736597731
 10
29.05203072
 20
30.7994901413
 10
29.0043956667
 20
30.8658789162
 10
28.9699361808
 20
30.9349291781
 10
28.9490856104
 20
31.00577258
 10
28.9421061633
 20
31.077518225
  0
SPLINE
  5
1C9
330
1F
100
AcDbEntity
  8
0
  6
Continuous
 62
     7
370
    25
100
AcDbSpline
210
0.0
220
0.0
230
1.0
 70
     8
 71
     3
 72
    12
 73
     8
 74
     0
 42
0.00000001
 43
0.00000001
 40
0.0
 40
0.0
 40
0.0
 40
0.0
 40
0.0559155127613369
 40
0.3101219283375188
 40
0.5647076749068098
 40
0.8196803700409592
 40
0.9999999999999999
 40
0.9999999999999999
 40
0.9999999999999999
 40
0.9999999999999999
 10
29.27472599868645
 20
30.87863865699874
 30
0.0
 10
29.27476398206566
 20
30.87724642228117
 30
0.0
 10
29.27497464773294
 20
30.86952472763885
 30
0.0
 10
29.28031372145675
 20
30.85315606164614
 30
0.0
 10
29.2904588952661
 20
30.83274599275851
 30
0.0
 10
29.30305978118512
 20
30.81613777547242
 30
0.0
 10
29.31220727762873
 20
30.80969493845378
 30
0.0
 10
29.31599662349742
 20
30.80702599641159
 30
0.0
  0
LWPOLYLINE
  5
1CA
330
1F
100
AcDbEntity
  8
0
  6
Continuous
 62
     7
370
    25
100
AcDbPolyline
 90
       17
 70
   128
 43
0.0
 10
29.2252757027
 20
27.9520216218
 10
29.2013097706
 20
27.9532729834
 10
29.1749978948
 20
27.967427274
 10
29.15034582
 20
27.9923296311
 10
29.1311066011
 20
28.0241888966
 10
29.1202092347
 20
28.0581547862
 10
29.1193127461
 20
28.089056301
 10
29.1285536175
 20
28.1121889655
 10
29.1465250101
 20
28.1240310414
 10
29.1704909422
 20
28.1227796798
 10
29.1968028179
 20
28.1086253892
 10
29.2214548927
 20
28.0837230321
 10
29.2406941117
 20
28.0518637665
 10
29.2515914781
 20
28.017897877
 10
29.2524879667
 20
27.9869963622
 10
29.2432470953
 20
27.9638636976
 10
29.2252757027
 20
27.9520216218
  0
LWPOLYLINE
  5
1CB
330
1F
100
AcDbEntity
  8
0
  6
Continuous
 62
     7
370
    25
100
AcDbPolyline
 90
       15
 70
   128
 43
0.0
 10
29.1052186684
 20
28.1590112121
 10
29.1170333574
 20
28.1800442395
 10
29.1394967201
 20
28.1964565384
 10
29.168461423
 20
28.2001645086
 10
29.2013538251
 20
28.1908386805
 10
29.2352512923
 20
28.1693076949
 10
29.2671418857
 20
28.1374846744
 10
29.2941919863
 20
28.0981972341
 10
29.3139980738
 20
28.0549362353
 10
29.3248002905
 20
28.0115456078
 10
29.3256388119
 20
27.9718807991
 10
29.3164391319
 20
27.9394662015
 10
29.2980186823
 20
27.9171819944
 10
29.272014201
 20
27.9070082273
 10
29.2521759618
 20
27.9073565383
  0
LWPOLYLINE
  5
1CC
330
1F
100
AcDbEntity
  8
0
  6
Continuous
 62
     7
370
    25
100
AcDbPolyline
 90
       13
 70
   128
 43
0.0
 10
29.1867126841
 20
28.2244235754
 10
29.1877344039
 20
28.224998619
 10
29.215296064
 20
28.2319589501
 10
29.2474711836
 20
28.22585865
 10
29.2814008623
 20
28.2072397571
 10
29.314070299
 20
28.1777566418
 10
29.3425766711
 20
28.1400290082
 10
29.3643870622
 20
28.0974091221
 10
29.3775635234
 20
28.0536839476
 10
29.3809352682
 20
28.0127386581
 10
29.3742027025
 20
27.9782114224
 10
29.3579640441
 20
27.9531701369
 10
29.3477225883
 20
27.9455160206
  0
LINE
  5
1CD
330
1F
100
AcDbEntity
  8
0
  6
Continuous
 62
     7
370
    25
100
AcDbLine
 10
29.2263567449
 20
28.0716127004
 30
0.0
 11
29.1896557357
 21
28.0623443481
 31
0.0
  0
LINE
  5
1CE
330
1F
100
AcDbEntity
  8
0
  6
Continuous
 62
     7
370
    25
100
AcDbLine
 10
29.1896557357
 20
28.0623443481
 30
0.0
 11
29.1632820196
 21
28.1199505412
 31
0.0
  0
LINE
  5
1CF
330
1F
100
AcDbEntity
  8
0
  6
Continuous
 62
     7
370
    25
100
AcDbLine
 10
29.1632820196
 20
28.1199505412
 30
0.0
 11
29.1365903765
 21
28.1132099213
 31
0.0
  0
LINE
  5
1D0
330
1F
100
AcDbEntity
  8
0
  6
Continuous
 62
     7
370
    25
100
AcDbLine
 10
29.1365903765
 20
28.1132099213
 30
0.0
 11
29.1629640926
 21
28.0556037282
 31
0.0
  0
LINE
  5
1D1
330
1F
100
AcDbEntity
  8
0
  6
Continuous
 62
     7
370
    25
100
AcDbLine
 10
29.1629640926
 20
28.0556037282
 30
0.0
 11
29.1262630834
 21
28.0463353759
 31
0.0
  0
LINE
  5
1D2
330
1F
100
AcDbEntity
  8
0
  6
Continuous
 62
     7
370
    25
100
AcDbLine
 10
29.1262630834
 20
28.0463353759
 30
0.0
 11
29.1454439679
 21
28.0044399628
 31
0.0
  0
LINE
  5
1D3
330
1F
100
AcDbEntity
  8
0
  6
Continuous
 62
     7
370
    25
100
AcDbLine
 10
29.1454439679
 20
28.0044399628
 30
0.0
 11
29.1821449771
 21
28.0137083151
 31
0.0
  0
LINE
  5
1D4
330
1F
100
AcDbEntity
  8
0
  6
Continuous
 62
     7
370
    25
100
AcDbLine
 10
29.1821449771
 20
28.0137083151
 30
0.0
 11
29.2085186932
 21
27.956102122
 31
0.0
  0
LINE
  5
1D5
330
1F
100
AcDbEntity
  8
0
  6
Continuous
 62
     7
370
    25
100
AcDbLine
 10
29.2085186932
 20
27.956102122
 30
0.0
 11
29.2352103363
 21
27.9628427418
 31
0.0
  0
LINE
  5
1D6
330
1F
100
AcDbEntity
  8
0
  6
Continuous
 62
     7
370
    25
100
AcDbLine
 10
29.2352103363
 20
27.9628427418
 30
0.0
 11
29.2088366202
 21
28.0204489349
 31
0.0
  0
LINE
  5
1D7
330
1F
100
AcDbEntity
  8
0
  6
Continuous
 62
     7
370
    25
100
AcDbLine
 10
29.2455376294
 20
28.0297172872
 30
0.0
 11
29.2088366202
 21
28.0204489349
 31
0.0
  0
LINE
  5
1D8
330
1F
100
AcDbEntity
  8
0
  6
Continuous
 62
     7
370
    25
100
AcDbLine
 10
29.2455376294
 20
28.0297172872
 30
0.0
 11
29.2263567449
 21
28.0716127004
 31
0.0
  0
LINE
  5
1D9
330
1F
100
AcDbEntity
  8
0
  6
Continuous
 62
     7
370
    25
100
AcDbLine
 10
29.2088366202
 20
28.0204489349
 30
0.0
 11
29.2412216329
 21
28.0391444049
 31
0.0
  0
LINE
  5
1DA
330
1F
100
AcDbEntity
  8
0
  6
Continuous
 62
     7
370
    25
100
AcDbLine
 10
29.1365903765
 20
28.1132099213
 30
0.0
 11
29.1738875748
 21
28.0967855969
 31
0.0
  0
LINE
  5
1DB
330
1F
100
AcDbEntity
  8
0
  6
Continuous
 62
     7
370
    25
100
AcDbLine
 10
29.2085186932
 20
27.956102122
 30
0.0
 11
29.218326968
 21
27.9997198572
 31
0.0
  0
LINE
  5
1DC
330
1F
100
AcDbEntity
  8
0
  6
Continuous
 62
     7
370
    25
100
AcDbLine
 10
29.2250994369
 20
28.0298372592
 30
0.0
 11
29.2273394124
 21
28.0397985072
 31
0.0
  0
LINE
  5
1DD
330
1F
100
AcDbEntity
  8
0
  6
Continuous
 62
     7
370
    25
100
AcDbLine
 10
29.2395145031
 20
28.0428731646
 30
0.0
 11
29.2273394124
 21
28.0397985072
 31
0.0
  0
LINE
  5
1DE
330
1F
100
AcDbEntity
  8
0
  6
Continuous
 62
     7
370
    25
100
AcDbLine
 10
29.1629640926
 20
28.0556037282
 30
0.0
 11
29.1865168292
 21
28.0692004336
 31
0.0
  0
LINE
  5
1DF
330
1F
100
AcDbEntity
  8
0
  6
Continuous
 62
     7
370
    25
100
AcDbLine
 10
29.2273394124
 20
28.0397985072
 30
0.0
 11
29.2141816542
 21
28.068538043
 31
0.0
  0
LINE
  5
1E0
330
1F
100
AcDbEntity
  8
0
  6
Continuous
 62
     7
370
    25
100
AcDbLine
 10
29.1454439679
 20
28.0044399628
 30
0.0
 11
29.2273394124
 21
28.0397985072
 31
0.0
  0
LINE
  5
1E1
330
1F
100
AcDbEntity
  8
0
  6
Continuous
 62
     7
370
    25
100
AcDbLine
 10
29.2386804119
 20
28.0446950095
 30
0.0
 11
29.2273394124
 21
28.0397985072
 31
0.0
  0
LINE
  5
1E2
330
1F
100
AcDbEntity
  8
0
  6
Continuous
 62
     7
370
    25
100
AcDbLine
 10
29.1821449771
 20
28.0137083151
 30
0.0
 11
29.2273394124
 21
28.0397985072
 31
0.0
  0
LINE
  5
1E3
330
1F
100
AcDbEntity
  8
0
  6
Continuous
 62
     7
370
    25
100
AcDbLine
 10
29.2350281415
 20
28.0526723984
 30
0.0
 11
29.2273394124
 21
28.0397985072
 31
0.0
  0
LINE
  5
1E4
330
1F
100
AcDbEntity
  8
0
  6
Continuous
 62
     7
370
    25
100
AcDbLine
 10
29.2318133458
 20
28.0596942432
 30
0.0
 11
29.2273394124
 21
28.0397985072
 31
0.0
  0
LWPOLYLINE
  5
1E5
330
1F
100
AcDbEntity
  8
0
  6
Continuous
 62
     7
370
    25
100
AcDbPolyline
 90
       17
 70
   128
 43
0.0
 10
31.2433952683
 20
28.2986622643
 10
31.2338462914
 20
28.2740034018
 10
31.2245285698
 20
28.261682435
 10
31.2168606423
 20
28.2635751193
 10
31.2120098812
 20
28.2793933107
 10
31.210714771
 20
28.306728833
 10
31.2131724805
 20
28.3414201007
 10
31.2190088457
 20
28.3781856828
 10
31.2273353328
 20
28.4114283526
 10
31.2368843097
 20
28.4360872151
 10
31.2462020313
 20
28.4484081819
 10
31.2538699588
 20
28.4465154976
 10
31.2587207199
 20
28.4306973062
 10
31.2600158301
 20
28.4033617839
 10
31.2575581206
 20
28.3686705162
 10
31.2517217554
 20
28.3319049341
 10
31.2433952683
 20
28.2986622643
  0
LWPOLYLINE
  5
1E6
330
1F
100
AcDbEntity
  8
0
  6
Continuous
 62
     7
370
    25
100
AcDbPolyline
 90
       10
 70
   128
 43
0.0
 10
31.1593923879
 20
28.2330406464
 10
31.1571493097
 20
28.2667565418
 10
31.1586074202
 20
28.3088197943
 10
31.1636371597
 20
28.3554928993
 10
31.1717916139
 20
28.4026287466
 10
31.1823462237
 20
28.4460391094
 10
31.1943631658
 20
28.4818667864
 10
31.206774682
 20
28.5069283312
 10
31.2184779547
 20
28.5189969157
 10
31.2276809719
 20
28.5177185741
  0
LWPOLYLINE
  5
1E7
330
1F
100
AcDbEntity
  8
0
  6
Continuous
 62
     7
370
    25
100
AcDbPolyline
 90
        4
 70
   128
 43
0.0
 10
31.1786629015
 20
28.2021996554
 10
31.1738737232
 20
28.2016262583
 10
31.1651373473
 20
28.2106679135
 10
31.1593923879
 20
28.2330406464
  0
LWPOLYLINE
  5
1E8
330
1F
100
AcDbEntity
  8
0
  6
Continuous
 62
     7
370
    25
100
AcDbPolyline
 90
       12
 70
   128
 43
0.0
 10
31.0996689269
 20
28.2130973291
 10
31.0925472138
 20
28.2186321853
 10
31.0859951866
 20
28.2378144955
 10
31.0828452734
 20
28.2689400184
 10
31.0833773579
 20
28.3092431149
 10
31.087544162
 20
28.355142678
 10
31.0949754469
 20
28.4025603299
 10
31.1050109102
 20
28.4472828044
 10
31.1167588572
 20
28.4853363131
 10
31.129175431
 20
28.513339635
 10
31.1411573647
 20
28.528804552
 10
31.1488987342
 20
28.5313582903
  0
LINE
  5
1E9
330
1F
100
AcDbEntity
  8
0
  6
Continuous
 62
     7
370
    25
100
AcDbLine
 10
31.2547415633
 20
28.4378762943
 30
0.0
 11
31.2390980387
 21
28.3872043765
 31
0.0
  0
LINE
  5
1EA
330
1F
100
AcDbEntity
  8
0
  6
Continuous
 62
     7
370
    25
100
AcDbLine
 10
31.2390980387
 20
28.3872043765
 30
0.0
 11
31.2337195441
 21
28.4249698958
 31
0.0
  0
LINE
  5
1EB
330
1F
100
AcDbEntity
  8
0
  6
Continuous
 62
     7
370
    25
100
AcDbLine
 10
31.2337195441
 20
28.4249698958
 30
0.0
 11
31.2223424352
 21
28.3881175919
 31
0.0
  0
LINE
  5
1EC
330
1F
100
AcDbEntity
  8
0
  6
Continuous
 62
     7
370
    25
100
AcDbLine
 10
31.2223424352
 20
28.3881175919
 30
0.0
 11
31.2277209299
 21
28.3503520726
 31
0.0
  0
LINE
  5
1ED
330
1F
100
AcDbEntity
  8
0
  6
Continuous
 62
     7
370
    25
100
AcDbLine
 10
31.2277209299
 20
28.3503520726
 30
0.0
 11
31.2120774053
 21
28.2996801548
 31
0.0
  0
LINE
  5
1EE
330
1F
100
AcDbEntity
  8
0
  6
Continuous
 62
     7
370
    25
100
AcDbLine
 10
31.2120774053
 20
28.2996801548
 30
0.0
 11
31.2159890378
 21
28.2722143225
 31
0.0
  0
LINE
  5
1EF
330
1F
100
AcDbEntity
  8
0
  6
Continuous
 62
     7
370
    25
100
AcDbLine
 10
31.2159890378
 20
28.2722143225
 30
0.0
 11
31.2316325624
 21
28.3228862404
 31
0.0
  0
LINE
  5
1F0
330
1F
100
AcDbEntity
  8
0
  6
Continuous
 62
     7
370
    25
100
AcDbLine
 10
31.2316325624
 20
28.3228862404
 30
0.0
 11
31.237011057
 21
28.2851207211
 31
0.0
  0
LINE
  5
1F1
330
1F
100
AcDbEntity
  8
0
  6
Continuous
 62
     7
370
    25
100
AcDbLine
 10
31.237011057
 20
28.2851207211
 30
0.0
 11
31.2483881659
 21
28.3219730249
 31
0.0
  0
LINE
  5
1F2
330
1F
100
AcDbEntity
  8
0
  6
Continuous
 62
     7
370
    25
100
AcDbLine
 10
31.2483881659
 20
28.3219730249
 30
0.0
 11
31.2430096712
 21
28.3597385443
 31
0.0
  0
LINE
  5
1F3
330
1F
100
AcDbEntity
  8
0
  6
Continuous
 62
     7
370
    25
100
AcDbLine
 10
31.2586531958
 20
28.4104104621
 30
0.0
 11
31.2430096712
 21
28.3597385443
 31
0.0
  0
LINE
  5
1F4
330
1F
100
AcDbEntity
  8
0
  6
Continuous
 62
     7
370
    25
100
AcDbLine
 10
31.2586531958
 20
28.4104104621
 30
0.0
 11
31.2547415633
 21
28.4378762943
 31
0.0
  0
LINE
  5
1F5
330
1F
100
AcDbEntity
  8
0
  6
Continuous
 62
     7
370
    25
100
AcDbLine
 10
31.2390980387
 20
28.3872043765
 30
0.0
 11
31.2228370377
 21
28.3897196895
 31
0.0
  0
LINE
  5
1F6
330
1F
100
AcDbEntity
  8
0
  6
Continuous
 62
     7
370
    25
100
AcDbLine
 10
31.2316325624
 20
28.3228862404
 30
0.0
 11
31.2198063798
 21
28.324715559
 31
0.0
  0
LINE
  5
1F7
330
1F
100
AcDbEntity
  8
0
  6
Continuous
 62
     7
370
    25
100
AcDbLine
 10
31.2586531958
 20
28.4104104621
 30
0.0
 11
31.2438303672
 21
28.4025331572
 31
0.0
  0
LINE
  5
1F8
330
1F
100
AcDbEntity
  8
0
  6
Continuous
 62
     7
370
    25
100
AcDbLine
 10
31.2483881659
 20
28.3219730249
 30
0.0
 11
31.2242197999
 21
28.3390113438
 31
0.0
  0
LINE
  5
1F9
330
1F
100
AcDbEntity
  8
0
  6
Continuous
 62
     7
370
    25
100
AcDbLine
 10
31.2430096712
 20
28.3597385443
 30
0.0
 11
31.2260096188
 21
28.3623681766
 31
0.0
  0
LWPOLYLINE
  5
1FA
330
1F
100
AcDbEntity
  8
0
  6
Continuous
 62
     7
370
    25
100
AcDbPolyline
 90
       23
 70
   128
 43
0.0
 10
29.157296784
 20
30.4671975258
 10
29.1438698045
 20
30.4362191875
 10
29.1404357327
 20
30.3966726283
 10
29.1472727768
 20
30.3517616751
 10
29.16382704
 20
30.3051247463
 10
29.1887573945
 20
30.2605400886
 10
29.2200441311
 20
30.2216196857
 10
29.2551525845
 20
30.1915166372
 10
29.2912384767
 20
30.1726697131
 10
29.3253783432
 20
30.166605779
 10
29.3548063752
 20
30.1738160989
 10
29.3771384884
 20
30.1937165355
 10
29.390565468
 20
30.2246948738
 10
29.3939995397
 20
30.2642414331
 10
29.3871624957
 20
30.3091523863
 10
29.3706082324
 20
30.3557893151
 10
29.345677878
 20
30.4003739728
 10
29.3143911414
 20
30.4392943757
 10
29.2792826879
 20
30.4693974242
 10
29.2431967958
 20
30.4882443483
 10
29.2090569292
 20
30.4943082824
 10
29.1796288973
 20
30.4870979625
 10
29.157296784
 20
30.4671975258
  0
LWPOLYLINE
  5
1FB
330
1F
100
AcDbEntity
  8
0
  6
Continuous
 62
     7
370
    25
100
AcDbPolyline
 90
       13
 70
   128
 43
0.0
 10
29.3604958764
 20
30.1770422802
 10
29.3806740223
 20
30.1957575558
 10
29.3941010019
 20
30.2267358941
 10
29.3975350736
 20
30.2662824534
 10
29.3906980296
 20
30.3111934066
 10
29.3741437664
 20
30.3578303353
 10
29.3492134119
 20
30.4024149931
 10
29.3179266753
 20
30.441335396
 10
29.2828182219
 20
30.4714384445
 10
29.2467323297
 20
30.4902853686
 10
29.2125924631
 20
30.4963493026
 10
29.1831644312
 20
30.4891389827
 10
29.1810104639
 20
30.4879538218
  0
LINE
  5
1FC
330
1F
100
AcDbEntity
  8
0
  6
Continuous
 62
     7
370
    25
100
AcDbLine
 10
29.2288422969
 20
30.3526106425
 30
0.0
 11
29.2480299666
 21
30.3799112548
 31
0.0
  0
LINE
  5
1FD
330
1F
100
AcDbEntity
  8
0
  6
Continuous
 62
     7
370
    25
100
AcDbLine
 10
29.2480299666
 20
30.3031564184
 30
0.0
 11
29.2288422969
 21
30.3526106425
 31
0.0
  0
LINE
  5
1FE
330
1F
100
AcDbEntity
  8
0
  6
Continuous
 62
     7
370
    25
100
AcDbLine
 10
29.2864053059
 20
30.2810028066
 30
0.0
 11
29.2480299666
 21
30.3031564184
 31
0.0
  0
LINE
  5
1FF
330
1F
100
AcDbEntity
  8
0
  6
Continuous
 62
     7
370
    25
100
AcDbLine
 10
29.3055929755
 20
30.3083034189
 30
0.0
 11
29.2864053059
 21
30.2810028066
 31
0.0
  0
LINE
  5
200
330
1F
100
AcDbEntity
  8
0
  6
Continuous
 62
     7
370
    25
100
AcDbLine
 10
29.2864053059
 20
30.3577576429
 30
0.0
 11
29.3055929755
 21
30.3083034189
 31
0.0
  0
LINE
  5
201
330
1F
100
AcDbEntity
  8
0
  6
Continuous
 62
     7
370
    25
100
AcDbLine
 10
29.2480299666
 20
30.3799112548
 30
0.0
 11
29.2864053059
 21
30.3577576429
 31
0.0
  0
LINE
  5
202
330
1F
100
AcDbEntity
  8
0
  6
Continuous
 62
     7
370
    25
100
AcDbLine
 10
29.2620817175
 20
30.3717993516
 30
0.0
 11
29.2288422969
 21
30.3526106425
 31
0.0
  0
LINE
  5
203
330
1F
100
AcDbEntity
  8
0
  6
Continuous
 62
     7
370
    25
100
AcDbLine
 10
29.2966908416
 20
30.3312477437
 30
0.0
 11
29.2480299666
 21
30.3031564184
 31
0.0
  0
LINE
  5
204
330
1F
100
AcDbEntity
  8
0
  6
Continuous
 62
     7
370
    25
100
AcDbLine
 10
29.2791046444
 20
30.8447865844
 30
0.0
 11
29.3053238803
 21
30.8275896243
 31
0.0
  0
ARC
  5
205
330
1F
100
AcDbEntity
  8
0
  6
Continuous
 62
     7
370
    25
100
AcDbCircle
 10
29.4443767885
 20
28.3680730347
 30
0.0
 40
0.5034290118942747
100
AcDbArc
 50
183.8875735381
 51
235.5940151366
  0
LWPOLYLINE
  5
206
330
1F
100
AcDbEntity
  8
0
  6
Continuous
 62
     7
370
    25
100
AcDbPolyline
 90
       22
 70
   128
 43
0.0
 10
29.2090354636
 20
27.9171202616
 10
29.2672176362
 20
27.880834595
 10
29.3600324833
 20
27.8329518015
 10
29.4615505584
 20
27.791369239
 10
29.5704952129
 20
27.7566098325
 10
29.6854964046
 20
27.7291107016
 10
29.8051079267
 20
27.7092176638
 10
29.9278255949
 20
27.6971808857
 10
30.0521061633
 20
27.6931517367
 10
30.1763867318
 20
27.6971808857
 10
30.2991044
 20
27.7092176638
 10
30.4187159221
 20
27.7291107016
 10
30.5337171138
 20
27.7566098325
 10
30.6426617683
 20
27.791369239
 10
30.7441798434
 20
27.8329518015
 10
30.8369946905
 20
27.880834595
 10
30.9199391089
 20
27.9344154657
 10
30.9919700245
 20
27.9930206031
 10
31.0521816067
 20
28.0559130134
 10
31.09981666
 20
28.1223017882
 10
31.1342761459
 20
28.1913520501
 10
31.1400552541
 20
28.2068502195
  0
LWPOLYLINE
  5
207
330
1F
100
AcDbEntity
  8
0
  6
Continuous
 62
     7
370
    25
100
AcDbPolyline
 90
       29
 70
   128
 43
0.0
 10
28.9421061633
 20
31.077518225
 10
28.9490856104
 20
31.00577258
 10
28.9699361808
 20
30.9349291781
 10
29.0043956667
 20
30.8658789162
 10
29.05203072
 20
30.7994901413
 10
29.1122423022
 20
30.736597731
 10
29.1842732178
 20
30.6779925937
 10
29.2672176362
 20
30.624411723
 10
29.3600324833
 20
30.5765289294
 10
29.4615505584
 20
30.534946367
 10
29.5704952129
 20
30.5001869604
 10
29.6854964046
 20
30.4726878295
 10
29.8051079267
 20
30.4527947917
 10
29.9278255949
 20
30.4407580136
 10
30.0521061633
 20
30.4367288646
 10
30.1763867318
 20
30.4407580136
 10
30.2991044
 20
30.4527947917
 10
30.4187159221
 20
30.4726878295
 10
30.5337171138
 20
30.5001869604
 10
30.6426617683
 20
30.534946367
 10
30.7441798434
 20
30.5765289294
 10
30.8369946905
 20
30.624411723
 10
30.9199391089
 20
30.6779925937
 10
30.9919700245
 20
30.736597731
 10
31.0521816067
 20
30.7994901413
 10
31.09981666
 20
30.8658789162
 10
31.1342761459
 20
30.9349291781
 10
31.1551267163
 20
31.00577258
 10
31.1621061633
 20
31.077518225
  0
SPLINE
  5
208
330
1F
100
AcDbEntity
  8
0
  6
Continuous
 62
     7
370
    25
100
AcDbSpline
210
0.0
220
0.0
230
1.0
 70
     8
 71
     3
 72
    17
 73
    13
 74
     0
 42
0.00000001
 43
0.00000001
 40
0.0
 40
0.0
 40
0.0
 40
0.0
 40
0.046455494077535
 40
0.1420737483601851
 40
0.2401213882280595
 40
0.3444997492460294
 40
0.4556522704313357
 40
0.5710560364523298
 40
0.6876038028052446
 40
0.8024138728612349
 40
0.9116994962315305
 40
1.0
 40
1.0
 40
1.0
 40
1.0
 10
29.26721763622695
 20
30.48559978494524
 30
0.0
 10
29.27357124434147
 20
30.48162860839658
 30
0.0
 10
29.29300233507394
 20
30.46948365226445
 30
0.0
 10
29.32606028338911
 20
30.43946538106635
 30
0.0
 10
29.361769289669
 20
30.39390929358869
 30
0.0
 10
29.38956611857581
 20
30.34063157907994
 30
0.0
 10
29.40452975865711
 20
30.28383014400861
 30
0.0
 10
29.40246608278428
 20
30.229968387518
 30
0.0
 10
29.38242215246622
 20
30.18674229043394
 30
0.0
 10
29.3477789626904
 20
30.16166531403945
 30
0.0
 10
29.30669001094097
 20
30.15725739447481
 30
0.0
 10
29.2794092891249
 20
30.1697371294038
 30
0.0
 10
29.26721763622695
 20
30.17531427642865
 30
0.0
  0
SPLINE
  5
209
330
1F
100
AcDbEntity
  8
0
  6
Continuous
 62
     7
370
    25
100
AcDbSpline
210
0.0
220
0.0
230
1.0
 70
     8
 71
     3
 72
    11
 73
     7
 74
     0
 42
0.00000001
 43
0.00000001
 40
0.0
 40
0.0
 40
0.0
 40
0.0
 40
0.0615629041943981
 40
0.5078617784733037
 40
0.9565908482239143
 40
1.0
 40
1.0
 40
1.0
 40
1.0
 10
29.26721763622695
 20
30.17531427642866
 30
0.0
 10
29.26542116460313
 20
30.17638447075109
 30
0.0
 10
29.25060121278652
 20
30.18521301448232
 30
0.0
 10
29.22427599550222
 20
30.20936772289953
 30
0.0
 10
29.20042754308168
 20
30.2397306081835
 30
0.0
 10
29.19225655827422
 20
30.25837695856305
 30
0.0
 10
29.19153583489987
 20
30.26002166368509
 30
0.0
  0
SPLINE
  5
20A
330
1F
100
AcDbEntity
  8
0
  6
Continuous
 62
     7
370
    25
100
AcDbSpline
210
0.0
220
0.0
230
1.0
 70
     8
 71
     3
 72
    11
 73
     7
 74
     0
 42
0.00000001
 43
0.00000001
 40
0.0
 40
0.0
 40
0.0
 40
0.0
 40
0.1561975128636815
 40
0.4766386693351014
 40
0.8256894751903175
 40
1.0
 40
1.0
 40
1.0
 40
1.0
 10
29.17170888483703
 20
30.48031382730557
 30
0.0
 10
29.17451129499152
 20
30.48461588512293
 30
0.0
 10
29.1830628847222
 20
30.49774366850357
 30
0.0
 10
29.20778384246776
 20
30.50491447421319
 30
0.0
 10
29.2386468123366
 20
30.50055577271114
 30
0.0
 10
29.26007933006268
 20
30.48933647871619
 30
0.0
 10
29.26721763622695
 20
30.48559978494524
 30
0.0
  0
LINE
  5
20B
330
1F
100
AcDbEntity
  8
0
  6
Continuous
 62
     7
370
    25
100
AcDbLine
 10
29.4417221848
 20
13.6311503779
 30
0.0
 11
29.3723468321
 21
13.6204191363
 31
0.0
  0
LINE
  5
20C
330
1F
100
AcDbEntity
  8
0
  6
Continuous
 62
     7
370
    25
100
AcDbLine
 10
29.3723468321
 20
13.6204191363
 30
0.0
 11
29.3215605491
 21
13.6497374335
 31
0.0
  0
LINE
  5
20D
330
1F
100
AcDbEntity
  8
0
  6
Continuous
 62
     7
370
    25
100
AcDbLine
 10
29.0148848246
 20
13.8267775608
 30
0.0
 11
28.9640985416
 21
13.8560958579
 31
0.0
  0
LINE
  5
20E
330
1F
100
AcDbEntity
  8
0
  6
Continuous
 62
     7
370
    25
100
AcDbLine
 10
28.9640985416
 20
13.8560958579
 30
0.0
 11
28.9826876114
 21
13.8961453966
 31
0.0
  0
LINE
  5
20F
330
1F
100
AcDbEntity
  8
0
  6
Continuous
 62
     7
370
    25
100
AcDbLine
 10
29.3723468321
 20
13.6204191363
 30
0.0
 11
29.3723468321
 21
13.5183515349
 31
0.0
  0
LINE
  5
210
330
1F
100
AcDbEntity
  8
0
  6
Continuous
 62
     7
370
    25
100
AcDbLine
 10
29.9300243679
 20
13.6121396585
 30
0.0
 11
29.9300243679
 21
13.604615202
 31
0.0
  0
LINE
  5
211
330
1F
100
AcDbEntity
  8
0
  6
Continuous
 62
     7
370
    25
100
AcDbLine
 10
29.9300243679
 20
13.604615202
 30
0.0
 11
29.3723468321
 21
13.5183515349
 31
0.0
  0
LINE
  5
212
330
1F
100
AcDbEntity
  8
0
  6
Continuous
 62
     7
370
    25
100
AcDbLine
 10
28.9640985416
 20
13.8560958579
 30
0.0
 11
28.9640985416
 21
13.7540282564
 31
0.0
  0
LINE
  5
213
330
1F
100
AcDbEntity
  8
0
  6
Continuous
 62
     7
370
    25
100
AcDbLine
 10
29.3723468321
 20
13.5183515349
 30
0.0
 11
28.9640985416
 21
13.7540282564
 31
0.0
  0
LINE
  5
214
330
1F
100
AcDbEntity
  8
0
  6
Continuous
 62
     7
370
    25
100
AcDbLine
 10
29.9334430339
 20
13.6119806054
 30
0.0
 11
29.9300243679
 21
13.604615202
 31
0.0
  0
ARC
  5
215
330
1F
100
AcDbEntity
  8
0
  6
Continuous
 62
     7
370
    25
100
AcDbCircle
 10
30.6426931716
 20
14.3451190186
 30
0.0
 40
0.6385367322939969
100
AcDbArc
 50
276.256125115
 51
308.7228696914
  0
LWPOLYLINE
  5
216
330
1F
100
AcDbEntity
  8
0
  6
Continuous
 62
     7
370
    25
100
AcDbPolyline
 90
        3
 70
   128
 43
0.0
 10
31.0991224725
 20
13.915858042
 10
31.0831404139
 20
13.8917029349
 10
31.042132453
 20
13.8469449335
  0
LWPOLYLINE
  5
217
330
1F
100
AcDbEntity
  8
0
  6
Continuous
 62
     7
370
    25
100
AcDbPolyline
 90
       17
 70
   128
 43
0.0
 10
31.042132453
 20
13.1610506516
 10
30.989218602
 20
13.1206697337
 10
30.9257693016
 20
13.0857117438
 10
30.8534278556
 20
13.0570820756
 10
30.7740678693
 20
13.0355222224
 10
30.6897447247
 20
13.021590573
 10
30.602642347
 20
13.0156479498
 10
30.5150166419
 20
13.0178482638
 10
30.4291370693
 20
13.0281345278
 10
30.3472278648
 20
13.0462403332
 10
30.271410434
 20
13.0716967489
 10
30.2036484085
 20
13.1038444672
 10
30.145696789
 20
13.1418508792
 10
30.0990564922
 20
13.1847316387
 10
30.0649354771
 20
13.2313761565
 10
30.0442174603
 20
13.2805763641
 10
30.0374362492
 20
13.3300534412
  0
ARC
  5
218
330
1F
100
AcDbEntity
  8
0
  6
Continuous
 62
     7
370
    25
100
AcDbCircle
 10
30.8992464279
 20
13.3392019159
 30
0.0
 40
0.2283731357888014
100
AcDbArc
 50
308.7313179515
 51
357.7041551771
  0
LWPOLYLINE
  5
219
330
1F
100
AcDbEntity
  8
0
  6
Continuous
 62
     7
370
    25
100
AcDbPolyline
 90
       13
 70
   128
 43
0.0
 10
29.669540658
 20
13.6395223868
 10
29.6022787264
 20
13.6311889584
 10
29.5147710873
 20
13.6277637115
 10
29.4274448738
 20
13.632486331
 10
29.3425617888
 20
13.6452345035
 10
29.2623202599
 20
13.6656780579
 10
29.1887985003
 20
13.693287517
 10
29.123900685
 20
13.7273478103
 10
29.0693076334
 20
13.7669767941
 10
29.0264332769
 20
13.8111480984
 10
28.9963880387
 20
13.8587177098
 10
28.9799500747
 20
13.9084536003
 10
28.9767760775
 20
13.9423595251
  0
LWPOLYLINE
  5
21A
330
1F
100
AcDbEntity
  8
0
  6
Continuous
 62
     7
370
    25
100
AcDbPolyline
 90
       30
 70
   128
 43
0.0
 10
31.0022809006
 20
14.8452863806
 10
30.9012782775
 20
14.792607408
 10
30.7915619994
 20
14.7460975935
 10
30.6742579039
 20
14.7062341907
 10
30.5505696895
 20
14.6734262522
 10
30.4217665649
 20
14.6480104317
 10
30.2891702243
 20
14.6302475299
 10
30.1541412856
 20
14.6203198183
 10
30.0180653285
 20
14.6183291687
 10
29.8823386764
 20
14.6242960077
 10
29.7483540685
 20
14.6381591075
 10
29.6174863681
 20
14.6597762141
 10
29.491078455
 20
14.6889255065
 10
29.3704274453
 20
14.7253078737
 10
29.2567713817
 20
14.7685499832
 10
29.1512765293
 20
14.8182081127
 10
29.0550254079
 20
14.8737727023
 10
28.9690056843
 20
14.9346735843
 10
28.8941000373
 20
15.0002858332
 10
28.8310771002
 20
15.0699361785
 10
28.7805835737
 20
15.1429099135
 10
28.7431375895
 20
15.2184582289
 10
28.7191233942
 20
15.2958058966
 10
28.7087874059
 20
15.3741592251
 10
28.7122356859
 20
15.452714203
 10
28.7294328501
 20
15.5306647501
 10
28.7602024324
 20
15.6072109882
 10
28.8042286952
 20
15.6815674493
 10
28.8610598694
 20
15.7529711356
 10
28.8646061633
 20
15.7568634276
  0
LWPOLYLINE
  5
21B
330
1F
100
AcDbEntity
  8
0
  6
Continuous
 62
     7
370
    25
100
AcDbPolyline
 90
       14
 70
   128
 43
0.0
 10
31.2396061633
 20
15.7568634276
 10
31.2731352264
 20
15.7176849829
 10
31.323628753
 20
15.6447112479
 10
31.3610747372
 20
15.5691629326
 10
31.3850889325
 20
15.4918152648
 10
31.3954249208
 20
15.4134619364
 10
31.3919766408
 20
15.3349069585
 10
31.3747794766
 20
15.2569564114
 10
31.3440098943
 20
15.1804101733
 10
31.2999836315
 20
15.1060537122
 10
31.2431524573
 20
15.0346500259
 10
31.1740995363
 20
14.9669318129
 10
31.093533445
 20
14.9035939538
 10
31.0022809006
 20
14.8452863806
  0
LINE
  5
21C
330
1F
100
AcDbEntity
  8
0
  6
Continuous
 62
     7
370
    25
100
AcDbLine
 10
28.7083561633
 20
14.449685267
 30
0.0
 11
28.7083746623
 21
14.4456148511
 31
0.0
  0
LINE
  5
21D
330
1F
100
AcDbEntity
  8
0
  6
Continuous
 62
     7
370
    25
100
AcDbLine
 10
31.2484133252
 20
15.3324175343
 30
0.0
 11
31.2486061633
 21
15.344818132
 31
0.0
  0
LWPOLYLINE
  5
21E
330
1F
100
AcDbEntity
  8
0
  6
Continuous
 62
     7
370
    25
100
AcDbPolyline
 90
       33
 70
   128
 43
0.0
 10
28.9421061633
 20
28.5775375301
 10
28.9169129939
 20
28.5351593795
 10
28.8858817901
 20
28.4631258613
 10
28.8685235007
 20
28.3895777699
 10
28.865041636
 20
28.3153773893
 10
28.8754770174
 20
28.2413946513
 10
28.8997072998
 20
28.1684969357
 10
28.9374484052
 20
28.0975389016
 10
28.9882578537
 20
28.0293524671
 10
29.0515399509
 20
27.9647370558
 10
29.1265527722
 20
27.9044502244
 10
29.2124168607
 20
27.8491987807
 10
29.3081255385
 20
27.7996304975
 10
29.412556709
 20
27.7563265175
 10
29.524486012
 20
27.7197945404
 10
29.642601179
 20
27.6904628701
 10
29.7655174174
 20
27.6686753937
 10
29.8917936469
 20
27.6546875495
 10
30.019949394
 20
27.648663332
 10
30.1484821499
 20
27.6506733697
 10
30.2758849854
 20
27.6606940969
 10
30.4006642189
 20
27.6786080295
 10
30.5213569278
 20
27.7042051432
 10
30.6365481006
 20
27.7371853352
 10
30.744887226
 20
27.7771619429
 10
30.8451041269
 20
27.8236662771
 10
30.9360238517
 20
27.876153117
 10
31.0165804498
 20
27.9340071024
 10
31.0858294687
 20
27.9965499483
 10
31.1429590269
 20
28.0630483969
 10
31.1872993328
 20
28.1327228147
 10
31.2183305366
 20
28.2047563329
 10
31.2329617866
 20
28.2615237027
  0
LWPOLYLINE
  5
21F
330
1F
100
AcDbEntity
  8
0
  6
Continuous
 62
     7
370
    25
100
AcDbPolyline
 90
        3
 70
   128
 43
0.0
 10
31.1927690853
 20
28.5245722587
 10
31.1667639215
 20
28.5703432926
 10
31.1621061633
 20
28.5775375301
  0
LWPOLYLINE
  5
220
330
1F
100
AcDbEntity
  8
0
  6
Continuous
 62
     7
370
    25
100
AcDbPolyline
 90
       34
 70
   128
 43
0.0
 10
28.1044870038
 20
20.3996646672
 10
28.260328116
 20
20.3251099758
 10
28.4247078666
 20
20.2569397272
 10
28.5968429112
 20
20.1954787836
 10
28.7759129479
 20
20.1410200345
 10
28.9610646265
 20
20.0938230007
 10
29.1514156148
 20
20.0541125974
 10
29.3460588038
 20
20.0220780629
 10
29.54406663
 20
19.9978720562
 10
29.7444954959
 20
19.9816099301
 10
29.9463902667
 20
19.9733691809
 10
30.148788822
 20
19.9731890796
 10
30.3507266403
 20
19.9810704845
 10
30.551241396
 20
19.996975837
 10
30.7493775451
 20
20.0208293409
 10
30.9441908785
 20
20.0525173235
 10
31.134753022
 20
20.091888777
 10
31.3201558602
 20
20.1387560785
 10
31.4995158641
 20
20.192895884
 10
31.6719783016
 20
20.2540501927
 10
31.8367213107
 20
20.3219275764
 10
31.9929598159
 20
20.3962045685
 10
32.1399492696
 20
20.4765272053
 10
32.2769892001
 20
20.5625127129
 10
32.4034265497
 20
20.6537513312
 10
32.5186587869
 20
20.7498082665
 10
32.6221367776
 20
20.8502257639
 10
32.713367402
 20
20.9545252882
 10
32.7919159047
 20
21.0622098048
 10
32.8574079662
 20
21.1727661478
 10
32.9095314872
 20
21.2856674659
 10
32.9480380752
 20
21.400375733
 10
32.9727442289
 20
21.5163443118
 10
32.983156797
 20
21.623056529
  0
LWPOLYLINE
  5
221
330
1F
100
AcDbEntity
  8
0
  6
Continuous
 62
     7
370
    25
100
AcDbPolyline
 90
       13
 70
   128
 43
0.0
 10
27.1210555297
 20
21.623056529
 10
27.130688965
 20
21.5215427763
 10
27.1547757112
 20
21.4055307798
 10
27.1926695565
 20
21.290754529
 10
27.2441899194
 20
21.1777609849
 10
27.3090912819
 20
21.0670886133
 10
27.3870643594
 20
20.9592648184
 10
27.4777375748
 20
20.8548034297
 10
27.5806788289
 20
20.7542022533
 10
27.6953975598
 20
20.6579406995
 10
27.8213470803
 20
20.5664774987
 10
27.9579271838
 20
20.4802485144
 10
28.1044870038
 20
20.3996646672
  0
LWPOLYLINE
  5
222
330
1F
100
AcDbEntity
  8
0
  6
Continuous
 62
     7
370
    25
100
AcDbPolyline
 90
       52
 70
   128
 43
0.0
 10
28.0841896147
 20
21.1009526318
 10
28.2398954913
 20
21.0264057251
 10
28.4040507307
 20
20.9581667165
 10
28.5758899652
 20
20.8965537675
 10
28.7546120011
 20
20.8418541463
 10
28.9393835538
 20
20.7943228877
 10
29.1293431329
 20
20.7541816043
 10
29.3236050592
 20
20.7216174534
 10
29.5212635939
 20
20.6967822641
 10
29.7213971618
 20
20.6797918294
 10
29.9230726477
 20
20.6707253667
 10
30.1253497474
 20
20.669625148
 10
30.3272853517
 20
20.6764963029
 10
30.5279379436
 20
20.6913067951
 10
30.7263719881
 20
20.7139875711
 10
30.921662294
 20
20.7444328827
 10
31.1128983279
 20
20.7825007798
 10
31.299188459
 20
20.8280137723
 10
31.4796641168
 20
20.8807596576
 10
31.6534838404
 20
20.9404925101
 10
31.819837202
 20
21.0069338275
 10
31.9779485856
 20
21.07977383
 10
32.1270808027
 20
21.1586729036
 10
32.2665385303
 20
21.2432631845
 10
32.3956715519
 20
21.3331502738
 10
32.5138777898
 20
21.4279150763
 10
32.620606112
 20
21.5271157549
 10
32.7153589018
 20
21.6302897901
 10
32.7976943779
 20
21.736956137
 10
32.8672286544
 20
21.8466174678
 10
32.9236375303
 20
21.9587624907
 10
32.9666580014
 20
22.072868334
 10
32.9960894864
 20
22.1884029835
 10
33.0117947621
 20
22.3048277634
 10
33.0137006034
 20
22.4215998475
 10
33.0017981243
 20
22.5381747905
 10
32.9761428196
 20
22.6540090662
 10
32.9368543062
 20
22.7685626017
 10
32.8841157653
 20
22.8813012956
 10
32.8181730884
 20
22.9916995081
 10
32.7393337305
 20
23.0992425116
 10
32.6479652773
 20
23.2034288912
 10
32.5444937306
 20
23.3037728818
 10
32.4294015225
 20
23.3998066333
 10
32.3032252661
 20
23.4910823922
 10
32.1665532532
 20
23.5771745886
 10
32.020022712
 20
23.6576818211
 10
31.8643168353
 20
23.7322287277
 10
31.700161596
 20
23.8004677363
 10
31.5283223615
 20
23.8620806853
 10
31.3496003255
 20
23.9167803065
 10
31.2396061633
 20
23.9461243608
  0
LWPOLYLINE
  5
223
330
1F
100
AcDbEntity
  8
0
  6
Continuous
 62
     7
370
    25
100
AcDbPolyline
 90
       31
 70
   128
 43
0.0
 10
28.8646061633
 20
23.9461243608
 10
28.8050238677
 20
23.9306206805
 10
28.6245482099
 20
23.8778747952
 10
28.4507284863
 20
23.8181419428
 10
28.2843751247
 20
23.7517006253
 10
28.1262637411
 20
23.6788606229
 10
27.977131524
 20
23.5999615493
 10
27.8376737964
 20
23.5153712684
 10
27.7085407748
 20
23.4254841791
 10
27.5903345369
 20
23.3307193765
 10
27.4836062147
 20
23.231518698
 10
27.3888534249
 20
23.1283446628
 10
27.3065179487
 20
23.0216783159
 10
27.2369836723
 20
22.9120169851
 10
27.1805747964
 20
22.7998719621
 10
27.1375543253
 20
22.6857661188
 10
27.1081228403
 20
22.5702314693
 10
27.0924175645
 20
22.4538066895
 10
27.0905117233
 20
22.3370346054
 10
27.1024142024
 20
22.2204596624
 10
27.1280695071
 20
22.1046253867
 10
27.1673580205
 20
21.9900718511
 10
27.2200965614
 20
21.8773331572
 10
27.2860392383
 20
21.7669349448
 10
27.3648785961
 20
21.6593919412
 10
27.4562470494
 20
21.5552055616
 10
27.5597185961
 20
21.4548615711
 10
27.6748108041
 20
21.3588278195
 10
27.8009870606
 20
21.2675520607
 10
27.9376590734
 20
21.1814598642
 10
28.0841896147
 20
21.1009526318
  0
ARC
  5
224
330
1F
100
AcDbEntity
  8
0
  6
Continuous
 62
     7
370
    25
100
AcDbCircle
 10
29.2759159855
 20
22.3633777672
 30
0.0
 40
0.4924829790974622
100
AcDbArc
 50
146.6341388471
 51
170.0758463109
  0
SPLINE
  5
225
330
1F
100
AcDbEntity
  8
0
  6
Continuous
 62
     7
370
    25
100
AcDbSpline
210
0.0
220
0.0
230
1.0
 70
     8
 71
     3
 72
    12
 73
     8
 74
     0
 42
0.00000001
 43
0.00000001
 40
0.0
 40
0.0
 40
0.0
 40
0.0
 40
0.114031072054464
 40
0.3297842308468892
 40
0.5453472673578998
 40
0.7607940999645986
 40
1.0
 40
1.0
 40
1.0
 40
1.0
 10
28.84445951594315
 20
22.41055090572871
 30
0.0
 10
28.84094536937901
 20
22.41086591626227
 30
0.0
 10
28.83078226119405
 20
22.41177694432374
 30
0.0
 10
28.81515262870303
 20
22.41622873812258
 30
0.0
 10
28.80074785171206
 20
22.42455239098879
 30
0.0
 10
28.79110420516663
 20
22.43564171551315
 30
0.0
 10
28.79090628104058
 20
22.44390623416428
 30
0.0
 10
28.79080214745617
 20
22.44825443550647
 30
0.0
  0
SPLINE
  5
226
330
1F
100
AcDbEntity
  8
0
  6
Continuous
 62
     7
370
    25
100
AcDbSpline
210
0.0
220
0.0
230
1.0
 70
     8
 71
     3
 72
     9
 73
     5
 74
     0
 42
0.00000001
 43
0.00000001
 40
0.0
 40
0.0
 40
0.0
 40
0.0
 40
0.8248120126421051
 40
1.0
 40
1.0
 40
1.0
 40
1.0
 10
28.86460616334402
 20
22.40700246056282
 30
0.0
 10
28.8592228048137
 20
22.40835984329741
 30
0.0
 10
28.85269603453416
 20
22.41000553069502
 30
0.0
 10
28.84568735279165
 20
22.4104696054129
 30
0.0
 10
28.84445951594315
 20
22.41055090572871
 30
0.0
  0
SPLINE
  5
227
330
1F
100
AcDbEntity
  8
0
  6
Continuous
 62
     7
370
    25
100
AcDbSpline
210
0.0
220
0.0
230
1.0
 70
     8
 71
     3
 72
     9
 73
     5
 74
     0
 42
0.00000001
 43
0.00000001
 40
0.0
 40
0.0
 40
0.0
 40
0.0
 40
0.9146685926386894
 40
1.0
 40
1.0
 40
1.0
 40
1.0
 10
28.85917749660201
 20
22.26640045305232
 30
0.0
 10
28.86593532994758
 20
22.26735721991709
 30
0.0
 10
28.87332361615304
 20
22.2684032456279
 30
0.0
 10
28.87876206055962
 20
22.27126169140795
 30
0.0
 10
28.87922613067469
 20
22.27150560660922
 30
0.0
  0
SPLINE
  5
228
330
1F
100
AcDbEntity
  8
0
  6
Continuous
 62
     7
370
    25
100
AcDbSpline
210
0.0
220
0.0
230
1.0
 70
     8
 71
     3
 72
    12
 73
     8
 74
     0
 42
0.00000001
 43
0.00000001
 40
0.0
 40
0.0
 40
0.0
 40
0.0
 40
0.2156883841321427
 40
0.43138509309939
 40
0.6468917445481086
 40
0.8622822096388075
 40
1.0
 40
1.0
 40
1.0
 40
1.0
 10
28.81356418531389
 20
22.2253190928751
 30
0.0
 10
28.81279159691551
 20
22.22920634572061
 30
0.0
 10
28.81124639029946
 20
22.2369810014463
 30
0.0
 10
28.81757030767369
 20
22.24838271686919
 30
0.0
 10
28.82959263357205
 20
22.25788309964958
 30
0.0
 10
28.84445344504239
 20
22.2639355078681
 30
0.0
 10
28.85504616766531
 20
22.26570882960033
 30
0.0
 10
28.85917749660201
 20
22.26640045305232
 30
0.0
  0
ARC
  5
229
330
1F
100
AcDbEntity
  8
0
  6
Continuous
 62
     7
370
    25
100
AcDbCircle
 10
29.4487568141
 20
22.4927487705
 30
0.0
 40
0.6891939553312421
100
AcDbArc
 50
202.8321332543
 51
237.2370915456
  0
SPLINE
  5
22A
330
1F
100
AcDbEntity
  8
0
  6
Continuous
 62
     7
370
    25
100
AcDbSpline
210
0.0
220
0.0
230
1.0
 70
     8
 71
     3
 72
    12
 73
     8
 74
     0
 42
0.00000001
 43
0.00000001
 40
0.0
 40
0.0
 40
0.0
 40
0.0
 40
0.114031072054653
 40
0.3297842308467205
 40
0.5453472673578674
 40
0.76079409996465
 40
1.0
 40
1.0
 40
1.0
 40
1.0
 10
29.15991359586226
 20
21.90843651328219
 30
0.0
 10
29.15704286965367
 20
21.90722477048607
 30
0.0
 10
29.14874056908232
 20
21.90372034262443
 30
0.0
 10
29.1322358475035
 20
21.9004881568328
 30
0.0
 10
29.11185467615372
 20
21.90049377982652
 30
0.0
 10
29.09145252319425
 20
21.90439854076285
 30
0.0
 10
29.08118954601937
 20
21.91016164451329
 30
0.0
 10
29.07578989807731
 20
21.9131937794168
 30
0.0
  0
SPLINE
  5
22B
330
1F
100
AcDbEntity
  8
0
  6
Continuous
 62
     7
370
    25
100
AcDbSpline
210
0.0
220
0.0
230
1.0
 70
     8
 71
     3
 72
     9
 73
     5
 74
     0
 42
0.00000001
 43
0.00000001
 40
0.0
 40
0.0
 40
0.0
 40
0.0
 40
0.8321870323125475
 40
1.0
 40
1.0
 40
1.0
 40
1.0
 10
29.17933996617434
 20
21.91438658582919
 30
0.0
 10
29.17357695251255
 20
21.91308514899645
 30
0.0
 10
29.16665181016111
 20
21.91152127359079
 30
0.0
 10
29.16088186712632
 20
21.90887978870069
 30
0.0
 10
29.15991359586226
 20
21.90843651328219
 30
0.0
  0
SPLINE
  5
22C
330
1F
100
AcDbEntity
  8
0
  6
Continuous
 62
     7
370
    25
100
AcDbSpline
210
0.0
220
0.0
230
1.0
 70
     8
 71
     3
 72
     9
 73
     5
 74
     0
 42
0.00000001
 43
0.00000001
 40
0.0
 40
0.0
 40
0.0
 40
0.0
 40
0.9146685926385892
 40
1.0
 40
1.0
 40
1.0
 40
1.0
 10
29.34688743878092
 20
21.81251469008338
 30
0.0
 10
29.35049402627472
 20
21.8159498014023
 30
0.0
 10
29.35443708010081
 20
21.81970538167102
 30
0.0
 10
29.35478139484323
 20
21.82394660313035
 30
0.0
 10
29.35481077570478
 20
21.82430851252641
 30
0.0
  0
SPLINE
  5
22D
330
1F
100
AcDbEntity
  8
0
  6
Continuous
 62
     7
370
    25
100
AcDbSpline
210
0.0
220
0.0
230
1.0
 70
     8
 71
     3
 72
    12
 73
     8
 74
     0
 42
0.00000001
 43
0.00000001
 40
0.0
 40
0.0
 40
0.0
 40
0.0
 40
0.2156883841321552
 40
0.4313850930993068
 40
0.6468917445481
 40
0.8622822096388186
 40
1.0
 40
1.0
 40
1.0
 40
1.0
 10
29.36495359448106
 20
21.76484624305033
 30
0.0
 10
29.35964588309059
 20
21.76727957217981
 30
0.0
 10
29.34903025545013
 20
21.77214632435695
 30
0.0
 10
29.33953623460654
 20
21.78279000337104
 30
0.0
 10
29.33640049681624
 20
21.79441535065212
 30
0.0
 10
29.33949521819189
 20
21.80476129306228
 30
0.0
 10
29.34481330214113
 20
21.81033921322218
 30
0.0
 10
29.34688743878092
 20
21.81251469008338
 30
0.0
  0
ARC
  5
22E
330
1F
100
AcDbEntity
  8
0
  6
Continuous
 62
     7
370
    25
100
AcDbCircle
 10
30.0258200461
 20
23.5910646563
 30
0.0
 40
1.942116927411544
100
AcDbArc
 50
250.1059748088
 51
267.2514639433
  0
SPLINE
  5
22F
330
1F
100
AcDbEntity
  8
0
  6
Continuous
 62
     7
370
    25
100
AcDbSpline
210
0.0
220
0.0
230
1.0
 70
     8
 71
     3
 72
    12
 73
     8
 74
     0
 42
0.00000001
 43
0.00000001
 40
0.0
 40
0.0
 40
0.0
 40
0.0
 40
0.1140310720544442
 40
0.3297842308467698
 40
0.5453472673577822
 40
0.7607940999645944
 40
1.0
 40
1.0
 40
1.0
 40
1.0
 10
29.99800198156371
 20
21.68215765632865
 30
0.0
 10
29.99745630818981
 20
21.6801289826987
 30
0.0
 10
29.99587819030787
 20
21.67426194522693
 30
0.0
 10
29.98816662169894
 20
21.66523915044546
 30
0.0
 10
29.97374806974996
 20
21.65692344969325
 30
0.0
 10
29.95453871487853
 20
21.65135629104287
 30
0.0
 10
29.94022259749354
 20
21.65124203187697
 30
0.0
 10
29.93269047572625
 20
21.65118191683828
 30
0.0
  0
SPLINE
  5
230
330
1F
100
AcDbEntity
  8
0
  6
Continuous
 62
     7
370
    25
100
AcDbSpline
210
0.0
220
0.0
230
1.0
 70
     8
 71
     3
 72
     9
 73
     5
 74
     0
 42
0.00000001
 43
0.00000001
 40
0.0
 40
0.0
 40
0.0
 40
0.0
 40
0.8321870323129099
 40
1.0
 40
1.0
 40
1.0
 40
1.0
 10
30.00445038922693
 20
21.69429491612822
 30
0.0
 10
30.0019694239971
 20
21.69102217576748
 30
0.0
 10
29.99898816481678
 20
21.68708947766758
 30
0.0
 10
29.99814369461448
 20
21.68286635164022
 30
0.0
 10
29.99800198156371
 20
21.68215765632865
 30
0.0
  0
SPLINE
  5
231
330
1F
100
AcDbEntity
  8
0
  6
Continuous
 62
     7
370
    25
100
AcDbSpline
210
0.0
220
0.0
230
1.0
 70
     8
 71
     3
 72
     9
 73
     5
 74
     0
 42
0.00000001
 43
0.00000001
 40
0.0
 40
0.0
 40
0.0
 40
0.0
 40
0.9146685926382536
 40
1.0
 40
1.0
 40
1.0
 40
1.0
 10
30.24770494536945
 20
21.69065416570973
 30
0.0
 10
30.24604759697151
 20
21.69455537986044
 30
0.0
 10
30.24423563096406
 20
21.69882054670023
 30
0.0
 10
30.23928412113595
 20
21.701960093829
 30
0.0
 10
30.23886160183375
 20
21.70222799580398
 30
0.0
  0
SPLINE
  5
232
330
1F
100
AcDbEntity
  8
0
  6
Continuous
 62
     7
370
    25
100
AcDbSpline
210
0.0
220
0.0
230
1.0
 70
     8
 71
     3
 72
    12
 73
     8
 74
     0
 42
0.00000001
 43
0.00000001
 40
0.0
 40
0.0
 40
0.0
 40
0.0
 40
0.2156883841321983
 40
0.4313850930994085
 40
0.6468917445480536
 40
0.8622822096388139
 40
1.0
 40
1.0
 40
1.0
 40
1.0
 10
30.31886765906866
 20
21.66432216159556
 30
0.0
 10
30.31213401003348
 20
21.66387615580667
 30
0.0
 10
30.29866645206727
 20
21.66298412701459
 30
0.0
 10
30.27891596165462
 20
21.666634846807
 30
0.0
 10
30.26245903284511
 20
21.6735751878188
 30
0.0
 10
30.251974818316
 20
21.68215415167225
 30
0.0
 10
30.24890300213995
 20
21.68826920027999
 30
0.0
 10
30.24770494536945
 20
21.69065416570973
 30
0.0
  0
ARC
  5
233
330
1F
100
AcDbEntity
  8
0
  6
Continuous
 62
     7
370
    25
100
AcDbCircle
 10
30.1175887999
 20
23.4244621977
 30
0.0
 40
1.77161116669349
100
AcDbArc
 50
276.5236575122
 51
294.7589773872
  0
SPLINE
  5
234
330
1F
100
AcDbEntity
  8
0
  6
Continuous
 62
     7
370
    25
100
AcDbSpline
210
0.0
220
0.0
230
1.0
 70
     8
 71
     3
 72
    12
 73
     8
 74
     0
 42
0.00000001
 43
0.00000001
 40
0.0
 40
0.0
 40
0.0
 40
0.0
 40
0.1140310720544685
 40
0.32978423084676
 40
0.5453472673577828
 40
0.7607940999645656
 40
1.0
 40
1.0
 40
1.0
 40
1.0
 10
30.86778386317099
 20
21.8642654203932
 30
0.0
 10
30.86988289069357
 20
21.86260818542823
 30
0.0
 10
30.87595339555324
 20
21.85781536932634
 30
0.0
 10
30.88155231221814
 20
21.8482873963675
 30
0.0
 10
30.88154257185191
 20
21.83652159658935
 30
0.0
 10
30.87477859462777
 20
21.82474368438577
 30
0.0
 10
30.86479552443627
 20
21.81881899377329
 30
0.0
 10
30.85954314362158
 20
21.81570184336675
 30
0.0
  0
SPLINE
  5
235
330
1F
100
AcDbEntity
  8
0
  6
Continuous
 62
     7
370
    25
100
AcDbSpline
210
0.0
220
0.0
230
1.0
 70
     8
 71
     3
 72
     9
 73
     5
 74
     0
 42
0.00000001
 43
0.00000001
 40
0.0
 40
0.0
 40
0.0
 40
0.0
 40
0.832187032312479
 40
1.0
 40
1.0
 40
1.0
 40
1.0
 10
30.85747691843194
 20
21.87548002526477
 30
0.0
 10
30.85973131741792
 20
21.87215310829324
 30
0.0
 10
30.86244032260357
 20
21.86815530870932
 30
0.0
 10
30.8670160044253
 20
21.86482439149591
 30
0.0
 10
30.86778386317099
 20
21.8642654203932
 30
0.0
  0
SPLINE
  5
236
330
1F
100
AcDbEntity
  8
0
  6
Continuous
 62
     7
370
    25
100
AcDbSpline
210
0.0
220
0.0
230
1.0
 70
     8
 71
     3
 72
     9
 73
     5
 74
     0
 42
0.00000001
 43
0.00000001
 40
0.0
 40
0.0
 40
0.0
 40
0.0
 40
0.9146685926380786
 40
1.0
 40
1.0
 40
1.0
 40
1.0
 10
31.03394333823114
 20
21.97220312239156
 30
0.0
 10
31.02799290615539
 20
21.9742851610343
 30
0.0
 10
31.02148734542702
 20
21.9765614375562
 30
0.0
 10
31.01414053833145
 20
21.97676020622608
 30
0.0
 10
31.01351362494237
 20
21.97677716743642
 30
0.0
  0
SPLINE
  5
237
330
1F
100
AcDbEntity
  8
0
  6
Continuous
 62
     7
370
    25
100
AcDbSpline
210
0.0
220
0.0
230
1.0
 70
     8
 71
     3
 72
    12
 73
     8
 74
     0
 42
0.00000001
 43
0.00000001
 40
0.0
 40
0.0
 40
0.0
 40
0.0
 40
0.2156883841322711
 40
0.431385093099461
 40
0.6468917445481588
 40
0.8622822096389245
 40
1.0
 40
1.0
 40
1.0
 40
1.0
 10
31.11651645737971
 20
21.98263249208188
 30
0.0
 10
31.11230135098036
 20
21.97956841551687
 30
0.0
 10
31.10387097549296
 20
21.97344014412395
 30
0.0
 10
31.08543358493143
 20
21.96795936255267
 30
0.0
 10
31.06529571080436
 20
21.96614913965799
 30
0.0
 10
31.0473740710508
 20
21.96793568428049
 30
0.0
 10
31.03771178300426
 20
21.97100574879622
 30
0.0
 10
31.03394333823114
 20
21.97220312239156
 30
0.0
  0
ARC
  5
238
330
1F
100
AcDbEntity
  8
0
  6
Continuous
 62
     7
370
    25
100
AcDbCircle
 10
30.7516330648
 20
22.4248510507
 30
0.0
 40
0.5733211524326972
100
AcDbArc
 50
309.5267232579
 51
348.4827458721
  0
SPLINE
  5
239
330
1F
100
AcDbEntity
  8
0
  6
Continuous
 62
     7
370
    25
100
AcDbSpline
210
0.0
220
0.0
230
1.0
 70
     8
 71
     3
 72
    12
 73
     8
 74
     0
 42
0.00000001
 43
0.00000001
 40
0.0
 40
0.0
 40
0.0
 40
0.0
 40
0.1140310720544572
 40
0.329784230846922
 40
0.5453472673579586
 40
0.7607940999646435
 40
0.9999999999999999
 40
0.9999999999999999
 40
0.9999999999999999
 40
0.9999999999999999
 10
31.25975281074491
 20
22.34808354710026
 30
0.0
 10
31.26326695730905
 20
22.34776853656669
 30
0.0
 10
31.273430065494
 20
22.34685750850523
 30
0.0
 10
31.28905969798503
 20
22.34240571470638
 30
0.0
 10
31.30346447497599
 20
22.33408206184017
 30
0.0
 10
31.31310812152142
 20
22.32299273731581
 30
0.0
 10
31.31330604564748
 20
22.31472821866468
 30
0.0
 10
31.3134101792319
 20
22.3103800173225
 30
0.0
  0
SPLINE
  5
23A
330
1F
100
AcDbEntity
  8
0
  6
Continuous
 62
     7
370
    25
100
AcDbSpline
210
0.0
220
0.0
230
1.0
 70
     8
 71
     3
 72
     9
 73
     5
 74
     0
 42
0.00000001
 43
0.00000001
 40
0.0
 40
0.0
 40
0.0
 40
0.0
 40
0.8321870323129434
 40
1.0
 40
1.0
 40
1.0
 40
1.0
 10
31.23872818204508
 20
22.35180613360676
 30
0.0
 10
31.24439734889589
 20
22.35037390286547
 30
0.0
 10
31.25120971995035
 20
22.34865285857413
 30
0.0
 10
31.25852518144199
 20
22.34816535630311
 30
0.0
 10
31.25975281074491
 20
22.34808354710026
 30
0.0
  0
LINE
  5
23B
330
1F
100
AcDbEntity
  8
0
  6
Continuous
 62
     7
370
    25
100
AcDbLine
 10
31.2450348301
 20
22.4922339998
 30
0.0
 11
31.2396061633
 21
22.4909566085
 31
0.0
  0
SPLINE
  5
23C
330
1F
100
AcDbEntity
  8
0
  6
Continuous
 62
     7
370
    25
100
AcDbSpline
210
0.0
220
0.0
230
1.0
 70
     8
 71
     3
 72
    12
 73
     8
 74
     0
 42
0.00000001
 43
0.00000001
 40
0.0
 40
0.0
 40
0.0
 40
0.0
 40
0.2156883841322071
 40
0.4313850930994299
 40
0.6468917445479923
 40
0.8622822096388532
 40
1.0
 40
1.0
 40
1.0
 40
1.0
 10
31.29064814137417
 20
22.53331535995387
 30
0.0
 10
31.29142072977255
 20
22.52942810710836
 30
0.0
 10
31.2929659363886
 20
22.52165345138267
 30
0.0
 10
31.28664201901435
 20
22.51025173595978
 30
0.0
 10
31.27461969311601
 20
22.50075135317939
 30
0.0
 10
31.25975888164566
 20
22.49469894496087
 30
0.0
 10
31.24916615902275
 20
22.49292562322864
 30
0.0
 10
31.24503483008604
 20
22.49223399977665
 30
0.0
  0
ARC
  5
23D
330
1F
100
AcDbEntity
  8
0
  6
Continuous
 62
     7
370
    25
100
AcDbCircle
 10
30.7941277481
 20
22.345558896
 30
0.0
 40
0.530834240294959
100
AcDbArc
 50
20.7138367776
 51
32.943801617
  0
LWPOLYLINE
  5
23E
330
1F
100
AcDbEntity
  8
0
  6
Continuous
 62
     7
370
    25
100
AcDbPolyline
 90
       21
 70
   128
 43
0.0
 10
31.7505888432
 20
21.3882499679
 10
31.7914310908
 20
21.3731558514
 10
31.8383541233
 20
21.366086412
 10
31.8867647873
 20
21.3677336558
 10
31.9319243098
 20
21.3779363391
 10
31.969412162
 20
21.3956957521
 10
31.9955587718
 20
21.4192734798
 10
32.0078047268
 20
21.4463615699
 10
32.0049513077
 20
21.4743084513
 10
31.9872778269
 20
21.5003784887
 10
31.956514288
 20
21.5220197652
 10
31.9156720404
 20
21.5371138817
 10
31.8687490079
 20
21.5441833211
 10
31.8203383439
 20
21.5425360773
 10
31.7751788214
 20
21.532333394
 10
31.7376909692
 20
21.514573981
 10
31.7115443594
 20
21.4909962533
 10
31.6992984044
 20
21.4639081633
 10
31.7021518235
 20
21.4359612818
 10
31.7198253043
 20
21.4098912444
 10
31.7505888432
 20
21.3882499679
  0
LWPOLYLINE
  5
23F
330
1F
100
AcDbEntity
  8
0
  6
Continuous
 62
     7
370
    25
100
AcDbPolyline
 90
       21
 70
   128
 43
0.0
 10
32.2261015157
 20
21.8565716749
 10
32.2669437633
 20
21.8414775583
 10
32.3138667958
 20
21.834408119
 10
32.3622774598
 20
21.8360553628
 10
32.4074369823
 20
21.846258046
 10
32.4449248345
 20
21.864017459
 10
32.4710714443
 20
21.8875951867
 10
32.4833173993
 20
21.9146832768
 10
32.4804639802
 20
21.9426301583
 10
32.4627904994
 20
21.9687001957
 10
32.4320269605
 20
21.9903414721
 10
32.3911847129
 20
22.0054355886
 10
32.3442616804
 20
22.012505028
 10
32.2958510164
 20
22.0108577842
 10
32.2506914939
 20
22.0006551009
 10
32.2132036417
 20
21.9828956879
 10
32.1870570319
 20
21.9593179602
 10
32.1748110769
 20
21.9322298702
 10
32.177664496
 20
21.9042829887
 10
32.1953379768
 20
21.8782129513
 10
32.2261015157
 20
21.8565716749
  0
LWPOLYLINE
  5
240
330
1F
100
AcDbEntity
  8
0
  6
Continuous
 62
     7
370
    25
100
AcDbPolyline
 90
       21
 70
   128
 43
0.0
 10
32.354967962
 20
22.3942940338
 10
32.3958102096
 20
22.3791999173
 10
32.4427332421
 20
22.3721304779
 10
32.4911439061
 20
22.3737777217
 10
32.5363034286
 20
22.383980405
 10
32.5737912808
 20
22.401739818
 10
32.5999378906
 20
22.4253175457
 10
32.6121838456
 20
22.4524056357
 10
32.6093304264
 20
22.4803525172
 10
32.5916569457
 20
22.5064225546
 10
32.5608934067
 20
22.528063831
 10
32.5200511591
 20
22.5431579476
 10
32.4731281267
 20
22.5502273869
 10
32.4247174626
 20
22.5485801431
 10
32.3795579402
 20
22.5383774599
 10
32.342070088
 20
22.5206180469
 10
32.3159234782
 20
22.4970403192
 10
32.3036775231
 20
22.4699522291
 10
32.3065309423
 20
22.4420053476
 10
32.324204423
 20
22.4159353102
 10
32.354967962
 20
22.3942940338
  0
LWPOLYLINE
  5
241
330
1F
100
AcDbEntity
  8
0
  6
Continuous
 62
     7
370
    25
100
AcDbPolyline
 90
       21
 70
   128
 43
0.0
 10
32.1175694338
 20
22.9195536901
 10
32.1584116814
 20
22.9044595735
 10
32.2053347139
 20
22.8973901342
 10
32.2537453779
 20
22.899037378
 10
32.2989049004
 20
22.9092400613
 10
32.3363927526
 20
22.9269994743
 10
32.3625393624
 20
22.9505772019
 10
32.3747853174
 20
22.977665292
 10
32.3719318982
 20
23.0056121735
 10
32.3542584175
 20
23.0316822109
 10
32.3234948785
 20
23.0533234873
 10
32.2826526309
 20
23.0684176039
 10
32.2357295985
 20
23.0754870432
 10
32.1873189344
 20
23.0738397994
 10
32.142159412
 20
23.0636371161
 10
32.1046715597
 20
23.0458777031
 10
32.07852495
 20
23.0222999755
 10
32.0662789949
 20
22.9952118854
 10
32.0691324141
 20
22.9672650039
 10
32.0868058948
 20
22.9411949665
 10
32.1175694338
 20
22.9195536901
  0
LWPOLYLINE
  5
242
330
1F
100
AcDbEntity
  8
0
  6
Continuous
 62
     7
370
    25
100
AcDbPolyline
 90
       21
 70
   128
 43
0.0
 10
31.550047705
 20
23.3523846225
 10
31.5908899526
 20
23.337290506
 10
31.6378129851
 20
23.3302210666
 10
31.6862236491
 20
23.3318683104
 10
31.7313831716
 20
23.3420709937
 10
31.7688710238
 20
23.3598304067
 10
31.7950176336
 20
23.3834081344
 10
31.8072635886
 20
23.4104962244
 10
31.8044101695
 20
23.4384431059
 10
31.7867366887
 20
23.4645131433
 10
31.7559731498
 20
23.4861544198
 10
31.7151309022
 20
23.5012485363
 10
31.6682078697
 20
23.5083179757
 10
31.6197972057
 20
23.5066707319
 10
31.5746376832
 20
23.4964680486
 10
31.537149831
 20
23.4787086356
 10
31.5110032212
 20
23.4551309079
 10
31.4987572662
 20
23.4280428178
 10
31.5016106853
 20
23.4000959364
 10
31.5192841661
 20
23.374025899
 10
31.550047705
 20
23.3523846225
  0
ARC
  5
243
330
1F
100
AcDbEntity
  8
0
  6
Continuous
 62
     7
370
    25
100
AcDbCircle
 10
28.9054031918
 20
23.6311229066
 30
0.0
 40
0.0593566599253882
100
AcDbArc
 50
133.4183482162
 51
226.5816517838
  0
LWPOLYLINE
  5
244
330
1F
100
AcDbEntity
  8
0
  6
Continuous
 62
     7
370
    25
100
AcDbPolyline
 90
       21
 70
   128
 43
0.0
 10
28.1476980387
 20
23.2366146876
 10
28.1885402863
 20
23.2215205711
 10
28.2354633188
 20
23.2144511317
 10
28.2838739828
 20
23.2160983756
 10
28.3290335053
 20
23.2263010588
 10
28.3665213575
 20
23.2440604718
 10
28.3926679673
 20
23.2676381995
 10
28.4049139223
 20
23.2947262896
 10
28.4020605031
 20
23.3226731711
 10
28.3843870224
 20
23.3487432085
 10
28.3536234834
 20
23.3703844849
 10
28.3127812358
 20
23.3854786014
 10
28.2658582034
 20
23.3925480408
 10
28.2174475393
 20
23.390900797
 10
28.1722880169
 20
23.3806981137
 10
28.1348001647
 20
23.3629387007
 10
28.1086535549
 20
23.339360973
 10
28.0964075998
 20
23.312272883
 10
28.099261019
 20
23.2843260015
 10
28.1169344997
 20
23.2582559641
 10
28.1476980387
 20
23.2366146876
  0
LWPOLYLINE
  5
245
330
1F
100
AcDbEntity
  8
0
  6
Continuous
 62
     7
370
    25
100
AcDbPolyline
 90
       21
 70
   128
 43
0.0
 10
27.6721853662
 20
22.7682929807
 10
27.7130276138
 20
22.7531988642
 10
27.7599506463
 20
22.7461294248
 10
27.8083613103
 20
22.7477766686
 10
27.8535208328
 20
22.7579793519
 10
27.891008685
 20
22.7757387649
 10
27.9171552948
 20
22.7993164926
 10
27.9294012498
 20
22.8264045827
 10
27.9265478307
 20
22.8543514641
 10
27.9088743499
 20
22.8804215015
 10
27.878110811
 20
22.902062778
 10
27.8372685634
 20
22.9171568945
 10
27.7903455309
 20
22.9242263339
 10
27.7419348669
 20
22.9225790901
 10
27.6967753444
 20
22.9123764068
 10
27.6592874922
 20
22.8946169938
 10
27.6331408824
 20
22.8710392661
 10
27.6208949274
 20
22.843951176
 10
27.6237483465
 20
22.8160042946
 10
27.6414218273
 20
22.7899342572
 10
27.6721853662
 20
22.7682929807
  0
LWPOLYLINE
  5
246
330
1F
100
AcDbEntity
  8
0
  6
Continuous
 62
     7
370
    25
100
AcDbPolyline
 90
       21
 70
   128
 43
0.0
 10
27.5433189199
 20
22.2305706218
 10
27.5841611675
 20
22.2154765052
 10
27.6310842
 20
22.2084070659
 10
27.6794948641
 20
22.2100543097
 10
27.7246543865
 20
22.220256993
 10
27.7621422387
 20
22.238016406
 10
27.7882888485
 20
22.2615941336
 10
27.8005348035
 20
22.2886822237
 10
27.7976813844
 20
22.3166291052
 10
27.7800079036
 20
22.3426991426
 10
27.7492443647
 20
22.364340419
 10
27.7084021171
 20
22.3794345356
 10
27.6614790846
 20
22.3865039749
 10
27.6130684206
 20
22.3848567311
 10
27.5679088981
 20
22.3746540479
 10
27.5304210459
 20
22.3568946348
 10
27.5042744361
 20
22.3333169072
 10
27.4920284811
 20
22.3062288171
 10
27.4948819002
 20
22.2782819356
 10
27.512555381
 20
22.2522118982
 10
27.5433189199
 20
22.2305706218
  0
LWPOLYLINE
  5
247
330
1F
100
AcDbEntity
  8
0
  6
Continuous
 62
     7
370
    25
100
AcDbPolyline
 90
       21
 70
   128
 43
0.0
 10
27.7807174482
 20
21.7053109655
 10
27.8215596957
 20
21.690216849
 10
27.8684827282
 20
21.6831474096
 10
27.9168933923
 20
21.6847946534
 10
27.9620529147
 20
21.6949973367
 10
27.9995407669
 20
21.7127567497
 10
28.0256873767
 20
21.7363344774
 10
28.0379333318
 20
21.7634225674
 10
28.0350799126
 20
21.7913694489
 10
28.0174064318
 20
21.8174394863
 10
27.9866428929
 20
21.8390807628
 10
27.9458006453
 20
21.8541748793
 10
27.8988776128
 20
21.8612443187
 10
27.8504669488
 20
21.8595970748
 10
27.8053074263
 20
21.8493943916
 10
27.7678195741
 20
21.8316349786
 10
27.7416729643
 20
21.8080572509
 10
27.7294270093
 20
21.7809691608
 10
27.7322804284
 20
21.7530222793
 10
27.7499539092
 20
21.7269522419
 10
27.7807174482
 20
21.7053109655
  0
LWPOLYLINE
  5
248
330
1F
100
AcDbEntity
  8
0
  6
Continuous
 62
     7
370
    25
100
AcDbPolyline
 90
       21
 70
   128
 43
0.0
 10
28.3482391769
 20
21.2724800331
 10
28.3890814245
 20
21.2573859165
 10
28.436004457
 20
21.2503164772
 10
28.484415121
 20
21.251963721
 10
28.5295746435
 20
21.2621664042
 10
28.5670624957
 20
21.2799258173
 10
28.5932091055
 20
21.3035035449
 10
28.6054550605
 20
21.330591635
 10
28.6026016414
 20
21.3585385165
 10
28.5849281606
 20
21.3846085539
 10
28.5541646217
 20
21.4062498303
 10
28.5133223741
 20
21.4213439469
 10
28.4663993416
 20
21.4284133862
 10
28.4179886776
 20
21.4267661424
 10
28.3728291551
 20
21.4165634591
 10
28.3353413029
 20
21.3988040461
 10
28.3091946931
 20
21.3752263184
 10
28.2969487381
 20
21.3481382284
 10
28.2998021572
 20
21.3201913469
 10
28.317475638
 20
21.2941213095
 10
28.3482391769
 20
21.2724800331
  0
LWPOLYLINE
  5
249
330
1F
100
AcDbEntity
  8
0
  6
Continuous
 62
     7
370
    25
100
AcDbPolyline
 90
       21
 70
   128
 43
0.0
 10
29.1594840677
 20
20.9979724103
 10
29.2003263153
 20
20.9828782938
 10
29.2472493478
 20
20.9758088544
 10
29.2956600118
 20
20.9774560982
 10
29.3408195342
 20
20.9876587815
 10
29.3783073865
 20
21.0054181945
 10
29.4044539963
 20
21.0289959222
 10
29.4166999513
 20
21.0560840122
 10
29.4138465321
 20
21.0840308937
 10
29.3961730514
 20
21.1101009311
 10
29.3654095124
 20
21.1317422076
 10
29.3245672648
 20
21.1468363241
 10
29.2776442323
 20
21.1539057635
 10
29.2292335683
 20
21.1522585196
 10
29.1840740459
 20
21.1420558364
 10
29.1465861936
 20
21.1242964234
 10
29.1204395839
 20
21.1007186957
 10
29.1081936288
 20
21.0736306056
 10
29.111047048
 20
21.0456837241
 10
29.1287205287
 20
21.0196136867
 10
29.1594840677
 20
20.9979724103
  0
LWPOLYLINE
  5
24A
330
1F
100
AcDbEntity
  8
0
  6
Continuous
 62
     7
370
    25
100
AcDbPolyline
 90
       21
 70
   128
 43
0.0
 10
30.0909474397
 20
20.9235793944
 10
30.1317896873
 20
20.9084852778
 10
30.1787127198
 20
20.9014158385
 10
30.2271233838
 20
20.9030630823
 10
30.2722829063
 20
20.9132657656
 10
30.3097707585
 20
20.9310251786
 10
30.3359173683
 20
20.9546029062
 10
30.3481633233
 20
20.9816909963
 10
30.3453099042
 20
21.0096378778
 10
30.3276364234
 20
21.0357079152
 10
30.2968728845
 20
21.0573491916
 10
30.2560306369
 20
21.0724433082
 10
30.2091076044
 20
21.0795127475
 10
30.1606969404
 20
21.0778655037
 10
30.1155374179
 20
21.0676628204
 10
30.0780495657
 20
21.0499034074
 10
30.0519029559
 20
21.0263256798
 10
30.0396570009
 20
20.9992375897
 10
30.04251042
 20
20.9712907082
 10
30.0601839008
 20
20.9452206708
 10
30.0909474397
 20
20.9235793944
  0
LWPOLYLINE
  5
24B
330
1F
100
AcDbEntity
  8
0
  6
Continuous
 62
     7
370
    25
100
AcDbPolyline
 90
       21
 70
   128
 43
0.0
 10
31.0008224384
 20
21.0606266476
 10
31.041664686
 20
21.045532531
 10
31.0885877185
 20
21.0384630917
 10
31.1369983825
 20
21.0401103355
 10
31.182157905
 20
21.0503130188
 10
31.2196457572
 20
21.0680724318
 10
31.245792367
 20
21.0916501594
 10
31.258038322
 20
21.1187382495
 10
31.2551849029
 20
21.146685131
 10
31.2375114221
 20
21.1727551684
 10
31.2067478832
 20
21.1943964448
 10
31.1659056356
 20
21.2094905614
 10
31.1189826031
 20
21.2165600007
 10
31.0705719391
 20
21.2149127569
 10
31.0254124166
 20
21.2047100736
 10
30.9879245644
 20
21.1869506606
 10
30.9617779546
 20
21.163372933
 10
30.9495319996
 20
21.1362848429
 10
30.9523854187
 20
21.1083379614
 10
30.9700588995
 20
21.082267924
 10
31.0008224384
 20
21.0606266476
  0
LINE
  5
24C
330
1F
100
AcDbEntity
  8
0
  6
Continuous
 62
     7
370
    25
100
AcDbLine
 10
29.4648867505
 20
27.5537660005
 30
0.0
 11
29.5083433085
 21
27.5286790636
 31
0.0
  0
LINE
  5
24D
330
1F
100
AcDbEntity
  8
0
  6
Continuous
 62
     7
370
    25
100
AcDbLine
 10
29.4648867505
 20
27.5872206867
 30
0.0
 11
29.4648867505
 21
27.5537660005
 31
0.0
  0
LINE
  5
24E
330
1F
100
AcDbEntity
  8
0
  6
Continuous
 62
     7
370
    25
100
AcDbLine
 10
29.5050004964
 20
27.5640635141
 30
0.0
 11
29.4648867505
 21
27.5872206867
 31
0.0
  0
LINE
  5
24F
330
1F
100
AcDbEntity
  8
0
  6
Continuous
 62
     7
370
    25
100
AcDbLine
 10
29.5050004964
 20
27.5756439824
 30
0.0
 11
29.5050004964
 21
27.5640635141
 31
0.0
  0
LINE
  5
250
330
1F
100
AcDbEntity
  8
0
  6
Continuous
 62
     7
370
    25
100
AcDbLine
 10
29.4648867505
 20
27.598801155
 30
0.0
 11
29.5050004964
 21
27.5756439824
 31
0.0
  0
LINE
  5
251
330
1F
100
AcDbEntity
  8
0
  6
Continuous
 62
     7
370
    25
100
AcDbLine
 10
29.4648867505
 20
27.6296824037
 30
0.0
 11
29.4648867505
 21
27.598801155
 31
0.0
  0
LINE
  5
252
330
1F
100
AcDbEntity
  8
0
  6
Continuous
 62
     7
370
    25
100
AcDbLine
 10
29.5072290378
 20
27.6052387216
 30
0.0
 11
29.4648867505
 21
27.6296824037
 31
0.0
  0
LINE
  5
253
330
1F
100
AcDbEntity
  8
0
  6
Continuous
 62
     7
370
    25
100
AcDbLine
 10
29.5072290378
 20
27.6168191898
 30
0.0
 11
29.5072290378
 21
27.6052387216
 31
0.0
  0
LINE
  5
254
330
1F
100
AcDbEntity
  8
0
  6
Continuous
 62
     7
370
    25
100
AcDbLine
 10
29.4559725848
 20
27.6464089103
 30
0.0
 11
29.5072290378
 21
27.6168191898
 31
0.0
  0
LINE
  5
255
330
1F
100
AcDbEntity
  8
0
  6
Continuous
 62
     7
370
    25
100
AcDbLine
 10
29.4559725848
 20
27.5473315706
 30
0.0
 11
29.4559725848
 21
27.6464089103
 31
0.0
  0
LINE
  5
256
330
1F
100
AcDbEntity
  8
0
  6
Continuous
 62
     7
370
    25
100
AcDbLine
 10
29.5083433085
 20
27.5170985953
 30
0.0
 11
29.4559725848
 21
27.5473315706
 31
0.0
  0
LINE
  5
257
330
1F
100
AcDbEntity
  8
0
  6
Continuous
 62
     7
370
    25
100
AcDbLine
 10
29.5083433085
 20
27.5286790636
 30
0.0
 11
29.5083433085
 21
27.5170985953
 31
0.0
  0
LINE
  5
258
330
1F
100
AcDbEntity
  8
0
  6
Continuous
 62
     7
370
    25
100
AcDbLine
 10
29.3578645302
 20
27.633562675
 30
0.0
 11
29.3278836837
 21
27.6508702493
 31
0.0
  0
LINE
  5
259
330
1F
100
AcDbEntity
  8
0
  6
Continuous
 62
     7
370
    25
100
AcDbLine
 10
29.3653684471
 20
27.599636226
 30
0.0
 11
29.3578645302
 21
27.633562675
 31
0.0
  0
LINE
  5
25A
330
1F
100
AcDbEntity
  8
0
  6
Continuous
 62
     7
370
    25
100
AcDbLine
 10
29.3746308224
 20
27.5942891705
 30
0.0
 11
29.3653684471
 21
27.599636226
 31
0.0
  0
LINE
  5
25B
330
1F
100
AcDbEntity
  8
0
  6
Continuous
 62
     7
370
    25
100
AcDbLine
 10
29.3472093164
 20
27.7091966087
 30
0.0
 11
29.3746308224
 21
27.5942891705
 31
0.0
  0
LINE
  5
25C
330
1F
100
AcDbEntity
  8
0
  6
Continuous
 62
     7
370
    25
100
AcDbLine
 10
29.3385214869
 20
27.7142119859
 30
0.0
 11
29.3472093164
 21
27.7091966087
 31
0.0
  0
LINE
  5
25D
330
1F
100
AcDbEntity
  8
0
  6
Continuous
 62
     7
370
    25
100
AcDbLine
 10
29.3111173915
 20
27.6309546937
 30
0.0
 11
29.3385214869
 21
27.7142119859
 31
0.0
  0
LINE
  5
25E
330
1F
100
AcDbEntity
  8
0
  6
Continuous
 62
     7
370
    25
100
AcDbLine
 10
29.3203971773
 20
27.6255975874
 30
0.0
 11
29.3111173915
 21
27.6309546937
 31
0.0
  0
LINE
  5
25F
330
1F
100
AcDbEntity
  8
0
  6
Continuous
 62
     7
370
    25
100
AcDbLine
 10
29.3278836837
 20
27.6508702493
 30
0.0
 11
29.3203971773
 21
27.6255975874
 31
0.0
  0
SPLINE
  5
260
330
1F
100
AcDbEntity
  8
0
  6
Continuous
 62
     7
370
    25
100
AcDbSpline
210
0.0
220
0.0
230
1.0
 70
     8
 71
     3
 72
     9
 73
     5
 74
     0
 42
0.00000001
 43
0.00000001
 40
0.0
 40
0.0
 40
0.0
 40
0.0
 40
0.5592944490097158
 40
1.0
 40
1.0
 40
1.0
 40
1.0
 10
29.20419963400293
 20
27.70297075092239
 30
0.0
 10
29.20858592692169
 20
27.70115162973716
 30
0.0
 10
29.21642847377073
 20
27.69789910114789
 30
0.0
 10
29.22259911177908
 20
27.69999034804525
 30
0.0
 10
29.22531854620252
 20
27.7009119721614
 30
0.0
  0
SPLINE
  5
261
330
1F
100
AcDbEntity
  8
0
  6
Continuous
 62
     7
370
    25
100
AcDbSpline
210
0.0
220
0.0
230
1.0
 70
     8
 71
     3
 72
    11
 73
     7
 74
     0
 42
0.00000001
 43
0.00000001
 40
0.0
 40
0.0
 40
0.0
 40
0.0
 40
0.2811479210678386
 40
0.5603076782956925
 40
0.7800098757594317
 40
1.0
 40
1.0
 40
1.0
 40
1.0
 10
29.1774049053342
 20
27.75764372885228
 30
0.0
 10
29.17760363107473
 20
27.75224320212203
 30
0.0
 10
29.1779996772481
 20
27.74148033899182
 30
0.0
 10
29.1836048522941
 20
27.72452692143773
 30
0.0
 10
29.19339463712541
 20
27.71042612388796
 30
0.0
 10
29.20059639638441
 20
27.7054569599083
 30
0.0
 10
29.20419963400293
 20
27.70297075092239
 30
0.0
  0
SPLINE
  5
262
330
1F
100
AcDbEntity
  8
0
  6
Continuous
 62
     7
370
    25
100
AcDbSpline
210
0.0
220
0.0
230
1.0
 70
     8
 71
     3
 72
    11
 73
     7
 74
     0
 42
0.00000001
 43
0.00000001
 40
0.0
 40
0.0
 40
0.0
 40
0.0
 40
0.1871408907891723
 40
0.3737682473159177
 40
0.5609148849662406
 40
1.0
 40
1.0
 40
1.0
 40
1.0
 10
29.20331169952463
 20
27.78197318514598
 30
0.0
 10
29.20029358809176
 20
27.78344954804735
 30
0.0
 10
29.19426564724084
 20
27.7863982225552
 30
0.0
 10
29.18638252802826
 20
27.78519195003258
 30
0.0
 10
29.17882606183568
 20
27.77690113416158
 30
0.0
 10
29.17799065468714
 20
27.76558093540716
 30
0.0
 10
29.1774049053342
 20
27.75764372885228
 30
0.0
  0
SPLINE
  5
263
330
1F
100
AcDbEntity
  8
0
  6
Continuous
 62
     7
370
    25
100
AcDbSpline
210
0.0
220
0.0
230
1.0
 70
     8
 71
     3
 72
    11
 73
     7
 74
     0
 42
0.00000001
 43
0.00000001
 40
0.0
 40
0.0
 40
0.0
 40
0.0
 40
0.2808041604286786
 40
0.5593155177302198
 40
0.779566927714578
 40
1.0
 40
1.0
 40
1.0
 40
1.0
 10
29.22420427548465
 20
27.74932465860714
 30
0.0
 10
29.22346515373724
 20
27.75290941721316
 30
0.0
 10
29.22199294526932
 20
27.76004966439683
 30
0.0
 10
29.21665965349353
 20
27.77021897767047
 30
0.0
 10
29.2099448760302
 20
27.77760924488191
 30
0.0
 10
29.20552336591597
 20
27.78051813868253
 30
0.0
 10
29.20331169952463
 20
27.78197318514598
 30
0.0
  0
LINE
  5
264
330
1F
100
AcDbEntity
  8
0
  6
Continuous
 62
     7
370
    25
100
AcDbLine
 10
29.2331184412
 20
27.7467520577
 30
0.0
 11
29.2242042755
 21
27.7493246586
 31
0.0
  0
SPLINE
  5
265
330
1F
100
AcDbEntity
  8
0
  6
Continuous
 62
     7
370
    25
100
AcDbSpline
210
0.0
220
0.0
230
1.0
 70
     8
 71
     3
 72
    10
 73
     6
 74
     0
 42
0.00000001
 43
0.00000001
 40
0.0
 40
0.0
 40
0.0
 40
0.0
 40
0.2810174711329134
 40
0.5612809230786844
 40
0.9999999999999999
 40
0.9999999999999999
 40
0.9999999999999999
 40
0.9999999999999999
 10
29.20414740256303
 20
27.79307121233032
 30
0.0
 10
29.20812632199868
 20
27.79039466357231
 30
0.0
 10
29.21607348473092
 20
27.7850487477063
 30
0.0
 10
29.2284226589193
 20
27.76810239308032
 30
0.0
 10
29.23133894185623
 20
27.75484291578579
 30
0.0
 10
29.23311844122759
 20
27.74675205765566
 30
0.0
  0
SPLINE
  5
266
330
1F
100
AcDbEntity
  8
0
  6
Continuous
 62
     7
370
    25
100
AcDbSpline
210
0.0
220
0.0
230
1.0
 70
     8
 71
     3
 72
    11
 73
     7
 74
     0
 42
0.00000001
 43
0.00000001
 40
0.0
 40
0.0
 40
0.0
 40
0.0
 40
0.2808704908630506
 40
0.5607643858929071
 40
0.7800038250546892
 40
1.0
 40
1.0
 40
1.0
 40
1.0
 10
29.16849073959126
 20
27.76236756262648
 30
0.0
 10
29.1688822427444
 20
27.76906398744151
 30
0.0
 10
29.16966388778148
 20
27.78243355338465
 30
0.0
 10
29.17726783535771
 20
27.79578577621499
 30
0.0
 10
29.18994031665178
 20
27.79981053970469
 30
0.0
 10
29.19940627112869
 20
27.79532023349206
 30
0.0
 10
29.20414740256303
 20
27.79307121233032
 30
0.0
  0
SPLINE
  5
267
330
1F
100
AcDbEntity
  8
0
  6
Continuous
 62
     7
370
    25
100
AcDbSpline
210
0.0
220
0.0
230
1.0
 70
     8
 71
     3
 72
    11
 73
     7
 74
     0
 42
0.00000001
 43
0.00000001
 40
0.0
 40
0.0
 40
0.0
 40
0.0
 40
0.2790871395362525
 40
0.5580210855610602
 40
0.7787760248986322
 40
1.0
 40
1.0
 40
1.0
 40
1.0
 10
29.20473935888189
 20
27.69107870610249
 30
0.0
 10
29.19873914643246
 20
27.69544115816739
 30
0.0
 10
29.18674201510567
 20
27.7041636677069
 30
0.0
 10
29.17474837309636
 20
27.72593079343093
 30
0.0
 10
29.16918536983851
 20
27.74572655596671
 30
0.0
 10
29.16872244676103
 20
27.75681663741035
 30
0.0
 10
29.16849073959126
 20
27.76236756262648
 30
0.0
  0
SPLINE
  5
268
330
1F
100
AcDbEntity
  8
0
  6
Continuous
 62
     7
370
    25
100
AcDbSpline
210
0.0
220
0.0
230
1.0
 70
     8
 71
     3
 72
     9
 73
     5
 74
     0
 42
0.00000001
 43
0.00000001
 40
0.0
 40
0.0
 40
0.0
 40
0.0
 40
0.5602350202430281
 40
1.0
 40
1.0
 40
1.0
 40
1.0
 10
29.23423271194546
 20
27.68923181542771
 30
0.0
 10
29.2293898215876
 20
27.68735299625983
 30
0.0
 10
29.22074543096068
 20
27.68399936947822
 30
0.0
 10
29.20962828871605
 20
27.68891637796488
 30
0.0
 10
29.20473935888189
 20
27.69107870610249
 30
0.0
  0
LINE
  5
269
330
1F
100
AcDbEntity
  8
0
  6
Continuous
 62
     7
370
    25
100
AcDbLine
 10
29.2342327119
 20
27.7255213037
 30
0.0
 11
29.2342327119
 21
27.6892318154
 31
0.0
  0
LINE
  5
26A
330
1F
100
AcDbEntity
  8
0
  6
Continuous
 62
     7
370
    25
100
AcDbLine
 10
29.2041474026
 20
27.7428891831
 30
0.0
 11
29.2342327119
 21
27.7255213037
 31
0.0
  0
LINE
  5
26B
330
1F
100
AcDbEntity
  8
0
  6
Continuous
 62
     7
370
    25
100
AcDbLine
 10
29.2041474026
 20
27.7313087148
 30
0.0
 11
29.2041474026
 21
27.7428891831
 31
0.0
  0
LINE
  5
26C
330
1F
100
AcDbEntity
  8
0
  6
Continuous
 62
     7
370
    25
100
AcDbLine
 10
29.2253185462
 20
27.7190868738
 30
0.0
 11
29.2041474026
 21
27.7313087148
 31
0.0
  0
LINE
  5
26D
330
1F
100
AcDbEntity
  8
0
  6
Continuous
 62
     7
370
    25
100
AcDbLine
 10
29.2253185462
 20
27.7009119722
 30
0.0
 11
29.2253185462
 21
27.7190868738
 31
0.0
  0
LINE
  5
26E
330
1F
100
AcDbEntity
  8
0
  6
Continuous
 62
     7
370
    25
100
AcDbLine
 10
29.5588991835
 20
27.6410147122
 30
0.0
 11
29.0303368645
 21
27.946147244
 31
0.0
  0
LINE
  5
26F
330
1F
100
AcDbEntity
  8
0
  6
Continuous
 62
     7
370
    25
100
AcDbLine
 10
29.5588991835
 20
26.4162034944
 30
0.0
 11
29.5588991835
 21
27.6410147122
 31
0.0
  0
LINE
  5
270
330
1F
100
AcDbEntity
  8
0
  6
Continuous
 62
     7
370
    25
100
AcDbLine
 10
28.8517924023
 20
26.8244075503
 30
0.0
 11
29.5588991835
 21
26.4162034944
 31
0.0
  0
LINE
  5
271
330
1F
100
AcDbEntity
  8
0
  6
Continuous
 62
     7
370
    25
100
AcDbLine
 10
28.8517924023
 20
28.0492187681
 30
0.0
 11
28.8517924023
 21
26.8244075503
 31
0.0
  0
LINE
  5
272
330
1F
100
AcDbEntity
  8
0
  6
Continuous
 62
     7
370
    25
100
AcDbLine
 10
29.0285690976
 20
27.9471677541
 30
0.0
 11
28.8517924023
 21
28.0492187681
 31
0.0
  0
LINE
  5
273
330
1F
100
AcDbEntity
  8
0
  6
Continuous
 62
     7
370
    25
100
AcDbLine
 10
29.0285690976
 20
27.9471677541
 30
0.0
 11
28.9852588072
 21
27.8088620902
 31
0.0
  0
LINE
  5
274
330
1F
100
AcDbEntity
  8
0
  6
Continuous
 62
     7
370
    25
100
AcDbLine
 10
28.9852588072
 20
27.8088620902
 30
0.0
 11
29.0285690976
 21
27.8158679916
 31
0.0
  0
LINE
  5
275
330
1F
100
AcDbEntity
  8
0
  6
Continuous
 62
     7
370
    25
100
AcDbLine
 10
29.0285690976
 20
27.8158679916
 30
0.0
 11
29.0285690976
 21
26.8244241378
 31
0.0
  0
LINE
  5
276
330
1F
100
AcDbEntity
  8
0
  6
Continuous
 62
     7
370
    25
100
AcDbLine
 10
29.0285690976
 20
26.8244241378
 30
0.0
 11
29.0303368645
 21
26.8234036276
 31
0.0
  0
LINE
  5
277
330
1F
100
AcDbEntity
  8
0
  6
Continuous
 62
     7
370
    25
100
AcDbLine
 10
29.0303368645
 20
26.8234036276
 30
0.0
 11
29.0303368645
 21
27.8148474814
 31
0.0
  0
LINE
  5
278
330
1F
100
AcDbEntity
  8
0
  6
Continuous
 62
     7
370
    25
100
AcDbLine
 10
29.0303368645
 20
27.8148474814
 30
0.0
 11
29.0736471549
 21
27.7578365832
 31
0.0
  0
LINE
  5
279
330
1F
100
AcDbEntity
  8
0
  6
Continuous
 62
     7
370
    25
100
AcDbLine
 10
29.0736471549
 20
27.7578365832
 30
0.0
 11
29.0303368645
 21
27.946147244
 31
0.0
  0
LINE
  5
27A
330
1F
100
AcDbEntity
  8
0
  6
Continuous
 62
     7
370
    25
100
AcDbLine
 10
29.2678871697
 20
27.6996594053
 30
0.0
 11
29.2565181263
 21
27.7062226143
 31
0.0
  0
SPLINE
  5
27B
330
1F
100
AcDbEntity
  8
0
  6
Continuous
 62
     7
370
    25
100
AcDbSpline
210
0.0
220
0.0
230
1.0
 70
     8
 71
     3
 72
    10
 73
     6
 74
     0
 42
0.00000001
 43
0.00000001
 40
0.0
 40
0.0
 40
0.0
 40
0.0
 40
0.5609767169391883
 40
0.7797398293731671
 40
1.0
 40
1.0
 40
1.0
 40
1.0
 10
29.28996365831881
 20
27.66435713251703
 30
0.0
 10
29.28735582187196
 20
27.67203767079411
 30
0.0
 10
29.28373101199181
 20
27.68271337519471
 30
0.0
 10
29.27496378438845
 20
27.69543287804418
 30
0.0
 10
29.27025139764969
 20
27.69824736375969
 30
0.0
 10
29.26788716972105
 20
27.69965940527969
 30
0.0
  0
LINE
  5
27C
330
1F
100
AcDbEntity
  8
0
  6
Continuous
 62
     7
370
    25
100
AcDbLine
 10
29.2998702214
 20
27.6374475468
 30
0.0
 11
29.2899636583
 21
27.6643571325
 31
0.0
  0
LINE
  5
27D
330
1F
100
AcDbEntity
  8
0
  6
Continuous
 62
     7
370
    25
100
AcDbLine
 10
29.3100031208
 20
27.6315979485
 30
0.0
 11
29.2998702214
 21
27.6374475468
 31
0.0
  0
LINE
  5
27E
330
1F
100
AcDbEntity
  8
0
  6
Continuous
 62
     7
370
    25
100
AcDbLine
 10
29.2974501647
 20
27.6659260234
 30
0.0
 11
29.3100031208
 21
27.6315979485
 31
0.0
  0
SPLINE
  5
27F
330
1F
100
AcDbEntity
  8
0
  6
Continuous
 62
     7
370
    25
100
AcDbSpline
210
0.0
220
0.0
230
1.0
 70
     8
 71
     3
 72
     9
 73
     5
 74
     0
 42
0.00000001
 43
0.00000001
 40
0.0
 40
0.0
 40
0.0
 40
0.0
 40
0.5599729811101068
 40
1.0
 40
1.0
 40
1.0
 40
1.0
 10
29.28998106879877
 20
27.68292408285904
 30
0.0
 10
29.29153731844909
 20
27.67978316102741
 30
0.0
 10
29.29431646977033
 20
27.67417410141634
 30
0.0
 10
29.29649260597683
 20
27.66844637693891
 30
0.0
 10
29.29745016470448
 20
27.66592602341208
 30
0.0
  0
SPLINE
  5
280
330
1F
100
AcDbEntity
  8
0
  6
Continuous
 62
     7
370
    25
100
AcDbSpline
210
0.0
220
0.0
230
1.0
 70
     8
 71
     3
 72
     9
 73
     5
 74
     0
 42
0.00000001
 43
0.00000001
 40
0.0
 40
0.0
 40
0.0
 40
0.0
 40
0.5601468224864691
 40
1.0
 40
1.0
 40
1.0
 40
1.0
 10
29.2843748942495
 20
27.69078460385802
 30
0.0
 10
29.28551080061277
 20
27.68940662489718
 30
0.0
 10
29.28753867315917
 20
27.68694659315994
 30
0.0
 10
29.28923495419514
 20
27.68415289838347
 30
0.0
 10
29.28998106879877
 20
27.68292408285904
 30
0.0
  0
SPLINE
  5
281
330
1F
100
AcDbEntity
  8
0
  6
Continuous
 62
     7
370
    25
100
AcDbSpline
210
0.0
220
0.0
230
1.0
 70
     8
 71
     3
 72
    11
 73
     7
 74
     0
 42
0.00000001
 43
0.00000001
 40
0.0
 40
0.0
 40
0.0
 40
0.0
 40
0.2801901840608401
 40
0.5591444930642858
 40
0.7793137207320882
 40
0.9999999999999999
 40
0.9999999999999999
 40
0.9999999999999999
 40
0.9999999999999999
 10
29.30443176717112
 20
27.70658899986308
 30
0.0
 10
29.30420283951796
 20
27.70300992784526
 30
0.0
 10
29.30374599397571
 20
27.69586757053622
 30
0.0
 10
29.29876628586381
 20
27.68969634775583
 30
0.0
 10
29.29175452826096
 20
27.68845164032552
 30
0.0
 10
29.2868366948588
 20
27.69000634154354
 30
0.0
 10
29.2843748942495
 20
27.69078460385802
 30
0.0
  0
SPLINE
  5
282
330
1F
100
AcDbEntity
  8
0
  6
Continuous
 62
     7
370
    25
100
AcDbSpline
210
0.0
220
0.0
230
1.0
 70
     8
 71
     3
 72
    11
 73
     7
 74
     0
 42
0.00000001
 43
0.00000001
 40
0.0
 40
0.0
 40
0.0
 40
0.0
 40
0.2814723071154657
 40
0.5582297695646814
 40
0.7789098815581049
 40
1.0
 40
1.0
 40
1.0
 40
1.0
 10
29.27911692929956
 20
27.74850550706675
 30
0.0
 10
29.28288178689809
 20
27.74631234432856
 30
0.0
 10
29.29034843827565
 20
27.74196275575801
 30
0.0
 10
29.29954074548757
 20
27.72970521810024
 30
0.0
 10
29.30380227366565
 20
27.71707092405173
 30
0.0
 10
29.3042218062134
 20
27.71008513576002
 30
0.0
 10
29.30443176717112
 20
27.70658899986308
 30
0.0
  0
LINE
  5
283
330
1F
100
AcDbEntity
  8
0
  6
Continuous
 62
     7
370
    25
100
AcDbLine
 10
29.2476039606
 20
27.7666975567
 30
0.0
 11
29.2791169293
 21
27.7485055071
 31
0.0
  0
LINE
  5
284
330
1F
100
AcDbEntity
  8
0
  6
Continuous
 62
     7
370
    25
100
AcDbLine
 10
29.2476039606
 20
27.667620217
 30
0.0
 11
29.2476039606
 21
27.7666975567
 31
0.0
  0
LINE
  5
285
330
1F
100
AcDbEntity
  8
0
  6
Continuous
 62
     7
370
    25
100
AcDbLine
 10
29.2565181263
 20
27.6624741786
 30
0.0
 11
29.2476039606
 21
27.667620217
 31
0.0
  0
LINE
  5
286
330
1F
100
AcDbEntity
  8
0
  6
Continuous
 62
     7
370
    25
100
AcDbLine
 10
29.2565181263
 20
27.7062226143
 30
0.0
 11
29.2565181263
 21
27.6624741786
 31
0.0
  0
SPLINE
  5
287
330
1F
100
AcDbEntity
  8
0
  6
Continuous
 62
     7
370
    25
100
AcDbSpline
210
0.0
220
0.0
230
1.0
 70
     8
 71
     3
 72
    10
 73
     6
 74
     0
 42
0.00000001
 43
0.00000001
 40
0.0
 40
0.0
 40
0.0
 40
0.0
 40
0.2781954152419034
 40
0.5587789786535856
 40
1.0
 40
1.0
 40
1.0
 40
1.0
 10
29.42249223182519
 20
27.66390715355385
 30
0.0
 10
29.42645108936012
 20
27.65898958190596
 30
0.0
 10
29.4344027889526
 20
27.64911222407649
 30
0.0
 10
29.44142876295095
 20
27.62736302404717
 30
0.0
 10
29.44215649304828
 20
27.61356594219481
 30
0.0
 10
29.4426013361867
 20
27.60513213244208
 30
0.0
  0
SPLINE
  5
288
330
1F
100
AcDbEntity
  8
0
  6
Continuous
 62
     7
370
    25
100
AcDbSpline
210
0.0
220
0.0
230
1.0
 70
     8
 71
     3
 72
     9
 73
     5
 74
     0
 42
0.00000001
 43
0.00000001
 40
0.0
 40
0.0
 40
0.0
 40
0.0
 40
0.5603093479473512
 40
1.0
 40
1.0
 40
1.0
 40
1.0
 10
29.40884241553131
 20
27.67361657792084
 30
0.0
 10
29.41142667108621
 20
27.67210433587913
 30
0.0
 10
29.41603886533993
 20
27.669405394576
 30
0.0
 10
29.42052133278949
 20
27.6655863512181
 30
0.0
 10
29.42249223182519
 20
27.66390715355385
 30
0.0
  0
LINE
  5
289
330
1F
100
AcDbEntity
  8
0
  6
Continuous
 62
     7
370
    25
100
AcDbLine
 10
29.3846592589
 20
27.6875772171
 30
0.0
 11
29.4088424155
 21
27.6736165779
 31
0.0
  0
LINE
  5
28A
330
1F
100
AcDbEntity
  8
0
  6
Continuous
 62
     7
370
    25
100
AcDbLine
 10
29.3846592589
 20
27.5884998774
 30
0.0
 11
29.3846592589
 21
27.6875772171
 31
0.0
  0
LINE
  5
28B
330
1F
100
AcDbEntity
  8
0
  6
Continuous
 62
     7
370
    25
100
AcDbLine
 10
29.4099566862
 20
27.5738959834
 30
0.0
 11
29.3846592589
 21
27.5884998774
 31
0.0
  0
SPLINE
  5
28C
330
1F
100
AcDbEntity
  8
0
  6
Continuous
 62
     7
370
    25
100
AcDbSpline
210
0.0
220
0.0
230
1.0
 70
     8
 71
     3
 72
    11
 73
     7
 74
     0
 42
0.00000001
 43
0.00000001
 40
0.0
 40
0.0
 40
0.0
 40
0.0
 40
0.4986209472086349
 40
0.6243884791871334
 40
0.7498206800077762
 40
1.0
 40
1.0
 40
1.0
 40
1.0
 10
29.4426013361867
 20
27.60513213244208
 30
0.0
 10
29.44171325993493
 20
27.59353831643557
 30
0.0
 10
29.44060118355035
 20
27.5790201836038
 30
0.0
 10
29.43157415283303
 20
27.56961954223603
 30
0.0
 10
29.42305285794862
 20
27.56738923131897
 30
0.0
 10
29.41519228753419
 20
27.5712947072174
 30
0.0
 10
29.40995668624918
 20
27.57389598340404
 30
0.0
  0
LINE
  5
28D
330
1F
100
AcDbEntity
  8
0
  6
Continuous
 62
     7
370
    25
100
AcDbLine
 10
29.5588991835
 20
26.4162034944
 30
0.0
 11
29.5659702513
 21
26.4202855349
 31
0.0
  0
LINE
  5
28E
330
1F
100
AcDbEntity
  8
0
  6
Continuous
 62
     7
370
    25
100
AcDbLine
 10
29.5588991835
 20
27.6410147122
 30
0.0
 11
29.5659702513
 21
27.6450967527
 31
0.0
  0
LINE
  5
28F
330
1F
100
AcDbEntity
  8
0
  6
Continuous
 62
     7
370
    25
100
AcDbLine
 10
29.5659702513
 20
26.4202855349
 30
0.0
 11
29.5659702513
 21
27.6450967527
 31
0.0
  0
LINE
  5
290
330
1F
100
AcDbEntity
  8
0
  6
Continuous
 62
     7
370
    25
100
AcDbLine
 10
29.0338723984
 20
27.9481882643
 30
0.0
 11
29.0321046315
 21
27.9492087744
 31
0.0
  0
LINE
  5
291
330
1F
100
AcDbEntity
  8
0
  6
Continuous
 62
     7
370
    25
100
AcDbLine
 10
29.0321046315
 20
27.9492087744
 30
0.0
 11
29.0285690976
 21
27.9471677541
 31
0.0
  0
LINE
  5
292
330
1F
100
AcDbEntity
  8
0
  6
Continuous
 62
     7
370
    25
100
AcDbLine
 10
28.8517924023
 20
28.0492187681
 30
0.0
 11
28.8588634701
 21
28.0533008087
 31
0.0
  0
LINE
  5
293
330
1F
100
AcDbEntity
  8
0
  6
Continuous
 62
     7
370
    25
100
AcDbLine
 10
29.5659702513
 20
27.6450967527
 30
0.0
 11
28.8588634701
 21
28.0533008087
 31
0.0
  0
LINE
  5
294
330
1F
100
AcDbEntity
  8
0
  6
Continuous
 62
     7
370
    25
100
AcDbLine
 10
29.0338723984
 20
27.9481882643
 30
0.0
 11
29.0303368645
 21
27.946147244
 31
0.0
  0
LINE
  5
295
330
1F
100
AcDbEntity
  8
0
  6
Continuous
 62
     7
370
    25
100
AcDbLine
 10
29.4595081187
 20
27.5493725909
 30
0.0
 11
29.4595081187
 21
27.6443678901
 31
0.0
  0
LINE
  5
296
330
1F
100
AcDbEntity
  8
0
  6
Continuous
 62
     7
370
    25
100
AcDbLine
 10
29.5072290378
 20
27.6093207621
 30
0.0
 11
29.4684222844
 21
27.631723424
 31
0.0
  0
LINE
  5
297
330
1F
100
AcDbEntity
  8
0
  6
Continuous
 62
     7
370
    25
100
AcDbLine
 10
29.5050004964
 20
27.5681455547
 30
0.0
 11
29.4684222844
 21
27.589261707
 31
0.0
  0
LINE
  5
298
330
1F
100
AcDbEntity
  8
0
  6
Continuous
 62
     7
370
    25
100
AcDbLine
 10
29.5083433085
 20
27.5211806359
 30
0.0
 11
29.4595081187
 21
27.5493725909
 31
0.0
  0
LINE
  5
299
330
1F
100
AcDbEntity
  8
0
  6
Continuous
 62
     7
370
    25
100
AcDbLine
 10
29.4684222844
 20
27.631723424
 30
0.0
 11
29.4648867505
 21
27.6296824037
 31
0.0
  0
LINE
  5
29A
330
1F
100
AcDbEntity
  8
0
  6
Continuous
 62
     7
370
    25
100
AcDbLine
 10
29.4684222844
 20
27.589261707
 30
0.0
 11
29.4648867505
 21
27.5872206867
 31
0.0
  0
LINE
  5
29B
330
1F
100
AcDbEntity
  8
0
  6
Continuous
 62
     7
370
    25
100
AcDbLine
 10
29.4595081187
 20
27.5493725909
 30
0.0
 11
29.4559725848
 21
27.5473315706
 31
0.0
  0
LINE
  5
29C
330
1F
100
AcDbEntity
  8
0
  6
Continuous
 62
     7
370
    25
100
AcDbLine
 10
29.3881947928
 20
27.5905408977
 30
0.0
 11
29.3881947928
 21
27.6855361968
 31
0.0
  0
SPLINE
  5
29D
330
1F
100
AcDbEntity
  8
0
  6
Continuous
 62
     7
370
    25
100
AcDbSpline
210
0.0
220
0.0
230
1.0
 70
     8
 71
     3
 72
    10
 73
     6
 74
     0
 42
0.00000001
 43
0.00000001
 40
0.0
 40
0.0
 40
0.0
 40
0.0
 40
0.1645870218275519
 40
0.4435659206097968
 40
1.0
 40
1.0
 40
1.0
 40
1.0
 10
29.43749692967416
 20
27.57480897781777
 30
0.0
 10
29.43665166283916
 20
27.57384257895497
 30
0.0
 10
29.43437364870619
 20
27.57123811113913
 30
0.0
 10
29.42649364747224
 20
27.56955688108539
 30
0.0
 10
29.41868994443139
 20
27.57338635156629
 30
0.0
 10
29.41349222015511
 20
27.57593700368359
 30
0.0
  0
LINE
  5
29E
330
1F
100
AcDbEntity
  8
0
  6
Continuous
 62
     7
370
    25
100
AcDbLine
 10
29.4134922202
 20
27.5759370037
 30
0.0
 11
29.3881947928
 21
27.5905408977
 31
0.0
  0
SPLINE
  5
29F
330
1F
100
AcDbEntity
  8
0
  6
Continuous
 62
     7
370
    25
100
AcDbSpline
210
0.0
220
0.0
230
1.0
 70
     8
 71
     3
 72
     9
 73
     5
 74
     0
 42
0.00000001
 43
0.00000001
 40
0.0
 40
0.0
 40
0.0
 40
0.0
 40
0.3336313636860188
 40
1.0
 40
1.0
 40
1.0
 40
1.0
 10
29.42894517240067
 20
27.5846654761938
 30
0.0
 10
29.42968632006744
 20
27.58499502825444
 30
0.0
 10
29.43190777688309
 20
27.58598280127731
 30
0.0
 10
29.43304946507361
 20
27.58852767451869
 30
0.0
 10
29.43381025027623
 20
27.59022349823015
 30
0.0
  0
SPLINE
  5
2A0
330
1F
100
AcDbEntity
  8
0
  6
Continuous
 62
     7
370
    25
100
AcDbSpline
210
0.0
220
0.0
230
1.0
 70
     8
 71
     3
 72
     9
 73
     5
 74
     0
 42
0.00000001
 43
0.00000001
 40
0.0
 40
0.0
 40
0.0
 40
0.0
 40
0.5595654112245922
 40
1.0
 40
1.0
 40
1.0
 40
1.0
 10
29.43381025027623
 20
27.59022349823015
 30
0.0
 10
29.43495400604617
 20
27.5939893157698
 30
0.0
 10
29.43699801331861
 20
27.6007192126936
 30
0.0
 10
29.43715400167993
 20
27.60887002587455
 30
0.0
 10
29.4372227043497
 20
27.61245992592609
 30
0.0
  0
SPLINE
  5
2A1
330
1F
100
AcDbEntity
  8
0
  6
Continuous
 62
     7
370
    25
100
AcDbSpline
210
0.0
220
0.0
230
1.0
 70
     8
 71
     3
 72
    10
 73
     6
 74
     0
 42
0.00000001
 43
0.00000001
 40
0.0
 40
0.0
 40
0.0
 40
0.0
 40
0.5599552451968851
 40
0.780640280608843
 40
1.0
 40
1.0
 40
1.0
 40
1.0
 10
29.4372227043497
 20
27.61245992592609
 30
0.0
 10
29.43689724442831
 20
27.62023654223037
 30
0.0
 10
29.43644351687322
 20
27.63107801569819
 30
0.0
 10
29.43076615731411
 20
27.64654873621777
 30
0.0
 10
29.42645380863892
 20
27.6523367264183
 30
0.0
 10
29.42430412821442
 20
27.65522200545496
 30
0.0
  0
SPLINE
  5
2A2
330
1F
100
AcDbEntity
  8
0
  6
Continuous
 62
     7
370
    25
100
AcDbSpline
210
0.0
220
0.0
230
1.0
 70
     8
 71
     3
 72
     9
 73
     5
 74
     0
 42
0.00000001
 43
0.00000001
 40
0.0
 40
0.0
 40
0.0
 40
0.0
 40
0.5590457952192125
 40
1.0
 40
1.0
 40
1.0
 40
1.0
 10
29.42430412821442
 20
27.65522200545496
 30
0.0
 10
29.42208002709534
 20
27.65720396145325
 30
0.0
 10
29.41810163903108
 20
27.66074920947268
 30
0.0
 10
29.41398449545097
 20
27.66314243662082
 30
0.0
 10
29.41216902367765
 20
27.66419774019478
 30
0.0
  0
LINE
  5
2A3
330
1F
100
AcDbEntity
  8
0
  6
Continuous
 62
     7
370
    25
100
AcDbLine
 10
29.4121690237
 20
27.6641977402
 30
0.0
 11
29.3971089585
 21
27.6728917308
 31
0.0
  0
SPLINE
  5
2A4
330
1F
100
AcDbEntity
  8
0
  6
Continuous
 62
     7
370
    25
100
AcDbSpline
210
0.0
220
0.0
230
1.0
 70
     8
 71
     3
 72
     9
 73
     5
 74
     0
 42
0.00000001
 43
0.00000001
 40
0.0
 40
0.0
 40
0.0
 40
0.0
 40
0.5590457952192168
 40
0.9999999999999999
 40
0.9999999999999999
 40
0.9999999999999999
 40
0.9999999999999999
 10
29.42076859430848
 20
27.65318098517541
 30
0.0
 10
29.41854449318941
 20
27.65516294117369
 30
0.0
 10
29.41456610512514
 20
27.65870818919313
 30
0.0
 10
29.41044896154504
 20
27.66110141634126
 30
0.0
 10
29.40863348977171
 20
27.66215671991523
 30
0.0
  0
SPLINE
  5
2A5
330
1F
100
AcDbEntity
  8
0
  6
Continuous
 62
     7
370
    25
100
AcDbSpline
210
0.0
220
0.0
230
1.0
 70
     8
 71
     3
 72
    10
 73
     6
 74
     0
 42
0.00000001
 43
0.00000001
 40
0.0
 40
0.0
 40
0.0
 40
0.0
 40
0.5599552451968851
 40
0.780640280608843
 40
1.0
 40
1.0
 40
1.0
 40
1.0
 10
29.43368717044376
 20
27.61041890564654
 30
0.0
 10
29.43336171052237
 20
27.61819552195082
 30
0.0
 10
29.43290798296728
 20
27.62903699541863
 30
0.0
 10
29.42723062340818
 20
27.64450771593822
 30
0.0
 10
29.42291827473299
 20
27.65029570613875
 30
0.0
 10
29.42076859430848
 20
27.65318098517541
 30
0.0
  0
SPLINE
  5
2A6
330
1F
100
AcDbEntity
  8
0
  6
Continuous
 62
     7
370
    25
100
AcDbSpline
210
0.0
220
0.0
230
1.0
 70
     8
 71
     3
 72
     9
 73
     5
 74
     0
 42
0.00000001
 43
0.00000001
 40
0.0
 40
0.0
 40
0.0
 40
0.0
 40
0.5595654112245922
 40
1.0
 40
1.0
 40
1.0
 40
1.0
 10
29.43027471637029
 20
27.58818247795059
 30
0.0
 10
29.43141847214024
 20
27.59194829549025
 30
0.0
 10
29.43346247941268
 20
27.59867819241404
 30
0.0
 10
29.43361846777399
 20
27.606829005595
 30
0.0
 10
29.43368717044376
 20
27.61041890564654
 30
0.0
  0
SPLINE
  5
2A7
330
1F
100
AcDbEntity
  8
0
  6
Continuous
 62
     7
370
    25
100
AcDbSpline
210
0.0
220
0.0
230
1.0
 70
     8
 71
     3
 72
    11
 73
     7
 74
     0
 42
0.00000001
 43
0.00000001
 40
0.0
 40
0.0
 40
0.0
 40
0.0
 40
0.2807474483783169
 40
0.55999953898194
 40
0.7797085369030178
 40
1.0
 40
1.0
 40
1.0
 40
1.0
 10
29.40887723649124
 20
27.58609960476447
 30
0.0
 10
29.41137343443029
 20
27.58475664237693
 30
0.0
 10
29.41635253469693
 20
27.58207787068289
 30
0.0
 10
29.42315234085176
 20
27.58072003079285
 30
0.0
 10
29.42782115097426
 20
27.58340406193584
 30
0.0
 10
29.42945613978143
 20
27.58658826754648
 30
0.0
 10
29.43027471637029
 20
27.58818247795059
 30
0.0
  0
LINE
  5
2A8
330
1F
100
AcDbEntity
  8
0
  6
Continuous
 62
     7
370
    25
100
AcDbLine
 10
29.3935734246
 20
27.5949343073
 30
0.0
 11
29.4088772365
 21
27.5860996048
 31
0.0
  0
LINE
  5
2A9
330
1F
100
AcDbEntity
  8
0
  6
Continuous
 62
     7
370
    25
100
AcDbLine
 10
29.3935734246
 20
27.6708507105
 30
0.0
 11
29.3935734246
 21
27.5949343073
 31
0.0
  0
LINE
  5
2AA
330
1F
100
AcDbEntity
  8
0
  6
Continuous
 62
     7
370
    25
100
AcDbLine
 10
29.4086334898
 20
27.6621567199
 30
0.0
 11
29.3935734246
 21
27.6708507105
 31
0.0
  0
LINE
  5
2AB
330
1F
100
AcDbEntity
  8
0
  6
Continuous
 62
     7
370
    25
100
AcDbLine
 10
29.4243041282
 20
27.6552220055
 30
0.0
 11
29.4207685943
 21
27.6531809852
 31
0.0
  0
LINE
  5
2AC
330
1F
100
AcDbEntity
  8
0
  6
Continuous
 62
     7
370
    25
100
AcDbLine
 10
29.4372227043
 20
27.6124599259
 30
0.0
 11
29.4336871704
 21
27.6104189056
 31
0.0
  0
LINE
  5
2AD
330
1F
100
AcDbEntity
  8
0
  6
Continuous
 62
     7
370
    25
100
AcDbLine
 10
29.4121690237
 20
27.6641977402
 30
0.0
 11
29.4086334898
 21
27.6621567199
 31
0.0
  0
LINE
  5
2AE
330
1F
100
AcDbEntity
  8
0
  6
Continuous
 62
     7
370
    25
100
AcDbLine
 10
29.4134922202
 20
27.5759370037
 30
0.0
 11
29.4099566862
 21
27.5738959834
 31
0.0
  0
LINE
  5
2AF
330
1F
100
AcDbEntity
  8
0
  6
Continuous
 62
     7
370
    25
100
AcDbLine
 10
29.3971089585
 20
27.6728917308
 30
0.0
 11
29.3935734246
 21
27.6708507105
 31
0.0
  0
LINE
  5
2B0
330
1F
100
AcDbEntity
  8
0
  6
Continuous
 62
     7
370
    25
100
AcDbLine
 10
29.4338102503
 20
27.5902234982
 30
0.0
 11
29.4302747164
 21
27.588182478
 31
0.0
  0
LINE
  5
2B1
330
1F
100
AcDbEntity
  8
0
  6
Continuous
 62
     7
370
    25
100
AcDbLine
 10
29.3881947928
 20
27.5905408977
 30
0.0
 11
29.3846592589
 21
27.5884998774
 31
0.0
  0
LINE
  5
2B2
330
1F
100
AcDbEntity
  8
0
  6
Continuous
 62
     7
370
    25
100
AcDbLine
 10
29.3146529254
 20
27.632995714
 30
0.0
 11
29.3409279571
 21
27.7128227602
 31
0.0
  0
LINE
  5
2B3
330
1F
100
AcDbEntity
  8
0
  6
Continuous
 62
     7
370
    25
100
AcDbLine
 10
29.3735010414
 20
27.5990234198
 30
0.0
 11
29.368903981
 21
27.6016772463
 31
0.0
  0
LINE
  5
2B4
330
1F
100
AcDbEntity
  8
0
  6
Continuous
 62
     7
370
    25
100
AcDbLine
 10
29.368903981
 20
27.6016772463
 30
0.0
 11
29.3614000641
 21
27.6356036953
 31
0.0
  0
LINE
  5
2B5
330
1F
100
AcDbEntity
  8
0
  6
Continuous
 62
     7
370
    25
100
AcDbLine
 10
29.3614000641
 20
27.6356036953
 30
0.0
 11
29.3314192176
 21
27.6529112696
 31
0.0
  0
LINE
  5
2B6
330
1F
100
AcDbEntity
  8
0
  6
Continuous
 62
     7
370
    25
100
AcDbLine
 10
29.3214298081
 20
27.6290835029
 30
0.0
 11
29.3146529254
 21
27.632995714
 31
0.0
  0
LINE
  5
2B7
330
1F
100
AcDbEntity
  8
0
  6
Continuous
 62
     7
370
    25
100
AcDbLine
 10
29.358457693
 20
27.6488827583
 30
0.0
 11
29.3512845752
 21
27.6802458535
 31
0.0
  0
SPLINE
  5
2B8
330
1F
100
AcDbEntity
  8
0
  6
Continuous
 62
     7
370
    25
100
AcDbSpline
210
0.0
220
0.0
230
1.0
 70
     8
 71
     3
 72
     9
 73
     5
 74
     0
 42
0.00000001
 43
0.00000001
 40
0.0
 40
0.0
 40
0.0
 40
0.0
 40
0.5600121541624075
 40
0.9999999999999999
 40
0.9999999999999999
 40
0.9999999999999999
 40
0.9999999999999999
 10
29.35128457523415
 20
27.68024585346923
 30
0.0
 10
29.35029661895721
 20
27.68459329959395
 30
0.0
 10
29.34853244960908
 20
27.69235642775537
 30
0.0
 10
29.3470582644125
 20
27.70004399946228
 30
0.0
 10
29.34640964084349
 20
27.70342643757733
 30
0.0
  0
SPLINE
  5
2B9
330
1F
100
AcDbEntity
  8
0
  6
Continuous
 62
     7
370
    25
100
AcDbSpline
210
0.0
220
0.0
230
1.0
 70
     8
 71
     3
 72
     9
 73
     5
 74
     0
 42
0.00000001
 43
0.00000001
 40
0.0
 40
0.0
 40
0.0
 40
0.0
 40
0.5600121541624075
 40
0.9999999999999999
 40
0.9999999999999999
 40
0.9999999999999999
 40
0.9999999999999999
 10
29.34774904132822
 20
27.67820483318967
 30
0.0
 10
29.34676108505127
 20
27.68255227931439
 30
0.0
 10
29.34499691570315
 20
27.69031540747581
 30
0.0
 10
29.34352273050656
 20
27.69800297918273
 30
0.0
 10
29.34287410693755
 20
27.70138541729777
 30
0.0
  0
LINE
  5
2BA
330
1F
100
AcDbEntity
  8
0
  6
Continuous
 62
     7
370
    25
100
AcDbLine
 10
29.3549221591
 20
27.646841738
 30
0.0
 11
29.3477490413
 21
27.6782048332
 31
0.0
  0
LINE
  5
2BB
330
1F
100
AcDbEntity
  8
0
  6
Continuous
 62
     7
370
    25
100
AcDbLine
 10
29.3308086443
 20
27.6607621738
 30
0.0
 11
29.3549221591
 21
27.646841738
 31
0.0
  0
LINE
  5
2BC
330
1F
100
AcDbEntity
  8
0
  6
Continuous
 62
     7
370
    25
100
AcDbLine
 10
29.338887107
 20
27.6849291173
 30
0.0
 11
29.3308086443
 21
27.6607621738
 31
0.0
  0
SPLINE
  5
2BD
330
1F
100
AcDbEntity
  8
0
  6
Continuous
 62
     7
370
    25
100
AcDbSpline
210
0.0
220
0.0
230
1.0
 70
     8
 71
     3
 72
     9
 73
     5
 74
     0
 42
0.00000001
 43
0.00000001
 40
0.0
 40
0.0
 40
0.0
 40
0.0
 40
0.5599894472996129
 40
1.0
 40
1.0
 40
1.0
 40
1.0
 10
29.34287410693755
 20
27.70138541729777
 30
0.0
 10
29.3422795837197
 20
27.69818402513945
 30
0.0
 10
29.34121791511019
 20
27.69246714569866
 30
0.0
 10
29.33959931024605
 20
27.6872324421444
 30
0.0
 10
29.33888710702518
 20
27.68492911734026
 30
0.0
  0
LINE
  5
2BE
330
1F
100
AcDbEntity
  8
0
  6
Continuous
 62
     7
370
    25
100
AcDbLine
 10
29.3464096408
 20
27.7034264376
 30
0.0
 11
29.3428741069
 21
27.7013854173
 31
0.0
  0
LINE
  5
2BF
330
1F
100
AcDbEntity
  8
0
  6
Continuous
 62
     7
370
    25
100
AcDbLine
 10
29.3512845752
 20
27.6802458535
 30
0.0
 11
29.3477490413
 21
27.6782048332
 31
0.0
  0
LINE
  5
2C0
330
1F
100
AcDbEntity
  8
0
  6
Continuous
 62
     7
370
    25
100
AcDbLine
 10
29.3146529254
 20
27.632995714
 30
0.0
 11
29.3111173915
 21
27.6309546937
 31
0.0
  0
LINE
  5
2C1
330
1F
100
AcDbEntity
  8
0
  6
Continuous
 62
     7
370
    25
100
AcDbLine
 10
29.358457693
 20
27.6488827583
 30
0.0
 11
29.3549221591
 21
27.646841738
 31
0.0
  0
LINE
  5
2C2
330
1F
100
AcDbEntity
  8
0
  6
Continuous
 62
     7
370
    25
100
AcDbLine
 10
29.2511394945
 20
27.6696612372
 30
0.0
 11
29.2511394945
 21
27.7646565364
 31
0.0
  0
SPLINE
  5
2C3
330
1F
100
AcDbEntity
  8
0
  6
Continuous
 62
     7
370
    25
100
AcDbSpline
210
0.0
220
0.0
230
1.0
 70
     8
 71
     3
 72
     9
 73
     5
 74
     0
 42
0.00000001
 43
0.00000001
 40
0.0
 40
0.0
 40
0.0
 40
0.0
 40
0.2860603991276383
 40
1.0
 40
1.0
 40
1.0
 40
1.0
 10
29.29765539962062
 20
27.69153949800932
 30
0.0
 10
29.29683495909678
 20
27.69132765923366
 30
0.0
 10
29.29396689163154
 20
27.69058712060509
 30
0.0
 10
29.29043324116158
 20
27.6918931780247
 30
0.0
 10
29.28791042815543
 20
27.69282562413758
 30
0.0
  0
LINE
  5
2C4
330
1F
100
AcDbEntity
  8
0
  6
Continuous
 62
     7
370
    25
100
AcDbLine
 10
29.3081109859
 20
27.6367722953
 30
0.0
 11
29.3034057553
 21
27.6394885671
 31
0.0
  0
LINE
  5
2C5
330
1F
100
AcDbEntity
  8
0
  6
Continuous
 62
     7
370
    25
100
AcDbLine
 10
29.3034057553
 20
27.6394885671
 30
0.0
 11
29.2934991922
 21
27.6663981528
 31
0.0
  0
SPLINE
  5
2C6
330
1F
100
AcDbEntity
  8
0
  6
Continuous
 62
     7
370
    25
100
AcDbSpline
210
0.0
220
0.0
230
1.0
 70
     8
 71
     3
 72
    10
 73
     6
 74
     0
 42
0.00000001
 43
0.00000001
 40
0.0
 40
0.0
 40
0.0
 40
0.0
 40
0.5609767169391883
 40
0.7797398293731671
 40
1.0
 40
1.0
 40
1.0
 40
1.0
 10
29.29349919222474
 20
27.66639815279659
 30
0.0
 10
29.29089135577789
 20
27.67407869107367
 30
0.0
 10
29.28726654589774
 20
27.68475439547427
 30
0.0
 10
29.27849931829439
 20
27.69747389832374
 30
0.0
 10
29.27378693155563
 20
27.70028838403925
 30
0.0
 10
29.27142270362699
 20
27.70170042555925
 30
0.0
  0
LINE
  5
2C7
330
1F
100
AcDbEntity
  8
0
  6
Continuous
 62
     7
370
    25
100
AcDbLine
 10
29.2714227036
 20
27.7017004256
 30
0.0
 11
29.2600536602
 21
27.7082636346
 31
0.0
  0
LINE
  5
2C8
330
1F
100
AcDbEntity
  8
0
  6
Continuous
 62
     7
370
    25
100
AcDbLine
 10
29.2565181263
 20
27.6665562192
 30
0.0
 11
29.2511394945
 21
27.6696612372
 31
0.0
  0
SPLINE
  5
2C9
330
1F
100
AcDbEntity
  8
0
  6
Continuous
 62
     7
370
    25
100
AcDbSpline
210
0.0
220
0.0
230
1.0
 70
     8
 71
     3
 72
     9
 73
     5
 74
     0
 42
0.00000001
 43
0.00000001
 40
0.0
 40
0.0
 40
0.0
 40
0.0
 40
0.4784316544495436
 40
1.0
 40
1.0
 40
1.0
 40
1.0
 10
29.2950647198455
 20
27.70446312058724
 30
0.0
 10
29.29621872067012
 20
27.70539488551176
 30
0.0
 10
29.29863077015282
 20
27.70734242580483
 30
0.0
 10
29.29890835556824
 20
27.71153107613026
 30
0.0
 10
29.29905313533411
 20
27.71371574355058
 30
0.0
  0
SPLINE
  5
2CA
330
1F
100
AcDbEntity
  8
0
  6
Continuous
 62
     7
370
    25
100
AcDbSpline
210
0.0
220
0.0
230
1.0
 70
     8
 71
     3
 72
    11
 73
     7
 74
     0
 42
0.00000001
 43
0.00000001
 40
0.0
 40
0.0
 40
0.0
 40
0.0
 40
0.2798157723866329
 40
0.5582434525783414
 40
0.7787575721023114
 40
0.9999999999999999
 40
0.9999999999999999
 40
0.9999999999999999
 40
0.9999999999999999
 10
29.29905313533411
 20
27.71371574355058
 30
0.0
 10
29.29884383660752
 20
27.7164194273832
 30
0.0
 10
29.29842627743009
 20
27.72181338278652
 30
0.0
 10
29.29394571123317
 20
27.72998018272655
 30
0.0
 10
29.28849856336425
 20
27.73531025661457
 30
0.0
 10
29.28502092593017
 20
27.73750503155274
 30
0.0
 10
29.28327924048429
 20
27.73860422824567
 30
0.0
  0
LINE
  5
2CB
330
1F
100
AcDbEntity
  8
0
  6
Continuous
 62
     7
370
    25
100
AcDbLine
 10
29.2832792405
 20
27.7386042282
 30
0.0
 11
29.2600536602
 21
27.7520120703
 31
0.0
  0
LINE
  5
2CC
330
1F
100
AcDbEntity
  8
0
  6
Continuous
 62
     7
370
    25
100
AcDbLine
 10
29.3614000641
 20
27.6356036953
 30
0.0
 11
29.3578645302
 21
27.633562675
 31
0.0
  0
LINE
  5
2CD
330
1F
100
AcDbEntity
  8
0
  6
Continuous
 62
     7
370
    25
100
AcDbLine
 10
29.368903981
 20
27.6016772463
 30
0.0
 11
29.3653684471
 21
27.599636226
 31
0.0
  0
LINE
  5
2CE
330
1F
100
AcDbEntity
  8
0
  6
Continuous
 62
     7
370
    25
100
AcDbLine
 10
29.3314192176
 20
27.6529112696
 30
0.0
 11
29.3278836837
 21
27.6508702493
 31
0.0
  0
SPLINE
  5
2CF
330
1F
100
AcDbEntity
  8
0
  6
Continuous
 62
     7
370
    25
100
AcDbSpline
210
0.0
220
0.0
230
1.0
 70
     8
 71
     3
 72
    11
 73
     7
 74
     0
 42
0.00000001
 43
0.00000001
 40
0.0
 40
0.0
 40
0.0
 40
0.0
 40
0.2798157723866329
 40
0.5582434525783414
 40
0.7787575721023114
 40
0.9999999999999999
 40
0.9999999999999999
 40
0.9999999999999999
 40
0.9999999999999999
 10
29.29551760142818
 20
27.71167472327103
 30
0.0
 10
29.29530830270159
 20
27.71437840710364
 30
0.0
 10
29.29489074352416
 20
27.71977236250697
 30
0.0
 10
29.29041017732724
 20
27.72793916244699
 30
0.0
 10
29.28496302945832
 20
27.73326923633501
 30
0.0
 10
29.28148539202424
 20
27.73546401127318
 30
0.0
 10
29.27974370657837
 20
27.73656320796612
 30
0.0
  0
SPLINE
  5
2D0
330
1F
100
AcDbEntity
  8
0
  6
Continuous
 62
     7
370
    25
100
AcDbSpline
210
0.0
220
0.0
230
1.0
 70
     8
 71
     3
 72
    11
 73
     7
 74
     0
 42
0.00000001
 43
0.00000001
 40
0.0
 40
0.0
 40
0.0
 40
0.0
 40
0.2814679941090468
 40
0.5598819086306253
 40
0.7797191212695566
 40
0.9999999999999999
 40
0.9999999999999999
 40
0.9999999999999999
 40
0.9999999999999999
 10
29.27742811274279
 20
27.7057320043909
 30
0.0
 10
29.27988534111722
 20
27.70435403505637
 30
0.0
 10
29.28477313561254
 20
27.70161304809801
 30
0.0
 10
29.29127288746439
 20
27.70118711861227
 30
0.0
 10
29.29498300695492
 20
27.70530220700637
 30
0.0
 10
29.29533928355419
 20
27.70954912413163
 30
0.0
 10
29.29551760142818
 20
27.71167472327103
 30
0.0
  0
LINE
  5
2D1
330
1F
100
AcDbEntity
  8
0
  6
Continuous
 62
     7
370
    25
100
AcDbLine
 10
29.2565181263
 20
27.7178030826
 30
0.0
 11
29.2774281127
 21
27.7057320044
 31
0.0
  0
LINE
  5
2D2
330
1F
100
AcDbEntity
  8
0
  6
Continuous
 62
     7
370
    25
100
AcDbLine
 10
29.2565181263
 20
27.7499710501
 30
0.0
 11
29.2565181263
 21
27.7178030826
 31
0.0
  0
LINE
  5
2D3
330
1F
100
AcDbEntity
  8
0
  6
Continuous
 62
     7
370
    25
100
AcDbLine
 10
29.2797437066
 20
27.736563208
 30
0.0
 11
29.2565181263
 21
27.7499710501
 31
0.0
  0
LINE
  5
2D4
330
1F
100
AcDbEntity
  8
0
  6
Continuous
 62
     7
370
    25
100
AcDbLine
 10
29.2832792405
 20
27.7386042282
 30
0.0
 11
29.2797437066
 21
27.736563208
 31
0.0
  0
LINE
  5
2D5
330
1F
100
AcDbEntity
  8
0
  6
Continuous
 62
     7
370
    25
100
AcDbLine
 10
29.2990531353
 20
27.7137157436
 30
0.0
 11
29.2955176014
 21
27.7116747233
 31
0.0
  0
LINE
  5
2D6
330
1F
100
AcDbEntity
  8
0
  6
Continuous
 62
     7
370
    25
100
AcDbLine
 10
29.2879104282
 20
27.6928256241
 30
0.0
 11
29.2843748942
 21
27.6907846039
 31
0.0
  0
LINE
  5
2D7
330
1F
100
AcDbEntity
  8
0
  6
Continuous
 62
     7
370
    25
100
AcDbLine
 10
29.2600536602
 20
27.7520120703
 30
0.0
 11
29.2565181263
 21
27.7499710501
 31
0.0
  0
LINE
  5
2D8
330
1F
100
AcDbEntity
  8
0
  6
Continuous
 62
     7
370
    25
100
AcDbLine
 10
29.2511394945
 20
27.6696612372
 30
0.0
 11
29.2476039606
 21
27.667620217
 31
0.0
  0
LINE
  5
2D9
330
1F
100
AcDbEntity
  8
0
  6
Continuous
 62
     7
370
    25
100
AcDbLine
 10
29.2714227036
 20
27.7017004256
 30
0.0
 11
29.2678871697
 21
27.6996594053
 31
0.0
  0
LINE
  5
2DA
330
1F
100
AcDbEntity
  8
0
  6
Continuous
 62
     7
370
    25
100
AcDbLine
 10
29.2934991922
 20
27.6663981528
 30
0.0
 11
29.2899636583
 21
27.6643571325
 31
0.0
  0
LINE
  5
2DB
330
1F
100
AcDbEntity
  8
0
  6
Continuous
 62
     7
370
    25
100
AcDbLine
 10
29.3034057553
 20
27.6394885671
 30
0.0
 11
29.2998702214
 21
27.6374475468
 31
0.0
  0
LINE
  5
2DC
330
1F
100
AcDbEntity
  8
0
  6
Continuous
 62
     7
370
    25
100
AcDbLine
 10
29.2076829365
 20
27.7333497351
 30
0.0
 11
29.2076829365
 21
27.7408481628
 31
0.0
  0
SPLINE
  5
2DD
330
1F
100
AcDbEntity
  8
0
  6
Continuous
 62
     7
370
    25
100
AcDbSpline
210
0.0
220
0.0
230
1.0
 70
     8
 71
     3
 72
     9
 73
     5
 74
     0
 42
0.00000001
 43
0.00000001
 40
0.0
 40
0.0
 40
0.0
 40
0.0
 40
0.4948603152113745
 40
1.0
 40
1.0
 40
1.0
 40
1.0
 10
29.23423271194546
 20
27.6905704291623
 30
0.0
 10
29.23048535595224
 20
27.68920327924125
 30
0.0
 10
29.22291280289427
 20
27.68644058059878
 30
0.0
 10
29.21318751941767
 20
27.69087813935214
 30
0.0
 10
29.20827489278783
 20
27.69311972638205
 30
0.0
  0
SPLINE
  5
2DE
330
1F
100
AcDbEntity
  8
0
  6
Continuous
 62
     7
370
    25
100
AcDbSpline
210
0.0
220
0.0
230
1.0
 70
     8
 71
     3
 72
    11
 73
     7
 74
     0
 42
0.00000001
 43
0.00000001
 40
0.0
 40
0.0
 40
0.0
 40
0.0
 40
0.2790871395362524
 40
0.5580210855610601
 40
0.7787760248986321
 40
1.0
 40
1.0
 40
1.0
 40
1.0
 10
29.20827489278783
 20
27.69311972638205
 30
0.0
 10
29.20227468033839
 20
27.69748217844694
 30
0.0
 10
29.1902775490116
 20
27.70620468798646
 30
0.0
 10
29.17828390700229
 20
27.72797181371049
 30
0.0
 10
29.17272090374443
 20
27.74776757624627
 30
0.0
 10
29.17225798066697
 20
27.7588576576899
 30
0.0
 10
29.1720262734972
 20
27.76440858290604
 30
0.0
  0
SPLINE
  5
2DF
330
1F
100
AcDbEntity
  8
0
  6
Continuous
 62
     7
370
    25
100
AcDbSpline
210
0.0
220
0.0
230
1.0
 70
     8
 71
     3
 72
    10
 73
     6
 74
     0
 42
0.00000001
 43
0.00000001
 40
0.0
 40
0.0
 40
0.0
 40
0.0
 40
0.4136208237938583
 40
0.8258034745286736
 40
1.0
 40
1.0
 40
1.0
 40
1.0
 10
29.1720262734972
 20
27.76440858290604
 30
0.0
 10
29.1724642596113
 20
27.77099158351433
 30
0.0
 10
29.17333870894753
 20
27.78413469542368
 30
0.0
 10
29.17939779690969
 20
27.79712708097495
 30
0.0
 10
29.18657470264286
 20
27.79834548086295
 30
0.0
 10
29.18870675659887
 20
27.79870743271209
 30
0.0
  0
LINE
  5
2E0
330
1F
100
AcDbEntity
  8
0
  6
Continuous
 62
     7
370
    25
100
AcDbLine
 10
29.2320516494
 20
27.750121295
 30
0.0
 11
29.2277398094
 21
27.7513656789
 31
0.0
  0
SPLINE
  5
2E1
330
1F
100
AcDbEntity
  8
0
  6
Continuous
 62
     7
370
    25
100
AcDbSpline
210
0.0
220
0.0
230
1.0
 70
     8
 71
     3
 72
    11
 73
     7
 74
     0
 42
0.00000001
 43
0.00000001
 40
0.0
 40
0.0
 40
0.0
 40
0.0
 40
0.2808041604286784
 40
0.5593155177302175
 40
0.7795669277145788
 40
1.0
 40
1.0
 40
1.0
 40
1.0
 10
29.22773980939058
 20
27.75136567888669
 30
0.0
 10
29.22700068764318
 20
27.75495043749272
 30
0.0
 10
29.22552847917525
 20
27.76209068467639
 30
0.0
 10
29.22019518739946
 20
27.77225999795003
 30
0.0
 10
29.21348040993613
 20
27.77965026516147
 30
0.0
 10
29.2090588998219
 20
27.78255915896209
 30
0.0
 10
29.20684723343056
 20
27.78401420542554
 30
0.0
  0
SPLINE
  5
2E2
330
1F
100
AcDbEntity
  8
0
  6
Continuous
 62
     7
370
    25
100
AcDbSpline
210
0.0
220
0.0
230
1.0
 70
     8
 71
     3
 72
    10
 73
     6
 74
     0
 42
0.00000001
 43
0.00000001
 40
0.0
 40
0.0
 40
0.0
 40
0.0
 40
0.3869121722272077
 40
0.7727626168108767
 40
1.0
 40
1.0
 40
1.0
 40
1.0
 10
29.20684723343056
 20
27.78401420542554
 30
0.0
 10
29.20385229875642
 20
27.78546027307642
 30
0.0
 10
29.19787064782349
 20
27.78834844021666
 30
0.0
 10
29.19077400311259
 20
27.78769912491195
 30
0.0
 10
29.18824175863531
 20
27.78449336217956
 30
0.0
 10
29.18730319717226
 20
27.78330516515226
 30
0.0
  0
LINE
  5
2E3
330
1F
100
AcDbEntity
  8
0
  6
Continuous
 62
     7
370
    25
100
AcDbLine
 10
29.2288540801
 20
27.7029529924
 30
0.0
 11
29.2288540801
 21
27.721127894
 31
0.0
  0
LINE
  5
2E4
330
1F
100
AcDbEntity
  8
0
  6
Continuous
 62
     7
370
    25
100
AcDbLine
 10
29.2288540801
 20
27.721127894
 30
0.0
 11
29.2076829365
 21
27.7333497351
 31
0.0
  0
LINE
  5
2E5
330
1F
100
AcDbEntity
  8
0
  6
Continuous
 62
     7
370
    25
100
AcDbLine
 10
29.2600536602
 20
27.7082636346
 30
0.0
 11
29.2565181263
 21
27.7062226143
 31
0.0
  0
LINE
  5
2E6
330
1F
100
AcDbEntity
  8
0
  6
Continuous
 62
     7
370
    25
100
AcDbLine
 10
29.2068472334
 20
27.7840142054
 30
0.0
 11
29.2033116995
 21
27.7819731851
 31
0.0
  0
LINE
  5
2E7
330
1F
100
AcDbEntity
  8
0
  6
Continuous
 62
     7
370
    25
100
AcDbLine
 10
29.2277398094
 20
27.7513656789
 30
0.0
 11
29.2242042755
 21
27.7493246586
 31
0.0
  0
LINE
  5
2E8
330
1F
100
AcDbEntity
  8
0
  6
Continuous
 62
     7
370
    25
100
AcDbLine
 10
29.1720262735
 20
27.7644085829
 30
0.0
 11
29.1684907396
 21
27.7623675626
 31
0.0
  0
LINE
  5
2E9
330
1F
100
AcDbEntity
  8
0
  6
Continuous
 62
     7
370
    25
100
AcDbLine
 10
29.2288540801
 20
27.721127894
 30
0.0
 11
29.2253185462
 21
27.7190868738
 31
0.0
  0
LINE
  5
2EA
330
1F
100
AcDbEntity
  8
0
  6
Continuous
 62
     7
370
    25
100
AcDbLine
 10
29.2288540801
 20
27.7029529924
 30
0.0
 11
29.2253185462
 21
27.7009119722
 31
0.0
  0
LINE
  5
2EB
330
1F
100
AcDbEntity
  8
0
  6
Continuous
 62
     7
370
    25
100
AcDbLine
 10
29.2076829365
 20
27.7333497351
 30
0.0
 11
29.2041474026
 21
27.7313087148
 31
0.0
  0
LINE
  5
2EC
330
1F
100
AcDbEntity
  8
0
  6
Continuous
 62
     7
370
    25
100
AcDbLine
 10
29.2082748928
 20
27.6931197264
 30
0.0
 11
29.2047393589
 21
27.6910787061
 31
0.0
  0
LINE
  5
2ED
330
1F
100
AcDbEntity
  8
0
  6
Continuous
 62
     7
370
    25
100
AcDbLine
 10
29.0321046315
 20
27.8179090118
 30
0.0
 11
29.0321046315
 21
27.8158679916
 31
0.0
  0
LINE
  5
2EE
330
1F
100
AcDbEntity
  8
0
  6
Continuous
 62
     7
370
    25
100
AcDbLine
 10
28.9887943411
 20
27.8109031104
 30
0.0
 11
29.0321046315
 21
27.8179090118
 31
0.0
  0
LINE
  5
2EF
330
1F
100
AcDbEntity
  8
0
  6
Continuous
 62
     7
370
    25
100
AcDbLine
 10
29.0321046315
 20
27.9492087744
 30
0.0
 11
29.0313244487
 21
27.9467173642
 31
0.0
  0
LINE
  5
2F0
330
1F
100
AcDbEntity
  8
0
  6
Continuous
 62
     7
370
    25
100
AcDbLine
 10
29.0306794574
 20
27.94465767
 30
0.0
 11
28.9887943411
 21
27.8109031104
 31
0.0
  0
LINE
  5
2F1
330
1F
100
AcDbEntity
  8
0
  6
Continuous
 62
     7
370
    25
100
AcDbLine
 10
29.0338723984
 20
27.8168885017
 30
0.0
 11
29.0714387644
 21
27.7674385384
 31
0.0
  0
LINE
  5
2F2
330
1F
100
AcDbEntity
  8
0
  6
Continuous
 62
     7
370
    25
100
AcDbLine
 10
28.9887943411
 20
27.8109031104
 30
0.0
 11
28.9852588072
 21
27.8088620902
 31
0.0
  0
LINE
  5
2F3
330
1F
100
AcDbEntity
  8
0
  6
Continuous
 62
     7
370
    25
100
AcDbLine
 10
29.0303368645
 20
27.8148474814
 30
0.0
 11
29.0338723984
 21
27.8168885017
 31
0.0
  0
LINE
  5
2F4
330
1F
100
AcDbEntity
  8
0
  6
Continuous
 62
     7
370
    25
100
AcDbLine
 10
29.0321046315
 20
27.8179090118
 30
0.0
 11
29.0285690976
 21
27.8158679916
 31
0.0
  0
LINE
  5
2F5
330
1F
100
AcDbEntity
  8
0
  6
Continuous
 62
     7
370
    25
100
AcDbLine
 10
29.0303368645
 20
26.8254446479
 30
0.0
 11
29.0285690976
 21
26.8244241378
 31
0.0
  0
LWPOLYLINE
  5
2F6
330
1F
100
AcDbEntity
  8
0
  6
Continuous
 62
     7
370
    25
100
AcDbPolyline
 90
       27
 70
   128
 43
0.0
 10
30.9405858339
 20
14.8809021845
 10
30.841112818
 20
14.8292890918
 10
30.7327000413
 20
14.7840722531
 10
30.6165758641
 20
14.7457639933
 10
30.4940560196
 20
14.7147983603
 10
30.3665287067
 20
14.6915262071
 10
30.2354388607
 20
14.6762112164
 10
30.102271782
 20
14.6690269133
 10
29.9685363068
 20
14.6700546987
 10
29.8357477115
 20
14.6792829275
 10
29.7054105438
 20
14.6966070401
 10
29.5790015761
 20
14.7218307474
 10
29.4579530724
 20
14.7546682548
 10
29.3436365606
 20
14.7947475
 10
29.2373472925
 20
14.8416143694
 10
29.140289568
 20
14.8947378425
 10
29.0535630898
 20
14.9535160091
 10
28.9781505037
 20
15.0172828891
 10
28.9149062643
 20
15.0853159784
 10
28.8645469542
 20
15.1568444347
 10
28.8276431644
 20
15.2310578122
 10
28.8046130297
 20
15.3071152436
 10
28.7957174907
 20
15.3841549678
 10
28.8010573373
 20
15.4613040939
 10
28.8205720671
 20
15.5376884916
 10
28.8540405702
 20
15.612442695
 10
28.8646061633
 20
15.6308755914
  0
LWPOLYLINE
  5
2F7
330
1F
100
AcDbEntity
  8
0
  6
Continuous
 62
     7
370
    25
100
AcDbPolyline
 90
       12
 70
   128
 43
0.0
 10
31.2396061633
 20
15.6308755914
 10
31.2598289782
 20
15.5939537017
 10
31.289838473
 20
15.5187116564
 10
31.3058239662
 20
15.442054432
 10
31.3076043357
 20
15.3648505855
 10
31.2951594092
 20
15.2879748673
 10
31.2686301928
 20
15.21229831
 10
31.228317273
 20
15.1386783593
 10
31.1746774114
 20
15.0679491586
 10
31.1083183689
 20
15.0009120981
 10
31.0299920202
 20
14.9383267343
 10
30.9405858339
 20
14.8809021845
  0
LWPOLYLINE
  5
2F8
330
1F
100
AcDbEntity
  8
0
  6
Continuous
 62
     7
370
    25
100
AcDbPolyline
 90
        9
 70
   128
 43
0.0
 10
31.0022809006
 20
13.9011610669
 10
31.093533445
 20
13.95946864
 10
31.1740995363
 20
14.0228064992
 10
31.2431524573
 20
14.0905247121
 10
31.2999836315
 20
14.1619283984
 10
31.3440098943
 20
14.2362848596
 10
31.3747794766
 20
14.3128310976
 10
31.3919766408
 20
14.3907816447
 10
31.3958561633
 20
14.449685267
  0
LWPOLYLINE
  5
2F9
330
1F
100
AcDbEntity
  8
0
  6
Continuous
 62
     7
370
    25
100
AcDbPolyline
 90
       25
 70
   128
 43
0.0
 10
28.7083746623
 20
14.4456148511
 10
28.7087874059
 20
14.4300339113
 10
28.7191233942
 20
14.3516805829
 10
28.7431375895
 20
14.2743329151
 10
28.7805835737
 20
14.1987845998
 10
28.8310771002
 20
14.1258108648
 10
28.8941000373
 20
14.0561605195
 10
28.9690056843
 20
13.9905482706
 10
29.0550254079
 20
13.9296473886
 10
29.1512765293
 20
13.8740827989
 10
29.2567713817
 20
13.8244246695
 10
29.3704274453
 20
13.7811825599
 10
29.491078455
 20
13.7448001928
 10
29.6174863681
 20
13.7156509003
 10
29.7483540685
 20
13.6940337938
 10
29.8823386764
 20
13.6801706939
 10
30.0180653285
 20
13.6742038549
 10
30.1541412856
 20
13.6761945046
 10
30.2891702243
 20
13.6861222162
 10
30.4217665649
 20
13.7038851179
 10
30.5505696895
 20
13.7293009384
 10
30.6742579039
 20
13.762108877
 10
30.7915619994
 20
13.8019722797
 10
30.9012782775
 20
13.8484820942
 10
31.0022809006
 20
13.9011610669
  0
LWPOLYLINE
  5
2FA
330
1F
100
AcDbEntity
  8
0
  6
Continuous
 62
     7
370
    25
100
AcDbPolyline
 90
        3
 70
   128
 43
0.0
 10
31.2486061633
 20
15.344818132
 10
31.2446591367
 20
15.4008764722
 10
31.2396061633
 20
15.4293784668
  0
LWPOLYLINE
  5
2FB
330
1F
100
AcDbEntity
  8
0
  6
Continuous
 62
     7
370
    25
100
AcDbPolyline
 90
        3
 70
   128
 43
0.0
 10
28.8646061633
 20
15.4293784668
 10
28.8560449364
 20
15.3635225332
 10
28.8556168188
 20
15.3477332041
  0
LINE
  5
2FC
330
1F
100
AcDbEntity
  8
0
  6
Continuous
 62
     7
370
    25
100
AcDbLine
 10
29.3447482359
 20
21.77847728
 30
0.0
 11
29.3468874388
 21
21.8125146901
 31
0.0
  0
LINE
  5
2FD
330
1F
100
AcDbEntity
  8
0
  6
Continuous
 62
     7
370
    25
100
AcDbLine
 10
30.8677838632
 20
21.8642654204
 30
0.0
 11
30.8703855939
 21
21.8232447249
 31
0.0
  0
LINE
  5
2FE
330
1F
100
AcDbEntity
  8
0
  6
Continuous
 62
     7
370
    25
100
AcDbLine
 10
28.8536115966
 20
22.1547241318
 30
0.0
 11
28.8591774966
 21
22.2664004531
 31
0.0
  0
SPLINE
  5
2FF
330
1F
100
AcDbEntity
  8
0
  6
Continuous
 62
     7
370
    25
100
AcDbSpline
210
0.0
220
0.0
230
1.0
 70
     8
 71
     3
 72
     9
 73
     5
 74
     0
 42
0.00000001
 43
0.00000001
 40
0.0
 40
0.0
 40
0.0
 40
0.0
 40
0.5884699700931008
 40
1.0
 40
1.0
 40
1.0
 40
1.0
 10
31.25975281074491
 20
22.34808354710026
 30
0.0
 10
31.26117869037631
 20
22.31633179541618
 30
0.0
 10
31.26360171908443
 20
22.26237534343435
 30
0.0
 10
31.26600453650552
 20
22.20841331356216
 30
0.0
 10
31.26699336803068
 20
22.18620631779502
 30
0.0
  0
LINE
  5
300
330
1F
100
AcDbEntity
  8
0
  6
Continuous
 62
     7
370
    25
100
AcDbLine
 10
31.291268069
 20
22.521205699
 30
0.0
 11
31.2906481414
 21
22.53331536
 31
0.0
  0
ENDSEC
  0
SECTION
  2
OBJECTS
  0
DICTIONARY
  5
C
330
0
100
AcDbDictionary
281
     1
  3
ACAD_GROUP
350
D
  3
ACAD_LAYOUT
350
1A
  3
ACAD_MLINESTYLE
350
17
  3
ACAD_PLOTSETTINGS
350
19
  3
ACAD_PLOTSTYLENAME
350
E
  3
ACAD_SCALELIST
350
47
  3
DWGPROPS
350
301
  0
DICTIONARY
  5
D
102
{ACAD_REACTORS
330
C
102
}
330
C
100
AcDbDictionary
281
     1
  0
DICTIONARY
  5
1A
102
{ACAD_REACTORS
330
C
102
}
330
C
100
AcDbDictionary
281
     1
  3
Layout1
350
1E
  3
Layout2
350
26
  3
Model
350
22
  0
DICTIONARY
  5
17
102
{ACAD_REACTORS
330
C
102
}
330
C
100
AcDbDictionary
281
     1
  3
Standard
350
18
  0
DICTIONARY
  5
19
102
{ACAD_REACTORS
330
C
102
}
330
C
100
AcDbDictionary
281
     1
  0
ACDBDICTIONARYWDFLT
  5
E
102
{ACAD_REACTORS
330
C
102
}
330
C
100
AcDbDictionary
281
     1
  3
Normal
350
F
100
AcDbDictionaryWithDefault
340
F
  0
DICTIONARY
  5
47
102
{ACAD_REACTORS
330
C
102
}
330
C
100
AcDbDictionary
281
     1
  3
A0
350
48
  3
A1
350
49
  3
A2
350
4A
  3
A3
350
4B
  3
A4
350
4C
  3
A5
350
4D
  3
A6
350
4E
  3
A7
350
4F
  3
A8
350
50
  3
A9
350
51
  3
B1
350
52
  3
B2
350
53
  3
B3
350
54
  3
B4
350
55
  3
B5
350
56
  3
B6
350
57
  3
B7
350
58
  0
XRECORD
  5
301
102
{ACAD_REACTORS
330
C
102
}
330
C
100
AcDbXrecord
280
     1
  1
DWGPROPS COOKIE
  2

  3

  4

  6

  7

  8
shawnd
  9

300
=
301
=
302
=
303
=
304
=
305
=
306
=
307
=
308
=
309
=
 40
0.0
 41
2460887.769607454
 42
2460887.76960809
  1

 90
        0
  0
LAYOUT
  5
1E
102
{ACAD_REACTORS
330
1A
102
}
330
1A
100
AcDbPlotSettings
  1

  2
none_device
  4

  6

 40
0.0
 41
0.0
 42
0.0
 43
0.0
 44
0.0
 45
0.0
 46
0.0
 47
0.0
 48
0.0
 49
0.0
140
0.0
141
0.0
142
1.0
143
1.0
 70
   688
 72
     0
 73
     0
 74
     5
  7

 75
    16
147
1.0
148
0.0
149
0.0
100
AcDbLayout
  1
Layout1
 70
     1
 71
     1
 10
0.0
 20
0.0
 11
12.0
 21
9.0
 12
0.0
 22
0.0
 32
0.0
 14
1.0000000000E+20
 24
1.0000000000E+20
 34
1.0000000000E+20
 15
-1.0000000000E+20
 25
-1.0000000000E+20
 35
-1.0000000000E+20
146
0.0
 13
0.0
 23
0.0
 33
0.0
 16
1.0
 26
0.0
 36
0.0
 17
0.0
 27
1.0
 37
0.0
 76
     0
330
1B
  0
LAYOUT
  5
26
102
{ACAD_REACTORS
330
1A
102
}
330
1A
100
AcDbPlotSettings
  1

  2
none_device
  4

  6

 40
0.0
 41
0.0
 42
0.0
 43
0.0
 44
0.0
 45
0.0
 46
0.0
 47
0.0
 48
0.0
 49
0.0
140
0.0
141
0.0
142
1.0
143
1.0
 70
   688
 72
     0
 73
     0
 74
     5
  7

 75
    16
147
1.0
148
0.0
149
0.0
100
AcDbLayout
  1
Layout2
 70
     1
 71
     2
 10
0.0
 20
0.0
 11
0.0
 21
0.0
 12
0.0
 22
0.0
 32
0.0
 14
0.0
 24
0.0
 34
0.0
 15
0.0
 25
0.0
 35
0.0
146
0.0
 13
0.0
 23
0.0
 33
0.0
 16
1.0
 26
0.0
 36
0.0
 17
0.0
 27
1.0
 37
0.0
 76
     0
330
23
  0
LAYOUT
  5
22
102
{ACAD_REACTORS
330
1A
102
}
330
1A
100
AcDbPlotSettings
  1

  2
none_device
  4
Letter_(8.50_x_11.00_Inches)
  6

 40
6.35
 41
6.35
 42
6.35000508
 43
6.35000508
 44
215.9
 45
279.4
 46
0.0
 47
0.0
 48
0.0
 49
0.0
140
0.0
141
0.0
142
1.0
143
1.0
 70
  1712
 72
     0
 73
     0
 74
     0
  7

 75
     0
147
1.0
148
0.0
149
0.0
100
AcDbLayout
  1
Model
 70
     1
 71
     0
 10
0.0
 20
0.0
 11
44.0
 21
34.0
 12
0.0
 22
0.0
 32
0.0
 14
0.0
 24
0.0
 34
0.0
 15
44.0
 25
34.0
 35
0.0
146
0.0
 13
0.0
 23
0.0
 33
0.0
 16
1.0
 26
0.0
 36
0.0
 17
0.0
 27
1.0
 37
0.0
 76
     0
330
1F
331
29
  0
MLINESTYLE
  5
18
102
{ACAD_REACTORS
330
17
102
}
330
17
100
AcDbMlineStyle
  2
Standard
 70
     0
  3

 62
   256
 51
90.0
 52
90.0
 71
     2
 49
0.5
 62
   256
  6
BYLAYER
 49
-0.5
 62
   256
  6
BYLAYER
  0
ACDBPLACEHOLDER
  5
F
102
{ACAD_REACTORS
330
E
102
}
330
E
  0
SCALE
  5
48
102
{ACAD_REACTORS
330
47
102
}
330
47
100
AcDbScale
 70
     0
300
1:1
140
1.0
141
1.0
290
     1
  0
SCALE
  5
49
102
{ACAD_REACTORS
330
47
102
}
330
47
100
AcDbScale
 70
     0
300
1/128" = 1'-0"
140
0.0078125
141
12.0
290
     0
  0
SCALE
  5
4A
102
{ACAD_REACTORS
330
47
102
}
330
47
100
AcDbScale
 70
     0
300
1/64" = 1'-0"
140
0.015625
141
12.0
290
     0
  0
SCALE
  5
4B
102
{ACAD_REACTORS
330
47
102
}
330
47
100
AcDbScale
 70
     0
300
1/32" = 1'-0"
140
0.03125
141
12.0
290
     0
  0
SCALE
  5
4C
102
{ACAD_REACTORS
330
47
102
}
330
47
100
AcDbScale
 70
     0
300
1/16" = 1'-0"
140
0.0625
141
12.0
290
     0
  0
SCALE
  5
4D
102
{ACAD_REACTORS
330
47
102
}
330
47
100
AcDbScale
 70
     0
300
3/32" = 1'-0"
140
0.09375
141
12.0
290
     0
  0
SCALE
  5
4E
102
{ACAD_REACTORS
330
47
102
}
330
47
100
AcDbScale
 70
     0
300
1/8" = 1'-0"
140
0.125
141
12.0
290
     0
  0
SCALE
  5
4F
102
{ACAD_REACTORS
330
47
102
}
330
47
100
AcDbScale
 70
     0
300
3/16" = 1'-0"
140
0.1875
141
12.0
290
     0
  0
SCALE
  5
50
102
{ACAD_REACTORS
330
47
102
}
330
47
100
AcDbScale
 70
     0
300
1/4" = 1'-0"
140
0.25
141
12.0
290
     0
  0
SCALE
  5
51
102
{ACAD_REACTORS
330
47
102
}
330
47
100
AcDbScale
 70
     0
300
3/8" = 1'-0"
140
0.375
141
12.0
290
     0
  0
SCALE
  5
52
102
{ACAD_REACTORS
330
47
102
}
330
47
100
AcDbScale
 70
     0
300
1/2" = 1'-0"
140
0.5
141
12.0
290
     0
  0
SCALE
  5
53
102
{ACAD_REACTORS
330
47
102
}
330
47
100
AcDbScale
 70
     0
300
3/4" = 1'-0"
140
0.75
141
12.0
290
     0
  0
SCALE
  5
54
102
{ACAD_REACTORS
330
47
102
}
330
47
100
AcDbScale
 70
     0
300
1" = 1'-0"
140
1.0
141
12.0
290
     0
  0
SCALE
  5
55
102
{ACAD_REACTORS
330
47
102
}
330
47
100
AcDbScale
 70
     0
300
1-1/2" = 1'-0"
140
1.5
141
12.0
290
     0
  0
SCALE
  5
56
102
{ACAD_REACTORS
330
47
102
}
330
47
100
AcDbScale
 70
     0
300
3" = 1'-0"
140
3.0
141
12.0
290
     0
  0
SCALE
  5
57
102
{ACAD_REACTORS
330
47
102
}
330
47
100
AcDbScale
 70
     0
300
6" = 1'-0"
140
6.0
141
12.0
290
     0
  0
SCALE
  5
58
102
{ACAD_REACTORS
330
47
102
}
330
47
100
AcDbScale
 70
     0
300
1'-0" = 1'-0"
140
12.0
141
12.0
290
     0
  0
ENDSEC
  0
EOF
