  0
SECTION
  2
HEADER
  9
$ACADVER
  1
AC1015
  9
$ACADMAINTVER
 70
     6
  9
$DWGCODEPAGE
  3
ANSI_1252
  9
$INSBASE
 10
0.0
 20
0.0
 30
0.0
  9
$EXTMIN
 10
0.0
 20
0.0
 30
0.0
  9
$EXTMAX
 10
33.0
 20
25.5
 30
0.0
  9
$LIMMIN
 10
0.0
 20
0.0
  9
$LIMMAX
 10
33.0
 20
25.5
  9
$ORTHOMODE
 70
     0
  9
$REGENMODE
 70
     1
  9
$FILLMODE
 70
     1
  9
$QTEXTMODE
 70
     0
  9
$MIRRTEXT
 70
     1
  9
$LTSCALE
 40
3.0
  9
$ATTMODE
 70
     1
  9
$TEXTSIZE
 40
0.375
  9
$TRACEWID
 40
0.05
  9
$TEXTSTYLE
  7
Standard
  9
$CLAYER
  8
0
  9
$CELTYPE
  6
ByLayer
  9
$CECOLOR
 62
   256
  9
$CELTSCALE
 40
1.0
  9
$DISPSILH
 70
     0
  9
$DIMSCALE
 40
1.0
  9
$DIMASZ
 40
0.39
  9
$DIMEXO
 40
0.15
  9
$DIMDLI
 40
0.38
  9
$DIMRND
 40
0.0
  9
$DIMDLE
 40
0.0
  9
$DIMEXE
 40
0.375
  9
$DIMTP
 40
0.0
  9
$DIMTM
 40
0.0
  9
$DIMTXT
 40
0.375
  9
$DIMCEN
 40
0.09
  9
$DIMTSZ
 40
0.0
  9
$DIMTOL
 70
     0
  9
$DIMLIM
 70
     0
  9
$DIMTIH
 70
     1
  9
$DIMTOH
 70
     1
  9
$DIMSE1
 70
     0
  9
$DIMSE2
 70
     0
  9
$DIMTAD
 70
     0
  9
$DIMZIN
 70
     1
  9
$DIMBLK
  1

  9
$DIMASO
 70
     1
  9
$DIMSHO
 70
     1
  9
$DIMPOST
  1

  9
$DIMAPOST
  1

  9
$DIMALT
 70
     0
  9
$DIMALTD
 70
     2
  9
$DIMALTF
 40
25.4
  9
$DIMLFAC
 40
1.0
  9
$DIMTOFL
 70
     0
  9
$DIMTVP
 40
0.0
  9
$DIMTIX
 70
     0
  9
$DIMSOXD
 70
     0
  9
$DIMSAH
 70
     0
  9
$DIMBLK1
  1

  9
$DIMBLK2
  1

  9
$DIMSTYLE
  2
Standard
  9
$DIMCLRD
 70
     0
  9
$DIMCLRE
 70
     0
  9
$DIMCLRT
 70
     0
  9
$DIMTFAC
 40
1.0
  9
$DIMGAP
 40
0.18
  9
$DIMJUST
 70
     0
  9
$DIMSD1
 70
     0
  9
$DIMSD2
 70
     0
  9
$DIMTOLJ
 70
     1
  9
$DIMTZIN
 70
     1
  9
$DIMALTZ
 70
     0
  9
$DIMALTTZ
 70
     0
  9
$DIMUPT
 70
     0
  9
$DIMDEC
 70
     0
  9
$DIMTDEC
 70
     0
  9
$DIMALTU
 70
     2
  9
$DIMALTTD
 70
     2
  9
$DIMTXSTY
  7
Standard
  9
$DIMAUNIT
 70
     0
  9
$DIMADEC
 70
     0
  9
$DIMALTRND
 40
0.0
  9
$DIMAZIN
 70
     0
  9
$DIMDSEP
 70
    46
  9
$DIMATFIT
 70
     3
  9
$DIMFRAC
 70
     0
  9
$DIMLDRBLK
  1

  9
$DIMLUNIT
 70
     2
  9
$DIMLWD
 70
    -2
  9
$DIMLWE
 70
    -2
  9
$DIMTMOVE
 70
     0
  9
$LUNITS
 70
     2
  9
$LUPREC
 70
     6
  9
$SKETCHINC
 40
0.1
  9
$FILLETRAD
 40
0.0
  9
$AUNITS
 70
     0
  9
$AUPREC
 70
     2
  9
$MENU
  1
.
  9
$ELEVATION
 40
0.0
  9
$PELEVATION
 40
0.0
  9
$THICKNESS
 40
0.0
  9
$LIMCHECK
 70
     0
  9
$CHAMFERA
 40
0.0
  9
$CHAMFERB
 40
0.0
  9
$CHAMFERC
 40
0.0
  9
$CHAMFERD
 40
0.0
  9
$SKPOLY
 70
     0
  9
$TDCREATE
 40
2460509.148457836
  9
$TDUCREATE
 40
2460509.440124503
  9
$TDUPDATE
 40
2460509.148458958
  9
$TDUUPDATE
 40
2460509.440125625
  9
$TDINDWG
 40
0.0000000116
  9
$TDUSRTIMER
 40
0.0000000116
  9
$USRTIMER
 70
     1
  9
$ANGBASE
 50
0.0
  9
$ANGDIR
 70
     0
  9
$PDMODE
 70
     0
  9
$PDSIZE
 40
-1.0
  9
$PLINEWID
 40
0.0
  9
$SPLFRAME
 70
     0
  9
$SPLINETYPE
 70
     6
  9
$SPLINESEGS
 70
     8
  9
$HANDSEED
  5
38B
  9
$SURFTAB1
 70
     6
  9
$SURFTAB2
 70
     6
  9
$SURFTYPE
 70
     6
  9
$SURFU
 70
     6
  9
$SURFV
 70
     6
  9
$UCSBASE
  2

  9
$UCSNAME
  2

  9
$UCSORG
 10
0.0
 20
0.0
 30
0.0
  9
$UCSXDIR
 10
1.0
 20
0.0
 30
0.0
  9
$UCSYDIR
 10
0.0
 20
1.0
 30
0.0
  9
$UCSORTHOREF
  2

  9
$UCSORTHOVIEW
 70
     0
  9
$UCSORGTOP
 10
0.0
 20
0.0
 30
0.0
  9
$UCSORGBOTTOM
 10
0.0
 20
0.0
 30
0.0
  9
$UCSORGLEFT
 10
0.0
 20
0.0
 30
0.0
  9
$UCSORGRIGHT
 10
0.0
 20
0.0
 30
0.0
  9
$UCSORGFRONT
 10
0.0
 20
0.0
 30
0.0
  9
$UCSORGBACK
 10
0.0
 20
0.0
 30
0.0
  9
$PUCSBASE
  2

  9
$PUCSNAME
  2

  9
$PUCSORG
 10
0.0
 20
0.0
 30
0.0
  9
$PUCSXDIR
 10
1.0
 20
0.0
 30
0.0
  9
$PUCSYDIR
 10
0.0
 20
1.0
 30
0.0
  9
$PUCSORTHOREF
  2

  9
$PUCSORTHOVIEW
 70
     0
  9
$PUCSORGTOP
 10
0.0
 20
0.0
 30
0.0
  9
$PUCSORGBOTTOM
 10
0.0
 20
0.0
 30
0.0
  9
$PUCSORGLEFT
 10
0.0
 20
0.0
 30
0.0
  9
$PUCSORGRIGHT
 10
0.0
 20
0.0
 30
0.0
  9
$PUCSORGFRONT
 10
0.0
 20
0.0
 30
0.0
  9
$PUCSORGBACK
 10
0.0
 20
0.0
 30
0.0
  9
$USERI1
 70
     0
  9
$USERI2
 70
     0
  9
$USERI3
 70
     0
  9
$USERI4
 70
     0
  9
$USERI5
 70
     0
  9
$USERR1
 40
0.0
  9
$USERR2
 40
0.0
  9
$USERR3
 40
0.0
  9
$USERR4
 40
0.0
  9
$USERR5
 40
0.0
  9
$WORLDVIEW
 70
     1
  9
$SHADEDGE
 70
     3
  9
$SHADEDIF
 70
    70
  9
$TILEMODE
 70
     1
  9
$MAXACTVP
 70
    64
  9
$PINSBASE
 10
0.0
 20
0.0
 30
0.0
  9
$PLIMCHECK
 70
     0
  9
$PEXTMIN
 10
1.0000000000E+20
 20
1.0000000000E+20
 30
1.0000000000E+20
  9
$PEXTMAX
 10
-1.0000000000E+20
 20
-1.0000000000E+20
 30
-1.0000000000E+20
  9
$PLIMMIN
 10
0.0
 20
0.0
  9
$PLIMMAX
 10
12.0
 20
9.0
  9
$UNITMODE
 70
     0
  9
$VISRETAIN
 70
     1
  9
$PLINEGEN
 70
     0
  9
$PSLTSCALE
 70
     1
  9
$TREEDEPTH
 70
  3020
  9
$CMLSTYLE
  2
Standard
  9
$CMLJUST
 70
     0
  9
$CMLSCALE
 40
1.0
  9
$PROXYGRAPHICS
 70
     1
  9
$MEASUREMENT
 70
     0
  9
$CELWEIGHT
370
    -1
  9
$ENDCAPS
280
     0
  9
$JOINSTYLE
280
     0
  9
$LWDISPLAY
290
     1
  9
$INSUNITS
 70
     1
  9
$HYPERLINKBASE
  1

  9
$STYLESHEET
  1

  9
$XEDIT
290
     1
  9
$CEPSNTYPE
380
     0
  9
$PSTYLEMODE
290
     1
  9
$FINGERPRINTGUID
  2
{ed86cd8a-3a52-4e26-a524-c692073af7c8}
  9
$VERSIONGUID
  2
{FAEB1C32-E019-11D5-929B-00C0DF256EC4}
  9
$EXTNAMES
290
     1
  9
$PSVPSCALE
 40
0.0
  9
$OLESTARTUP
290
     0
  0
ENDSEC
  0
SECTION
  2
CLASSES
  0
CLASS
  1
ACDBDICTIONARYWDFLT
  2
AcDbDictionaryWithDefault
  3
ObjectDBX Classes
 90
        0
280
     0
281
     0
  0
CLASS
  1
VISUALSTYLE
  2
AcDbVisualStyle
  3
ObjectDBX Classes
 90
     4095
280
     0
281
     0
  0
CLASS
  1
MATERIAL
  2
AcDbMaterial
  3
ObjectDBX Classes
 90
     1153
280
     0
281
     0
  0
CLASS
  1
SCALE
  2
AcDbScale
  3
ObjectDBX Classes
 90
     1153
280
     0
281
     0
  0
CLASS
  1
TABLESTYLE
  2
AcDbTableStyle
  3
ObjectDBX Classes
 90
     4095
280
     0
281
     0
  0
CLASS
  1
MLEADERSTYLE
  2
AcDbMLeaderStyle
  3
ACDB_MLEADERSTYLE_CLASS
 90
     4095
280
     0
281
     0
  0
CLASS
  1
SUN
  2
AcDbSun
  3
SCENEOE
 90
     1153
280
     0
281
     0
  0
CLASS
  1
ACDBPLACEHOLDER
  2
AcDbPlaceHolder
  3
ObjectDBX Classes
 90
        0
280
     0
281
     0
  0
CLASS
  1
LAYOUT
  2
AcDbLayout
  3
ObjectDBX Classes
 90
        0
280
     0
281
     0
  0
ENDSEC
  0
SECTION
  2
TABLES
  0
TABLE
  2
VPORT
  5
8
330
0
100
AcDbSymbolTable
 70
     1
  0
VPORT
  5
29
330
8
100
AcDbSymbolTableRecord
100
AcDbViewportTableRecord
  2
*Active
 70
     0
 10
0.0
 20
0.0
 11
1.0
 21
1.0
 12
16.5
 22
12.75
 13
0.0
 23
0.0
 14
0.5
 24
0.5
 15
0.5
 25
0.5
 16
0.0
 26
0.0
 36
1.0
 17
0.0
 27
0.0
 37
0.0
 40
25.5
 41
1.2941176471
 42
50.0
 43
0.0
 44
0.0
 50
0.0
 51
0.0
 71
     0
 72
  2000
 73
     1
 74
     3
 75
     0
 76
     0
 77
     0
 78
     0
281
     0
 65
     1
110
0.0
120
0.0
130
0.0
111
1.0
121
0.0
131
0.0
112
0.0
122
1.0
132
0.0
 79
     0
146
0.0
  0
ENDTAB
  0
TABLE
  2
LTYPE
  5
5
330
0
100
AcDbSymbolTable
 70
     6
  0
LTYPE
  5
14
330
5
100
AcDbSymbolTableRecord
100
AcDbLinetypeTableRecord
  2
ByBlock
 70
     0
  3

 72
    65
 73
     0
 40
0.0
  0
LTYPE
  5
15
330
5
100
AcDbSymbolTableRecord
100
AcDbLinetypeTableRecord
  2
ByLayer
 70
     0
  3

 72
    65
 73
     0
 40
0.0
  0
LTYPE
  5
16
330
5
100
AcDbSymbolTableRecord
100
AcDbLinetypeTableRecord
  2
Continuous
 70
     0
  3
Solid line
 72
    65
 73
     0
 40
0.0
  0
LTYPE
  5
5E
330
5
100
AcDbSymbolTableRecord
100
AcDbLinetypeTableRecord
  2
HIDDEN
 70
     0
  3
Hidden __ __ __ __ __ __ __ __ __ __ __ __ __ __
 72
    65
 73
     2
 40
0.075
 49
0.05
 74
     0
 49
-0.025
 74
     0
  0
LTYPE
  5
5F
330
5
100
AcDbSymbolTableRecord
100
AcDbLinetypeTableRecord
  2
PHANTOM
 70
     0
  3
Phantom ______  __  __  ______  __  __  ______
 72
    65
 73
     6
 40
0.5
 49
0.25
 74
     0
 49
-0.05
 74
     0
 49
0.05
 74
     0
 49
-0.05
 74
     0
 49
0.05
 74
     0
 49
-0.05
 74
     0
  0
LTYPE
  5
60
330
5
100
AcDbSymbolTableRecord
100
AcDbLinetypeTableRecord
  2
CENTER
 70
     0
  3
Center ____ _ ____ _ ____ _ ____ _ ____ _ ____
 72
    65
 73
     4
 40
0.4
 49
0.25
 74
     0
 49
-0.05
 74
     0
 49
0.05
 74
     0
 49
-0.05
 74
     0
  0
LTYPE
  5
61
330
5
100
AcDbSymbolTableRecord
100
AcDbLinetypeTableRecord
  2
CENTERX2
 70
     0
  3
Center (2x) ________  __  ________  __  _____
 72
    65
 73
     4
 40
0.8
 49
0.5
 74
     0
 49
-0.1
 74
     0
 49
0.1
 74
     0
 49
-0.1
 74
     0
  0
LTYPE
  5
62
330
5
100
AcDbSymbolTableRecord
100
AcDbLinetypeTableRecord
  2
DOT2
 70
     0
  3
Dot (.5x) ........................................
 72
    65
 73
     2
 40
0.025
 49
0.0
 74
     0
 49
-0.025
 74
     0
  0
ENDTAB
  0
TABLE
  2
LAYER
  5
2
330
0
100
AcDbSymbolTable
 70
    12
  0
LAYER
  5
10
330
2
100
AcDbSymbolTableRecord
100
AcDbLayerTableRecord
  2
0
 70
     0
 62
     7
  6
Continuous
370
    -3
390
F
  0
LAYER
  5
63
330
2
100
AcDbSymbolTableRecord
100
AcDbLayerTableRecord
  2
SLD-0
 70
     0
 62
     7
  6
Continuous
370
    -3
390
F
  0
LAYER
  5
64
330
2
100
AcDbSymbolTableRecord
100
AcDbLayerTableRecord
  2
DIM
 70
     0
 62
     7
  6
Continuous
370
    -3
390
F
  0
LAYER
  5
65
330
2
100
AcDbSymbolTableRecord
100
AcDbLayerTableRecord
  2
CEN
 70
     0
 62
     1
  6
CENTER
370
    -3
390
F
  0
LAYER
  5
66
330
2
100
AcDbSymbolTableRecord
100
AcDbLayerTableRecord
  2
HAT
 70
     0
 62
     4
  6
Continuous
370
    -3
390
F
  0
LAYER
  5
67
330
2
100
AcDbSymbolTableRecord
100
AcDbLayerTableRecord
  2
OBJ
 70
     0
 62
     5
  6
Continuous
370
    -3
390
F
  0
LAYER
  5
68
330
2
100
AcDbSymbolTableRecord
100
AcDbLayerTableRecord
  2
SLD-DEFPOINTS
 70
     0
 62
     7
  6
Continuous
370
    -3
390
F
  0
LAYER
  5
69
330
2
100
AcDbSymbolTableRecord
100
AcDbLayerTableRecord
  2
HID
 70
     0
 62
     4
  6
HIDDEN
370
    -3
390
F
  0
LAYER
  5
6A
330
2
100
AcDbSymbolTableRecord
100
AcDbLayerTableRecord
  2
NOTE
 70
     0
 62
     7
  6
Continuous
370
    -3
390
F
  0
LAYER
  5
6B
330
2
100
AcDbSymbolTableRecord
100
AcDbLayerTableRecord
  2
VP
 70
     0
 62
    -5
  6
Continuous
290
     0
370
    -3
390
F
  0
LAYER
  5
6C
330
2
100
AcDbSymbolTableRecord
100
AcDbLayerTableRecord
  2
TITLE
 70
     0
 62
     7
  6
Continuous
370
    -3
390
F
  0
LAYER
  5
6D
330
2
100
AcDbSymbolTableRecord
100
AcDbLayerTableRecord
  2
THICK_TITLE
 70
     0
 62
     7
  6
Continuous
370
   100
390
F
  0
ENDTAB
  0
TABLE
  2
STYLE
  5
3
330
0
100
AcDbSymbolTable
 70
     2
  0
STYLE
  5
11
330
3
100
AcDbSymbolTableRecord
100
AcDbTextStyleTableRecord
  2
Standard
 70
     0
 40
0.0
 41
1.0
 50
0.0
 71
     0
 42
0.375
  3
txt
  4

  0
STYLE
  5
6E
330
3
100
AcDbSymbolTableRecord
100
AcDbTextStyleTableRecord
  2
SLDTEXTSTYLE0
 70
     0
 40
0.0
 41
0.75
 50
0.0
 71
     0
 42
0.375
  3
TXT
  4

  0
ENDTAB
  0
TABLE
  2
VIEW
  5
6
330
0
100
AcDbSymbolTable
 70
     0
  0
ENDTAB
  0
TABLE
  2
UCS
  5
7
330
0
100
AcDbSymbolTable
 70
     0
  0
ENDTAB
  0
TABLE
  2
APPID
  5
9
330
0
100
AcDbSymbolTable
 70
     1
  0
APPID
  5
12
330
9
100
AcDbSymbolTableRecord
100
AcDbRegAppTableRecord
  2
ACAD
 70
     0
  0
ENDTAB
  0
TABLE
  2
DIMSTYLE
  5
A
330
0
100
AcDbSymbolTable
 70
     6
100
AcDbDimStyleTable
  0
DIMSTYLE
105
27
330
A
100
AcDbSymbolTableRecord
100
AcDbDimStyleTableRecord
  2
Standard
 70
     0
178
     0
340
11
  0
DIMSTYLE
105
B6
102
{ACAD_REACTORS
330
B5
330
2C0
102
}
330
A
100
AcDbSymbolTableRecord
100
AcDbDimStyleTableRecord
  2
SLDDIMSTYLE0
 70
     0
 41
0.39
 44
0.0
 45
0.000000001
 78
    12
 79
     3
140
0.375
147
0.09375
148
0.000000001
170
     1
172
     1
173
     1
178
     0
271
     0
272
     0
276
     2
277
     5
284
    12
289
     0
340
6E
  0
DIMSTYLE
105
CA
102
{ACAD_REACTORS
330
C9
102
}
330
A
100
AcDbSymbolTableRecord
100
AcDbDimStyleTableRecord
  2
SLDDIMSTYLE1
 70
     0
 41
0.39
 44
0.0
 45
0.000000001
 78
    12
 79
     3
140
0.375
147
0.09375
148
0.000000001
170
     1
173
     1
178
     0
271
     6
272
     0
276
     2
277
     5
284
    12
340
6E
  0
DIMSTYLE
105
2D5
102
{ACAD_REACTORS
330
2D4
330
34D
330
366
102
}
330
A
100
AcDbSymbolTableRecord
100
AcDbDimStyleTableRecord
  2
SLDDIMSTYLE2
 70
     0
 41
0.39
 44
0.0
 45
0.000000001
 78
    12
 79
     3
140
0.375
147
0.09375
148
0.000000001
170
     1
172
     1
173
     1
178
     0
271
     6
272
     0
276
     2
277
     5
284
    12
289
     0
340
6E
  0
DIMSTYLE
105
2EA
102
{ACAD_REACTORS
330
2E9
102
}
330
A
100
AcDbSymbolTableRecord
100
AcDbDimStyleTableRecord
  2
SLDDIMSTYLE3
 70
     0
 41
0.39
 44
0.0
 45
0.000000001
 78
    12
 79
     3
140
0.375
147
0.09375
148
0.000000001
170
     1
173
     1
178
     0
271
     0
272
     0
276
     2
277
     5
284
    12
340
6E
  0
DIMSTYLE
105
32D
102
{ACAD_REACTORS
330
32C
330
379
102
}
330
A
100
AcDbSymbolTableRecord
100
AcDbDimStyleTableRecord
  2
SLDDIMSTYLE4
 70
     0
 41
0.39
 44
0.0
 45
0.000000001
 78
    12
 79
     3
140
0.375
141
0.0
147
0.09375
148
0.000000001
170
     1
173
     1
178
     0
271
     0
272
     0
276
     2
277
     5
284
    12
340
6E
  0
ENDTAB
  0
TABLE
  2
BLOCK_RECORD
  5
1
330
0
100
AcDbSymbolTable
 70
    10
  0
BLOCK_RECORD
  5
1F
330
1
100
AcDbSymbolTableRecord
100
AcDbBlockTableRecord
  2
*Model_Space
340
22
  0
BLOCK_RECORD
  5
1B
330
1
100
AcDbSymbolTableRecord
100
AcDbBlockTableRecord
  2
*Paper_Space
340
1E
  0
BLOCK_RECORD
  5
23
330
1
100
AcDbSymbolTableRecord
100
AcDbBlockTableRecord
  2
*Paper_Space0
340
26
  0
BLOCK_RECORD
  5
B7
330
1
100
AcDbSymbolTableRecord
100
AcDbBlockTableRecord
  2
_D
340
0
  0
BLOCK_RECORD
  5
CB
330
1
100
AcDbSymbolTableRecord
100
AcDbBlockTableRecord
  2
_D_1
340
0
  0
BLOCK_RECORD
  5
2C1
330
1
100
AcDbSymbolTableRecord
100
AcDbBlockTableRecord
  2
_D_2
340
0
  0
BLOCK_RECORD
  5
2D6
330
1
100
AcDbSymbolTableRecord
100
AcDbBlockTableRecord
  2
_D_3
340
0
  0
BLOCK_RECORD
  5
2EB
330
1
100
AcDbSymbolTableRecord
100
AcDbBlockTableRecord
  2
_D_4
340
0
  0
BLOCK_RECORD
  5
32E
330
1
100
AcDbSymbolTableRecord
100
AcDbBlockTableRecord
  2
_D_5
340
0
  0
BLOCK_RECORD
  5
34E
330
1
100
AcDbSymbolTableRecord
100
AcDbBlockTableRecord
  2
_D_6
340
0
  0
BLOCK_RECORD
  5
367
330
1
100
AcDbSymbolTableRecord
100
AcDbBlockTableRecord
  2
_D_7
340
0
  0
BLOCK_RECORD
  5
37A
330
1
100
AcDbSymbolTableRecord
100
AcDbBlockTableRecord
  2
_D_8
340
0
  0
ENDTAB
  0
ENDSEC
  0
SECTION
  2
BLOCKS
  0
BLOCK
  5
20
330
1F
100
AcDbEntity
  8
0
100
AcDbBlockBegin
  2
*Model_Space
 70
     0
 10
0.0
 20
0.0
 30
0.0
  3
*Model_Space
  1

  0
ENDBLK
  5
21
330
1F
100
AcDbEntity
  8
0
100
AcDbBlockEnd
  0
BLOCK
  5
1C
330
1B
100
AcDbEntity
 67
     1
  8
0
100
AcDbBlockBegin
  2
*Paper_Space
 70
     0
 10
0.0
 20
0.0
 30
0.0
  3
*Paper_Space
  1

  0
ENDBLK
  5
1D
330
1B
100
AcDbEntity
 67
     1
  8
0
100
AcDbBlockEnd
  0
BLOCK
  5
24
330
23
100
AcDbEntity
  8
0
100
AcDbBlockBegin
  2
*Paper_Space0
 70
     0
 10
0.0
 20
0.0
 30
0.0
  3
*Paper_Space0
  1

  0
ENDBLK
  5
25
330
23
100
AcDbEntity
  8
0
100
AcDbBlockEnd
  0
BLOCK
  5
B8
330
B7
100
AcDbEntity
  8
0
100
AcDbBlockBegin
  2
_D
 70
     0
 10
0.0
 20
0.0
 30
0.0
  3
_D
  1

  0
SOLID
  5
BA
330
B7
100
AcDbEntity
  8
0
  6
Continuous
 62
     7
370
    18
100
AcDbTrace
 10
15.5413249249
 20
11.5291789199
 30
0.0
 11
15.1513249249
 21
11.5891789199
 31
0.0
 12
15.1513249249
 22
11.4691789199
 32
0.0
 13
15.1513249249
 23
11.4691789199
 33
0.0
  0
SOLID
  5
BB
330
B7
100
AcDbEntity
  8
0
  6
Continuous
 62
     7
370
    18
100
AcDbTrace
 10
18.5113249249
 20
11.5291789199
 30
0.0
 11
18.9013249249
 21
11.4691789199
 31
0.0
 12
18.9013249249
 22
11.5891789199
 32
0.0
 13
18.9013249249
 23
11.5891789199
 33
0.0
  0
LINE
  5
BC
330
B7
100
AcDbEntity
  8
0
  6
Continuous
 62
     7
370
     0
100
AcDbLine
 10
16.2804916033
 20
11.5291788649
 30
0.0
 11
16.166233792
 21
11.5291788649
 31
0.0
  0
LINE
  5
BD
330
B7
100
AcDbEntity
  8
0
  6
Continuous
 62
     7
370
     0
100
AcDbLine
 10
16.166233792
 20
11.5291788649
 30
0.0
 11
16.166233792
 21
10.933866347
 31
0.0
  0
LINE
  5
BE
330
B7
100
AcDbEntity
  8
0
  6
Continuous
 62
     7
370
     0
100
AcDbLine
 10
16.166233792
 20
10.933866347
 30
0.0
 11
16.2804916033
 21
10.933866347
 31
0.0
  0
LINE
  5
BF
330
B7
100
AcDbEntity
  8
0
  6
Continuous
 62
     7
370
     0
100
AcDbLine
 10
17.7721583015
 20
11.5291788649
 30
0.0
 11
17.8864161128
 21
11.5291788649
 31
0.0
  0
LINE
  5
C0
330
B7
100
AcDbEntity
  8
0
  6
Continuous
 62
     7
370
     0
100
AcDbLine
 10
17.8864161128
 20
11.5291788649
 30
0.0
 11
17.8864161128
 21
10.933866347
 31
0.0
  0
LINE
  5
C1
330
B7
100
AcDbEntity
  8
0
  6
Continuous
 62
     7
370
     0
100
AcDbLine
 10
17.8864161128
 20
10.933866347
 30
0.0
 11
17.7721583015
 21
10.933866347
 31
0.0
  0
LINE
  5
C2
330
B7
100
AcDbEntity
  8
0
  6
Continuous
 62
     7
370
     0
100
AcDbLine
 10
15.5413249249
 20
12.5902812821
 30
0.0
 11
15.5413249249
 21
11.1541789199
 31
0.0
  0
LINE
  5
C3
330
B7
100
AcDbEntity
  8
0
  6
Continuous
 62
     7
370
     0
100
AcDbLine
 10
18.5113249249
 20
12.5902812821
 30
0.0
 11
18.5113249249
 21
11.1541789199
 31
0.0
  0
LINE
  5
C4
330
B7
100
AcDbEntity
  8
0
  6
Continuous
 62
     7
370
     0
100
AcDbLine
 10
15.5413249249
 20
11.5291789199
 30
0.0
 11
14.7913249249
 21
11.5291789199
 31
0.0
  0
LINE
  5
C5
330
B7
100
AcDbEntity
  8
0
  6
Continuous
 62
     7
370
     0
100
AcDbLine
 10
18.5113249249
 20
11.5291789199
 30
0.0
 11
19.2613249249
 21
11.5291789199
 31
0.0
  0
MTEXT
  5
C6
330
B7
100
AcDbEntity
  8
0
  6
Continuous
 62
     7
370
    18
100
AcDbMText
 10
16.5276660904
 20
12.0887511805
 30
0.0
 40
0.375
 41
0.0
 71
     1
 72
     1
  1
%%c
  7
SLDTEXTSTYLE0
 73
     1
 44
1.0
  0
MTEXT
  5
C7
330
B7
100
AcDbEntity
  8
0
  6
Continuous
 62
     7
370
    18
100
AcDbMText
 10
17.0932129522
 20
12.0887511805
 30
0.0
 40
0.375
 41
0.0
 71
     1
 72
     1
  1
3"
  7
SLDTEXTSTYLE0
 73
     1
 44
1.0
  0
MTEXT
  5
C8
330
B7
100
AcDbEntity
  8
0
  6
Continuous
 62
     7
370
    18
100
AcDbMText
 10
16.2804916033
 20
11.4172667907
 30
0.0
 40
0.375
 41
0.0
 71
     1
 72
     1
  1
75mm
  7
SLDTEXTSTYLE0
 73
     1
 44
1.0
  0
ENDBLK
  5
B9
330
B7
100
AcDbEntity
  8
0
100
AcDbBlockEnd
  0
BLOCK
  5
CC
330
CB
100
AcDbEntity
  8
0
100
AcDbBlockBegin
  2
_D_1
 70
     0
 10
0.0
 20
0.0
 30
0.0
  3
_D_1
  1

  0
SOLID
  5
CE
330
CB
100
AcDbEntity
  8
0
  6
Continuous
 62
     7
370
    18
100
AcDbTrace
 10
21.4795142326
 20
19.6482812821
 30
0.0
 11
21.4195142326
 21
19.2582812821
 31
0.0
 12
21.5395142326
 22
19.2582812821
 32
0.0
 13
21.5395142326
 23
19.2582812821
 33
0.0
  0
SOLID
  5
CF
330
CB
100
AcDbEntity
  8
0
  6
Continuous
 62
     7
370
    18
100
AcDbTrace
 10
21.4795142326
 20
12.7102812821
 30
0.0
 11
21.5395142326
 21
13.1002812821
 31
0.0
 12
21.4195142326
 22
13.1002812821
 32
0.0
 13
21.4195142326
 23
13.1002812821
 33
0.0
  0
LINE
  5
D0
330
CB
100
AcDbEntity
  8
0
  6
Continuous
 62
     7
370
     0
100
AcDbLine
 10
20.595139299
 20
16.1764166402
 30
0.0
 11
20.4808814877
 21
16.1764166402
 31
0.0
  0
LINE
  5
D1
330
CB
100
AcDbEntity
  8
0
  6
Continuous
 62
     7
370
     0
100
AcDbLine
 10
20.4808814877
 20
16.1764166402
 30
0.0
 11
20.4808814877
 21
15.5811041223
 31
0.0
  0
LINE
  5
D2
330
CB
100
AcDbEntity
  8
0
  6
Continuous
 62
     7
370
     0
100
AcDbLine
 10
20.4808814877
 20
15.5811041223
 30
0.0
 11
20.595139299
 21
15.5811041223
 31
0.0
  0
LINE
  5
D3
330
CB
100
AcDbEntity
  8
0
  6
Continuous
 62
     7
370
     0
100
AcDbLine
 10
22.3638892763
 20
16.1764166402
 30
0.0
 11
22.4781470876
 21
16.1764166402
 31
0.0
  0
LINE
  5
D4
330
CB
100
AcDbEntity
  8
0
  6
Continuous
 62
     7
370
     0
100
AcDbLine
 10
22.4781470876
 20
16.1764166402
 30
0.0
 11
22.4781470876
 21
15.5811041223
 31
0.0
  0
LINE
  5
D5
330
CB
100
AcDbEntity
  8
0
  6
Continuous
 62
     7
370
     0
100
AcDbLine
 10
22.4781470876
 20
15.5811041223
 30
0.0
 11
22.3638892763
 21
15.5811041223
 31
0.0
  0
LINE
  5
D6
330
CB
100
AcDbEntity
  8
0
  6
Continuous
 62
     7
370
     0
100
AcDbLine
 10
18.6313249249
 20
19.6482812821
 30
0.0
 11
21.8545142326
 21
19.6482812821
 31
0.0
  0
LINE
  5
D7
330
CB
100
AcDbEntity
  8
0
  6
Continuous
 62
     7
370
     0
100
AcDbLine
 10
18.6313249249
 20
12.7102812821
 30
0.0
 11
21.8545142326
 21
12.7102812821
 31
0.0
  0
LINE
  5
D8
330
CB
100
AcDbEntity
  8
0
  6
Continuous
 62
     7
370
     0
100
AcDbLine
 10
21.4795142326
 20
19.6482812821
 30
0.0
 11
21.4795142326
 21
16.853630197
 31
0.0
  0
LINE
  5
D9
330
CB
100
AcDbEntity
  8
0
  6
Continuous
 62
     7
370
     0
100
AcDbLine
 10
21.4795142326
 20
12.7102812821
 30
0.0
 11
21.4795142326
 21
15.5049323672
 31
0.0
  0
MTEXT
  5
DA
330
CB
100
AcDbEntity
  8
0
  6
Continuous
 62
     7
370
    18
100
AcDbMText
 10
20.3687070093
 20
16.7417181227
 30
0.0
 40
0.375
 41
0.0
 71
     1
 72
     1
  1

  7
SLDTEXTSTYLE0
 73
     1
 44
1.0
  0
MTEXT
  5
DB
330
CB
100
AcDbEntity
  8
0
  6
Continuous
 62
     7
370
    18
100
AcDbMText
 10
20.5308163596
 20
16.7359889283
 30
0.0
 40
0.375
 41
0.0
 71
     1
 72
     1
  1
6 15/16"
  7
SLDTEXTSTYLE0
 73
     1
 44
1.0
  0
MTEXT
  5
DC
330
CB
100
AcDbEntity
  8
0
  6
Continuous
 62
     7
370
    18
100
AcDbMText
 10
20.595139299
 20
16.064504566
 30
0.0
 40
0.375
 41
0.0
 71
     1
 72
     1
  1
176mm
  7
SLDTEXTSTYLE0
 73
     1
 44
1.0
  0
MTEXT
  5
DD
330
CB
100
AcDbEntity
  8
0
  6
Continuous
 62
     7
370
    18
100
AcDbMText
 10
22.7330298164
 20
16.7417181227
 30
0.0
 40
0.375
 41
0.0
 71
     1
 72
     1
  1

  7
SLDTEXTSTYLE0
 73
     1
 44
1.0
  0
ENDBLK
  5
CD
330
CB
100
AcDbEntity
  8
0
100
AcDbBlockEnd
  0
BLOCK
  5
2C2
330
2C1
100
AcDbEntity
  8
0
100
AcDbBlockBegin
  2
_D_2
 70
     0
 10
0.0
 20
0.0
 30
0.0
  3
_D_2
  1

  0
SOLID
  5
2C4
330
2C1
100
AcDbEntity
  8
0
  6
Continuous
 62
     7
370
    18
100
AcDbTrace
 10
5.9351272622
 20
22.8731320072
 30
0.0
 11
5.5451272622
 21
22.9331320072
 31
0.0
 12
5.5451272622
 22
22.8131320072
 32
0.0
 13
5.5451272622
 23
22.8131320072
 33
0.0
  0
SOLID
  5
2C5
330
2C1
100
AcDbEntity
  8
0
  6
Continuous
 62
     7
370
    18
100
AcDbTrace
 10
9.9351272622
 20
22.8731320072
 30
0.0
 11
10.3251272622
 21
22.8131320072
 31
0.0
 12
10.3251272622
 22
22.9331320072
 32
0.0
 13
10.3251272622
 23
22.9331320072
 33
0.0
  0
LINE
  5
2C6
330
2C1
100
AcDbEntity
  8
0
  6
Continuous
 62
     7
370
     0
100
AcDbLine
 10
7.0507523286
 20
22.8702673653
 30
0.0
 11
6.9364945172
 21
22.8702673653
 31
0.0
  0
LINE
  5
2C7
330
2C1
100
AcDbEntity
  8
0
  6
Continuous
 62
     7
370
     0
100
AcDbLine
 10
6.9364945172
 20
22.8702673653
 30
0.0
 11
6.9364945172
 21
22.2749548474
 31
0.0
  0
LINE
  5
2C8
330
2C1
100
AcDbEntity
  8
0
  6
Continuous
 62
     7
370
     0
100
AcDbLine
 10
6.9364945172
 20
22.2749548474
 30
0.0
 11
7.0507523286
 21
22.2749548474
 31
0.0
  0
LINE
  5
2C9
330
2C1
100
AcDbEntity
  8
0
  6
Continuous
 62
     7
370
     0
100
AcDbLine
 10
8.8195023058
 20
22.8702673653
 30
0.0
 11
8.9337601171
 21
22.8702673653
 31
0.0
  0
LINE
  5
2CA
330
2C1
100
AcDbEntity
  8
0
  6
Continuous
 62
     7
370
     0
100
AcDbLine
 10
8.9337601171
 20
22.8702673653
 30
0.0
 11
8.9337601171
 21
22.2749548474
 31
0.0
  0
LINE
  5
2CB
330
2C1
100
AcDbEntity
  8
0
  6
Continuous
 62
     7
370
     0
100
AcDbLine
 10
8.9337601171
 20
22.2749548474
 30
0.0
 11
8.8195023058
 21
22.2749548474
 31
0.0
  0
LINE
  5
2CC
330
2C1
100
AcDbEntity
  8
0
  6
Continuous
 62
     7
370
     0
100
AcDbLine
 10
5.9351272622
 20
20.3462812821
 30
0.0
 11
5.9351272622
 21
23.2481320072
 31
0.0
  0
LINE
  5
2CD
330
2C1
100
AcDbEntity
  8
0
  6
Continuous
 62
     7
370
     0
100
AcDbLine
 10
9.9351272622
 20
19.7682812821
 30
0.0
 11
9.9351272622
 21
23.2481320072
 31
0.0
  0
LINE
  5
2CE
330
2C1
100
AcDbEntity
  8
0
  6
Continuous
 62
     7
370
     0
100
AcDbLine
 10
5.9351272622
 20
22.8731320072
 30
0.0
 11
5.1851272622
 21
22.8731320072
 31
0.0
  0
LINE
  5
2CF
330
2C1
100
AcDbEntity
  8
0
  6
Continuous
 62
     7
370
     0
100
AcDbLine
 10
9.9351272622
 20
22.8731320072
 30
0.0
 11
10.6851272622
 21
22.8731320072
 31
0.0
  0
MTEXT
  5
2D0
330
2C1
100
AcDbEntity
  8
0
  6
Continuous
 62
     7
370
    18
100
AcDbMText
 10
6.8243200388
 20
23.4355688478
 30
0.0
 40
0.375
 41
0.0
 71
     1
 72
     1
  1

  7
SLDTEXTSTYLE0
 73
     1
 44
1.0
  0
MTEXT
  5
2D1
330
2C1
100
AcDbEntity
  8
0
  6
Continuous
 62
     7
370
    18
100
AcDbMText
 10
7.7192418724
 20
23.4298396534
 30
0.0
 40
0.375
 41
0.0
 71
     1
 72
     1
  1
4"
  7
SLDTEXTSTYLE0
 73
     1
 44
1.0
  0
MTEXT
  5
2D2
330
2C1
100
AcDbEntity
  8
0
  6
Continuous
 62
     7
370
    18
100
AcDbMText
 10
7.0507523286
 20
22.758355291
 30
0.0
 40
0.375
 41
0.0
 71
     1
 72
     1
  1
102mm
  7
SLDTEXTSTYLE0
 73
     1
 44
1.0
  0
MTEXT
  5
2D3
330
2C1
100
AcDbEntity
  8
0
  6
Continuous
 62
     7
370
    18
100
AcDbMText
 10
9.188642846
 20
23.4355688478
 30
0.0
 40
0.375
 41
0.0
 71
     1
 72
     1
  1

  7
SLDTEXTSTYLE0
 73
     1
 44
1.0
  0
ENDBLK
  5
2C3
330
2C1
100
AcDbEntity
  8
0
100
AcDbBlockEnd
  0
BLOCK
  5
2D7
330
2D6
100
AcDbEntity
  8
0
100
AcDbBlockBegin
  2
_D_3
 70
     0
 10
0.0
 20
0.0
 30
0.0
  3
_D_3
  1

  0
SOLID
  5
2D9
330
2D6
100
AcDbEntity
  8
0
  6
Continuous
 62
     7
370
    18
100
AcDbTrace
 10
5.9351272622
 20
21.4558091725
 30
0.0
 11
5.5451272622
 21
21.5158091725
 31
0.0
 12
5.5451272622
 22
21.3958091725
 32
0.0
 13
5.5451272622
 23
21.3958091725
 33
0.0
  0
SOLID
  5
2DA
330
2D6
100
AcDbEntity
  8
0
  6
Continuous
 62
     7
370
    18
100
AcDbTrace
 10
6.3101272622
 20
21.4558091725
 30
0.0
 11
6.7001272622
 21
21.3958091725
 31
0.0
 12
6.7001272622
 22
21.5158091725
 32
0.0
 13
6.7001272622
 23
21.5158091725
 33
0.0
  0
LINE
  5
2DB
330
2D6
100
AcDbEntity
  8
0
  6
Continuous
 62
     7
370
     0
100
AcDbLine
 10
3.3264033843
 20
21.4529445306
 30
0.0
 11
3.212145573
 21
21.4529445306
 31
0.0
  0
LINE
  5
2DC
330
2D6
100
AcDbEntity
  8
0
  6
Continuous
 62
     7
370
     0
100
AcDbLine
 10
3.212145573
 20
21.4529445306
 30
0.0
 11
3.212145573
 21
20.8576320127
 31
0.0
  0
LINE
  5
2DD
330
2D6
100
AcDbEntity
  8
0
  6
Continuous
 62
     7
370
     0
100
AcDbLine
 10
3.212145573
 20
20.8576320127
 30
0.0
 11
3.3264033843
 21
20.8576320127
 31
0.0
  0
LINE
  5
2DE
330
2D6
100
AcDbEntity
  8
0
  6
Continuous
 62
     7
370
     0
100
AcDbLine
 10
4.8180700825
 20
21.4529445306
 30
0.0
 11
4.9323278938
 21
21.4529445306
 31
0.0
  0
LINE
  5
2DF
330
2D6
100
AcDbEntity
  8
0
  6
Continuous
 62
     7
370
     0
100
AcDbLine
 10
4.9323278938
 20
21.4529445306
 30
0.0
 11
4.9323278938
 21
20.8576320127
 31
0.0
  0
LINE
  5
2E0
330
2D6
100
AcDbEntity
  8
0
  6
Continuous
 62
     7
370
     0
100
AcDbLine
 10
4.9323278938
 20
20.8576320127
 30
0.0
 11
4.8180700825
 21
20.8576320127
 31
0.0
  0
LINE
  5
2E1
330
2D6
100
AcDbEntity
  8
0
  6
Continuous
 62
     7
370
     0
100
AcDbLine
 10
5.9351272622
 20
20.3462812821
 30
0.0
 11
5.9351272622
 21
21.8308091725
 31
0.0
  0
LINE
  5
2E2
330
2D6
100
AcDbEntity
  8
0
  6
Continuous
 62
     7
370
     0
100
AcDbLine
 10
6.3101272622
 20
20.2962812821
 30
0.0
 11
6.3101272622
 21
21.8308091725
 31
0.0
  0
LINE
  5
2E3
330
2D6
100
AcDbEntity
  8
0
  6
Continuous
 62
     7
370
     0
100
AcDbLine
 10
5.9351272622
 20
21.4558091725
 30
0.0
 11
5.2611868076
 21
21.4558091725
 31
0.0
  0
LINE
  5
2E4
330
2D6
100
AcDbEntity
  8
0
  6
Continuous
 62
     7
370
     0
100
AcDbLine
 10
6.3101272622
 20
21.4558091725
 30
0.0
 11
7.0601272622
 21
21.4558091725
 31
0.0
  0
MTEXT
  5
2E5
330
2D6
100
AcDbEntity
  8
0
  6
Continuous
 62
     7
370
    18
100
AcDbMText
 10
3.0999710946
 20
22.0182460132
 30
0.0
 40
0.375
 41
0.0
 71
     1
 72
     1
  1

  7
SLDTEXTSTYLE0
 73
     1
 44
1.0
  0
MTEXT
  5
2E6
330
2D6
100
AcDbEntity
  8
0
  6
Continuous
 62
     7
370
    18
100
AcDbMText
 10
3.6084345988
 20
22.0125168187
 30
0.0
 40
0.375
 41
0.0
 71
     1
 72
     1
  1
3/8"
  7
SLDTEXTSTYLE0
 73
     1
 44
1.0
  0
MTEXT
  5
2E7
330
2D6
100
AcDbEntity
  8
0
  6
Continuous
 62
     7
370
    18
100
AcDbMText
 10
3.3264033843
 20
21.3410324564
 30
0.0
 40
0.375
 41
0.0
 71
     1
 72
     1
  1
10mm
  7
SLDTEXTSTYLE0
 73
     1
 44
1.0
  0
MTEXT
  5
2E8
330
2D6
100
AcDbEntity
  8
0
  6
Continuous
 62
     7
370
    18
100
AcDbMText
 10
5.1872106226
 20
22.0182460132
 30
0.0
 40
0.375
 41
0.0
 71
     1
 72
     1
  1

  7
SLDTEXTSTYLE0
 73
     1
 44
1.0
  0
ENDBLK
  5
2D8
330
2D6
100
AcDbEntity
  8
0
100
AcDbBlockEnd
  0
BLOCK
  5
2EC
330
2EB
100
AcDbEntity
  8
0
100
AcDbBlockBegin
  2
_D_4
 70
     0
 10
0.0
 20
0.0
 30
0.0
  3
_D_4
  1

  0
SOLID
  5
2EE
330
2EB
100
AcDbEntity
  8
0
  6
Continuous
 62
     7
370
    18
100
AcDbTrace
 10
4.0722366784
 20
12.7102812821
 30
0.0
 11
4.1322366784
 21
13.1002812821
 31
0.0
 12
4.0122366784
 22
13.1002812821
 32
0.0
 13
4.0122366784
 23
13.1002812821
 33
0.0
  0
SOLID
  5
2EF
330
2EB
100
AcDbEntity
  8
0
  6
Continuous
 62
     7
370
    18
100
AcDbTrace
 10
4.0722366784
 20
17.7112812821
 30
0.0
 11
4.0122366784
 21
17.3212812821
 31
0.0
 12
4.1322366784
 22
17.3212812821
 32
0.0
 13
4.1322366784
 23
17.3212812821
 33
0.0
  0
LINE
  5
2F0
330
2EB
100
AcDbEntity
  8
0
  6
Continuous
 62
     7
370
     0
100
AcDbLine
 10
3.1878617448
 20
15.2079166402
 30
0.0
 11
3.0736039334
 21
15.2079166402
 31
0.0
  0
LINE
  5
2F1
330
2EB
100
AcDbEntity
  8
0
  6
Continuous
 62
     7
370
     0
100
AcDbLine
 10
3.0736039334
 20
15.2079166402
 30
0.0
 11
3.0736039334
 21
14.6126041223
 31
0.0
  0
LINE
  5
2F2
330
2EB
100
AcDbEntity
  8
0
  6
Continuous
 62
     7
370
     0
100
AcDbLine
 10
3.0736039334
 20
14.6126041223
 30
0.0
 11
3.1878617448
 21
14.6126041223
 31
0.0
  0
LINE
  5
2F3
330
2EB
100
AcDbEntity
  8
0
  6
Continuous
 62
     7
370
     0
100
AcDbLine
 10
4.956611722
 20
15.2079166402
 30
0.0
 11
5.0708695333
 21
15.2079166402
 31
0.0
  0
LINE
  5
2F4
330
2EB
100
AcDbEntity
  8
0
  6
Continuous
 62
     7
370
     0
100
AcDbLine
 10
5.0708695333
 20
15.2079166402
 30
0.0
 11
5.0708695333
 21
14.6126041223
 31
0.0
  0
LINE
  5
2F5
330
2EB
100
AcDbEntity
  8
0
  6
Continuous
 62
     7
370
     0
100
AcDbLine
 10
5.0708695333
 20
14.6126041223
 30
0.0
 11
4.956611722
 21
14.6126041223
 31
0.0
  0
LINE
  5
2F6
330
2EB
100
AcDbEntity
  8
0
  6
Continuous
 62
     7
370
     0
100
AcDbLine
 10
6.8451272622
 20
12.7102812821
 30
0.0
 11
3.6972366784
 21
12.7102812821
 31
0.0
  0
LINE
  5
2F7
330
2EB
100
AcDbEntity
  8
0
  6
Continuous
 62
     7
370
     0
100
AcDbLine
 10
5.7701272622
 20
17.7112812821
 30
0.0
 11
3.6972366784
 21
17.7112812821
 31
0.0
  0
LINE
  5
2F8
330
2EB
100
AcDbEntity
  8
0
  6
Continuous
 62
     7
370
     0
100
AcDbLine
 10
4.0722366784
 20
12.7102812821
 30
0.0
 11
4.0722366784
 21
14.5364323672
 31
0.0
  0
LINE
  5
2F9
330
2EB
100
AcDbEntity
  8
0
  6
Continuous
 62
     7
370
     0
100
AcDbLine
 10
4.0722366784
 20
17.7112812821
 30
0.0
 11
4.0722366784
 21
15.885130197
 31
0.0
  0
MTEXT
  5
2FA
330
2EB
100
AcDbEntity
  8
0
  6
Continuous
 62
     7
370
    18
100
AcDbMText
 10
2.961429455
 20
15.7732181227
 30
0.0
 40
0.375
 41
0.0
 71
     1
 72
     1
  1

  7
SLDTEXTSTYLE0
 73
     1
 44
1.0
  0
MTEXT
  5
2FB
330
2EB
100
AcDbEntity
  8
0
  6
Continuous
 62
     7
370
    18
100
AcDbMText
 10
3.8563512886
 20
15.7674889283
 30
0.0
 40
0.375
 41
0.0
 71
     1
 72
     1
  1
5"
  7
SLDTEXTSTYLE0
 73
     1
 44
1.0
  0
MTEXT
  5
2FC
330
2EB
100
AcDbEntity
  8
0
  6
Continuous
 62
     7
370
    18
100
AcDbMText
 10
3.1878617448
 20
15.096004566
 30
0.0
 40
0.375
 41
0.0
 71
     1
 72
     1
  1
127mm
  7
SLDTEXTSTYLE0
 73
     1
 44
1.0
  0
MTEXT
  5
2FD
330
2EB
100
AcDbEntity
  8
0
  6
Continuous
 62
     7
370
    18
100
AcDbMText
 10
5.3257522622
 20
15.7732181227
 30
0.0
 40
0.375
 41
0.0
 71
     1
 72
     1
  1

  7
SLDTEXTSTYLE0
 73
     1
 44
1.0
  0
ENDBLK
  5
2ED
330
2EB
100
AcDbEntity
  8
0
100
AcDbBlockEnd
  0
BLOCK
  5
32F
330
32E
100
AcDbEntity
  8
0
100
AcDbBlockBegin
  2
_D_5
 70
     0
 10
0.0
 20
0.0
 30
0.0
  3
_D_5
  1

  0
SOLID
  5
331
330
32E
100
AcDbEntity
  8
0
  6
Continuous
 62
     7
370
    18
100
AcDbTrace
 10
9.0368408246
 20
4.2026211866
 30
0.0
 11
9.2701860623
 21
3.8844231351
 31
0.0
 12
9.3550388761
 22
3.9692759488
 32
0.0
 13
9.3550388761
 23
3.9692759488
 33
0.0
  0
LINE
  5
332
330
32E
100
AcDbEntity
  8
0
  6
Continuous
 62
     7
370
     0
100
AcDbLine
 10
11.2087401906
 20
3.0092373882
 30
0.0
 11
11.0944823793
 21
3.0092373882
 31
0.0
  0
LINE
  5
333
330
32E
100
AcDbEntity
  8
0
  6
Continuous
 62
     7
370
     0
100
AcDbLine
 10
11.0944823793
 20
3.0092373882
 30
0.0
 11
11.0944823793
 21
2.4139248703
 31
0.0
  0
LINE
  5
334
330
32E
100
AcDbEntity
  8
0
  6
Continuous
 62
     7
370
     0
100
AcDbLine
 10
11.0944823793
 20
2.4139248703
 30
0.0
 11
11.2087401906
 21
2.4139248703
 31
0.0
  0
LINE
  5
335
330
32E
100
AcDbEntity
  8
0
  6
Continuous
 62
     7
370
     0
100
AcDbLine
 10
12.9774901679
 20
3.0092373882
 30
0.0
 11
13.0917479792
 21
3.0092373882
 31
0.0
  0
LINE
  5
336
330
32E
100
AcDbEntity
  8
0
  6
Continuous
 62
     7
370
     0
100
AcDbLine
 10
13.0917479792
 20
3.0092373882
 30
0.0
 11
13.0917479792
 21
2.4139248703
 31
0.0
  0
LINE
  5
337
330
32E
100
AcDbEntity
  8
0
  6
Continuous
 62
     7
370
     0
100
AcDbLine
 10
13.0917479792
 20
2.4139248703
 30
0.0
 11
12.9774901679
 21
2.4139248703
 31
0.0
  0
LINE
  5
338
330
32E
100
AcDbEntity
  8
0
  6
Continuous
 62
     7
370
     0
100
AcDbLine
 10
9.0368408246
 20
4.2026211866
 30
0.0
 11
10.230224568
 21
3.0092374432
 31
0.0
  0
LINE
  5
339
330
32E
100
AcDbEntity
  8
0
  6
Continuous
 62
     7
370
     0
100
AcDbLine
 10
10.230224568
 20
3.0092374432
 30
0.0
 11
10.980224568
 21
3.0092374432
 31
0.0
  0
MTEXT
  5
33A
330
32E
100
AcDbEntity
  8
0
  6
Continuous
 62
     7
370
    18
100
AcDbMText
 10
11.5944563173
 20
3.5688097038
 30
0.0
 40
0.375
 41
0.0
 71
     1
 72
     1
  1
%%c
  7
SLDTEXTSTYLE0
 73
     1
 44
1.0
  0
MTEXT
  5
33B
330
32E
100
AcDbEntity
  8
0
  6
Continuous
 62
     7
370
    18
100
AcDbMText
 10
12.1600031791
 20
3.5688097038
 30
0.0
 40
0.375
 41
0.0
 71
     1
 72
     1
  1
4"
  7
SLDTEXTSTYLE0
 73
     1
 44
1.0
  0
MTEXT
  5
33C
330
32E
100
AcDbEntity
  8
0
  6
Continuous
 62
     7
370
    18
100
AcDbMText
 10
11.2087401906
 20
2.897325314
 30
0.0
 40
0.375
 41
0.0
 71
     1
 72
     1
  1
102mm
  7
SLDTEXTSTYLE0
 73
     1
 44
1.0
  0
ENDBLK
  5
330
330
32E
100
AcDbEntity
  8
0
100
AcDbBlockEnd
  0
BLOCK
  5
34F
330
34E
100
AcDbEntity
  8
0
100
AcDbBlockBegin
  2
_D_6
 70
     0
 10
0.0
 20
0.0
 30
0.0
  3
_D_6
  1

  0
SOLID
  5
351
330
34E
100
AcDbEntity
  8
0
  6
Continuous
 62
     7
370
    18
100
AcDbTrace
 10
3.7022181818
 20
3.0192989354
 30
0.0
 11
3.3122181818
 21
3.0792989354
 31
0.0
 12
3.3122181818
 22
2.9592989354
 32
0.0
 13
3.3122181818
 23
2.9592989354
 33
0.0
  0
SOLID
  5
352
330
34E
100
AcDbEntity
  8
0
  6
Continuous
 62
     7
370
    18
100
AcDbTrace
 10
3.7622181818
 20
3.0192989354
 30
0.0
 11
4.1522181818
 21
2.9592989354
 31
0.0
 12
4.1522181818
 22
3.0792989354
 32
0.0
 13
4.1522181818
 23
3.0792989354
 33
0.0
  0
LINE
  5
353
330
34E
100
AcDbEntity
  8
0
  6
Continuous
 62
     7
370
     0
100
AcDbLine
 10
1.2051627478
 20
3.0164342935
 30
0.0
 11
1.0909049364
 21
3.0164342935
 31
0.0
  0
LINE
  5
354
330
34E
100
AcDbEntity
  8
0
  6
Continuous
 62
     7
370
     0
100
AcDbLine
 10
1.0909049364
 20
3.0164342935
 30
0.0
 11
1.0909049364
 21
2.4211217756
 31
0.0
  0
LINE
  5
355
330
34E
100
AcDbEntity
  8
0
  6
Continuous
 62
     7
370
     0
100
AcDbLine
 10
1.0909049364
 20
2.4211217756
 30
0.0
 11
1.2051627478
 21
2.4211217756
 31
0.0
  0
LINE
  5
356
330
34E
100
AcDbEntity
  8
0
  6
Continuous
 62
     7
370
     0
100
AcDbLine
 10
2.4197460568
 20
3.0164342935
 30
0.0
 11
2.5340038681
 21
3.0164342935
 31
0.0
  0
LINE
  5
357
330
34E
100
AcDbEntity
  8
0
  6
Continuous
 62
     7
370
     0
100
AcDbLine
 10
2.5340038681
 20
3.0164342935
 30
0.0
 11
2.5340038681
 21
2.4211217756
 31
0.0
  0
LINE
  5
358
330
34E
100
AcDbEntity
  8
0
  6
Continuous
 62
     7
370
     0
100
AcDbLine
 10
2.5340038681
 20
2.4211217756
 30
0.0
 11
2.4197460568
 21
2.4211217756
 31
0.0
  0
LINE
  5
359
330
34E
100
AcDbEntity
  8
0
  6
Continuous
 62
     7
370
     0
100
AcDbLine
 10
3.7022181818
 20
3.466834749
 30
0.0
 11
3.7022181818
 21
2.6442989354
 31
0.0
  0
LINE
  5
35A
330
34E
100
AcDbEntity
  8
0
  6
Continuous
 62
     7
370
     0
100
AcDbLine
 10
3.7622181818
 20
3.466834749
 30
0.0
 11
3.7622181818
 21
2.6442989354
 31
0.0
  0
LINE
  5
35B
330
34E
100
AcDbEntity
  8
0
  6
Continuous
 62
     7
370
     0
100
AcDbLine
 10
3.7022181818
 20
3.0192989354
 30
0.0
 11
2.862862892
 21
3.0192989354
 31
0.0
  0
LINE
  5
35C
330
34E
100
AcDbEntity
  8
0
  6
Continuous
 62
     7
370
     0
100
AcDbLine
 10
3.7622181818
 20
3.0192989354
 30
0.0
 11
4.5122181818
 21
3.0192989354
 31
0.0
  0
MTEXT
  5
35D
330
34E
100
AcDbEntity
  8
0
  6
Continuous
 62
     7
370
    18
100
AcDbMText
 10
0.9787304581
 20
3.581735776
 30
0.0
 40
0.375
 41
0.0
 71
     1
 72
     1
  1

  7
SLDTEXTSTYLE0
 73
     1
 44
1.0
  0
MTEXT
  5
35E
330
34E
100
AcDbEntity
  8
0
  6
Continuous
 62
     7
370
    18
100
AcDbMText
 10
1.2101106281
 20
3.5760065816
 30
0.0
 40
0.375
 41
0.0
 71
     1
 72
     1
  1
1/16"
  7
SLDTEXTSTYLE0
 73
     1
 44
1.0
  0
MTEXT
  5
35F
330
34E
100
AcDbEntity
  8
0
  6
Continuous
 62
     7
370
    18
100
AcDbMText
 10
1.2051627478
 20
2.9045222193
 30
0.0
 40
0.375
 41
0.0
 71
     1
 72
     1
  1
2mm
  7
SLDTEXTSTYLE0
 73
     1
 44
1.0
  0
MTEXT
  5
360
330
34E
100
AcDbEntity
  8
0
  6
Continuous
 62
     7
370
    18
100
AcDbMText
 10
2.788886597
 20
3.581735776
 30
0.0
 40
0.375
 41
0.0
 71
     1
 72
     1
  1

  7
SLDTEXTSTYLE0
 73
     1
 44
1.0
  0
ENDBLK
  5
350
330
34E
100
AcDbEntity
  8
0
100
AcDbBlockEnd
  0
BLOCK
  5
368
330
367
100
AcDbEntity
  8
0
100
AcDbBlockBegin
  2
_D_7
 70
     0
 10
0.0
 20
0.0
 30
0.0
  3
_D_7
  1

  0
SOLID
  5
36A
330
367
100
AcDbEntity
  8
0
  6
Continuous
 62
     7
370
    18
100
AcDbTrace
 10
19.7786
 20
9.2829371112
 30
0.0
 11
19.3886
 21
9.3429371112
 31
0.0
 12
19.3886
 22
9.2229371112
 32
0.0
 13
19.3886
 23
9.2229371112
 33
0.0
  0
SOLID
  5
36B
330
367
100
AcDbEntity
  8
0
  6
Continuous
 62
     7
370
    18
100
AcDbTrace
 10
23.2786
 20
9.2829371112
 30
0.0
 11
23.6686
 21
9.2229371112
 31
0.0
 12
23.6686
 22
9.3429371112
 32
0.0
 13
23.6686
 23
9.3429371112
 33
0.0
  0
LINE
  5
36C
330
367
100
AcDbEntity
  8
0
  6
Continuous
 62
     7
370
     0
100
AcDbLine
 10
20.1546417046
 20
9.2800724693
 30
0.0
 11
20.0403838932
 21
9.2800724693
 31
0.0
  0
LINE
  5
36D
330
367
100
AcDbEntity
  8
0
  6
Continuous
 62
     7
370
     0
100
AcDbLine
 10
20.0403838932
 20
9.2800724693
 30
0.0
 11
20.0403838932
 21
8.6847599514
 31
0.0
  0
LINE
  5
36E
330
367
100
AcDbEntity
  8
0
  6
Continuous
 62
     7
370
     0
100
AcDbLine
 10
20.0403838932
 20
8.6847599514
 30
0.0
 11
20.1546417046
 21
8.6847599514
 31
0.0
  0
LINE
  5
36F
330
367
100
AcDbEntity
  8
0
  6
Continuous
 62
     7
370
     0
100
AcDbLine
 10
21.6463084027
 20
9.2800724693
 30
0.0
 11
21.7605662141
 21
9.2800724693
 31
0.0
  0
LINE
  5
370
330
367
100
AcDbEntity
  8
0
  6
Continuous
 62
     7
370
     0
100
AcDbLine
 10
21.7605662141
 20
9.2800724693
 30
0.0
 11
21.7605662141
 21
8.6847599514
 31
0.0
  0
LINE
  5
371
330
367
100
AcDbEntity
  8
0
  6
Continuous
 62
     7
370
     0
100
AcDbLine
 10
21.7605662141
 20
8.6847599514
 30
0.0
 11
21.6463084027
 21
8.6847599514
 31
0.0
  0
LINE
  5
372
330
367
100
AcDbEntity
  8
0
  6
Continuous
 62
     7
370
     0
100
AcDbLine
 10
19.7786
 20
5.766834749
 30
0.0
 11
19.7786
 21
9.6579371112
 31
0.0
  0
LINE
  5
373
330
367
100
AcDbEntity
  8
0
  6
Continuous
 62
     7
370
     0
100
AcDbLine
 10
23.2786
 20
5.766834749
 30
0.0
 11
23.2786
 21
9.6579371112
 31
0.0
  0
LINE
  5
374
330
367
100
AcDbEntity
  8
0
  6
Continuous
 62
     7
370
     0
100
AcDbLine
 10
19.7786
 20
9.2829371112
 30
0.0
 11
19.0286
 21
9.2829371112
 31
0.0
  0
LINE
  5
375
330
367
100
AcDbEntity
  8
0
  6
Continuous
 62
     7
370
     0
100
AcDbLine
 10
23.2786
 20
9.2829371112
 30
0.0
 11
24.0286
 21
9.2829371112
 31
0.0
  0
MTEXT
  5
376
330
367
100
AcDbEntity
  8
0
  6
Continuous
 62
     7
370
    18
100
AcDbMText
 10
20.2288604597
 20
9.8396447574
 30
0.0
 40
0.375
 41
0.0
 71
     1
 72
     1
  1
3 1/2"
  7
SLDTEXTSTYLE0
 73
     1
 44
1.0
  0
MTEXT
  5
377
330
367
100
AcDbEntity
  8
0
  6
Continuous
 62
     7
370
    18
100
AcDbMText
 10
20.1546417046
 20
9.168160395
 30
0.0
 40
0.375
 41
0.0
 71
     1
 72
     1
  1
89mm
  7
SLDTEXTSTYLE0
 73
     1
 44
1.0
  0
MTEXT
  5
378
330
367
100
AcDbEntity
  8
0
  6
Continuous
 62
     7
370
    18
100
AcDbMText
 10
22.0154489704
 20
9.8453739518
 30
0.0
 40
0.375
 41
0.0
 71
     1
 72
     1
  1
O.C.
  7
SLDTEXTSTYLE0
 73
     1
 44
1.0
  0
ENDBLK
  5
369
330
367
100
AcDbEntity
  8
0
100
AcDbBlockEnd
  0
BLOCK
  5
37B
330
37A
100
AcDbEntity
  8
0
100
AcDbBlockBegin
  2
_D_8
 70
     0
 10
0.0
 20
0.0
 30
0.0
  3
_D_8
  1

  0
SOLID
  5
37D
330
37A
100
AcDbEntity
  8
0
  6
Continuous
 62
     7
370
    18
100
AcDbTrace
 10
23.2857603512
 20
3.8596743977
 30
0.0
 11
23.519105589
 21
3.5414763462
 31
0.0
 12
23.6039584028
 22
3.6263291599
 32
0.0
 13
23.6039584028
 23
3.6263291599
 33
0.0
  0
LINE
  5
37E
330
37A
100
AcDbEntity
  8
0
  6
Continuous
 62
     7
370
     0
100
AcDbLine
 10
25.1969514722
 20
2.9269988445
 30
0.0
 11
25.0826936608
 21
2.9269988445
 31
0.0
  0
LINE
  5
37F
330
37A
100
AcDbEntity
  8
0
  6
Continuous
 62
     7
370
     0
100
AcDbLine
 10
25.0826936608
 20
2.9269988445
 30
0.0
 11
25.0826936608
 21
2.3316863266
 31
0.0
  0
LINE
  5
380
330
37A
100
AcDbEntity
  8
0
  6
Continuous
 62
     7
370
     0
100
AcDbLine
 10
25.0826936608
 20
2.3316863266
 30
0.0
 11
25.1969514722
 21
2.3316863266
 31
0.0
  0
LINE
  5
381
330
37A
100
AcDbEntity
  8
0
  6
Continuous
 62
     7
370
     0
100
AcDbLine
 10
26.9657014494
 20
2.9269988445
 30
0.0
 11
27.0799592607
 21
2.9269988445
 31
0.0
  0
LINE
  5
382
330
37A
100
AcDbEntity
  8
0
  6
Continuous
 62
     7
370
     0
100
AcDbLine
 10
27.0799592607
 20
2.9269988445
 30
0.0
 11
27.0799592607
 21
2.3316863266
 31
0.0
  0
LINE
  5
383
330
37A
100
AcDbEntity
  8
0
  6
Continuous
 62
     7
370
     0
100
AcDbLine
 10
27.0799592607
 20
2.3316863266
 30
0.0
 11
26.9657014494
 21
2.3316863266
 31
0.0
  0
LINE
  5
384
330
37A
100
AcDbEntity
  8
0
  6
Continuous
 62
     7
370
     0
100
AcDbLine
 10
23.2857603512
 20
3.8596743977
 30
0.0
 11
24.2184358495
 21
2.9269988995
 31
0.0
  0
LINE
  5
385
330
37A
100
AcDbEntity
  8
0
  6
Continuous
 62
     7
370
     0
100
AcDbLine
 10
24.2184358495
 20
2.9269988995
 30
0.0
 11
24.9684358495
 21
2.9269988995
 31
0.0
  0
MTEXT
  5
386
330
37A
100
AcDbEntity
  8
0
  6
Continuous
 62
     7
370
    18
100
AcDbMText
 10
25.5826675988
 20
3.4865711601
 30
0.0
 40
0.375
 41
0.0
 71
     1
 72
     1
  1
%%c
  7
SLDTEXTSTYLE0
 73
     1
 44
1.0
  0
MTEXT
  5
387
330
37A
100
AcDbEntity
  8
0
  6
Continuous
 62
     7
370
    18
100
AcDbMText
 10
26.1482144606
 20
3.4865711601
 30
0.0
 40
0.375
 41
0.0
 71
     1
 72
     1
  1
5"
  7
SLDTEXTSTYLE0
 73
     1
 44
1.0
  0
MTEXT
  5
388
330
37A
100
AcDbEntity
  8
0
  6
Continuous
 62
     7
370
    18
100
AcDbMText
 10
25.1969514722
 20
2.8150867703
 30
0.0
 40
0.375
 41
0.0
 71
     1
 72
     1
  1
126mm
  7
SLDTEXTSTYLE0
 73
     1
 44
1.0
  0
ENDBLK
  5
37C
330
37A
100
AcDbEntity
  8
0
100
AcDbBlockEnd
  0
ENDSEC
  0
SECTION
  2
ENTITIES
  0
MTEXT
  5
6F
330
1F
100
AcDbEntity
  8
0
  6
Continuous
 62
     7
370
     0
100
AcDbMText
 10
4.5220521524
 20
2.0931938652
 30
0.0
 40
0.375
 41
0.0
 71
     1
 72
     1
  1
UNIVERSAL RING
  7
SLDTEXTSTYLE0
 73
     1
 44
1.0
  0
LINE
  5
70
330
1F
100
AcDbEntity
  8
0
  6
Continuous
 62
     7
370
    25
100
AcDbLine
 10
15.5413249249
 20
16.6232812821
 30
0.0
 11
15.5413249249
 21
12.7402812821
 31
0.0
  0
LINE
  5
71
330
1F
100
AcDbEntity
  8
0
  6
Continuous
 62
     7
370
    25
100
AcDbLine
 10
18.5113249249
 20
12.7402812821
 30
0.0
 11
18.5113249249
 21
16.6232812821
 31
0.0
  0
ARC
  5
72
330
1F
100
AcDbEntity
  8
0
  6
Continuous
 62
     7
370
    25
100
AcDbCircle
 10
18.4813249249
 20
12.7402812821
 30
0.0
 40
0.0300000000000011
100
AcDbArc
 50
270.0
 51
0.0
  0
ARC
  5
73
330
1F
100
AcDbEntity
  8
0
  6
Continuous
 62
     7
370
    25
100
AcDbCircle
 10
15.5713249249
 20
12.7402812821
 30
0.0
 40
0.0299999999999994
100
AcDbArc
 50
180.0
 51
270.0
  0
LINE
  5
74
330
1F
100
AcDbEntity
  8
0
  6
Continuous
 62
     7
370
    25
100
AcDbLine
 10
18.5113249249
 20
16.6232812821
 30
0.0
 11
18.5113249249
 21
19.6182812821
 31
0.0
  0
LINE
  5
75
330
1F
100
AcDbEntity
  8
0
  6
Continuous
 62
     7
370
    25
100
AcDbLine
 10
15.5413249249
 20
19.6182812821
 30
0.0
 11
15.5413249249
 21
16.6232812821
 31
0.0
  0
LINE
  5
76
330
1F
100
AcDbEntity
  8
0
  6
Continuous
 62
     7
370
    25
100
AcDbLine
 10
18.5113249249
 20
19.6182812821
 30
0.0
 11
18.4813249249
 21
19.6482812821
 31
0.0
  0
LINE
  5
77
330
1F
100
AcDbEntity
  8
0
  6
Continuous
 62
     7
370
    25
100
AcDbLine
 10
15.5713249249
 20
19.6482812821
 30
0.0
 11
15.5413249249
 21
19.6182812821
 31
0.0
  0
LINE
  5
78
330
1F
100
AcDbEntity
  8
0
  6
Continuous
 62
     7
370
    25
100
AcDbLine
 10
15.724631008
 20
16.4288030496
 30
0.0
 11
15.7219751967
 21
16.4250471653
 31
0.0
  0
LINE
  5
79
330
1F
100
AcDbEntity
  8
0
  6
Continuous
 62
     7
370
    25
100
AcDbLine
 10
15.7219751967
 20
16.3215153989
 30
0.0
 11
15.7222394715
 21
16.3211416579
 31
0.0
  0
LINE
  5
7A
330
1F
100
AcDbEntity
  8
0
  6
Continuous
 62
     7
370
    25
100
AcDbLine
 10
18.3280188418
 20
16.3177595146
 30
0.0
 11
18.330674653
 21
16.3215153989
 31
0.0
  0
LINE
  5
7B
330
1F
100
AcDbEntity
  8
0
  6
Continuous
 62
     7
370
    25
100
AcDbLine
 10
18.330674653
 20
16.4250471653
 30
0.0
 11
18.3280188418
 21
16.4288030496
 31
0.0
  0
LINE
  5
7C
330
1F
100
AcDbEntity
  8
0
  6
Continuous
 62
     7
370
    25
100
AcDbLine
 10
18.5113249249
 20
16.6232812821
 30
0.0
 11
15.5413249249
 21
16.6232812821
 31
0.0
  0
SPLINE
  5
7D
330
1F
100
AcDbEntity
  8
0
  6
Continuous
 62
     7
370
    25
100
AcDbSpline
210
0.0
220
0.0
230
1.0
 70
    11
 71
     3
 72
    26
 73
    22
 74
     0
 42
0.00000001
 43
0.00000001
 40
0.0
 40
0.0
 40
0.0
 40
0.0
 40
0.0536503689453599
 40
0.1072993747806794
 40
0.1609837494484654
 40
0.214691193598116
 40
0.2683602334769246
 40
0.3219893978318427
 40
0.3756393219208449
 40
0.4293383015439468
 40
0.4830381555496783
 40
0.5366891994052547
 40
0.5903179741194498
 40
0.643985735004674
 40
0.6976929120120804
 40
0.7513784439456054
 40
0.8050151129999661
 40
0.8586518917400239
 40
0.9123375339936963
 40
0.9660446892035206
 40
1.0
 40
1.0
 40
1.0
 40
1.0
 10
18.34502362496995
 20
16.3732812820977
 30
0.0
 10
18.34467878216125
 20
16.36563927684003
 30
0.0
 10
18.34398910530536
 20
16.35035546048728
 30
0.0
 10
18.33856123490332
 20
16.33001131872937
 30
0.0
 10
18.33041057415834
 20
16.3145350907782
 30
0.0
 10
18.3199762661568
 20
16.30567699969349
 30
0.0
 10
18.30841520681251
 20
16.30444204771412
 30
0.0
 10
18.29699457488378
 20
16.31095936185157
 30
0.0
 10
18.28708429980009
 20
16.32449131733301
 30
0.0
 10
18.27994375075632
 20
16.34352673194804
 30
0.0
 10
18.2765318210636
 20
16.36592159273966
 30
0.0
 10
18.27731586185476
 20
16.38913712735249
 30
0.0
 10
18.28218180714698
 20
16.41055850792221
 30
0.0
 10
18.29047137673811
 20
16.42778781099182
 30
0.0
 10
18.30110094473083
 20
16.43888227804349
 30
0.0
 10
18.31273886845899
 20
16.44257968216111
 30
0.0
 10
18.32401362215413
 20
16.43846965567685
 30
0.0
 10
18.33373191057055
 20
16.42702087386863
 30
0.0
 10
18.34087177883262
 20
16.4095248536713
 30
0.0
 10
18.34452033390917
 20
16.3905471718613
 30
0.0
 10
18.34488310764724
 20
16.3781018656383
 30
0.0
 10
18.34502362496995
 20
16.3732812820977
 30
0.0
  0
SPLINE
  5
7E
330
1F
100
AcDbEntity
  8
0
  6
Continuous
 62
     7
370
    25
100
AcDbSpline
210
0.0
220
0.0
230
1.0
 70
    11
 71
     3
 72
    26
 73
    22
 74
     0
 42
0.00000001
 43
0.00000001
 40
0.0
 40
0.0
 40
0.0
 40
0.0
 40
0.0536503689453601
 40
0.1072993747806767
 40
0.1609837494484644
 40
0.2146911935981135
 40
0.2683602334769269
 40
0.3219893978318412
 40
0.3756393219208422
 40
0.4293383015439449
 40
0.4830381555496776
 40
0.5366891994052532
 40
0.5903179741194498
 40
0.6439857350046716
 40
0.697692912012079
 40
0.7513784439456069
 40
0.8050151129999674
 40
0.8586518917400265
 40
0.912337533993698
 40
0.9660446892035207
 40
1.0
 40
1.0
 40
1.0
 40
1.0
 10
15.77562622480001
 20
16.3732812820977
 30
0.0
 10
15.77522004120662
 20
16.36563927684003
 30
0.0
 10
15.77440768433985
 20
16.35035546048728
 30
0.0
 10
15.76812737391273
 20
16.33001131872937
 30
0.0
 10
15.75902971932013
 20
16.3145350907782
 30
0.0
 10
15.74791481537831
 20
16.30567699969349
 30
0.0
 10
15.73625240240857
 20
16.30444204771412
 30
0.0
 10
15.72534931502826
 20
16.31095936185157
 30
0.0
 10
15.71635009256924
 20
16.32449131733301
 30
0.0
 10
15.71011591234473
 20
16.34352673194804
 30
0.0
 10
15.70720792370843
 20
16.36592159273966
 30
0.0
 10
15.70787219476722
 20
16.38913712735249
 30
0.0
 10
15.71204810941085
 20
16.41055850792221
 30
0.0
 10
15.71937939480703
 20
16.42778781099182
 30
0.0
 10
15.72920164910071
 20
16.43888227804349
 30
0.0
 10
15.7405375994246
 20
16.44257968216111
 30
0.0
 10
15.75214665076665
 20
16.43846965567685
 30
0.0
 10
15.76269154704066
 20
16.42702087386863
 30
0.0
 10
15.77077894064012
 20
16.4095248536713
 30
0.0
 10
15.77503544439588
 20
16.3905471718613
 30
0.0
 10
15.7754612807206
 20
16.3781018656383
 30
0.0
 10
15.77562622480001
 20
16.3732812820977
 30
0.0
  0
LINE
  5
7F
330
1F
100
AcDbEntity
  8
0
  6
Continuous
 62
     7
370
    25
100
AcDbLine
 10
18.4813249249
 20
12.7102812821
 30
0.0
 11
15.5713249249
 21
12.7102812821
 31
0.0
  0
LINE
  5
80
330
1F
100
AcDbEntity
  8
0
  6
Continuous
 62
     7
370
    25
100
AcDbLine
 10
18.5113249249
 20
19.6182812821
 30
0.0
 11
15.5413249249
 21
19.6182812821
 31
0.0
  0
LINE
  5
81
330
1F
100
AcDbEntity
  8
0
  6
Continuous
 62
     7
370
    25
100
AcDbLine
 10
15.5713249249
 20
19.6482812821
 30
0.0
 11
18.4813249249
 21
19.6482812821
 31
0.0
  0
CIRCLE
  5
82
330
1F
100
AcDbEntity
  8
0
  6
Continuous
 62
     7
370
    25
100
AcDbCircle
 10
15.2763249249
 20
17.7112812821
 30
0.0
 40
0.1372499999999981
  0
CIRCLE
  5
83
330
1F
100
AcDbEntity
  8
0
  6
Continuous
 62
     7
370
    25
100
AcDbCircle
 10
15.2763249249
 20
17.7112812821
 30
0.0
 40
0.15625
  0
LINE
  5
84
330
1F
100
AcDbEntity
  8
0
  6
Continuous
 62
     7
370
    25
100
AcDbLine
 10
15.366564772
 20
17.7112812821
 30
0.0
 11
15.3214448484
 21
17.6331312821
 31
0.0
  0
LINE
  5
85
330
1F
100
AcDbEntity
  8
0
  6
Continuous
 62
     7
370
    25
100
AcDbLine
 10
15.2312050013
 20
17.6331312821
 30
0.0
 11
15.1860850778
 21
17.7112812821
 31
0.0
  0
LINE
  5
86
330
1F
100
AcDbEntity
  8
0
  6
Continuous
 62
     7
370
    25
100
AcDbLine
 10
15.3214448484
 20
17.7894312821
 30
0.0
 11
15.2312050013
 21
17.7894312821
 31
0.0
  0
LINE
  5
87
330
1F
100
AcDbEntity
  8
0
  6
Continuous
 62
     7
370
    25
100
AcDbLine
 10
15.2312050013
 20
17.6331312821
 30
0.0
 11
15.3214448484
 21
17.6331312821
 31
0.0
  0
LINE
  5
88
330
1F
100
AcDbEntity
  8
0
  6
Continuous
 62
     7
370
    25
100
AcDbLine
 10
15.1860850778
 20
17.7112812821
 30
0.0
 11
15.2312050013
 21
17.7894312821
 31
0.0
  0
LINE
  5
89
330
1F
100
AcDbEntity
  8
0
  6
Continuous
 62
     7
370
    25
100
AcDbLine
 10
15.366564772
 20
17.7112812821
 30
0.0
 11
15.3214448484
 21
17.7894312821
 31
0.0
  0
ARC
  5
8A
330
1F
100
AcDbEntity
  8
0
  6
Continuous
 62
     7
370
    25
100
AcDbCircle
 10
15.2763249249
 20
17.7112812821
 30
0.0
 40
0.0781500000000008
100
AcDbArc
 50
90.0
 51
150.0
  0
ARC
  5
8B
330
1F
100
AcDbEntity
  8
0
  6
Continuous
 62
     7
370
    25
100
AcDbCircle
 10
15.2763249249
 20
17.7112812821
 30
0.0
 40
0.0781500000000008
100
AcDbArc
 50
210.0
 51
270.0
  0
ARC
  5
8C
330
1F
100
AcDbEntity
  8
0
  6
Continuous
 62
     7
370
    25
100
AcDbCircle
 10
15.2763249249
 20
17.7112812821
 30
0.0
 40
0.0781499999999988
100
AcDbArc
 50
150.0
 51
210.0
  0
ARC
  5
8D
330
1F
100
AcDbEntity
  8
0
  6
Continuous
 62
     7
370
    25
100
AcDbCircle
 10
15.2763249249
 20
17.7112812821
 30
0.0
 40
0.0781500000000019
100
AcDbArc
 50
30.0
 51
90.0
  0
ARC
  5
8E
330
1F
100
AcDbEntity
  8
0
  6
Continuous
 62
     7
370
    25
100
AcDbCircle
 10
15.2763249249
 20
17.7112812821
 30
0.0
 40
0.0781500000000019
100
AcDbArc
 50
330.0
 51
30.0
  0
ARC
  5
8F
330
1F
100
AcDbEntity
  8
0
  6
Continuous
 62
     7
370
    25
100
AcDbCircle
 10
15.2763249249
 20
17.7112812821
 30
0.0
 40
0.0781500000000019
100
AcDbArc
 50
270.0
 51
330.0
  0
CIRCLE
  5
90
330
1F
100
AcDbEntity
  8
0
  6
Continuous
 62
     7
370
    25
100
AcDbCircle
 10
18.7763249249
 20
17.7112812821
 30
0.0
 40
0.1372500000000016
  0
CIRCLE
  5
91
330
1F
100
AcDbEntity
  8
0
  6
Continuous
 62
     7
370
    25
100
AcDbCircle
 10
18.7763249249
 20
17.7112812821
 30
0.0
 40
0.15625
  0
LINE
  5
92
330
1F
100
AcDbEntity
  8
0
  6
Continuous
 62
     7
370
    25
100
AcDbLine
 10
18.8214448484
 20
17.7894312821
 30
0.0
 11
18.7312050013
 21
17.7894312821
 31
0.0
  0
LINE
  5
93
330
1F
100
AcDbEntity
  8
0
  6
Continuous
 62
     7
370
    25
100
AcDbLine
 10
18.7312050013
 20
17.6331312821
 30
0.0
 11
18.6860850778
 21
17.7112812821
 31
0.0
  0
LINE
  5
94
330
1F
100
AcDbEntity
  8
0
  6
Continuous
 62
     7
370
    25
100
AcDbLine
 10
18.7312050013
 20
17.6331312821
 30
0.0
 11
18.8214448484
 21
17.6331312821
 31
0.0
  0
LINE
  5
95
330
1F
100
AcDbEntity
  8
0
  6
Continuous
 62
     7
370
    25
100
AcDbLine
 10
18.866564772
 20
17.7112812821
 30
0.0
 11
18.8214448484
 21
17.6331312821
 31
0.0
  0
LINE
  5
96
330
1F
100
AcDbEntity
  8
0
  6
Continuous
 62
     7
370
    25
100
AcDbLine
 10
18.866564772
 20
17.7112812821
 30
0.0
 11
18.8214448484
 21
17.7894312821
 31
0.0
  0
LINE
  5
97
330
1F
100
AcDbEntity
  8
0
  6
Continuous
 62
     7
370
    25
100
AcDbLine
 10
18.6860850778
 20
17.7112812821
 30
0.0
 11
18.7312050013
 21
17.7894312821
 31
0.0
  0
ARC
  5
98
330
1F
100
AcDbEntity
  8
0
  6
Continuous
 62
     7
370
    25
100
AcDbCircle
 10
18.7763249249
 20
17.7112812821
 30
0.0
 40
0.0781500000000008
100
AcDbArc
 50
90.0
 51
150.0
  0
ARC
  5
99
330
1F
100
AcDbEntity
  8
0
  6
Continuous
 62
     7
370
    25
100
AcDbCircle
 10
18.7763249249
 20
17.7112812821
 30
0.0
 40
0.0781500000000022
100
AcDbArc
 50
150.0
 51
210.0
  0
ARC
  5
9A
330
1F
100
AcDbEntity
  8
0
  6
Continuous
 62
     7
370
    25
100
AcDbCircle
 10
18.7763249249
 20
17.7112812821
 30
0.0
 40
0.0781500000000008
100
AcDbArc
 50
270.0
 51
330.0
  0
ARC
  5
9B
330
1F
100
AcDbEntity
  8
0
  6
Continuous
 62
     7
370
    25
100
AcDbCircle
 10
18.7763249249
 20
17.7112812821
 30
0.0
 40
0.0781500000000022
100
AcDbArc
 50
210.0
 51
270.0
  0
ARC
  5
9C
330
1F
100
AcDbEntity
  8
0
  6
Continuous
 62
     7
370
    25
100
AcDbCircle
 10
18.7763249249
 20
17.7112812821
 30
0.0
 40
0.0781500000000008
100
AcDbArc
 50
30.0
 51
90.0
  0
ARC
  5
9D
330
1F
100
AcDbEntity
  8
0
  6
Continuous
 62
     7
370
    25
100
AcDbCircle
 10
18.7763249249
 20
17.7112812821
 30
0.0
 40
0.0781500000000004
100
AcDbArc
 50
330.0
 51
30.0
  0
ARC
  5
9E
330
1F
100
AcDbEntity
  8
0
  6
Continuous
 62
     7
370
    25
100
AcDbCircle
 10
17.0263249249
 20
17.7112812821
 30
0.0
 40
2.484999999999999
100
AcDbArc
 50
306.6971677698
 51
180.0
  0
ARC
  5
9F
330
1F
100
AcDbEntity
  8
0
  6
Continuous
 62
     7
370
    25
100
AcDbCircle
 10
17.0263249249
 20
17.7112812821
 30
0.0
 40
2.485000000000001
100
AcDbArc
 50
180.0
 51
233.3028322302
  0
ARC
  5
A0
330
1F
100
AcDbEntity
  8
0
  6
Continuous
 62
     7
370
    25
100
AcDbCircle
 10
17.0263249249
 20
17.7112812821
 30
0.0
 40
2.435
100
AcDbArc
 50
180.0
 51
232.4208894423
  0
ARC
  5
A1
330
1F
100
AcDbEntity
  8
0
  6
Continuous
 62
     7
370
    25
100
AcDbCircle
 10
17.0263249249
 20
17.7112812821
 30
0.0
 40
2.435
100
AcDbArc
 50
307.5791105577
 51
180.0
  0
LWPOLYLINE
  5
A2
330
1F
100
AcDbEntity
  8
0
  6
Continuous
 62
     7
370
    25
100
AcDbPolyline
 90
       19
 70
   128
 43
0.0
 10
15.7405814385
 20
16.3098842021
 10
15.7514046299
 20
16.313915625
 10
15.760885689
 20
16.3251074223
 10
15.7678810603
 20
16.3421096981
 10
15.7715469986
 20
16.362871727
 10
15.7714413378
 20
16.3848893018
 10
15.7675768221
 20
16.4055067781
 10
15.7604195691
 20
16.4222373841
 10
15.7508328491
 20
16.4330631616
 10
15.7399729621
 20
16.4366783621
 10
15.7291497707
 20
16.4326469392
 10
15.7196687115
 20
16.4214551419
 10
15.7126733402
 20
16.4044528661
 10
15.7090074019
 20
16.3836908372
 10
15.7091130627
 20
16.3616732624
 10
15.7129775784
 20
16.3410557861
 10
15.7201348315
 20
16.3243251801
 10
15.7297215515
 20
16.3134994026
 10
15.7405814385
 20
16.3098842021
  0
LINE
  5
A3
330
1F
100
AcDbEntity
  8
0
  6
Continuous
 62
     7
370
    25
100
AcDbLine
 10
15.7596682512
 20
16.3961712049
 30
0.0
 11
15.7400610984
 21
16.418312529
 31
0.0
  0
LINE
  5
A4
330
1F
100
AcDbEntity
  8
0
  6
Continuous
 62
     7
370
    25
100
AcDbLine
 10
15.7206700474
 20
16.3954226062
 30
0.0
 11
15.7400610984
 21
16.418312529
 31
0.0
  0
LINE
  5
A5
330
1F
100
AcDbEntity
  8
0
  6
Continuous
 62
     7
370
    25
100
AcDbLine
 10
15.7208861493
 20
16.3503913593
 30
0.0
 11
15.7206700474
 21
16.3954226062
 31
0.0
  0
LINE
  5
A6
330
1F
100
AcDbEntity
  8
0
  6
Continuous
 62
     7
370
    25
100
AcDbLine
 10
15.7208861493
 20
16.3503913593
 30
0.0
 11
15.7404933021
 21
16.3282500352
 31
0.0
  0
LINE
  5
A7
330
1F
100
AcDbEntity
  8
0
  6
Continuous
 62
     7
370
    25
100
AcDbLine
 10
15.7598843531
 20
16.351139958
 30
0.0
 11
15.7404933021
 21
16.3282500352
 31
0.0
  0
LINE
  5
A8
330
1F
100
AcDbEntity
  8
0
  6
Continuous
 62
     7
370
    25
100
AcDbLine
 10
15.7598843531
 20
16.351139958
 30
0.0
 11
15.7596682512
 21
16.3961712049
 31
0.0
  0
LINE
  5
A9
330
1F
100
AcDbEntity
  8
0
  6
Continuous
 62
     7
370
    25
100
AcDbLine
 10
15.7592501825
 20
16.3503913593
 30
0.0
 11
15.7208861493
 21
16.3503913593
 31
0.0
  0
LINE
  5
AA
330
1F
100
AcDbEntity
  8
0
  6
Continuous
 62
     7
370
    25
100
AcDbLine
 10
15.7596718437
 20
16.3954226062
 30
0.0
 11
15.7206700474
 21
16.3954226062
 31
0.0
  0
LWPOLYLINE
  5
AB
330
1F
100
AcDbEntity
  8
0
  6
Continuous
 62
     7
370
    25
100
AcDbPolyline
 90
       19
 70
   128
 43
0.0
 10
18.3126768877
 20
16.3098842021
 10
18.3235000791
 20
16.313915625
 10
18.3329811383
 20
16.3251074223
 10
18.3399765095
 20
16.3421096981
 10
18.3436424479
 20
16.362871727
 10
18.3435367871
 20
16.3848893018
 10
18.3396722713
 20
16.4055067781
 10
18.3325150183
 20
16.4222373841
 10
18.3229282983
 20
16.4330631616
 10
18.3120684113
 20
16.4366783621
 10
18.3012452199
 20
16.4326469392
 10
18.2917641608
 20
16.4214551419
 10
18.2847687895
 20
16.4044528661
 10
18.2811028511
 20
16.3836908372
 10
18.2812085119
 20
16.3616732624
 10
18.2850730277
 20
16.3410557861
 10
18.2922302807
 20
16.3243251801
 10
18.3018170007
 20
16.3134994026
 10
18.3126768877
 20
16.3098842021
  0
LINE
  5
AC
330
1F
100
AcDbEntity
  8
0
  6
Continuous
 62
     7
370
    25
100
AcDbLine
 10
18.3317637005
 20
16.3961712049
 30
0.0
 11
18.3121565477
 21
16.418312529
 31
0.0
  0
LINE
  5
AD
330
1F
100
AcDbEntity
  8
0
  6
Continuous
 62
     7
370
    25
100
AcDbLine
 10
18.2927654967
 20
16.3954226062
 30
0.0
 11
18.3121565477
 21
16.418312529
 31
0.0
  0
LINE
  5
AE
330
1F
100
AcDbEntity
  8
0
  6
Continuous
 62
     7
370
    25
100
AcDbLine
 10
18.2929815985
 20
16.3503913593
 30
0.0
 11
18.2927654967
 21
16.3954226062
 31
0.0
  0
LINE
  5
AF
330
1F
100
AcDbEntity
  8
0
  6
Continuous
 62
     7
370
    25
100
AcDbLine
 10
18.2929815985
 20
16.3503913593
 30
0.0
 11
18.3125887513
 21
16.3282500352
 31
0.0
  0
LINE
  5
B0
330
1F
100
AcDbEntity
  8
0
  6
Continuous
 62
     7
370
    25
100
AcDbLine
 10
18.3319798023
 20
16.351139958
 30
0.0
 11
18.3125887513
 21
16.3282500352
 31
0.0
  0
LINE
  5
B1
330
1F
100
AcDbEntity
  8
0
  6
Continuous
 62
     7
370
    25
100
AcDbLine
 10
18.3319798023
 20
16.351139958
 30
0.0
 11
18.3317637005
 21
16.3961712049
 31
0.0
  0
LINE
  5
B2
330
1F
100
AcDbEntity
  8
0
  6
Continuous
 62
     7
370
    25
100
AcDbLine
 10
18.2933996673
 20
16.3961712049
 30
0.0
 11
18.3317637005
 21
16.3961712049
 31
0.0
  0
LINE
  5
B3
330
1F
100
AcDbEntity
  8
0
  6
Continuous
 62
     7
370
    25
100
AcDbLine
 10
18.292978006
 20
16.351139958
 30
0.0
 11
18.3319798023
 21
16.351139958
 31
0.0
  0
LINE
  5
B4
330
1F
100
AcDbEntity
  8
0
  6
Continuous
 62
     7
370
    25
100
AcDbLine
 10
15.5413249249
 20
12.7402812821
 30
0.0
 11
18.5113249249
 21
12.7402812821
 31
0.0
  0
DIMENSION
  5
B5
330
1F
100
AcDbEntity
  8
0
  6
Continuous
 62
     7
370
    18
100
AcDbDimension
  2
_D
 10
18.5113249249
 20
11.5291789199
 30
0.0
 11
17.0263249249
 21
11.5291789199
 31
0.0
 70
   160
  1
%%c<>
 71
     2
 42
-1.0
  3
SLDDIMSTYLE0
100
AcDbAlignedDimension
 13
15.5413249249
 23
12.7402812821
 33
0.0
 14
18.5113249249
 24
12.7402812821
 34
0.0
100
AcDbRotatedDimension
  0
DIMENSION
  5
C9
330
1F
100
AcDbEntity
  8
0
  6
Continuous
 62
     7
370
    18
100
AcDbDimension
  2
_D_1
 10
21.4795142326
 20
12.7102812821
 30
0.0
 11
21.4795142326
 21
16.1792812821
 31
0.0
 70
   160
  1
<>
 71
     2
 42
-1.0
  3
SLDDIMSTYLE1
100
AcDbAlignedDimension
 13
18.4813249249
 23
19.6482812821
 33
0.0
 14
18.4813249249
 24
12.7102812821
 34
0.0
 50
90.0
100
AcDbRotatedDimension
  0
LINE
  5
DE
330
1F
100
AcDbEntity
  8
0
  6
Continuous
 62
     7
370
    25
100
AcDbLine
 10
26.2841227271
 20
19.2090814085
 30
0.0
 11
26.2841227271
 21
16.038453436
 31
0.0
  0
LINE
  5
DF
330
1F
100
AcDbEntity
  8
0
  6
Continuous
 62
     7
370
    25
100
AcDbLine
 10
29.2541227271
 20
16.038453436
 30
0.0
 11
29.2541227271
 21
19.2090814085
 31
0.0
  0
SPLINE
  5
E0
330
1F
100
AcDbEntity
  8
0
  6
Continuous
 62
     7
370
    25
100
AcDbSpline
210
0.0
220
0.0
230
1.0
 70
     8
 71
     3
 72
    34
 73
    30
 74
     0
 42
0.00000001
 43
0.00000001
 40
0.0
 40
0.0
 40
0.0
 40
0.0
 40
0.0212235203229372
 40
0.0598565673706884
 40
0.0986475682034054
 40
0.1375682590702406
 40
0.1765808894307302
 40
0.2156495141218648
 40
0.2547456602497691
 40
0.2938480723857735
 40
0.3329432243875309
 40
0.3720259574945231
 40
0.4110944417855584
 40
0.4501489423964891
 40
0.4891909811821507
 40
0.5282228006879996
 40
0.567247038787908
 40
0.6062665417473996
 40
0.6452842639305599
 40
0.6843031569651008
 40
0.723325320127896
 40
0.762353821428039
 40
0.8013917236832108
 40
0.8404420280055873
 40
0.8795075610897521
 40
0.9185907660890961
 40
0.9576933393663949
 40
0.9947529356351011
 40
1.0
 40
1.0
 40
1.0
 40
1.0
 10
26.34205520990187
 20
15.7993149585549
 30
0.0
 10
26.34791869685933
 20
15.78682651378841
 30
0.0
 10
26.36445545403985
 20
15.75160542774112
 30
0.0
 10
26.40179585642386
 20
15.69573094314296
 30
0.0
 10
26.45299353218994
 20
15.63198117481729
 30
0.0
 10
26.51330938083513
 20
15.57097369650281
 30
0.0
 10
26.58177835618457
 20
15.51301863313174
 30
0.0
 10
26.65808414664727
 20
15.45854414128305
 30
0.0
 10
26.74165821283486
 20
15.4079072925022
 30
0.0
 10
26.83193715942804
 20
15.36143989737945
 30
0.0
 10
26.92830677685012
 20
15.31943491779511
 30
0.0
 10
27.03012631885804
 20
15.28215165515198
 30
0.0
 10
27.13672723881743
 20
15.24981675070677
 30
0.0
 10
27.2474147128353
 20
15.22262592348006
 30
0.0
 10
27.36147043469476
 20
15.20074349730174
 30
0.0
 10
27.47815628930885
 20
15.18430172562488
 30
0.0
 10
27.5967183498419
 20
15.17340002762342
 30
0.0
 10
27.71639127179344
 20
15.16810432026136
 30
0.0
 10
27.8364028816719
 20
15.16844654076318
 30
0.0
 10
27.95597810698483
 20
15.17442435560687
 30
0.0
 10
28.07434487033902
 20
15.18600107876213
 30
0.0
 10
28.19073924490231
 20
15.20310600675173
 30
0.0
 10
28.3044107537003
 20
15.22563554188217
 30
0.0
 10
28.41462743179319
 20
15.25345339654395
 30
0.0
 10
28.52067478729085
 20
15.28639448635438
 30
0.0
 10
28.62187961291219
 20
15.3242563538043
 30
0.0
 10
28.71585684145855
 20
15.36608913469978
 30
0.0
 10
28.77816036460983
 20
15.39858518811401
 30
0.0
 10
28.80912188605486
 20
15.41633380466976
 30
0.0
 10
28.81296187468606
 20
15.41853506877478
 30
0.0
  0
SPLINE
  5
E1
330
1F
100
AcDbEntity
  8
0
  6
Continuous
 62
     7
370
    25
100
AcDbSpline
210
0.0
220
0.0
230
1.0
 70
     8
 71
     3
 72
    14
 73
    10
 74
     0
 42
0.00000001
 43
0.00000001
 40
0.0
 40
0.0
 40
0.0
 40
0.0
 40
0.0830197993363361
 40
0.2406357932039229
 40
0.3983128328958987
 40
0.5559247859103295
 40
0.7133607937996209
 40
0.8704725434699516
 40
1.0
 40
1.0
 40
1.0
 40
1.0
 10
28.81296187468606
 20
15.41853506877478
 30
0.0
 10
28.82780773093535
 20
15.42733024115462
 30
0.0
 10
28.87083896472414
 20
15.45282335603695
 30
0.0
 10
28.93670392102045
 20
15.49809033479229
 30
0.0
 10
29.00760982421066
 20
15.55528804433014
 30
0.0
 10
29.07039541067977
 20
15.61584299622452
 30
0.0
 10
29.12436824787214
 20
15.67934981611219
 30
0.0
 10
29.16772510553619
 20
15.74135448692821
 30
0.0
 10
29.18852198385934
 20
15.78301857395621
 30
0.0
 10
29.19791974485886
 20
15.80184587707681
 30
0.0
  0
LINE
  5
E2
330
1F
100
AcDbEntity
  8
0
  6
Continuous
 62
     7
370
    25
100
AcDbLine
 10
29.2541227271
 20
20.3831887801
 30
0.0
 11
29.5227400573
 21
20.5382582641
 31
0.0
  0
LINE
  5
E3
330
1F
100
AcDbEntity
  8
0
  6
Continuous
 62
     7
370
    25
100
AcDbLine
 10
28.8193469188
 20
22.2607056494
 30
0.0
 11
28.7981302684
 21
22.2729577422
 31
0.0
  0
LINE
  5
E4
330
1F
100
AcDbEntity
  8
0
  6
Continuous
 62
     7
370
    25
100
AcDbLine
 10
26.7401151857
 20
22.2729577422
 30
0.0
 11
26.7188985354
 21
22.2607056494
 31
0.0
  0
LINE
  5
E5
330
1F
100
AcDbEntity
  8
0
  6
Continuous
 62
     7
370
    25
100
AcDbLine
 10
29.2541227271
 20
19.2090814085
 30
0.0
 11
29.2541227271
 21
21.6546211401
 31
0.0
  0
LINE
  5
E6
330
1F
100
AcDbEntity
  8
0
  6
Continuous
 62
     7
370
    25
100
AcDbLine
 10
26.2841227271
 20
21.6546211401
 30
0.0
 11
26.2841227271
 21
19.2090814085
 31
0.0
  0
LINE
  5
E7
330
1F
100
AcDbEntity
  8
0
  6
Continuous
 62
     7
370
    25
100
AcDbLine
 10
30.2883674117
 20
20.2506563839
 30
0.0
 11
30.2883674117
 21
20.2351446297
 31
0.0
  0
LINE
  5
E8
330
1F
100
AcDbEntity
  8
0
  6
Continuous
 62
     7
370
    25
100
AcDbLine
 10
30.385402044
 20
20.0670575039
 30
0.0
 11
30.3988348893
 21
20.0593003663
 31
0.0
  0
LINE
  5
E9
330
1F
100
AcDbEntity
  8
0
  6
Continuous
 62
     7
370
    25
100
AcDbLine
 10
30.4769714973
 20
20.0515543654
 30
0.0
 11
30.5978867569
 21
20.1213572589
 31
0.0
  0
LINE
  5
EA
330
1F
100
AcDbEntity
  8
0
  6
Continuous
 62
     7
370
    25
100
AcDbLine
 10
30.4416494549
 20
20.3919975284
 30
0.0
 11
30.3207341953
 21
20.3221946349
 31
0.0
  0
LINE
  5
EB
330
1F
100
AcDbEntity
  8
0
  6
Continuous
 62
     7
370
    25
100
AcDbLine
 10
31.2808978452
 20
20.6191571665
 30
0.0
 11
31.2808978452
 21
20.6336946597
 31
0.0
  0
LINE
  5
EC
330
1F
100
AcDbEntity
  8
0
  6
Continuous
 62
     7
370
    25
100
AcDbLine
 10
29.2820513971
 20
18.98291919
 30
0.0
 11
29.3174009899
 21
18.96250567
 31
0.0
  0
LINE
  5
ED
330
1F
100
AcDbEntity
  8
0
  6
Continuous
 62
     7
370
    25
100
AcDbLine
 10
28.3050972565
 20
23.2762424355
 30
0.0
 11
28.0752875526
 21
23.1435761173
 31
0.0
  0
LINE
  5
EE
330
1F
100
AcDbEntity
  8
0
  6
Continuous
 62
     7
370
    25
100
AcDbLine
 10
30.5600856032
 20
18.8393132713
 30
0.0
 11
30.7898953071
 21
18.9719795895
 31
0.0
  0
LWPOLYLINE
  5
EF
330
1F
100
AcDbEntity
  8
0
  6
Continuous
 62
     7
370
    25
100
AcDbPolyline
 90
       29
 70
   128
 43
0.0
 10
28.8191762971
 20
18.6028983855
 10
28.7250215387
 20
18.5530319675
 10
28.6237896399
 20
18.5080227099
 10
28.5162300863
 20
18.4682038457
 10
28.4031392112
 20
18.4338701798
 10
28.2853542999
 20
18.4052759065
 10
28.1637473906
 20
18.382632728
 10
28.0392188184
 20
18.3661082864
 10
27.9126905492
 20
18.3558249228
 10
27.7850993541
 20
18.3518587717
 10
27.6573898736
 20
18.3542391972
 10
27.5305076241
 20
18.3629485752
 10
27.4053919973
 20
18.3779224247
 10
27.2829693056
 20
18.3990498846
 10
27.1641459238
 20
18.4261745344
 10
27.0498015785
 20
18.4590955528
 10
26.9407828353
 20
18.4975692041
 10
26.8378968309
 20
18.5413106429
 10
26.7419052973
 20
18.5899960227
 10
26.653518922
 20
18.6432648941
 10
26.5733920871
 20
18.7007228731
 10
26.5021180234
 20
18.7619445608
 10
26.4402244193
 20
18.8264766932
 10
26.3881695133
 20
18.8938414972
 10
26.3463387018
 20
18.9635402271
 10
26.3150416854
 20
19.035056858
 10
26.2945101762
 20
19.1078619058
 10
26.2848961825
 20
19.1814163474
 10
26.2841227271
 20
19.2090814085
  0
LWPOLYLINE
  5
F0
330
1F
100
AcDbEntity
  8
0
  6
Continuous
 62
     7
370
    25
100
AcDbPolyline
 90
       11
 70
   128
 43
0.0
 10
29.2541227271
 20
19.2090814085
 10
29.2540367809
 20
19.1998582981
 10
29.2471664614
 20
19.126201469
 10
29.2293532231
 20
19.053158254
 10
29.2007289491
 20
18.9812694394
 10
29.1615055635
 20
18.911067265
 10
29.1119734626
 20
18.843071483
 10
29.0524993646
 20
18.7777855105
 10
28.983523595
 20
18.7156927019
 10
28.9055568263
 20
18.6572527706
 10
28.8191762971
 20
18.6028983855
  0
SPLINE
  5
F1
330
1F
100
AcDbEntity
  8
0
  6
Continuous
 62
     7
370
    25
100
AcDbSpline
210
0.0
220
0.0
230
1.0
 70
    11
 71
     3
 72
    26
 73
    22
 74
     0
 42
0.00000001
 43
0.00000001
 40
0.0
 40
0.0
 40
0.0
 40
0.0
 40
0.0536503689453599
 40
0.1072993747806794
 40
0.1609837494484654
 40
0.214691193598116
 40
0.2683602334769246
 40
0.3219893978318427
 40
0.3756393219208449
 40
0.4293383015439468
 40
0.4830381555496783
 40
0.5366891994052547
 40
0.5903179741194498
 40
0.643985735004674
 40
0.6976929120120804
 40
0.7513784439456054
 40
0.8050151129999661
 40
0.8586518917400239
 40
0.9123375339936963
 40
0.9660446892035206
 40
1.0
 40
1.0
 40
1.0
 40
1.0
 10
28.21874879779853
 20
18.18791349544356
 30
0.0
 10
28.21803252810769
 20
18.18154152504129
 30
0.0
 10
28.21660000692447
 20
18.16879774613121
 30
0.0
 10
28.20541815215237
 20
18.15016213417099
 30
0.0
 10
28.18889906748385
 20
18.13464316338968
 30
0.0
 10
28.16818582806933
 20
18.12397132560584
 30
0.0
 10
28.14576882158086
 20
18.11946041715638
 30
0.0
 10
28.12412842827012
 20
18.12161323353925
 30
0.0
 10
28.10572711832529
 20
18.13013060630575
 30
0.0
 10
28.09267268389675
 20
18.14396723678847
 30
0.0
 10
28.08649280803094
 20
18.1614715152799
 30
0.0
 10
28.08790966695205
 20
18.18060578474403
 30
0.0
 10
28.09674654374087
 20
18.19922603940129
 30
0.0
 10
28.11197832668593
 20
18.21531991778759
 30
0.0
 10
28.13185390630384
 20
18.22717486527098
 30
0.0
 10
28.15409008823855
 20
18.2335293258892
 30
0.0
 10
28.17614419268264
 20
18.23370008464799
 30
0.0
 10
28.19559340670962
 20
18.2276453898265
 30
0.0
 10
28.21016022420921
 20
18.21593937367001
 30
0.0
 10
28.21770507938131
 20
18.20182016417656
 30
0.0
 10
28.21845739481311
 20
18.19179619476093
 30
0.0
 10
28.21874879779853
 20
18.18791349544356
 30
0.0
  0
ARC
  5
F2
330
1F
100
AcDbEntity
  8
0
  6
Continuous
 62
     7
370
    25
100
AcDbCircle
 10
28.7265603744
 20
16.0419283032
 30
0.0
 40
0.5275737963605972
100
AcDbArc
 50
333.9408533741
 51
359.6226183585
  0
ARC
  5
F3
330
1F
100
AcDbEntity
  8
0
  6
Continuous
 62
     7
370
    25
100
AcDbCircle
 10
26.8097545249
 20
16.0414108066
 30
0.0
 40
0.5256401172890205
100
AcDbArc
 50
180.3223607602
 51
206.4182403636
  0
LWPOLYLINE
  5
F4
330
1F
100
AcDbEntity
  8
0
  6
Continuous
 62
     7
370
    25
100
AcDbPolyline
 90
       18
 70
   128
 43
0.0
 10
29.5227400573
 20
20.5382582641
 10
29.531841416
 20
20.5439137953
 10
29.5644584959
 20
20.572314772
 10
29.5906153631
 20
20.6095313022
 10
29.6097277164
 20
20.6547320304
 10
29.6213686174
 20
20.7069072468
 10
29.6252780277
 20
20.7648914433
 10
29.6213686174
 20
20.8273893489
 10
29.6097277164
 20
20.8930048635
 10
29.5906153631
 20
20.960272245
 10
29.5644584959
 20
21.0276888513
 10
29.531841416
 20
21.0937487068
 10
29.4934927351
 20
21.1569761435
 10
29.4502690993
 20
21.2159587649
 10
29.4031360533
 20
21.2693789967
 10
29.3531464714
 20
21.3160435192
 10
29.3014170382
 20
21.3549099241
 10
29.2541227271
 20
21.3826048491
  0
ARC
  5
F5
330
1F
100
AcDbEntity
  8
0
  6
Continuous
 62
     7
370
    25
100
AcDbCircle
 10
28.8863111561
 20
20.7424169641
 30
0.0
 40
0.7394270039002301
100
AcDbArc
 50
2.0606426013
 51
57.933980866
  0
LWPOLYLINE
  5
F6
330
1F
100
AcDbEntity
  8
0
  6
Continuous
 62
     7
370
    25
100
AcDbPolyline
 90
       74
 70
   128
 43
0.0
 10
28.7979630937
 20
22.2730542659
 10
28.7057104516
 20
22.3219132815
 10
28.6065236417
 20
22.3660132611
 10
28.5011370083
 20
22.4050277038
 10
28.3903307974
 20
22.4386677604
 10
28.2749253792
 20
22.4666843715
 10
28.1557751752
 20
22.4888701121
 10
28.0337623317
 20
22.5050607266
 10
27.9097901891
 20
22.5151363455
 10
27.7847765939
 20
22.5190223723
 10
27.659647103
 20
22.5166900363
 10
27.5353281312
 20
22.5081566052
 10
27.4127400929
 20
22.4934852577
 10
27.2927905869
 20
22.4727846153
 10
27.1763676774
 20
22.4462079381
 10
27.0643333189
 20
22.4139519908
 10
26.9575169746
 20
22.376255585
 10
26.8567094753
 20
22.3333978117
 10
26.7626571645
 20
22.2856959749
 10
26.6760563726
 20
22.2335032423
 10
26.5975482616
 20
22.1772060306
 10
26.527714078
 20
22.1172211446
 10
26.4670708498
 20
22.0539926916
 10
26.416067558
 20
21.9879887928
 10
26.3750818134
 20
21.919698118
 10
26.3444170599
 20
21.8496262675
 10
26.3243003288
 20
21.7782920288
 10
26.3148805572
 20
21.7062235355
 10
26.3162274858
 20
21.6339543576
 10
26.3283311424
 20
21.5620195508
 10
26.3511019159
 20
21.4909516953
 10
26.3843712193
 20
21.4212769525
 10
26.4278927384
 20
21.3535111699
 10
26.4813442551
 20
21.2881560617
 10
26.5443300331
 20
21.2256954942
 10
26.6163837476
 20
21.1665919036
 10
26.6969719382
 20
21.1112828721
 10
26.7854979582
 20
21.0601778886
 10
26.8813063918
 20
21.0136553164
 10
26.9836879069
 20
20.9720595924
 10
27.0918845067
 20
20.9356986768
 10
27.2050951412
 20
20.904841773
 10
27.3224816387
 20
20.8797173348
 10
27.4431749106
 20
20.8605113747
 10
27.566281386
 20
20.847366087
 10
27.6908896278
 20
20.8403787948
 10
27.81607708
 20
20.8396012294
 10
27.9409168987
 20
20.8450391478
 10
28.0644848134
 20
20.8566522895
 10
28.1858659705
 20
20.8743546749
 10
28.3041617065
 20
20.8980152416
 10
28.4184962011
 20
20.9274588152
 10
28.5280229617
 20
20.9624674057
 10
28.6319310904
 20
21.0027818218
 10
28.7294512879
 20
21.0481035896
 10
28.8198615488
 20
21.0980971626
 10
28.902492507
 20
21.1523924059
 10
28.9767323919
 20
21.2105873365
 10
29.0420315573
 20
21.2722510995
 10
29.0979065511
 20
21.336927158
 10
29.1439436944
 20
21.4041366731
 10
29.1798021443
 20
21.473382049
 10
29.2052164172
 20
21.5441506172
 10
29.219998355
 20
21.6159184319
 10
29.2240385172
 20
21.6881541495
 10
29.217306992
 20
21.7603229619
 10
29.1998536171
 20
21.8318905564
 10
29.1718076113
 20
21.9023270716
 10
29.1333766173
 20
21.9711110203
 10
29.0848451649
 20
22.0377331501
 10
29.0265725639
 20
22.1017002141
 10
28.9589902442
 20
22.1625386226
 10
28.8825985617
 20
22.2197979492
 10
28.7979630937
 20
22.2730542659
  0
LWPOLYLINE
  5
F7
330
1F
100
AcDbEntity
  8
0
  6
Continuous
 62
     7
370
    25
100
AcDbPolyline
 90
       56
 70
   128
 43
0.0
 10
28.8191762971
 20
22.2608041632
 10
28.9055568263
 20
22.2064497781
 10
28.983523595
 20
22.1480098468
 10
29.0524993646
 20
22.0859170382
 10
29.1119734626
 20
22.0206310657
 10
29.1615055635
 20
21.9526352837
 10
29.2007289491
 20
21.8824331093
 10
29.2293532231
 20
21.8105442947
 10
29.2471664614
 20
21.7375010797
 10
29.2540367809
 20
21.6638442506
 10
29.2499133164
 20
21.5901191368
 10
29.2348265964
 20
21.5168715733
 10
29.2088883178
 20
21.4446438594
 10
29.1722905185
 20
21.3739707438
 10
29.1253041557
 20
21.3053754655
 10
29.0682771002
 20
21.23936588
 10
29.0016315602
 20
21.1764306992
 10
28.925860956
 20
21.1170358731
 10
28.8415262667
 20
21.0616211403
 10
28.7492518768
 20
21.0105967719
 10
28.6497209536
 20
20.9643405347
 10
28.5436703892
 20
20.9231948936
 10
28.4318853449
 20
20.8874644765
 10
28.3151934381
 20
20.8574138189
 10
28.1944586147
 20
20.8332654054
 10
28.0705747533
 20
20.8151980224
 10
27.9444590465
 20
20.8033454345
 10
27.817045211
 20
20.797795394
 10
27.6892765742
 20
20.7985889916
 10
27.5620990903
 20
20.8057203518
 10
27.436454337
 20
20.8191366764
 10
27.3132725441
 20
20.8387386356
 10
27.1934657065
 20
20.8643811034
 10
27.077920832
 20
20.895874232
 10
26.9674933745
 20
20.9329848573
 10
26.8630009003
 20
20.9754382251
 10
26.7652170351
 20
21.0229200256
 10
26.6748657364
 20
21.0750787201
 10
26.5926159336
 20
21.1315281439
 10
26.5190765755
 20
21.1918503653
 10
26.4547921217
 20
21.2555987796
 10
26.4002385119
 20
21.3223014158
 10
26.3558196418
 20
21.391464431
 10
26.3218643734
 20
21.4625757664
 10
26.2986240995
 20
21.5351089385
 10
26.2862708829
 20
21.6085269372
 10
26.2848961825
 20
21.6822862012
 10
26.2945101762
 20
21.7558406428
 10
26.3150416854
 20
21.8286456907
 10
26.3463387018
 20
21.9001623216
 10
26.3881695133
 20
21.9698610515
 10
26.4402244193
 20
22.0372258554
 10
26.5021180234
 20
22.1017579879
 10
26.5733920871
 20
22.1629796756
 10
26.653518922
 20
22.2204376546
 10
26.7188985354
 20
22.2607056494
  0
LWPOLYLINE
  5
F8
330
1F
100
AcDbEntity
  8
0
  6
Continuous
 62
     7
370
    25
100
AcDbPolyline
 90
       38
 70
   128
 43
0.0
 10
26.2841227271
 20
19.2090814085
 10
26.2862708829
 20
19.1629872056
 10
26.2986240995
 20
19.0895692069
 10
26.3218643734
 20
19.0170360348
 10
26.3558196418
 20
18.9459246994
 10
26.4002385119
 20
18.8767616842
 10
26.4547921217
 20
18.810059048
 10
26.5190765755
 20
18.7463106337
 10
26.5926159336
 20
18.6859884123
 10
26.6748657364
 20
18.6295389885
 10
26.7652170351
 20
18.577380294
 10
26.8630009003
 20
18.5298984935
 10
26.9674933745
 20
18.4874451257
 10
27.077920832
 20
18.4503345004
 10
27.1934657065
 20
18.4188413718
 10
27.3132725441
 20
18.393198904
 10
27.436454337
 20
18.3735969448
 10
27.5620990903
 20
18.3601806202
 10
27.6892765742
 20
18.35304926
 10
27.817045211
 20
18.3522556624
 10
27.9444590465
 20
18.3578057029
 10
28.0705747533
 20
18.3696582908
 10
28.1944586147
 20
18.3877256738
 10
28.3151934381
 20
18.4118740873
 10
28.4318853449
 20
18.4419247449
 10
28.5436703892
 20
18.477655162
 10
28.6497209536
 20
18.5188008031
 10
28.7492518768
 20
18.5650570403
 10
28.8415262667
 20
18.6160814087
 10
28.925860956
 20
18.6714961415
 10
29.0016315602
 20
18.7308909676
 10
29.0682771002
 20
18.7938261484
 10
29.1253041557
 20
18.8598357339
 10
29.1722905185
 20
18.9284310122
 10
29.2088883178
 20
18.9991041278
 10
29.2348265964
 20
19.0713318417
 10
29.2499133164
 20
19.1445794052
 10
29.2541227271
 20
19.2090814085
  0
LWPOLYLINE
  5
F9
330
1F
100
AcDbEntity
  8
0
  6
Continuous
 62
     7
370
    25
100
AcDbPolyline
 90
       23
 70
   128
 43
0.0
 10
30.3854178175
 20
20.0670483966
 10
30.4127600764
 20
20.0558036781
 10
30.4378872281
 20
20.0545492031
 10
30.4587636203
 20
20.0633866016
 10
30.4736979717
 20
20.0815999203
 10
30.48148039
 20
20.1077136242
 10
30.48148039
 20
20.1396121365
 10
30.4736979717
 20
20.1747112294
 10
30.4587636203
 20
20.2101673831
 10
30.4378872281
 20
20.2431081509
 10
30.4127600764
 20
20.2708648678
 10
30.3854178175
 20
20.2911888495
 10
30.3580755585
 20
20.302433568
 10
30.3329484068
 20
20.303688043
 10
30.3120720146
 20
20.2948506445
 10
30.2971376633
 20
20.2766373259
 10
30.2893552449
 20
20.2505236219
 10
30.2893552449
 20
20.2186251096
 10
30.2971376633
 20
20.1835260167
 10
30.3120720146
 20
20.148069863
 10
30.3329484068
 20
20.1151290952
 10
30.3580755585
 20
20.0873723784
 10
30.3854178175
 20
20.0670483966
  0
LWPOLYLINE
  5
FA
330
1F
100
AcDbEntity
  8
0
  6
Continuous
 62
     7
370
    25
100
AcDbPolyline
 90
       19
 70
   128
 43
0.0
 10
30.3988528463
 20
20.0592899983
 10
30.4286614598
 20
20.0468130314
 10
30.4562593048
 20
20.0447237829
 10
30.4795995754
 20
20.0531772029
 10
30.4969512305
 20
20.0715463397
 10
30.5070273772
 20
20.0984688386
 10
30.5090807138
 20
20.131947981
 10
30.5029589538
 20
20.169500772
 10
30.48911612
 20
20.208342093
 10
30.4685788721
 20
20.2455912608
 10
30.4428703638
 20
20.2784856751
 10
30.4138972777
 20
20.3045857077
 10
30.3838084149
 20
20.3219556384
 10
30.3548353288
 20
20.3293072191
 10
30.3291268205
 20
20.3260952166
 10
30.3085895727
 20
20.3125578505
 10
30.2947467389
 20
20.2896991252
 10
30.2886249788
 20
20.2592143679
 10
30.2883674117
 20
20.2506563839
  0
LWPOLYLINE
  5
FB
330
1F
100
AcDbEntity
  8
0
  6
Continuous
 62
     7
370
    25
100
AcDbPolyline
 90
       14
 70
   128
 43
0.0
 10
30.5978867569
 20
20.1213572589
 10
30.600514835
 20
20.1229800964
 10
30.6178664901
 20
20.1413492333
 10
30.6279426368
 20
20.1682717322
 10
30.6299959734
 20
20.2017508746
 10
30.6238742133
 20
20.2393036656
 10
30.6100313795
 20
20.2781449866
 10
30.5894941317
 20
20.3153941544
 10
30.5637856234
 20
20.3482885687
 10
30.5348125373
 20
20.3743886012
 10
30.5047236745
 20
20.391758532
 10
30.4757505883
 20
20.3991101127
 10
30.4500420801
 20
20.3958981102
 10
30.4416494549
 20
20.3919975284
  0
LINE
  5
FC
330
1F
100
AcDbEntity
  8
0
  6
Continuous
 62
     7
370
    25
100
AcDbLine
 10
30.4492270253
 20
20.1422823515
 30
0.0
 11
30.4173224214
 21
20.2245131517
 31
0.0
  0
LINE
  5
FD
330
1F
100
AcDbEntity
  8
0
  6
Continuous
 62
     7
370
    25
100
AcDbLine
 10
30.4173224214
 20
20.2245131517
 30
0.0
 11
30.3535132136
 21
20.2613494233
 31
0.0
  0
LINE
  5
FE
330
1F
100
AcDbEntity
  8
0
  6
Continuous
 62
     7
370
    25
100
AcDbLine
 10
30.3216086097
 20
20.2159548946
 30
0.0
 11
30.3535132136
 21
20.2613494233
 31
0.0
  0
LINE
  5
FF
330
1F
100
AcDbEntity
  8
0
  6
Continuous
 62
     7
370
    25
100
AcDbLine
 10
30.3535132136
 20
20.1337240944
 30
0.0
 11
30.3216086097
 21
20.2159548946
 31
0.0
  0
LINE
  5
100
330
1F
100
AcDbEntity
  8
0
  6
Continuous
 62
     7
370
    25
100
AcDbLine
 10
30.3535132136
 20
20.1337240944
 30
0.0
 11
30.4173224214
 21
20.0968878228
 31
0.0
  0
LINE
  5
101
330
1F
100
AcDbEntity
  8
0
  6
Continuous
 62
     7
370
    25
100
AcDbLine
 10
30.4492270253
 20
20.1422823515
 30
0.0
 11
30.4173224214
 21
20.0968878228
 31
0.0
  0
ARC
  5
102
330
1F
100
AcDbEntity
  8
0
  6
Continuous
 62
     7
370
    25
100
AcDbCircle
 10
30.5159976149
 20
20.2543688732
 30
0.0
 40
0.1225130336182853
100
AcDbArc
 50
200.4431139495
 51
234.1670707596
  0
ARC
  5
103
330
1F
100
AcDbEntity
  8
0
  6
Continuous
 62
     7
370
    25
100
AcDbCircle
 10
30.503303502
 20
20.2519474784
 30
0.0
 40
0.1097940101572853
100
AcDbArc
 50
187.4422996588
 51
201.5729205247
  0
LINE
  5
104
330
1F
100
AcDbEntity
  8
0
  6
Continuous
 62
     7
370
    25
100
AcDbLine
 10
30.3768779867
 20
20.2478612269
 30
0.0
 11
30.3216086097
 21
20.2159548946
 31
0.0
  0
LINE
  5
105
330
1F
100
AcDbEntity
  8
0
  6
Continuous
 62
     7
370
    25
100
AcDbLine
 10
30.4171528239
 20
20.1704624594
 30
0.0
 11
30.3535132136
 21
20.1337240944
 31
0.0
  0
LINE
  5
106
330
1F
100
AcDbEntity
  8
0
  6
Continuous
 62
     7
370
    25
100
AcDbLine
 10
30.4171528239
 20
20.1704624594
 30
0.0
 11
30.4443952542
 21
20.1547357392
 31
0.0
  0
LINE
  5
107
330
1F
100
AcDbEntity
  8
0
  6
Continuous
 62
     7
370
    25
100
AcDbLine
 10
30.4012005219
 20
20.2115778596
 30
0.0
 11
30.390079991
 21
20.240239872
 31
0.0
  0
LINE
  5
108
330
1F
100
AcDbEntity
  8
0
  6
Continuous
 62
     7
370
    25
100
AcDbLine
 10
30.4171528239
 20
20.1704624594
 30
0.0
 11
30.4012005219
 21
20.2115778596
 31
0.0
  0
ARC
  5
109
330
1F
100
AcDbEntity
  8
0
  6
Continuous
 62
     7
370
    25
100
AcDbCircle
 10
31.1440778367
 20
20.6074107267
 30
0.0
 40
0.1161292339184749
100
AcDbArc
 50
353.1391586726
 51
28.5008913231
  0
ARC
  5
10A
330
1F
100
AcDbEntity
  8
0
  6
Continuous
 62
     7
370
    25
100
AcDbCircle
 10
31.1421256525
 20
20.6099393678
 30
0.0
 40
0.1204829763567386
100
AcDbArc
 50
349.205551516
 51
32.5376954114
  0
ARC
  5
10B
330
1F
100
AcDbEntity
  8
0
  6
Continuous
 62
     7
370
    25
100
AcDbCircle
 10
31.2360413822
 20
20.6133910134
 30
0.0
 40
0.0452255545815177
100
AcDbArc
 50
305.6000745678
 51
7.3250164352
  0
ARC
  5
10C
330
1F
100
AcDbEntity
  8
0
  6
Continuous
 62
     7
370
    25
100
AcDbCircle
 10
31.1330472967
 20
20.611409813
 30
0.0
 40
0.1480533895469599
100
AcDbArc
 50
2.9995495919
 51
46.948647524
  0
ARC
  5
10D
330
1F
100
AcDbEntity
  8
0
  6
Continuous
 62
     7
370
    25
100
AcDbCircle
 10
31.162064556
 20
20.6278183566
 30
0.0
 40
0.1189784919975147
100
AcDbArc
 50
2.830968842
 51
53.1938381135
  0
LWPOLYLINE
  5
10E
330
1F
100
AcDbEntity
  8
0
  6
Continuous
 62
     7
370
    25
100
AcDbPolyline
 90
       69
 70
   128
 43
0.0
 10
27.6254911822
 20
22.5149683692
 10
27.6557340212
 20
22.6097184483
 10
27.6970755881
 20
22.7112504834
 10
27.7455036744
 20
22.8052622452
 10
27.8008065166
 20
22.8913426445
 10
27.8627422893
 20
22.9691152734
 10
27.9310401632
 20
23.038240052
 10
28.0054014891
 20
23.0984147154
 10
28.0855011037
 20
23.1493761349
 10
28.1709887519
 20
23.1909014693
 10
28.261490618
 20
23.2228091389
 10
28.3566109602
 20
23.2449596194
 10
28.4559338416
 20
23.2572560526
 10
28.5590249485
 20
23.2596446693
 10
28.6654334896
 20
23.2521150245
 10
28.7746941675
 20
23.2347000436
 10
28.8863292131
 20
23.2074758778
 10
28.9998504746
 20
23.1705615715
 10
29.1147615526
 20
23.1241185416
 10
29.2305599701
 20
23.0683498715
 10
29.3467393701
 20
23.0034994236
 10
29.4627917296
 20
22.9298507722
 10
29.5782095812
 20
22.8477259643
 10
29.6924882319
 20
22.7574841107
 10
29.8051279705
 20
22.6595198161
 10
29.9156362518
 20
22.5542614533
 10
30.0235298513
 20
22.4421692906
 10
30.1283369779
 20
22.3237334783
 10
30.2295993364
 20
22.1994719061
 10
30.3268741325
 20
22.0699279383
 10
30.4197360082
 20
21.9356680377
 10
30.5077789022
 20
21.7972792886
 10
30.5906178252
 20
21.6553668299
 10
30.6678905437
 20
21.5105512087
 10
30.7392591639
 20
21.3634656667
 10
30.8044116088
 20
21.2147533717
 10
30.8630629835
 20
21.0650646046
 10
30.9149568203
 20
20.9150539164
 10
30.9598662007
 20
20.7653772656
 10
30.9975947476
 20
20.6166891502
 10
31.0279774834
 20
20.4696397454
 10
31.0508815522
 20
20.3248720609
 10
31.0662068004
 20
20.183019129
 10
31.0738862146
 20
20.0447012363
 10
31.0738862146
 20
19.9105232119
 10
31.0662068004
 20
19.7810717821
 10
31.0508815522
 20
19.656913005
 10
31.0279774834
 20
19.5385897955
 10
30.9975947476
 20
19.4266195509
 10
30.9598662007
 20
19.3214918884
 10
30.9149568203
 20
19.2236665046
 10
30.8630629835
 20
19.1335711651
 10
30.8044116088
 20
19.0515998338
 10
30.7392591639
 20
18.9781109505
 10
30.6678905437
 20
18.9134258634
 10
30.5906178252
 20
18.8578274239
 10
30.5077789022
 20
18.8115587499
 10
30.4197360082
 20
18.7748221625
 10
30.3268741325
 20
18.7477783014
 10
30.2295993364
 20
18.7305454225
 10
30.1283369779
 20
18.723198881
 10
30.0235298513
 20
18.7257708012
 10
29.9156362518
 20
18.7382499369
 10
29.8051279705
 20
18.76058172
 10
29.6924882319
 20
18.7926684992
 10
29.5782095812
 20
18.8343699673
 10
29.4627917296
 20
18.8855037744
 10
29.3467393701
 20
18.9458463252
 10
29.3174009899
 20
18.96250567
  0
LWPOLYLINE
  5
10F
330
1F
100
AcDbEntity
  8
0
  6
Continuous
 62
     7
370
    25
100
AcDbPolyline
 90
       68
 70
   128
 43
0.0
 10
29.2541227271
 20
18.9993088925
 10
29.3398653137
 20
18.950654226
 10
29.4546765023
 20
18.8932503058
 10
29.5687179552
 20
18.8451262742
 10
29.6814803355
 20
18.8064970647
 10
29.792460019
 20
18.7775352049
 10
29.9011613435
 20
18.7583700453
 10
30.0070988226
 20
18.7490871823
 10
30.1097993137
 20
18.7497280753
 10
30.2088041315
 20
18.760289862
 10
30.3036710964
 20
18.7807253709
 10
30.3939765096
 20
18.8109433321
 10
30.4793170452
 20
18.8508087847
 10
30.5593115516
 20
18.90014368
 10
30.6336027539
 20
18.9587276764
 10
30.7018588497
 20
19.0262991236
 10
30.7637749905
 20
19.102556231
 10
30.8190746439
 20
19.1871584159
 10
30.8675108282
 20
19.2797278243
 10
30.9088672156
 20
19.379851019
 10
30.9429590985
 20
19.4870808252
 10
30.9696342143
 20
19.6009383288
 10
30.9887734254
 20
19.7209150145
 10
31.0002912514
 20
19.8464750372
 10
31.004136251
 20
19.9770576154
 10
31.0002912514
 20
20.1120795356
 10
30.9887734254
 20
20.2509377572
 10
30.9696342143
 20
20.3930121056
 10
30.9429590985
 20
20.5376680423
 10
30.9088672156
 20
20.6842594988
 10
30.8675108282
 20
20.832131762
 10
30.8190746439
 20
20.9806243985
 10
30.7637749905
 20
21.1290742041
 10
30.7018588497
 20
21.276818166
 10
30.6336027539
 20
21.4231964239
 10
30.5593115516
 20
21.5675552167
 10
30.4793170452
 20
21.7092498032
 10
30.3939765096
 20
21.8476473409
 10
30.3036710964
 20
21.9821297128
 10
30.2088041315
 20
22.112096288
 10
30.1097993137
 20
22.2369666043
 10
30.0070988226
 20
22.3561829604
 10
29.9011613435
 20
22.4692129072
 10
29.792460019
 20
22.5755516255
 10
29.6814803355
 20
22.6747241808
 10
29.5687179552
 20
22.7662876443
 10
29.4546765023
 20
22.8498330715
 10
29.3398653137
 20
22.9249873281
 10
29.2247971639
 20
22.991414757
 10
29.1099859753
 20
23.0488186772
 10
28.9959445224
 20
23.0969427089
 10
28.8831821422
 20
23.1355719183
 10
28.7722024587
 20
23.1645337782
 10
28.6635011341
 20
23.1836989378
 10
28.5575636551
 20
23.1929818008
 10
28.454863164
 20
23.1923409078
 10
28.3558583462
 20
23.181779121
 10
28.2609913812
 20
23.1613436121
 10
28.170685968
 20
23.131125651
 10
28.0853454324
 20
23.0912601984
 10
28.005350926
 20
23.041925303
 10
27.9310597237
 20
22.9833413066
 10
27.862803628
 20
22.9157698595
 10
27.8008874871
 20
22.8395127521
 10
27.7455878338
 20
22.7549105672
 10
27.6971516495
 20
22.6623411587
 10
27.655795262
 20
22.5622179641
 10
27.6398461989
 20
22.5157489954
  0
LWPOLYLINE
  5
110
330
1F
100
AcDbEntity
  8
0
  6
Continuous
 62
     7
370
    25
100
AcDbPolyline
 90
       50
 70
   128
 43
0.0
 10
28.3050972565
 20
23.2762424355
 10
28.3153108076
 20
23.2820424531
 10
28.4007984558
 20
23.3235677875
 10
28.4913003219
 20
23.355475457
 10
28.5864206641
 20
23.3776259376
 10
28.6857435455
 20
23.3899223708
 10
28.7888346523
 20
23.3923109874
 10
28.8952431935
 20
23.3847813427
 10
29.0045038714
 20
23.3673663618
 10
29.1161389169
 20
23.340142196
 10
29.2296601785
 20
23.3032278897
 10
29.3445712565
 20
23.2567848597
 10
29.460369674
 20
23.2010161897
 10
29.5765490739
 20
23.1361657417
 10
29.6926014335
 20
23.0625170904
 10
29.808019285
 20
22.9803922825
 10
29.9222979358
 20
22.8901504289
 10
30.0349376744
 20
22.7921861342
 10
30.1454459557
 20
22.6869277715
 10
30.2533395552
 20
22.5748356088
 10
30.3581466817
 20
22.4563997965
 10
30.4594090403
 20
22.3321382243
 10
30.5566838364
 20
22.2025942565
 10
30.6495457121
 20
22.0683343559
 10
30.737588606
 20
21.9299456068
 10
30.8204275291
 20
21.7880331481
 10
30.8977002476
 20
21.6432175268
 10
30.9690688678
 20
21.4961319849
 10
31.0342213127
 20
21.3474196898
 10
31.0928726873
 20
21.1977309228
 10
31.1447665242
 20
21.0477202346
 10
31.1896759046
 20
20.8980435838
 10
31.2274044514
 20
20.7493554684
 10
31.2577871873
 20
20.6023060636
 10
31.2806912561
 20
20.4575383791
 10
31.2960165043
 20
20.3156854471
 10
31.3036959185
 20
20.1773675545
 10
31.3036959185
 20
20.04318953
 10
31.2960165043
 20
19.9137381002
 10
31.2806912561
 20
19.7895793232
 10
31.2577871873
 20
19.6712561137
 10
31.2274044514
 20
19.559285869
 10
31.1896759046
 20
19.4541582065
 10
31.1447665242
 20
19.3563328228
 10
31.0928726873
 20
19.2662374833
 10
31.0342213127
 20
19.184266152
 10
30.9690688678
 20
19.1107772687
 10
30.8977002476
 20
19.0460921816
 10
30.8204275291
 20
18.9904937421
 10
30.7898953071
 20
18.9719795895
  0
LWPOLYLINE
  5
111
330
1F
100
AcDbEntity
  8
0
  6
Continuous
 62
     7
370
    25
100
AcDbPolyline
 90
       17
 70
   128
 43
0.0
 10
28.1540567521
 20
18.1252094079
 10
28.1774463511
 20
18.1329580093
 10
28.1971856171
 20
18.1473940658
 10
28.2102694258
 20
18.1663198188
 10
28.214705886
 20
18.186853994
 10
28.2098195867
 20
18.2058704492
 10
28.1963544229
 20
18.2204741016
 10
28.1763603435
 20
18.2284416775
 10
28.152881266
 20
18.2285601857
 10
28.129491667
 20
18.2208115843
 10
28.109752401
 20
18.2063755277
 10
28.0966685923
 20
18.1874497747
 10
28.0922321321
 20
18.1669155996
 10
28.0971184314
 20
18.1478991444
 10
28.1105835952
 20
18.133295492
 10
28.1305776746
 20
18.1253279161
 10
28.1540567521
 20
18.1252094079
  0
LINE
  5
112
330
1F
100
AcDbEntity
  8
0
  6
Continuous
 62
     7
370
    25
100
AcDbLine
 10
28.1909296429
 20
18.2013699053
 30
0.0
 11
28.1530515324
 21
18.2135900708
 31
0.0
  0
LINE
  5
113
330
1F
100
AcDbEntity
  8
0
  6
Continuous
 62
     7
370
    25
100
AcDbLine
 10
28.1155908985
 20
18.1891049624
 30
0.0
 11
28.1530515324
 21
18.2135900708
 31
0.0
  0
LINE
  5
114
330
1F
100
AcDbEntity
  8
0
  6
Continuous
 62
     7
370
    25
100
AcDbLine
 10
28.1160083752
 20
18.1523996883
 30
0.0
 11
28.1155908985
 21
18.1891049624
 31
0.0
  0
LINE
  5
115
330
1F
100
AcDbEntity
  8
0
  6
Continuous
 62
     7
370
    25
100
AcDbLine
 10
28.1160083752
 20
18.1523996883
 30
0.0
 11
28.1538864857
 21
18.1401795227
 31
0.0
  0
LINE
  5
116
330
1F
100
AcDbEntity
  8
0
  6
Continuous
 62
     7
370
    25
100
AcDbLine
 10
28.1913471196
 20
18.1646646312
 30
0.0
 11
28.1538864857
 21
18.1401795227
 31
0.0
  0
LINE
  5
117
330
1F
100
AcDbEntity
  8
0
  6
Continuous
 62
     7
370
    25
100
AcDbLine
 10
28.1913471196
 20
18.1646646312
 30
0.0
 11
28.1909296429
 21
18.2013699053
 31
0.0
  0
LINE
  5
118
330
1F
100
AcDbEntity
  8
0
  6
Continuous
 62
     7
370
    25
100
AcDbLine
 10
28.1713833618
 20
18.2076758901
 30
0.0
 11
28.1913471196
 21
18.1646646312
 31
0.0
  0
LINE
  5
119
330
1F
100
AcDbEntity
  8
0
  6
Continuous
 62
     7
370
    25
100
AcDbLine
 10
28.1218393348
 20
18.1931890802
 30
0.0
 11
28.1305927717
 21
18.1903650626
 31
0.0
  0
LINE
  5
11A
330
1F
100
AcDbEntity
  8
0
  6
Continuous
 62
     7
370
    25
100
AcDbLine
 10
28.1305927717
 20
18.1903650626
 30
0.0
 11
28.1538864857
 21
18.1401795227
 31
0.0
  0
LINE
  5
11B
330
1F
100
AcDbEntity
  8
0
  6
Continuous
 62
     7
370
    25
100
AcDbLine
 10
28.1618049692
 20
18.2107660533
 30
0.0
 11
28.1305927717
 21
18.1903650626
 31
0.0
  0
ARC
  5
11C
330
1F
100
AcDbEntity
  8
0
  6
Continuous
 62
     7
370
    25
100
AcDbCircle
 10
28.3917731979
 20
16.2448935731
 30
0.0
 40
0.9181665478475335
100
AcDbArc
 50
297.7423442341
 51
331.7399763896
  0
LWPOLYLINE
  5
11D
330
1F
100
AcDbEntity
  8
0
  6
Continuous
 62
     7
370
    25
100
AcDbPolyline
 90
       26
 70
   128
 43
0.0
 10
26.3390069192
 20
15.8075428424
 10
26.3463387018
 20
15.7929122545
 10
26.3881695133
 20
15.7232135246
 10
26.4402244193
 20
15.6558487207
 10
26.5021180234
 20
15.5913165882
 10
26.5733920871
 20
15.5300949005
 10
26.653518922
 20
15.4726369216
 10
26.7419052973
 20
15.4193680502
 10
26.8378968309
 20
15.3706826703
 10
26.9407828353
 20
15.3269412316
 10
27.0498015785
 20
15.2884675803
 10
27.1641459238
 20
15.2555465619
 10
27.2829693056
 20
15.228421912
 10
27.4053919973
 20
15.2072944522
 10
27.5305076241
 20
15.1923206027
 10
27.6573898736
 20
15.1836112246
 10
27.7850993541
 20
15.1812307992
 10
27.9126905492
 20
15.1851969503
 10
28.0392188184
 20
15.1954803138
 10
28.1637473906
 20
15.2120047555
 10
28.2853542999
 20
15.234647934
 10
28.4031392112
 20
15.2632422072
 10
28.5162300863
 20
15.2975758732
 10
28.6237896399
 20
15.3373947374
 10
28.7250215387
 20
15.3824039949
 10
28.8191762971
 20
15.432270413
  0
LINE
  5
11E
330
1F
100
AcDbEntity
  8
0
  6
Continuous
 62
     7
370
    25
100
AcDbLine
 10
6.9651272622
 20
16.3061513441
 30
0.0
 11
6.9651272622
 21
12.7402812821
 31
0.0
  0
LINE
  5
11F
330
1F
100
AcDbEntity
  8
0
  6
Continuous
 62
     7
370
    25
100
AcDbLine
 10
6.9651272622
 20
16.6232812821
 30
0.0
 11
6.9651272622
 21
16.441178638
 31
0.0
  0
LINE
  5
120
330
1F
100
AcDbEntity
  8
0
  6
Continuous
 62
     7
370
    25
100
AcDbLine
 10
9.9351272622
 20
12.7402812821
 30
0.0
 11
9.9351272622
 21
16.6232812821
 31
0.0
  0
ARC
  5
121
330
1F
100
AcDbEntity
  8
0
  6
Continuous
 62
     7
370
    25
100
AcDbCircle
 10
9.9051272622
 20
12.7402812821
 30
0.0
 40
0.0300000000000011
100
AcDbArc
 50
270.0
 51
0.0
  0
ARC
  5
122
330
1F
100
AcDbEntity
  8
0
  6
Continuous
 62
     7
370
    25
100
AcDbCircle
 10
6.9951272622
 20
12.7402812821
 30
0.0
 40
0.0300000000000002
100
AcDbArc
 50
180.0
 51
270.0
  0
ARC
  5
123
330
1F
100
AcDbEntity
  8
0
  6
Continuous
 62
     7
370
    25
100
AcDbCircle
 10
6.3201272622
 20
18.1962812821
 30
0.0
 40
0.0100000000000016
100
AcDbArc
 50
90.0
 51
180.0
  0
ARC
  5
124
330
1F
100
AcDbEntity
  8
0
  6
Continuous
 62
     7
370
    25
100
AcDbCircle
 10
6.3201272622
 20
17.2262812821
 30
0.0
 40
0.0099999999999998
100
AcDbArc
 50
180.0
 51
270.0
  0
LINE
  5
125
330
1F
100
AcDbEntity
  8
0
  6
Continuous
 62
     7
370
    25
100
AcDbLine
 10
6.3201272622
 20
17.2162812821
 30
0.0
 11
6.9659596068
 21
17.2162812821
 31
0.0
  0
LINE
  5
126
330
1F
100
AcDbEntity
  8
0
  6
Continuous
 62
     7
370
    25
100
AcDbLine
 10
6.9659601519
 20
18.2062812821
 30
0.0
 11
6.3201272622
 21
18.2062812821
 31
0.0
  0
LINE
  5
127
330
1F
100
AcDbEntity
  8
0
  6
Continuous
 62
     7
370
    25
100
AcDbLine
 10
9.9351272622
 20
16.6232812821
 30
0.0
 11
9.9351272622
 21
19.6182812821
 31
0.0
  0
LINE
  5
128
330
1F
100
AcDbEntity
  8
0
  6
Continuous
 62
     7
370
    25
100
AcDbLine
 10
6.9651272622
 20
17.2155687974
 30
0.0
 11
6.9651272622
 21
16.6232812821
 31
0.0
  0
LINE
  5
129
330
1F
100
AcDbEntity
  8
0
  6
Continuous
 62
     7
370
    25
100
AcDbLine
 10
6.9651272622
 20
19.6182812821
 30
0.0
 11
6.9651272622
 21
18.2071804974
 31
0.0
  0
LINE
  5
12A
330
1F
100
AcDbEntity
  8
0
  6
Continuous
 62
     7
370
    25
100
AcDbLine
 10
9.9351272622
 20
19.6182812821
 30
0.0
 11
9.9051272622
 21
19.6482812821
 31
0.0
  0
LINE
  5
12B
330
1F
100
AcDbEntity
  8
0
  6
Continuous
 62
     7
370
    25
100
AcDbLine
 10
6.9951272622
 20
19.6482812821
 30
0.0
 11
6.9651272622
 21
19.6182812821
 31
0.0
  0
LINE
  5
12C
330
1F
100
AcDbEntity
  8
0
  6
Continuous
 62
     7
370
    25
100
AcDbLine
 10
5.878603402
 20
18.7870062286
 30
0.0
 11
5.8760011224
 21
18.7870062286
 31
0.0
  0
LINE
  5
12D
330
1F
100
AcDbEntity
  8
0
  6
Continuous
 62
     7
370
    25
100
AcDbLine
 10
5.8760011224
 20
18.6230062286
 30
0.0
 11
5.878603402
 21
18.6230062286
 31
0.0
  0
LINE
  5
12E
330
1F
100
AcDbEntity
  8
0
  6
Continuous
 62
     7
370
    25
100
AcDbLine
 10
5.8760011224
 20
18.7870062286
 30
0.0
 11
5.8629772622
 21
18.7684062286
 31
0.0
  0
LINE
  5
12F
330
1F
100
AcDbEntity
  8
0
  6
Continuous
 62
     7
370
    25
100
AcDbLine
 10
5.8629772622
 20
18.6416062286
 30
0.0
 11
5.8760011224
 21
18.6230062286
 31
0.0
  0
LINE
  5
130
330
1F
100
AcDbEntity
  8
0
  6
Continuous
 62
     7
370
    25
100
AcDbLine
 10
5.849953402
 20
18.7870062286
 30
0.0
 11
5.8473511224
 21
18.7870062286
 31
0.0
  0
LINE
  5
131
330
1F
100
AcDbEntity
  8
0
  6
Continuous
 62
     7
370
    25
100
AcDbLine
 10
5.8473511224
 20
18.6230062286
 30
0.0
 11
5.849953402
 21
18.6230062286
 31
0.0
  0
LINE
  5
132
330
1F
100
AcDbEntity
  8
0
  6
Continuous
 62
     7
370
    25
100
AcDbLine
 10
5.907253402
 20
18.6230062286
 30
0.0
 11
5.9201272622
 21
18.6413920064
 31
0.0
  0
LINE
  5
133
330
1F
100
AcDbEntity
  8
0
  6
Continuous
 62
     7
370
    25
100
AcDbLine
 10
5.9046511224
 20
18.6230062286
 30
0.0
 11
5.907253402
 21
18.6230062286
 31
0.0
  0
LINE
  5
134
330
1F
100
AcDbEntity
  8
0
  6
Continuous
 62
     7
370
    25
100
AcDbLine
 10
5.649403402
 20
18.7870062286
 30
0.0
 11
5.6468011224
 21
18.7870062286
 31
0.0
  0
LINE
  5
135
330
1F
100
AcDbEntity
  8
0
  6
Continuous
 62
     7
370
    25
100
AcDbLine
 10
5.6468011224
 20
18.6230062286
 30
0.0
 11
5.649403402
 21
18.6230062286
 31
0.0
  0
LINE
  5
136
330
1F
100
AcDbEntity
  8
0
  6
Continuous
 62
     7
370
    25
100
AcDbLine
 10
5.706703402
 20
18.7870062286
 30
0.0
 11
5.7041011224
 21
18.7870062286
 31
0.0
  0
LINE
  5
137
330
1F
100
AcDbEntity
  8
0
  6
Continuous
 62
     7
370
    25
100
AcDbLine
 10
5.7041011224
 20
18.6230062286
 30
0.0
 11
5.706703402
 21
18.6230062286
 31
0.0
  0
LINE
  5
138
330
1F
100
AcDbEntity
  8
0
  6
Continuous
 62
     7
370
    25
100
AcDbLine
 10
5.620753402
 20
18.7870062286
 30
0.0
 11
5.6181511224
 21
18.7870062286
 31
0.0
  0
LINE
  5
139
330
1F
100
AcDbEntity
  8
0
  6
Continuous
 62
     7
370
    25
100
AcDbLine
 10
5.6181511224
 20
18.6230062286
 30
0.0
 11
5.620753402
 21
18.6230062286
 31
0.0
  0
LINE
  5
13A
330
1F
100
AcDbEntity
  8
0
  6
Continuous
 62
     7
370
    25
100
AcDbLine
 10
5.764003402
 20
18.7870062286
 30
0.0
 11
5.7614011224
 21
18.7870062286
 31
0.0
  0
LINE
  5
13B
330
1F
100
AcDbEntity
  8
0
  6
Continuous
 62
     7
370
    25
100
AcDbLine
 10
5.7614011224
 20
18.6230062286
 30
0.0
 11
5.764003402
 21
18.6230062286
 31
0.0
  0
LINE
  5
13C
330
1F
100
AcDbEntity
  8
0
  6
Continuous
 62
     7
370
    25
100
AcDbLine
 10
5.792653402
 20
18.7870062286
 30
0.0
 11
5.7900511224
 21
18.7870062286
 31
0.0
  0
LINE
  5
13D
330
1F
100
AcDbEntity
  8
0
  6
Continuous
 62
     7
370
    25
100
AcDbLine
 10
5.7900511224
 20
18.6230062286
 30
0.0
 11
5.792653402
 21
18.6230062286
 31
0.0
  0
LINE
  5
13E
330
1F
100
AcDbEntity
  8
0
  6
Continuous
 62
     7
370
    25
100
AcDbLine
 10
5.735353402
 20
18.7870062286
 30
0.0
 11
5.7327511224
 21
18.7870062286
 31
0.0
  0
LINE
  5
13F
330
1F
100
AcDbEntity
  8
0
  6
Continuous
 62
     7
370
    25
100
AcDbLine
 10
5.7327511224
 20
18.6230062286
 30
0.0
 11
5.735353402
 21
18.6230062286
 31
0.0
  0
LINE
  5
140
330
1F
100
AcDbEntity
  8
0
  6
Continuous
 62
     7
370
    25
100
AcDbLine
 10
5.8473511224
 20
18.7870062286
 30
0.0
 11
5.8343272622
 21
18.7684062286
 31
0.0
  0
LINE
  5
141
330
1F
100
AcDbEntity
  8
0
  6
Continuous
 62
     7
370
    25
100
AcDbLine
 10
5.8343272622
 20
18.6416062286
 30
0.0
 11
5.8473511224
 21
18.6230062286
 31
0.0
  0
LINE
  5
142
330
1F
100
AcDbEntity
  8
0
  6
Continuous
 62
     7
370
    25
100
AcDbLine
 10
5.821303402
 20
18.7870062286
 30
0.0
 11
5.8187011224
 21
18.7870062286
 31
0.0
  0
LINE
  5
143
330
1F
100
AcDbEntity
  8
0
  6
Continuous
 62
     7
370
    25
100
AcDbLine
 10
5.8187011224
 20
18.6230062286
 30
0.0
 11
5.821303402
 21
18.6230062286
 31
0.0
  0
LINE
  5
144
330
1F
100
AcDbEntity
  8
0
  6
Continuous
 62
     7
370
    25
100
AcDbLine
 10
5.649403402
 20
18.6230062286
 30
0.0
 11
5.6624272622
 21
18.6416062286
 31
0.0
  0
LINE
  5
145
330
1F
100
AcDbEntity
  8
0
  6
Continuous
 62
     7
370
    25
100
AcDbLine
 10
5.6624272622
 20
18.7684062286
 30
0.0
 11
5.649403402
 21
18.7870062286
 31
0.0
  0
LINE
  5
146
330
1F
100
AcDbEntity
  8
0
  6
Continuous
 62
     7
370
    25
100
AcDbLine
 10
5.678053402
 20
18.7870062286
 30
0.0
 11
5.6754511224
 21
18.7870062286
 31
0.0
  0
LINE
  5
147
330
1F
100
AcDbEntity
  8
0
  6
Continuous
 62
     7
370
    25
100
AcDbLine
 10
5.6754511224
 20
18.6230062286
 30
0.0
 11
5.678053402
 21
18.6230062286
 31
0.0
  0
LINE
  5
148
330
1F
100
AcDbEntity
  8
0
  6
Continuous
 62
     7
370
    25
100
AcDbLine
 10
5.6754511224
 20
18.7870062286
 30
0.0
 11
5.6624272622
 21
18.7684062286
 31
0.0
  0
LINE
  5
149
330
1F
100
AcDbEntity
  8
0
  6
Continuous
 62
     7
370
    25
100
AcDbLine
 10
5.6624272622
 20
18.6416062286
 30
0.0
 11
5.6754511224
 21
18.6230062286
 31
0.0
  0
LINE
  5
14A
330
1F
100
AcDbEntity
  8
0
  6
Continuous
 62
     7
370
    25
100
AcDbLine
 10
5.7614011224
 20
18.7870062286
 30
0.0
 11
5.7483772622
 21
18.7684062286
 31
0.0
  0
LINE
  5
14B
330
1F
100
AcDbEntity
  8
0
  6
Continuous
 62
     7
370
    25
100
AcDbLine
 10
5.7483772622
 20
18.6416062286
 30
0.0
 11
5.7614011224
 21
18.6230062286
 31
0.0
  0
LINE
  5
14C
330
1F
100
AcDbEntity
  8
0
  6
Continuous
 62
     7
370
    25
100
AcDbLine
 10
5.792653402
 20
18.6230062286
 30
0.0
 11
5.8056772622
 21
18.6416062286
 31
0.0
  0
LINE
  5
14D
330
1F
100
AcDbEntity
  8
0
  6
Continuous
 62
     7
370
    25
100
AcDbLine
 10
5.8056772622
 20
18.7684062286
 30
0.0
 11
5.792653402
 21
18.7870062286
 31
0.0
  0
LINE
  5
14E
330
1F
100
AcDbEntity
  8
0
  6
Continuous
 62
     7
370
    25
100
AcDbLine
 10
5.7327511224
 20
18.7870062286
 30
0.0
 11
5.7197272622
 21
18.7684062286
 31
0.0
  0
LINE
  5
14F
330
1F
100
AcDbEntity
  8
0
  6
Continuous
 62
     7
370
    25
100
AcDbLine
 10
5.7197272622
 20
18.6416062286
 30
0.0
 11
5.7327511224
 21
18.6230062286
 31
0.0
  0
LINE
  5
150
330
1F
100
AcDbEntity
  8
0
  6
Continuous
 62
     7
370
    25
100
AcDbLine
 10
5.7900511224
 20
18.7870062286
 30
0.0
 11
5.7770272622
 21
18.7684062286
 31
0.0
  0
LINE
  5
151
330
1F
100
AcDbEntity
  8
0
  6
Continuous
 62
     7
370
    25
100
AcDbLine
 10
5.7770272622
 20
18.6416062286
 30
0.0
 11
5.7900511224
 21
18.6230062286
 31
0.0
  0
LINE
  5
152
330
1F
100
AcDbEntity
  8
0
  6
Continuous
 62
     7
370
    25
100
AcDbLine
 10
5.6468011224
 20
18.7870062286
 30
0.0
 11
5.6337772622
 21
18.7684062286
 31
0.0
  0
LINE
  5
153
330
1F
100
AcDbEntity
  8
0
  6
Continuous
 62
     7
370
    25
100
AcDbLine
 10
5.6337772622
 20
18.6416062286
 30
0.0
 11
5.6468011224
 21
18.6230062286
 31
0.0
  0
LINE
  5
154
330
1F
100
AcDbEntity
  8
0
  6
Continuous
 62
     7
370
    25
100
AcDbLine
 10
5.706703402
 20
18.6230062286
 30
0.0
 11
5.7197272622
 21
18.6416062286
 31
0.0
  0
LINE
  5
155
330
1F
100
AcDbEntity
  8
0
  6
Continuous
 62
     7
370
    25
100
AcDbLine
 10
5.7197272622
 20
18.7684062286
 30
0.0
 11
5.706703402
 21
18.7870062286
 31
0.0
  0
LINE
  5
156
330
1F
100
AcDbEntity
  8
0
  6
Continuous
 62
     7
370
    25
100
AcDbLine
 10
5.735353402
 20
18.6230062286
 30
0.0
 11
5.7483772622
 21
18.6416062286
 31
0.0
  0
LINE
  5
157
330
1F
100
AcDbEntity
  8
0
  6
Continuous
 62
     7
370
    25
100
AcDbLine
 10
5.7483772622
 20
18.7684062286
 30
0.0
 11
5.735353402
 21
18.7870062286
 31
0.0
  0
LINE
  5
158
330
1F
100
AcDbEntity
  8
0
  6
Continuous
 62
     7
370
    25
100
AcDbLine
 10
5.678053402
 20
18.6230062286
 30
0.0
 11
5.6910772622
 21
18.6416062286
 31
0.0
  0
LINE
  5
159
330
1F
100
AcDbEntity
  8
0
  6
Continuous
 62
     7
370
    25
100
AcDbLine
 10
5.6910772622
 20
18.7684062286
 30
0.0
 11
5.678053402
 21
18.7870062286
 31
0.0
  0
LINE
  5
15A
330
1F
100
AcDbEntity
  8
0
  6
Continuous
 62
     7
370
    25
100
AcDbLine
 10
5.620753402
 20
18.6230062286
 30
0.0
 11
5.6337772622
 21
18.6416062286
 31
0.0
  0
LINE
  5
15B
330
1F
100
AcDbEntity
  8
0
  6
Continuous
 62
     7
370
    25
100
AcDbLine
 10
5.6337772622
 20
18.7684062286
 30
0.0
 11
5.620753402
 21
18.7870062286
 31
0.0
  0
LINE
  5
15C
330
1F
100
AcDbEntity
  8
0
  6
Continuous
 62
     7
370
    25
100
AcDbLine
 10
5.6181511224
 20
18.7870062286
 30
0.0
 11
5.6051272622
 21
18.7684062286
 31
0.0
  0
LINE
  5
15D
330
1F
100
AcDbEntity
  8
0
  6
Continuous
 62
     7
370
    25
100
AcDbLine
 10
5.6051272622
 20
18.6416062286
 30
0.0
 11
5.6181511224
 21
18.6230062286
 31
0.0
  0
LINE
  5
15E
330
1F
100
AcDbEntity
  8
0
  6
Continuous
 62
     7
370
    25
100
AcDbLine
 10
5.764003402
 20
18.6230062286
 30
0.0
 11
5.7770272622
 21
18.6416062286
 31
0.0
  0
LINE
  5
15F
330
1F
100
AcDbEntity
  8
0
  6
Continuous
 62
     7
370
    25
100
AcDbLine
 10
5.7770272622
 20
18.7684062286
 30
0.0
 11
5.764003402
 21
18.7870062286
 31
0.0
  0
LINE
  5
160
330
1F
100
AcDbEntity
  8
0
  6
Continuous
 62
     7
370
    25
100
AcDbLine
 10
5.849953402
 20
18.6230062286
 30
0.0
 11
5.8629772622
 21
18.6416062286
 31
0.0
  0
LINE
  5
161
330
1F
100
AcDbEntity
  8
0
  6
Continuous
 62
     7
370
    25
100
AcDbLine
 10
5.8629772622
 20
18.7684062286
 30
0.0
 11
5.849953402
 21
18.7870062286
 31
0.0
  0
LINE
  5
162
330
1F
100
AcDbEntity
  8
0
  6
Continuous
 62
     7
370
    25
100
AcDbLine
 10
5.8187011224
 20
18.7870062286
 30
0.0
 11
5.8056772622
 21
18.7684062286
 31
0.0
  0
LINE
  5
163
330
1F
100
AcDbEntity
  8
0
  6
Continuous
 62
     7
370
    25
100
AcDbLine
 10
5.8056772622
 20
18.6416062286
 30
0.0
 11
5.8187011224
 21
18.6230062286
 31
0.0
  0
LINE
  5
164
330
1F
100
AcDbEntity
  8
0
  6
Continuous
 62
     7
370
    25
100
AcDbLine
 10
5.878603402
 20
18.6230062286
 30
0.0
 11
5.8916272622
 21
18.6416062286
 31
0.0
  0
LINE
  5
165
330
1F
100
AcDbEntity
  8
0
  6
Continuous
 62
     7
370
    25
100
AcDbLine
 10
5.890307585
 20
18.7702909229
 30
0.0
 11
5.878603402
 21
18.7870062286
 31
0.0
  0
LINE
  5
166
330
1F
100
AcDbEntity
  8
0
  6
Continuous
 62
     7
370
    25
100
AcDbLine
 10
5.8916272622
 20
18.6416062286
 30
0.0
 11
5.9046511224
 21
18.6230062286
 31
0.0
  0
LINE
  5
167
330
1F
100
AcDbEntity
  8
0
  6
Continuous
 62
     7
370
    25
100
AcDbLine
 10
5.821303402
 20
18.6230062286
 30
0.0
 11
5.8343272622
 21
18.6416062286
 31
0.0
  0
LINE
  5
168
330
1F
100
AcDbEntity
  8
0
  6
Continuous
 62
     7
370
    25
100
AcDbLine
 10
5.8343272622
 20
18.7684062286
 30
0.0
 11
5.821303402
 21
18.7870062286
 31
0.0
  0
LINE
  5
169
330
1F
100
AcDbEntity
  8
0
  6
Continuous
 62
     7
370
    25
100
AcDbLine
 10
5.7041011224
 20
18.7870062286
 30
0.0
 11
5.6910772622
 21
18.7684062286
 31
0.0
  0
LINE
  5
16A
330
1F
100
AcDbEntity
  8
0
  6
Continuous
 62
     7
370
    25
100
AcDbLine
 10
5.6910772622
 20
18.6416062286
 30
0.0
 11
5.7041011224
 21
18.6230062286
 31
0.0
  0
LINE
  5
16B
330
1F
100
AcDbEntity
  8
0
  6
Continuous
 62
     7
370
    25
100
AcDbLine
 10
6.4811272622
 20
17.5550312821
 30
0.0
 11
6.5001272622
 21
17.5740312821
 31
0.0
  0
LINE
  5
16C
330
1F
100
AcDbEntity
  8
0
  6
Continuous
 62
     7
370
    25
100
AcDbLine
 10
6.5001272622
 20
17.8485312821
 30
0.0
 11
6.4811272622
 21
17.8675312821
 31
0.0
  0
LINE
  5
16D
330
1F
100
AcDbEntity
  8
0
  6
Continuous
 62
     7
370
    25
100
AcDbLine
 10
6.4811272622
 20
17.8675312821
 30
0.0
 11
6.3101272622
 21
17.8675312821
 31
0.0
  0
LINE
  5
16E
330
1F
100
AcDbEntity
  8
0
  6
Continuous
 62
     7
370
    25
100
AcDbLine
 10
6.3101272622
 20
17.5550312821
 30
0.0
 11
6.4811272622
 21
17.5550312821
 31
0.0
  0
LINE
  5
16F
330
1F
100
AcDbEntity
  8
0
  6
Continuous
 62
     7
370
    25
100
AcDbLine
 10
5.8681011224
 20
17.8062812821
 30
0.0
 11
5.8550772622
 21
17.7876812821
 31
0.0
  0
LINE
  5
170
330
1F
100
AcDbEntity
  8
0
  6
Continuous
 62
     7
370
    25
100
AcDbLine
 10
5.8550772622
 20
17.6348812821
 30
0.0
 11
5.8681011224
 21
17.6162812821
 31
0.0
  0
LINE
  5
171
330
1F
100
AcDbEntity
  8
0
  6
Continuous
 62
     7
370
    25
100
AcDbLine
 10
5.872328402
 20
17.8062812821
 30
0.0
 11
5.8681011224
 21
17.8062812821
 31
0.0
  0
LINE
  5
172
330
1F
100
AcDbEntity
  8
0
  6
Continuous
 62
     7
370
    25
100
AcDbLine
 10
5.8681011224
 20
17.6162812821
 30
0.0
 11
5.872328402
 21
17.6162812821
 31
0.0
  0
LINE
  5
173
330
1F
100
AcDbEntity
  8
0
  6
Continuous
 62
     7
370
    25
100
AcDbLine
 10
5.842053402
 20
17.6162812821
 30
0.0
 11
5.8550772622
 21
17.6348812821
 31
0.0
  0
LINE
  5
174
330
1F
100
AcDbEntity
  8
0
  6
Continuous
 62
     7
370
    25
100
AcDbLine
 10
5.8550772622
 20
17.7876812821
 30
0.0
 11
5.842053402
 21
17.8062812821
 31
0.0
  0
LINE
  5
175
330
1F
100
AcDbEntity
  8
0
  6
Continuous
 62
     7
370
    25
100
AcDbLine
 10
5.690678402
 20
17.8062812821
 30
0.0
 11
5.6864511224
 21
17.8062812821
 31
0.0
  0
LINE
  5
176
330
1F
100
AcDbEntity
  8
0
  6
Continuous
 62
     7
370
    25
100
AcDbLine
 10
5.6864511224
 20
17.6162812821
 30
0.0
 11
5.690678402
 21
17.6162812821
 31
0.0
  0
LINE
  5
177
330
1F
100
AcDbEntity
  8
0
  6
Continuous
 62
     7
370
    25
100
AcDbLine
 10
5.7167261224
 20
17.8062812821
 30
0.0
 11
5.7037022622
 21
17.7876812821
 31
0.0
  0
LINE
  5
178
330
1F
100
AcDbEntity
  8
0
  6
Continuous
 62
     7
370
    25
100
AcDbLine
 10
5.7037022622
 20
17.6348812821
 30
0.0
 11
5.7167261224
 21
17.6162812821
 31
0.0
  0
LINE
  5
179
330
1F
100
AcDbEntity
  8
0
  6
Continuous
 62
     7
370
    25
100
AcDbLine
 10
5.842053402
 20
17.8062812821
 30
0.0
 11
5.8378261224
 21
17.8062812821
 31
0.0
  0
LINE
  5
17A
330
1F
100
AcDbEntity
  8
0
  6
Continuous
 62
     7
370
    25
100
AcDbLine
 10
5.8378261224
 20
17.6162812821
 30
0.0
 11
5.842053402
 21
17.6162812821
 31
0.0
  0
LINE
  5
17B
330
1F
100
AcDbEntity
  8
0
  6
Continuous
 62
     7
370
    25
100
AcDbLine
 10
5.8378261224
 20
17.8062812821
 30
0.0
 11
5.8248022622
 21
17.7876812821
 31
0.0
  0
LINE
  5
17C
330
1F
100
AcDbEntity
  8
0
  6
Continuous
 62
     7
370
    25
100
AcDbLine
 10
5.8248022622
 20
17.6348812821
 30
0.0
 11
5.8378261224
 21
17.6162812821
 31
0.0
  0
LINE
  5
17D
330
1F
100
AcDbEntity
  8
0
  6
Continuous
 62
     7
370
    25
100
AcDbLine
 10
5.630128402
 20
17.6162812821
 30
0.0
 11
5.6431522622
 21
17.6348812821
 31
0.0
  0
LINE
  5
17E
330
1F
100
AcDbEntity
  8
0
  6
Continuous
 62
     7
370
    25
100
AcDbLine
 10
5.6431522622
 20
17.7876812821
 30
0.0
 11
5.630128402
 21
17.8062812821
 31
0.0
  0
LINE
  5
17F
330
1F
100
AcDbEntity
  8
0
  6
Continuous
 62
     7
370
    25
100
AcDbLine
 10
5.660403402
 20
17.6162812821
 30
0.0
 11
5.6734272622
 21
17.6348812821
 31
0.0
  0
LINE
  5
180
330
1F
100
AcDbEntity
  8
0
  6
Continuous
 62
     7
370
    25
100
AcDbLine
 10
5.6734272622
 20
17.7876812821
 30
0.0
 11
5.660403402
 21
17.8062812821
 31
0.0
  0
LINE
  5
181
330
1F
100
AcDbEntity
  8
0
  6
Continuous
 62
     7
370
    25
100
AcDbLine
 10
5.8983761224
 20
17.8062812821
 30
0.0
 11
5.8853522622
 21
17.7876812821
 31
0.0
  0
LINE
  5
182
330
1F
100
AcDbEntity
  8
0
  6
Continuous
 62
     7
370
    25
100
AcDbLine
 10
5.8853522622
 20
17.6348812821
 30
0.0
 11
5.8983761224
 21
17.6162812821
 31
0.0
  0
LINE
  5
183
330
1F
100
AcDbEntity
  8
0
  6
Continuous
 62
     7
370
    25
100
AcDbLine
 10
5.8075511224
 20
17.8062812821
 30
0.0
 11
5.7945272622
 21
17.7876812821
 31
0.0
  0
LINE
  5
184
330
1F
100
AcDbEntity
  8
0
  6
Continuous
 62
     7
370
    25
100
AcDbLine
 10
5.7945272622
 20
17.6348812821
 30
0.0
 11
5.8075511224
 21
17.6162812821
 31
0.0
  0
LINE
  5
185
330
1F
100
AcDbEntity
  8
0
  6
Continuous
 62
     7
370
    25
100
AcDbLine
 10
5.6259011224
 20
17.8062812821
 30
0.0
 11
5.6128772622
 21
17.7876812821
 31
0.0
  0
LINE
  5
186
330
1F
100
AcDbEntity
  8
0
  6
Continuous
 62
     7
370
    25
100
AcDbLine
 10
5.6128772622
 20
17.6348812821
 30
0.0
 11
5.6259011224
 21
17.6162812821
 31
0.0
  0
LINE
  5
187
330
1F
100
AcDbEntity
  8
0
  6
Continuous
 62
     7
370
    25
100
AcDbLine
 10
5.599853402
 20
17.8062812821
 30
0.0
 11
5.5956261224
 21
17.8062812821
 31
0.0
  0
LINE
  5
188
330
1F
100
AcDbEntity
  8
0
  6
Continuous
 62
     7
370
    25
100
AcDbLine
 10
5.5956261224
 20
17.6162812821
 30
0.0
 11
5.599853402
 21
17.6162812821
 31
0.0
  0
LINE
  5
189
330
1F
100
AcDbEntity
  8
0
  6
Continuous
 62
     7
370
    25
100
AcDbLine
 10
5.569578402
 20
17.6162812821
 30
0.0
 11
5.5826022622
 21
17.6348812821
 31
0.0
  0
LINE
  5
18A
330
1F
100
AcDbEntity
  8
0
  6
Continuous
 62
     7
370
    25
100
AcDbLine
 10
5.5826022622
 20
17.7876812821
 30
0.0
 11
5.569578402
 21
17.8062812821
 31
0.0
  0
LINE
  5
18B
330
1F
100
AcDbEntity
  8
0
  6
Continuous
 62
     7
370
    25
100
AcDbLine
 10
5.811778402
 20
17.6162812821
 30
0.0
 11
5.8248022622
 21
17.6348812821
 31
0.0
  0
LINE
  5
18C
330
1F
100
AcDbEntity
  8
0
  6
Continuous
 62
     7
370
    25
100
AcDbLine
 10
5.8248022622
 20
17.7876812821
 30
0.0
 11
5.811778402
 21
17.8062812821
 31
0.0
  0
LINE
  5
18D
330
1F
100
AcDbEntity
  8
0
  6
Continuous
 62
     7
370
    25
100
AcDbLine
 10
5.569578402
 20
17.8062812821
 30
0.0
 11
5.5653511224
 21
17.8062812821
 31
0.0
  0
LINE
  5
18E
330
1F
100
AcDbEntity
  8
0
  6
Continuous
 62
     7
370
    25
100
AcDbLine
 10
5.5653511224
 20
17.6162812821
 30
0.0
 11
5.569578402
 21
17.6162812821
 31
0.0
  0
LINE
  5
18F
330
1F
100
AcDbEntity
  8
0
  6
Continuous
 62
     7
370
    25
100
AcDbLine
 10
5.811778402
 20
17.8062812821
 30
0.0
 11
5.8075511224
 21
17.8062812821
 31
0.0
  0
LINE
  5
190
330
1F
100
AcDbEntity
  8
0
  6
Continuous
 62
     7
370
    25
100
AcDbLine
 10
5.8075511224
 20
17.6162812821
 30
0.0
 11
5.811778402
 21
17.6162812821
 31
0.0
  0
LINE
  5
191
330
1F
100
AcDbEntity
  8
0
  6
Continuous
 62
     7
370
    25
100
AcDbLine
 10
5.781503402
 20
17.6162812821
 30
0.0
 11
5.7945272622
 21
17.6348812821
 31
0.0
  0
LINE
  5
192
330
1F
100
AcDbEntity
  8
0
  6
Continuous
 62
     7
370
    25
100
AcDbLine
 10
5.7945272622
 20
17.7876812821
 30
0.0
 11
5.781503402
 21
17.8062812821
 31
0.0
  0
LINE
  5
193
330
1F
100
AcDbEntity
  8
0
  6
Continuous
 62
     7
370
    25
100
AcDbLine
 10
5.539303402
 20
17.8062812821
 30
0.0
 11
5.5350761224
 21
17.8062812821
 31
0.0
  0
LINE
  5
194
330
1F
100
AcDbEntity
  8
0
  6
Continuous
 62
     7
370
    25
100
AcDbLine
 10
5.5350761224
 20
17.6162812821
 30
0.0
 11
5.539303402
 21
17.6162812821
 31
0.0
  0
LINE
  5
195
330
1F
100
AcDbEntity
  8
0
  6
Continuous
 62
     7
370
    25
100
AcDbLine
 10
5.509028402
 20
17.6162812821
 30
0.0
 11
5.5220522622
 21
17.6348812821
 31
0.0
  0
LINE
  5
196
330
1F
100
AcDbEntity
  8
0
  6
Continuous
 62
     7
370
    25
100
AcDbLine
 10
5.5220522622
 20
17.7876812821
 30
0.0
 11
5.509028402
 21
17.8062812821
 31
0.0
  0
LINE
  5
197
330
1F
100
AcDbEntity
  8
0
  6
Continuous
 62
     7
370
    25
100
AcDbLine
 10
5.5350761224
 20
17.8062812821
 30
0.0
 11
5.5220522622
 21
17.7876812821
 31
0.0
  0
LINE
  5
198
330
1F
100
AcDbEntity
  8
0
  6
Continuous
 62
     7
370
    25
100
AcDbLine
 10
5.5220522622
 20
17.6348812821
 30
0.0
 11
5.5350761224
 21
17.6162812821
 31
0.0
  0
LINE
  5
199
330
1F
100
AcDbEntity
  8
0
  6
Continuous
 62
     7
370
    25
100
AcDbLine
 10
5.509028402
 20
17.8062812821
 30
0.0
 11
5.5048011224
 21
17.8062812821
 31
0.0
  0
LINE
  5
19A
330
1F
100
AcDbEntity
  8
0
  6
Continuous
 62
     7
370
    25
100
AcDbLine
 10
5.5048011224
 20
17.6162812821
 30
0.0
 11
5.509028402
 21
17.6162812821
 31
0.0
  0
LINE
  5
19B
330
1F
100
AcDbEntity
  8
0
  6
Continuous
 62
     7
370
    25
100
AcDbLine
 10
5.478753402
 20
17.6162812821
 30
0.0
 11
5.4917772622
 21
17.6348812821
 31
0.0
  0
LINE
  5
19C
330
1F
100
AcDbEntity
  8
0
  6
Continuous
 62
     7
370
    25
100
AcDbLine
 10
5.4917772622
 20
17.7876812821
 30
0.0
 11
5.478753402
 21
17.8062812821
 31
0.0
  0
LINE
  5
19D
330
1F
100
AcDbEntity
  8
0
  6
Continuous
 62
     7
370
    25
100
AcDbLine
 10
5.5048011224
 20
17.8062812821
 30
0.0
 11
5.4917772622
 21
17.7876812821
 31
0.0
  0
LINE
  5
19E
330
1F
100
AcDbEntity
  8
0
  6
Continuous
 62
     7
370
    25
100
AcDbLine
 10
5.4917772622
 20
17.6348812821
 30
0.0
 11
5.5048011224
 21
17.6162812821
 31
0.0
  0
LINE
  5
19F
330
1F
100
AcDbEntity
  8
0
  6
Continuous
 62
     7
370
    25
100
AcDbLine
 10
5.478753402
 20
17.8062812821
 30
0.0
 11
5.4745261224
 21
17.8062812821
 31
0.0
  0
LINE
  5
1A0
330
1F
100
AcDbEntity
  8
0
  6
Continuous
 62
     7
370
    25
100
AcDbLine
 10
5.4745261224
 20
17.6162812821
 30
0.0
 11
5.478753402
 21
17.6162812821
 31
0.0
  0
LINE
  5
1A1
330
1F
100
AcDbEntity
  8
0
  6
Continuous
 62
     7
370
    25
100
AcDbLine
 10
5.872328402
 20
17.6162812821
 30
0.0
 11
5.8853522622
 21
17.6348812821
 31
0.0
  0
LINE
  5
1A2
330
1F
100
AcDbEntity
  8
0
  6
Continuous
 62
     7
370
    25
100
AcDbLine
 10
5.8853522622
 20
17.7876812821
 30
0.0
 11
5.872328402
 21
17.8062812821
 31
0.0
  0
LINE
  5
1A3
330
1F
100
AcDbEntity
  8
0
  6
Continuous
 62
     7
370
    25
100
AcDbLine
 10
5.4745261224
 20
17.8062812821
 30
0.0
 11
5.4615022622
 21
17.7876812821
 31
0.0
  0
LINE
  5
1A4
330
1F
100
AcDbEntity
  8
0
  6
Continuous
 62
     7
370
    25
100
AcDbLine
 10
5.4615022622
 20
17.6348812821
 30
0.0
 11
5.4745261224
 21
17.6162812821
 31
0.0
  0
LINE
  5
1A5
330
1F
100
AcDbEntity
  8
0
  6
Continuous
 62
     7
370
    25
100
AcDbLine
 10
5.448478402
 20
17.8062812821
 30
0.0
 11
5.4442511224
 21
17.8062812821
 31
0.0
  0
LINE
  5
1A6
330
1F
100
AcDbEntity
  8
0
  6
Continuous
 62
     7
370
    25
100
AcDbLine
 10
5.4442511224
 20
17.6162812821
 30
0.0
 11
5.448478402
 21
17.6162812821
 31
0.0
  0
LINE
  5
1A7
330
1F
100
AcDbEntity
  8
0
  6
Continuous
 62
     7
370
    25
100
AcDbLine
 10
5.781503402
 20
17.8062812821
 30
0.0
 11
5.7772761224
 21
17.8062812821
 31
0.0
  0
LINE
  5
1A8
330
1F
100
AcDbEntity
  8
0
  6
Continuous
 62
     7
370
    25
100
AcDbLine
 10
5.7772761224
 20
17.6162812821
 30
0.0
 11
5.781503402
 21
17.6162812821
 31
0.0
  0
LINE
  5
1A9
330
1F
100
AcDbEntity
  8
0
  6
Continuous
 62
     7
370
    25
100
AcDbLine
 10
5.751228402
 20
17.6162812821
 30
0.0
 11
5.7642522622
 21
17.6348812821
 31
0.0
  0
LINE
  5
1AA
330
1F
100
AcDbEntity
  8
0
  6
Continuous
 62
     7
370
    25
100
AcDbLine
 10
5.7642522622
 20
17.7876812821
 30
0.0
 11
5.751228402
 21
17.8062812821
 31
0.0
  0
LINE
  5
1AB
330
1F
100
AcDbEntity
  8
0
  6
Continuous
 62
     7
370
    25
100
AcDbLine
 10
5.7772761224
 20
17.8062812821
 30
0.0
 11
5.7642522622
 21
17.7876812821
 31
0.0
  0
LINE
  5
1AC
330
1F
100
AcDbEntity
  8
0
  6
Continuous
 62
     7
370
    25
100
AcDbLine
 10
5.7642522622
 20
17.6348812821
 30
0.0
 11
5.7772761224
 21
17.6162812821
 31
0.0
  0
LINE
  5
1AD
330
1F
100
AcDbEntity
  8
0
  6
Continuous
 62
     7
370
    25
100
AcDbLine
 10
5.5956261224
 20
17.8062812821
 30
0.0
 11
5.5826022622
 21
17.7876812821
 31
0.0
  0
LINE
  5
1AE
330
1F
100
AcDbEntity
  8
0
  6
Continuous
 62
     7
370
    25
100
AcDbLine
 10
5.5826022622
 20
17.6348812821
 30
0.0
 11
5.5956261224
 21
17.6162812821
 31
0.0
  0
LINE
  5
1AF
330
1F
100
AcDbEntity
  8
0
  6
Continuous
 62
     7
370
    25
100
AcDbLine
 10
5.4139761224
 20
17.8062812821
 30
0.0
 11
5.4009522622
 21
17.7876812821
 31
0.0
  0
LINE
  5
1B0
330
1F
100
AcDbEntity
  8
0
  6
Continuous
 62
     7
370
    25
100
AcDbLine
 10
5.4009522622
 20
17.6348812821
 30
0.0
 11
5.4139761224
 21
17.6162812821
 31
0.0
  0
LINE
  5
1B1
330
1F
100
AcDbEntity
  8
0
  6
Continuous
 62
     7
370
    25
100
AcDbLine
 10
5.448478402
 20
17.6162812821
 30
0.0
 11
5.4615022622
 21
17.6348812821
 31
0.0
  0
LINE
  5
1B2
330
1F
100
AcDbEntity
  8
0
  6
Continuous
 62
     7
370
    25
100
AcDbLine
 10
5.4615022622
 20
17.7876812821
 30
0.0
 11
5.448478402
 21
17.8062812821
 31
0.0
  0
LINE
  5
1B3
330
1F
100
AcDbEntity
  8
0
  6
Continuous
 62
     7
370
    25
100
AcDbLine
 10
5.5653511224
 20
17.8062812821
 30
0.0
 11
5.5523272622
 21
17.7876812821
 31
0.0
  0
LINE
  5
1B4
330
1F
100
AcDbEntity
  8
0
  6
Continuous
 62
     7
370
    25
100
AcDbLine
 10
5.5523272622
 20
17.6348812821
 30
0.0
 11
5.5653511224
 21
17.6162812821
 31
0.0
  0
LINE
  5
1B5
330
1F
100
AcDbEntity
  8
0
  6
Continuous
 62
     7
370
    25
100
AcDbLine
 10
5.3837011224
 20
17.8062812821
 30
0.0
 11
5.3706772622
 21
17.7876812821
 31
0.0
  0
LINE
  5
1B6
330
1F
100
AcDbEntity
  8
0
  6
Continuous
 62
     7
370
    25
100
AcDbLine
 10
5.3706772622
 20
17.6348812821
 30
0.0
 11
5.3837011224
 21
17.6162812821
 31
0.0
  0
LINE
  5
1B7
330
1F
100
AcDbEntity
  8
0
  6
Continuous
 62
     7
370
    25
100
AcDbLine
 10
5.357653402
 20
17.8062812821
 30
0.0
 11
5.3534261224
 21
17.8062812821
 31
0.0
  0
LINE
  5
1B8
330
1F
100
AcDbEntity
  8
0
  6
Continuous
 62
     7
370
    25
100
AcDbLine
 10
5.3534261224
 20
17.6162812821
 30
0.0
 11
5.357653402
 21
17.6162812821
 31
0.0
  0
LINE
  5
1B9
330
1F
100
AcDbEntity
  8
0
  6
Continuous
 62
     7
370
    25
100
AcDbLine
 10
5.3534261224
 20
17.8062812821
 30
0.0
 11
5.3404022622
 21
17.7876812821
 31
0.0
  0
LINE
  5
1BA
330
1F
100
AcDbEntity
  8
0
  6
Continuous
 62
     7
370
    25
100
AcDbLine
 10
5.3404022622
 20
17.6348812821
 30
0.0
 11
5.3534261224
 21
17.6162812821
 31
0.0
  0
LINE
  5
1BB
330
1F
100
AcDbEntity
  8
0
  6
Continuous
 62
     7
370
    25
100
AcDbLine
 10
5.660403402
 20
17.8062812821
 30
0.0
 11
5.6561761224
 21
17.8062812821
 31
0.0
  0
LINE
  5
1BC
330
1F
100
AcDbEntity
  8
0
  6
Continuous
 62
     7
370
    25
100
AcDbLine
 10
5.6561761224
 20
17.6162812821
 30
0.0
 11
5.660403402
 21
17.6162812821
 31
0.0
  0
LINE
  5
1BD
330
1F
100
AcDbEntity
  8
0
  6
Continuous
 62
     7
370
    25
100
AcDbLine
 10
5.6561761224
 20
17.8062812821
 30
0.0
 11
5.6431522622
 21
17.7876812821
 31
0.0
  0
LINE
  5
1BE
330
1F
100
AcDbEntity
  8
0
  6
Continuous
 62
     7
370
    25
100
AcDbLine
 10
5.6431522622
 20
17.6348812821
 30
0.0
 11
5.6561761224
 21
17.6162812821
 31
0.0
  0
LINE
  5
1BF
330
1F
100
AcDbEntity
  8
0
  6
Continuous
 62
     7
370
    25
100
AcDbLine
 10
5.630128402
 20
17.8062812821
 30
0.0
 11
5.6259011224
 21
17.8062812821
 31
0.0
  0
LINE
  5
1C0
330
1F
100
AcDbEntity
  8
0
  6
Continuous
 62
     7
370
    25
100
AcDbLine
 10
5.6259011224
 20
17.6162812821
 30
0.0
 11
5.630128402
 21
17.6162812821
 31
0.0
  0
LINE
  5
1C1
330
1F
100
AcDbEntity
  8
0
  6
Continuous
 62
     7
370
    25
100
AcDbLine
 10
5.599853402
 20
17.6162812821
 30
0.0
 11
5.6128772622
 21
17.6348812821
 31
0.0
  0
LINE
  5
1C2
330
1F
100
AcDbEntity
  8
0
  6
Continuous
 62
     7
370
    25
100
AcDbLine
 10
5.6128772622
 20
17.7876812821
 30
0.0
 11
5.599853402
 21
17.8062812821
 31
0.0
  0
LINE
  5
1C3
330
1F
100
AcDbEntity
  8
0
  6
Continuous
 62
     7
370
    25
100
AcDbLine
 10
5.902603402
 20
17.6162812821
 30
0.0
 11
5.9156272622
 21
17.6348812821
 31
0.0
  0
LINE
  5
1C4
330
1F
100
AcDbEntity
  8
0
  6
Continuous
 62
     7
370
    25
100
AcDbLine
 10
5.9156272622
 20
17.7876812821
 30
0.0
 11
5.902603402
 21
17.8062812821
 31
0.0
  0
LINE
  5
1C5
330
1F
100
AcDbEntity
  8
0
  6
Continuous
 62
     7
370
    25
100
AcDbLine
 10
5.9201272622
 20
17.7941079481
 30
0.0
 11
5.9156272622
 21
17.7876812821
 31
0.0
  0
LINE
  5
1C6
330
1F
100
AcDbEntity
  8
0
  6
Continuous
 62
     7
370
    25
100
AcDbLine
 10
5.9156272622
 20
17.6348812821
 30
0.0
 11
5.9201272622
 21
17.6284546161
 31
0.0
  0
LINE
  5
1C7
330
1F
100
AcDbEntity
  8
0
  6
Continuous
 62
     7
370
    25
100
AcDbLine
 10
5.902603402
 20
17.8062812821
 30
0.0
 11
5.8983761224
 21
17.8062812821
 31
0.0
  0
LINE
  5
1C8
330
1F
100
AcDbEntity
  8
0
  6
Continuous
 62
     7
370
    25
100
AcDbLine
 10
5.8983761224
 20
17.6162812821
 30
0.0
 11
5.902603402
 21
17.6162812821
 31
0.0
  0
LINE
  5
1C9
330
1F
100
AcDbEntity
  8
0
  6
Continuous
 62
     7
370
    25
100
AcDbLine
 10
5.418203402
 20
17.6162812821
 30
0.0
 11
5.4312272622
 21
17.6348812821
 31
0.0
  0
LINE
  5
1CA
330
1F
100
AcDbEntity
  8
0
  6
Continuous
 62
     7
370
    25
100
AcDbLine
 10
5.4312272622
 20
17.7876812821
 30
0.0
 11
5.418203402
 21
17.8062812821
 31
0.0
  0
LINE
  5
1CB
330
1F
100
AcDbEntity
  8
0
  6
Continuous
 62
     7
370
    25
100
AcDbLine
 10
5.4442511224
 20
17.8062812821
 30
0.0
 11
5.4312272622
 21
17.7876812821
 31
0.0
  0
LINE
  5
1CC
330
1F
100
AcDbEntity
  8
0
  6
Continuous
 62
     7
370
    25
100
AcDbLine
 10
5.4312272622
 20
17.6348812821
 30
0.0
 11
5.4442511224
 21
17.6162812821
 31
0.0
  0
LINE
  5
1CD
330
1F
100
AcDbEntity
  8
0
  6
Continuous
 62
     7
370
    25
100
AcDbLine
 10
5.418203402
 20
17.8062812821
 30
0.0
 11
5.4139761224
 21
17.8062812821
 31
0.0
  0
LINE
  5
1CE
330
1F
100
AcDbEntity
  8
0
  6
Continuous
 62
     7
370
    25
100
AcDbLine
 10
5.4139761224
 20
17.6162812821
 30
0.0
 11
5.418203402
 21
17.6162812821
 31
0.0
  0
LINE
  5
1CF
330
1F
100
AcDbEntity
  8
0
  6
Continuous
 62
     7
370
    25
100
AcDbLine
 10
5.751228402
 20
17.8062812821
 30
0.0
 11
5.7470011224
 21
17.8062812821
 31
0.0
  0
LINE
  5
1D0
330
1F
100
AcDbEntity
  8
0
  6
Continuous
 62
     7
370
    25
100
AcDbLine
 10
5.7470011224
 20
17.6162812821
 30
0.0
 11
5.751228402
 21
17.6162812821
 31
0.0
  0
LINE
  5
1D1
330
1F
100
AcDbEntity
  8
0
  6
Continuous
 62
     7
370
    25
100
AcDbLine
 10
5.720953402
 20
17.6162812821
 30
0.0
 11
5.7339772622
 21
17.6348812821
 31
0.0
  0
LINE
  5
1D2
330
1F
100
AcDbEntity
  8
0
  6
Continuous
 62
     7
370
    25
100
AcDbLine
 10
5.7339772622
 20
17.7876812821
 30
0.0
 11
5.720953402
 21
17.8062812821
 31
0.0
  0
LINE
  5
1D3
330
1F
100
AcDbEntity
  8
0
  6
Continuous
 62
     7
370
    25
100
AcDbLine
 10
5.357653402
 20
17.6162812821
 30
0.0
 11
5.3706772622
 21
17.6348812821
 31
0.0
  0
LINE
  5
1D4
330
1F
100
AcDbEntity
  8
0
  6
Continuous
 62
     7
370
    25
100
AcDbLine
 10
5.3706772622
 20
17.7876812821
 30
0.0
 11
5.357653402
 21
17.8062812821
 31
0.0
  0
LINE
  5
1D5
330
1F
100
AcDbEntity
  8
0
  6
Continuous
 62
     7
370
    25
100
AcDbLine
 10
5.720953402
 20
17.8062812821
 30
0.0
 11
5.7167261224
 21
17.8062812821
 31
0.0
  0
LINE
  5
1D6
330
1F
100
AcDbEntity
  8
0
  6
Continuous
 62
     7
370
    25
100
AcDbLine
 10
5.7167261224
 20
17.6162812821
 30
0.0
 11
5.720953402
 21
17.6162812821
 31
0.0
  0
LINE
  5
1D7
330
1F
100
AcDbEntity
  8
0
  6
Continuous
 62
     7
370
    25
100
AcDbLine
 10
5.690678402
 20
17.6162812821
 30
0.0
 11
5.7037022622
 21
17.6348812821
 31
0.0
  0
LINE
  5
1D8
330
1F
100
AcDbEntity
  8
0
  6
Continuous
 62
     7
370
    25
100
AcDbLine
 10
5.7037022622
 20
17.7876812821
 30
0.0
 11
5.690678402
 21
17.8062812821
 31
0.0
  0
LINE
  5
1D9
330
1F
100
AcDbEntity
  8
0
  6
Continuous
 62
     7
370
    25
100
AcDbLine
 10
5.6864511224
 20
17.8062812821
 30
0.0
 11
5.6734272622
 21
17.7876812821
 31
0.0
  0
LINE
  5
1DA
330
1F
100
AcDbEntity
  8
0
  6
Continuous
 62
     7
370
    25
100
AcDbLine
 10
5.6734272622
 20
17.6348812821
 30
0.0
 11
5.6864511224
 21
17.6162812821
 31
0.0
  0
LINE
  5
1DB
330
1F
100
AcDbEntity
  8
0
  6
Continuous
 62
     7
370
    25
100
AcDbLine
 10
5.387928402
 20
17.6162812821
 30
0.0
 11
5.4009522622
 21
17.6348812821
 31
0.0
  0
LINE
  5
1DC
330
1F
100
AcDbEntity
  8
0
  6
Continuous
 62
     7
370
    25
100
AcDbLine
 10
5.4009522622
 20
17.7876812821
 30
0.0
 11
5.387928402
 21
17.8062812821
 31
0.0
  0
LINE
  5
1DD
330
1F
100
AcDbEntity
  8
0
  6
Continuous
 62
     7
370
    25
100
AcDbLine
 10
5.539303402
 20
17.6162812821
 30
0.0
 11
5.5523272622
 21
17.6348812821
 31
0.0
  0
LINE
  5
1DE
330
1F
100
AcDbEntity
  8
0
  6
Continuous
 62
     7
370
    25
100
AcDbLine
 10
5.5523272622
 20
17.7876812821
 30
0.0
 11
5.539303402
 21
17.8062812821
 31
0.0
  0
LINE
  5
1DF
330
1F
100
AcDbEntity
  8
0
  6
Continuous
 62
     7
370
    25
100
AcDbLine
 10
5.7470011224
 20
17.8062812821
 30
0.0
 11
5.7339772622
 21
17.7876812821
 31
0.0
  0
LINE
  5
1E0
330
1F
100
AcDbEntity
  8
0
  6
Continuous
 62
     7
370
    25
100
AcDbLine
 10
5.7339772622
 20
17.6348812821
 30
0.0
 11
5.7470011224
 21
17.6162812821
 31
0.0
  0
LINE
  5
1E1
330
1F
100
AcDbEntity
  8
0
  6
Continuous
 62
     7
370
    25
100
AcDbLine
 10
5.387928402
 20
17.8062812821
 30
0.0
 11
5.3837011224
 21
17.8062812821
 31
0.0
  0
LINE
  5
1E2
330
1F
100
AcDbEntity
  8
0
  6
Continuous
 62
     7
370
    25
100
AcDbLine
 10
5.3837011224
 20
17.6162812821
 30
0.0
 11
5.387928402
 21
17.6162812821
 31
0.0
  0
LINE
  5
1E3
330
1F
100
AcDbEntity
  8
0
  6
Continuous
 62
     7
370
    25
100
AcDbLine
 10
5.3279339119
 20
17.6170746324
 30
0.0
 11
5.3404022622
 21
17.6348812821
 31
0.0
  0
LINE
  5
1E4
330
1F
100
AcDbEntity
  8
0
  6
Continuous
 62
     7
370
    25
100
AcDbLine
 10
5.3404022622
 20
17.7876812821
 30
0.0
 11
5.3279339119
 21
17.8054879318
 31
0.0
  0
LINE
  5
1E5
330
1F
100
AcDbEntity
  8
0
  6
Continuous
 62
     7
370
    25
100
AcDbLine
 10
5.3279339119
 20
17.8054879318
 30
0.0
 11
5.3101272622
 21
17.7876812821
 31
0.0
  0
LINE
  5
1E6
330
1F
100
AcDbEntity
  8
0
  6
Continuous
 62
     7
370
    25
100
AcDbLine
 10
5.3101272622
 20
17.6348812821
 30
0.0
 11
5.3279339119
 21
17.6170746324
 31
0.0
  0
LINE
  5
1E7
330
1F
100
AcDbEntity
  8
0
  6
Continuous
 62
     7
370
    25
100
AcDbLine
 10
5.9201272622
 20
15.7112812821
 30
0.0
 11
5.9351272622
 21
15.7112812821
 31
0.0
  0
LINE
  5
1E8
330
1F
100
AcDbEntity
  8
0
  6
Continuous
 62
     7
370
    25
100
AcDbLine
 10
5.9351272622
 20
19.7112812821
 30
0.0
 11
5.9201272622
 21
19.7112812821
 31
0.0
  0
ARC
  5
1E9
330
1F
100
AcDbEntity
  8
0
  6
Continuous
 62
     7
370
    25
100
AcDbCircle
 10
5.9151272622
 20
18.8318392147
 30
0.0
 40
0.0050000000000008
100
AcDbArc
 50
311.8103148958
 51
0.0000000001
  0
ARC
  5
1EA
330
1F
100
AcDbEntity
  8
0
  6
Continuous
 62
     7
370
    25
100
AcDbCircle
 10
5.9151272622
 20
18.697675136
 30
0.0
 40
0.0050000000000027
100
AcDbArc
 50
0.0
 51
48.1896851042
  0
ARC
  5
1EB
330
1F
100
AcDbEntity
  8
0
  6
Continuous
 62
     7
370
    25
100
AcDbCircle
 10
5.9751272622
 20
18.7647571753
 30
0.0
 40
0.084999999999999
100
AcDbArc
 50
131.8103148958
 51
228.1896851042
  0
ARC
  5
1EC
330
1F
100
AcDbEntity
  8
0
  6
Continuous
 62
     7
370
    25
100
AcDbCircle
 10
5.9151272622
 20
18.5104525296
 30
0.0
 40
0.0050000000000007
100
AcDbArc
 50
0.0
 51
48.1896851042
  0
ARC
  5
1ED
330
1F
100
AcDbEntity
  8
0
  6
Continuous
 62
     7
370
    25
100
AcDbCircle
 10
5.9751272622
 20
18.5775345689
 30
0.0
 40
0.0850000000000017
100
AcDbArc
 50
146.8602226828
 51
228.1896851042
  0
LINE
  5
1EE
330
1F
100
AcDbEntity
  8
0
  6
Continuous
 62
     7
370
    25
100
AcDbLine
 10
5.9351272622
 20
15.2262812821
 30
0.0
 11
6.2601272622
 21
15.2262812821
 31
0.0
  0
LINE
  5
1EF
330
1F
100
AcDbEntity
  8
0
  6
Continuous
 62
     7
370
    25
100
AcDbLine
 10
6.2601272622
 20
20.1962812821
 30
0.0
 11
5.9351272622
 21
20.1962812821
 31
0.0
  0
LINE
  5
1F0
330
1F
100
AcDbEntity
  8
0
  6
Continuous
 62
     7
370
    25
100
AcDbLine
 10
6.2601272622
 20
15.2262812821
 30
0.0
 11
6.3101272622
 21
15.2762812821
 31
0.0
  0
LINE
  5
1F1
330
1F
100
AcDbEntity
  8
0
  6
Continuous
 62
     7
370
    25
100
AcDbLine
 10
6.3101272622
 20
20.1462812821
 30
0.0
 11
6.2601272622
 21
20.1962812821
 31
0.0
  0
LINE
  5
1F2
330
1F
100
AcDbEntity
  8
0
  6
Continuous
 62
     7
370
    25
100
AcDbLine
 10
9.9351272622
 20
16.6232812821
 30
0.0
 11
6.9651272622
 21
16.6232812821
 31
0.0
  0
SPLINE
  5
1F3
330
1F
100
AcDbEntity
  8
0
  6
Continuous
 62
     7
370
    25
100
AcDbSpline
210
0.0
220
0.0
230
1.0
 70
     8
 71
     3
 72
    12
 73
     8
 74
     0
 42
0.00000001
 43
0.00000001
 40
0.0
 40
0.0
 40
0.0
 40
0.0
 40
0.2146845331815991
 40
0.4293636118127717
 40
0.644184220529139
 40
0.8590971428873663
 40
0.9999999999999999
 40
0.9999999999999999
 40
0.9999999999999999
 40
0.9999999999999999
 10
6.966684981537556
 20
16.37328128209769
 30
0.0
 10
6.966649757731053
 20
16.3656435097502
 30
0.0
 10
6.966579311012991
 20
16.35036815911023
 30
0.0
 10
6.966084284316019
 20
16.32996051179076
 30
0.0
 10
6.96554845244038
 20
16.31472579182278
 30
0.0
 10
6.965164414041859
 20
16.30608349540607
 30
0.0
 10
6.965166078586679
 20
16.30613209765828
 30
0.0
 10
6.965166737745531
 20
16.30615134412399
 30
0.0
  0
SPLINE
  5
1F4
330
1F
100
AcDbEntity
  8
0
  6
Continuous
 62
     7
370
    25
100
AcDbSpline
210
0.0
220
0.0
230
1.0
 70
     8
 71
     3
 72
    13
 73
     9
 74
     0
 42
0.00000001
 43
0.00000001
 40
0.0
 40
0.0
 40
0.0
 40
0.0
 40
0.0059055646514422
 40
0.2203677178281608
 40
0.4348303095748271
 40
0.6494882783746596
 40
0.864232265098019
 40
1.0
 40
1.0
 40
1.0
 40
1.0
 10
6.965131840498103
 20
16.44117863799985
 30
0.0
 10
6.965130318398222
 20
16.44121277045253
 30
0.0
 10
6.965073520835805
 20
16.44248643201472
 30
0.0
 10
6.965284309493714
 20
16.43790558216475
 30
0.0
 10
6.9657296693686
 20
16.42717228119918
 30
0.0
 10
6.966285298314742
 20
16.40948382866788
 30
0.0
 10
6.96663420225022
 20
16.39055317021499
 30
0.0
 10
6.966670804116057
 20
16.37810354036028
 30
0.0
 10
6.966684981537556
 20
16.3732812820977
 30
0.0
  0
SPLINE
  5
1F5
330
1F
100
AcDbEntity
  8
0
  6
Continuous
 62
     7
370
    25
100
AcDbSpline
210
0.0
220
0.0
230
1.0
 70
    11
 71
     3
 72
    26
 73
    22
 74
     0
 42
0.00000001
 43
0.00000001
 40
0.0
 40
0.0
 40
0.0
 40
0.0
 40
0.0536503689453601
 40
0.1072993747806767
 40
0.1609837494484644
 40
0.2146911935981135
 40
0.2683602334769269
 40
0.3219893978318412
 40
0.3756393219208422
 40
0.4293383015439449
 40
0.4830381555496776
 40
0.5366891994052532
 40
0.5903179741194498
 40
0.6439857350046716
 40
0.697692912012079
 40
0.7513784439456069
 40
0.8050151129999674
 40
0.8586518917400265
 40
0.912337533993698
 40
0.9660446892035207
 40
1.0
 40
1.0
 40
1.0
 40
1.0
 10
9.250738129959737
 20
16.3732812820977
 30
0.0
 10
9.250105429575886
 20
16.36563927684003
 30
0.0
 10
9.248840044883378
 20
16.35035546048728
 30
0.0
 10
9.238946541092192
 20
16.33001131872937
 30
0.0
 10
9.224282435413787
 20
16.3145350907782
 30
0.0
 10
9.205816741563973
 20
16.30567699969349
 30
0.0
 10
9.185733882847403
 20
16.30444204771412
 30
0.0
 10
9.166251572576648
 20
16.31095936185157
 30
0.0
 10
9.149612469092819
 20
16.32449131733301
 30
0.0
 10
9.137767967636858
 20
16.34352673194804
 30
0.0
 10
9.132149282561786
 20
16.36592159273966
 30
0.0
 10
9.133438131960057
 20
16.38913712735249
 30
0.0
 10
9.14146780705232
 20
16.41055850792221
 30
0.0
 10
9.155272497119123
 20
16.42778781099182
 30
0.0
 10
9.173217346163554
 20
16.43888227804349
 30
0.0
 10
9.193200476929096
 20
16.44257968216111
 30
0.0
 10
9.212921930008342
 20
16.43846965567685
 30
0.0
 10
9.230231741577285
 20
16.42702087386863
 30
0.0
 10
9.243145410175138
 20
16.4095248536713
 30
0.0
 10
9.24981589227553
 20
16.3905471718613
 30
0.0
 10
9.250480644022906
 20
16.3781018656383
 30
0.0
 10
9.250738129959737
 20
16.3732812820977
 30
0.0
  0
LINE
  5
1F6
330
1F
100
AcDbEntity
  8
0
  6
Continuous
 62
     7
370
    25
100
AcDbLine
 10
9.9051272622
 20
12.7102812821
 30
0.0
 11
6.9951272622
 21
12.7102812821
 31
0.0
  0
LINE
  5
1F7
330
1F
100
AcDbEntity
  8
0
  6
Continuous
 62
     7
370
    25
100
AcDbLine
 10
9.9351272622
 20
19.6182812821
 30
0.0
 11
6.9651272622
 21
19.6182812821
 31
0.0
  0
SPLINE
  5
1F8
330
1F
100
AcDbEntity
  8
0
  6
Continuous
 62
     7
370
    25
100
AcDbSpline
210
0.0
220
0.0
230
1.0
 70
     8
 71
     3
 72
    17
 73
    13
 74
     0
 42
0.00000001
 43
0.00000001
 40
0.0
 40
0.0
 40
0.0
 40
0.0
 40
0.1016986897876192
 40
0.2064619920050774
 40
0.3081302003395834
 40
0.4125565876547747
 40
0.5178755754369759
 40
0.6260881209824171
 40
0.733990918703153
 40
0.845241484973947
 40
0.9493057657638655
 40
1.0
 40
1.0
 40
1.0
 40
1.0
 10
7.050942231528977
 20
17.71128128209767
 30
0.0
 10
7.050495932419144
 20
17.68459419863418
 30
0.0
 10
7.049589885316289
 20
17.63041583680686
 30
0.0
 10
7.042530428016167
 20
17.55192414064616
 30
0.0
 10
7.032120071677199
 20
17.47737003202398
 30
0.0
 10
7.019151451164875
 20
17.40910819609842
 30
0.0
 10
7.004827347249155
 20
17.34770255596642
 30
0.0
 10
6.990756280703407
 20
17.29569209078515
 30
0.0
 10
6.978316093140392
 20
17.25426653961568
 30
0.0
 10
6.969625424799943
 20
17.22724436957404
 30
0.0
 10
6.965212140150137
 20
17.21403300692993
 30
0.0
 10
6.965598562332635
 20
17.2151898503037
 30
0.0
 10
6.965725142615666
 20
17.21556879739397
 30
0.0
  0
SPLINE
  5
1F9
330
1F
100
AcDbEntity
  8
0
  6
Continuous
 62
     7
370
    25
100
AcDbSpline
210
0.0
220
0.0
230
1.0
 70
     8
 71
     3
 72
    17
 73
    13
 74
     0
 42
0.00000001
 43
0.00000001
 40
0.0
 40
0.0
 40
0.0
 40
0.0
 40
0.0535567697988015
 40
0.1581870559257861
 40
0.2582750707563594
 40
0.3610706367081742
 40
0.4649173989878146
 40
0.5715507628719619
 40
0.6793522961771836
 40
0.7903852696816307
 40
0.8936097737769041
 40
1.0
 40
1.0
 40
1.0
 40
1.0
 10
6.96566277661018
 20
18.20718049741016
 30
0.0
 10
6.965571725756804
 20
18.20745321851469
 30
0.0
 10
6.965302794929027
 20
18.20825873663642
 30
0.0
 10
6.969633213415917
 20
18.19528952169562
 30
0.0
 10
6.977836134225599
 20
18.16976521008688
 30
0.0
 10
6.989223094554618
 20
18.13210829225714
 30
0.0
 10
7.002747322010614
 20
18.08292073547075
 30
0.0
 10
7.017128256010647
 20
18.02289446352132
 30
0.0
 10
7.030938355712472
 20
17.95260268612454
 30
0.0
 10
7.041990162228945
 20
17.87573467921778
 30
0.0
 10
7.049494168331994
 20
17.79421872069598
 30
0.0
 10
7.050454708254664
 20
17.7392040493587
 30
0.0
 10
7.050942231528977
 20
17.71128128209767
 30
0.0
  0
LINE
  5
1FA
330
1F
100
AcDbEntity
  8
0
  6
Continuous
 62
     7
370
    25
100
AcDbLine
 10
6.9951272622
 20
19.6482812821
 30
0.0
 11
9.9051272622
 21
19.6482812821
 31
0.0
  0
LINE
  5
1FB
330
1F
100
AcDbEntity
  8
0
  6
Continuous
 62
     7
370
    25
100
AcDbLine
 10
5.878603402
 20
18.7870062286
 30
0.0
 11
5.878603402
 21
18.6230062286
 31
0.0
  0
LINE
  5
1FC
330
1F
100
AcDbEntity
  8
0
  6
Continuous
 62
     7
370
    25
100
AcDbLine
 10
5.8760011224
 20
18.7870062286
 30
0.0
 11
5.8760011224
 21
18.6230062286
 31
0.0
  0
LINE
  5
1FD
330
1F
100
AcDbEntity
  8
0
  6
Continuous
 62
     7
370
    25
100
AcDbLine
 10
5.8629772622
 20
18.7684062286
 30
0.0
 11
5.8629772622
 21
18.6416062286
 31
0.0
  0
LINE
  5
1FE
330
1F
100
AcDbEntity
  8
0
  6
Continuous
 62
     7
370
    25
100
AcDbLine
 10
5.849953402
 20
18.7870062286
 30
0.0
 11
5.849953402
 21
18.6230062286
 31
0.0
  0
LINE
  5
1FF
330
1F
100
AcDbEntity
  8
0
  6
Continuous
 62
     7
370
    25
100
AcDbLine
 10
5.8473511224
 20
18.7870062286
 30
0.0
 11
5.8473511224
 21
18.6230062286
 31
0.0
  0
LINE
  5
200
330
1F
100
AcDbEntity
  8
0
  6
Continuous
 62
     7
370
    25
100
AcDbLine
 10
5.907253402
 20
18.7135894208
 30
0.0
 11
5.907253402
 21
18.6230062286
 31
0.0
  0
LINE
  5
201
330
1F
100
AcDbEntity
  8
0
  6
Continuous
 62
     7
370
    25
100
AcDbLine
 10
5.9046511224
 20
18.7172375613
 30
0.0
 11
5.9046511224
 21
18.6230062286
 31
0.0
  0
LINE
  5
202
330
1F
100
AcDbEntity
  8
0
  6
Continuous
 62
     7
370
    25
100
AcDbLine
 10
5.649403402
 20
18.7870062286
 30
0.0
 11
5.649403402
 21
18.6230062286
 31
0.0
  0
LINE
  5
203
330
1F
100
AcDbEntity
  8
0
  6
Continuous
 62
     7
370
    25
100
AcDbLine
 10
5.6468011224
 20
18.7870062286
 30
0.0
 11
5.6468011224
 21
18.6230062286
 31
0.0
  0
LINE
  5
204
330
1F
100
AcDbEntity
  8
0
  6
Continuous
 62
     7
370
    25
100
AcDbLine
 10
5.706703402
 20
18.7870062286
 30
0.0
 11
5.706703402
 21
18.6230062286
 31
0.0
  0
LINE
  5
205
330
1F
100
AcDbEntity
  8
0
  6
Continuous
 62
     7
370
    25
100
AcDbLine
 10
5.7041011224
 20
18.7870062286
 30
0.0
 11
5.7041011224
 21
18.6230062286
 31
0.0
  0
LINE
  5
206
330
1F
100
AcDbEntity
  8
0
  6
Continuous
 62
     7
370
    25
100
AcDbLine
 10
5.620753402
 20
18.7870062286
 30
0.0
 11
5.620753402
 21
18.6230062286
 31
0.0
  0
LINE
  5
207
330
1F
100
AcDbEntity
  8
0
  6
Continuous
 62
     7
370
    25
100
AcDbLine
 10
5.6181511224
 20
18.7870062286
 30
0.0
 11
5.6181511224
 21
18.6230062286
 31
0.0
  0
LINE
  5
208
330
1F
100
AcDbEntity
  8
0
  6
Continuous
 62
     7
370
    25
100
AcDbLine
 10
5.764003402
 20
18.7870062286
 30
0.0
 11
5.764003402
 21
18.6230062286
 31
0.0
  0
LINE
  5
209
330
1F
100
AcDbEntity
  8
0
  6
Continuous
 62
     7
370
    25
100
AcDbLine
 10
5.7614011224
 20
18.7870062286
 30
0.0
 11
5.7614011224
 21
18.6230062286
 31
0.0
  0
LINE
  5
20A
330
1F
100
AcDbEntity
  8
0
  6
Continuous
 62
     7
370
    25
100
AcDbLine
 10
5.792653402
 20
18.7870062286
 30
0.0
 11
5.792653402
 21
18.6230062286
 31
0.0
  0
LINE
  5
20B
330
1F
100
AcDbEntity
  8
0
  6
Continuous
 62
     7
370
    25
100
AcDbLine
 10
5.7900511224
 20
18.7870062286
 30
0.0
 11
5.7900511224
 21
18.6230062286
 31
0.0
  0
LINE
  5
20C
330
1F
100
AcDbEntity
  8
0
  6
Continuous
 62
     7
370
    25
100
AcDbLine
 10
5.735353402
 20
18.7870062286
 30
0.0
 11
5.735353402
 21
18.6230062286
 31
0.0
  0
LINE
  5
20D
330
1F
100
AcDbEntity
  8
0
  6
Continuous
 62
     7
370
    25
100
AcDbLine
 10
5.7327511224
 20
18.7870062286
 30
0.0
 11
5.7327511224
 21
18.6230062286
 31
0.0
  0
LINE
  5
20E
330
1F
100
AcDbEntity
  8
0
  6
Continuous
 62
     7
370
    25
100
AcDbLine
 10
5.8343272622
 20
18.7684062286
 30
0.0
 11
5.8343272622
 21
18.6416062286
 31
0.0
  0
LINE
  5
20F
330
1F
100
AcDbEntity
  8
0
  6
Continuous
 62
     7
370
    25
100
AcDbLine
 10
5.821303402
 20
18.7870062286
 30
0.0
 11
5.821303402
 21
18.6230062286
 31
0.0
  0
LINE
  5
210
330
1F
100
AcDbEntity
  8
0
  6
Continuous
 62
     7
370
    25
100
AcDbLine
 10
5.8187011224
 20
18.7870062286
 30
0.0
 11
5.8187011224
 21
18.6230062286
 31
0.0
  0
LINE
  5
211
330
1F
100
AcDbEntity
  8
0
  6
Continuous
 62
     7
370
    25
100
AcDbLine
 10
5.6624272622
 20
18.7684062286
 30
0.0
 11
5.6624272622
 21
18.6416062286
 31
0.0
  0
LINE
  5
212
330
1F
100
AcDbEntity
  8
0
  6
Continuous
 62
     7
370
    25
100
AcDbLine
 10
5.678053402
 20
18.7870062286
 30
0.0
 11
5.678053402
 21
18.6230062286
 31
0.0
  0
LINE
  5
213
330
1F
100
AcDbEntity
  8
0
  6
Continuous
 62
     7
370
    25
100
AcDbLine
 10
5.6754511224
 20
18.7870062286
 30
0.0
 11
5.6754511224
 21
18.6230062286
 31
0.0
  0
LINE
  5
214
330
1F
100
AcDbEntity
  8
0
  6
Continuous
 62
     7
370
    25
100
AcDbLine
 10
5.7483772622
 20
18.7684062286
 30
0.0
 11
5.7483772622
 21
18.6416062286
 31
0.0
  0
LINE
  5
215
330
1F
100
AcDbEntity
  8
0
  6
Continuous
 62
     7
370
    25
100
AcDbLine
 10
5.8056772622
 20
18.7684062286
 30
0.0
 11
5.8056772622
 21
18.6416062286
 31
0.0
  0
LINE
  5
216
330
1F
100
AcDbEntity
  8
0
  6
Continuous
 62
     7
370
    25
100
AcDbLine
 10
5.7197272622
 20
18.7684062286
 30
0.0
 11
5.7197272622
 21
18.6416062286
 31
0.0
  0
LINE
  5
217
330
1F
100
AcDbEntity
  8
0
  6
Continuous
 62
     7
370
    25
100
AcDbLine
 10
5.7770272622
 20
18.7684062286
 30
0.0
 11
5.7770272622
 21
18.6416062286
 31
0.0
  0
LINE
  5
218
330
1F
100
AcDbEntity
  8
0
  6
Continuous
 62
     7
370
    25
100
AcDbLine
 10
5.6337772622
 20
18.7684062286
 30
0.0
 11
5.6337772622
 21
18.6416062286
 31
0.0
  0
LINE
  5
219
330
1F
100
AcDbEntity
  8
0
  6
Continuous
 62
     7
370
    25
100
AcDbLine
 10
5.6910772622
 20
18.7684062286
 30
0.0
 11
5.6910772622
 21
18.6416062286
 31
0.0
  0
LINE
  5
21A
330
1F
100
AcDbEntity
  8
0
  6
Continuous
 62
     7
370
    25
100
AcDbLine
 10
5.6051272622
 20
18.7684062286
 30
0.0
 11
5.6051272622
 21
18.6416062286
 31
0.0
  0
LINE
  5
21B
330
1F
100
AcDbEntity
  8
0
  6
Continuous
 62
     7
370
    25
100
AcDbLine
 10
5.8916272622
 20
18.7488590622
 30
0.0
 11
5.8916272622
 21
18.6416062286
 31
0.0
  0
LINE
  5
21C
330
1F
100
AcDbEntity
  8
0
  6
Continuous
 62
     7
370
    25
100
AcDbLine
 10
6.5001272622
 20
17.8485312821
 30
0.0
 11
6.5001272622
 21
17.5740312821
 31
0.0
  0
LINE
  5
21D
330
1F
100
AcDbEntity
  8
0
  6
Continuous
 62
     7
370
    25
100
AcDbLine
 10
6.4811272622
 20
17.8675312821
 30
0.0
 11
6.4811272622
 21
17.5550312821
 31
0.0
  0
LINE
  5
21E
330
1F
100
AcDbEntity
  8
0
  6
Continuous
 62
     7
370
    25
100
AcDbLine
 10
5.8550772622
 20
17.7112812821
 30
0.0
 11
5.8550772622
 21
17.6348812821
 31
0.0
  0
LINE
  5
21F
330
1F
100
AcDbEntity
  8
0
  6
Continuous
 62
     7
370
    25
100
AcDbLine
 10
5.8550772622
 20
17.7876812821
 30
0.0
 11
5.8550772622
 21
17.7112812821
 31
0.0
  0
LINE
  5
220
330
1F
100
AcDbEntity
  8
0
  6
Continuous
 62
     7
370
    25
100
AcDbLine
 10
5.8681011224
 20
17.7112812821
 30
0.0
 11
5.8681011224
 21
17.6162812821
 31
0.0
  0
LINE
  5
221
330
1F
100
AcDbEntity
  8
0
  6
Continuous
 62
     7
370
    25
100
AcDbLine
 10
5.8681011224
 20
17.8062812821
 30
0.0
 11
5.8681011224
 21
17.7112812821
 31
0.0
  0
LINE
  5
222
330
1F
100
AcDbEntity
  8
0
  6
Continuous
 62
     7
370
    25
100
AcDbLine
 10
5.872328402
 20
17.7112812821
 30
0.0
 11
5.872328402
 21
17.6162812821
 31
0.0
  0
LINE
  5
223
330
1F
100
AcDbEntity
  8
0
  6
Continuous
 62
     7
370
    25
100
AcDbLine
 10
5.872328402
 20
17.8062812821
 30
0.0
 11
5.872328402
 21
17.7112812821
 31
0.0
  0
LINE
  5
224
330
1F
100
AcDbEntity
  8
0
  6
Continuous
 62
     7
370
    25
100
AcDbLine
 10
5.842053402
 20
17.7112812821
 30
0.0
 11
5.842053402
 21
17.6162812821
 31
0.0
  0
LINE
  5
225
330
1F
100
AcDbEntity
  8
0
  6
Continuous
 62
     7
370
    25
100
AcDbLine
 10
5.842053402
 20
17.8062812821
 30
0.0
 11
5.842053402
 21
17.7112812821
 31
0.0
  0
LINE
  5
226
330
1F
100
AcDbEntity
  8
0
  6
Continuous
 62
     7
370
    25
100
AcDbLine
 10
5.690678402
 20
17.7112812821
 30
0.0
 11
5.690678402
 21
17.6162812821
 31
0.0
  0
LINE
  5
227
330
1F
100
AcDbEntity
  8
0
  6
Continuous
 62
     7
370
    25
100
AcDbLine
 10
5.690678402
 20
17.8062812821
 30
0.0
 11
5.690678402
 21
17.7112812821
 31
0.0
  0
LINE
  5
228
330
1F
100
AcDbEntity
  8
0
  6
Continuous
 62
     7
370
    25
100
AcDbLine
 10
5.6864511224
 20
17.7112812821
 30
0.0
 11
5.6864511224
 21
17.6162812821
 31
0.0
  0
LINE
  5
229
330
1F
100
AcDbEntity
  8
0
  6
Continuous
 62
     7
370
    25
100
AcDbLine
 10
5.6864511224
 20
17.8062812821
 30
0.0
 11
5.6864511224
 21
17.7112812821
 31
0.0
  0
LINE
  5
22A
330
1F
100
AcDbEntity
  8
0
  6
Continuous
 62
     7
370
    25
100
AcDbLine
 10
5.7037022622
 20
17.7112812821
 30
0.0
 11
5.7037022622
 21
17.6348812821
 31
0.0
  0
LINE
  5
22B
330
1F
100
AcDbEntity
  8
0
  6
Continuous
 62
     7
370
    25
100
AcDbLine
 10
5.7037022622
 20
17.7876812821
 30
0.0
 11
5.7037022622
 21
17.7112812821
 31
0.0
  0
LINE
  5
22C
330
1F
100
AcDbEntity
  8
0
  6
Continuous
 62
     7
370
    25
100
AcDbLine
 10
5.7167261224
 20
17.7112812821
 30
0.0
 11
5.7167261224
 21
17.6162812821
 31
0.0
  0
LINE
  5
22D
330
1F
100
AcDbEntity
  8
0
  6
Continuous
 62
     7
370
    25
100
AcDbLine
 10
5.7167261224
 20
17.8062812821
 30
0.0
 11
5.7167261224
 21
17.7112812821
 31
0.0
  0
LINE
  5
22E
330
1F
100
AcDbEntity
  8
0
  6
Continuous
 62
     7
370
    25
100
AcDbLine
 10
5.8378261224
 20
17.7112812821
 30
0.0
 11
5.8378261224
 21
17.6162812821
 31
0.0
  0
LINE
  5
22F
330
1F
100
AcDbEntity
  8
0
  6
Continuous
 62
     7
370
    25
100
AcDbLine
 10
5.8378261224
 20
17.8062812821
 30
0.0
 11
5.8378261224
 21
17.7112812821
 31
0.0
  0
LINE
  5
230
330
1F
100
AcDbEntity
  8
0
  6
Continuous
 62
     7
370
    25
100
AcDbLine
 10
5.8248022622
 20
17.7112812821
 30
0.0
 11
5.8248022622
 21
17.6348812821
 31
0.0
  0
LINE
  5
231
330
1F
100
AcDbEntity
  8
0
  6
Continuous
 62
     7
370
    25
100
AcDbLine
 10
5.8248022622
 20
17.7876812821
 30
0.0
 11
5.8248022622
 21
17.7112812821
 31
0.0
  0
LINE
  5
232
330
1F
100
AcDbEntity
  8
0
  6
Continuous
 62
     7
370
    25
100
AcDbLine
 10
5.630128402
 20
17.7112812821
 30
0.0
 11
5.630128402
 21
17.6162812821
 31
0.0
  0
LINE
  5
233
330
1F
100
AcDbEntity
  8
0
  6
Continuous
 62
     7
370
    25
100
AcDbLine
 10
5.630128402
 20
17.8062812821
 30
0.0
 11
5.630128402
 21
17.7112812821
 31
0.0
  0
LINE
  5
234
330
1F
100
AcDbEntity
  8
0
  6
Continuous
 62
     7
370
    25
100
AcDbLine
 10
5.6431522622
 20
17.7112812821
 30
0.0
 11
5.6431522622
 21
17.6348812821
 31
0.0
  0
LINE
  5
235
330
1F
100
AcDbEntity
  8
0
  6
Continuous
 62
     7
370
    25
100
AcDbLine
 10
5.6431522622
 20
17.7876812821
 30
0.0
 11
5.6431522622
 21
17.7112812821
 31
0.0
  0
LINE
  5
236
330
1F
100
AcDbEntity
  8
0
  6
Continuous
 62
     7
370
    25
100
AcDbLine
 10
5.660403402
 20
17.7112812821
 30
0.0
 11
5.660403402
 21
17.6162812821
 31
0.0
  0
LINE
  5
237
330
1F
100
AcDbEntity
  8
0
  6
Continuous
 62
     7
370
    25
100
AcDbLine
 10
5.660403402
 20
17.8062812821
 30
0.0
 11
5.660403402
 21
17.7112812821
 31
0.0
  0
LINE
  5
238
330
1F
100
AcDbEntity
  8
0
  6
Continuous
 62
     7
370
    25
100
AcDbLine
 10
5.6734272622
 20
17.7112812821
 30
0.0
 11
5.6734272622
 21
17.6348812821
 31
0.0
  0
LINE
  5
239
330
1F
100
AcDbEntity
  8
0
  6
Continuous
 62
     7
370
    25
100
AcDbLine
 10
5.6734272622
 20
17.7876812821
 30
0.0
 11
5.6734272622
 21
17.7112812821
 31
0.0
  0
LINE
  5
23A
330
1F
100
AcDbEntity
  8
0
  6
Continuous
 62
     7
370
    25
100
AcDbLine
 10
5.8853522622
 20
17.7112812821
 30
0.0
 11
5.8853522622
 21
17.6348812821
 31
0.0
  0
LINE
  5
23B
330
1F
100
AcDbEntity
  8
0
  6
Continuous
 62
     7
370
    25
100
AcDbLine
 10
5.8853522622
 20
17.7876812821
 30
0.0
 11
5.8853522622
 21
17.7112812821
 31
0.0
  0
LINE
  5
23C
330
1F
100
AcDbEntity
  8
0
  6
Continuous
 62
     7
370
    25
100
AcDbLine
 10
5.8983761224
 20
17.7112812821
 30
0.0
 11
5.8983761224
 21
17.6162812821
 31
0.0
  0
LINE
  5
23D
330
1F
100
AcDbEntity
  8
0
  6
Continuous
 62
     7
370
    25
100
AcDbLine
 10
5.8983761224
 20
17.8062812821
 30
0.0
 11
5.8983761224
 21
17.7112812821
 31
0.0
  0
LINE
  5
23E
330
1F
100
AcDbEntity
  8
0
  6
Continuous
 62
     7
370
    25
100
AcDbLine
 10
5.7945272622
 20
17.7112812821
 30
0.0
 11
5.7945272622
 21
17.6348812821
 31
0.0
  0
LINE
  5
23F
330
1F
100
AcDbEntity
  8
0
  6
Continuous
 62
     7
370
    25
100
AcDbLine
 10
5.7945272622
 20
17.7876812821
 30
0.0
 11
5.7945272622
 21
17.7112812821
 31
0.0
  0
LINE
  5
240
330
1F
100
AcDbEntity
  8
0
  6
Continuous
 62
     7
370
    25
100
AcDbLine
 10
5.8075511224
 20
17.7112812821
 30
0.0
 11
5.8075511224
 21
17.6162812821
 31
0.0
  0
LINE
  5
241
330
1F
100
AcDbEntity
  8
0
  6
Continuous
 62
     7
370
    25
100
AcDbLine
 10
5.8075511224
 20
17.8062812821
 30
0.0
 11
5.8075511224
 21
17.7112812821
 31
0.0
  0
LINE
  5
242
330
1F
100
AcDbEntity
  8
0
  6
Continuous
 62
     7
370
    25
100
AcDbLine
 10
5.6128772622
 20
17.7112812821
 30
0.0
 11
5.6128772622
 21
17.6348812821
 31
0.0
  0
LINE
  5
243
330
1F
100
AcDbEntity
  8
0
  6
Continuous
 62
     7
370
    25
100
AcDbLine
 10
5.6128772622
 20
17.7876812821
 30
0.0
 11
5.6128772622
 21
17.7112812821
 31
0.0
  0
LINE
  5
244
330
1F
100
AcDbEntity
  8
0
  6
Continuous
 62
     7
370
    25
100
AcDbLine
 10
5.6259011224
 20
17.7112812821
 30
0.0
 11
5.6259011224
 21
17.6162812821
 31
0.0
  0
LINE
  5
245
330
1F
100
AcDbEntity
  8
0
  6
Continuous
 62
     7
370
    25
100
AcDbLine
 10
5.6259011224
 20
17.8062812821
 30
0.0
 11
5.6259011224
 21
17.7112812821
 31
0.0
  0
LINE
  5
246
330
1F
100
AcDbEntity
  8
0
  6
Continuous
 62
     7
370
    25
100
AcDbLine
 10
5.599853402
 20
17.7112812821
 30
0.0
 11
5.599853402
 21
17.6162812821
 31
0.0
  0
LINE
  5
247
330
1F
100
AcDbEntity
  8
0
  6
Continuous
 62
     7
370
    25
100
AcDbLine
 10
5.599853402
 20
17.8062812821
 30
0.0
 11
5.599853402
 21
17.7112812821
 31
0.0
  0
LINE
  5
248
330
1F
100
AcDbEntity
  8
0
  6
Continuous
 62
     7
370
    25
100
AcDbLine
 10
5.5956261224
 20
17.7112812821
 30
0.0
 11
5.5956261224
 21
17.6162812821
 31
0.0
  0
LINE
  5
249
330
1F
100
AcDbEntity
  8
0
  6
Continuous
 62
     7
370
    25
100
AcDbLine
 10
5.5956261224
 20
17.8062812821
 30
0.0
 11
5.5956261224
 21
17.7112812821
 31
0.0
  0
LINE
  5
24A
330
1F
100
AcDbEntity
  8
0
  6
Continuous
 62
     7
370
    25
100
AcDbLine
 10
5.569578402
 20
17.7112812821
 30
0.0
 11
5.569578402
 21
17.6162812821
 31
0.0
  0
LINE
  5
24B
330
1F
100
AcDbEntity
  8
0
  6
Continuous
 62
     7
370
    25
100
AcDbLine
 10
5.569578402
 20
17.8062812821
 30
0.0
 11
5.569578402
 21
17.7112812821
 31
0.0
  0
LINE
  5
24C
330
1F
100
AcDbEntity
  8
0
  6
Continuous
 62
     7
370
    25
100
AcDbLine
 10
5.5826022622
 20
17.7112812821
 30
0.0
 11
5.5826022622
 21
17.6348812821
 31
0.0
  0
LINE
  5
24D
330
1F
100
AcDbEntity
  8
0
  6
Continuous
 62
     7
370
    25
100
AcDbLine
 10
5.5826022622
 20
17.7876812821
 30
0.0
 11
5.5826022622
 21
17.7112812821
 31
0.0
  0
LINE
  5
24E
330
1F
100
AcDbEntity
  8
0
  6
Continuous
 62
     7
370
    25
100
AcDbLine
 10
5.811778402
 20
17.7112812821
 30
0.0
 11
5.811778402
 21
17.6162812821
 31
0.0
  0
LINE
  5
24F
330
1F
100
AcDbEntity
  8
0
  6
Continuous
 62
     7
370
    25
100
AcDbLine
 10
5.811778402
 20
17.8062812821
 30
0.0
 11
5.811778402
 21
17.7112812821
 31
0.0
  0
LINE
  5
250
330
1F
100
AcDbEntity
  8
0
  6
Continuous
 62
     7
370
    25
100
AcDbLine
 10
5.5653511224
 20
17.7112812821
 30
0.0
 11
5.5653511224
 21
17.6162812821
 31
0.0
  0
LINE
  5
251
330
1F
100
AcDbEntity
  8
0
  6
Continuous
 62
     7
370
    25
100
AcDbLine
 10
5.5653511224
 20
17.8062812821
 30
0.0
 11
5.5653511224
 21
17.7112812821
 31
0.0
  0
LINE
  5
252
330
1F
100
AcDbEntity
  8
0
  6
Continuous
 62
     7
370
    25
100
AcDbLine
 10
5.781503402
 20
17.7112812821
 30
0.0
 11
5.781503402
 21
17.6162812821
 31
0.0
  0
LINE
  5
253
330
1F
100
AcDbEntity
  8
0
  6
Continuous
 62
     7
370
    25
100
AcDbLine
 10
5.781503402
 20
17.8062812821
 30
0.0
 11
5.781503402
 21
17.7112812821
 31
0.0
  0
LINE
  5
254
330
1F
100
AcDbEntity
  8
0
  6
Continuous
 62
     7
370
    25
100
AcDbLine
 10
5.539303402
 20
17.7112812821
 30
0.0
 11
5.539303402
 21
17.6162812821
 31
0.0
  0
LINE
  5
255
330
1F
100
AcDbEntity
  8
0
  6
Continuous
 62
     7
370
    25
100
AcDbLine
 10
5.539303402
 20
17.8062812821
 30
0.0
 11
5.539303402
 21
17.7112812821
 31
0.0
  0
LINE
  5
256
330
1F
100
AcDbEntity
  8
0
  6
Continuous
 62
     7
370
    25
100
AcDbLine
 10
5.5350761224
 20
17.7112812821
 30
0.0
 11
5.5350761224
 21
17.6162812821
 31
0.0
  0
LINE
  5
257
330
1F
100
AcDbEntity
  8
0
  6
Continuous
 62
     7
370
    25
100
AcDbLine
 10
5.5350761224
 20
17.8062812821
 30
0.0
 11
5.5350761224
 21
17.7112812821
 31
0.0
  0
LINE
  5
258
330
1F
100
AcDbEntity
  8
0
  6
Continuous
 62
     7
370
    25
100
AcDbLine
 10
5.509028402
 20
17.7112812821
 30
0.0
 11
5.509028402
 21
17.6162812821
 31
0.0
  0
LINE
  5
259
330
1F
100
AcDbEntity
  8
0
  6
Continuous
 62
     7
370
    25
100
AcDbLine
 10
5.509028402
 20
17.8062812821
 30
0.0
 11
5.509028402
 21
17.7112812821
 31
0.0
  0
LINE
  5
25A
330
1F
100
AcDbEntity
  8
0
  6
Continuous
 62
     7
370
    25
100
AcDbLine
 10
5.5220522622
 20
17.7112812821
 30
0.0
 11
5.5220522622
 21
17.6348812821
 31
0.0
  0
LINE
  5
25B
330
1F
100
AcDbEntity
  8
0
  6
Continuous
 62
     7
370
    25
100
AcDbLine
 10
5.5220522622
 20
17.7876812821
 30
0.0
 11
5.5220522622
 21
17.7112812821
 31
0.0
  0
LINE
  5
25C
330
1F
100
AcDbEntity
  8
0
  6
Continuous
 62
     7
370
    25
100
AcDbLine
 10
5.5048011224
 20
17.7112812821
 30
0.0
 11
5.5048011224
 21
17.6162812821
 31
0.0
  0
LINE
  5
25D
330
1F
100
AcDbEntity
  8
0
  6
Continuous
 62
     7
370
    25
100
AcDbLine
 10
5.5048011224
 20
17.8062812821
 30
0.0
 11
5.5048011224
 21
17.7112812821
 31
0.0
  0
LINE
  5
25E
330
1F
100
AcDbEntity
  8
0
  6
Continuous
 62
     7
370
    25
100
AcDbLine
 10
5.478753402
 20
17.7112812821
 30
0.0
 11
5.478753402
 21
17.6162812821
 31
0.0
  0
LINE
  5
25F
330
1F
100
AcDbEntity
  8
0
  6
Continuous
 62
     7
370
    25
100
AcDbLine
 10
5.478753402
 20
17.8062812821
 30
0.0
 11
5.478753402
 21
17.7112812821
 31
0.0
  0
LINE
  5
260
330
1F
100
AcDbEntity
  8
0
  6
Continuous
 62
     7
370
    25
100
AcDbLine
 10
5.4917772622
 20
17.7112812821
 30
0.0
 11
5.4917772622
 21
17.6348812821
 31
0.0
  0
LINE
  5
261
330
1F
100
AcDbEntity
  8
0
  6
Continuous
 62
     7
370
    25
100
AcDbLine
 10
5.4917772622
 20
17.7876812821
 30
0.0
 11
5.4917772622
 21
17.7112812821
 31
0.0
  0
LINE
  5
262
330
1F
100
AcDbEntity
  8
0
  6
Continuous
 62
     7
370
    25
100
AcDbLine
 10
5.4745261224
 20
17.7112812821
 30
0.0
 11
5.4745261224
 21
17.6162812821
 31
0.0
  0
LINE
  5
263
330
1F
100
AcDbEntity
  8
0
  6
Continuous
 62
     7
370
    25
100
AcDbLine
 10
5.4745261224
 20
17.8062812821
 30
0.0
 11
5.4745261224
 21
17.7112812821
 31
0.0
  0
LINE
  5
264
330
1F
100
AcDbEntity
  8
0
  6
Continuous
 62
     7
370
    25
100
AcDbLine
 10
5.4615022622
 20
17.7112812821
 30
0.0
 11
5.4615022622
 21
17.6348812821
 31
0.0
  0
LINE
  5
265
330
1F
100
AcDbEntity
  8
0
  6
Continuous
 62
     7
370
    25
100
AcDbLine
 10
5.4615022622
 20
17.7876812821
 30
0.0
 11
5.4615022622
 21
17.7112812821
 31
0.0
  0
LINE
  5
266
330
1F
100
AcDbEntity
  8
0
  6
Continuous
 62
     7
370
    25
100
AcDbLine
 10
5.448478402
 20
17.7112812821
 30
0.0
 11
5.448478402
 21
17.6162812821
 31
0.0
  0
LINE
  5
267
330
1F
100
AcDbEntity
  8
0
  6
Continuous
 62
     7
370
    25
100
AcDbLine
 10
5.448478402
 20
17.8062812821
 30
0.0
 11
5.448478402
 21
17.7112812821
 31
0.0
  0
LINE
  5
268
330
1F
100
AcDbEntity
  8
0
  6
Continuous
 62
     7
370
    25
100
AcDbLine
 10
5.4442511224
 20
17.7112812821
 30
0.0
 11
5.4442511224
 21
17.6162812821
 31
0.0
  0
LINE
  5
269
330
1F
100
AcDbEntity
  8
0
  6
Continuous
 62
     7
370
    25
100
AcDbLine
 10
5.4442511224
 20
17.8062812821
 30
0.0
 11
5.4442511224
 21
17.7112812821
 31
0.0
  0
LINE
  5
26A
330
1F
100
AcDbEntity
  8
0
  6
Continuous
 62
     7
370
    25
100
AcDbLine
 10
5.7772761224
 20
17.7112812821
 30
0.0
 11
5.7772761224
 21
17.6162812821
 31
0.0
  0
LINE
  5
26B
330
1F
100
AcDbEntity
  8
0
  6
Continuous
 62
     7
370
    25
100
AcDbLine
 10
5.7772761224
 20
17.8062812821
 30
0.0
 11
5.7772761224
 21
17.7112812821
 31
0.0
  0
LINE
  5
26C
330
1F
100
AcDbEntity
  8
0
  6
Continuous
 62
     7
370
    25
100
AcDbLine
 10
5.751228402
 20
17.7112812821
 30
0.0
 11
5.751228402
 21
17.6162812821
 31
0.0
  0
LINE
  5
26D
330
1F
100
AcDbEntity
  8
0
  6
Continuous
 62
     7
370
    25
100
AcDbLine
 10
5.751228402
 20
17.8062812821
 30
0.0
 11
5.751228402
 21
17.7112812821
 31
0.0
  0
LINE
  5
26E
330
1F
100
AcDbEntity
  8
0
  6
Continuous
 62
     7
370
    25
100
AcDbLine
 10
5.7642522622
 20
17.7112812821
 30
0.0
 11
5.7642522622
 21
17.6348812821
 31
0.0
  0
LINE
  5
26F
330
1F
100
AcDbEntity
  8
0
  6
Continuous
 62
     7
370
    25
100
AcDbLine
 10
5.7642522622
 20
17.7876812821
 30
0.0
 11
5.7642522622
 21
17.7112812821
 31
0.0
  0
LINE
  5
270
330
1F
100
AcDbEntity
  8
0
  6
Continuous
 62
     7
370
    25
100
AcDbLine
 10
5.4009522622
 20
17.7112812821
 30
0.0
 11
5.4009522622
 21
17.6348812821
 31
0.0
  0
LINE
  5
271
330
1F
100
AcDbEntity
  8
0
  6
Continuous
 62
     7
370
    25
100
AcDbLine
 10
5.4009522622
 20
17.7876812821
 30
0.0
 11
5.4009522622
 21
17.7112812821
 31
0.0
  0
LINE
  5
272
330
1F
100
AcDbEntity
  8
0
  6
Continuous
 62
     7
370
    25
100
AcDbLine
 10
5.4139761224
 20
17.7112812821
 30
0.0
 11
5.4139761224
 21
17.6162812821
 31
0.0
  0
LINE
  5
273
330
1F
100
AcDbEntity
  8
0
  6
Continuous
 62
     7
370
    25
100
AcDbLine
 10
5.4139761224
 20
17.8062812821
 30
0.0
 11
5.4139761224
 21
17.7112812821
 31
0.0
  0
LINE
  5
274
330
1F
100
AcDbEntity
  8
0
  6
Continuous
 62
     7
370
    25
100
AcDbLine
 10
5.5523272622
 20
17.7112812821
 30
0.0
 11
5.5523272622
 21
17.6348812821
 31
0.0
  0
LINE
  5
275
330
1F
100
AcDbEntity
  8
0
  6
Continuous
 62
     7
370
    25
100
AcDbLine
 10
5.5523272622
 20
17.7876812821
 30
0.0
 11
5.5523272622
 21
17.7112812821
 31
0.0
  0
LINE
  5
276
330
1F
100
AcDbEntity
  8
0
  6
Continuous
 62
     7
370
    25
100
AcDbLine
 10
5.3706772622
 20
17.7112812821
 30
0.0
 11
5.3706772622
 21
17.6348812821
 31
0.0
  0
LINE
  5
277
330
1F
100
AcDbEntity
  8
0
  6
Continuous
 62
     7
370
    25
100
AcDbLine
 10
5.3706772622
 20
17.7876812821
 30
0.0
 11
5.3706772622
 21
17.7112812821
 31
0.0
  0
LINE
  5
278
330
1F
100
AcDbEntity
  8
0
  6
Continuous
 62
     7
370
    25
100
AcDbLine
 10
5.3837011224
 20
17.7112812821
 30
0.0
 11
5.3837011224
 21
17.6162812821
 31
0.0
  0
LINE
  5
279
330
1F
100
AcDbEntity
  8
0
  6
Continuous
 62
     7
370
    25
100
AcDbLine
 10
5.3837011224
 20
17.8062812821
 30
0.0
 11
5.3837011224
 21
17.7112812821
 31
0.0
  0
LINE
  5
27A
330
1F
100
AcDbEntity
  8
0
  6
Continuous
 62
     7
370
    25
100
AcDbLine
 10
5.357653402
 20
17.7112812821
 30
0.0
 11
5.357653402
 21
17.6162812821
 31
0.0
  0
LINE
  5
27B
330
1F
100
AcDbEntity
  8
0
  6
Continuous
 62
     7
370
    25
100
AcDbLine
 10
5.357653402
 20
17.8062812821
 30
0.0
 11
5.357653402
 21
17.7112812821
 31
0.0
  0
LINE
  5
27C
330
1F
100
AcDbEntity
  8
0
  6
Continuous
 62
     7
370
    25
100
AcDbLine
 10
5.3534261224
 20
17.7112812821
 30
0.0
 11
5.3534261224
 21
17.6162812821
 31
0.0
  0
LINE
  5
27D
330
1F
100
AcDbEntity
  8
0
  6
Continuous
 62
     7
370
    25
100
AcDbLine
 10
5.3534261224
 20
17.8062812821
 30
0.0
 11
5.3534261224
 21
17.7112812821
 31
0.0
  0
LINE
  5
27E
330
1F
100
AcDbEntity
  8
0
  6
Continuous
 62
     7
370
    25
100
AcDbLine
 10
5.3404022622
 20
17.7112812821
 30
0.0
 11
5.3404022622
 21
17.6348812821
 31
0.0
  0
LINE
  5
27F
330
1F
100
AcDbEntity
  8
0
  6
Continuous
 62
     7
370
    25
100
AcDbLine
 10
5.3404022622
 20
17.7876812821
 30
0.0
 11
5.3404022622
 21
17.7112812821
 31
0.0
  0
LINE
  5
280
330
1F
100
AcDbEntity
  8
0
  6
Continuous
 62
     7
370
    25
100
AcDbLine
 10
5.6561761224
 20
17.7112812821
 30
0.0
 11
5.6561761224
 21
17.6162812821
 31
0.0
  0
LINE
  5
281
330
1F
100
AcDbEntity
  8
0
  6
Continuous
 62
     7
370
    25
100
AcDbLine
 10
5.6561761224
 20
17.8062812821
 30
0.0
 11
5.6561761224
 21
17.7112812821
 31
0.0
  0
LINE
  5
282
330
1F
100
AcDbEntity
  8
0
  6
Continuous
 62
     7
370
    25
100
AcDbLine
 10
5.902603402
 20
17.7112812821
 30
0.0
 11
5.902603402
 21
17.6162812821
 31
0.0
  0
LINE
  5
283
330
1F
100
AcDbEntity
  8
0
  6
Continuous
 62
     7
370
    25
100
AcDbLine
 10
5.902603402
 20
17.8062812821
 30
0.0
 11
5.902603402
 21
17.7112812821
 31
0.0
  0
LINE
  5
284
330
1F
100
AcDbEntity
  8
0
  6
Continuous
 62
     7
370
    25
100
AcDbLine
 10
5.9156272622
 20
17.7112812821
 30
0.0
 11
5.9156272622
 21
17.6348812821
 31
0.0
  0
LINE
  5
285
330
1F
100
AcDbEntity
  8
0
  6
Continuous
 62
     7
370
    25
100
AcDbLine
 10
5.9156272622
 20
17.7876812821
 30
0.0
 11
5.9156272622
 21
17.7112812821
 31
0.0
  0
LINE
  5
286
330
1F
100
AcDbEntity
  8
0
  6
Continuous
 62
     7
370
    25
100
AcDbLine
 10
5.418203402
 20
17.7112812821
 30
0.0
 11
5.418203402
 21
17.6162812821
 31
0.0
  0
LINE
  5
287
330
1F
100
AcDbEntity
  8
0
  6
Continuous
 62
     7
370
    25
100
AcDbLine
 10
5.418203402
 20
17.8062812821
 30
0.0
 11
5.418203402
 21
17.7112812821
 31
0.0
  0
LINE
  5
288
330
1F
100
AcDbEntity
  8
0
  6
Continuous
 62
     7
370
    25
100
AcDbLine
 10
5.4312272622
 20
17.7112812821
 30
0.0
 11
5.4312272622
 21
17.6348812821
 31
0.0
  0
LINE
  5
289
330
1F
100
AcDbEntity
  8
0
  6
Continuous
 62
     7
370
    25
100
AcDbLine
 10
5.4312272622
 20
17.7876812821
 30
0.0
 11
5.4312272622
 21
17.7112812821
 31
0.0
  0
LINE
  5
28A
330
1F
100
AcDbEntity
  8
0
  6
Continuous
 62
     7
370
    25
100
AcDbLine
 10
5.7470011224
 20
17.7112812821
 30
0.0
 11
5.7470011224
 21
17.6162812821
 31
0.0
  0
LINE
  5
28B
330
1F
100
AcDbEntity
  8
0
  6
Continuous
 62
     7
370
    25
100
AcDbLine
 10
5.7470011224
 20
17.8062812821
 30
0.0
 11
5.7470011224
 21
17.7112812821
 31
0.0
  0
LINE
  5
28C
330
1F
100
AcDbEntity
  8
0
  6
Continuous
 62
     7
370
    25
100
AcDbLine
 10
5.720953402
 20
17.7112812821
 30
0.0
 11
5.720953402
 21
17.6162812821
 31
0.0
  0
LINE
  5
28D
330
1F
100
AcDbEntity
  8
0
  6
Continuous
 62
     7
370
    25
100
AcDbLine
 10
5.720953402
 20
17.8062812821
 30
0.0
 11
5.720953402
 21
17.7112812821
 31
0.0
  0
LINE
  5
28E
330
1F
100
AcDbEntity
  8
0
  6
Continuous
 62
     7
370
    25
100
AcDbLine
 10
5.7339772622
 20
17.7112812821
 30
0.0
 11
5.7339772622
 21
17.6348812821
 31
0.0
  0
LINE
  5
28F
330
1F
100
AcDbEntity
  8
0
  6
Continuous
 62
     7
370
    25
100
AcDbLine
 10
5.7339772622
 20
17.7876812821
 30
0.0
 11
5.7339772622
 21
17.7112812821
 31
0.0
  0
LINE
  5
290
330
1F
100
AcDbEntity
  8
0
  6
Continuous
 62
     7
370
    25
100
AcDbLine
 10
5.387928402
 20
17.7112812821
 30
0.0
 11
5.387928402
 21
17.6162812821
 31
0.0
  0
LINE
  5
291
330
1F
100
AcDbEntity
  8
0
  6
Continuous
 62
     7
370
    25
100
AcDbLine
 10
5.387928402
 20
17.8062812821
 30
0.0
 11
5.387928402
 21
17.7112812821
 31
0.0
  0
LINE
  5
292
330
1F
100
AcDbEntity
  8
0
  6
Continuous
 62
     7
370
    25
100
AcDbLine
 10
5.3279339119
 20
17.6170746324
 30
0.0
 11
5.3279339119
 21
17.8054879318
 31
0.0
  0
LINE
  5
293
330
1F
100
AcDbEntity
  8
0
  6
Continuous
 62
     7
370
    25
100
AcDbLine
 10
5.3101272622
 20
17.7876812821
 30
0.0
 11
5.3101272622
 21
17.6348812821
 31
0.0
  0
LINE
  5
294
330
1F
100
AcDbEntity
  8
0
  6
Continuous
 62
     7
370
    25
100
AcDbLine
 10
5.9201272622
 20
18.3953215687
 30
0.0
 11
5.9201272622
 21
19.7112812821
 31
0.0
  0
LINE
  5
295
330
1F
100
AcDbEntity
  8
0
  6
Continuous
 62
     7
370
    25
100
AcDbLine
 10
5.9201272622
 20
15.7112812821
 30
0.0
 11
5.9201272622
 21
18.3953215687
 31
0.0
  0
LINE
  5
296
330
1F
100
AcDbEntity
  8
0
  6
Continuous
 62
     7
370
    25
100
AcDbLine
 10
6.2601272622
 20
17.7112812821
 30
0.0
 11
6.2601272622
 21
20.1962812821
 31
0.0
  0
LINE
  5
297
330
1F
100
AcDbEntity
  8
0
  6
Continuous
 62
     7
370
    25
100
AcDbLine
 10
6.2601272622
 20
15.2262812821
 30
0.0
 11
6.2601272622
 21
17.7112812821
 31
0.0
  0
LINE
  5
298
330
1F
100
AcDbEntity
  8
0
  6
Continuous
 62
     7
370
    25
100
AcDbLine
 10
5.9351272622
 20
17.7112812821
 30
0.0
 11
5.9351272622
 21
20.1962812821
 31
0.0
  0
LINE
  5
299
330
1F
100
AcDbEntity
  8
0
  6
Continuous
 62
     7
370
    25
100
AcDbLine
 10
5.9351272622
 20
15.2262812821
 30
0.0
 11
5.9351272622
 21
17.7112812821
 31
0.0
  0
LINE
  5
29A
330
1F
100
AcDbEntity
  8
0
  6
Continuous
 62
     7
370
    25
100
AcDbLine
 10
6.3101272622
 20
17.7112812821
 30
0.0
 11
6.3101272622
 21
15.2762812821
 31
0.0
  0
LINE
  5
29B
330
1F
100
AcDbEntity
  8
0
  6
Continuous
 62
     7
370
    25
100
AcDbLine
 10
6.3101272622
 20
20.1462812821
 30
0.0
 11
6.3101272622
 21
17.7112812821
 31
0.0
  0
LWPOLYLINE
  5
29C
330
1F
100
AcDbEntity
  8
0
  6
Continuous
 62
     7
370
    25
100
AcDbPolyline
 90
       19
 70
   128
 43
0.0
 10
9.1931542182
 20
16.3098842021
 10
9.2119005356
 20
16.313915625
 10
9.2283222118
 20
16.3251074223
 10
9.2404385502
 20
16.3421096981
 10
9.2467881417
 20
16.362871727
 10
9.2466051318
 20
16.3848893018
 10
9.2399115942
 20
16.4055067781
 10
9.2275148683
 20
16.4222373841
 10
9.2109101822
 20
16.4330631616
 10
9.1921003062
 20
16.4366783621
 10
9.1733539888
 20
16.4326469392
 10
9.1569323126
 20
16.4214551419
 10
9.1448159741
 20
16.4044528661
 10
9.1384663827
 20
16.3836908372
 10
9.1386493926
 20
16.3616732624
 10
9.1453429302
 20
16.3410557861
 10
9.1577396561
 20
16.3243251801
 10
9.1743443421
 20
16.3134994026
 10
9.1931542182
 20
16.3098842021
  0
LINE
  5
29D
330
1F
100
AcDbEntity
  8
0
  6
Continuous
 62
     7
370
    25
100
AcDbLine
 10
9.2262135477
 20
16.3961712049
 30
0.0
 11
9.1922529628
 21
16.418312529
 31
0.0
  0
LINE
  5
29E
330
1F
100
AcDbEntity
  8
0
  6
Continuous
 62
     7
370
    25
100
AcDbLine
 10
9.1586666773
 20
16.3954226062
 30
0.0
 11
9.1922529628
 21
16.418312529
 31
0.0
  0
LINE
  5
29F
330
1F
100
AcDbEntity
  8
0
  6
Continuous
 62
     7
370
    25
100
AcDbLine
 10
9.1590409767
 20
16.3503913593
 30
0.0
 11
9.1586666773
 21
16.3954226062
 31
0.0
  0
LINE
  5
2A0
330
1F
100
AcDbEntity
  8
0
  6
Continuous
 62
     7
370
    25
100
AcDbLine
 10
9.1590409767
 20
16.3503913593
 30
0.0
 11
9.1930015615
 21
16.3282500352
 31
0.0
  0
LINE
  5
2A1
330
1F
100
AcDbEntity
  8
0
  6
Continuous
 62
     7
370
    25
100
AcDbLine
 10
9.2265878471
 20
16.351139958
 30
0.0
 11
9.1930015615
 21
16.3282500352
 31
0.0
  0
LINE
  5
2A2
330
1F
100
AcDbEntity
  8
0
  6
Continuous
 62
     7
370
    25
100
AcDbLine
 10
9.2265878471
 20
16.351139958
 30
0.0
 11
9.2262135477
 21
16.3961712049
 31
0.0
  0
LINE
  5
2A3
330
1F
100
AcDbEntity
  8
0
  6
Continuous
 62
     7
370
    25
100
AcDbLine
 10
9.1812135477
 20
16.3961712049
 30
0.0
 11
9.2262135477
 21
16.3961712049
 31
0.0
  0
LINE
  5
2A4
330
1F
100
AcDbEntity
  8
0
  6
Continuous
 62
     7
370
    25
100
AcDbLine
 10
9.1812135477
 20
16.3961712049
 30
0.0
 11
9.1702516364
 21
16.4033180557
 31
0.0
  0
LINE
  5
2A5
330
1F
100
AcDbEntity
  8
0
  6
Continuous
 62
     7
370
    25
100
AcDbLine
 10
9.1815878471
 20
16.351139958
 30
0.0
 11
9.170002888
 21
16.3432445085
 31
0.0
  0
LINE
  5
2A6
330
1F
100
AcDbEntity
  8
0
  6
Continuous
 62
     7
370
    25
100
AcDbLine
 10
9.1815878471
 20
16.351139958
 30
0.0
 11
9.2265878471
 21
16.351139958
 31
0.0
  0
LINE
  5
2A7
330
1F
100
AcDbEntity
  8
0
  6
Continuous
 62
     7
370
    25
100
AcDbLine
 10
9.1815878471
 20
16.351139958
 30
0.0
 11
9.1812135477
 21
16.3961712049
 31
0.0
  0
LINE
  5
2A8
330
1F
100
AcDbEntity
  8
0
  6
Continuous
 62
     7
370
    25
100
AcDbLine
 10
6.9651272622
 20
16.3098842021
 30
0.0
 11
6.9651272622
 21
16.4366812821
 31
0.0
  0
LINE
  5
2A9
330
1F
100
AcDbEntity
  8
0
  6
Continuous
 62
     7
370
    25
100
AcDbLine
 10
5.9201272622
 20
17.6008610334
 30
0.0
 11
5.9122753853
 21
17.6300943058
 31
0.0
  0
LINE
  5
2AA
330
1F
100
AcDbEntity
  8
0
  6
Continuous
 62
     7
370
    25
100
AcDbLine
 10
5.8904690634
 20
17.2112812821
 30
0.0
 11
5.9201272622
 21
17.3233955832
 31
0.0
  0
LINE
  5
2AB
330
1F
100
AcDbEntity
  8
0
  6
Continuous
 62
     7
370
    25
100
AcDbLine
 10
5.8904690634
 20
17.2112812821
 30
0.0
 11
5.6897854609
 21
17.2112812821
 31
0.0
  0
SPLINE
  5
2AC
330
1F
100
AcDbEntity
  8
0
  6
Continuous
 62
     7
370
    25
100
AcDbSpline
210
0.0
220
0.0
230
1.0
 70
     8
 71
     3
 72
    10
 73
     6
 74
     0
 42
0.00000001
 43
0.00000001
 40
0.0
 40
0.0
 40
0.0
 40
0.0
 40
0.0700999696409745
 40
0.5307895628004502
 40
1.0
 40
1.0
 40
1.0
 40
1.0
 10
5.645127262180766
 20
17.46128128209765
 30
0.0
 10
5.645180599622829
 20
17.45535463575445
 30
0.0
 10
5.645584465098057
 20
17.41047869590043
 30
0.0
 10
5.655338260273031
 20
17.32586821944194
 30
0.0
 10
5.678233130742145
 20
17.24970954649518
 30
0.0
 10
5.689785460919285
 20
17.21128128209767
 30
0.0
  0
SPLINE
  5
2AD
330
1F
100
AcDbEntity
  8
0
  6
Continuous
 62
     7
370
    25
100
AcDbSpline
210
0.0
220
0.0
230
1.0
 70
     8
 71
     3
 72
     9
 73
     5
 74
     0
 42
0.00000001
 43
0.00000001
 40
0.0
 40
0.0
 40
0.0
 40
0.0
 40
0.2299216530149893
 40
1.0
 40
1.0
 40
1.0
 40
1.0
 10
5.667235881379584
 20
17.62603907394748
 30
0.0
 10
5.663714864773445
 20
17.61365771166656
 30
0.0
 10
5.648400880379333
 20
17.55980735821544
 30
0.0
 10
5.646551460434649
 20
17.50414537224425
 30
0.0
 10
5.645127262180766
 20
17.46128128209765
 30
0.0
  0
SPLINE
  5
2AE
330
1F
100
AcDbEntity
  8
0
  6
Continuous
 62
     7
370
    25
100
AcDbSpline
210
0.0
220
0.0
230
1.0
 70
     8
 71
     3
 72
    10
 73
     6
 74
     0
 42
0.00000001
 43
0.00000001
 40
0.0
 40
0.0
 40
0.0
 40
0.0
 40
0.1075582418696852
 40
0.814419641975168
 40
1.0
 40
1.0
 40
1.0
 40
1.0
 10
5.645127262180758
 20
17.96128128209771
 30
0.0
 10
5.645188816460453
 20
17.95535613389067
 30
0.0
 10
5.645654898961984
 20
17.9104915377654
 30
0.0
 10
5.65035287929019
 20
17.85504506729988
 30
0.0
 10
5.663864867955376
 20
17.80726146720707
 30
0.0
 10
5.666674642006477
 20
17.79732502313982
 30
0.0
  0
LINE
  5
2AF
330
1F
100
AcDbEntity
  8
0
  6
Continuous
 62
     7
370
    25
100
AcDbLine
 10
5.6451272622
 20
17.4612812821
 30
0.0
 11
5.6451272622
 21
17.6320606898
 31
0.0
  0
LINE
  5
2B0
330
1F
100
AcDbEntity
  8
0
  6
Continuous
 62
     7
370
    25
100
AcDbLine
 10
5.6451272622
 20
17.7905018744
 30
0.0
 11
5.6451272622
 21
17.9612812821
 31
0.0
  0
LINE
  5
2B1
330
1F
100
AcDbEntity
  8
0
  6
Continuous
 62
     7
370
    25
100
AcDbLine
 10
5.9201272622
 20
18.1008610334
 30
0.0
 11
5.8904690634
 21
18.2112812821
 31
0.0
  0
LINE
  5
2B2
330
1F
100
AcDbEntity
  8
0
  6
Continuous
 62
     7
370
    25
100
AcDbLine
 10
5.9120362391
 20
17.7928097946
 30
0.0
 11
5.9201272622
 21
17.8233955832
 31
0.0
  0
SPLINE
  5
2B3
330
1F
100
AcDbEntity
  8
0
  6
Continuous
 62
     7
370
    25
100
AcDbSpline
210
0.0
220
0.0
230
1.0
 70
     8
 71
     3
 72
     9
 73
     5
 74
     0
 42
0.00000001
 43
0.00000001
 40
0.0
 40
0.0
 40
0.0
 40
0.0
 40
0.4954579634770246
 40
1.0
 40
1.0
 40
1.0
 40
1.0
 10
5.689785460919274
 20
18.21128128209772
 30
0.0
 10
5.677303583014156
 20
18.17068018303713
 30
0.0
 10
5.652110975719034
 20
18.08873357595133
 30
0.0
 10
5.647469222036687
 20
18.00402188909932
 30
0.0
 10
5.645127262180758
 20
17.96128128209771
 30
0.0
  0
LINE
  5
2B4
330
1F
100
AcDbEntity
  8
0
  6
Continuous
 62
     7
370
    25
100
AcDbLine
 10
5.8904690634
 20
18.2112812821
 30
0.0
 11
5.6897854609
 21
18.2112812821
 31
0.0
  0
SPLINE
  5
2B5
330
1F
100
AcDbEntity
  8
0
  6
Continuous
 62
     7
370
    25
100
AcDbSpline
210
0.0
220
0.0
230
1.0
 70
    24
 71
     3
 72
     9
 73
     5
 74
     0
 42
0.00000001
 43
0.00000001
 40
0.0
 40
0.0
 40
0.0
 40
0.0
 40
0.2021884436787589
 40
1.0
 40
1.0
 40
1.0
 40
1.0
 10
5.920127262180056
 20
17.21128128209766
 30
0.0
 10
5.918899948229456
 20
17.21128128209767
 30
0.0
 10
5.91282979937094
 20
17.21128128209769
 30
0.0
 10
5.900392046454018
 20
17.21128128209768
 30
0.0
 10
5.890469063442231
 20
17.21128128209768
 30
0.0
  0
SPLINE
  5
2B6
330
1F
100
AcDbEntity
  8
0
  6
Continuous
 62
     7
370
    25
100
AcDbSpline
210
0.0
220
0.0
230
1.0
 70
    24
 71
     3
 72
    10
 73
     6
 74
     0
 42
0.00000001
 43
0.00000001
 40
0.0
 40
0.0
 40
0.0
 40
0.0
 40
0.3642523293330895
 40
0.7315931065489103
 40
1.0
 40
1.0
 40
1.0
 40
1.0
 10
5.689785460919285
 20
17.21128128209767
 30
0.0
 10
5.680653734079179
 20
17.21128128209768
 30
0.0
 10
5.662312853680857
 20
17.21128128209768
 30
0.0
 10
5.647572385408563
 20
17.21128128209764
 30
0.0
 10
5.64585312029807
 20
17.21128128209763
 30
0.0
 10
5.645127262180741
 20
17.21128128209763
 30
0.0
  0
LINE
  5
2B7
330
1F
100
AcDbEntity
  8
0
  6
Continuous
 62
     7
370
    25
100
AcDbLine
 10
5.6451272622
 20
17.2112812821
 30
0.0
 11
5.6451272622
 21
17.4612812821
 31
0.0
  0
SPLINE
  5
2B8
330
1F
100
AcDbEntity
  8
0
  6
Continuous
 62
     7
370
    25
100
AcDbSpline
210
0.0
220
0.0
230
1.0
 70
    24
 71
     3
 72
    10
 73
     6
 74
     0
 42
0.00000001
 43
0.00000001
 40
0.0
 40
0.0
 40
0.0
 40
0.0
 40
0.2684065359322866
 40
0.6323728964503483
 40
1.0
 40
1.0
 40
1.0
 40
1.0
 10
5.645127262180769
 20
18.21128128209772
 30
0.0
 10
5.645852837603744
 20
18.21128128209774
 30
0.0
 10
5.64756231248753
 20
18.21128128209778
 30
0.0
 10
5.662245315205376
 20
18.21128128209767
 30
0.0
 10
5.680574839958931
 20
18.2112812820977
 30
0.0
 10
5.689785460919274
 20
18.21128128209772
 30
0.0
  0
LINE
  5
2B9
330
1F
100
AcDbEntity
  8
0
  6
Continuous
 62
     7
370
    25
100
AcDbLine
 10
5.6451272622
 20
17.9612812821
 30
0.0
 11
5.6451272622
 21
18.2112812821
 31
0.0
  0
SPLINE
  5
2BA
330
1F
100
AcDbEntity
  8
0
  6
Continuous
 62
     7
370
    25
100
AcDbSpline
210
0.0
220
0.0
230
1.0
 70
    24
 71
     3
 72
     9
 73
     5
 74
     0
 42
0.00000001
 43
0.00000001
 40
0.0
 40
0.0
 40
0.0
 40
0.0
 40
0.788963706726676
 40
1.0
 40
1.0
 40
1.0
 40
1.0
 10
5.890469063442244
 20
18.21128128209772
 30
0.0
 10
5.900298948071212
 20
18.2112812820977
 30
0.0
 10
5.9127581835787
 20
18.21128128209769
 30
0.0
 10
5.918843119795961
 20
18.2112812820977
 30
0.0
 10
5.920127262180056
 20
18.21128128209771
 30
0.0
  0
LINE
  5
2BB
330
1F
100
AcDbEntity
  8
0
  6
Continuous
 62
     7
370
    25
100
AcDbLine
 10
6.9651272622
 20
12.7402812821
 30
0.0
 11
9.9351272622
 21
12.7402812821
 31
0.0
  0
LINE
  5
2BC
330
1F
100
AcDbEntity
  8
0
  6
Continuous
 62
     7
370
    25
100
AcDbLine
 10
6.3201272622
 20
17.5550312821
 30
0.0
 11
6.3201272622
 21
17.2162812821
 31
0.0
  0
LINE
  5
2BD
330
1F
100
AcDbEntity
  8
0
  6
Continuous
 62
     7
370
    25
100
AcDbLine
 10
6.3201272622
 20
18.2062812821
 30
0.0
 11
6.3201272622
 21
17.8675312821
 31
0.0
  0
LINE
  5
2BE
330
1F
100
AcDbEntity
  8
0
  6
Continuous
 62
     7
370
    25
100
AcDbLine
 10
5.9184605955
 20
18.701401916
 30
0.0
 11
5.9184605955
 21
18.8281124347
 31
0.0
  0
LINE
  5
2BF
330
1F
100
AcDbEntity
  8
0
  6
Continuous
 62
     7
370
    25
100
AcDbLine
 10
5.9184605955
 20
18.5141793096
 30
0.0
 11
5.9184605955
 21
18.6390117597
 31
0.0
  0
DIMENSION
  5
2C0
330
1F
100
AcDbEntity
  8
0
  6
Continuous
 62
     7
370
    18
100
AcDbDimension
  2
_D_2
 10
9.9351272622
 20
22.8731320072
 30
0.0
 11
7.9351272622
 21
22.8731320072
 31
0.0
 70
   160
  1
<>
 71
     2
 42
-1.0
  3
SLDDIMSTYLE0
100
AcDbAlignedDimension
 13
5.9351272622
 23
20.1962812821
 33
0.0
 14
9.9351272622
 24
19.6182812821
 34
0.0
100
AcDbRotatedDimension
  0
DIMENSION
  5
2D4
330
1F
100
AcDbEntity
  8
0
  6
Continuous
 62
     7
370
    18
100
AcDbDimension
  2
_D_3
 10
6.3101272622
 20
21.4558091725
 30
0.0
 11
4.0722366784
 21
21.4558091725
 31
0.0
 70
   160
  1
<>
 71
     2
 42
-1.0
  3
SLDDIMSTYLE2
100
AcDbAlignedDimension
 13
5.9351272622
 23
20.1962812821
 33
0.0
 14
6.3101272622
 24
20.1462812821
 34
0.0
100
AcDbRotatedDimension
  0
DIMENSION
  5
2E9
330
1F
100
AcDbEntity
  8
0
  6
Continuous
 62
     7
370
    18
100
AcDbDimension
  2
_D_4
 10
4.0722366784
 20
17.7112812821
 30
0.0
 11
4.0722366784
 21
15.2107812821
 31
0.0
 70
   160
  1
<>
 71
     2
 42
-1.0
  3
SLDDIMSTYLE3
100
AcDbAlignedDimension
 13
6.9951272622
 23
12.7102812821
 33
0.0
 14
5.9201272622
 24
17.7112812821
 34
0.0
 50
90.0
100
AcDbRotatedDimension
  0
CIRCLE
  5
2FE
330
1F
100
AcDbEntity
  8
0
  6
Continuous
 62
     7
370
    25
100
AcDbCircle
 10
7.348926122
 20
6.6383013103
 30
0.0
 40
0.0633552593624946
  0
CIRCLE
  5
2FF
330
1F
100
AcDbEntity
  8
0
  6
Continuous
 62
     7
370
    25
100
AcDbCircle
 10
7.8963284024
 20
6.6383013103
 30
0.0
 40
0.0633552593624938
  0
CIRCLE
  5
300
330
1F
100
AcDbEntity
  8
0
  6
Continuous
 62
     7
370
    25
100
AcDbCircle
 10
7.8963284024
 20
6.6383013103
 30
0.0
 40
0.0670820393249931
  0
CIRCLE
  5
301
330
1F
100
AcDbEntity
  8
0
  6
Continuous
 62
     7
370
    25
100
AcDbCircle
 10
7.348926122
 20
6.6383013103
 30
0.0
 40
0.067082039324994
  0
CIRCLE
  5
302
330
1F
100
AcDbEntity
  8
0
  6
Continuous
 62
     7
370
    25
100
AcDbCircle
 10
7.6226272622
 20
5.616834749
 30
0.0
 40
2.000000000000012
  0
CIRCLE
  5
303
330
1F
100
AcDbEntity
  8
0
  6
Continuous
 62
     7
370
    25
100
AcDbCircle
 10
7.6226272622
 20
5.616834749
 30
0.0
 40
0.9000000000000048
  0
CIRCLE
  5
304
330
1F
100
AcDbEntity
  8
0
  6
Continuous
 62
     7
370
    25
100
AcDbCircle
 10
7.6226272622
 20
7.270834749
 30
0.0
 40
0.0914999999999999
  0
CIRCLE
  5
305
330
1F
100
AcDbEntity
  8
0
  6
Continuous
 62
     7
370
    25
100
AcDbCircle
 10
7.6226272622
 20
6.674334749
 30
0.0
 40
0.0674999999999999
  0
CIRCLE
  5
306
330
1F
100
AcDbEntity
  8
0
  6
Continuous
 62
     7
370
    25
100
AcDbCircle
 10
7.6226272622
 20
4.559334749
 30
0.0
 40
0.0675000000000008
  0
CIRCLE
  5
307
330
1F
100
AcDbEntity
  8
0
  6
Continuous
 62
     7
370
    25
100
AcDbCircle
 10
7.6226272622
 20
3.962834749
 30
0.0
 40
0.0914999999999999
  0
ARC
  5
308
330
1F
100
AcDbEntity
  8
0
  6
Continuous
 62
     7
370
    25
100
AcDbCircle
 10
7.2514779944
 20
6.9070108885
 30
0.0
 40
0.0925000000000023
100
AcDbArc
 50
106.0491158247
 51
286.0491158248
  0
ARC
  5
309
330
1F
100
AcDbEntity
  8
0
  6
Continuous
 62
     7
370
    25
100
AcDbCircle
 10
7.6226272622
 20
5.616834749
 30
0.0
 40
1.250000000000024
100
AcDbArc
 50
58.9508841753
 51
106.0491158247
  0
ARC
  5
30A
330
1F
100
AcDbEntity
  8
0
  6
Continuous
 62
     7
370
    25
100
AcDbCircle
 10
8.3150520818
 20
6.7669887035
 30
0.0
 40
0.0925000000000075
100
AcDbArc
 50
238.9508841753
 51
58.9508841753
  0
ARC
  5
30B
330
1F
100
AcDbEntity
  8
0
  6
Continuous
 62
     7
370
    25
100
AcDbCircle
 10
7.6226272622
 20
5.616834749
 30
0.0
 40
1.435000000000036
100
AcDbArc
 50
58.9508841753
 51
106.0491158247
  0
ARC
  5
30C
330
1F
100
AcDbEntity
  8
0
  6
Continuous
 62
     7
370
    25
100
AcDbCircle
 10
7.6226272622
 20
5.616834749
 30
0.0
 40
1.250000000000033
100
AcDbArc
 50
123.9508841753
 51
191.0491158247
  0
ARC
  5
30D
330
1F
100
AcDbEntity
  8
0
  6
Continuous
 62
     7
370
    25
100
AcDbCircle
 10
6.8728651505
 20
6.73046082
 30
0.0
 40
0.0925000000000008
100
AcDbArc
 50
303.9508841753
 51
123.9508841753
  0
ARC
  5
30E
330
1F
100
AcDbEntity
  8
0
  6
Continuous
 62
     7
370
    25
100
AcDbCircle
 10
7.6226272622
 20
5.616834749
 30
0.0
 40
1.435000000000027
100
AcDbArc
 50
123.9508841753
 51
191.0491158247
  0
ARC
  5
30F
330
1F
100
AcDbEntity
  8
0
  6
Continuous
 62
     7
370
    25
100
AcDbCircle
 10
6.3050128423
 20
5.3595440759
 30
0.0
 40
0.0924999999999983
100
AcDbArc
 50
191.0491158247
 51
11.0491158247
  0
ARC
  5
310
330
1F
100
AcDbEntity
  8
0
  6
Continuous
 62
     7
370
    25
100
AcDbCircle
 10
8.9402416821
 20
5.874125422
 30
0.0
 40
0.092500000000005
100
AcDbArc
 50
11.0491158247
 51
191.0491158247
  0
ARC
  5
311
330
1F
100
AcDbEntity
  8
0
  6
Continuous
 62
     7
370
    25
100
AcDbCircle
 10
7.6226272622
 20
5.616834749
 30
0.0
 40
1.250000000000032
100
AcDbArc
 50
303.9508841753
 51
11.0491158247
  0
ARC
  5
312
330
1F
100
AcDbEntity
  8
0
  6
Continuous
 62
     7
370
    25
100
AcDbCircle
 10
8.3723893738
 20
4.503208678
 30
0.0
 40
0.0925000000000011
100
AcDbArc
 50
123.9508841753
 51
303.9508841753
  0
ARC
  5
313
330
1F
100
AcDbEntity
  8
0
  6
Continuous
 62
     7
370
    25
100
AcDbCircle
 10
7.6226272622
 20
5.616834749
 30
0.0
 40
1.435000000000035
100
AcDbArc
 50
303.9508841753
 51
11.0491158247
  0
ARC
  5
314
330
1F
100
AcDbEntity
  8
0
  6
Continuous
 62
     7
370
    25
100
AcDbCircle
 10
7.99377653
 20
4.3266586095
 30
0.0
 40
0.0925000000000009
100
AcDbArc
 50
286.0491158247
 51
106.0491158247
  0
ARC
  5
315
330
1F
100
AcDbEntity
  8
0
  6
Continuous
 62
     7
370
    25
100
AcDbCircle
 10
7.6226272622
 20
5.616834749
 30
0.0
 40
1.250000000000035
100
AcDbArc
 50
238.9508841753
 51
286.0491158247
  0
ARC
  5
316
330
1F
100
AcDbEntity
  8
0
  6
Continuous
 62
     7
370
    25
100
AcDbCircle
 10
6.9302024426
 20
4.4666807944
 30
0.0
 40
0.0925000000000022
100
AcDbArc
 50
58.9508841753
 51
238.9508841753
  0
ARC
  5
317
330
1F
100
AcDbEntity
  8
0
  6
Continuous
 62
     7
370
    25
100
AcDbCircle
 10
7.6226272622
 20
5.616834749
 30
0.0
 40
1.435000000000031
100
AcDbArc
 50
238.9508841753
 51
286.0491158247
  0
ARC
  5
318
330
1F
100
AcDbEntity
  8
0
  6
Continuous
 62
     7
370
    25
100
AcDbCircle
 10
7.2293772311
 20
7.3143802309
 30
0.0
 40
0.0925000000000014
100
AcDbArc
 50
283.0429566235
 51
103.0429566235
  0
ARC
  5
319
330
1F
100
AcDbEntity
  8
0
  6
Continuous
 62
     7
370
    25
100
AcDbCircle
 10
7.6226272622
 20
5.616834749
 30
0.0
 40
1.835000000000052
100
AcDbArc
 50
103.0429566235
 51
136.9570433765
  0
ARC
  5
31A
330
1F
100
AcDbEntity
  8
0
  6
Continuous
 62
     7
370
    25
100
AcDbCircle
 10
6.3491347663
 20
6.8061720068
 30
0.0
 40
0.0925000000000077
100
AcDbArc
 50
136.9570433765
 51
316.9570433765
  0
ARC
  5
31B
330
1F
100
AcDbEntity
  8
0
  6
Continuous
 62
     7
370
    25
100
AcDbCircle
 10
7.6226272622
 20
5.616834749
 30
0.0
 40
1.650000000000043
100
AcDbArc
 50
103.0429566235
 51
136.9570433765
  0
ARC
  5
31C
330
1F
100
AcDbEntity
  8
0
  6
Continuous
 62
     7
370
    25
100
AcDbCircle
 10
7.6226272622
 20
5.616834749
 30
0.0
 40
1.650000000000049
100
AcDbArc
 50
173.0429566235
 51
226.9570433765
  0
ARC
  5
31D
330
1F
100
AcDbEntity
  8
0
  6
Continuous
 62
     7
370
    25
100
AcDbCircle
 10
5.8929568674
 20
5.8278953457
 30
0.0
 40
0.092500000000004
100
AcDbArc
 50
353.0429566235
 51
173.0429566235
  0
ARC
  5
31E
330
1F
100
AcDbEntity
  8
0
  6
Continuous
 62
     7
370
    25
100
AcDbCircle
 10
7.6226272622
 20
5.616834749
 30
0.0
 40
1.835000000000051
100
AcDbArc
 50
173.0429566235
 51
226.9570433765
  0
ARC
  5
31F
330
1F
100
AcDbEntity
  8
0
  6
Continuous
 62
     7
370
    25
100
AcDbCircle
 10
6.4332900043
 20
4.3433422531
 30
0.0
 40
0.0924999999999981
100
AcDbArc
 50
226.9570433765
 51
46.9570433765
  0
ARC
  5
320
330
1F
100
AcDbEntity
  8
0
  6
Continuous
 62
     7
370
    25
100
AcDbCircle
 10
8.8961197581
 20
4.4274974911
 30
0.0
 40
0.0925000000000077
100
AcDbArc
 50
316.9570433765
 51
136.9570433765
  0
ARC
  5
321
330
1F
100
AcDbEntity
  8
0
  6
Continuous
 62
     7
370
    25
100
AcDbCircle
 10
7.6226272622
 20
5.616834749
 30
0.0
 40
1.650000000000034
100
AcDbArc
 50
283.0429566235
 51
316.9570433765
  0
ARC
  5
322
330
1F
100
AcDbEntity
  8
0
  6
Continuous
 62
     7
370
    25
100
AcDbCircle
 10
8.0158772932
 20
3.9192892671
 30
0.0
 40
0.092499999999999
100
AcDbArc
 50
103.0429566235
 51
283.0429566235
  0
ARC
  5
323
330
1F
100
AcDbEntity
  8
0
  6
Continuous
 62
     7
370
    25
100
AcDbCircle
 10
7.6226272622
 20
5.616834749
 30
0.0
 40
1.835000000000035
100
AcDbArc
 50
283.0429566235
 51
316.9570433765
  0
ARC
  5
324
330
1F
100
AcDbEntity
  8
0
  6
Continuous
 62
     7
370
    25
100
AcDbCircle
 10
8.81196452
 20
6.8903272449
 30
0.0
 40
0.0925000000000033
100
AcDbArc
 50
46.9570433765
 51
226.9570433765
  0
ARC
  5
325
330
1F
100
AcDbEntity
  8
0
  6
Continuous
 62
     7
370
    25
100
AcDbCircle
 10
7.6226272622
 20
5.616834749
 30
0.0
 40
1.65000000000004
100
AcDbArc
 50
353.0429566235
 51
46.9570433765
  0
ARC
  5
326
330
1F
100
AcDbEntity
  8
0
  6
Continuous
 62
     7
370
    25
100
AcDbCircle
 10
9.3522976569
 20
5.4057741523
 30
0.0
 40
0.092500000000004
100
AcDbArc
 50
173.0429566235
 51
353.0429566235
  0
ARC
  5
327
330
1F
100
AcDbEntity
  8
0
  6
Continuous
 62
     7
370
    25
100
AcDbCircle
 10
7.6226272622
 20
5.616834749
 30
0.0
 40
1.835000000000044
100
AcDbArc
 50
353.0429566235
 51
46.9570433765
  0
CIRCLE
  5
328
330
1F
100
AcDbEntity
  8
0
  6
Continuous
 62
     7
370
    25
100
AcDbCircle
 10
8.5719181159
 20
6.5661256027
 30
0.0
 40
0.067499999999999
  0
CIRCLE
  5
329
330
1F
100
AcDbEntity
  8
0
  6
Continuous
 62
     7
370
    25
100
AcDbCircle
 10
6.6733364084
 20
4.6675438952
 30
0.0
 40
0.0674999999999999
  0
CIRCLE
  5
32A
330
1F
100
AcDbEntity
  8
0
  6
Continuous
 62
     7
370
    25
100
AcDbCircle
 10
5.9781651758
 20
6.2153699998
 30
0.0
 40
0.0775000000000006
  0
CIRCLE
  5
32B
330
1F
100
AcDbEntity
  8
0
  6
Continuous
 62
     7
370
    25
100
AcDbCircle
 10
9.2670893486
 20
5.0182994982
 30
0.0
 40
0.0774999999999988
  0
DIMENSION
  5
32C
330
1F
100
AcDbEntity
  8
0
  6
Continuous
 62
     7
370
    18
100
AcDbDimension
  2
_D_5
 10
6.2084136998
 20
7.0310483114
 30
0.0
 11
12.0931151518
 21
3.0092374432
 31
0.0
 70
   163
  1
<>
 71
     1
 42
-1.0
  3
SLDDIMSTYLE4
100
AcDbDiametricDimension
 15
9.0368408246
 25
4.2026211866
 35
0.0
 40
0.0
  0
CIRCLE
  5
33D
330
1F
100
AcDbEntity
  8
0
  6
HIDDEN
 62
     7
370
    18
100
AcDbCircle
 10
7.6226272622
 20
6.674334749
 30
0.0
 40
0.0724999999999998
  0
CIRCLE
  5
33E
330
1F
100
AcDbEntity
  8
0
  6
HIDDEN
 62
     7
370
    18
100
AcDbCircle
 10
7.6226272622
 20
4.559334749
 30
0.0
 40
0.0724999999999989
  0
CIRCLE
  5
33F
330
1F
100
AcDbEntity
  8
0
  6
HIDDEN
 62
     7
370
    18
100
AcDbCircle
 10
6.6733364084
 20
4.6675438952
 30
0.0
 40
0.0725000000000007
  0
CIRCLE
  5
340
330
1F
100
AcDbEntity
  8
0
  6
HIDDEN
 62
     7
370
    18
100
AcDbCircle
 10
8.5719181159
 20
6.5661256027
 30
0.0
 40
0.0725000000000007
  0
CIRCLE
  5
341
330
1F
100
AcDbEntity
  8
0
  6
HIDDEN
 62
     7
370
    18
100
AcDbCircle
 10
5.9781651758
 20
6.2153699998
 30
0.0
 40
0.0825000000000005
  0
CIRCLE
  5
342
330
1F
100
AcDbEntity
  8
0
  6
HIDDEN
 62
     7
370
    18
100
AcDbCircle
 10
9.2670893486
 20
5.0182994982
 30
0.0
 40
0.0825000000000005
  0
LINE
  5
343
330
1F
100
AcDbEntity
  8
0
  6
Continuous
 62
     7
370
    25
100
AcDbLine
 10
3.7622181818
 20
7.616834749
 30
0.0
 11
3.7022181818
 21
7.616834749
 31
0.0
  0
LINE
  5
344
330
1F
100
AcDbEntity
  8
0
  6
Continuous
 62
     7
370
    25
100
AcDbLine
 10
3.7022181818
 20
3.616834749
 30
0.0
 11
3.7622181818
 21
3.616834749
 31
0.0
  0
ARC
  5
345
330
1F
100
AcDbEntity
  8
0
  6
Continuous
 62
     7
370
    25
100
AcDbCircle
 10
3.7672181818
 20
6.571219271
 30
0.0
 40
0.0050000000000008
100
AcDbArc
 50
131.8103148958
 51
180.0
  0
ARC
  5
346
330
1F
100
AcDbEntity
  8
0
  6
Continuous
 62
     7
370
    25
100
AcDbCircle
 10
3.7672181818
 20
6.7053833496
 30
0.0
 40
0.005
100
AcDbArc
 50
180.0
 51
228.1896851042
  0
ARC
  5
347
330
1F
100
AcDbEntity
  8
0
  6
Continuous
 62
     7
370
    25
100
AcDbCircle
 10
3.7072181818
 20
6.6383013103
 30
0.0
 40
0.085
100
AcDbArc
 50
311.8103148958
 51
0.0
  0
ARC
  5
348
330
1F
100
AcDbEntity
  8
0
  6
Continuous
 62
     7
370
    25
100
AcDbCircle
 10
3.7072181818
 20
6.6383013103
 30
0.0
 40
0.085
100
AcDbArc
 50
0.0
 51
48.1896851042
  0
LINE
  5
349
330
1F
100
AcDbEntity
  8
0
  6
Continuous
 62
     7
370
    25
100
AcDbLine
 10
3.7622181818
 20
7.616834749
 30
0.0
 11
3.7622181818
 21
3.616834749
 31
0.0
  0
LINE
  5
34A
330
1F
100
AcDbEntity
  8
0
  6
Continuous
 62
     7
370
    25
100
AcDbLine
 10
3.7022181818
 20
7.616834749
 30
0.0
 11
3.7022181818
 21
3.616834749
 31
0.0
  0
LINE
  5
34B
330
1F
100
AcDbEntity
  8
0
  6
Continuous
 62
     7
370
    25
100
AcDbLine
 10
3.7638848485
 20
6.6383013103
 30
0.0
 11
3.7638848485
 21
6.5749460509
 31
0.0
  0
LINE
  5
34C
330
1F
100
AcDbEntity
  8
0
  6
Continuous
 62
     7
370
    25
100
AcDbLine
 10
3.7638848485
 20
6.7016565696
 30
0.0
 11
3.7638848485
 21
6.6383013103
 31
0.0
  0
DIMENSION
  5
34D
330
1F
100
AcDbEntity
  8
0
  6
Continuous
 62
     7
370
    18
100
AcDbDimension
  2
_D_6
 10
3.7622181818
 20
3.0192989354
 30
0.0
 11
1.8124544023
 21
3.0192989354
 31
0.0
 70
   160
  1
<>
 71
     2
 42
-1.0
  3
SLDDIMSTYLE2
100
AcDbAlignedDimension
 13
3.7022181818
 23
3.616834749
 33
0.0
 14
3.7622181818
 24
3.616834749
 34
0.0
100
AcDbRotatedDimension
  0
CIRCLE
  5
361
330
1F
100
AcDbEntity
  8
0
  6
Continuous
 62
     7
370
    25
100
AcDbCircle
 10
21.5286
 20
5.616834749
 30
0.0
 40
2.484999999999999
  0
CIRCLE
  5
362
330
1F
100
AcDbEntity
  8
0
  6
Continuous
 62
     7
370
    25
100
AcDbCircle
 10
21.5286
 20
5.616834749
 30
0.0
 40
2.434999999999999
  0
CIRCLE
  5
363
330
1F
100
AcDbEntity
  8
0
  6
Continuous
 62
     7
370
    25
100
AcDbCircle
 10
23.2786
 20
5.616834749
 30
0.0
 40
0.1169999999999973
  0
CIRCLE
  5
364
330
1F
100
AcDbEntity
  8
0
  6
Continuous
 62
     7
370
    25
100
AcDbCircle
 10
19.7786
 20
5.616834749
 30
0.0
 40
0.1170000000000009
  0
CIRCLE
  5
365
330
1F
100
AcDbEntity
  8
0
  6
Continuous
 62
     7
370
    25
100
AcDbCircle
 10
21.5286
 20
5.616834749
 30
0.0
 40
0.4139999999999979
  0
DIMENSION
  5
366
330
1F
100
AcDbEntity
  8
0
  6
Continuous
 62
     7
370
    18
100
AcDbDimension
  2
_D_7
 10
23.2786
 20
9.2829371112
 30
0.0
 11
21.5286
 21
9.2829371112
 31
0.0
 70
   160
  1
<> O.C.
 71
     2
 42
-1.0
  3
SLDDIMSTYLE2
100
AcDbAlignedDimension
 13
19.7786
 23
5.616834749
 33
0.0
 14
23.2786
 24
5.616834749
 34
0.0
100
AcDbRotatedDimension
  0
DIMENSION
  5
379
330
1F
100
AcDbEntity
  8
0
  6
Continuous
 62
     7
370
    18
100
AcDbDimension
  2
_D_8
 10
19.7714396488
 20
7.3739951002
 30
0.0
 11
26.0813264333
 21
2.9269988995
 31
0.0
 70
   163
  1
<>
 71
     1
 42
-1.0
  3
SLDDIMSTYLE4
100
AcDbDiametricDimension
 15
23.2857603512
 25
3.8596743977
 35
0.0
 40
0.0
  0
MTEXT
  5
389
330
1F
100
AcDbEntity
  8
0
  6
Continuous
 62
     7
370
     0
100
AcDbMText
 10
19.7308360056
 20
2.2670990056
 30
0.0
 40
0.375
 41
0.0
 71
     1
 72
     1
  1
CANOPY DETAIL
  7
SLDTEXTSTYLE0
 73
     1
 44
1.0
  0
ENDSEC
  0
SECTION
  2
OBJECTS
  0
DICTIONARY
  5
C
330
0
100
AcDbDictionary
281
     1
  3
ACAD_GROUP
350
D
  3
ACAD_LAYOUT
350
1A
  3
ACAD_MLINESTYLE
350
17
  3
ACAD_PLOTSETTINGS
350
19
  3
ACAD_PLOTSTYLENAME
350
E
  3
ACAD_SCALELIST
350
47
  3
DWGPROPS
350
38A
  0
DICTIONARY
  5
D
102
{ACAD_REACTORS
330
C
102
}
330
C
100
AcDbDictionary
281
     1
  0
DICTIONARY
  5
1A
102
{ACAD_REACTORS
330
C
102
}
330
C
100
AcDbDictionary
281
     1
  3
Layout1
350
1E
  3
Layout2
350
26
  3
Model
350
22
  0
DICTIONARY
  5
17
102
{ACAD_REACTORS
330
C
102
}
330
C
100
AcDbDictionary
281
     1
  3
Standard
350
18
  0
DICTIONARY
  5
19
102
{ACAD_REACTORS
330
C
102
}
330
C
100
AcDbDictionary
281
     1
  0
ACDBDICTIONARYWDFLT
  5
E
102
{ACAD_REACTORS
330
C
102
}
330
C
100
AcDbDictionary
281
     1
  3
Normal
350
F
100
AcDbDictionaryWithDefault
340
F
  0
DICTIONARY
  5
47
102
{ACAD_REACTORS
330
C
102
}
330
C
100
AcDbDictionary
281
     1
  3
A0
350
48
  3
A1
350
49
  3
A2
350
4A
  3
A3
350
4B
  3
A4
350
4C
  3
A5
350
4D
  3
A6
350
4E
  3
A7
350
4F
  3
A8
350
50
  3
A9
350
51
  3
B1
350
52
  3
B2
350
53
  3
B3
350
54
  3
B4
350
55
  3
B5
350
56
  3
B6
350
57
  3
B7
350
58
  0
XRECORD
  5
38A
102
{ACAD_REACTORS
330
C
102
}
330
C
100
AcDbXrecord
280
     1
  1
DWGPROPS COOKIE
  2

  3

  4

  6

  7

  8
alekseyb
  9

300
=
301
=
302
=
303
=
304
=
305
=
306
=
307
=
308
=
309
=
 40
0.0
 41
2460509.440124503
 42
2460509.440125625
  1

 90
        0
  0
LAYOUT
  5
1E
102
{ACAD_REACTORS
330
1A
102
}
330
1A
100
AcDbPlotSettings
  1

  2
none_device
  4

  6

 40
0.0
 41
0.0
 42
0.0
 43
0.0
 44
0.0
 45
0.0
 46
0.0
 47
0.0
 48
0.0
 49
0.0
140
0.0
141
0.0
142
1.0
143
1.0
 70
   688
 72
     0
 73
     0
 74
     5
  7

 75
    16
147
1.0
148
0.0
149
0.0
100
AcDbLayout
  1
Layout1
 70
     1
 71
     1
 10
0.0
 20
0.0
 11
12.0
 21
9.0
 12
0.0
 22
0.0
 32
0.0
 14
1.0000000000E+20
 24
1.0000000000E+20
 34
1.0000000000E+20
 15
-1.0000000000E+20
 25
-1.0000000000E+20
 35
-1.0000000000E+20
146
0.0
 13
0.0
 23
0.0
 33
0.0
 16
1.0
 26
0.0
 36
0.0
 17
0.0
 27
1.0
 37
0.0
 76
     0
330
1B
  0
LAYOUT
  5
26
102
{ACAD_REACTORS
330
1A
102
}
330
1A
100
AcDbPlotSettings
  1

  2
none_device
  4

  6

 40
0.0
 41
0.0
 42
0.0
 43
0.0
 44
0.0
 45
0.0
 46
0.0
 47
0.0
 48
0.0
 49
0.0
140
0.0
141
0.0
142
1.0
143
1.0
 70
   688
 72
     0
 73
     0
 74
     5
  7

 75
    16
147
1.0
148
0.0
149
0.0
100
AcDbLayout
  1
Layout2
 70
     1
 71
     2
 10
0.0
 20
0.0
 11
0.0
 21
0.0
 12
0.0
 22
0.0
 32
0.0
 14
0.0
 24
0.0
 34
0.0
 15
0.0
 25
0.0
 35
0.0
146
0.0
 13
0.0
 23
0.0
 33
0.0
 16
1.0
 26
0.0
 36
0.0
 17
0.0
 27
1.0
 37
0.0
 76
     0
330
23
  0
LAYOUT
  5
22
102
{ACAD_REACTORS
330
1A
102
}
330
1A
100
AcDbPlotSettings
  1

  2
none_device
  4
Letter_(8.50_x_11.00_Inches)
  6

 40
6.35
 41
6.35
 42
6.35000508
 43
6.35000508
 44
215.9
 45
279.4
 46
0.0
 47
0.0
 48
0.0
 49
0.0
140
0.0
141
0.0
142
1.0
143
1.0
 70
  1712
 72
     0
 73
     0
 74
     0
  7

 75
     0
147
1.0
148
0.0
149
0.0
100
AcDbLayout
  1
Model
 70
     1
 71
     0
 10
0.0
 20
0.0
 11
33.0
 21
25.5
 12
0.0
 22
0.0
 32
0.0
 14
0.0
 24
0.0
 34
0.0
 15
33.0
 25
25.5
 35
0.0
146
0.0
 13
0.0
 23
0.0
 33
0.0
 16
1.0
 26
0.0
 36
0.0
 17
0.0
 27
1.0
 37
0.0
 76
     0
330
1F
331
29
  0
MLINESTYLE
  5
18
102
{ACAD_REACTORS
330
17
102
}
330
17
100
AcDbMlineStyle
  2
Standard
 70
     0
  3

 62
   256
 51
90.0
 52
90.0
 71
     2
 49
0.5
 62
   256
  6
BYLAYER
 49
-0.5
 62
   256
  6
BYLAYER
  0
ACDBPLACEHOLDER
  5
F
102
{ACAD_REACTORS
330
E
102
}
330
E
  0
SCALE
  5
48
102
{ACAD_REACTORS
330
47
102
}
330
47
100
AcDbScale
 70
     0
300
1:1
140
1.0
141
1.0
290
     1
  0
SCALE
  5
49
102
{ACAD_REACTORS
330
47
102
}
330
47
100
AcDbScale
 70
     0
300
1/128" = 1'-0"
140
0.0078125
141
12.0
290
     0
  0
SCALE
  5
4A
102
{ACAD_REACTORS
330
47
102
}
330
47
100
AcDbScale
 70
     0
300
1/64" = 1'-0"
140
0.015625
141
12.0
290
     0
  0
SCALE
  5
4B
102
{ACAD_REACTORS
330
47
102
}
330
47
100
AcDbScale
 70
     0
300
1/32" = 1'-0"
140
0.03125
141
12.0
290
     0
  0
SCALE
  5
4C
102
{ACAD_REACTORS
330
47
102
}
330
47
100
AcDbScale
 70
     0
300
1/16" = 1'-0"
140
0.0625
141
12.0
290
     0
  0
SCALE
  5
4D
102
{ACAD_REACTORS
330
47
102
}
330
47
100
AcDbScale
 70
     0
300
3/32" = 1'-0"
140
0.09375
141
12.0
290
     0
  0
SCALE
  5
4E
102
{ACAD_REACTORS
330
47
102
}
330
47
100
AcDbScale
 70
     0
300
1/8" = 1'-0"
140
0.125
141
12.0
290
     0
  0
SCALE
  5
4F
102
{ACAD_REACTORS
330
47
102
}
330
47
100
AcDbScale
 70
     0
300
3/16" = 1'-0"
140
0.1875
141
12.0
290
     0
  0
SCALE
  5
50
102
{ACAD_REACTORS
330
47
102
}
330
47
100
AcDbScale
 70
     0
300
1/4" = 1'-0"
140
0.25
141
12.0
290
     0
  0
SCALE
  5
51
102
{ACAD_REACTORS
330
47
102
}
330
47
100
AcDbScale
 70
     0
300
3/8" = 1'-0"
140
0.375
141
12.0
290
     0
  0
SCALE
  5
52
102
{ACAD_REACTORS
330
47
102
}
330
47
100
AcDbScale
 70
     0
300
1/2" = 1'-0"
140
0.5
141
12.0
290
     0
  0
SCALE
  5
53
102
{ACAD_REACTORS
330
47
102
}
330
47
100
AcDbScale
 70
     0
300
3/4" = 1'-0"
140
0.75
141
12.0
290
     0
  0
SCALE
  5
54
102
{ACAD_REACTORS
330
47
102
}
330
47
100
AcDbScale
 70
     0
300
1" = 1'-0"
140
1.0
141
12.0
290
     0
  0
SCALE
  5
55
102
{ACAD_REACTORS
330
47
102
}
330
47
100
AcDbScale
 70
     0
300
1-1/2" = 1'-0"
140
1.5
141
12.0
290
     0
  0
SCALE
  5
56
102
{ACAD_REACTORS
330
47
102
}
330
47
100
AcDbScale
 70
     0
300
3" = 1'-0"
140
3.0
141
12.0
290
     0
  0
SCALE
  5
57
102
{ACAD_REACTORS
330
47
102
}
330
47
100
AcDbScale
 70
     0
300
6" = 1'-0"
140
6.0
141
12.0
290
     0
  0
SCALE
  5
58
102
{ACAD_REACTORS
330
47
102
}
330
47
100
AcDbScale
 70
     0
300
1'-0" = 1'-0"
140
12.0
141
12.0
290
     0
  0
ENDSEC
  0
EOF
