  0
SECTION
  2
HEADER
  9
$ACADVER
  1
AC1015
  9
$ACADMAINTVER
 70
     6
  9
$DWGCODEPAGE
  3
ANSI_1252
  9
$INSBASE
 10
0.0
 20
0.0
 30
0.0
  9
$EXTMIN
 10
0.0
 20
0.0
 30
0.0
  9
$EXTMAX
 10
88.0
 20
68.0
 30
0.0
  9
$LIMMIN
 10
0.0
 20
0.0
  9
$LIMMAX
 10
88.0
 20
68.0
  9
$ORTHOMODE
 70
     0
  9
$REGENMODE
 70
     1
  9
$FILLMODE
 70
     1
  9
$QTEXTMODE
 70
     0
  9
$MIRRTEXT
 70
     1
  9
$LTSCALE
 40
8.0
  9
$ATTMODE
 70
     1
  9
$TEXTSIZE
 40
1.0
  9
$TRACEWID
 40
0.05
  9
$TEXTSTYLE
  7
STANDARD
  9
$CLAYER
  8
0
  9
$CELTYPE
  6
ByLayer
  9
$CECOLOR
 62
   256
  9
$CELTSCALE
 40
1.0
  9
$DISPSILH
 70
     0
  9
$DIMSCALE
 40
1.0
  9
$DIMASZ
 40
1.04
  9
$DIMEXO
 40
0.4
  9
$DIMDLI
 40
0.38
  9
$DIMRND
 40
0.0
  9
$DIMDLE
 40
0.0
  9
$DIMEXE
 40
1.0
  9
$DIMTP
 40
0.0
  9
$DIMTM
 40
0.0
  9
$DIMTXT
 40
1.0
  9
$DIMCEN
 40
0.09
  9
$DIMTSZ
 40
0.0
  9
$DIMTOL
 70
     0
  9
$DIMLIM
 70
     0
  9
$DIMTIH
 70
     1
  9
$DIMTOH
 70
     1
  9
$DIMSE1
 70
     0
  9
$DIMSE2
 70
     0
  9
$DIMTAD
 70
     0
  9
$DIMZIN
 70
     1
  9
$DIMBLK
  1

  9
$DIMASO
 70
     1
  9
$DIMSHO
 70
     1
  9
$DIMPOST
  1

  9
$DIMAPOST
  1

  9
$DIMALT
 70
     0
  9
$DIMALTD
 70
     2
  9
$DIMALTF
 40
25.4
  9
$DIMLFAC
 40
1.0
  9
$DIMTOFL
 70
     0
  9
$DIMTVP
 40
0.0
  9
$DIMTIX
 70
     0
  9
$DIMSOXD
 70
     0
  9
$DIMSAH
 70
     0
  9
$DIMBLK1
  1

  9
$DIMBLK2
  1

  9
$DIMSTYLE
  2
Standard
  9
$DIMCLRD
 70
     0
  9
$DIMCLRE
 70
     0
  9
$DIMCLRT
 70
     0
  9
$DIMTFAC
 40
1.0
  9
$DIMGAP
 40
0.48
  9
$DIMJUST
 70
     0
  9
$DIMSD1
 70
     0
  9
$DIMSD2
 70
     0
  9
$DIMTOLJ
 70
     1
  9
$DIMTZIN
 70
     1
  9
$DIMALTZ
 70
     0
  9
$DIMALTTZ
 70
     0
  9
$DIMUPT
 70
     0
  9
$DIMDEC
 70
     0
  9
$DIMTDEC
 70
     0
  9
$DIMALTU
 70
     2
  9
$DIMALTTD
 70
     2
  9
$DIMTXSTY
  7
STANDARD
  9
$DIMAUNIT
 70
     0
  9
$DIMADEC
 70
     0
  9
$DIMALTRND
 40
0.0
  9
$DIMAZIN
 70
     0
  9
$DIMDSEP
 70
    46
  9
$DIMATFIT
 70
     3
  9
$DIMFRAC
 70
     0
  9
$DIMLDRBLK
  1

  9
$DIMLUNIT
 70
     2
  9
$DIMLWD
 70
    -2
  9
$DIMLWE
 70
    -2
  9
$DIMTMOVE
 70
     0
  9
$LUNITS
 70
     2
  9
$LUPREC
 70
     6
  9
$SKETCHINC
 40
0.1
  9
$FILLETRAD
 40
0.0
  9
$AUNITS
 70
     0
  9
$AUPREC
 70
     2
  9
$MENU
  1
.
  9
$ELEVATION
 40
0.0
  9
$PELEVATION
 40
0.0
  9
$THICKNESS
 40
0.0
  9
$LIMCHECK
 70
     0
  9
$CHAMFERA
 40
0.0
  9
$CHAMFERB
 40
0.0
  9
$CHAMFERC
 40
0.0
  9
$CHAMFERD
 40
0.0
  9
$SKPOLY
 70
     0
  9
$TDCREATE
 40
2460476.763084248
  9
$TDUCREATE
 40
2460477.054750914
  9
$TDUPDATE
 40
2460476.763087107
  9
$TDUUPDATE
 40
2460477.054753774
  9
$TDINDWG
 40
0.0000000116
  9
$TDUSRTIMER
 40
0.0000000116
  9
$USRTIMER
 70
     1
  9
$ANGBASE
 50
0.0
  9
$ANGDIR
 70
     0
  9
$PDMODE
 70
     0
  9
$PDSIZE
 40
-1.0
  9
$PLINEWID
 40
0.0
  9
$SPLFRAME
 70
     0
  9
$SPLINETYPE
 70
     6
  9
$SPLINESEGS
 70
     8
  9
$HANDSEED
  5
11A
  9
$SURFTAB1
 70
     6
  9
$SURFTAB2
 70
     6
  9
$SURFTYPE
 70
     6
  9
$SURFU
 70
     6
  9
$SURFV
 70
     6
  9
$UCSBASE
  2

  9
$UCSNAME
  2

  9
$UCSORG
 10
0.0
 20
0.0
 30
0.0
  9
$UCSXDIR
 10
1.0
 20
0.0
 30
0.0
  9
$UCSYDIR
 10
0.0
 20
1.0
 30
0.0
  9
$UCSORTHOREF
  2

  9
$UCSORTHOVIEW
 70
     0
  9
$UCSORGTOP
 10
0.0
 20
0.0
 30
0.0
  9
$UCSORGBOTTOM
 10
0.0
 20
0.0
 30
0.0
  9
$UCSORGLEFT
 10
0.0
 20
0.0
 30
0.0
  9
$UCSORGRIGHT
 10
0.0
 20
0.0
 30
0.0
  9
$UCSORGFRONT
 10
0.0
 20
0.0
 30
0.0
  9
$UCSORGBACK
 10
0.0
 20
0.0
 30
0.0
  9
$PUCSBASE
  2

  9
$PUCSNAME
  2

  9
$PUCSORG
 10
0.0
 20
0.0
 30
0.0
  9
$PUCSXDIR
 10
1.0
 20
0.0
 30
0.0
  9
$PUCSYDIR
 10
0.0
 20
1.0
 30
0.0
  9
$PUCSORTHOREF
  2

  9
$PUCSORTHOVIEW
 70
     0
  9
$PUCSORGTOP
 10
0.0
 20
0.0
 30
0.0
  9
$PUCSORGBOTTOM
 10
0.0
 20
0.0
 30
0.0
  9
$PUCSORGLEFT
 10
0.0
 20
0.0
 30
0.0
  9
$PUCSORGRIGHT
 10
0.0
 20
0.0
 30
0.0
  9
$PUCSORGFRONT
 10
0.0
 20
0.0
 30
0.0
  9
$PUCSORGBACK
 10
0.0
 20
0.0
 30
0.0
  9
$USERI1
 70
     0
  9
$USERI2
 70
     0
  9
$USERI3
 70
     0
  9
$USERI4
 70
     0
  9
$USERI5
 70
     0
  9
$USERR1
 40
0.0
  9
$USERR2
 40
0.0
  9
$USERR3
 40
0.0
  9
$USERR4
 40
0.0
  9
$USERR5
 40
0.0
  9
$WORLDVIEW
 70
     1
  9
$SHADEDGE
 70
     3
  9
$SHADEDIF
 70
    70
  9
$TILEMODE
 70
     1
  9
$MAXACTVP
 70
    64
  9
$PINSBASE
 10
0.0
 20
0.0
 30
0.0
  9
$PLIMCHECK
 70
     0
  9
$PEXTMIN
 10
1.0000000000E+20
 20
1.0000000000E+20
 30
1.0000000000E+20
  9
$PEXTMAX
 10
-1.0000000000E+20
 20
-1.0000000000E+20
 30
-1.0000000000E+20
  9
$PLIMMIN
 10
0.0
 20
0.0
  9
$PLIMMAX
 10
12.0
 20
9.0
  9
$UNITMODE
 70
     0
  9
$VISRETAIN
 70
     1
  9
$PLINEGEN
 70
     0
  9
$PSLTSCALE
 70
     1
  9
$TREEDEPTH
 70
  3020
  9
$CMLSTYLE
  2
Standard
  9
$CMLJUST
 70
     0
  9
$CMLSCALE
 40
1.0
  9
$PROXYGRAPHICS
 70
     1
  9
$MEASUREMENT
 70
     0
  9
$CELWEIGHT
370
    -1
  9
$ENDCAPS
280
     0
  9
$JOINSTYLE
280
     0
  9
$LWDISPLAY
290
     1
  9
$INSUNITS
 70
     1
  9
$HYPERLINKBASE
  1

  9
$STYLESHEET
  1

  9
$XEDIT
290
     1
  9
$CEPSNTYPE
380
     0
  9
$PSTYLEMODE
290
     1
  9
$FINGERPRINTGUID
  2
{43d2c2e2-30c1-4d1d-a851-9a6c70ad2a9e}
  9
$VERSIONGUID
  2
{FAEB1C32-E019-11D5-929B-00C0DF256EC4}
  9
$EXTNAMES
290
     1
  9
$PSVPSCALE
 40
0.0
  9
$OLESTARTUP
290
     0
  0
ENDSEC
  0
SECTION
  2
CLASSES
  0
CLASS
  1
ACDBDICTIONARYWDFLT
  2
AcDbDictionaryWithDefault
  3
ObjectDBX Classes
 90
        0
280
     0
281
     0
  0
CLASS
  1
VISUALSTYLE
  2
AcDbVisualStyle
  3
ObjectDBX Classes
 90
     4095
280
     0
281
     0
  0
CLASS
  1
MATERIAL
  2
AcDbMaterial
  3
ObjectDBX Classes
 90
     1153
280
     0
281
     0
  0
CLASS
  1
SCALE
  2
AcDbScale
  3
ObjectDBX Classes
 90
     1153
280
     0
281
     0
  0
CLASS
  1
TABLESTYLE
  2
AcDbTableStyle
  3
ObjectDBX Classes
 90
     4095
280
     0
281
     0
  0
CLASS
  1
MLEADERSTYLE
  2
AcDbMLeaderStyle
  3
ACDB_MLEADERSTYLE_CLASS
 90
     4095
280
     0
281
     0
  0
CLASS
  1
SUN
  2
AcDbSun
  3
SCENEOE
 90
     1153
280
     0
281
     0
  0
CLASS
  1
ACDBPLACEHOLDER
  2
AcDbPlaceHolder
  3
ObjectDBX Classes
 90
        0
280
     0
281
     0
  0
CLASS
  1
LAYOUT
  2
AcDbLayout
  3
ObjectDBX Classes
 90
        0
280
     0
281
     0
  0
ENDSEC
  0
SECTION
  2
TABLES
  0
TABLE
  2
VPORT
  5
8
330
0
100
AcDbSymbolTable
 70
     1
  0
VPORT
  5
29
330
8
100
AcDbSymbolTableRecord
100
AcDbViewportTableRecord
  2
*Active
 70
     0
 10
0.0
 20
0.0
 11
1.0
 21
1.0
 12
44.0
 22
34.0
 13
0.0
 23
0.0
 14
0.5
 24
0.5
 15
0.5
 25
0.5
 16
0.0
 26
0.0
 36
1.0
 17
0.0
 27
0.0
 37
0.0
 40
68.0
 41
1.2941176471
 42
50.0
 43
0.0
 44
0.0
 50
0.0
 51
0.0
 71
     0
 72
  2000
 73
     1
 74
     3
 75
     0
 76
     0
 77
     0
 78
     0
281
     0
 65
     1
110
0.0
120
0.0
130
0.0
111
1.0
121
0.0
131
0.0
112
0.0
122
1.0
132
0.0
 79
     0
146
0.0
  0
ENDTAB
  0
TABLE
  2
LTYPE
  5
5
330
0
100
AcDbSymbolTable
 70
     6
  0
LTYPE
  5
14
330
5
100
AcDbSymbolTableRecord
100
AcDbLinetypeTableRecord
  2
ByBlock
 70
     0
  3

 72
    65
 73
     0
 40
0.0
  0
LTYPE
  5
15
330
5
100
AcDbSymbolTableRecord
100
AcDbLinetypeTableRecord
  2
ByLayer
 70
     0
  3

 72
    65
 73
     0
 40
0.0
  0
LTYPE
  5
16
330
5
100
AcDbSymbolTableRecord
100
AcDbLinetypeTableRecord
  2
Continuous
 70
     0
  3
Solid line
 72
    65
 73
     0
 40
0.0
  0
LTYPE
  5
5E
330
5
100
AcDbSymbolTableRecord
100
AcDbLinetypeTableRecord
  2
HIDDEN
 70
     0
  3
Hidden __ __ __ __ __ __ __ __ __ __ __ __ __ __
 72
    65
 73
     2
 40
0.075
 49
0.05
 74
     0
 49
-0.025
 74
     0
  0
LTYPE
  5
5F
330
5
100
AcDbSymbolTableRecord
100
AcDbLinetypeTableRecord
  2
PHANTOM
 70
     0
  3
Phantom ______  __  __  ______  __  __  ______
 72
    65
 73
     6
 40
0.5
 49
0.25
 74
     0
 49
-0.05
 74
     0
 49
0.05
 74
     0
 49
-0.05
 74
     0
 49
0.05
 74
     0
 49
-0.05
 74
     0
  0
LTYPE
  5
60
330
5
100
AcDbSymbolTableRecord
100
AcDbLinetypeTableRecord
  2
CENTER
 70
     0
  3
Center ____ _ ____ _ ____ _ ____ _ ____ _ ____
 72
    65
 73
     4
 40
0.4
 49
0.25
 74
     0
 49
-0.05
 74
     0
 49
0.05
 74
     0
 49
-0.05
 74
     0
  0
LTYPE
  5
61
330
5
100
AcDbSymbolTableRecord
100
AcDbLinetypeTableRecord
  2
CENTERX2
 70
     0
  3
Center (2x) ________  __  ________  __  _____
 72
    65
 73
     4
 40
0.8
 49
0.5
 74
     0
 49
-0.1
 74
     0
 49
0.1
 74
     0
 49
-0.1
 74
     0
  0
LTYPE
  5
62
330
5
100
AcDbSymbolTableRecord
100
AcDbLinetypeTableRecord
  2
DOT2
 70
     0
  3
Dot (.5x) ........................................
 72
    65
 73
     2
 40
0.025
 49
0.0
 74
     0
 49
-0.025
 74
     0
  0
ENDTAB
  0
TABLE
  2
LAYER
  5
2
330
0
100
AcDbSymbolTable
 70
    12
  0
LAYER
  5
10
330
2
100
AcDbSymbolTableRecord
100
AcDbLayerTableRecord
  2
0
 70
     0
 62
     7
  6
Continuous
370
    -3
390
F
  0
LAYER
  5
63
330
2
100
AcDbSymbolTableRecord
100
AcDbLayerTableRecord
  2
SLD-0
 70
     0
 62
     7
  6
Continuous
370
    -3
390
F
  0
LAYER
  5
64
330
2
100
AcDbSymbolTableRecord
100
AcDbLayerTableRecord
  2
DIM
 70
     0
 62
     7
  6
Continuous
370
    -3
390
F
  0
LAYER
  5
65
330
2
100
AcDbSymbolTableRecord
100
AcDbLayerTableRecord
  2
CEN
 70
     0
 62
     1
  6
CENTER
370
    -3
390
F
  0
LAYER
  5
66
330
2
100
AcDbSymbolTableRecord
100
AcDbLayerTableRecord
  2
HAT
 70
     0
 62
     4
  6
Continuous
370
    -3
390
F
  0
LAYER
  5
67
330
2
100
AcDbSymbolTableRecord
100
AcDbLayerTableRecord
  2
OBJ
 70
     0
 62
     5
  6
Continuous
370
    -3
390
F
  0
LAYER
  5
68
330
2
100
AcDbSymbolTableRecord
100
AcDbLayerTableRecord
  2
SLD-DEFPOINTS
 70
     0
 62
     7
  6
Continuous
370
    -3
390
F
  0
LAYER
  5
69
330
2
100
AcDbSymbolTableRecord
100
AcDbLayerTableRecord
  2
HID
 70
     0
 62
     4
  6
HIDDEN
370
    -3
390
F
  0
LAYER
  5
6A
330
2
100
AcDbSymbolTableRecord
100
AcDbLayerTableRecord
  2
NOTE
 70
     0
 62
     7
  6
Continuous
370
    -3
390
F
  0
LAYER
  5
6B
330
2
100
AcDbSymbolTableRecord
100
AcDbLayerTableRecord
  2
VP
 70
     0
 62
    -5
  6
Continuous
290
     0
370
    -3
390
F
  0
LAYER
  5
6C
330
2
100
AcDbSymbolTableRecord
100
AcDbLayerTableRecord
  2
TITLE
 70
     0
 62
     7
  6
Continuous
370
    -3
390
F
  0
LAYER
  5
6D
330
2
100
AcDbSymbolTableRecord
100
AcDbLayerTableRecord
  2
THICK_TITLE
 70
     0
 62
     7
  6
Continuous
370
   100
390
F
  0
ENDTAB
  0
TABLE
  2
STYLE
  5
3
330
0
100
AcDbSymbolTable
 70
     2
  0
STYLE
  5
11
330
3
100
AcDbSymbolTableRecord
100
AcDbTextStyleTableRecord
  2
STANDARD
 70
     0
 40
0.0
 41
1.0
 50
0.0
 71
     0
 42
1.0
  3
GOTHIC.TTF
  4

1001
ACAD
1000
CENTURY GOTHIC
1071
       34
  0
STYLE
  5
DA
330
3
100
AcDbSymbolTableRecord
100
AcDbTextStyleTableRecord
  2
SLDTEXTSTYLE0
 70
     0
 40
0.0
 41
0.913
 50
0.0
 71
     0
 42
1.0
  3
GOTHIC.TTF
  4

1001
ACAD
1000
Century Gothic
1071
      290
  0
ENDTAB
  0
TABLE
  2
VIEW
  5
6
330
0
100
AcDbSymbolTable
 70
     0
  0
ENDTAB
  0
TABLE
  2
UCS
  5
7
330
0
100
AcDbSymbolTable
 70
     0
  0
ENDTAB
  0
TABLE
  2
APPID
  5
9
330
0
100
AcDbSymbolTable
 70
     1
  0
APPID
  5
12
330
9
100
AcDbSymbolTableRecord
100
AcDbRegAppTableRecord
  2
ACAD
 70
     0
  0
ENDTAB
  0
TABLE
  2
DIMSTYLE
  5
A
330
0
100
AcDbSymbolTable
 70
     4
100
AcDbDimStyleTable
  0
DIMSTYLE
105
27
330
A
100
AcDbSymbolTableRecord
100
AcDbDimStyleTableRecord
  2
Standard
 70
     0
178
     0
340
11
  0
DIMSTYLE
105
DB
102
{ACAD_REACTORS
330
D9
102
}
330
A
100
AcDbSymbolTableRecord
100
AcDbDimStyleTableRecord
  2
SLDDIMSTYLE0
 70
     0
 41
1.04
 44
0.0
 45
0.000000001
 78
    12
 79
     3
140
1.0
147
0.25
148
0.000000001
170
     1
173
     1
178
     0
271
     0
272
     0
276
     2
277
     5
284
    12
340
DA
  0
DIMSTYLE
105
F0
102
{ACAD_REACTORS
330
EF
102
}
330
A
100
AcDbSymbolTableRecord
100
AcDbDimStyleTableRecord
  2
SLDDIMSTYLE1
 70
     0
 41
1.04
 44
0.0
 45
0.000000001
 78
    12
 79
     3
140
1.0
147
0.25
148
0.000000001
170
     1
172
     1
173
     1
178
     0
271
     0
272
     0
276
     2
277
     5
284
    12
289
     0
340
DA
  0
DIMSTYLE
105
104
102
{ACAD_REACTORS
330
103
102
}
330
A
100
AcDbSymbolTableRecord
100
AcDbDimStyleTableRecord
  2
SLDDIMSTYLE2
 70
     0
 41
1.04
 44
0.0
 45
0.000000001
 78
    12
 79
     3
140
1.0
147
0.25
148
0.000000001
170
     1
172
     1
173
     1
178
     0
271
     6
272
     0
276
     2
277
     5
284
    12
289
     0
340
DA
  0
ENDTAB
  0
TABLE
  2
BLOCK_RECORD
  5
1
330
0
100
AcDbSymbolTable
 70
     4
  0
BLOCK_RECORD
  5
1F
330
1
100
AcDbSymbolTableRecord
100
AcDbBlockTableRecord
  2
*Model_Space
340
22
  0
BLOCK_RECORD
  5
1B
330
1
100
AcDbSymbolTableRecord
100
AcDbBlockTableRecord
  2
*Paper_Space
340
1E
  0
BLOCK_RECORD
  5
23
330
1
100
AcDbSymbolTableRecord
100
AcDbBlockTableRecord
  2
*Paper_Space0
340
26
  0
BLOCK_RECORD
  5
DC
330
1
100
AcDbSymbolTableRecord
100
AcDbBlockTableRecord
  2
_D
340
0
  0
BLOCK_RECORD
  5
F1
330
1
100
AcDbSymbolTableRecord
100
AcDbBlockTableRecord
  2
_D_1
340
0
  0
BLOCK_RECORD
  5
105
330
1
100
AcDbSymbolTableRecord
100
AcDbBlockTableRecord
  2
_D_2
340
0
  0
ENDTAB
  0
ENDSEC
  0
SECTION
  2
BLOCKS
  0
BLOCK
  5
20
330
1F
100
AcDbEntity
  8
0
100
AcDbBlockBegin
  2
*Model_Space
 70
     0
 10
0.0
 20
0.0
 30
0.0
  3
*Model_Space
  1

  0
ENDBLK
  5
21
330
1F
100
AcDbEntity
  8
0
100
AcDbBlockEnd
  0
BLOCK
  5
1C
330
1B
100
AcDbEntity
 67
     1
  8
0
100
AcDbBlockBegin
  2
*Paper_Space
 70
     0
 10
0.0
 20
0.0
 30
0.0
  3
*Paper_Space
  1

  0
ENDBLK
  5
1D
330
1B
100
AcDbEntity
 67
     1
  8
0
100
AcDbBlockEnd
  0
BLOCK
  5
24
330
23
100
AcDbEntity
  8
0
100
AcDbBlockBegin
  2
*Paper_Space0
 70
     0
 10
0.0
 20
0.0
 30
0.0
  3
*Paper_Space0
  1

  0
ENDBLK
  5
25
330
23
100
AcDbEntity
  8
0
100
AcDbBlockEnd
  0
BLOCK
  5
DD
330
DC
100
AcDbEntity
  8
0
100
AcDbBlockBegin
  2
_D
 70
     0
 10
0.0
 20
0.0
 30
0.0
  3
_D
  1

  0
SOLID
  5
DF
330
DC
100
AcDbEntity
  8
0
  6
Continuous
 62
     7
370
    18
100
AcDbTrace
 10
26.2439811416
 20
45.7761923581
 30
0.0
 11
26.0839811416
 21
44.7361923581
 31
0.0
 12
26.4039811416
 22
44.7361923581
 32
0.0
 13
26.4039811416
 23
44.7361923581
 33
0.0
  0
SOLID
  5
E0
330
DC
100
AcDbEntity
  8
0
  6
Continuous
 62
     7
370
    18
100
AcDbTrace
 10
26.2439811416
 20
33.7711923581
 30
0.0
 11
26.4039811416
 21
34.8111923581
 31
0.0
 12
26.0839811416
 22
34.8111923581
 32
0.0
 13
26.0839811416
 23
34.8111923581
 33
0.0
  0
LINE
  5
E1
330
DC
100
AcDbEntity
  8
0
  6
Continuous
 62
     7
370
     0
100
AcDbLine
 10
23.8856479853
 20
39.766053313
 30
0.0
 11
23.5809604884
 21
39.766053313
 31
0.0
  0
LINE
  5
E2
330
DC
100
AcDbEntity
  8
0
  6
Continuous
 62
     7
370
     0
100
AcDbLine
 10
23.5809604884
 20
39.766053313
 30
0.0
 11
23.5809604884
 21
38.1785532653
 31
0.0
  0
LINE
  5
E3
330
DC
100
AcDbEntity
  8
0
  6
Continuous
 62
     7
370
     0
100
AcDbLine
 10
23.5809604884
 20
38.1785532653
 30
0.0
 11
23.8856479853
 21
38.1785532653
 31
0.0
  0
LINE
  5
E4
330
DC
100
AcDbEntity
  8
0
  6
Continuous
 62
     7
370
     0
100
AcDbLine
 10
28.6023145913
 20
39.766053313
 30
0.0
 11
28.9070020882
 21
39.766053313
 31
0.0
  0
LINE
  5
E5
330
DC
100
AcDbEntity
  8
0
  6
Continuous
 62
     7
370
     0
100
AcDbLine
 10
28.9070020882
 20
39.766053313
 30
0.0
 11
28.9070020882
 21
38.1785532653
 31
0.0
  0
LINE
  5
E6
330
DC
100
AcDbEntity
  8
0
  6
Continuous
 62
     7
370
     0
100
AcDbLine
 10
28.9070020882
 20
38.1785532653
 30
0.0
 11
28.6023145913
 21
38.1785532653
 31
0.0
  0
LINE
  5
E7
330
DC
100
AcDbEntity
  8
0
  6
Continuous
 62
     7
370
     0
100
AcDbLine
 10
35.9313026064
 20
45.7761923581
 30
0.0
 11
25.2439811416
 21
45.7761923581
 31
0.0
  0
LINE
  5
E8
330
DC
100
AcDbEntity
  8
0
  6
Continuous
 62
     7
370
     0
100
AcDbLine
 10
33.1813026064
 20
33.7711923581
 30
0.0
 11
25.2439811416
 21
33.7711923581
 31
0.0
  0
LINE
  5
E9
330
DC
100
AcDbEntity
  8
0
  6
Continuous
 62
     7
370
     0
100
AcDbLine
 10
26.2439811416
 20
45.7761923581
 30
0.0
 11
26.2439811416
 21
41.5719561311
 31
0.0
  0
LINE
  5
EA
330
DC
100
AcDbEntity
  8
0
  6
Continuous
 62
     7
370
     0
100
AcDbLine
 10
26.2439811416
 20
33.7711923581
 30
0.0
 11
26.2439811416
 21
37.9754285851
 31
0.0
  0
MTEXT
  5
EB
330
DC
100
AcDbEntity
  8
0
  6
Continuous
 62
     7
370
    18
100
AcDbMText
 10
22.9068285461
 20
41.2617999433
 30
0.0
 40
1.0
 41
0.0
 71
     1
 72
     1
  1
 
  7
SLDTEXTSTYLE0
 73
     1
 44
1.0
  0
MTEXT
  5
EC
330
DC
100
AcDbEntity
  8
0
  6
Continuous
 62
     7
370
    18
100
AcDbMText
 10
25.29884236
 20
41.2465220915
 30
0.0
 40
1.0
 41
0.0
 71
     1
 72
     1
  1
12"
  7
SLDTEXTSTYLE0
 73
     1
 44
1.0
  0
MTEXT
  5
ED
330
DC
100
AcDbEntity
  8
0
  6
Continuous
 62
     7
370
    18
100
AcDbMText
 10
23.8856479853
 20
39.4558971253
 30
0.0
 40
1.0
 41
0.0
 71
     1
 72
     1
  1
305mm
  7
SLDTEXTSTYLE0
 73
     1
 44
1.0
  0
MTEXT
  5
EE
330
DC
100
AcDbEntity
  8
0
  6
Continuous
 62
     7
370
    18
100
AcDbMText
 10
29.2116893651
 20
41.2617999433
 30
0.0
 40
1.0
 41
0.0
 71
     1
 72
     1
  1
 
  7
SLDTEXTSTYLE0
 73
     1
 44
1.0
  0
ENDBLK
  5
DE
330
DC
100
AcDbEntity
  8
0
100
AcDbBlockEnd
  0
BLOCK
  5
F2
330
F1
100
AcDbEntity
  8
0
100
AcDbBlockBegin
  2
_D_1
 70
     0
 10
0.0
 20
0.0
 30
0.0
  3
_D_1
  1

  0
SOLID
  5
F4
330
F1
100
AcDbEntity
  8
0
  6
Continuous
 62
     7
370
    18
100
AcDbTrace
 10
33.5813026064
 20
30.1041149403
 30
0.0
 11
32.5413026064
 21
30.2641149403
 31
0.0
 12
32.5413026064
 22
29.9441149403
 32
0.0
 13
32.5413026064
 23
29.9441149403
 33
0.0
  0
SOLID
  5
F5
330
F1
100
AcDbEntity
  8
0
  6
Continuous
 62
     7
370
    18
100
AcDbTrace
 10
39.5813026064
 20
30.1041149403
 30
0.0
 11
40.6213026064
 21
29.9441149403
 31
0.0
 12
40.6213026064
 22
30.2641149403
 32
0.0
 13
40.6213026064
 23
30.2641149403
 33
0.0
  0
LINE
  5
F6
330
F1
100
AcDbEntity
  8
0
  6
Continuous
 62
     7
370
     0
100
AcDbLine
 10
34.2229693767
 20
30.1041147936
 30
0.0
 11
33.9182818798
 21
30.1041147936
 31
0.0
  0
LINE
  5
F7
330
F1
100
AcDbEntity
  8
0
  6
Continuous
 62
     7
370
     0
100
AcDbLine
 10
33.9182818798
 20
30.1041147936
 30
0.0
 11
33.9182818798
 21
28.5166147459
 31
0.0
  0
LINE
  5
F8
330
F1
100
AcDbEntity
  8
0
  6
Continuous
 62
     7
370
     0
100
AcDbLine
 10
33.9182818798
 20
28.5166147459
 30
0.0
 11
34.2229693767
 21
28.5166147459
 31
0.0
  0
LINE
  5
F9
330
F1
100
AcDbEntity
  8
0
  6
Continuous
 62
     7
370
     0
100
AcDbLine
 10
38.9396359827
 20
30.1041147936
 30
0.0
 11
39.2443234796
 21
30.1041147936
 31
0.0
  0
LINE
  5
FA
330
F1
100
AcDbEntity
  8
0
  6
Continuous
 62
     7
370
     0
100
AcDbLine
 10
39.2443234796
 20
30.1041147936
 30
0.0
 11
39.2443234796
 21
28.5166147459
 31
0.0
  0
LINE
  5
FB
330
F1
100
AcDbEntity
  8
0
  6
Continuous
 62
     7
370
     0
100
AcDbLine
 10
39.2443234796
 20
28.5166147459
 30
0.0
 11
38.9396359827
 21
28.5166147459
 31
0.0
  0
LINE
  5
FC
330
F1
100
AcDbEntity
  8
0
  6
Continuous
 62
     7
370
     0
100
AcDbLine
 10
33.5813026064
 20
33.3711923581
 30
0.0
 11
33.5813026064
 21
29.1041149403
 31
0.0
  0
LINE
  5
FD
330
F1
100
AcDbEntity
  8
0
  6
Continuous
 62
     7
370
     0
100
AcDbLine
 10
39.5813026064
 20
33.3711923581
 30
0.0
 11
39.5813026064
 21
29.1041149403
 31
0.0
  0
LINE
  5
FE
330
F1
100
AcDbEntity
  8
0
  6
Continuous
 62
     7
370
     0
100
AcDbLine
 10
33.5813026064
 20
30.1041149403
 30
0.0
 11
31.5813026064
 21
30.1041149403
 31
0.0
  0
LINE
  5
FF
330
F1
100
AcDbEntity
  8
0
  6
Continuous
 62
     7
370
     0
100
AcDbLine
 10
39.5813026064
 20
30.1041149403
 30
0.0
 11
41.5813026064
 21
30.1041149403
 31
0.0
  0
MTEXT
  5
100
330
F1
100
AcDbEntity
  8
0
  6
Continuous
 62
     7
370
    18
100
AcDbMText
 10
35.2515457145
 20
31.5845836455
 30
0.0
 40
1.0
 41
0.0
 71
     1
 72
     1
  1
%%c
  7
SLDTEXTSTYLE0
 73
     1
 44
1.0
  0
MTEXT
  5
101
330
F1
100
AcDbEntity
  8
0
  6
Continuous
 62
     7
370
    18
100
AcDbMText
 10
36.7596706792
 20
31.5845836455
 30
0.0
 40
1.0
 41
0.0
 71
     1
 72
     1
  1
6"
  7
SLDTEXTSTYLE0
 73
     1
 44
1.0
  0
MTEXT
  5
102
330
F1
100
AcDbEntity
  8
0
  6
Continuous
 62
     7
370
    18
100
AcDbMText
 10
34.2229693767
 20
29.7939586059
 30
0.0
 40
1.0
 41
0.0
 71
     1
 72
     1
  1
152mm
  7
SLDTEXTSTYLE0
 73
     1
 44
1.0
  0
ENDBLK
  5
F3
330
F1
100
AcDbEntity
  8
0
100
AcDbBlockEnd
  0
BLOCK
  5
106
330
105
100
AcDbEntity
  8
0
100
AcDbBlockBegin
  2
_D_2
 70
     0
 10
0.0
 20
0.0
 30
0.0
  3
_D_2
  1

  0
SOLID
  5
108
330
105
100
AcDbEntity
  8
0
  6
Continuous
 62
     7
370
    18
100
AcDbTrace
 10
41.7111199508
 20
45.5211923581
 30
0.0
 11
41.5511199508
 21
44.4811923581
 31
0.0
 12
41.8711199508
 22
44.4811923581
 32
0.0
 13
41.8711199508
 23
44.4811923581
 33
0.0
  0
SOLID
  5
109
330
105
100
AcDbEntity
  8
0
  6
Continuous
 62
     7
370
    18
100
AcDbTrace
 10
41.7111199508
 20
45.7711923581
 30
0.0
 11
41.8711199508
 21
46.8111923581
 31
0.0
 12
41.5511199508
 22
46.8111923581
 32
0.0
 13
41.5511199508
 23
46.8111923581
 33
0.0
  0
LINE
  5
10A
330
105
100
AcDbEntity
  8
0
  6
Continuous
 62
     7
370
     0
100
AcDbLine
 10
45.2982896446
 20
47.842918927
 30
0.0
 11
44.9936021477
 21
47.842918927
 31
0.0
  0
LINE
  5
10B
330
105
100
AcDbEntity
  8
0
  6
Continuous
 62
     7
370
     0
100
AcDbLine
 10
44.9936021477
 20
47.842918927
 30
0.0
 11
44.9936021477
 21
46.2554188793
 31
0.0
  0
LINE
  5
10C
330
105
100
AcDbEntity
  8
0
  6
Continuous
 62
     7
370
     0
100
AcDbLine
 10
44.9936021477
 20
46.2554188793
 30
0.0
 11
45.2982896446
 21
46.2554188793
 31
0.0
  0
LINE
  5
10D
330
105
100
AcDbEntity
  8
0
  6
Continuous
 62
     7
370
     0
100
AcDbLine
 10
48.5371784687
 20
47.842918927
 30
0.0
 11
48.8418659656
 21
47.842918927
 31
0.0
  0
LINE
  5
10E
330
105
100
AcDbEntity
  8
0
  6
Continuous
 62
     7
370
     0
100
AcDbLine
 10
48.8418659656
 20
47.842918927
 30
0.0
 11
48.8418659656
 21
46.2554188793
 31
0.0
  0
LINE
  5
10F
330
105
100
AcDbEntity
  8
0
  6
Continuous
 62
     7
370
     0
100
AcDbLine
 10
48.8418659656
 20
46.2554188793
 30
0.0
 11
48.5371784687
 21
46.2554188793
 31
0.0
  0
LINE
  5
110
330
105
100
AcDbEntity
  8
0
  6
Continuous
 62
     7
370
     0
100
AcDbLine
 10
39.9813026064
 20
45.5211923581
 30
0.0
 11
42.7111199508
 21
45.5211923581
 31
0.0
  0
LINE
  5
111
330
105
100
AcDbEntity
  8
0
  6
Continuous
 62
     7
370
     0
100
AcDbLine
 10
39.9813026064
 20
45.7711923581
 30
0.0
 11
42.7111199508
 21
45.7711923581
 31
0.0
  0
LINE
  5
112
330
105
100
AcDbEntity
  8
0
  6
Continuous
 62
     7
370
     0
100
AcDbLine
 10
43.7111199508
 20
47.8505579721
 30
0.0
 11
41.7111199508
 21
47.8505579721
 31
0.0
  0
LINE
  5
113
330
105
100
AcDbEntity
  8
0
  6
Continuous
 62
     7
370
     0
100
AcDbLine
 10
41.7111199508
 20
47.8505579721
 30
0.0
 11
41.7111199508
 21
45.7711923581
 31
0.0
  0
LINE
  5
114
330
105
100
AcDbEntity
  8
0
  6
Continuous
 62
     7
370
     0
100
AcDbLine
 10
41.7111199508
 20
45.5211923581
 30
0.0
 11
41.7111199508
 21
43.5211923581
 31
0.0
  0
MTEXT
  5
115
330
105
100
AcDbEntity
  8
0
  6
Continuous
 62
     7
370
    18
100
AcDbMText
 10
44.3194702053
 20
49.3386655573
 30
0.0
 40
1.0
 41
0.0
 71
     1
 72
     1
  1
 
  7
SLDTEXTSTYLE0
 73
     1
 44
1.0
  0
MTEXT
  5
116
330
105
100
AcDbEntity
  8
0
  6
Continuous
 62
     7
370
    18
100
AcDbMText
 10
45.6809283643
 20
49.3233877055
 30
0.0
 40
1.0
 41
0.0
 71
     1
 72
     1
  1
1/4"
  7
SLDTEXTSTYLE0
 73
     1
 44
1.0
  0
MTEXT
  5
117
330
105
100
AcDbEntity
  8
0
  6
Continuous
 62
     7
370
    18
100
AcDbMText
 10
45.2982896446
 20
47.5327627393
 30
0.0
 40
1.0
 41
0.0
 71
     1
 72
     1
  1
6mm
  7
SLDTEXTSTYLE0
 73
     1
 44
1.0
  0
MTEXT
  5
118
330
105
100
AcDbEntity
  8
0
  6
Continuous
 62
     7
370
    18
100
AcDbMText
 10
49.1465532425
 20
49.3386655573
 30
0.0
 40
1.0
 41
0.0
 71
     1
 72
     1
  1
 
  7
SLDTEXTSTYLE0
 73
     1
 44
1.0
  0
ENDBLK
  5
107
330
105
100
AcDbEntity
  8
0
100
AcDbBlockEnd
  0
ENDSEC
  0
SECTION
  2
ENTITIES
  0
LINE
  5
6E
330
1F
100
AcDbEntity
  8
0
  6
Continuous
 62
     7
370
    25
100
AcDbLine
 10
65.3650719853
 20
42.8617797284
 30
0.0
 11
65.3608570109
 21
43.018305754
 31
0.0
  0
LINE
  5
6F
330
1F
100
AcDbEntity
  8
0
  6
Continuous
 62
     7
370
    25
100
AcDbLine
 10
58.7535538082
 20
43.1204106026
 30
0.0
 11
58.7445043042
 21
42.9640895573
 31
0.0
  0
LINE
  5
70
330
1F
100
AcDbEntity
  8
0
  6
Continuous
 62
     7
370
    25
100
AcDbLine
 10
63.6357817469
 20
43.8469505442
 30
0.0
 11
63.6624562535
 21
43.8138384478
 31
0.0
  0
LINE
  5
71
330
1F
100
AcDbEntity
  8
0
  6
Continuous
 62
     7
370
    25
100
AcDbLine
 10
65.2150295972
 20
33.0345441631
 30
0.0
 11
65.3661958994
 21
42.8166613432
 31
0.0
  0
LINE
  5
72
330
1F
100
AcDbEntity
  8
0
  6
Continuous
 62
     7
370
    25
100
AcDbLine
 10
58.7419868009
 20
42.9190274442
 30
0.0
 11
58.5908204986
 21
33.136910264
 31
0.0
  0
ARC
  5
73
330
1F
100
AcDbEntity
  8
0
  6
Continuous
 62
     7
370
    25
100
AcDbCircle
 10
63.8346354708
 20
43.9025719509
 30
0.0
 40
0.0847346260821516
100
AcDbArc
 50
152.6074599537
 51
204.9067402855
  0
LINE
  5
74
330
1F
100
AcDbEntity
  8
0
  6
Continuous
 62
     7
370
    25
100
AcDbLine
 10
63.7472714407
 20
43.9040715289
 30
0.0
 11
63.7473888633
 21
43.9065153309
 31
0.0
  0
ARC
  5
75
330
1F
100
AcDbEntity
  8
0
  6
Continuous
 62
     7
370
    25
100
AcDbCircle
 10
63.8465750521
 20
43.8998696341
 30
0.0
 40
0.0993924703037303
100
AcDbArc
 50
177.5770537887
 51
200.7905907103
  0
LINE
  5
76
330
1F
100
AcDbEntity
  8
0
  6
Continuous
 62
     7
370
    25
100
AcDbLine
 10
63.8440306412
 20
43.933207898
 30
0.0
 11
63.80778487
 21
43.9597888959
 31
0.0
  0
LINE
  5
77
330
1F
100
AcDbEntity
  8
0
  6
Continuous
 62
     7
370
    25
100
AcDbLine
 10
63.7695673352
 20
43.9324112428
 30
0.0
 11
63.80778487
 21
43.9597888959
 31
0.0
  0
LINE
  5
78
330
1F
100
AcDbEntity
  8
0
  6
Continuous
 62
     7
370
    25
100
AcDbLine
 10
63.7675955715
 20
43.8784525917
 30
0.0
 11
63.7695673352
 21
43.9324112428
 31
0.0
  0
LINE
  5
79
330
1F
100
AcDbEntity
  8
0
  6
Continuous
 62
     7
370
    25
100
AcDbLine
 10
63.7675955715
 20
43.8784525917
 30
0.0
 11
63.7723283553
 21
43.8749817836
 31
0.0
  0
LINE
  5
7A
330
1F
100
AcDbEntity
  8
0
  6
Continuous
 62
     7
370
    25
100
AcDbLine
 10
63.8434188754
 20
43.9164665125
 30
0.0
 11
63.8440306412
 21
43.933207898
 31
0.0
  0
LINE
  5
7B
330
1F
100
AcDbEntity
  8
0
  6
Continuous
 62
     7
370
    25
100
AcDbLine
 10
63.7766538254
 20
43.8773888884
 30
0.0
 11
63.7675955715
 21
43.8784525917
 31
0.0
  0
LINE
  5
7C
330
1F
100
AcDbEntity
  8
0
  6
Continuous
 62
     7
370
    25
100
AcDbLine
 10
63.8301581649
 20
43.9252961118
 30
0.0
 11
63.8426331614
 21
43.934232746
 31
0.0
  0
LINE
  5
7D
330
1F
100
AcDbEntity
  8
0
  6
Continuous
 62
     7
370
    25
100
AcDbLine
 10
63.8301581649
 20
43.9252961118
 30
0.0
 11
63.7695673352
 21
43.9324112428
 31
0.0
  0
LINE
  5
7E
330
1F
100
AcDbEntity
  8
0
  6
Continuous
 62
     7
370
    25
100
AcDbLine
 10
63.8294827055
 20
43.9068117075
 30
0.0
 11
63.8301581649
 21
43.9252961118
 31
0.0
  0
LWPOLYLINE
  5
7F
330
1F
100
AcDbEntity
  8
0
  6
Continuous
 62
     7
370
    25
100
AcDbPolyline
 90
      224
 70
   128
 43
0.0
 10
59.7199008333
 20
41.724045659
 10
59.6549906527
 20
41.7625690041
 10
59.5919868429
 20
41.802093981
 10
59.5309394175
 20
41.842589214
 10
59.471896837
 20
41.8840225574
 10
59.4149059706
 20
41.9263611204
 10
59.3600120587
 20
41.969571294
 10
59.307258677
 20
42.0136187771
 10
59.2566877022
 20
42.0584686041
 10
59.2083392785
 20
42.1040851723
 10
59.1622517857
 20
42.1504322704
 10
59.118461809
 20
42.1974731072
 10
59.0770041096
 20
42.2451703408
 10
59.0379115975
 20
42.2934861083
 10
59.001215305
 20
42.3423820558
 10
58.9669443623
 20
42.3918193687
 10
58.9351259744
 20
42.4417588027
 10
58.9057853992
 20
42.492160715
 10
58.8789459278
 20
42.5429850956
 10
58.854628866
 20
42.5941915993
 10
58.832853517
 20
42.6457395772
 10
58.8136371666
 20
42.6975881097
 10
58.796995069
 20
42.7496960385
 10
58.782940435
 20
42.8020219992
 10
58.7714844215
 20
42.8545244546
 10
58.7626361225
 20
42.9071617272
 10
58.7564025619
 20
42.9598920327
 10
58.752788688
 20
43.0126735126
 10
58.7517973696
 20
43.0654642681
 10
58.7534293936
 20
43.118222393
 10
58.7576834645
 20
43.1709060067
 10
58.7645562053
 20
43.2234732881
 10
58.7740421603
 20
43.2758825083
 10
58.7861337994
 20
43.3280920638
 10
58.8008215241
 20
43.3800605099
 10
58.8180936748
 20
43.4317465928
 10
58.8379365408
 20
43.4831092833
 10
58.8603343702
 20
43.5341078088
 10
58.8852693834
 20
43.5847016855
 10
58.9127217865
 20
43.6348507513
 10
58.9426697871
 20
43.6845151967
 10
58.9750896121
 20
43.7336555972
 10
59.009955526
 20
43.7822329444
 10
59.0472398515
 20
43.8302086765
 10
59.0869129917
 20
43.8775447096
 10
59.1289434533
 20
43.9242034674
 10
59.1732978718
 20
43.9701479113
 10
59.2199410377
 20
44.0153415697
 10
59.2688359248
 20
44.0597485672
 10
59.3199437196
 20
44.1033336526
 10
59.3732238516
 20
44.1460622273
 10
59.4286340261
 20
44.1879003725
 10
59.4861302575
 20
44.2288148763
 10
59.5456669041
 20
44.26877326
 10
59.6071967048
 20
44.3077438039
 10
59.670670816
 20
44.3456955725
 10
59.7360388508
 20
44.3825984389
 10
59.8032489187
 20
44.4184231091
 10
59.8722476673
 20
44.4531411445
 10
59.9429803239
 20
44.4867249856
 10
60.0153907398
 20
44.5191479727
 10
60.0894214342
 20
44.550384368
 10
60.16501364
 20
44.5804093753
 10
60.242107351
 20
44.6091991602
 10
60.3206413685
 20
44.636730869
 10
60.4005533508
 20
44.6629826464
 10
60.4817798624
 20
44.6879336532
 10
60.5642564241
 20
44.711564083
 10
60.6479175645
 20
44.7338551773
 10
60.7326968718
 20
44.7547892412
 10
60.8185270466
 20
44.7743496568
 10
60.9053399553
 20
44.7925208966
 10
60.9930666842
 20
44.809288536
 10
61.0816375943
 20
44.8246392645
 10
61.1709823762
 20
44.8385608965
 10
61.2610301064
 20
44.8510423807
 10
61.3517093034
 20
44.862073809
 10
61.4429479843
 20
44.8716464245
 10
61.5346737222
 20
44.8797526282
 10
61.6268137034
 20
44.8863859854
 10
61.7192947856
 20
44.8915412303
 10
61.8120435555
 20
44.8952142707
 10
61.9049863874
 20
44.8974021907
 10
61.9980495016
 20
44.8981032535
 10
62.0911590228
 20
44.8973169027
 10
62.184241039
 20
44.8950437625
 10
62.2772216599
 20
44.8912856374
 10
62.3700270758
 20
44.8860455105
 10
62.462583616
 20
44.8793275416
 10
62.5548178075
 20
44.8711370636
 10
62.6466564329
 20
44.8614805782
 10
62.7380265891
 20
44.8503657509
 10
62.8288557448
 20
44.8378014049
 10
62.9190717981
 20
44.823797514
 10
63.0086031337
 20
44.8083651947
 10
63.0973786801
 20
44.7915166974
 10
63.1853279656
 20
44.773265397
 10
63.2723811744
 20
44.7536257815
 10
63.358469202
 20
44.7326134412
 10
63.4435237101
 20
44.7102450562
 10
63.527477181
 20
44.6865383829
 10
63.6102629707
 20
44.66151224
 10
63.6918153625
 20
44.6351864939
 10
63.7720696184
 20
44.6075820423
 10
63.8509620311
 20
44.5787207982
 10
63.9284299744
 20
44.5486256722
 10
64.0044119528
 20
44.5173205544
 10
64.0788476504
 20
44.4848302953
 10
64.1516779787
 20
44.4511806864
 10
64.2228451237
 20
44.4163984392
 10
64.2922925916
 20
44.3805111646
 10
64.3599652536
 20
44.3435473507
 10
64.4258093899
 20
44.3055363398
 10
64.4897727323
 20
44.266508306
 10
64.5518045055
 20
44.2264942303
 10
64.6118554674
 20
44.1855258768
 10
64.6698779486
 20
44.1436357667
 10
64.7258258896
 20
44.1008571534
 10
64.779654878
 20
44.0572239952
 10
64.8313221833
 20
44.012770929
 10
64.880786791
 20
43.9675332424
 10
64.9280094353
 20
43.9215468459
 10
64.9729526298
 20
43.8748482444
 10
65.015580698
 20
43.8274745082
 10
65.0558598007
 20
43.7794632434
 10
65.0937579637
 20
43.7308525621
 10
65.1292451028
 20
43.6816810526
 10
65.1622930475
 20
43.631987748
 10
65.1928755639
 20
43.5818120957
 10
65.2209683749
 20
43.5311939263
 10
65.2465491799
 20
43.4801734213
 10
65.2695976724
 20
43.4287910817
 10
65.2900955562
 20
43.3770876958
 10
65.3080265595
 20
43.3251043068
 10
65.3233764485
 20
43.2728821799
 10
65.3361330381
 20
43.2204627702
 10
65.3462862019
 20
43.167887689
 10
65.3538278801
 20
43.1151986715
 10
65.358752086
 20
43.0624375432
 10
65.3610549107
 20
43.0096461869
 10
65.3607345261
 20
42.9568665093
 10
65.3577911865
 20
42.9041404079
 10
65.3522272286
 20
42.8515097377
 10
65.3440470689
 20
42.7990162778
 10
65.3332572011
 20
42.7467016986
 10
65.3198661904
 20
42.6946075284
 10
65.3038846669
 20
42.6427751205
 10
65.2853253168
 20
42.5912456204
 10
65.2642028731
 20
42.5400599331
 10
65.240534103
 20
42.4892586909
 10
65.2143377954
 20
42.4388822207
 10
65.1856347453
 20
42.3889705123
 10
65.1544477377
 20
42.3395631865
 10
65.1208015295
 20
42.2906994637
 10
65.0847228296
 20
42.2424181331
 10
65.046240278
 20
42.194757521
 10
65.0053844229
 20
42.1477554615
 10
64.9621876964
 20
42.1014492655
 10
64.9166843888
 20
42.055875692
 10
64.8689106216
 20
42.0110709179
 10
64.8189043184
 20
41.9670705102
 10
64.7667051752
 20
41.9239093972
 10
64.7123546286
 20
41.881621841
 10
64.6558958231
 20
41.8402414102
 10
64.5973735768
 20
41.7998009535
 10
64.5368343457
 20
41.7603325731
 10
64.4743261869
 20
41.7218675999
 10
64.4098987207
 20
41.684436568
 10
64.3436030907
 20
41.6480691909
 10
64.2754919236
 20
41.6127943377
 10
64.2056192874
 20
41.5786400102
 10
64.1340406482
 20
41.5456333208
 10
64.0608128265
 20
41.5138004708
 10
63.9859939519
 20
41.4831667297
 10
63.9096434171
 20
41.4537564151
 10
63.8318218305
 20
41.4255928735
 10
63.7525909683
 20
41.3986984616
 10
63.6720137254
 20
41.3730945288
 10
63.5901540657
 20
41.3488013998
 10
63.5070769707
 20
41.3258383591
 10
63.4228483887
 20
41.3042236351
 10
63.3375351819
 20
41.283974386
 10
63.2512050734
 20
41.265106686
 10
63.1639265937
 20
41.2476355127
 10
63.0757690261
 20
41.231574735
 10
62.9868023518
 20
41.2169371022
 10
62.8970971941
 20
41.203734234
 10
62.8067247626
 20
41.191976611
 10
62.7157567967
 20
41.1816735667
 10
62.6242655084
 20
41.1728332798
 10
62.5323235252
 20
41.165462768
 10
62.4400038325
 20
41.159567882
 10
62.3473797151
 20
41.1551533013
 10
62.2545247
 20
41.1522225303
 10
62.1615124972
 20
41.1507778955
 10
62.0684169414
 20
41.1508205437
 10
61.9753119337
 20
41.152350441
 10
61.8822713825
 20
41.155366373
 10
61.7893691452
 20
41.1598659455
 10
61.6966789692
 20
41.1658455867
 10
61.6042744339
 20
41.17330055
 10
61.5122288916
 20
41.1822249172
 10
61.4206154097
 20
41.1926116043
 10
61.3295067129
 20
41.2044523659
 10
61.2389751247
 20
41.2177378027
 10
61.149092511
 20
41.2324573685
 10
61.0599302222
 20
41.2485993786
 10
60.971559037
 20
41.2661510191
 10
60.8840491061
 20
41.2850983573
 10
60.7974698965
 20
41.3054263524
 10
60.7118901363
 20
41.3271188676
 10
60.6273777604
 20
41.3501586831
 10
60.5439998563
 20
41.3745275093
 10
60.461822611
 20
41.4002060019
 10
60.3809112582
 20
41.4271737769
 10
60.3013300268
 20
41.4554094266
 10
60.22314209
 20
41.4848905371
 10
60.1464095148
 20
41.5155937057
 10
60.0711932129
 20
41.5474945598
 10
59.9975528925
 20
41.5805677758
 10
59.9255470105
 20
41.6147870995
 10
59.8552327267
 20
41.650125367
 10
59.7866658577
 20
41.6865545263
 10
59.7199008333
 20
41.724045659
  0
LWPOLYLINE
  5
80
330
1F
100
AcDbEntity
  8
0
  6
Continuous
 62
     7
370
    25
100
AcDbPolyline
 90
       31
 70
   128
 43
0.0
 10
59.7127913173
 20
41.5649213441
 10
59.6477508264
 20
41.6035220267
 10
59.5846205335
 20
41.6431263519
 10
59.5234505524
 20
41.683702881
 10
59.4642894411
 20
41.7252194038
 10
59.4071841628
 20
41.7676429635
 10
59.3521800487
 20
41.8109398836
 10
59.2993207621
 20
41.8550757942
 10
59.2486482636
 20
41.9000156594
 10
59.2002027781
 20
41.945723805
 10
59.1540227625
 20
41.9921639471
 10
59.1101448753
 20
42.0392992206
 10
59.0686039476
 20
42.0870922088
 10
59.0294329554
 20
42.1355049725
 10
58.9926629933
 20
42.1844990809
 10
58.9583232501
 20
42.2340356416
 10
58.9264409852
 20
42.2840753314
 10
58.8970415074
 20
42.334578428
 10
58.8701481545
 20
42.385504841
 10
58.845782275
 20
42.4368141441
 10
58.823963211
 20
42.4884656071
 10
58.8047082828
 20
42.5404182281
 10
58.7880327754
 20
42.592630766
 10
58.773949926
 20
42.6450617736
 10
58.7624709141
 20
42.6976696302
 10
58.7536048516
 20
42.7504125747
 10
58.7473587769
 20
42.8032487387
 10
58.7437376479
 20
42.85613618
 10
58.7427443394
 20
42.9090329155
 10
58.7443796398
 20
42.9618969548
 10
58.7445043042
 20
42.9640895573
  0
LWPOLYLINE
  5
81
330
1F
100
AcDbEntity
  8
0
  6
Continuous
 62
     7
370
    25
100
AcDbPolyline
 90
       86
 70
   128
 43
0.0
 10
65.3650719853
 20
42.8617797284
 10
65.3652702824
 20
42.8531027768
 10
65.3649492546
 20
42.8002171414
 10
65.3620000062
 20
42.7473851899
 10
65.3564248783
 20
42.694648861
 10
65.3482282966
 20
42.6420500181
 10
65.3374167676
 20
42.5896304149
 10
65.3239988738
 20
42.5374316631
 10
65.3079852666
 20
42.4854951991
 10
65.2893886578
 20
42.433862251
 10
65.2682238097
 20
42.3825738061
 10
65.2445075235
 20
42.3316705779
 10
65.2182586255
 20
42.2811929745
 10
65.1894979526
 20
42.2311810659
 10
65.1582483356
 20
42.1816745526
 10
65.124534581
 20
42.1327127336
 10
65.0883834514
 20
42.0843344758
 10
65.0498236443
 20
42.0365781828
 10
65.0088857691
 20
41.9894817643
 10
64.9656023231
 20
41.9430826065
 10
64.9200076654
 20
41.8974175418
 10
64.8721379901
 20
41.85252282
 10
64.8220312968
 20
41.8084340794
 10
64.7697273613
 20
41.7651863184
 10
64.7152677034
 20
41.7228138679
 10
64.6586955542
 20
41.6813503639
 10
64.6000558216
 20
41.640828721
 10
64.5393950551
 20
41.601281106
 10
64.4767614082
 20
41.5627389125
 10
64.4122046007
 20
41.525232736
 10
64.345775879
 20
41.4887923496
 10
64.2775279755
 20
41.4534466805
 10
64.2075150666
 20
41.4192237865
 10
64.1357927299
 20
41.3861508346
 10
64.0624178998
 20
41.3542540786
 10
63.9874488228
 20
41.3235588388
 10
63.9109450106
 20
41.2940894816
 10
63.8329671934
 20
41.2658694003
 10
63.7535772714
 20
41.2389209966
 10
63.6728382659
 20
41.2132656626
 10
63.5908142689
 20
41.1889237641
 10
63.5075703927
 20
41.1659146239
 10
63.4231727178
 20
41.1442565073
 10
63.3376882406
 20
41.1239666069
 10
63.2511848202
 20
41.1050610291
 10
63.1637311248
 20
41.0875547816
 10
63.0753965767
 20
41.0714617611
 10
62.9862512975
 20
41.0567947425
 10
62.8963660524
 20
41.0435653689
 10
62.8058121939
 20
41.031784142
 10
62.7146616054
 20
41.0214604138
 10
62.622986644
 20
41.0126023796
 10
62.5308600829
 20
41.0052170711
 10
62.4383550539
 20
40.9993103508
 10
62.3455449892
 20
40.9948869077
 10
62.2525035632
 20
40.991950253
 10
62.1593046339
 20
40.990502718
 10
62.0660221843
 20
40.9905454518
 10
61.9727302638
 20
40.9920784205
 10
61.8795029292
 20
40.9951004071
 10
61.7864141862
 20
40.9996090127
 10
61.6935379303
 20
41.0056006584
 10
61.6009478884
 20
41.0130705878
 10
61.5087175602
 20
41.0220128712
 10
61.4169201599
 20
41.03242041
 10
61.325628558
 20
41.0442849425
 10
61.2349152234
 20
41.0575970505
 10
61.144852166
 20
41.0723461665
 10
61.0555108796
 20
41.0885205825
 10
60.966962285
 20
41.1061074587
 10
60.8792766737
 20
41.1250928346
 10
60.7925236521
 20
41.1454616391
 10
60.7067720865
 20
41.1671977031
 10
60.622090048
 20
41.1902837721
 10
60.5385447587
 20
41.21470152
 10
60.4562025386
 20
41.2404315634
 10
60.3751287524
 20
41.2674534774
 10
60.2953877579
 20
41.2957458116
 10
60.217042855
 20
41.3252861068
 10
60.1401562355
 20
41.3560509136
 10
60.0647889333
 20
41.3880158101
 10
59.9910007764
 20
41.4211554221
 10
59.9188503391
 20
41.4554434428
 10
59.848394896
 20
41.4908526536
 10
59.7796903757
 20
41.5273549461
 10
59.7127913173
 20
41.5649213441
  0
LWPOLYLINE
  5
82
330
1F
100
AcDbEntity
  8
0
  6
Continuous
 62
     7
370
    25
100
AcDbPolyline
 90
       23
 70
   128
 43
0.0
 10
63.5659532273
 20
43.7601349432
 10
63.5519375625
 20
43.7533961153
 10
63.5363359111
 20
43.747874752
 10
63.5194658776
 20
43.7436832523
 10
63.5016708875
 20
43.7409069431
 10
63.4833131952
 20
43.7396023419
 10
63.4647665105
 20
43.7397960068
 10
63.4464083905
 20
43.7414839952
 10
63.4286125534
 20
43.7446319446
 10
63.4117412713
 20
43.7491757718
 10
63.3961379947
 20
43.7550229776
 10
63.3821203615
 20
43.7620545297
 10
63.3699737301
 20
43.7701272861
 10
63.3599453709
 20
43.7790769086
 10
63.3522394325
 20
43.7887212088
 10
63.3470127855
 20
43.7988638565
 10
63.3443718294
 20
43.8092983768
 10
63.3443703265
 20
43.8198123527
 10
63.3470083072
 20
43.8301917501
 10
63.35223207
 20
43.8402252745
 10
63.3599352742
 20
43.8497086721
 10
63.3699611045
 20
43.8584488884
 10
63.3821054642
 20
43.8662679977
  0
LINE
  5
83
330
1F
100
AcDbEntity
  8
0
  6
Continuous
 62
     7
370
    25
100
AcDbLine
 10
63.8275403365
 20
43.9057070054
 30
0.0
 11
63.5659532273
 21
43.7601349432
 31
0.0
  0
LWPOLYLINE
  5
84
330
1F
100
AcDbEntity
  8
0
  6
Continuous
 62
     7
370
    25
100
AcDbPolyline
 90
       23
 70
   128
 43
0.0
 10
63.6436925734
 20
44.0118400599
 10
63.6577082382
 20
44.0185788878
 10
63.6733098896
 20
44.0241002511
 10
63.690179923
 20
44.0282917508
 10
63.7079749132
 20
44.0310680601
 10
63.7263326055
 20
44.0323726612
 10
63.7448792901
 20
44.0321789964
 10
63.7632374102
 20
44.030491008
 10
63.7810332472
 20
44.0273430586
 10
63.7979045294
 20
44.0227992314
 10
63.8135078059
 20
44.0169520256
 10
63.8275254392
 20
44.0099204734
 10
63.8396720706
 20
44.0018477171
 10
63.8497004297
 20
43.9928980946
 10
63.8574063681
 20
43.9832537943
 10
63.8626330151
 20
43.9731111466
 10
63.8652739712
 20
43.9626766264
 10
63.8652754742
 20
43.9521626504
 10
63.8626374934
 20
43.941783253
 10
63.8574137306
 20
43.9317497287
 10
63.8497105265
 20
43.922266331
 10
63.8396846961
 20
43.9135261147
 10
63.8275403365
 20
43.9057070054
  0
LINE
  5
85
330
1F
100
AcDbEntity
  8
0
  6
Continuous
 62
     7
370
    25
100
AcDbLine
 10
63.6436925734
 20
44.0118400599
 30
0.0
 11
63.3821054642
 21
43.8662679977
 31
0.0
  0
LWPOLYLINE
  5
86
330
1F
100
AcDbEntity
  8
0
  6
Continuous
 62
     7
370
    25
100
AcDbPolyline
 90
       23
 70
   128
 43
0.0
 10
62.7008061259
 20
44.0963575968
 10
62.6947415198
 20
44.0864852225
 10
62.6862442729
 20
44.0772287703
 10
62.6754873646
 20
44.068776675
 10
62.6626897745
 20
44.0613009968
 10
62.6481120247
 20
44.0549539189
 10
62.6320508761
 20
44.0498646496
 10
62.6148332874
 20
44.0461367917
 10
62.5968097591
 20
44.0438462337
 10
62.5783471981
 20
44.0430396047
 10
62.559821449
 20
44.0437333253
 10
62.5416096427
 20
44.0459132734
 10
62.5240825189
 20
44.0495350716
 10
62.5075968794
 20
44.0545249904
 10
62.4924883243
 20
44.0607814495
 10
62.4790644201
 20
44.0681770855
 10
62.4675984389
 20
44.0765613445
 10
62.458323795
 20
44.0857635472
 10
62.4514292933
 20
44.0955963632
 10
62.4470552861
 20
44.1058596249
 10
62.4452908155
 20
44.1163444018
 10
62.446171801
 20
44.126837254
 10
62.4496803083
 20
44.1371245774
  0
LINE
  5
87
330
1F
100
AcDbEntity
  8
0
  6
Continuous
 62
     7
370
    25
100
AcDbLine
 10
62.7965324532
 20
44.297944451
 30
0.0
 11
62.7008061259
 21
44.0963575968
 31
0.0
  0
LWPOLYLINE
  5
88
330
1F
100
AcDbEntity
  8
0
  6
Continuous
 62
     7
370
    25
100
AcDbPolyline
 90
       23
 70
   128
 43
0.0
 10
62.5454066356
 20
44.3387114317
 10
62.5514712417
 20
44.348583806
 10
62.5599684886
 20
44.3578402581
 10
62.5707253969
 20
44.3662923535
 10
62.583522987
 20
44.3737680317
 10
62.5981007368
 20
44.3801151095
 10
62.6141618854
 20
44.3852043788
 10
62.6313794741
 20
44.3889322367
 10
62.6494030025
 20
44.3912227947
 10
62.6678655635
 20
44.3920294238
 10
62.6863913125
 20
44.3913357031
 10
62.7046031189
 20
44.389155755
 10
62.7221302427
 20
44.3855339569
 10
62.7386158821
 20
44.3805440381
 10
62.7537244373
 20
44.3742875789
 10
62.7671483414
 20
44.366891943
 10
62.7786143226
 20
44.358507684
 10
62.7878889666
 20
44.3493054813
 10
62.7947834682
 20
44.3394726652
 10
62.7991574755
 20
44.3292094035
 10
62.8009219461
 20
44.3187246267
 10
62.8000409606
 20
44.3082317744
 10
62.7965324532
 20
44.297944451
  0
LINE
  5
89
330
1F
100
AcDbEntity
  8
0
  6
Continuous
 62
     7
370
    25
100
AcDbLine
 10
62.5454066356
 20
44.3387114317
 30
0.0
 11
62.4496803083
 21
44.1371245774
 31
0.0
  0
LWPOLYLINE
  5
8A
330
1F
100
AcDbEntity
  8
0
  6
Continuous
 62
     7
370
    25
100
AcDbPolyline
 90
       23
 70
   128
 43
0.0
 10
61.6630204008
 20
44.145338896
 10
61.6665318598
 20
44.13497827
 10
61.6674158478
 20
44.1244669879
 10
61.6656543695
 20
44.1140190291
 10
61.6612832835
 20
44.1038470838
 10
61.6543915724
 20
44.0941582237
 10
61.6451195317
 20
44.0851496858
 10
61.6336559133
 20
44.0770048582
 10
61.6202340835
 20
44.0698895459
 10
61.605127272
 20
44.0639485962
 10
61.5886430099
 20
44.0593029498
 10
61.5711168693
 20
44.0560471786
 10
61.5529056318
 20
44.0542475606
 10
61.5343800258
 20
44.053940731
 10
61.5159171791
 20
44.0551329359
 10
61.497892942
 20
44.0577999054
 10
61.4806742361
 20
44.0618873477
 10
61.4646115846
 20
44.0673120544
 10
61.4500319766
 20
44.073963594
 10
61.437232211
 20
44.0817065603
 10
61.4264728542
 20
44.0903833289
 10
61.4179729355
 20
44.0998172658
 10
61.4119054888
 20
44.1098163232
  0
LINE
  5
8B
330
1F
100
AcDbEntity
  8
0
  6
Continuous
 62
     7
370
    25
100
AcDbLine
 10
61.5672361542
 20
44.3489255076
 30
0.0
 11
61.6630204008
 21
44.145338896
 31
0.0
  0
LWPOLYLINE
  5
8C
330
1F
100
AcDbEntity
  8
0
  6
Continuous
 62
     7
370
    25
100
AcDbPolyline
 90
       23
 70
   128
 43
0.0
 10
61.3161212422
 20
44.3134029348
 10
61.3126097832
 20
44.3237635608
 10
61.3117257952
 20
44.3342748429
 10
61.3134872735
 20
44.3447228018
 10
61.3178583595
 20
44.354894747
 10
61.3247500705
 20
44.3645836072
 10
61.3340221113
 20
44.373592145
 10
61.3454857296
 20
44.3817369727
 10
61.3589075595
 20
44.3888522849
 10
61.374014371
 20
44.3947932346
 10
61.3904986331
 20
44.399438881
 10
61.4080247737
 20
44.4026946523
 10
61.4262360112
 20
44.4044942702
 10
61.4447616172
 20
44.4048010999
 10
61.4632244639
 20
44.403608895
 10
61.481248701
 20
44.4009419255
 10
61.4984674069
 20
44.3968544831
 10
61.5145300584
 20
44.3914297764
 10
61.5291096664
 20
44.3847782369
 10
61.5419094319
 20
44.3770352706
 10
61.5526687888
 20
44.368358502
 10
61.5611687075
 20
44.3589245651
 10
61.5672361542
 20
44.3489255076
  0
LINE
  5
8D
330
1F
100
AcDbEntity
  8
0
  6
Continuous
 62
     7
370
    25
100
AcDbLine
 10
61.3161212422
 20
44.3134029348
 30
0.0
 11
61.4119054888
 21
44.1098163232
 31
0.0
  0
LWPOLYLINE
  5
8E
330
1F
100
AcDbEntity
  8
0
  6
Continuous
 62
     7
370
    25
100
AcDbPolyline
 90
       23
 70
   128
 43
0.0
 10
63.9594428375
 20
42.6391543158
 10
63.9419157137
 20
42.6427761139
 10
63.9254300742
 20
42.6477660327
 10
63.9103215191
 20
42.6540224919
 10
63.896897615
 20
42.6614181278
 10
63.8854316338
 20
42.6698023868
 10
63.8761569898
 20
42.6790045895
 10
63.8692624881
 20
42.6888374056
 10
63.8648884809
 20
42.6991006673
 10
63.8631240103
 20
42.7095854441
 10
63.8640049958
 20
42.7200782964
 10
63.8675135032
 20
42.7303656197
 10
63.8735781092
 20
42.7402379941
 10
63.8820753561
 20
42.7494944462
 10
63.8928322645
 20
42.7579465415
 10
63.9056298545
 20
42.7654222198
 10
63.9202076043
 20
42.7717692976
 10
63.9362687529
 20
42.7768585669
 10
63.9534863416
 20
42.7805864248
 10
63.97150987
 20
42.7828769828
 10
63.989972431
 20
42.7836836118
 10
64.0084981801
 20
42.7829898912
 10
64.0267099864
 20
42.7808099431
  0
LINE
  5
8F
330
1F
100
AcDbEntity
  8
0
  6
Continuous
 62
     7
370
    25
100
AcDbLine
 10
64.3168141933
 20
42.5811397664
 30
0.0
 11
63.9594428375
 21
42.6391543158
 31
0.0
  0
LWPOLYLINE
  5
90
330
1F
100
AcDbEntity
  8
0
  6
Continuous
 62
     7
370
    25
100
AcDbPolyline
 90
       23
 70
   128
 43
0.0
 10
64.3840813422
 20
42.7227953937
 10
64.401608466
 20
42.7191735956
 10
64.4180941054
 20
42.7141836768
 10
64.4332026606
 20
42.7079272176
 10
64.4466265647
 20
42.7005315817
 10
64.4580925459
 20
42.6921473227
 10
64.4673671899
 20
42.68294512
 10
64.4742616915
 20
42.6731123039
 10
64.4786356988
 20
42.6628490422
 10
64.4804001694
 20
42.6523642654
 10
64.4795191839
 20
42.6418714131
 10
64.4760106765
 20
42.6315840897
 10
64.4699460704
 20
42.6217117154
 10
64.4614488235
 20
42.6124552633
 10
64.4506919152
 20
42.6040031679
 10
64.4378943252
 20
42.5965274897
 10
64.4233165753
 20
42.5901804119
 10
64.4072554268
 20
42.5850911426
 10
64.390037838
 20
42.5813632847
 10
64.3720143097
 20
42.5790727267
 10
64.3535517487
 20
42.5782660977
 10
64.3350259996
 20
42.5789598183
 10
64.3168141933
 20
42.5811397664
  0
LINE
  5
91
330
1F
100
AcDbEntity
  8
0
  6
Continuous
 62
     7
370
    25
100
AcDbLine
 10
64.3840813422
 20
42.7227953937
 30
0.0
 11
64.0267099864
 21
42.7808099431
 31
0.0
  0
LWPOLYLINE
  5
92
330
1F
100
AcDbEntity
  8
0
  6
Continuous
 62
     7
370
    25
100
AcDbPolyline
 90
       23
 70
   128
 43
0.0
 10
64.0266462379
 20
43.2267615239
 10
64.0084350004
 20
43.2249619059
 10
63.9899093944
 20
43.2246550763
 10
63.9714465477
 20
43.2258472812
 10
63.9534223106
 20
43.2285142507
 10
63.9362036047
 20
43.2326016931
 10
63.9201409531
 20
43.2380263997
 10
63.9055613452
 20
43.2446779393
 10
63.8927615796
 20
43.2524209056
 10
63.8820022228
 20
43.2610976742
 10
63.8735023041
 20
43.2705316111
 10
63.8674348574
 20
43.2805306686
 10
63.8639233984
 20
43.2908912946
 10
63.8630394104
 20
43.3014025767
 10
63.8648008887
 20
43.3118505356
 10
63.8691719747
 20
43.3220224808
 10
63.8760636858
 20
43.3317113409
 10
63.8853357265
 20
43.3407198788
 10
63.8967993449
 20
43.3488647064
 10
63.9102211747
 20
43.3559800187
 10
63.9253279862
 20
43.3619209684
 10
63.9418122483
 20
43.3665666148
 10
63.9593383889
 20
43.3698223861
  0
LINE
  5
93
330
1F
100
AcDbEntity
  8
0
  6
Continuous
 62
     7
370
    25
100
AcDbLine
 10
64.3840020742
 20
43.2773128775
 30
0.0
 11
64.0266462379
 21
43.2267615239
 31
0.0
  0
LWPOLYLINE
  5
94
330
1F
100
AcDbEntity
  8
0
  6
Continuous
 62
     7
370
    25
100
AcDbPolyline
 90
       23
 70
   128
 43
0.0
 10
64.3166942253
 20
43.4203737397
 10
64.3349054627
 20
43.4221733576
 10
64.3534310688
 20
43.4224801872
 10
64.3718939155
 20
43.4212879824
 10
64.3899181525
 20
43.4186210128
 10
64.4071368584
 20
43.4145335705
 10
64.42319951
 20
43.4091088638
 10
64.4377791179
 20
43.4024573242
 10
64.4505788835
 20
43.3947143579
 10
64.4613382404
 20
43.3860375893
 10
64.4698381591
 20
43.3766036524
 10
64.4759056058
 20
43.366604595
 10
64.4794170647
 20
43.356243969
 10
64.4803010528
 20
43.3457326868
 10
64.4785395745
 20
43.335284728
 10
64.4741684884
 20
43.3251127828
 10
64.4672767774
 20
43.3154239226
 10
64.4580047367
 20
43.3064153848
 10
64.4465411183
 20
43.2982705571
 10
64.4331192885
 20
43.2911552448
 10
64.4180124769
 20
43.2852142952
 10
64.4015282149
 20
43.2805686487
 10
64.3840020742
 20
43.2773128775
  0
LINE
  5
95
330
1F
100
AcDbEntity
  8
0
  6
Continuous
 62
     7
370
    25
100
AcDbLine
 10
64.3166942253
 20
43.4203737397
 30
0.0
 11
63.9593383889
 21
43.3698223861
 31
0.0
  0
LWPOLYLINE
  5
96
330
1F
100
AcDbEntity
  8
0
  6
Continuous
 62
     7
370
    25
100
AcDbPolyline
 90
       23
 70
   128
 43
0.0
 10
60.1535771845
 20
43.4095622214
 10
60.1711043083
 20
43.4059404233
 10
60.1875899478
 20
43.4009505045
 10
60.2026985029
 20
43.3946940453
 10
60.216122407
 20
43.3872984094
 10
60.2275883882
 20
43.3789141504
 10
60.2368630322
 20
43.3697119477
 10
60.2437575339
 20
43.3598791316
 10
60.2481315411
 20
43.3496158699
 10
60.2498960117
 20
43.3391310931
 10
60.2490150262
 20
43.3286382408
 10
60.2455065188
 20
43.3183509174
 10
60.2394419128
 20
43.3084785431
 10
60.2309446659
 20
43.299222091
 10
60.2201877576
 20
43.2907699956
 10
60.2073901675
 20
43.2832943174
 10
60.1928124177
 20
43.2769472396
 10
60.1767512691
 20
43.2718579703
 10
60.1595336804
 20
43.2681301124
 10
60.141510152
 20
43.2658395544
 10
60.123047591
 20
43.2650329254
 10
60.1045218419
 20
43.265726646
 10
60.0863100356
 20
43.2679065941
  0
LINE
  5
97
330
1F
100
AcDbEntity
  8
0
  6
Continuous
 62
     7
370
    25
100
AcDbLine
 10
59.7962058287
 20
43.4675767708
 30
0.0
 11
60.1535771845
 21
43.4095622214
 31
0.0
  0
LWPOLYLINE
  5
98
330
1F
100
AcDbEntity
  8
0
  6
Continuous
 62
     7
370
    25
100
AcDbPolyline
 90
       23
 70
   128
 43
0.0
 10
59.7289386798
 20
43.3259211435
 10
59.711411556
 20
43.3295429416
 10
59.6949259166
 20
43.3345328604
 10
59.6798173614
 20
43.3407893196
 10
59.6663934573
 20
43.3481849555
 10
59.6549274761
 20
43.3565692145
 10
59.6456528321
 20
43.3657714172
 10
59.6387583305
 20
43.3756042333
 10
59.6343843232
 20
43.385867495
 10
59.6326198526
 20
43.3963522718
 10
59.6335008381
 20
43.4068451241
 10
59.6370093455
 20
43.4171324474
 10
59.6430739516
 20
43.4270048218
 10
59.6515711985
 20
43.4362612739
 10
59.6623281068
 20
43.4447133692
 10
59.6751256969
 20
43.4521890474
 10
59.6897034467
 20
43.4585361253
 10
59.7057645953
 20
43.4636253946
 10
59.722982184
 20
43.4673532525
 10
59.7410057123
 20
43.4696438105
 10
59.7594682733
 20
43.4704504395
 10
59.7779940224
 20
43.4697567189
 10
59.7962058287
 20
43.4675767708
  0
LINE
  5
99
330
1F
100
AcDbEntity
  8
0
  6
Continuous
 62
     7
370
    25
100
AcDbLine
 10
59.7289386798
 20
43.3259211435
 30
0.0
 11
60.0863100356
 21
43.2679065941
 31
0.0
  0
LWPOLYLINE
  5
9A
330
1F
100
AcDbEntity
  8
0
  6
Continuous
 62
     7
370
    25
100
AcDbPolyline
 90
       23
 70
   128
 43
0.0
 10
62.4499996212
 20
41.9033776411
 10
62.4464881622
 20
41.9137382672
 10
62.4456041742
 20
41.9242495493
 10
62.4473656525
 20
41.9346975081
 10
62.4517367385
 20
41.9448694534
 10
62.4586284496
 20
41.9545583135
 10
62.4679004903
 20
41.9635668513
 10
62.4793641087
 20
41.971711679
 10
62.4927859385
 20
41.9788269913
 10
62.50789275
 20
41.9847679409
 10
62.5243770121
 20
41.9894135874
 10
62.5419031527
 20
41.9926693586
 10
62.5601143902
 20
41.9944689766
 10
62.5786399962
 20
41.9947758062
 10
62.5971028429
 20
41.9935836013
 10
62.61512708
 20
41.9909166318
 10
62.6323457859
 20
41.9868291894
 10
62.6484084374
 20
41.9814044828
 10
62.6629880454
 20
41.9747529432
 10
62.675787811
 20
41.9670099769
 10
62.6865471678
 20
41.9583332083
 10
62.6950470865
 20
41.9488992714
 10
62.7011145332
 20
41.9389002139
  0
LINE
  5
9B
330
1F
100
AcDbEntity
  8
0
  6
Continuous
 62
     7
370
    25
100
AcDbLine
 10
62.5457838678
 20
41.6997910296
 30
0.0
 11
62.4499996212
 21
41.9033776411
 31
0.0
  0
LWPOLYLINE
  5
9C
330
1F
100
AcDbEntity
  8
0
  6
Continuous
 62
     7
370
    25
100
AcDbPolyline
 90
       23
 70
   128
 43
0.0
 10
62.7968987798
 20
41.7353136024
 10
62.8004102388
 20
41.7249529764
 10
62.8012942269
 20
41.7144416942
 10
62.7995327486
 20
41.7039937354
 10
62.7951616625
 20
41.6938217902
 10
62.7882699515
 20
41.68413293
 10
62.7789979107
 20
41.6751243922
 10
62.7675342924
 20
41.6669795645
 10
62.7541124625
 20
41.6598642522
 10
62.739005651
 20
41.6539233026
 10
62.7225213889
 20
41.6492776561
 10
62.7049952483
 20
41.6460218849
 10
62.6867840108
 20
41.6442222669
 10
62.6682584048
 20
41.6439154373
 10
62.6497955581
 20
41.6451076422
 10
62.631771321
 20
41.6477746117
 10
62.6145526151
 20
41.6518620541
 10
62.5984899636
 20
41.6572867607
 10
62.5839103556
 20
41.6639383003
 10
62.5711105901
 20
41.6716812666
 10
62.5603512332
 20
41.6803580352
 10
62.5518513145
 20
41.6897919721
 10
62.5457838678
 20
41.6997910296
  0
LINE
  5
9D
330
1F
100
AcDbEntity
  8
0
  6
Continuous
 62
     7
370
    25
100
AcDbLine
 10
62.7968987798
 20
41.7353136024
 30
0.0
 11
62.7011145332
 21
41.9389002139
 31
0.0
  0
ARC
  5
9E
330
1F
100
AcDbEntity
  8
0
  6
Continuous
 62
     7
370
    25
100
AcDbCircle
 10
61.0509179933
 20
42.0237166123
 30
0.0
 40
0.3155662857598694
100
AcDbArc
 50
253.9175735083
 51
296.1805352589
  0
LINE
  5
9F
330
1F
100
AcDbEntity
  8
0
  6
Continuous
 62
     7
370
    25
100
AcDbLine
 10
62.7636167922
 20
42.6161542127
 30
0.0
 11
61.1901461565
 21
41.7405248058
 31
0.0
  0
LWPOLYLINE
  5
A0
330
1F
100
AcDbEntity
  8
0
  6
Continuous
 62
     7
370
    25
100
AcDbPolyline
 90
       62
 70
   128
 43
0.0
 10
61.3494032298
 20
43.4325623245
 10
61.3867358673
 20
43.4522747812
 10
61.4258446253
 20
43.4708524803
 10
61.4666257946
 20
43.488246157
 10
61.5089712308
 20
43.5044096864
 10
61.5527686415
 20
43.5193002057
 10
61.5979018836
 20
43.532878228
 10
61.6442512721
 20
43.5451077468
 10
61.6916938966
 20
43.5559563316
 10
61.7401039479
 20
43.5653952139
 10
61.7893530512
 20
43.5733993635
 10
61.8393106067
 20
43.5799475547
 10
61.889844136
 20
43.5850224231
 10
61.9408196333
 20
43.5886105109
 10
61.9921019206
 20
43.5907023033
 10
62.0435550066
 20
43.591292253
 10
62.0950424469
 20
43.5903787958
 10
62.1464277062
 20
43.5879643538
 10
62.1975745199
 20
43.5840553298
 10
62.2483472558
 20
43.5786620899
 10
62.2986112739
 20
43.5717989358
 10
62.348233283
 20
43.5634840676
 10
62.3970816944
 20
43.5537395346
 10
62.4450269709
 20
43.5425911777
 10
62.4919419702
 20
43.5300685602
 10
62.5377022823
 20
43.51620489
 10
62.582186559
 20
43.501036931
 10
62.625276836
 20
43.4846049058
 10
62.6668588456
 20
43.4669523893
 10
62.7068223198
 20
43.4481261927
 10
62.7450612827
 20
43.4281762398
 10
62.7814743314
 20
43.4071554343
 10
62.815964905
 20
43.3851195194
 10
62.8484415408
 20
43.3621269306
 10
62.8788181166
 20
43.33823864
 10
62.907014079
 20
43.3135179951
 10
62.9329546576
 20
43.2880305506
 10
62.9565710625
 20
43.2618438946
 10
62.9778006674
 20
43.2350274693
 10
62.996587175
 20
43.2076523873
 10
63.012880767
 20
43.1797912422
 10
63.0266382356
 20
43.1515179168
 10
63.0378230986
 20
43.1229073869
 10
63.0464056958
 20
43.0940355224
 10
63.0523632675
 20
43.0649788863
 10
63.0556800154
 20
43.0358145317
 10
63.056347144
 20
43.0066197972
 10
63.0543628844
 20
42.9774721019
 10
63.0497324983
 20
42.9484487402
 10
63.0424682647
 20
42.919626677
 10
63.032589447
 20
42.8910823431
 10
63.0201222422
 20
42.8628914331
 10
63.005099711
 20
42.835128704
 10
62.9875616904
 20
42.8078677778
 10
62.9675546881
 20
42.7811809454
 10
62.9451317591
 20
42.7551389755
 10
62.920352365
 20
42.7298109269
 10
62.8932822163
 20
42.7052639648
 10
62.8639930981
 20
42.6815631834
 10
62.8325626799
 20
42.658771433
 10
62.7990743096
 20
42.6369491532
 10
62.7636167922
 20
42.6161542127
  0
LINE
  5
A1
330
1F
100
AcDbEntity
  8
0
  6
Continuous
 62
     7
370
    25
100
AcDbLine
 10
59.7759325941
 20
42.5569329176
 30
0.0
 11
61.3494032298
 21
43.4325623245
 31
0.0
  0
LWPOLYLINE
  5
A2
330
1F
100
AcDbEntity
  8
0
  6
Continuous
 62
     7
370
    25
100
AcDbPolyline
 90
       11
 70
   128
 43
0.0
 10
59.7364528035
 20
42.42885945
 10
59.727386367
 20
42.4418556326
 10
59.7211704226
 20
42.4553535344
 10
59.7178982414
 20
42.4691506175
 10
59.7176189231
 20
42.4830398546
 10
59.7203366587
 20
42.4968128356
 10
59.7260106684
 20
42.5102628948
 10
59.7345558127
 20
42.523188212
 10
59.7458438705
 20
42.5353948411
 10
59.7597054627
 20
42.5466996196
 10
59.7759325941
 20
42.5569329176
  0
LWPOLYLINE
  5
A3
330
1F
100
AcDbEntity
  8
0
  6
Continuous
 62
     7
370
    25
100
AcDbPolyline
 90
       22
 70
   128
 43
0.0
 10
60.9634998352
 20
41.7205002764
 10
60.8878511224
 20
41.7423635164
 10
60.8134645123
 20
41.7656112572
 10
60.7404203396
 20
41.7902183922
 10
60.6687974887
 20
41.8161583468
 10
60.5986733095
 20
41.8434031069
 10
60.530123533
 20
41.8719232493
 10
60.4632221903
 20
41.9016879734
 10
60.3980415319
 20
41.9326651346
 10
60.3346519502
 20
41.9648212788
 10
60.2731219034
 20
41.9981216788
 10
60.2135178413
 20
42.0325303714
 10
60.1559041339
 20
42.0680101967
 10
60.1003430015
 20
42.1045228381
 10
60.0468944478
 20
42.1420288634
 10
59.9956161951
 20
42.1804877675
 10
59.9465636216
 20
42.2198580166
 10
59.8997897023
 20
42.2600970925
 10
59.8553449508
 20
42.3011615384
 10
59.8132773658
 20
42.3430070067
 10
59.7736323784
 20
42.3855883059
 10
59.7364528035
 20
42.42885945
  0
LINE
  5
A4
330
1F
100
AcDbEntity
  8
0
  6
Continuous
 62
     7
370
    25
100
AcDbLine
 10
62.7086834478
 20
41.7466310813
 30
0.0
 11
62.5724052232
 21
41.6707928558
 31
0.0
  0
LINE
  5
A5
330
1F
100
AcDbEntity
  8
0
  6
Continuous
 62
     7
370
    25
100
AcDbLine
 10
62.7011145332
 20
41.9389002139
 30
0.0
 11
62.6922876649
 21
41.7814798377
 31
0.0
  0
LINE
  5
A6
330
1F
100
AcDbEntity
  8
0
  6
Continuous
 62
     7
370
    25
100
AcDbLine
 10
62.7502959933
 20
41.6581848342
 30
0.0
 11
62.6922876649
 21
41.7814798377
 31
0.0
  0
ARC
  5
A7
330
1F
100
AcDbEntity
  8
0
  6
Continuous
 62
     7
370
    25
100
AcDbCircle
 10
62.568963904
 20
41.6734802221
 30
0.0
 40
0.1639288472942667
100
AcDbArc
 50
41.2099470158
 51
118.6142717976
  0
LINE
  5
A8
330
1F
100
AcDbEntity
  8
0
  6
Continuous
 62
     7
370
    25
100
AcDbLine
 10
59.7759325941
 20
42.5569329176
 30
0.0
 11
59.7735139332
 21
42.4004190427
 31
0.0
  0
LINE
  5
A9
330
1F
100
AcDbEntity
  8
0
  6
Continuous
 62
     7
370
    25
100
AcDbLine
 10
59.7735139332
 20
42.4004190427
 30
0.0
 11
59.7649729922
 21
42.3953540857
 31
0.0
  0
LINE
  5
AA
330
1F
100
AcDbEntity
  8
0
  6
Continuous
 62
     7
370
    25
100
AcDbLine
 10
61.3494032298
 20
43.4325623245
 30
0.0
 11
61.346984569
 21
43.2760484496
 31
0.0
  0
LINE
  5
AB
330
1F
100
AcDbEntity
  8
0
  6
Continuous
 62
     7
370
    25
100
AcDbLine
 10
59.7735139332
 20
42.4004190427
 30
0.0
 11
61.346984569
 21
43.2760484496
 31
0.0
  0
LWPOLYLINE
  5
AC
330
1F
100
AcDbEntity
  8
0
  6
Continuous
 62
     7
370
    25
100
AcDbPolyline
 90
       45
 70
   128
 43
0.0
 10
61.346984569
 20
43.2760484496
 10
61.3843172064
 20
43.2957609064
 10
61.4234259645
 20
43.3143386054
 10
61.4642071338
 20
43.3317322821
 10
61.50655257
 20
43.3478958115
 10
61.5503499806
 20
43.3627863309
 10
61.5954832228
 20
43.3763643532
 10
61.6418326113
 20
43.3885938719
 10
61.6892752358
 20
43.3994424567
 10
61.7376852871
 20
43.408881339
 10
61.7869343904
 20
43.4168854886
 10
61.8368919459
 20
43.4234336799
 10
61.8874254752
 20
43.4285085482
 10
61.9384009724
 20
43.4320966361
 10
61.9896832598
 20
43.4341884284
 10
62.0411363458
 20
43.4347783781
 10
62.0926237861
 20
43.4338649209
 10
62.1440090454
 20
43.4314504789
 10
62.195155859
 20
43.427541455
 10
62.245928595
 20
43.422148215
 10
62.2961926131
 20
43.415285061
 10
62.3458146221
 20
43.4069701927
 10
62.3946630335
 20
43.3972256597
 10
62.44260831
 20
43.3860773028
 10
62.4895233094
 20
43.3735546853
 10
62.5352836215
 20
43.3596910151
 10
62.5797678982
 20
43.3445230561
 10
62.6228581751
 20
43.3280910309
 10
62.6644401847
 20
43.3104385144
 10
62.704403659
 20
43.2916123178
 10
62.7426426219
 20
43.2716623649
 10
62.7790556705
 20
43.2506415594
 10
62.8135462442
 20
43.2286056445
 10
62.84602288
 20
43.2056130557
 10
62.8763994557
 20
43.1817247651
 10
62.9045954182
 20
43.1570041202
 10
62.9305359968
 20
43.1315166757
 10
62.9541524017
 20
43.1053300197
 10
62.9753820065
 20
43.0785135945
 10
62.9941685141
 20
43.0511385124
 10
63.0104621061
 20
43.0232773673
 10
63.0242195748
 20
42.9950040419
 10
63.0354044378
 20
42.966393512
 10
63.0439870349
 20
42.9375216475
 10
63.0456028896
 20
42.9307978626
  0
ARC
  5
AD
330
1F
100
AcDbEntity
  8
0
  6
Continuous
 62
     7
370
    25
100
AcDbCircle
 10
61.9875719798
 20
39.4985278124
 30
0.0
 40
4.60620299817693
100
AcDbArc
 50
94.7435409067
 51
96.6877726418
  0
ARC
  5
AE
330
1F
100
AcDbEntity
  8
0
  6
Continuous
 62
     7
370
    25
100
AcDbCircle
 10
62.0128645386
 20
39.469521822
 30
0.0
 40
4.634987374134089
100
AcDbArc
 50
81.9919490134
 51
83.9575138999
  0
LWPOLYLINE
  5
AF
330
1F
100
AcDbEntity
  8
0
  6
Continuous
 62
     7
370
    25
100
AcDbPolyline
 90
        3
 70
   128
 43
0.0
 10
63.5858481195
 20
43.8191627028
 10
63.6037029419
 20
43.8119862614
 10
63.6355713384
 20
43.7988771122
  0
SPLINE
  5
B0
330
1F
100
AcDbEntity
  8
0
  6
Continuous
 62
     7
370
    25
100
AcDbSpline
210
0.0
220
0.0
230
1.0
 70
     8
 71
     3
 72
    13
 73
     9
 74
     0
 42
0.00000001
 43
0.00000001
 40
0.0
 40
0.0
 40
0.0
 40
0.0
 40
0.0799169661144582
 40
0.2888391901405834
 40
0.4983977296148974
 40
0.6960638688200491
 40
0.9013259222383995
 40
1.0
 40
1.0
 40
1.0
 40
1.0
 10
59.6713454766223
 20
43.34577393371109
 30
0.0
 10
59.67149834330692
 20
43.34805954089038
 30
0.0
 10
59.67205084037392
 20
43.3563202764856
 30
0.0
 10
59.66917587608765
 20
43.36851174693761
 30
0.0
 10
59.66185065866401
 20
43.37885984284912
 30
0.0
 10
59.65255845234893
 20
43.3821674800426
 30
0.0
 10
59.64488652138845
 20
43.38051631044046
 30
0.0
 10
59.64194071466711
 20
43.37567111589685
 30
0.0
 10
59.64098434676058
 20
43.37409810415484
 30
0.0
  0
LINE
  5
B1
330
1F
100
AcDbEntity
  8
0
  6
Continuous
 62
     7
370
    25
100
AcDbLine
 10
63.6436925734
 20
44.0118400599
 30
0.0
 11
63.645965528
 21
43.8526177731
 31
0.0
  0
LINE
  5
B2
330
1F
100
AcDbEntity
  8
0
  6
Continuous
 62
     7
370
    25
100
AcDbLine
 10
63.645965528
 20
43.8526177731
 30
0.0
 11
63.446290917
 21
43.7414997406
 31
0.0
  0
ARC
  5
B3
330
1F
100
AcDbEntity
  8
0
  6
Continuous
 62
     7
370
    25
100
AcDbCircle
 10
63.7309310301
 20
43.6555252983
 30
0.0
 40
0.2166759091112043
100
AcDbArc
 50
84.5858608505
 51
93.8176763229
  0
SPLINE
  5
B4
330
1F
100
AcDbEntity
  8
0
  6
Continuous
 62
     7
370
    25
100
AcDbSpline
210
0.0
220
0.0
230
1.0
 70
     8
 71
     3
 72
    14
 73
    10
 74
     0
 42
0.00000001
 43
0.00000001
 40
0.0
 40
0.0
 40
0.0
 40
0.0
 40
0.1167201693996397
 40
0.2734941946303063
 40
0.435942704738504
 40
0.5993509944478576
 40
0.7627746681928856
 40
0.9243035897955931
 40
1.0
 40
1.0
 40
1.0
 40
1.0
 10
63.85132480511707
 20
43.92416564799695
 30
0.0
 10
63.84998888952488
 20
43.92893674078479
 30
0.0
 10
63.84685862368601
 20
43.94011618120393
 30
0.0
 10
63.83744916412834
 20
43.95445565822497
 30
0.0
 10
63.82376306981006
 20
43.96533216974336
 30
0.0
 10
63.8071835951877
 20
43.96973108700134
 30
0.0
 10
63.7907129626396
 20
43.96677089192312
 30
0.0
 10
63.77833337324314
 20
43.95931170872861
 30
0.0
 10
63.7746104241896
 20
43.95192111761027
 30
0.0
 10
63.7734224655657
 20
43.94956284831127
 30
0.0
  0
ARC
  5
B5
330
1F
100
AcDbEntity
  8
0
  6
Continuous
 62
     7
370
    25
100
AcDbCircle
 10
63.7247812263
 20
43.7013689853
 30
0.0
 40
0.1705523676010175
100
AcDbArc
 50
92.7816387559
 51
117.5240065141
  0
ELLIPSE
  5
B6
330
1F
100
AcDbEntity
  8
0
  6
Continuous
 62
     7
370
    25
100
AcDbEllipse
 10
63.7365017916
 20
43.8930206194
 30
0.0
 11
0.1183752047173243
 21
-0.1132508452512084
 31
0.0
210
0.0
220
0.0
230
1.0
 40
0.1783318543
 41
4.71406827417308
 42
4.870638998662538
  0
LINE
  5
B7
330
1F
100
AcDbEntity
  8
0
  6
Continuous
 62
     7
370
    25
100
AcDbLine
 10
61.5672361542
 20
44.3489255076
 30
0.0
 11
61.5584092859
 21
44.1915051313
 31
0.0
  0
LINE
  5
B8
330
1F
100
AcDbEntity
  8
0
  6
Continuous
 62
     7
370
    25
100
AcDbLine
 10
61.5584092859
 20
44.1915051313
 30
0.0
 11
61.6164176143
 21
44.0682101279
 31
0.0
  0
LINE
  5
B9
330
1F
100
AcDbEntity
  8
0
  6
Continuous
 62
     7
370
    25
100
AcDbLine
 10
62.5454066356
 20
44.3387114317
 30
0.0
 11
62.5493964605
 21
44.1811572232
 31
0.0
  0
LINE
  5
BA
330
1F
100
AcDbEntity
  8
0
  6
Continuous
 62
     7
370
    25
100
AcDbLine
 10
62.5493964605
 20
44.1811572232
 30
0.0
 11
62.492281448
 21
44.0608806386
 31
0.0
  0
ARC
  5
BB
330
1F
100
AcDbEntity
  8
0
  6
Continuous
 62
     7
370
    25
100
AcDbCircle
 10
61.435085525
 20
44.0835055158
 30
0.0
 40
0.1639288472942409
100
AcDbArc
 50
41.2099470158
 51
118.6142717977
  0
ARC
  5
BC
330
1F
100
AcDbEntity
  8
0
  6
Continuous
 62
     7
370
    25
100
AcDbCircle
 10
62.6700350375
 20
44.0722428798
 30
0.0
 40
0.1625299985902638
100
AcDbArc
 50
58.4344571499
 51
137.9237959953
  0
LWPOLYLINE
  5
BD
330
1F
100
AcDbEntity
  8
0
  6
Continuous
 62
     7
370
    25
100
AcDbPolyline
 90
       86
 70
   128
 43
0.0
 10
59.712179731
 20
41.5645809991
 10
59.7790962646
 20
41.5270047881
 10
59.8478187316
 20
41.4904929606
 10
59.9182925789
 20
41.4550745003
 10
59.990461863
 20
41.4207775231
 10
60.0642692946
 20
41.3876292544
 10
60.139656284
 20
41.3556560081
 10
60.2165629876
 20
41.3248831651
 10
60.2949283554
 20
41.2953351534
 10
60.3746901796
 20
41.2670354289
 10
60.4557851436
 20
41.2400064563
 10
60.5381488729
 20
41.2142696917
 10
60.6217159856
 20
41.1898455655
 10
60.7064201444
 20
41.1667534661
 10
60.7921941098
 20
41.1450117243
 10
60.8789697927
 20
41.1246375991
 10
60.9666783089
 20
41.1056472639
 10
61.0552500339
 20
41.0880557937
 10
61.1446146577
 20
41.0718771527
 10
61.234701241
 20
41.057124184
 10
61.3254382715
 20
41.0438085987
 10
61.4167537203
 20
41.0319409669
 10
61.5085750996
 20
41.0215307095
 10
61.6008295199
 20
41.0125860902
 10
61.6934437478
 20
41.0051142096
 10
61.7863442645
 20
40.9991209988
 10
61.8794573238
 20
40.9946112154
 10
61.9727090109
 20
40.9915884394
 10
62.0660253008
 20
40.9900550703
 10
62.1593321173
 20
40.9900123254
 10
62.2525553917
 20
40.9914602384
 10
62.3456211217
 20
40.9943976602
 10
62.4384554299
 20
40.9988222589
 10
62.5309846228
 20
41.0047305221
 10
62.6231352489
 20
41.0121177598
 10
62.7148341573
 20
41.0209781078
 10
62.8060085558
 20
41.0313045327
 10
62.8965860685
 20
41.0430888371
 10
62.9864947931
 20
41.0563216664
 10
63.0756633585
 20
41.0709925162
 10
63.1640209811
 20
41.0870897405
 10
63.2514975208
 20
41.1046005609
 10
63.3380235373
 20
41.1235110772
 10
63.4235303445
 20
41.1438062777
 10
63.5079500655
 20
41.1654700517
 10
63.5912156864
 20
41.1884852022
 10
63.6732611093
 20
41.2128334593
 10
63.7540212052
 20
41.2384954949
 10
63.8334318651
 20
41.2654509379
 10
63.9114300514
 20
41.2936783908
 10
63.9879538477
 20
41.3231554459
 10
64.0629425079
 20
41.3538587038
 10
64.1363365047
 20
41.3857637917
 10
64.2080775765
 20
41.4188453829
 10
64.2781087739
 20
41.4530772164
 10
64.3463745049
 20
41.4884321184
 10
64.4128205789
 20
41.5248820236
 10
64.4773942496
 20
41.5623979973
 10
64.5400442575
 20
41.6009502587
 10
64.6007208696
 20
41.6405082042
 10
64.6593759198
 20
41.681040432
 10
64.7159628467
 20
41.722514767
 10
64.7704367303
 20
41.7648982858
 10
64.8227543285
 20
41.8081573439
 10
64.8728741104
 20
41.8522576012
 10
64.9207562901
 20
41.8971640503
 10
64.9663628579
 20
41.9428410435
 10
65.0096576102
 20
41.9892523215
 10
65.0506061791
 20
42.0363610423
 10
65.0891760587
 20
42.0841298101
 10
65.1253366316
 20
42.132520705
 10
65.1590591928
 20
42.1814953137
 10
65.1903169727
 20
42.231014759
 10
65.2190851583
 20
42.2810397315
 10
65.2453409129
 20
42.3315305204
 10
65.2690633942
 20
42.3824470454
 10
65.2902337709
 20
42.4337488877
 10
65.3088352375
 20
42.4853953232
 10
65.3248530277
 20
42.5373453538
 10
65.3382744265
 20
42.5895577408
 10
65.3490887796
 20
42.6419910368
 10
65.3572875024
 20
42.6946036195
 10
65.3628640866
 20
42.7473537239
 10
65.3658141054
 20
42.8001994761
 10
65.3661352171
 20
42.853098926
 10
65.3639163217
 20
42.9046961042
  0
LWPOLYLINE
  5
BE
330
1F
100
AcDbEntity
  8
0
  6
Continuous
 62
     7
370
    25
100
AcDbPolyline
 90
       31
 70
   128
 43
0.0
 10
58.7469855013
 20
43.0069497315
 10
58.7435150884
 20
42.9619215229
 10
58.7418793608
 20
42.9090436747
 10
58.7428729288
 20
42.8561331217
 10
58.7464950036
 20
42.8032318653
 10
58.75274271
 20
42.7503818996
 10
58.7616110884
 20
42.6976251777
 10
58.7730930989
 20
42.6450035791
 10
58.7871796269
 20
42.5925588756
 10
58.8038594902
 20
42.5403326989
 10
58.8231194481
 20
42.4883665071
 10
58.8449442116
 20
42.4367015519
 10
58.8693164559
 20
42.3853788459
 10
58.8962168338
 20
42.3344391301
 10
58.9256239912
 20
42.2839228413
 10
58.9575145843
 20
42.2338700802
 10
58.9918632976
 20
42.1843205798
 10
59.0286428646
 20
42.1353136733
 10
59.0678240889
 20
42.0868882634
 10
59.1093758678
 20
42.0390827909
 10
59.1532652166
 20
41.9919352049
 10
59.1994572952
 20
41.9454829318
 10
59.2479154355
 20
41.8997628465
 10
59.2986011705
 20
41.8548112423
 10
59.3514742648
 20
41.8106638027
 10
59.4064927469
 20
41.7673555727
 10
59.4636129421
 20
41.7249209312
 10
59.5227895072
 20
41.6833935637
 10
59.5839754669
 20
41.6428064353
 10
59.6471222505
 20
41.6031917648
 10
59.712179731
 20
41.5645809991
  0
LWPOLYLINE
  5
BF
330
1F
100
AcDbEntity
  8
0
  6
Continuous
 62
     7
370
    25
100
AcDbPolyline
 90
       85
 70
   128
 43
0.0
 10
59.5610134288
 20
31.7824638189
 10
59.6279299623
 20
31.744887608
 10
59.6966524294
 20
31.7083757805
 10
59.7671262766
 20
31.6729573202
 10
59.8392955607
 20
31.6386603429
 10
59.9131029924
 20
31.6055120743
 10
59.9884899818
 20
31.573538828
 10
60.0653966854
 20
31.5427659849
 10
60.1437620532
 20
31.5132179733
 10
60.2235238773
 20
31.4849182487
 10
60.3046188414
 20
31.4578892761
 10
60.3869825707
 20
31.4321525116
 10
60.4705496833
 20
31.4077283854
 10
60.5552538422
 20
31.3846362859
 10
60.6410278075
 20
31.3628945441
 10
60.7278034904
 20
31.342520419
 10
60.8155120067
 20
31.3235300838
 10
60.9040837316
 20
31.3059386135
 10
60.9934483554
 20
31.2897599726
 10
61.0835349388
 20
31.2750070038
 10
61.1742719692
 20
31.2616914185
 10
61.265587418
 20
31.2498237868
 10
61.3574087973
 20
31.2394135293
 10
61.4496632176
 20
31.2304689101
 10
61.5422774455
 20
31.2229970294
 10
61.6351779622
 20
31.2170038186
 10
61.7282910216
 20
31.2124940353
 10
61.8215427087
 20
31.2094712593
 10
61.9148589986
 20
31.2079378902
 10
62.0081658151
 20
31.2078951452
 10
62.1013890895
 20
31.2093430583
 10
62.1944548194
 20
31.2122804801
 10
62.2872891277
 20
31.2167050787
 10
62.3798183205
 20
31.2226133419
 10
62.4719689466
 20
31.2300005796
 10
62.5636678551
 20
31.2388609277
 10
62.6548422536
 20
31.2491873525
 10
62.7454197662
 20
31.2609716569
 10
62.8353284908
 20
31.2742044863
 10
62.9244970563
 20
31.2888753361
 10
63.0128546788
 20
31.3049725603
 10
63.1003312186
 20
31.3224833808
 10
63.186857235
 20
31.341393897
 10
63.2723640422
 20
31.3616890975
 10
63.3567837632
 20
31.3833528716
 10
63.4400493841
 20
31.4063680221
 10
63.5220948071
 20
31.4307162792
 10
63.602854903
 20
31.4563783147
 10
63.6822655629
 20
31.4833337578
 10
63.7602637492
 20
31.5115612106
 10
63.8367875454
 20
31.5410382657
 10
63.9117762057
 20
31.5717415236
 10
63.9851702024
 20
31.6036466116
 10
64.0569112742
 20
31.6367282027
 10
64.1269424716
 20
31.6709600363
 10
64.1952082026
 20
31.7063149383
 10
64.2616542766
 20
31.7427648435
 10
64.3262279474
 20
31.7802808172
 10
64.3888779552
 20
31.8188330786
 10
64.4495545674
 20
31.8583910241
 10
64.5082096176
 20
31.8989232519
 10
64.5647965444
 20
31.9403975868
 10
64.6192704281
 20
31.9827811057
 10
64.6715880262
 20
32.0260401637
 10
64.7217078082
 20
32.0701404211
 10
64.7695899879
 20
32.1150468701
 10
64.8151965556
 20
32.1607238633
 10
64.858491308
 20
32.2071351414
 10
64.8994398768
 20
32.2542438622
 10
64.9380097564
 20
32.3020126299
 10
64.9741703293
 20
32.3504035249
 10
65.0078928905
 20
32.3993781335
 10
65.0391506704
 20
32.4488975788
 10
65.067918856
 20
32.4989225513
 10
65.0941746107
 20
32.5494133403
 10
65.117897092
 20
32.6003298652
 10
65.1390674686
 20
32.6516317076
 10
65.1576689352
 20
32.703278143
 10
65.1736867255
 20
32.7552281737
 10
65.1871081242
 20
32.8074405606
 10
65.1979224773
 20
32.8598738567
 10
65.2061212002
 20
32.9124864394
 10
65.2116977844
 20
32.9652365438
 10
65.2146478032
 20
33.0180822959
 10
65.2150295972
 20
33.0345441631
  0
LWPOLYLINE
  5
C0
330
1F
100
AcDbEntity
  8
0
  6
Continuous
 62
     7
370
    25
100
AcDbPolyline
 90
       30
 70
   128
 43
0.0
 10
58.5908204986
 20
33.136910264
 10
58.5907130586
 20
33.1269264945
 10
58.5917066266
 20
33.0740159415
 10
58.5953287014
 20
33.0211146851
 10
58.6015764078
 20
32.9682647194
 10
58.6104447861
 20
32.9155079976
 10
58.6219267966
 20
32.8628863989
 10
58.6360133246
 20
32.8104416955
 10
58.6526931879
 20
32.7582155188
 10
58.6719531458
 20
32.706249327
 10
58.6937779094
 20
32.6545843718
 10
58.7181501536
 20
32.6032616658
 10
58.7450505315
 20
32.5523219499
 10
58.7744576889
 20
32.5018056611
 10
58.806348282
 20
32.4517529001
 10
58.8406969954
 20
32.4022033997
 10
58.8774765624
 20
32.3531964932
 10
58.9166577867
 20
32.3047710832
 10
58.9582095655
 20
32.2569656108
 10
59.0020989144
 20
32.2098180247
 10
59.048290993
 20
32.1633657517
 10
59.0967491332
 20
32.1176456663
 10
59.1474348682
 20
32.0726940622
 10
59.2003079625
 20
32.0285466225
 10
59.2553264446
 20
31.9852383926
 10
59.3124466398
 20
31.9428037511
 10
59.371623205
 20
31.9012763835
 10
59.4328091646
 20
31.8606892551
 10
59.4959559483
 20
31.8210745846
 10
59.5610134288
 20
31.7824638189
  0
LINE
  5
C1
330
1F
100
AcDbEntity
  8
0
  6
Continuous
 62
     7
370
    25
100
AcDbLine
 10
62.7968987798
 20
41.7353136024
 30
0.0
 11
62.7945095254
 21
41.6927030958
 31
0.0
  0
LINE
  5
C2
330
1F
100
AcDbEntity
  8
0
  6
Continuous
 62
     7
370
    25
100
AcDbLine
 10
64.3840813422
 20
42.7227953937
 30
0.0
 11
64.3803923079
 21
42.5799454613
 31
0.0
  0
LINE
  5
C3
330
1F
100
AcDbEntity
  8
0
  6
Continuous
 62
     7
370
    25
100
AcDbLine
 10
64.0267099864
 20
42.7808099431
 30
0.0
 11
64.0227862415
 21
42.6288713455
 31
0.0
  0
LINE
  5
C4
330
1F
100
AcDbEntity
  8
0
  6
Continuous
 62
     7
370
    25
100
AcDbLine
 10
60.1535771845
 20
43.4095622214
 30
0.0
 11
60.1498881503
 21
43.266712289
 31
0.0
  0
LINE
  5
C5
330
1F
100
AcDbEntity
  8
0
  6
Continuous
 62
     7
370
    25
100
AcDbLine
 10
63.9593383889
 20
43.3698223861
 30
0.0
 11
63.9587157574
 21
43.2275695225
 31
0.0
  0
LINE
  5
C6
330
1F
100
AcDbEntity
  8
0
  6
Continuous
 62
     7
370
    25
100
AcDbLine
 10
59.7962058287
 20
43.4675767708
 30
0.0
 11
59.7922820839
 21
43.3156381732
 31
0.0
  0
LINE
  5
C7
330
1F
100
AcDbEntity
  8
0
  6
Continuous
 62
     7
370
    25
100
AcDbLine
 10
64.3166942253
 20
43.4203737397
 30
0.0
 11
64.3160259692
 21
43.2676970163
 31
0.0
  0
LINE
  5
C8
330
1F
100
AcDbEntity
  8
0
  6
Continuous
 62
     7
370
    25
100
AcDbLine
 10
63.3821054642
 20
43.8662679977
 30
0.0
 11
63.3836051939
 21
43.7612107341
 31
0.0
  0
LINE
  5
C9
330
1F
100
AcDbEntity
  8
0
  6
Continuous
 62
     7
370
    25
100
AcDbLine
 10
63.6362735043
 20
43.8472242051
 30
0.0
 11
63.662948011
 21
43.8141121087
 31
0.0
  0
LINE
  5
CA
330
1F
100
AcDbEntity
  8
0
  6
Continuous
 62
     7
370
    25
100
AcDbLine
 10
61.6630204008
 20
44.145338896
 30
0.0
 11
61.6606311464
 21
44.1027283895
 31
0.0
  0
LINE
  5
CB
330
1F
100
AcDbEntity
  8
0
  6
Continuous
 62
     7
370
    25
100
AcDbLine
 10
62.4496803083
 20
44.1371245774
 30
0.0
 11
62.4506978019
 21
44.0969447713
 31
0.0
  0
LINE
  5
CC
330
1F
100
AcDbEntity
  8
0
  6
Continuous
 62
     7
370
    25
100
AcDbLine
 10
33.5813026064
 20
45.5211923581
 30
0.0
 11
33.5813026064
 21
33.7711923581
 31
0.0
  0
LINE
  5
CD
330
1F
100
AcDbEntity
  8
0
  6
Continuous
 62
     7
370
    25
100
AcDbLine
 10
39.5813026064
 20
33.7711923581
 30
0.0
 11
39.5813026064
 21
45.5211923581
 31
0.0
  0
LINE
  5
CE
330
1F
100
AcDbEntity
  8
0
  6
Continuous
 62
     7
370
    25
100
AcDbLine
 10
39.5813026064
 20
45.5211923581
 30
0.0
 11
39.5813026064
 21
45.7711923581
 31
0.0
  0
LINE
  5
CF
330
1F
100
AcDbEntity
  8
0
  6
Continuous
 62
     7
370
    25
100
AcDbLine
 10
33.5813026064
 20
45.7711923581
 30
0.0
 11
33.5813026064
 21
45.5211923581
 31
0.0
  0
LINE
  5
D0
330
1F
100
AcDbEntity
  8
0
  6
Continuous
 62
     7
370
    25
100
AcDbLine
 10
36.3313026064
 20
45.7761923581
 30
0.0
 11
36.3313026064
 21
45.7711923581
 31
0.0
  0
LINE
  5
D1
330
1F
100
AcDbEntity
  8
0
  6
Continuous
 62
     7
370
    25
100
AcDbLine
 10
36.8313026064
 20
45.7711923581
 30
0.0
 11
36.8313026064
 21
45.7761923581
 31
0.0
  0
LINE
  5
D2
330
1F
100
AcDbEntity
  8
0
  6
Continuous
 62
     7
370
    25
100
AcDbLine
 10
39.5813026064
 20
45.5211923581
 30
0.0
 11
33.5813026064
 21
45.5211923581
 31
0.0
  0
LINE
  5
D3
330
1F
100
AcDbEntity
  8
0
  6
Continuous
 62
     7
370
    25
100
AcDbLine
 10
39.5813026064
 20
33.7711923581
 30
0.0
 11
33.5813026064
 21
33.7711923581
 31
0.0
  0
LINE
  5
D4
330
1F
100
AcDbEntity
  8
0
  6
Continuous
 62
     7
370
    25
100
AcDbLine
 10
36.5813026064
 20
45.5211923581
 30
0.0
 11
33.5813026064
 21
45.5211923581
 31
0.0
  0
LINE
  5
D5
330
1F
100
AcDbEntity
  8
0
  6
Continuous
 62
     7
370
    25
100
AcDbLine
 10
39.5813026064
 20
45.5211923581
 30
0.0
 11
36.5813026064
 21
45.5211923581
 31
0.0
  0
LINE
  5
D6
330
1F
100
AcDbEntity
  8
0
  6
Continuous
 62
     7
370
    25
100
AcDbLine
 10
33.5813026064
 20
45.7711923581
 30
0.0
 11
39.5813026064
 21
45.7711923581
 31
0.0
  0
LINE
  5
D7
330
1F
100
AcDbEntity
  8
0
  6
Continuous
 62
     7
370
    25
100
AcDbLine
 10
36.3843487895
 20
45.7761923581
 30
0.0
 11
36.8313026064
 21
45.7761923581
 31
0.0
  0
LINE
  5
D8
330
1F
100
AcDbEntity
  8
0
  6
Continuous
 62
     7
370
    25
100
AcDbLine
 10
36.3313026064
 20
45.7761923581
 30
0.0
 11
36.3843487895
 21
45.7761923581
 31
0.0
  0
DIMENSION
  5
D9
330
1F
100
AcDbEntity
  8
0
  6
Continuous
 62
     7
370
    18
100
AcDbDimension
  2
_D
 10
26.2439811416
 20
33.7711923581
 30
0.0
 11
26.2439811416
 21
39.7736923581
 31
0.0
 70
   160
  1
<>
 71
     2
 42
-1.0
  3
SLDDIMSTYLE0
100
AcDbAlignedDimension
 13
36.3313026064
 23
45.7761923581
 33
0.0
 14
33.5813026064
 24
33.7711923581
 34
0.0
 50
90.0
100
AcDbRotatedDimension
  0
DIMENSION
  5
EF
330
1F
100
AcDbEntity
  8
0
  6
Continuous
 62
     7
370
    18
100
AcDbDimension
  2
_D_1
 10
39.5813026064
 20
30.1041149403
 30
0.0
 11
36.5813026064
 21
30.1041149403
 31
0.0
 70
   160
  1
%%c<>
 71
     2
 42
-1.0
  3
SLDDIMSTYLE1
100
AcDbAlignedDimension
 13
33.5813026064
 23
33.7711923581
 33
0.0
 14
39.5813026064
 24
33.7711923581
 34
0.0
100
AcDbRotatedDimension
  0
DIMENSION
  5
103
330
1F
100
AcDbEntity
  8
0
  6
Continuous
 62
     7
370
    18
100
AcDbDimension
  2
_D_2
 10
41.7111199508
 20
45.7711923581
 30
0.0
 11
41.7111199508
 21
47.8505579721
 31
0.0
 70
   160
  1
<>
 71
     2
 42
-1.0
  3
SLDDIMSTYLE2
100
AcDbAlignedDimension
 13
39.5813026064
 23
45.5211923581
 33
0.0
 14
39.5813026064
 24
45.7711923581
 34
0.0
 50
90.0
100
AcDbRotatedDimension
  0
ENDSEC
  0
SECTION
  2
OBJECTS
  0
DICTIONARY
  5
C
330
0
100
AcDbDictionary
281
     1
  3
ACAD_GROUP
350
D
  3
ACAD_LAYOUT
350
1A
  3
ACAD_MLINESTYLE
350
17
  3
ACAD_PLOTSETTINGS
350
19
  3
ACAD_PLOTSTYLENAME
350
E
  3
ACAD_SCALELIST
350
47
  3
DWGPROPS
350
119
  0
DICTIONARY
  5
D
102
{ACAD_REACTORS
330
C
102
}
330
C
100
AcDbDictionary
281
     1
  0
DICTIONARY
  5
1A
102
{ACAD_REACTORS
330
C
102
}
330
C
100
AcDbDictionary
281
     1
  3
Layout1
350
1E
  3
Layout2
350
26
  3
Model
350
22
  0
DICTIONARY
  5
17
102
{ACAD_REACTORS
330
C
102
}
330
C
100
AcDbDictionary
281
     1
  3
Standard
350
18
  0
DICTIONARY
  5
19
102
{ACAD_REACTORS
330
C
102
}
330
C
100
AcDbDictionary
281
     1
  0
ACDBDICTIONARYWDFLT
  5
E
102
{ACAD_REACTORS
330
C
102
}
330
C
100
AcDbDictionary
281
     1
  3
Normal
350
F
100
AcDbDictionaryWithDefault
340
F
  0
DICTIONARY
  5
47
102
{ACAD_REACTORS
330
C
102
}
330
C
100
AcDbDictionary
281
     1
  3
A0
350
48
  3
A1
350
49
  3
A2
350
4A
  3
A3
350
4B
  3
A4
350
4C
  3
A5
350
4D
  3
A6
350
4E
  3
A7
350
4F
  3
A8
350
50
  3
A9
350
51
  3
B1
350
52
  3
B2
350
53
  3
B3
350
54
  3
B4
350
55
  3
B5
350
56
  3
B6
350
57
  3
B7
350
58
  0
XRECORD
  5
119
102
{ACAD_REACTORS
330
C
102
}
330
C
100
AcDbXrecord
280
     1
  1
DWGPROPS COOKIE
  2

  3

  4

  6

  7

  8
gurisher.rai
  9

300
=
301
=
302
=
303
=
304
=
305
=
306
=
307
=
308
=
309
=
 40
0.0
 41
2460477.054750914
 42
2460477.054753774
  1

 90
        0
  0
LAYOUT
  5
1E
102
{ACAD_REACTORS
330
1A
102
}
330
1A
100
AcDbPlotSettings
  1

  2
none_device
  4

  6

 40
0.0
 41
0.0
 42
0.0
 43
0.0
 44
0.0
 45
0.0
 46
0.0
 47
0.0
 48
0.0
 49
0.0
140
0.0
141
0.0
142
1.0
143
1.0
 70
   688
 72
     0
 73
     0
 74
     5
  7

 75
    16
147
1.0
148
0.0
149
0.0
100
AcDbLayout
  1
Layout1
 70
     1
 71
     1
 10
0.0
 20
0.0
 11
12.0
 21
9.0
 12
0.0
 22
0.0
 32
0.0
 14
1.0000000000E+20
 24
1.0000000000E+20
 34
1.0000000000E+20
 15
-1.0000000000E+20
 25
-1.0000000000E+20
 35
-1.0000000000E+20
146
0.0
 13
0.0
 23
0.0
 33
0.0
 16
1.0
 26
0.0
 36
0.0
 17
0.0
 27
1.0
 37
0.0
 76
     0
330
1B
  0
LAYOUT
  5
26
102
{ACAD_REACTORS
330
1A
102
}
330
1A
100
AcDbPlotSettings
  1

  2
none_device
  4

  6

 40
0.0
 41
0.0
 42
0.0
 43
0.0
 44
0.0
 45
0.0
 46
0.0
 47
0.0
 48
0.0
 49
0.0
140
0.0
141
0.0
142
1.0
143
1.0
 70
   688
 72
     0
 73
     0
 74
     5
  7

 75
    16
147
1.0
148
0.0
149
0.0
100
AcDbLayout
  1
Layout2
 70
     1
 71
     2
 10
0.0
 20
0.0
 11
0.0
 21
0.0
 12
0.0
 22
0.0
 32
0.0
 14
0.0
 24
0.0
 34
0.0
 15
0.0
 25
0.0
 35
0.0
146
0.0
 13
0.0
 23
0.0
 33
0.0
 16
1.0
 26
0.0
 36
0.0
 17
0.0
 27
1.0
 37
0.0
 76
     0
330
23
  0
LAYOUT
  5
22
102
{ACAD_REACTORS
330
1A
102
}
330
1A
100
AcDbPlotSettings
  1

  2
none_device
  4
Letter_(8.50_x_11.00_Inches)
  6

 40
6.35
 41
6.35
 42
6.35000508
 43
6.35000508
 44
215.9
 45
279.4
 46
0.0
 47
0.0
 48
0.0
 49
0.0
140
0.0
141
0.0
142
1.0
143
1.0
 70
  1712
 72
     0
 73
     0
 74
     0
  7

 75
     0
147
1.0
148
0.0
149
0.0
100
AcDbLayout
  1
Model
 70
     1
 71
     0
 10
0.0
 20
0.0
 11
88.0
 21
68.0
 12
0.0
 22
0.0
 32
0.0
 14
0.0
 24
0.0
 34
0.0
 15
88.0
 25
68.0
 35
0.0
146
0.0
 13
0.0
 23
0.0
 33
0.0
 16
1.0
 26
0.0
 36
0.0
 17
0.0
 27
1.0
 37
0.0
 76
     0
330
1F
331
29
  0
MLINESTYLE
  5
18
102
{ACAD_REACTORS
330
17
102
}
330
17
100
AcDbMlineStyle
  2
Standard
 70
     0
  3

 62
   256
 51
90.0
 52
90.0
 71
     2
 49
0.5
 62
   256
  6
BYLAYER
 49
-0.5
 62
   256
  6
BYLAYER
  0
ACDBPLACEHOLDER
  5
F
102
{ACAD_REACTORS
330
E
102
}
330
E
  0
SCALE
  5
48
102
{ACAD_REACTORS
330
47
102
}
330
47
100
AcDbScale
 70
     0
300
1:1
140
1.0
141
1.0
290
     1
  0
SCALE
  5
49
102
{ACAD_REACTORS
330
47
102
}
330
47
100
AcDbScale
 70
     0
300
1/128" = 1'-0"
140
0.0078125
141
12.0
290
     0
  0
SCALE
  5
4A
102
{ACAD_REACTORS
330
47
102
}
330
47
100
AcDbScale
 70
     0
300
1/64" = 1'-0"
140
0.015625
141
12.0
290
     0
  0
SCALE
  5
4B
102
{ACAD_REACTORS
330
47
102
}
330
47
100
AcDbScale
 70
     0
300
1/32" = 1'-0"
140
0.03125
141
12.0
290
     0
  0
SCALE
  5
4C
102
{ACAD_REACTORS
330
47
102
}
330
47
100
AcDbScale
 70
     0
300
1/16" = 1'-0"
140
0.0625
141
12.0
290
     0
  0
SCALE
  5
4D
102
{ACAD_REACTORS
330
47
102
}
330
47
100
AcDbScale
 70
     0
300
3/32" = 1'-0"
140
0.09375
141
12.0
290
     0
  0
SCALE
  5
4E
102
{ACAD_REACTORS
330
47
102
}
330
47
100
AcDbScale
 70
     0
300
1/8" = 1'-0"
140
0.125
141
12.0
290
     0
  0
SCALE
  5
4F
102
{ACAD_REACTORS
330
47
102
}
330
47
100
AcDbScale
 70
     0
300
3/16" = 1'-0"
140
0.1875
141
12.0
290
     0
  0
SCALE
  5
50
102
{ACAD_REACTORS
330
47
102
}
330
47
100
AcDbScale
 70
     0
300
1/4" = 1'-0"
140
0.25
141
12.0
290
     0
  0
SCALE
  5
51
102
{ACAD_REACTORS
330
47
102
}
330
47
100
AcDbScale
 70
     0
300
3/8" = 1'-0"
140
0.375
141
12.0
290
     0
  0
SCALE
  5
52
102
{ACAD_REACTORS
330
47
102
}
330
47
100
AcDbScale
 70
     0
300
1/2" = 1'-0"
140
0.5
141
12.0
290
     0
  0
SCALE
  5
53
102
{ACAD_REACTORS
330
47
102
}
330
47
100
AcDbScale
 70
     0
300
3/4" = 1'-0"
140
0.75
141
12.0
290
     0
  0
SCALE
  5
54
102
{ACAD_REACTORS
330
47
102
}
330
47
100
AcDbScale
 70
     0
300
1" = 1'-0"
140
1.0
141
12.0
290
     0
  0
SCALE
  5
55
102
{ACAD_REACTORS
330
47
102
}
330
47
100
AcDbScale
 70
     0
300
1-1/2" = 1'-0"
140
1.5
141
12.0
290
     0
  0
SCALE
  5
56
102
{ACAD_REACTORS
330
47
102
}
330
47
100
AcDbScale
 70
     0
300
3" = 1'-0"
140
3.0
141
12.0
290
     0
  0
SCALE
  5
57
102
{ACAD_REACTORS
330
47
102
}
330
47
100
AcDbScale
 70
     0
300
6" = 1'-0"
140
6.0
141
12.0
290
     0
  0
SCALE
  5
58
102
{ACAD_REACTORS
330
47
102
}
330
47
100
AcDbScale
 70
     0
300
1'-0" = 1'-0"
140
12.0
141
12.0
290
     0
  0
ENDSEC
  0
EOF
