  0
SECTION
  2
HEADER
  9
$ACADVER
  1
AC1015
  9
$ACADMAINTVER
 70
     6
  9
$DWGCODEPAGE
  3
ANSI_1252
  9
$INSBASE
 10
0.0
 20
0.0
 30
0.0
  9
$EXTMIN
 10
0.0
 20
0.0
 30
0.0
  9
$EXTMAX
 10
44.0
 20
34.0
 30
0.0
  9
$LIMMIN
 10
0.0
 20
0.0
  9
$LIMMAX
 10
44.0
 20
34.0
  9
$ORTHOMODE
 70
     0
  9
$REGENMODE
 70
     1
  9
$FILLMODE
 70
     1
  9
$QTEXTMODE
 70
     0
  9
$MIRRTEXT
 70
     1
  9
$LTSCALE
 40
4.0
  9
$ATTMODE
 70
     1
  9
$TEXTSIZE
 40
0.5
  9
$TRACEWID
 40
0.05
  9
$TEXTSTYLE
  7
STANDARD
  9
$CLAYER
  8
0
  9
$CELTYPE
  6
ByLayer
  9
$CECOLOR
 62
   256
  9
$CELTSCALE
 40
1.0
  9
$DISPSILH
 70
     0
  9
$DIMSCALE
 40
1.0
  9
$DIMASZ
 40
0.52
  9
$DIMEXO
 40
0.2
  9
$DIMDLI
 40
0.38
  9
$DIMRND
 40
0.0
  9
$DIMDLE
 40
0.0
  9
$DIMEXE
 40
0.5
  9
$DIMTP
 40
0.0
  9
$DIMTM
 40
0.0
  9
$DIMTXT
 40
0.5
  9
$DIMCEN
 40
0.09
  9
$DIMTSZ
 40
0.0
  9
$DIMTOL
 70
     0
  9
$DIMLIM
 70
     0
  9
$DIMTIH
 70
     1
  9
$DIMTOH
 70
     1
  9
$DIMSE1
 70
     0
  9
$DIMSE2
 70
     0
  9
$DIMTAD
 70
     0
  9
$DIMZIN
 70
     1
  9
$DIMBLK
  1

  9
$DIMASO
 70
     1
  9
$DIMSHO
 70
     1
  9
$DIMPOST
  1

  9
$DIMAPOST
  1

  9
$DIMALT
 70
     0
  9
$DIMALTD
 70
     2
  9
$DIMALTF
 40
25.4
  9
$DIMLFAC
 40
1.0
  9
$DIMTOFL
 70
     0
  9
$DIMTVP
 40
0.0
  9
$DIMTIX
 70
     0
  9
$DIMSOXD
 70
     0
  9
$DIMSAH
 70
     0
  9
$DIMBLK1
  1

  9
$DIMBLK2
  1

  9
$DIMSTYLE
  2
Standard
  9
$DIMCLRD
 70
     0
  9
$DIMCLRE
 70
     0
  9
$DIMCLRT
 70
     0
  9
$DIMTFAC
 40
1.0
  9
$DIMGAP
 40
0.24
  9
$DIMJUST
 70
     0
  9
$DIMSD1
 70
     0
  9
$DIMSD2
 70
     0
  9
$DIMTOLJ
 70
     1
  9
$DIMTZIN
 70
     1
  9
$DIMALTZ
 70
     0
  9
$DIMALTTZ
 70
     0
  9
$DIMUPT
 70
     0
  9
$DIMDEC
 70
     0
  9
$DIMTDEC
 70
     0
  9
$DIMALTU
 70
     2
  9
$DIMALTTD
 70
     2
  9
$DIMTXSTY
  7
STANDARD
  9
$DIMAUNIT
 70
     0
  9
$DIMADEC
 70
     0
  9
$DIMALTRND
 40
0.0
  9
$DIMAZIN
 70
     0
  9
$DIMDSEP
 70
    46
  9
$DIMATFIT
 70
     3
  9
$DIMFRAC
 70
     0
  9
$DIMLDRBLK
  1

  9
$DIMLUNIT
 70
     2
  9
$DIMLWD
 70
    -2
  9
$DIMLWE
 70
    -2
  9
$DIMTMOVE
 70
     0
  9
$LUNITS
 70
     2
  9
$LUPREC
 70
     6
  9
$SKETCHINC
 40
0.1
  9
$FILLETRAD
 40
0.0
  9
$AUNITS
 70
     0
  9
$AUPREC
 70
     2
  9
$MENU
  1
.
  9
$ELEVATION
 40
0.0
  9
$PELEVATION
 40
0.0
  9
$THICKNESS
 40
0.0
  9
$LIMCHECK
 70
     0
  9
$CHAMFERA
 40
0.0
  9
$CHAMFERB
 40
0.0
  9
$CHAMFERC
 40
0.0
  9
$CHAMFERD
 40
0.0
  9
$SKPOLY
 70
     0
  9
$TDCREATE
 40
2460536.921841343
  9
$TDUCREATE
 40
2460537.21350801
  9
$TDUPDATE
 40
2460536.921847593
  9
$TDUUPDATE
 40
2460537.213514259
  9
$TDINDWG
 40
0.0000000116
  9
$TDUSRTIMER
 40
0.0000000116
  9
$USRTIMER
 70
     1
  9
$ANGBASE
 50
0.0
  9
$ANGDIR
 70
     0
  9
$PDMODE
 70
     0
  9
$PDSIZE
 40
-1.0
  9
$PLINEWID
 40
0.0
  9
$SPLFRAME
 70
     0
  9
$SPLINETYPE
 70
     6
  9
$SPLINESEGS
 70
     8
  9
$HANDSEED
  5
3BB
  9
$SURFTAB1
 70
     6
  9
$SURFTAB2
 70
     6
  9
$SURFTYPE
 70
     6
  9
$SURFU
 70
     6
  9
$SURFV
 70
     6
  9
$UCSBASE
  2

  9
$UCSNAME
  2

  9
$UCSORG
 10
0.0
 20
0.0
 30
0.0
  9
$UCSXDIR
 10
1.0
 20
0.0
 30
0.0
  9
$UCSYDIR
 10
0.0
 20
1.0
 30
0.0
  9
$UCSORTHOREF
  2

  9
$UCSORTHOVIEW
 70
     0
  9
$UCSORGTOP
 10
0.0
 20
0.0
 30
0.0
  9
$UCSORGBOTTOM
 10
0.0
 20
0.0
 30
0.0
  9
$UCSORGLEFT
 10
0.0
 20
0.0
 30
0.0
  9
$UCSORGRIGHT
 10
0.0
 20
0.0
 30
0.0
  9
$UCSORGFRONT
 10
0.0
 20
0.0
 30
0.0
  9
$UCSORGBACK
 10
0.0
 20
0.0
 30
0.0
  9
$PUCSBASE
  2

  9
$PUCSNAME
  2

  9
$PUCSORG
 10
0.0
 20
0.0
 30
0.0
  9
$PUCSXDIR
 10
1.0
 20
0.0
 30
0.0
  9
$PUCSYDIR
 10
0.0
 20
1.0
 30
0.0
  9
$PUCSORTHOREF
  2

  9
$PUCSORTHOVIEW
 70
     0
  9
$PUCSORGTOP
 10
0.0
 20
0.0
 30
0.0
  9
$PUCSORGBOTTOM
 10
0.0
 20
0.0
 30
0.0
  9
$PUCSORGLEFT
 10
0.0
 20
0.0
 30
0.0
  9
$PUCSORGRIGHT
 10
0.0
 20
0.0
 30
0.0
  9
$PUCSORGFRONT
 10
0.0
 20
0.0
 30
0.0
  9
$PUCSORGBACK
 10
0.0
 20
0.0
 30
0.0
  9
$USERI1
 70
     0
  9
$USERI2
 70
     0
  9
$USERI3
 70
     0
  9
$USERI4
 70
     0
  9
$USERI5
 70
     0
  9
$USERR1
 40
0.0
  9
$USERR2
 40
0.0
  9
$USERR3
 40
0.0
  9
$USERR4
 40
0.0
  9
$USERR5
 40
0.0
  9
$WORLDVIEW
 70
     1
  9
$SHADEDGE
 70
     3
  9
$SHADEDIF
 70
    70
  9
$TILEMODE
 70
     1
  9
$MAXACTVP
 70
    64
  9
$PINSBASE
 10
0.0
 20
0.0
 30
0.0
  9
$PLIMCHECK
 70
     0
  9
$PEXTMIN
 10
1.0000000000E+20
 20
1.0000000000E+20
 30
1.0000000000E+20
  9
$PEXTMAX
 10
-1.0000000000E+20
 20
-1.0000000000E+20
 30
-1.0000000000E+20
  9
$PLIMMIN
 10
0.0
 20
0.0
  9
$PLIMMAX
 10
12.0
 20
9.0
  9
$UNITMODE
 70
     0
  9
$VISRETAIN
 70
     1
  9
$PLINEGEN
 70
     0
  9
$PSLTSCALE
 70
     1
  9
$TREEDEPTH
 70
  3020
  9
$CMLSTYLE
  2
Standard
  9
$CMLJUST
 70
     0
  9
$CMLSCALE
 40
1.0
  9
$PROXYGRAPHICS
 70
     1
  9
$MEASUREMENT
 70
     0
  9
$CELWEIGHT
370
    -1
  9
$ENDCAPS
280
     0
  9
$JOINSTYLE
280
     0
  9
$LWDISPLAY
290
     1
  9
$INSUNITS
 70
     1
  9
$HYPERLINKBASE
  1

  9
$STYLESHEET
  1

  9
$XEDIT
290
     1
  9
$CEPSNTYPE
380
     0
  9
$PSTYLEMODE
290
     1
  9
$FINGERPRINTGUID
  2
{f3abf57c-93d4-4794-b736-b52d9ab6f11c}
  9
$VERSIONGUID
  2
{FAEB1C32-E019-11D5-929B-00C0DF256EC4}
  9
$EXTNAMES
290
     1
  9
$PSVPSCALE
 40
0.0
  9
$OLESTARTUP
290
     0
  0
ENDSEC
  0
SECTION
  2
CLASSES
  0
CLASS
  1
ACDBDICTIONARYWDFLT
  2
AcDbDictionaryWithDefault
  3
ObjectDBX Classes
 90
        0
280
     0
281
     0
  0
CLASS
  1
VISUALSTYLE
  2
AcDbVisualStyle
  3
ObjectDBX Classes
 90
     4095
280
     0
281
     0
  0
CLASS
  1
MATERIAL
  2
AcDbMaterial
  3
ObjectDBX Classes
 90
     1153
280
     0
281
     0
  0
CLASS
  1
SCALE
  2
AcDbScale
  3
ObjectDBX Classes
 90
     1153
280
     0
281
     0
  0
CLASS
  1
TABLESTYLE
  2
AcDbTableStyle
  3
ObjectDBX Classes
 90
     4095
280
     0
281
     0
  0
CLASS
  1
MLEADERSTYLE
  2
AcDbMLeaderStyle
  3
ACDB_MLEADERSTYLE_CLASS
 90
     4095
280
     0
281
     0
  0
CLASS
  1
SUN
  2
AcDbSun
  3
SCENEOE
 90
     1153
280
     0
281
     0
  0
CLASS
  1
ACDBPLACEHOLDER
  2
AcDbPlaceHolder
  3
ObjectDBX Classes
 90
        0
280
     0
281
     0
  0
CLASS
  1
LAYOUT
  2
AcDbLayout
  3
ObjectDBX Classes
 90
        0
280
     0
281
     0
  0
ENDSEC
  0
SECTION
  2
TABLES
  0
TABLE
  2
VPORT
  5
8
330
0
100
AcDbSymbolTable
 70
     1
  0
VPORT
  5
29
330
8
100
AcDbSymbolTableRecord
100
AcDbViewportTableRecord
  2
*Active
 70
     0
 10
0.0
 20
0.0
 11
1.0
 21
1.0
 12
22.0
 22
17.0
 13
0.0
 23
0.0
 14
0.5
 24
0.5
 15
0.5
 25
0.5
 16
0.0
 26
0.0
 36
1.0
 17
0.0
 27
0.0
 37
0.0
 40
34.0
 41
1.2941176471
 42
50.0
 43
0.0
 44
0.0
 50
0.0
 51
0.0
 71
     0
 72
  2000
 73
     1
 74
     3
 75
     0
 76
     0
 77
     0
 78
     0
281
     0
 65
     1
110
0.0
120
0.0
130
0.0
111
1.0
121
0.0
131
0.0
112
0.0
122
1.0
132
0.0
 79
     0
146
0.0
  0
ENDTAB
  0
TABLE
  2
LTYPE
  5
5
330
0
100
AcDbSymbolTable
 70
     6
  0
LTYPE
  5
14
330
5
100
AcDbSymbolTableRecord
100
AcDbLinetypeTableRecord
  2
ByBlock
 70
     0
  3

 72
    65
 73
     0
 40
0.0
  0
LTYPE
  5
15
330
5
100
AcDbSymbolTableRecord
100
AcDbLinetypeTableRecord
  2
ByLayer
 70
     0
  3

 72
    65
 73
     0
 40
0.0
  0
LTYPE
  5
16
330
5
100
AcDbSymbolTableRecord
100
AcDbLinetypeTableRecord
  2
Continuous
 70
     0
  3
Solid line
 72
    65
 73
     0
 40
0.0
  0
LTYPE
  5
5E
330
5
100
AcDbSymbolTableRecord
100
AcDbLinetypeTableRecord
  2
HIDDEN
 70
     0
  3
Hidden __ __ __ __ __ __ __ __ __ __ __ __ __ __
 72
    65
 73
     2
 40
0.075
 49
0.05
 74
     0
 49
-0.025
 74
     0
  0
LTYPE
  5
5F
330
5
100
AcDbSymbolTableRecord
100
AcDbLinetypeTableRecord
  2
PHANTOM
 70
     0
  3
Phantom ______  __  __  ______  __  __  ______
 72
    65
 73
     6
 40
0.5
 49
0.25
 74
     0
 49
-0.05
 74
     0
 49
0.05
 74
     0
 49
-0.05
 74
     0
 49
0.05
 74
     0
 49
-0.05
 74
     0
  0
LTYPE
  5
60
330
5
100
AcDbSymbolTableRecord
100
AcDbLinetypeTableRecord
  2
CENTER
 70
     0
  3
Center ____ _ ____ _ ____ _ ____ _ ____ _ ____
 72
    65
 73
     4
 40
0.4
 49
0.25
 74
     0
 49
-0.05
 74
     0
 49
0.05
 74
     0
 49
-0.05
 74
     0
  0
LTYPE
  5
61
330
5
100
AcDbSymbolTableRecord
100
AcDbLinetypeTableRecord
  2
CENTERX2
 70
     0
  3
Center (2x) ________  __  ________  __  _____
 72
    65
 73
     4
 40
0.8
 49
0.5
 74
     0
 49
-0.1
 74
     0
 49
0.1
 74
     0
 49
-0.1
 74
     0
  0
LTYPE
  5
62
330
5
100
AcDbSymbolTableRecord
100
AcDbLinetypeTableRecord
  2
DOT2
 70
     0
  3
Dot (.5x) ........................................
 72
    65
 73
     2
 40
0.025
 49
0.0
 74
     0
 49
-0.025
 74
     0
  0
ENDTAB
  0
TABLE
  2
LAYER
  5
2
330
0
100
AcDbSymbolTable
 70
    12
  0
LAYER
  5
10
330
2
100
AcDbSymbolTableRecord
100
AcDbLayerTableRecord
  2
0
 70
     0
 62
     7
  6
Continuous
370
    -3
390
F
  0
LAYER
  5
63
330
2
100
AcDbSymbolTableRecord
100
AcDbLayerTableRecord
  2
SLD-0
 70
     0
 62
     7
  6
Continuous
370
    -3
390
F
  0
LAYER
  5
64
330
2
100
AcDbSymbolTableRecord
100
AcDbLayerTableRecord
  2
DIM
 70
     0
 62
     7
  6
Continuous
370
    -3
390
F
  0
LAYER
  5
65
330
2
100
AcDbSymbolTableRecord
100
AcDbLayerTableRecord
  2
CEN
 70
     0
 62
     1
  6
CENTER
370
    -3
390
F
  0
LAYER
  5
66
330
2
100
AcDbSymbolTableRecord
100
AcDbLayerTableRecord
  2
HAT
 70
     0
 62
     4
  6
Continuous
370
    -3
390
F
  0
LAYER
  5
67
330
2
100
AcDbSymbolTableRecord
100
AcDbLayerTableRecord
  2
OBJ
 70
     0
 62
     5
  6
Continuous
370
    -3
390
F
  0
LAYER
  5
68
330
2
100
AcDbSymbolTableRecord
100
AcDbLayerTableRecord
  2
SLD-DEFPOINTS
 70
     0
 62
     7
  6
Continuous
370
    -3
390
F
  0
LAYER
  5
69
330
2
100
AcDbSymbolTableRecord
100
AcDbLayerTableRecord
  2
HID
 70
     0
 62
     4
  6
HIDDEN
370
    -3
390
F
  0
LAYER
  5
6A
330
2
100
AcDbSymbolTableRecord
100
AcDbLayerTableRecord
  2
NOTE
 70
     0
 62
     7
  6
Continuous
370
    -3
390
F
  0
LAYER
  5
6B
330
2
100
AcDbSymbolTableRecord
100
AcDbLayerTableRecord
  2
VP
 70
     0
 62
    -5
  6
Continuous
290
     0
370
    -3
390
F
  0
LAYER
  5
6C
330
2
100
AcDbSymbolTableRecord
100
AcDbLayerTableRecord
  2
TITLE
 70
     0
 62
     7
  6
Continuous
370
    -3
390
F
  0
LAYER
  5
6D
330
2
100
AcDbSymbolTableRecord
100
AcDbLayerTableRecord
  2
THICK_TITLE
 70
     0
 62
     7
  6
Continuous
370
   100
390
F
  0
ENDTAB
  0
TABLE
  2
STYLE
  5
3
330
0
100
AcDbSymbolTable
 70
     2
  0
STYLE
  5
11
330
3
100
AcDbSymbolTableRecord
100
AcDbTextStyleTableRecord
  2
STANDARD
 70
     0
 40
0.0
 41
1.0
 50
0.0
 71
     0
 42
0.5
  3
GOTHIC.TTF
  4

1001
ACAD
1000
CENTURY GOTHIC
1071
       34
  0
STYLE
  5
7C
330
3
100
AcDbSymbolTableRecord
100
AcDbTextStyleTableRecord
  2
SLDTEXTSTYLE0
 70
     0
 40
0.0
 41
0.913
 50
0.0
 71
     0
 42
0.5
  3
GOTHIC.TTF
  4

1001
ACAD
1000
Century Gothic
1071
      290
  0
ENDTAB
  0
TABLE
  2
VIEW
  5
6
330
0
100
AcDbSymbolTable
 70
     0
  0
ENDTAB
  0
TABLE
  2
UCS
  5
7
330
0
100
AcDbSymbolTable
 70
     0
  0
ENDTAB
  0
TABLE
  2
APPID
  5
9
330
0
100
AcDbSymbolTable
 70
     1
  0
APPID
  5
12
330
9
100
AcDbSymbolTableRecord
100
AcDbRegAppTableRecord
  2
ACAD
 70
     0
  0
ENDTAB
  0
TABLE
  2
DIMSTYLE
  5
A
330
0
100
AcDbSymbolTable
 70
     4
100
AcDbDimStyleTable
  0
DIMSTYLE
105
27
330
A
100
AcDbSymbolTableRecord
100
AcDbDimStyleTableRecord
  2
Standard
 70
     0
178
     0
340
11
  0
DIMSTYLE
105
7D
102
{ACAD_REACTORS
330
7B
330
91
102
}
330
A
100
AcDbSymbolTableRecord
100
AcDbDimStyleTableRecord
  2
SLDDIMSTYLE0
 70
     0
 41
0.52
 44
0.0
 45
0.000000001
 78
    12
 79
     3
140
0.5
147
0.125
148
0.000000001
170
     1
173
     1
178
     0
271
     0
272
     0
276
     2
277
     5
284
    12
340
7C
  0
DIMSTYLE
105
A5
102
{ACAD_REACTORS
330
A4
102
}
330
A
100
AcDbSymbolTableRecord
100
AcDbDimStyleTableRecord
  2
SLDDIMSTYLE1
 70
     0
 41
0.52
 44
0.0
 45
0.000000001
 78
    12
 79
     3
140
0.5
147
0.125
148
0.000000001
170
     1
172
     1
173
     1
178
     0
271
     6
272
     0
276
     2
277
     5
284
    12
289
     0
340
7C
  0
DIMSTYLE
105
39A
102
{ACAD_REACTORS
330
399
330
3AA
102
}
330
A
100
AcDbSymbolTableRecord
100
AcDbDimStyleTableRecord
  2
SLDDIMSTYLE2
 70
     0
 41
0.52
 44
0.0
 45
0.000000001
 78
    12
 79
     3
140
0.5
141
0.0
147
0.125
148
0.000000001
170
     1
173
     1
178
     0
271
     0
272
     0
276
     2
277
     5
284
    12
340
7C
  0
ENDTAB
  0
TABLE
  2
BLOCK_RECORD
  5
1
330
0
100
AcDbSymbolTable
 70
     6
  0
BLOCK_RECORD
  5
1F
330
1
100
AcDbSymbolTableRecord
100
AcDbBlockTableRecord
  2
*Model_Space
340
22
  0
BLOCK_RECORD
  5
1B
330
1
100
AcDbSymbolTableRecord
100
AcDbBlockTableRecord
  2
*Paper_Space
340
1E
  0
BLOCK_RECORD
  5
23
330
1
100
AcDbSymbolTableRecord
100
AcDbBlockTableRecord
  2
*Paper_Space0
340
26
  0
BLOCK_RECORD
  5
7E
330
1
100
AcDbSymbolTableRecord
100
AcDbBlockTableRecord
  2
_D
340
0
  0
BLOCK_RECORD
  5
92
330
1
100
AcDbSymbolTableRecord
100
AcDbBlockTableRecord
  2
_D_1
340
0
  0
BLOCK_RECORD
  5
A6
330
1
100
AcDbSymbolTableRecord
100
AcDbBlockTableRecord
  2
_D_2
340
0
  0
BLOCK_RECORD
  5
39B
330
1
100
AcDbSymbolTableRecord
100
AcDbBlockTableRecord
  2
_D_3
340
0
  0
BLOCK_RECORD
  5
3AB
330
1
100
AcDbSymbolTableRecord
100
AcDbBlockTableRecord
  2
_D_4
340
0
  0
ENDTAB
  0
ENDSEC
  0
SECTION
  2
BLOCKS
  0
BLOCK
  5
20
330
1F
100
AcDbEntity
  8
0
100
AcDbBlockBegin
  2
*Model_Space
 70
     0
 10
0.0
 20
0.0
 30
0.0
  3
*Model_Space
  1

  0
ENDBLK
  5
21
330
1F
100
AcDbEntity
  8
0
100
AcDbBlockEnd
  0
BLOCK
  5
1C
330
1B
100
AcDbEntity
 67
     1
  8
0
100
AcDbBlockBegin
  2
*Paper_Space
 70
     0
 10
0.0
 20
0.0
 30
0.0
  3
*Paper_Space
  1

  0
ENDBLK
  5
1D
330
1B
100
AcDbEntity
 67
     1
  8
0
100
AcDbBlockEnd
  0
BLOCK
  5
24
330
23
100
AcDbEntity
  8
0
100
AcDbBlockBegin
  2
*Paper_Space0
 70
     0
 10
0.0
 20
0.0
 30
0.0
  3
*Paper_Space0
  1

  0
ENDBLK
  5
25
330
23
100
AcDbEntity
  8
0
100
AcDbBlockEnd
  0
BLOCK
  5
7F
330
7E
100
AcDbEntity
  8
0
100
AcDbBlockBegin
  2
_D
 70
     0
 10
0.0
 20
0.0
 30
0.0
  3
_D
  1

  0
SOLID
  5
81
330
7E
100
AcDbEntity
  8
0
  6
Continuous
 62
     7
370
    18
100
AcDbTrace
 10
18.2888051645
 20
17.1412800395
 30
0.0
 11
18.2088051645
 21
16.6212800395
 31
0.0
 12
18.3688051645
 22
16.6212800395
 32
0.0
 13
18.3688051645
 23
16.6212800395
 33
0.0
  0
SOLID
  5
82
330
7E
100
AcDbEntity
  8
0
  6
Continuous
 62
     7
370
    18
100
AcDbTrace
 10
18.2888051645
 20
5.1362800395
 30
0.0
 11
18.3688051645
 21
5.6562800395
 31
0.0
 12
18.2088051645
 22
5.6562800395
 32
0.0
 13
18.2088051645
 23
5.6562800395
 33
0.0
  0
LINE
  5
83
330
7E
100
AcDbEntity
  8
0
  6
Continuous
 62
     7
370
     0
100
AcDbLine
 10
17.1096385864
 20
11.1349605169
 30
0.0
 11
16.9572948379
 21
11.1349605169
 31
0.0
  0
LINE
  5
84
330
7E
100
AcDbEntity
  8
0
  6
Continuous
 62
     7
370
     0
100
AcDbLine
 10
16.9572948379
 20
11.1349605169
 30
0.0
 11
16.9572948379
 21
10.3412104931
 31
0.0
  0
LINE
  5
85
330
7E
100
AcDbEntity
  8
0
  6
Continuous
 62
     7
370
     0
100
AcDbLine
 10
16.9572948379
 20
10.3412104931
 30
0.0
 11
17.1096385864
 21
10.3412104931
 31
0.0
  0
LINE
  5
86
330
7E
100
AcDbEntity
  8
0
  6
Continuous
 62
     7
370
     0
100
AcDbLine
 10
19.4679718894
 20
11.1349605169
 30
0.0
 11
19.6203156378
 21
11.1349605169
 31
0.0
  0
LINE
  5
87
330
7E
100
AcDbEntity
  8
0
  6
Continuous
 62
     7
370
     0
100
AcDbLine
 10
19.6203156378
 20
11.1349605169
 30
0.0
 11
19.6203156378
 21
10.3412104931
 31
0.0
  0
LINE
  5
88
330
7E
100
AcDbEntity
  8
0
  6
Continuous
 62
     7
370
     0
100
AcDbLine
 10
19.6203156378
 20
10.3412104931
 30
0.0
 11
19.4679718894
 21
10.3412104931
 31
0.0
  0
LINE
  5
89
330
7E
100
AcDbEntity
  8
0
  6
Continuous
 62
     7
370
     0
100
AcDbLine
 10
11.0316201252
 20
17.1412800395
 30
0.0
 11
18.7888051645
 21
17.1412800395
 31
0.0
  0
LINE
  5
8A
330
7E
100
AcDbEntity
  8
0
  6
Continuous
 62
     7
370
     0
100
AcDbLine
 10
15.9691201252
 20
5.1362800395
 30
0.0
 11
18.7888051645
 21
5.1362800395
 31
0.0
  0
LINE
  5
8B
330
7E
100
AcDbEntity
  8
0
  6
Continuous
 62
     7
370
     0
100
AcDbLine
 10
18.2888051645
 20
17.1412800395
 30
0.0
 11
18.2888051645
 21
12.037911926
 31
0.0
  0
LINE
  5
8C
330
7E
100
AcDbEntity
  8
0
  6
Continuous
 62
     7
370
     0
100
AcDbLine
 10
18.2888051645
 20
5.1362800395
 30
0.0
 11
18.2888051645
 21
10.239648153
 31
0.0
  0
MTEXT
  5
8D
330
7E
100
AcDbEntity
  8
0
  6
Continuous
 62
     7
370
    18
100
AcDbMText
 10
16.6202288667
 20
11.8828338321
 30
0.0
 40
0.5
 41
0.0
 71
     1
 72
     1
  1
 
  7
SLDTEXTSTYLE0
 73
     1
 44
1.0
  0
MTEXT
  5
8E
330
7E
100
AcDbEntity
  8
0
  6
Continuous
 62
     7
370
    18
100
AcDbMText
 10
17.8162357737
 20
11.8751949062
 30
0.0
 40
0.5
 41
0.0
 71
     1
 72
     1
  1
12"
  7
SLDTEXTSTYLE0
 73
     1
 44
1.0
  0
MTEXT
  5
8F
330
7E
100
AcDbEntity
  8
0
  6
Continuous
 62
     7
370
    18
100
AcDbMText
 10
17.1096385864
 20
10.9798824231
 30
0.0
 40
0.5
 41
0.0
 71
     1
 72
     1
  1
305mm
  7
SLDTEXTSTYLE0
 73
     1
 44
1.0
  0
MTEXT
  5
90
330
7E
100
AcDbEntity
  8
0
  6
Continuous
 62
     7
370
    18
100
AcDbMText
 10
19.7726592763
 20
11.8828338321
 30
0.0
 40
0.5
 41
0.0
 71
     1
 72
     1
  1
 
  7
SLDTEXTSTYLE0
 73
     1
 44
1.0
  0
ENDBLK
  5
80
330
7E
100
AcDbEntity
  8
0
100
AcDbBlockEnd
  0
BLOCK
  5
93
330
92
100
AcDbEntity
  8
0
100
AcDbBlockBegin
  2
_D_1
 70
     0
 10
0.0
 20
0.0
 30
0.0
  3
_D_1
  1

  0
SOLID
  5
95
330
92
100
AcDbEntity
  8
0
  6
Continuous
 62
     7
370
    18
100
AcDbTrace
 10
9.7691201252
 20
3.5614768899
 30
0.0
 11
10.2891201252
 21
3.4814768899
 31
0.0
 12
10.2891201252
 22
3.6414768899
 32
0.0
 13
10.2891201252
 23
3.6414768899
 33
0.0
  0
SOLID
  5
96
330
92
100
AcDbEntity
  8
0
  6
Continuous
 62
     7
370
    18
100
AcDbTrace
 10
15.7691201252
 20
3.5614768899
 30
0.0
 11
15.2491201252
 21
3.6414768899
 31
0.0
 12
15.2491201252
 22
3.4814768899
 32
0.0
 13
15.2491201252
 23
3.4814768899
 33
0.0
  0
LINE
  5
97
330
92
100
AcDbEntity
  8
0
  6
Continuous
 62
     7
370
     0
100
AcDbLine
 10
11.5899535103
 20
3.5614768166
 30
0.0
 11
11.4376097619
 21
3.5614768166
 31
0.0
  0
LINE
  5
98
330
92
100
AcDbEntity
  8
0
  6
Continuous
 62
     7
370
     0
100
AcDbLine
 10
11.4376097619
 20
3.5614768166
 30
0.0
 11
11.4376097619
 21
2.7677267927
 31
0.0
  0
LINE
  5
99
330
92
100
AcDbEntity
  8
0
  6
Continuous
 62
     7
370
     0
100
AcDbLine
 10
11.4376097619
 20
2.7677267927
 30
0.0
 11
11.5899535103
 21
2.7677267927
 31
0.0
  0
LINE
  5
9A
330
92
100
AcDbEntity
  8
0
  6
Continuous
 62
     7
370
     0
100
AcDbLine
 10
13.9482868133
 20
3.5614768166
 30
0.0
 11
14.1006305618
 21
3.5614768166
 31
0.0
  0
LINE
  5
9B
330
92
100
AcDbEntity
  8
0
  6
Continuous
 62
     7
370
     0
100
AcDbLine
 10
14.1006305618
 20
3.5614768166
 30
0.0
 11
14.1006305618
 21
2.7677267927
 31
0.0
  0
LINE
  5
9C
330
92
100
AcDbEntity
  8
0
  6
Continuous
 62
     7
370
     0
100
AcDbLine
 10
14.1006305618
 20
2.7677267927
 30
0.0
 11
13.9482868133
 21
2.7677267927
 31
0.0
  0
LINE
  5
9D
330
92
100
AcDbEntity
  8
0
  6
Continuous
 62
     7
370
     0
100
AcDbLine
 10
9.7691201252
 20
4.9362800395
 30
0.0
 11
9.7691201252
 21
3.0614768899
 31
0.0
  0
LINE
  5
9E
330
92
100
AcDbEntity
  8
0
  6
Continuous
 62
     7
370
     0
100
AcDbLine
 10
15.7691201252
 20
4.9362800395
 30
0.0
 11
15.7691201252
 21
3.0614768899
 31
0.0
  0
LINE
  5
9F
330
92
100
AcDbEntity
  8
0
  6
Continuous
 62
     7
370
     0
100
AcDbLine
 10
9.7691201252
 20
3.5614768899
 30
0.0
 11
11.1839048327
 21
3.5614768899
 31
0.0
  0
LINE
  5
A0
330
92
100
AcDbEntity
  8
0
  6
Continuous
 62
     7
370
     0
100
AcDbLine
 10
15.7691201252
 20
3.5614768899
 30
0.0
 11
14.3543354176
 21
3.5614768899
 31
0.0
  0
MTEXT
  5
A1
330
92
100
AcDbEntity
  8
0
  6
Continuous
 62
     7
370
    18
100
AcDbMText
 10
12.1042416792
 20
4.3017112425
 30
0.0
 40
0.5
 41
0.0
 71
     1
 72
     1
  1
%%c
  7
SLDTEXTSTYLE0
 73
     1
 44
1.0
  0
MTEXT
  5
A2
330
92
100
AcDbEntity
  8
0
  6
Continuous
 62
     7
370
    18
100
AcDbMText
 10
12.8583041616
 20
4.3017112425
 30
0.0
 40
0.5
 41
0.0
 71
     1
 72
     1
  1
6"
  7
SLDTEXTSTYLE0
 73
     1
 44
1.0
  0
MTEXT
  5
A3
330
92
100
AcDbEntity
  8
0
  6
Continuous
 62
     7
370
    18
100
AcDbMText
 10
11.5899535103
 20
3.4063987227
 30
0.0
 40
0.5
 41
0.0
 71
     1
 72
     1
  1
152mm
  7
SLDTEXTSTYLE0
 73
     1
 44
1.0
  0
ENDBLK
  5
94
330
92
100
AcDbEntity
  8
0
100
AcDbBlockEnd
  0
BLOCK
  5
A7
330
A6
100
AcDbEntity
  8
0
100
AcDbBlockBegin
  2
_D_2
 70
     0
 10
0.0
 20
0.0
 30
0.0
  3
_D_2
  1

  0
SOLID
  5
A9
330
A6
100
AcDbEntity
  8
0
  6
Continuous
 62
     7
370
    18
100
AcDbTrace
 10
7.2494350858
 20
16.8862800395
 30
0.0
 11
7.1694350858
 21
16.3662800395
 31
0.0
 12
7.3294350858
 22
16.3662800395
 32
0.0
 13
7.3294350858
 23
16.3662800395
 33
0.0
  0
SOLID
  5
AA
330
A6
100
AcDbEntity
  8
0
  6
Continuous
 62
     7
370
    18
100
AcDbTrace
 10
7.2494350858
 20
17.1362800395
 30
0.0
 11
7.3294350858
 21
17.6562800395
 31
0.0
 12
7.1694350858
 22
17.6562800395
 32
0.0
 13
7.1694350858
 23
17.6562800395
 33
0.0
  0
LINE
  5
AB
330
A6
100
AcDbEntity
  8
0
  6
Continuous
 62
     7
370
     0
100
AcDbLine
 10
3.8364974119
 20
19.1667871699
 30
0.0
 11
3.6841536635
 21
19.1667871699
 31
0.0
  0
LINE
  5
AC
330
A6
100
AcDbEntity
  8
0
  6
Continuous
 62
     7
370
     0
100
AcDbLine
 10
3.6841536635
 20
19.1667871699
 30
0.0
 11
3.6841536635
 21
18.373037146
 31
0.0
  0
LINE
  5
AD
330
A6
100
AcDbEntity
  8
0
  6
Continuous
 62
     7
370
     0
100
AcDbLine
 10
3.6841536635
 20
18.373037146
 30
0.0
 11
3.8364974119
 21
18.373037146
 31
0.0
  0
LINE
  5
AE
330
A6
100
AcDbEntity
  8
0
  6
Continuous
 62
     7
370
     0
100
AcDbLine
 10
5.4559418239
 20
19.1667871699
 30
0.0
 11
5.6082855724
 21
19.1667871699
 31
0.0
  0
LINE
  5
AF
330
A6
100
AcDbEntity
  8
0
  6
Continuous
 62
     7
370
     0
100
AcDbLine
 10
5.6082855724
 20
19.1667871699
 30
0.0
 11
5.6082855724
 21
18.373037146
 31
0.0
  0
LINE
  5
B0
330
A6
100
AcDbEntity
  8
0
  6
Continuous
 62
     7
370
     0
100
AcDbLine
 10
5.6082855724
 20
18.373037146
 30
0.0
 11
5.4559418239
 21
18.373037146
 31
0.0
  0
LINE
  5
B1
330
A6
100
AcDbEntity
  8
0
  6
Continuous
 62
     7
370
     0
100
AcDbLine
 10
15.5691201252
 20
16.8862800395
 30
0.0
 11
6.7494350858
 21
16.8862800395
 31
0.0
  0
LINE
  5
B2
330
A6
100
AcDbEntity
  8
0
  6
Continuous
 62
     7
370
     0
100
AcDbLine
 10
15.5691201252
 20
17.1362800395
 30
0.0
 11
6.7494350858
 21
17.1362800395
 31
0.0
  0
LINE
  5
B3
330
A6
100
AcDbEntity
  8
0
  6
Continuous
 62
     7
370
     0
100
AcDbLine
 10
6.2494350858
 20
19.1706066925
 30
0.0
 11
7.2494350858
 21
19.1706066925
 31
0.0
  0
LINE
  5
B4
330
A6
100
AcDbEntity
  8
0
  6
Continuous
 62
     7
370
     0
100
AcDbLine
 10
7.2494350858
 20
19.1706066925
 30
0.0
 11
7.2494350858
 21
17.1362800395
 31
0.0
  0
LINE
  5
B5
330
A6
100
AcDbEntity
  8
0
  6
Continuous
 62
     7
370
     0
100
AcDbLine
 10
7.2494350858
 20
16.8862800395
 30
0.0
 11
7.2494350858
 21
15.8862800395
 31
0.0
  0
MTEXT
  5
B6
330
A6
100
AcDbEntity
  8
0
  6
Continuous
 62
     7
370
    18
100
AcDbMText
 10
3.3470876923
 20
19.9146604851
 30
0.0
 40
0.5
 41
0.0
 71
     1
 72
     1
  1
 
  7
SLDTEXTSTYLE0
 73
     1
 44
1.0
  0
MTEXT
  5
B7
330
A6
100
AcDbEntity
  8
0
  6
Continuous
 62
     7
370
    18
100
AcDbMText
 10
4.0278167718
 20
19.9070215592
 30
0.0
 40
0.5
 41
0.0
 71
     1
 72
     1
  1
1/4"
  7
SLDTEXTSTYLE0
 73
     1
 44
1.0
  0
MTEXT
  5
B8
330
A6
100
AcDbEntity
  8
0
  6
Continuous
 62
     7
370
    18
100
AcDbMText
 10
3.8364974119
 20
19.011709076
 30
0.0
 40
0.5
 41
0.0
 71
     1
 72
     1
  1
6mm
  7
SLDTEXTSTYLE0
 73
     1
 44
1.0
  0
MTEXT
  5
B9
330
A6
100
AcDbEntity
  8
0
  6
Continuous
 62
     7
370
    18
100
AcDbMText
 10
5.7606292108
 20
19.9146604851
 30
0.0
 40
0.5
 41
0.0
 71
     1
 72
     1
  1
 
  7
SLDTEXTSTYLE0
 73
     1
 44
1.0
  0
ENDBLK
  5
A8
330
A6
100
AcDbEntity
  8
0
100
AcDbBlockEnd
  0
BLOCK
  5
39C
330
39B
100
AcDbEntity
  8
0
100
AcDbBlockBegin
  2
_D_3
 70
     0
 10
0.0
 20
0.0
 30
0.0
  3
_D_3
  1

  0
SOLID
  5
39E
330
39B
100
AcDbEntity
  8
0
  6
Continuous
 62
     7
370
    18
100
AcDbTrace
 10
9.9673492698
 20
26.4470699926
 30
0.0
 11
9.5103067978
 21
26.7076696451
 31
0.0
 12
9.4531111785
 22
26.5582418661
 32
0.0
 13
9.4531111785
 23
26.5582418661
 33
0.0
  0
LINE
  5
39F
330
39B
100
AcDbEntity
  8
0
  6
Continuous
 62
     7
370
     0
100
AcDbLine
 10
4.3011124324
 20
27.2138295339
 30
0.0
 11
4.148768684
 21
27.2138295339
 31
0.0
  0
LINE
  5
3A0
330
39B
100
AcDbEntity
  8
0
  6
Continuous
 62
     7
370
     0
100
AcDbLine
 10
4.148768684
 20
27.2138295339
 30
0.0
 11
4.148768684
 21
26.4200795101
 31
0.0
  0
LINE
  5
3A1
330
39B
100
AcDbEntity
  8
0
  6
Continuous
 62
     7
370
     0
100
AcDbLine
 10
4.148768684
 20
26.4200795101
 30
0.0
 11
4.3011124324
 21
26.4200795101
 31
0.0
  0
LINE
  5
3A2
330
39B
100
AcDbEntity
  8
0
  6
Continuous
 62
     7
370
     0
100
AcDbLine
 10
6.6594457354
 20
27.2138295339
 30
0.0
 11
6.8117894839
 21
27.2138295339
 31
0.0
  0
LINE
  5
3A3
330
39B
100
AcDbEntity
  8
0
  6
Continuous
 62
     7
370
     0
100
AcDbLine
 10
6.8117894839
 20
27.2138295339
 30
0.0
 11
6.8117894839
 21
26.4200795101
 31
0.0
  0
LINE
  5
3A4
330
39B
100
AcDbEntity
  8
0
  6
Continuous
 62
     7
370
     0
100
AcDbLine
 10
6.8117894839
 20
26.4200795101
 30
0.0
 11
6.6594457354
 21
26.4200795101
 31
0.0
  0
LINE
  5
3A5
330
39B
100
AcDbEntity
  8
0
  6
Continuous
 62
     7
370
     0
100
AcDbLine
 10
9.9673492698
 20
26.4470699926
 30
0.0
 11
7.964133159
 21
27.2138296073
 31
0.0
  0
LINE
  5
3A6
330
39B
100
AcDbEntity
  8
0
  6
Continuous
 62
     7
370
     0
100
AcDbLine
 10
7.964133159
 20
27.2138296073
 30
0.0
 11
6.964133159
 21
27.2138296073
 31
0.0
  0
MTEXT
  5
3A7
330
39B
100
AcDbEntity
  8
0
  6
Continuous
 62
     7
370
    18
100
AcDbMText
 10
4.8154006013
 20
27.9540639598
 30
0.0
 40
0.5
 41
0.0
 71
     1
 72
     1
  1
%%c
  7
SLDTEXTSTYLE0
 73
     1
 44
1.0
  0
MTEXT
  5
3A8
330
39B
100
AcDbEntity
  8
0
  6
Continuous
 62
     7
370
    18
100
AcDbMText
 10
5.5694630837
 20
27.9540639598
 30
0.0
 40
0.5
 41
0.0
 71
     1
 72
     1
  1
6"
  7
SLDTEXTSTYLE0
 73
     1
 44
1.0
  0
MTEXT
  5
3A9
330
39B
100
AcDbEntity
  8
0
  6
Continuous
 62
     7
370
    18
100
AcDbMText
 10
4.3011124324
 20
27.0587514401
 30
0.0
 40
0.5
 41
0.0
 71
     1
 72
     1
  1
152mm
  7
SLDTEXTSTYLE0
 73
     1
 44
1.0
  0
ENDBLK
  5
39D
330
39B
100
AcDbEntity
  8
0
100
AcDbBlockEnd
  0
BLOCK
  5
3AC
330
3AB
100
AcDbEntity
  8
0
100
AcDbBlockBegin
  2
_D_4
 70
     0
 10
0.0
 20
0.0
 30
0.0
  3
_D_4
  1

  0
SOLID
  5
3AE
330
3AB
100
AcDbEntity
  8
0
  6
Continuous
 62
     7
370
    18
100
AcDbTrace
 10
13.5398827345
 20
25.8196521292
 30
0.0
 11
14.0302159445
 21
26.0103700969
 31
0.0
 12
13.9502159445
 22
26.1489341615
 32
0.0
 13
13.9502159445
 23
26.1489341615
 33
0.0
  0
LINE
  5
3AF
330
3AB
100
AcDbEntity
  8
0
  6
Continuous
 62
     7
370
     0
100
AcDbLine
 10
17.2593564582
 20
27.2138295339
 30
0.0
 11
17.1070127098
 21
27.2138295339
 31
0.0
  0
LINE
  5
3B0
330
3AB
100
AcDbEntity
  8
0
  6
Continuous
 62
     7
370
     0
100
AcDbLine
 10
17.1070127098
 20
27.2138295339
 30
0.0
 11
17.1070127098
 21
26.4200795101
 31
0.0
  0
LINE
  5
3B1
330
3AB
100
AcDbEntity
  8
0
  6
Continuous
 62
     7
370
     0
100
AcDbLine
 10
17.1070127098
 20
26.4200795101
 30
0.0
 11
17.2593564582
 21
26.4200795101
 31
0.0
  0
LINE
  5
3B2
330
3AB
100
AcDbEntity
  8
0
  6
Continuous
 62
     7
370
     0
100
AcDbLine
 10
19.2482453891
 20
27.2138295339
 30
0.0
 11
19.4005891375
 21
27.2138295339
 31
0.0
  0
LINE
  5
3B3
330
3AB
100
AcDbEntity
  8
0
  6
Continuous
 62
     7
370
     0
100
AcDbLine
 10
19.4005891375
 20
27.2138295339
 30
0.0
 11
19.4005891375
 21
26.4200795101
 31
0.0
  0
LINE
  5
3B4
330
3AB
100
AcDbEntity
  8
0
  6
Continuous
 62
     7
370
     0
100
AcDbLine
 10
19.4005891375
 20
26.4200795101
 30
0.0
 11
19.2482453891
 21
26.4200795101
 31
0.0
  0
LINE
  5
3B5
330
3AB
100
AcDbEntity
  8
0
  6
Continuous
 62
     7
370
     0
100
AcDbLine
 10
13.5398827345
 20
25.8196521292
 30
0.0
 11
15.9546689613
 21
27.2138296073
 31
0.0
  0
LINE
  5
3B6
330
3AB
100
AcDbEntity
  8
0
  6
Continuous
 62
     7
370
     0
100
AcDbLine
 10
15.9546689613
 20
27.2138296073
 30
0.0
 11
16.9546689613
 21
27.2138296073
 31
0.0
  0
MTEXT
  5
3B7
330
3AB
100
AcDbEntity
  8
0
  6
Continuous
 62
     7
370
    18
100
AcDbMText
 10
16.9812835205
 20
27.9540639598
 30
0.0
 40
0.5
 41
0.0
 71
     1
 72
     1
  1
%%c
  7
SLDTEXTSTYLE0
 73
     1
 44
1.0
  0
MTEXT
  5
3B8
330
3AB
100
AcDbEntity
  8
0
  6
Continuous
 62
     7
370
    18
100
AcDbMText
 10
17.7353460029
 20
27.9540639598
 30
0.0
 40
0.5
 41
0.0
 71
     1
 72
     1
  1
1 3/4"
  7
SLDTEXTSTYLE0
 73
     1
 44
1.0
  0
MTEXT
  5
3B9
330
3AB
100
AcDbEntity
  8
0
  6
Continuous
 62
     7
370
    18
100
AcDbMText
 10
17.2593564582
 20
27.0587514401
 30
0.0
 40
0.5
 41
0.0
 71
     1
 72
     1
  1
45mm
  7
SLDTEXTSTYLE0
 73
     1
 44
1.0
  0
ENDBLK
  5
3AD
330
3AB
100
AcDbEntity
  8
0
100
AcDbBlockEnd
  0
ENDSEC
  0
SECTION
  2
ENTITIES
  0
LINE
  5
6E
330
1F
100
AcDbEntity
  8
0
  6
Continuous
 62
     7
370
    25
100
AcDbLine
 10
9.7691201252
 20
16.8862800395
 30
0.0
 11
9.7691201252
 21
5.1362800395
 31
0.0
  0
LINE
  5
6F
330
1F
100
AcDbEntity
  8
0
  6
Continuous
 62
     7
370
    25
100
AcDbLine
 10
15.7691201252
 20
5.1362800395
 30
0.0
 11
15.7691201252
 21
16.8862800395
 31
0.0
  0
LINE
  5
70
330
1F
100
AcDbEntity
  8
0
  6
Continuous
 62
     7
370
    25
100
AcDbLine
 10
15.7691201252
 20
16.8862800395
 30
0.0
 11
15.7691201252
 21
17.1362800395
 31
0.0
  0
LINE
  5
71
330
1F
100
AcDbEntity
  8
0
  6
Continuous
 62
     7
370
    25
100
AcDbLine
 10
9.7691201252
 20
17.1362800395
 30
0.0
 11
9.7691201252
 21
16.8862800395
 31
0.0
  0
LINE
  5
72
330
1F
100
AcDbEntity
  8
0
  6
Continuous
 62
     7
370
    25
100
AcDbLine
 10
14.7066201252
 20
17.1412800395
 30
0.0
 11
14.7066201252
 21
17.1362800395
 31
0.0
  0
LINE
  5
73
330
1F
100
AcDbEntity
  8
0
  6
Continuous
 62
     7
370
    25
100
AcDbLine
 10
15.2066201252
 20
17.1362800395
 30
0.0
 11
15.2066201252
 21
17.1412800395
 31
0.0
  0
LINE
  5
74
330
1F
100
AcDbEntity
  8
0
  6
Continuous
 62
     7
370
    25
100
AcDbLine
 10
10.3316201252
 20
17.1412800395
 30
0.0
 11
10.3316201252
 21
17.1362800395
 31
0.0
  0
LINE
  5
75
330
1F
100
AcDbEntity
  8
0
  6
Continuous
 62
     7
370
    25
100
AcDbLine
 10
10.8316201252
 20
17.1362800395
 30
0.0
 11
10.8316201252
 21
17.1412800395
 31
0.0
  0
LINE
  5
76
330
1F
100
AcDbEntity
  8
0
  6
Continuous
 62
     7
370
    25
100
AcDbLine
 10
15.7691201252
 20
16.8862800395
 30
0.0
 11
9.7691201252
 21
16.8862800395
 31
0.0
  0
LINE
  5
77
330
1F
100
AcDbEntity
  8
0
  6
Continuous
 62
     7
370
    25
100
AcDbLine
 10
15.7691201252
 20
5.1362800395
 30
0.0
 11
9.7691201252
 21
5.1362800395
 31
0.0
  0
LINE
  5
78
330
1F
100
AcDbEntity
  8
0
  6
Continuous
 62
     7
370
    25
100
AcDbLine
 10
9.7691201252
 20
17.1362800395
 30
0.0
 11
15.7691201252
 21
17.1362800395
 31
0.0
  0
LINE
  5
79
330
1F
100
AcDbEntity
  8
0
  6
Continuous
 62
     7
370
    25
100
AcDbLine
 10
14.7066201252
 20
17.1412800395
 30
0.0
 11
15.2066201252
 21
17.1412800395
 31
0.0
  0
LINE
  5
7A
330
1F
100
AcDbEntity
  8
0
  6
Continuous
 62
     7
370
    25
100
AcDbLine
 10
10.3316201252
 20
17.1412800395
 30
0.0
 11
10.8316201252
 21
17.1412800395
 31
0.0
  0
DIMENSION
  5
7B
330
1F
100
AcDbEntity
  8
0
  6
Continuous
 62
     7
370
    18
100
AcDbDimension
  2
_D
 10
18.2888051645
 20
5.1362800395
 30
0.0
 11
18.2888051645
 21
11.1387800395
 31
0.0
 70
   160
  1
<>
 71
     2
 42
-1.0
  3
SLDDIMSTYLE0
100
AcDbAlignedDimension
 13
10.8316201252
 23
17.1412800395
 33
0.0
 14
15.7691201252
 24
5.1362800395
 34
0.0
 50
90.0
100
AcDbRotatedDimension
  0
DIMENSION
  5
91
330
1F
100
AcDbEntity
  8
0
  6
Continuous
 62
     7
370
    18
100
AcDbDimension
  2
_D_1
 10
15.7691201252
 20
3.5614768899
 30
0.0
 11
12.7691201252
 21
3.5614768899
 31
0.0
 70
   160
  1
%%c<>
 71
     2
 42
-1.0
  3
SLDDIMSTYLE0
100
AcDbAlignedDimension
 13
9.7691201252
 23
5.1362800395
 33
0.0
 14
15.7691201252
 24
5.1362800395
 34
0.0
 50
0.0
100
AcDbRotatedDimension
  0
DIMENSION
  5
A4
330
1F
100
AcDbEntity
  8
0
  6
Continuous
 62
     7
370
    18
100
AcDbDimension
  2
_D_2
 10
7.2494350858
 20
17.1362800395
 30
0.0
 11
7.2494350858
 21
19.1706066925
 31
0.0
 70
   160
  1
<>
 71
     2
 42
-1.0
  3
SLDDIMSTYLE1
100
AcDbAlignedDimension
 13
15.7691201252
 23
16.8862800395
 33
0.0
 14
15.7691201252
 24
17.1362800395
 34
0.0
 50
90.0
100
AcDbRotatedDimension
  0
LINE
  5
BA
330
1F
100
AcDbEntity
  8
0
  6
Continuous
 62
     7
370
    25
100
AcDbLine
 10
33.4931540968
 20
29.151561122
 30
0.0
 11
33.4931540968
 21
19.5572065824
 31
0.0
  0
LINE
  5
BB
330
1F
100
AcDbEntity
  8
0
  6
Continuous
 62
     7
370
    25
100
AcDbLine
 10
39.4931540968
 20
19.5572065824
 30
0.0
 11
39.4931540968
 21
29.151561122
 31
0.0
  0
LINE
  5
BC
330
1F
100
AcDbEntity
  8
0
  6
Continuous
 62
     7
370
    25
100
AcDbLine
 10
39.4931540968
 20
29.151561122
 30
0.0
 11
39.4931540968
 21
29.355696325
 31
0.0
  0
LINE
  5
BD
330
1F
100
AcDbEntity
  8
0
  6
Continuous
 62
     7
370
    25
100
AcDbLine
 10
33.4931540968
 20
29.355696325
 30
0.0
 11
33.4931540968
 21
29.151561122
 31
0.0
  0
LINE
  5
BE
330
1F
100
AcDbEntity
  8
0
  6
Continuous
 62
     7
370
    25
100
AcDbLine
 10
35.5011174596
 20
28.7837941783
 30
0.0
 11
35.5011174596
 21
28.8164558108
 31
0.0
  0
LINE
  5
BF
330
1F
100
AcDbEntity
  8
0
  6
Continuous
 62
     7
370
    25
100
AcDbLine
 10
35.2300807214
 20
28.8089430161
 30
0.0
 11
35.2300807214
 21
28.7762813837
 31
0.0
  0
LINE
  5
C0
330
1F
100
AcDbEntity
  8
0
  6
Continuous
 62
     7
370
    25
100
AcDbLine
 10
35.0275750268
 20
28.998719938
 30
0.0
 11
35.0275750268
 21
28.9660583055
 31
0.0
  0
LINE
  5
C1
330
1F
100
AcDbEntity
  8
0
  6
Continuous
 62
     7
370
    25
100
AcDbLine
 10
37.7931540968
 20
29.3230346925
 30
0.0
 11
37.7931540968
 21
29.355696325
 31
0.0
  0
LINE
  5
C2
330
1F
100
AcDbEntity
  8
0
  6
Continuous
 62
     7
370
    25
100
AcDbLine
 10
38.0904906441
 20
29.3039194106
 30
0.0
 11
38.0904906441
 21
29.336581043
 31
0.0
  0
LINE
  5
C3
330
1F
100
AcDbEntity
  8
0
  6
Continuous
 62
     7
370
    25
100
AcDbLine
 10
37.3522706207
 20
29.9735654214
 30
0.0
 11
37.3522706207
 21
29.940903789
 31
0.0
  0
LINE
  5
C4
330
1F
100
AcDbEntity
  8
0
  6
Continuous
 62
     7
370
    25
100
AcDbLine
 10
37.620433794
 20
29.9555567549
 30
0.0
 11
37.620433794
 21
29.9882183874
 31
0.0
  0
LINE
  5
C5
330
1F
100
AcDbEntity
  8
0
  6
Continuous
 62
     7
370
    25
100
AcDbLine
 10
37.7899501806
 20
28.4668326567
 30
0.0
 11
37.7899501806
 21
28.4627499527
 31
0.0
  0
LINE
  5
C6
330
1F
100
AcDbEntity
  8
0
  6
Continuous
 62
     7
370
    25
100
AcDbLine
 10
38.2899501806
 20
28.4627499527
 30
0.0
 11
38.2899501806
 21
28.4668326567
 31
0.0
  0
LINE
  5
C7
330
1F
100
AcDbEntity
  8
0
  6
Continuous
 62
     7
370
    25
100
AcDbLine
 10
34.6963580129
 20
30.2527254013
 30
0.0
 11
34.6963580129
 21
30.2486426973
 31
0.0
  0
LINE
  5
C8
330
1F
100
AcDbEntity
  8
0
  6
Continuous
 62
     7
370
    25
100
AcDbLine
 10
35.1963580129
 20
30.2486426973
 30
0.0
 11
35.1963580129
 21
30.2527254013
 31
0.0
  0
LWPOLYLINE
  5
C9
330
1F
100
AcDbEntity
  8
0
  6
Continuous
 62
     7
370
    25
100
AcDbPolyline
 90
      106
 70
   128
 43
0.0
 10
39.4931540968
 20
29.151561122
 10
39.4917854502
 20
29.0992536116
 10
39.4876807595
 20
29.0469938281
 10
39.4808437696
 20
28.9948294551
 10
39.4712807191
 20
28.9428080889
 10
39.4590003334
 20
28.8909771955
 10
39.4440138176
 20
28.8393840669
 10
39.4263348459
 20
28.7880757783
 10
39.4059795491
 20
28.7370991451
 10
39.3829664999
 20
28.6865006798
 10
39.3573166963
 20
28.6363265501
 10
39.3290535419
 20
28.5866225364
 10
39.2982028248
 20
28.5374339902
 10
39.2647926943
 20
28.4888057926
 10
39.2288536348
 20
28.4407823136
 10
39.1904184381
 20
28.3934073712
 10
39.1495221737
 20
28.3467241918
 10
39.1062021568
 20
28.3007753706
 10
39.0604979137
 20
28.2556028326
 10
39.0124511465
 20
28.2112477949
 10
38.9621056945
 20
28.1677507281
 10
38.9095074944
 20
28.1251513205
 10
38.8547045386
 20
28.0834884411
 10
38.7977468309
 20
28.0428001043
 10
38.7386863413
 20
28.0031234354
 10
38.6775769584
 20
27.9644946367
 10
38.6144744403
 20
27.9269489543
 10
38.5494363638
 20
27.890520646
 10
38.4825220715
 20
27.8552429502
 10
38.4137926182
 20
27.8211480552
 10
38.3433107147
 20
27.7882670705
 10
38.2711406709
 20
27.7566299975
 10
38.197348337
 20
27.7262657029
 10
38.1220010434
 20
27.6972018921
 10
38.0451675393
 20
27.6694650838
 10
37.96691793
 20
27.6430805859
 10
37.8873236129
 20
27.6180724724
 10
37.8064572123
 20
27.5944635615
 10
37.7243925131
 20
27.5722753948
 10
37.6412043939
 20
27.5515282173
 10
37.5569687579
 20
27.5322409595
 10
37.4717624644
 20
27.5144312196
 10
37.3856632583
 20
27.4981152479
 10
37.2987496992
 20
27.4833079314
 10
37.2111010896
 20
27.470022781
 10
37.122797403
 20
27.4582719182
 10
37.0339192102
 20
27.4480660651
 10
36.9445476066
 20
27.4394145337
 10
36.8547641375
 20
27.4323252179
 10
36.7646507243
 20
27.4268045863
 10
36.674289589
 20
27.4228576761
 10
36.5837631802
 20
27.4204880886
 10
36.4931540968
 20
27.4196979858
 10
36.4025450134
 20
27.4204880886
 10
36.3120186045
 20
27.4228576761
 10
36.2216574693
 20
27.4268045863
 10
36.131544056
 20
27.4323252179
 10
36.041760587
 20
27.4394145337
 10
35.9523889833
 20
27.4480660651
 10
35.8635107906
 20
27.4582719182
 10
35.7752071039
 20
27.470022781
 10
35.6875584944
 20
27.4833079314
 10
35.6006449352
 20
27.4981152479
 10
35.5145457291
 20
27.5144312196
 10
35.4293394357
 20
27.5322409595
 10
35.3451037997
 20
27.5515282173
 10
35.2619156804
 20
27.5722753948
 10
35.1798509813
 20
27.5944635615
 10
35.0989845806
 20
27.6180724724
 10
35.0193902635
 20
27.6430805859
 10
34.9411406542
 20
27.6694650838
 10
34.8643071502
 20
27.6972018921
 10
34.7889598566
 20
27.7262657029
 10
34.7151675227
 20
27.7566299975
 10
34.6429974789
 20
27.7882670705
 10
34.5725155754
 20
27.8211480552
 10
34.5037861221
 20
27.8552429502
 10
34.4368718298
 20
27.890520646
 10
34.3718337532
 20
27.9269489543
 10
34.3087312352
 20
27.9644946367
 10
34.2476218523
 20
28.0031234354
 10
34.1885613627
 20
28.0428001043
 10
34.131603655
 20
28.0834884411
 10
34.0768006991
 20
28.1251513205
 10
34.0242024991
 20
28.1677507281
 10
33.9738570471
 20
28.2112477949
 10
33.9258102799
 20
28.2556028326
 10
33.8801060368
 20
28.3007753706
 10
33.8367860198
 20
28.3467241918
 10
33.7958897555
 20
28.3934073712
 10
33.7574545588
 20
28.4407823136
 10
33.7215154992
 20
28.4888057926
 10
33.6881053687
 20
28.5374339902
 10
33.6572546517
 20
28.5866225364
 10
33.6289914973
 20
28.6363265501
 10
33.6033416936
 20
28.6865006798
 10
33.5803286445
 20
28.7370991451
 10
33.5599733477
 20
28.7880757783
 10
33.5422943759
 20
28.8393840669
 10
33.5273078602
 20
28.8909771955
 10
33.5150274745
 20
28.9428080889
 10
33.5054644239
 20
28.9948294551
 10
33.4986274341
 20
29.0469938281
 10
33.4945227433
 20
29.0992536116
 10
33.4931540968
 20
29.151561122
 10
33.4931540968
 20
29.151561122
  0
LWPOLYLINE
  5
CA
330
1F
100
AcDbEntity
  8
0
  6
Continuous
 62
     7
370
    25
100
AcDbPolyline
 90
      106
 70
   128
 43
0.0
 10
39.4931540968
 20
19.5572065824
 10
39.4917854502
 20
19.5048990719
 10
39.4876807595
 20
19.4526392884
 10
39.4808437696
 20
19.4004749154
 10
39.4712807191
 20
19.3484535493
 10
39.4590003334
 20
19.2966226558
 10
39.4440138176
 20
19.2450295272
 10
39.4263348459
 20
19.1937212387
 10
39.4059795491
 20
19.1427446054
 10
39.3829664999
 20
19.0921461402
 10
39.3573166963
 20
19.0419720105
 10
39.3290535419
 20
18.9922679968
 10
39.2982028248
 20
18.9430794505
 10
39.2647926943
 20
18.894451253
 10
39.2288536348
 20
18.8464277739
 10
39.1904184381
 20
18.7990528315
 10
39.1495221737
 20
18.7523696521
 10
39.1062021568
 20
18.7064208309
 10
39.0604979137
 20
18.661248293
 10
39.0124511465
 20
18.6168932552
 10
38.9621056945
 20
18.5733961885
 10
38.9095074944
 20
18.5307967809
 10
38.8547045386
 20
18.4891339014
 10
38.7977468309
 20
18.4484455646
 10
38.7386863413
 20
18.4087688957
 10
38.6775769584
 20
18.370140097
 10
38.6144744403
 20
18.3325944146
 10
38.5494363638
 20
18.2961661063
 10
38.4825220715
 20
18.2608884105
 10
38.4137926182
 20
18.2267935156
 10
38.3433107147
 20
18.1939125308
 10
38.2711406709
 20
18.1622754578
 10
38.197348337
 20
18.1319111633
 10
38.1220010434
 20
18.1028473525
 10
38.0451675393
 20
18.0751105442
 10
37.96691793
 20
18.0487260462
 10
37.8873236129
 20
18.0237179327
 10
37.8064572123
 20
18.0001090219
 10
37.7243925131
 20
17.9779208551
 10
37.6412043939
 20
17.9571736777
 10
37.5569687579
 20
17.9378864198
 10
37.4717624644
 20
17.92007668
 10
37.3856632583
 20
17.9037607082
 10
37.2987496992
 20
17.8889533918
 10
37.2111010896
 20
17.8756682413
 10
37.122797403
 20
17.8639173786
 10
37.0339192102
 20
17.8537115254
 10
36.9445476066
 20
17.845059994
 10
36.8547641375
 20
17.8379706783
 10
36.7646507243
 20
17.8324500467
 10
36.674289589
 20
17.8285031365
 10
36.5837631802
 20
17.8261335489
 10
36.4931540968
 20
17.8253434461
 10
36.4025450134
 20
17.8261335489
 10
36.3120186045
 20
17.8285031365
 10
36.2216574693
 20
17.8324500467
 10
36.131544056
 20
17.8379706783
 10
36.041760587
 20
17.845059994
 10
35.9523889833
 20
17.8537115254
 10
35.8635107906
 20
17.8639173786
 10
35.7752071039
 20
17.8756682413
 10
35.6875584944
 20
17.8889533918
 10
35.6006449352
 20
17.9037607082
 10
35.5145457291
 20
17.92007668
 10
35.4293394357
 20
17.9378864198
 10
35.3451037997
 20
17.9571736777
 10
35.2619156804
 20
17.9779208551
 10
35.1798509813
 20
18.0001090219
 10
35.0989845806
 20
18.0237179327
 10
35.0193902635
 20
18.0487260462
 10
34.9411406542
 20
18.0751105442
 10
34.8643071502
 20
18.1028473525
 10
34.7889598566
 20
18.1319111633
 10
34.7151675227
 20
18.1622754578
 10
34.6429974789
 20
18.1939125308
 10
34.5725155754
 20
18.2267935156
 10
34.5037861221
 20
18.2608884105
 10
34.4368718298
 20
18.2961661063
 10
34.3718337532
 20
18.3325944146
 10
34.3087312352
 20
18.370140097
 10
34.2476218523
 20
18.4087688957
 10
34.1885613627
 20
18.4484455646
 10
34.131603655
 20
18.4891339014
 10
34.0768006991
 20
18.5307967809
 10
34.0242024991
 20
18.5733961885
 10
33.9738570471
 20
18.6168932552
 10
33.9258102799
 20
18.661248293
 10
33.8801060368
 20
18.7064208309
 10
33.8367860198
 20
18.7523696521
 10
33.7958897555
 20
18.7990528315
 10
33.7574545588
 20
18.8464277739
 10
33.7215154992
 20
18.894451253
 10
33.6881053687
 20
18.9430794505
 10
33.6572546517
 20
18.9922679968
 10
33.6289914973
 20
19.0419720105
 10
33.6033416936
 20
19.0921461402
 10
33.5803286445
 20
19.1427446054
 10
33.5599733477
 20
19.1937212387
 10
33.5422943759
 20
19.2450295272
 10
33.5273078602
 20
19.2966226558
 10
33.5150274745
 20
19.3484535493
 10
33.5054644239
 20
19.4004749154
 10
33.4986274341
 20
19.4526392884
 10
33.4945227433
 20
19.5048990719
 10
33.4931540968
 20
19.5572065824
 10
33.4931540968
 20
19.5572065824
  0
LWPOLYLINE
  5
CB
330
1F
100
AcDbEntity
  8
0
  6
Continuous
 62
     7
370
    25
100
AcDbPolyline
 90
      114
 70
   128
 43
0.0
 10
37.122479132
 20
28.9434022665
 10
37.0865319389
 20
28.9237733381
 10
37.048750649
 20
28.9053280261
 10
37.0092520419
 20
28.8881233438
 10
36.9681582056
 20
28.8722124699
 10
36.9255961589
 20
28.8576445841
 10
36.8816974585
 20
28.8444647148
 10
36.8365977928
 20
28.8327136003
 10
36.7904365624
 20
28.8224275625
 10
36.7433564489
 20
28.8136383951
 10
36.6955029743
 20
28.8063732648
 10
36.6470240509
 20
28.8006546278
 10
36.5980695243
 20
28.79650016
 10
36.5487907101
 20
28.7939227027
 10
36.4993399263
 20
28.7929302226
 10
36.4498700225
 20
28.7935257874
 10
36.4005339073
 20
28.7957075562
 10
36.3514840757
 20
28.7994687854
 10
36.3028721381
 20
28.8047978492
 10
36.2548483512
 20
28.8116782758
 10
36.2075611536
 20
28.8200887981
 10
36.1611567074
 20
28.8300034198
 10
36.1157784462
 20
28.8413914952
 10
36.0715666314
 20
28.8542178245
 10
36.0286579194
 20
28.8684427623
 10
35.9871849384
 20
28.8840223401
 10
35.9472758791
 20
28.9009084023
 10
35.9090540981
 20
28.9190487551
 10
35.8726377367
 20
28.9383873276
 10
35.8381393558
 20
28.9588643454
 10
35.8056655879
 20
28.9804165153
 10
35.7753168076
 20
29.0029772208
 10
35.7471868213
 20
29.0264767279
 10
35.721362577
 20
29.0508424011
 10
35.6979238961
 20
29.0759989274
 10
35.6769432262
 20
29.1018685496
 10
35.6584854173
 20
29.1283713059
 10
35.6426075215
 20
29.1554252781
 10
35.6293586163
 20
29.1829468437
 10
35.6187796535
 20
29.2108509352
 10
35.610903332
 20
29.2390513026
 10
35.6057539971
 20
29.2674607803
 10
35.603347565
 20
29.2959915562
 10
35.6036914739
 20
29.3245554432
 10
35.6067846608
 20
29.353064152
 10
35.6126175649
 20
29.3814295639
 10
35.6211721568
 20
29.409564003
 10
35.632421995
 20
29.4373805073
 10
35.6463323068
 20
29.4647930976
 10
35.6628600963
 20
29.4917170432
 10
35.6819542768
 20
29.5180691237
 10
35.7035558296
 20
29.5437678864
 10
35.7275979853
 20
29.5687338977
 10
35.7540064311
 20
29.5928899893
 10
35.78269954
 20
29.616161496
 10
35.8135886232
 20
29.638476487
 10
35.8465782044
 20
29.6597659878
 10
35.8815663146
 20
29.6799641939
 10
35.9184448075
 20
29.6990086737
 10
35.9570996939
 20
29.7168405619
 10
35.9974114938
 20
29.7334047411
 10
36.0392556057
 20
29.7486500123
 10
36.0825026917
 20
29.7625292534
 10
36.1270190778
 20
29.7749995644
 10
36.1726671662
 20
29.7860224002
 10
36.2193058613
 20
29.7955636899
 10
36.2667910056
 20
29.803593942
 10
36.3149758253
 20
29.8100883354
 10
36.3637113838
 20
29.8150267962
 10
36.4128470423
 20
29.81839406
 10
36.4622309253
 20
29.8201797188
 10
36.5117103901
 20
29.8203782532
 10
36.5611324984
 20
29.8189890495
 10
36.6103444894
 20
29.8160164017
 10
36.6591942516
 20
29.8114694981
 10
36.7075307932
 20
29.8053623929
 10
36.7552047087
 20
29.7977139628
 10
36.8020686408
 20
29.7885478486
 10
36.8479777357
 20
29.7778923823
 10
36.8927900911
 20
29.7657804994
 10
36.9363671945
 20
29.7522496369
 10
36.9785743517
 20
29.737341618
 10
37.0192811027
 20
29.7211025226
 10
37.0583616252
 20
29.7035825446
 10
37.0956951237
 20
29.6848358375
 10
37.1311662023
 20
29.6649203461
 10
37.1646652222
 20
29.6438976282
 10
37.1960886396
 20
29.6218326636
 10
37.2253393266
 20
29.5987936541
 10
37.252326871
 20
29.5748518118
 10
37.2769678559
 20
29.5500811396
 10
37.2991861174
 20
29.5245582022
 10
37.3189129801
 20
29.4983618896
 10
37.3360874695
 20
29.471573173
 10
37.3506565
 20
29.4442748549
 10
37.3625750398
 20
29.4165513128
 10
37.3718062493
 20
29.3884882386
 10
37.3783215953
 20
29.3601723736
 10
37.3821009393
 20
29.3316912405
 10
37.3831325996
 20
29.3031328729
 10
37.3814133873
 20
29.2745855431
 10
37.3769486165
 20
29.2461374892
 10
37.3697520874
 20
29.2178766425
 10
37.3598460442
 20
29.1898903557
 10
37.3472611059
 20
29.1622651328
 10
37.3320361717
 20
29.1350863618
 10
37.3142183011
 20
29.1084380507
 10
37.2938625681
 20
29.082402568
 10
37.2710318911
 20
29.0570603876
 10
37.2457968385
 20
29.0324898411
 10
37.2182354102
 20
29.0087668743
 10
37.1884327972
 20
28.9859648138
 10
37.1564811175
 20
28.9641541394
 10
37.122479132
 20
28.9434022665
  0
LWPOLYLINE
  5
CC
330
1F
100
AcDbEntity
  8
0
  6
Continuous
 62
     7
370
    25
100
AcDbPolyline
 90
       56
 70
   128
 43
0.0
 10
35.6059684485
 20
29.2658768357
 10
35.6067846608
 20
29.2714100708
 10
35.6126175649
 20
29.2997754827
 10
35.6211721568
 20
29.3279099218
 10
35.632421995
 20
29.3557264261
 10
35.6463323068
 20
29.3831390164
 10
35.6628600963
 20
29.410062962
 10
35.6819542768
 20
29.4364150425
 10
35.7035558296
 20
29.4621138052
 10
35.7275979853
 20
29.4870798165
 10
35.7540064311
 20
29.5112359081
 10
35.78269954
 20
29.5345074148
 10
35.8135886232
 20
29.5568224058
 10
35.8465782044
 20
29.5781119066
 10
35.8815663146
 20
29.5983101127
 10
35.9184448075
 20
29.6173545925
 10
35.9570996939
 20
29.6351864807
 10
35.9974114938
 20
29.6517506599
 10
36.0392556057
 20
29.6669959311
 10
36.0825026917
 20
29.6808751722
 10
36.1270190778
 20
29.6933454832
 10
36.1726671662
 20
29.704368319
 10
36.2193058613
 20
29.7139096087
 10
36.2667910056
 20
29.7219398608
 10
36.3149758253
 20
29.7284342542
 10
36.3637113838
 20
29.733372715
 10
36.4128470423
 20
29.7367399788
 10
36.4622309253
 20
29.7385256376
 10
36.5117103901
 20
29.738724172
 10
36.5611324984
 20
29.7373349683
 10
36.6103444894
 20
29.7343623205
 10
36.6591942516
 20
29.7298154169
 10
36.7075307932
 20
29.7237083117
 10
36.7552047087
 20
29.7160598816
 10
36.8020686408
 20
29.7068937674
 10
36.8479777357
 20
29.6962383011
 10
36.8927900911
 20
29.6841264182
 10
36.9363671945
 20
29.6705955557
 10
36.9785743517
 20
29.6556875368
 10
37.0192811027
 20
29.6394484414
 10
37.0583616252
 20
29.6219284634
 10
37.0956951237
 20
29.6031817563
 10
37.1311662023
 20
29.5832662649
 10
37.1646652222
 20
29.562243547
 10
37.1960886396
 20
29.5401785824
 10
37.2253393266
 20
29.5171395729
 10
37.252326871
 20
29.4931977306
 10
37.2769678559
 20
29.4684270584
 10
37.2991861174
 20
29.442904121
 10
37.3189129801
 20
29.4167078084
 10
37.3360874695
 20
29.3899190918
 10
37.3506565
 20
29.3626207737
 10
37.3625750398
 20
29.3348972316
 10
37.3718062493
 20
29.3068341574
 10
37.3783215953
 20
29.2785182924
 10
37.380339745
 20
29.2658768357
  0
LWPOLYLINE
  5
CD
330
1F
100
AcDbEntity
  8
0
  6
Continuous
 62
     7
370
    25
100
AcDbPolyline
 90
      209
 70
   128
 43
0.0
 10
38.6144744403
 20
28.1310841572
 10
38.6775769584
 20
28.1686298397
 10
38.7386863413
 20
28.2072586384
 10
38.7977468309
 20
28.2469353072
 10
38.8547045386
 20
28.287623644
 10
38.9095074944
 20
28.3292865235
 10
38.9621056945
 20
28.3718859311
 10
39.0124511465
 20
28.4153829978
 10
39.0604979137
 20
28.4597380356
 10
39.1062021568
 20
28.5049105735
 10
39.1495221737
 20
28.5508593948
 10
39.1904184381
 20
28.5975425742
 10
39.2288536348
 20
28.6449175166
 10
39.2647926943
 20
28.6929409956
 10
39.2982028248
 20
28.7415691932
 10
39.3290535419
 20
28.7907577394
 10
39.3573166963
 20
28.8404617531
 10
39.3829664999
 20
28.8906358828
 10
39.4059795491
 20
28.9412343481
 10
39.4263348459
 20
28.9922109813
 10
39.4440138176
 20
29.0435192699
 10
39.4590003334
 20
29.0951123984
 10
39.4712807191
 20
29.1469432919
 10
39.4808437696
 20
29.1989646581
 10
39.4876807595
 20
29.2511290311
 10
39.4917854502
 20
29.3033888145
 10
39.4931540968
 20
29.355696325
 10
39.4917854502
 20
29.4080038354
 10
39.4876807595
 20
29.4602636189
 10
39.4808437696
 20
29.5124279919
 10
39.4712807191
 20
29.5644493581
 10
39.4590003334
 20
29.6162802515
 10
39.4440138176
 20
29.6678733801
 10
39.4263348459
 20
29.7191816686
 10
39.4059795491
 20
29.7701583019
 10
39.3829664999
 20
29.8207567672
 10
39.3573166963
 20
29.8709308969
 10
39.3290535419
 20
29.9206349106
 10
39.2982028248
 20
29.9698234568
 10
39.2647926943
 20
30.0184516544
 10
39.2288536348
 20
30.0664751334
 10
39.1904184381
 20
30.1138500758
 10
39.1495221737
 20
30.1605332552
 10
39.1062021568
 20
30.2064820764
 10
39.0604979137
 20
30.2516546143
 10
39.0124511465
 20
30.2960096521
 10
38.9621056945
 20
30.3395067189
 10
38.9095074944
 20
30.3821061265
 10
38.8547045386
 20
30.4237690059
 10
38.7977468309
 20
30.4644573427
 10
38.7386863413
 20
30.5041340116
 10
38.6775769584
 20
30.5427628103
 10
38.6144744403
 20
30.5803084927
 10
38.5494363638
 20
30.616736801
 10
38.4825220715
 20
30.6520144968
 10
38.4137926182
 20
30.6861093918
 10
38.3433107147
 20
30.7189903765
 10
38.2711406709
 20
30.7506274495
 10
38.197348337
 20
30.7809917441
 10
38.1220010434
 20
30.8100555549
 10
38.0451675393
 20
30.8377923632
 10
37.96691793
 20
30.8641768611
 10
37.8873236129
 20
30.8891849746
 10
37.8064572123
 20
30.9127938855
 10
37.7243925131
 20
30.9349820522
 10
37.6412043939
 20
30.9557292297
 10
37.5569687579
 20
30.9750164875
 10
37.4717624644
 20
30.9928262274
 10
37.3856632583
 20
31.0091421991
 10
37.2987496992
 20
31.0239495155
 10
37.2111010896
 20
31.037234666
 10
37.122797403
 20
31.0489855288
 10
37.0339192102
 20
31.0591913819
 10
36.9445476066
 20
31.0678429133
 10
36.8547641375
 20
31.0749322291
 10
36.7646507243
 20
31.0804528606
 10
36.674289589
 20
31.0843997709
 10
36.5837631802
 20
31.0867693584
 10
36.4931540968
 20
31.0875594612
 10
36.4025450134
 20
31.0867693584
 10
36.3120186045
 20
31.0843997709
 10
36.2216574693
 20
31.0804528606
 10
36.131544056
 20
31.0749322291
 10
36.041760587
 20
31.0678429133
 10
35.9523889833
 20
31.0591913819
 10
35.8635107906
 20
31.0489855288
 10
35.7752071039
 20
31.037234666
 10
35.6875584944
 20
31.0239495155
 10
35.6006449352
 20
31.0091421991
 10
35.5145457291
 20
30.9928262274
 10
35.4293394357
 20
30.9750164875
 10
35.3451037997
 20
30.9557292297
 10
35.2619156804
 20
30.9349820522
 10
35.1798509813
 20
30.9127938855
 10
35.0989845806
 20
30.8891849746
 10
35.0193902635
 20
30.8641768611
 10
34.9411406542
 20
30.8377923632
 10
34.8643071502
 20
30.8100555549
 10
34.7889598566
 20
30.7809917441
 10
34.7151675227
 20
30.7506274495
 10
34.6429974789
 20
30.7189903765
 10
34.5725155754
 20
30.6861093918
 10
34.5037861221
 20
30.6520144968
 10
34.4368718298
 20
30.616736801
 10
34.3718337532
 20
30.5803084927
 10
34.3087312352
 20
30.5427628103
 10
34.2476218523
 20
30.5041340116
 10
34.1885613627
 20
30.4644573427
 10
34.131603655
 20
30.4237690059
 10
34.0768006991
 20
30.3821061265
 10
34.0242024991
 20
30.3395067189
 10
33.9738570471
 20
30.2960096521
 10
33.9258102799
 20
30.2516546143
 10
33.8801060368
 20
30.2064820764
 10
33.8367860198
 20
30.1605332552
 10
33.7958897555
 20
30.1138500758
 10
33.7574545588
 20
30.0664751334
 10
33.7215154992
 20
30.0184516544
 10
33.6881053687
 20
29.9698234568
 10
33.6572546517
 20
29.9206349106
 10
33.6289914973
 20
29.8709308969
 10
33.6033416936
 20
29.8207567672
 10
33.5803286445
 20
29.7701583019
 10
33.5599733477
 20
29.7191816686
 10
33.5422943759
 20
29.6678733801
 10
33.5273078602
 20
29.6162802515
 10
33.5150274745
 20
29.5644493581
 10
33.5054644239
 20
29.5124279919
 10
33.4986274341
 20
29.4602636189
 10
33.4945227433
 20
29.4080038354
 10
33.4931540968
 20
29.355696325
 10
33.4945227433
 20
29.3033888145
 10
33.4986274341
 20
29.2511290311
 10
33.5054644239
 20
29.1989646581
 10
33.5150274745
 20
29.1469432919
 10
33.5273078602
 20
29.0951123984
 10
33.5422943759
 20
29.0435192699
 10
33.5599733477
 20
28.9922109813
 10
33.5803286445
 20
28.9412343481
 10
33.6033416936
 20
28.8906358828
 10
33.6289914973
 20
28.8404617531
 10
33.6572546517
 20
28.7907577394
 10
33.6881053687
 20
28.7415691932
 10
33.7215154992
 20
28.6929409956
 10
33.7574545588
 20
28.6449175166
 10
33.7958897555
 20
28.5975425742
 10
33.8367860198
 20
28.5508593948
 10
33.8801060368
 20
28.5049105735
 10
33.9258102799
 20
28.4597380356
 10
33.9738570471
 20
28.4153829978
 10
34.0242024991
 20
28.3718859311
 10
34.0768006991
 20
28.3292865235
 10
34.131603655
 20
28.287623644
 10
34.1885613627
 20
28.2469353072
 10
34.2476218523
 20
28.2072586384
 10
34.3087312352
 20
28.1686298397
 10
34.3718337532
 20
28.1310841572
 10
34.4368718298
 20
28.094655849
 10
34.5037861221
 20
28.0593781531
 10
34.5725155754
 20
28.0252832582
 10
34.6429974789
 20
27.9924022734
 10
34.7151675227
 20
27.9607652005
 10
34.7889598566
 20
27.9304009059
 10
34.8643071502
 20
27.9013370951
 10
34.9411406542
 20
27.8736002868
 10
35.0193902635
 20
27.8472157889
 10
35.0989845806
 20
27.8222076754
 10
35.1798509813
 20
27.7985987645
 10
35.2619156804
 20
27.7764105978
 10
35.3451037997
 20
27.7556634203
 10
35.4293394357
 20
27.7363761625
 10
35.5145457291
 20
27.7185664226
 10
35.6006449352
 20
27.7022504509
 10
35.6875584944
 20
27.6874431344
 10
35.7752071039
 20
27.6741579839
 10
35.8635107906
 20
27.6624071212
 10
35.9523889833
 20
27.6522012681
 10
36.041760587
 20
27.6435497366
 10
36.131544056
 20
27.6364604209
 10
36.2216574693
 20
27.6309397893
 10
36.3120186045
 20
27.6269928791
 10
36.4025450134
 20
27.6246232916
 10
36.4931540968
 20
27.6238331887
 10
36.5837631802
 20
27.6246232916
 10
36.674289589
 20
27.6269928791
 10
36.7646507243
 20
27.6309397893
 10
36.8547641375
 20
27.6364604209
 10
36.9445476066
 20
27.6435497366
 10
37.0339192102
 20
27.6522012681
 10
37.122797403
 20
27.6624071212
 10
37.2111010896
 20
27.6741579839
 10
37.2987496992
 20
27.6874431344
 10
37.3856632583
 20
27.7022504509
 10
37.4717624644
 20
27.7185664226
 10
37.5569687579
 20
27.7363761625
 10
37.6412043939
 20
27.7556634203
 10
37.7243925131
 20
27.7764105978
 10
37.8064572123
 20
27.7985987645
 10
37.8873236129
 20
27.8222076754
 10
37.96691793
 20
27.8472157889
 10
38.0451675393
 20
27.8736002868
 10
38.1220010434
 20
27.9013370951
 10
38.197348337
 20
27.9304009059
 10
38.2711406709
 20
27.9607652005
 10
38.3433107147
 20
27.9924022734
 10
38.4137926182
 20
28.0252832582
 10
38.4825220715
 20
28.0593781531
 10
38.5494363638
 20
28.094655849
 10
38.6144744403
 20
28.1310841572
  0
LWPOLYLINE
  5
CE
330
1F
100
AcDbEntity
  8
0
  6
Continuous
 62
     7
370
    25
100
AcDbPolyline
 90
      125
 70
   128
 43
0.0
 10
37.2462228187
 20
28.9209590054
 10
37.2833985653
 20
28.9435360716
 10
37.3185457656
 20
28.9671711472
 10
37.3515741974
 20
28.9918035613
 10
37.382399077
 20
29.017370083
 10
37.4109412776
 20
29.0438050832
 10
37.4371275316
 20
29.0710407038
 10
37.4608906193
 20
29.0990070313
 10
37.4821695413
 20
29.1276322766
 10
37.5009096748
 20
29.156842959
 10
37.5170629142
 20
29.1865640951
 10
37.5305877944
 20
29.2167193912
 10
37.5414495971
 20
29.2472314391
 10
37.5496204403
 20
29.2780219149
 10
37.5550793496
 20
29.3090117797
 10
37.557812312
 20
29.3401214831
 10
37.557812312
 20
29.3712711669
 10
37.5550793496
 20
29.4023808703
 10
37.5496204403
 20
29.4333707351
 10
37.5414495971
 20
29.4641612108
 10
37.5305877944
 20
29.4946732587
 10
37.5170629142
 20
29.5248285549
 10
37.5009096748
 20
29.554549691
 10
37.4821695413
 20
29.5837603734
 10
37.4608906193
 20
29.6123856186
 10
37.4371275316
 20
29.6403519461
 10
37.4109412776
 20
29.6675875667
 10
37.382399077
 20
29.694022567
 10
37.3515741974
 20
29.7195890887
 10
37.3185457656
 20
29.7442215028
 10
37.2833985653
 20
29.7678565784
 10
37.2462228187
 20
29.7904336445
 10
37.2071139556
 20
29.8118947462
 10
37.1661723677
 20
29.8321847931
 10
37.1235031516
 20
29.8512517009
 10
37.0792158385
 20
29.8690465251
 10
37.0334241133
 20
29.8855235868
 10
36.9862455228
 20
29.9006405894
 10
36.9378011736
 20
29.914358728
 10
36.8882154217
 20
29.9266427882
 10
36.8376155531
 20
29.937461237
 10
36.7861314569
 20
29.9467863036
 10
36.733895292
 20
29.9545940507
 10
36.6810411478
 20
29.960864436
 10
36.6277047004
 20
29.9655813634
 10
36.5740228634
 20
29.9687327246
 10
36.5201334375
 20
29.9703104302
 10
36.466174756
 20
29.9703104302
 10
36.4122853301
 20
29.9687327246
 10
36.3586034932
 20
29.9655813634
 10
36.3052670457
 20
29.960864436
 10
36.2524129016
 20
29.9545940507
 10
36.2001767367
 20
29.9467863036
 10
36.1486926405
 20
29.937461237
 10
36.0980927719
 20
29.9266427882
 10
36.04850702
 20
29.914358728
 10
36.0000626708
 20
29.9006405894
 10
35.9528840802
 20
29.8855235868
 10
35.9070923551
 20
29.8690465251
 10
35.862805042
 20
29.8512517009
 10
35.8201358258
 20
29.8321847931
 10
35.779194238
 20
29.8118947462
 10
35.7400853748
 20
29.7904336445
 10
35.7029096283
 20
29.7678565784
 10
35.667762428
 20
29.7442215028
 10
35.6347339962
 20
29.7195890887
 10
35.6039091165
 20
29.694022567
 10
35.575366916
 20
29.6675875667
 10
35.549180662
 20
29.6403519461
 10
35.5254175742
 20
29.6123856186
 10
35.5041386522
 20
29.5837603734
 10
35.4853985187
 20
29.554549691
 10
35.4692452793
 20
29.5248285549
 10
35.4557203992
 20
29.4946732587
 10
35.4448585964
 20
29.4641612108
 10
35.4366877532
 20
29.4333707351
 10
35.431228844
 20
29.4023808703
 10
35.4284958816
 20
29.3712711669
 10
35.4284958816
 20
29.3401214831
 10
35.431228844
 20
29.3090117797
 10
35.4366877532
 20
29.2780219149
 10
35.4448585964
 20
29.2472314391
 10
35.4557203992
 20
29.2167193912
 10
35.4692452793
 20
29.1865640951
 10
35.4853985187
 20
29.156842959
 10
35.5041386522
 20
29.1276322766
 10
35.5254175742
 20
29.0990070313
 10
35.549180662
 20
29.0710407038
 10
35.575366916
 20
29.0438050832
 10
35.6039091165
 20
29.017370083
 10
35.6347339962
 20
28.9918035613
 10
35.667762428
 20
28.9671711472
 10
35.7029096283
 20
28.9435360716
 10
35.7400853748
 20
28.9209590054
 10
35.779194238
 20
28.8994979038
 10
35.8201358258
 20
28.8792078569
 10
35.862805042
 20
28.8601409491
 10
35.9070923551
 20
28.8423461249
 10
35.9528840802
 20
28.8258690632
 10
36.0000626708
 20
28.8107520605
 10
36.04850702
 20
28.797033922
 10
36.0980927719
 20
28.7847498618
 10
36.1486926405
 20
28.773931413
 10
36.2001767367
 20
28.7646063464
 10
36.2524129016
 20
28.7567985992
 10
36.3052670457
 20
28.750528214
 10
36.3586034932
 20
28.7458112866
 10
36.4122853301
 20
28.7426599254
 10
36.466174756
 20
28.7410822198
 10
36.5201334375
 20
28.7410822198
 10
36.5740228634
 20
28.7426599254
 10
36.6277047004
 20
28.7458112866
 10
36.6810411478
 20
28.750528214
 10
36.733895292
 20
28.7567985992
 10
36.7861314569
 20
28.7646063464
 10
36.8376155531
 20
28.773931413
 10
36.8882154217
 20
28.7847498618
 10
36.9378011736
 20
28.797033922
 10
36.9862455228
 20
28.8107520605
 10
37.0334241133
 20
28.8258690632
 10
37.0792158385
 20
28.8423461249
 10
37.1235031516
 20
28.8601409491
 10
37.1661723677
 20
28.8792078569
 10
37.2071139556
 20
28.8994979038
 10
37.2462228187
 20
28.9209590054
  0
LINE
  5
CF
330
1F
100
AcDbEntity
  8
0
  6
Continuous
 62
     7
370
    25
100
AcDbLine
 10
38.0045948416
 20
30.3813090155
 30
0.0
 11
37.7747851377
 21
30.2486426973
 31
0.0
  0
LWPOLYLINE
  5
D0
330
1F
100
AcDbEntity
  8
0
  6
Continuous
 62
     7
370
    25
100
AcDbPolyline
 90
       27
 70
   128
 43
0.0
 10
37.7747851377
 20
30.2486426973
 10
37.7597707565
 20
30.2388589794
 10
37.7469086706
 20
30.2281018299
 10
37.736386438
 20
30.2165281123
 10
37.7283574967
 20
30.2043065975
 10
37.7229389266
 20
30.1916155028
 10
37.7202097427
 20
30.1786398927
 10
37.7202097427
 20
30.1655689809
 10
37.7229389266
 20
30.1525933709
 10
37.7283574967
 20
30.1399022761
 10
37.736386438
 20
30.1276807613
 10
37.7469086706
 20
30.1161070437
 10
37.7597707565
 20
30.1053498942
 10
37.7747851377
 20
30.0955661763
 10
37.7917328705
 20
30.0868985586
 10
37.810366819
 20
30.0794734344
 10
37.8304152581
 20
30.0733990789
 10
37.8515858366
 20
30.0687640697
 10
37.8735698396
 20
30.0656359957
 10
37.8960466909
 20
30.0640604714
 10
37.9186886274
 20
30.0640604714
 10
37.9411654787
 20
30.0656359957
 10
37.9631494818
 20
30.0687640697
 10
37.9843200602
 20
30.0733990789
 10
38.0043684993
 20
30.0794734344
 10
38.0230024478
 20
30.0868985586
 10
38.0399501806
 20
30.0955661763
  0
LINE
  5
D1
330
1F
100
AcDbEntity
  8
0
  6
Continuous
 62
     7
370
    25
100
AcDbLine
 10
38.0399501806
 20
30.0955661763
 30
0.0
 11
38.2697598845
 21
30.2282324945
 31
0.0
  0
LWPOLYLINE
  5
D2
330
1F
100
AcDbEntity
  8
0
  6
Continuous
 62
     7
370
    25
100
AcDbPolyline
 90
       27
 70
   128
 43
0.0
 10
38.2697598845
 20
30.2282324945
 10
38.2847742657
 20
30.2380162124
 10
38.2976363516
 20
30.2487733619
 10
38.3081585842
 20
30.2603470795
 10
38.3161875255
 20
30.2725685942
 10
38.3216060956
 20
30.285259689
 10
38.3243352795
 20
30.2982352991
 10
38.3243352795
 20
30.3113062108
 10
38.3216060956
 20
30.3242818209
 10
38.3161875255
 20
30.3369729157
 10
38.3081585842
 20
30.3491944305
 10
38.2976363516
 20
30.3607681481
 10
38.2847742657
 20
30.3715252975
 10
38.2697598845
 20
30.3813090155
 10
38.2528121517
 20
30.3899766332
 10
38.2341782032
 20
30.3974017574
 10
38.2141297641
 20
30.4034761129
 10
38.1929591856
 20
30.4081111221
 10
38.1709751826
 20
30.411239196
 10
38.1484983313
 20
30.4128147203
 10
38.1258563948
 20
30.4128147203
 10
38.1033795434
 20
30.411239196
 10
38.0813955404
 20
30.4081111221
 10
38.060224962
 20
30.4034761129
 10
38.0401765229
 20
30.3974017574
 10
38.0215425744
 20
30.3899766332
 10
38.0045948416
 20
30.3813090155
  0
LINE
  5
D3
330
1F
100
AcDbEntity
  8
0
  6
Continuous
 62
     7
370
    25
100
AcDbLine
 10
38.6904030719
 20
29.8076348846
 30
0.0
 11
38.3764771784
 21
29.7590756419
 31
0.0
  0
LWPOLYLINE
  5
D4
330
1F
100
AcDbEntity
  8
0
  6
Continuous
 62
     7
370
    25
100
AcDbPolyline
 90
       27
 70
   128
 43
0.0
 10
38.3764771784
 20
29.7590756419
 10
38.3550004765
 20
29.7549365026
 10
38.3345446091
 20
29.7493330999
 10
38.3154078688
 20
29.7423471443
 10
38.2978693124
 20
29.7340805066
 10
38.2821846916
 20
29.7246537331
 10
38.2685827234
 20
29.7142042873
 10
38.2572617551
 20
29.7028845456
 10
38.248386872
 20
29.6908595755
 10
38.2420874898
 20
29.6783047281
 10
38.2384554678
 20
29.6654030812
 10
38.2375437689
 20
29.65234277
 10
38.2393656879
 20
29.6393142432
 10
38.2438946569
 20
29.6265074861
 10
38.2510646335
 20
29.61410925
 10
38.2607710633
 20
29.6023003291
 10
38.2728724046
 20
29.5912529241
 10
38.2871921927
 20
29.581128131
 10
38.3035216127
 20
29.5720735921
 10
38.321622545
 20
29.564221343
 10
38.3412310373
 20
29.5576858871
 10
38.3620611534
 20
29.5525625261
 10
38.3838091436
 20
29.5489259702
 10
38.406157873
 20
29.5468292485
 10
38.4287814468
 20
29.546302936
 10
38.4513499626
 20
29.5473547074
 10
38.4735343203
 20
29.5499692256
  0
LINE
  5
D5
330
1F
100
AcDbEntity
  8
0
  6
Continuous
 62
     7
370
    25
100
AcDbLine
 10
38.4735343203
 20
29.5499692256
 30
0.0
 11
38.7874602139
 21
29.5985284683
 31
0.0
  0
LWPOLYLINE
  5
D6
330
1F
100
AcDbEntity
  8
0
  6
Continuous
 62
     7
370
    25
100
AcDbPolyline
 90
       27
 70
   128
 43
0.0
 10
38.7874602139
 20
29.5985284683
 10
38.8089369158
 20
29.6026676077
 10
38.8293927832
 20
29.6082710103
 10
38.8485295235
 20
29.6152569659
 10
38.8660680798
 20
29.6235236036
 10
38.8817527007
 20
29.6329503772
 10
38.8953546689
 20
29.643399823
 10
38.9066756372
 20
29.6547195646
 10
38.9155505203
 20
29.6667445347
 10
38.9218499024
 20
29.6792993821
 10
38.9254819245
 20
29.692201029
 10
38.9263936233
 20
29.7052613402
 10
38.9245717044
 20
29.718289867
 10
38.9200427353
 20
29.7310966241
 10
38.9128727587
 20
29.7434948603
 10
38.9031663289
 20
29.7553037811
 10
38.8910649876
 20
29.7663511862
 10
38.8767451996
 20
29.7764759792
 10
38.8604157795
 20
29.7855305181
 10
38.8423148472
 20
29.7933827672
 10
38.822706355
 20
29.7999182231
 10
38.8018762388
 20
29.8050415841
 10
38.7801282487
 20
29.80867814
 10
38.7577795193
 20
29.8107748617
 10
38.7351559454
 20
29.8113011742
 10
38.7125874297
 20
29.8102494028
 10
38.6904030719
 20
29.8076348846
  0
LINE
  5
D7
330
1F
100
AcDbEntity
  8
0
  6
Continuous
 62
     7
370
    25
100
AcDbLine
 10
38.7874602139
 20
29.1128641817
 30
0.0
 11
38.4735343203
 21
29.1614234244
 31
0.0
  0
LWPOLYLINE
  5
D8
330
1F
100
AcDbEntity
  8
0
  6
Continuous
 62
     7
370
    25
100
AcDbPolyline
 90
       27
 70
   128
 43
0.0
 10
38.4735343203
 20
29.1614234244
 10
38.4513499626
 20
29.1640379426
 10
38.4287814468
 20
29.165089714
 10
38.406157873
 20
29.1645634014
 10
38.3838091436
 20
29.1624666797
 10
38.3620611534
 20
29.1588301238
 10
38.3412310373
 20
29.1537067629
 10
38.321622545
 20
29.147171307
 10
38.3035216127
 20
29.1393190579
 10
38.2871921927
 20
29.130264519
 10
38.2728724046
 20
29.1201397259
 10
38.2607710633
 20
29.1090923209
 10
38.2510646335
 20
29.0972834
 10
38.2438946569
 20
29.0848851639
 10
38.2393656879
 20
29.0720784068
 10
38.2375437689
 20
29.05904988
 10
38.2384554678
 20
29.0459895688
 10
38.2420874898
 20
29.0330879219
 10
38.248386872
 20
29.0205330744
 10
38.2572617551
 20
29.0085081043
 10
38.2685827234
 20
28.9971883627
 10
38.2821846916
 20
28.9867389169
 10
38.2978693124
 20
28.9773121434
 10
38.3154078688
 20
28.9690455057
 10
38.3345446091
 20
28.96205955
 10
38.3550004765
 20
28.9564561474
 10
38.3764771784
 20
28.952317008
  0
LINE
  5
D9
330
1F
100
AcDbEntity
  8
0
  6
Continuous
 62
     7
370
    25
100
AcDbLine
 10
38.3764771784
 20
28.952317008
 30
0.0
 11
38.6904030719
 21
28.9037577653
 31
0.0
  0
LWPOLYLINE
  5
DA
330
1F
100
AcDbEntity
  8
0
  6
Continuous
 62
     7
370
    25
100
AcDbPolyline
 90
       27
 70
   128
 43
0.0
 10
38.6904030719
 20
28.9037577653
 10
38.7125874297
 20
28.9011432472
 10
38.7351559454
 20
28.9000914757
 10
38.7577795193
 20
28.9006177883
 10
38.7801282487
 20
28.90271451
 10
38.8018762388
 20
28.9063510659
 10
38.822706355
 20
28.9114744269
 10
38.8423148472
 20
28.9180098827
 10
38.8604157795
 20
28.9258621318
 10
38.8767451996
 20
28.9349166707
 10
38.8910649876
 20
28.9450414638
 10
38.9031663289
 20
28.9560888688
 10
38.9128727587
 20
28.9678977897
 10
38.9200427353
 20
28.9802960258
 10
38.9245717044
 20
28.993102783
 10
38.9263936233
 20
29.0061313098
 10
38.9254819245
 20
29.019191621
 10
38.9218499024
 20
29.0320932678
 10
38.9155505203
 20
29.0446481153
 10
38.9066756372
 20
29.0566730854
 10
38.8953546689
 20
29.067992827
 10
38.8817527007
 20
29.0784422728
 10
38.8660680798
 20
29.0878690464
 10
38.8485295235
 20
29.096135684
 10
38.8293927832
 20
29.1031216397
 10
38.8089369158
 20
29.1087250423
 10
38.7874602139
 20
29.1128641817
  0
LINE
  5
DB
330
1F
100
AcDbEntity
  8
0
  6
Continuous
 62
     7
370
    25
100
AcDbLine
 10
37.2760194691
 20
28.0872514912
 30
0.0
 11
37.1919032794
 21
28.2684770521
 31
0.0
  0
LWPOLYLINE
  5
DC
330
1F
100
AcDbEntity
  8
0
  6
Continuous
 62
     7
370
    25
100
AcDbPolyline
 90
       27
 70
   128
 43
0.0
 10
37.1919032794
 20
28.2684770521
 10
37.1847333028
 20
28.2808752882
 10
37.175026873
 20
28.2926842091
 10
37.1629255317
 20
28.3037316141
 10
37.1486057437
 20
28.3138564072
 10
37.1322763236
 20
28.3229109461
 10
37.1141753913
 20
28.3307631952
 10
37.0945668991
 20
28.337298651
 10
37.0737367829
 20
28.342422012
 10
37.0519887928
 20
28.3460585679
 10
37.0296400634
 20
28.3481552896
 10
37.0070164895
 20
28.3486816022
 10
36.9844479738
 20
28.3476298307
 10
36.962263616
 20
28.3450153126
 10
36.9407869141
 20
28.3408761732
 10
36.9203310467
 20
28.3352727705
 10
36.9011943064
 20
28.3282868149
 10
36.88365575
 20
28.3200201772
 10
36.8679711292
 20
28.3105934037
 10
36.854369161
 20
28.3001439579
 10
36.8430481927
 20
28.2888242163
 10
36.8341733096
 20
28.2767992461
 10
36.8278739275
 20
28.2642443987
 10
36.8242419054
 20
28.2513427518
 10
36.8233302066
 20
28.2382824406
 10
36.8251521255
 20
28.2252539138
 10
36.8296810946
 20
28.2124471567
  0
LINE
  5
DD
330
1F
100
AcDbEntity
  8
0
  6
Continuous
 62
     7
370
    25
100
AcDbLine
 10
36.8296810946
 20
28.2124471567
 30
0.0
 11
36.9137972842
 21
28.0312215958
 31
0.0
  0
LWPOLYLINE
  5
DE
330
1F
100
AcDbEntity
  8
0
  6
Continuous
 62
     7
370
    25
100
AcDbPolyline
 90
       27
 70
   128
 43
0.0
 10
36.9137972842
 20
28.0312215958
 10
36.9209672608
 20
28.0188233597
 10
36.9306736906
 20
28.0070144388
 10
36.9427750319
 20
27.9959670338
 10
36.95709482
 20
27.9858422407
 10
36.97342424
 20
27.9767877018
 10
36.9915251723
 20
27.9689354527
 10
37.0111336645
 20
27.9623999969
 10
37.0319637807
 20
27.9572766359
 10
37.0537117708
 20
27.95364008
 10
37.0760605002
 20
27.9515433583
 10
37.0986840741
 20
27.9510170457
 10
37.1212525898
 20
27.9520688172
 10
37.1434369476
 20
27.9546833353
 10
37.1649136495
 20
27.9588224747
 10
37.1853695169
 20
27.9644258774
 10
37.2045062572
 20
27.971411833
 10
37.2220448136
 20
27.9796784707
 10
37.2377294344
 20
27.9891052442
 10
37.2513314026
 20
27.99955469
 10
37.2626523709
 20
28.0108744317
 10
37.271527254
 20
28.0228994018
 10
37.2778266362
 20
28.0354542492
 10
37.2814586582
 20
28.0483558961
 10
37.2823703571
 20
28.0614162073
 10
37.2805484381
 20
28.0744447341
 10
37.2760194691
 20
28.0872514912
  0
LINE
  5
DF
330
1F
100
AcDbEntity
  8
0
  6
Continuous
 62
     7
370
    25
100
AcDbLine
 10
36.0725109093
 20
28.0312215958
 30
0.0
 11
36.156627099
 21
28.2124471567
 31
0.0
  0
LWPOLYLINE
  5
E0
330
1F
100
AcDbEntity
  8
0
  6
Continuous
 62
     7
370
    25
100
AcDbPolyline
 90
       27
 70
   128
 43
0.0
 10
36.156627099
 20
28.2124471567
 10
36.1611560681
 20
28.2252539138
 10
36.162977987
 20
28.2382824406
 10
36.1620662881
 20
28.2513427518
 10
36.1584342661
 20
28.2642443987
 10
36.1521348839
 20
28.2767992461
 10
36.1432600008
 20
28.2888242163
 10
36.1319390326
 20
28.3001439579
 10
36.1183370644
 20
28.3105934037
 10
36.1026524435
 20
28.3200201772
 10
36.0851138871
 20
28.3282868149
 10
36.0659771469
 20
28.3352727705
 10
36.0455212795
 20
28.3408761732
 10
36.0240445775
 20
28.3450153126
 10
36.0018602198
 20
28.3476298307
 10
35.9792917041
 20
28.3486816022
 10
35.9566681302
 20
28.3481552896
 10
35.9343194008
 20
28.3460585679
 10
35.9125714107
 20
28.342422012
 10
35.8917412945
 20
28.337298651
 10
35.8721328023
 20
28.3307631952
 10
35.8540318699
 20
28.3229109461
 10
35.8377024499
 20
28.3138564072
 10
35.8233826618
 20
28.3037316141
 10
35.8112813205
 20
28.2926842091
 10
35.8015748908
 20
28.2808752882
 10
35.7944049141
 20
28.2684770521
  0
LINE
  5
E1
330
1F
100
AcDbEntity
  8
0
  6
Continuous
 62
     7
370
    25
100
AcDbLine
 10
35.7944049141
 20
28.2684770521
 30
0.0
 11
35.7102887245
 21
28.0872514912
 31
0.0
  0
LWPOLYLINE
  5
E2
330
1F
100
AcDbEntity
  8
0
  6
Continuous
 62
     7
370
    25
100
AcDbPolyline
 90
       27
 70
   128
 43
0.0
 10
35.7102887245
 20
28.0872514912
 10
35.7057597554
 20
28.0744447341
 10
35.7039378365
 20
28.0614162073
 10
35.7048495353
 20
28.0483558961
 10
35.7084815574
 20
28.0354542492
 10
35.7147809395
 20
28.0228994018
 10
35.7236558226
 20
28.0108744317
 10
35.7349767909
 20
27.99955469
 10
35.7485787591
 20
27.9891052442
 10
35.76426338
 20
27.9796784707
 10
35.7818019364
 20
27.971411833
 10
35.8009386766
 20
27.9644258774
 10
35.821394544
 20
27.9588224747
 10
35.842871246
 20
27.9546833353
 10
35.8650556037
 20
27.9520688172
 10
35.8876241194
 20
27.9510170457
 10
35.9102476933
 20
27.9515433583
 10
35.9325964227
 20
27.95364008
 10
35.9543444128
 20
27.9572766359
 10
35.975174529
 20
27.9623999969
 10
35.9947830212
 20
27.9689354527
 10
36.0128839536
 20
27.9767877018
 10
36.0292133736
 20
27.9858422407
 10
36.0435331616
 20
27.9959670338
 10
36.055634503
 20
28.0070144388
 10
36.0653409327
 20
28.0188233597
 10
36.0725109093
 20
28.0312215958
  0
LINE
  5
E3
330
1F
100
AcDbEntity
  8
0
  6
Continuous
 62
     7
370
    25
100
AcDbLine
 10
34.981713352
 20
28.3300836345
 30
0.0
 11
35.2115230559
 21
28.4627499527
 31
0.0
  0
LWPOLYLINE
  5
E4
330
1F
100
AcDbEntity
  8
0
  6
Continuous
 62
     7
370
    25
100
AcDbPolyline
 90
       27
 70
   128
 43
0.0
 10
35.2115230559
 20
28.4627499527
 10
35.226537437
 20
28.4725336706
 10
35.239399523
 20
28.4832908201
 10
35.2499217555
 20
28.4948645376
 10
35.2579506969
 20
28.5070860524
 10
35.263369267
 20
28.5197771472
 10
35.2660984508
 20
28.5327527573
 10
35.2660984508
 20
28.545823669
 10
35.263369267
 20
28.5587992791
 10
35.2579506969
 20
28.5714903739
 10
35.2499217555
 20
28.5837118887
 10
35.239399523
 20
28.5952856062
 10
35.226537437
 20
28.6060427557
 10
35.2115230559
 20
28.6158264736
 10
35.194575323
 20
28.6244940914
 10
35.1759413746
 20
28.6319192155
 10
35.1558929354
 20
28.6379935711
 10
35.134722357
 20
28.6426285803
 10
35.112738354
 20
28.6457566542
 10
35.0902615027
 20
28.6473321785
 10
35.0676195661
 20
28.6473321785
 10
35.0451427148
 20
28.6457566542
 10
35.0231587118
 20
28.6426285803
 10
35.0019881334
 20
28.6379935711
 10
34.9819396942
 20
28.6319192155
 10
34.9633057458
 20
28.6244940914
 10
34.9463580129
 20
28.6158264736
  0
LINE
  5
E5
330
1F
100
AcDbEntity
  8
0
  6
Continuous
 62
     7
370
    25
100
AcDbLine
 10
34.9463580129
 20
28.6158264736
 30
0.0
 11
34.716548309
 21
28.4831601555
 31
0.0
  0
LWPOLYLINE
  5
E6
330
1F
100
AcDbEntity
  8
0
  6
Continuous
 62
     7
370
    25
100
AcDbPolyline
 90
       27
 70
   128
 43
0.0
 10
34.716548309
 20
28.4831601555
 10
34.7015339279
 20
28.4733764375
 10
34.688671842
 20
28.4626192881
 10
34.6781496094
 20
28.4510455705
 10
34.6701206681
 20
28.4388240557
 10
34.664702098
 20
28.4261329609
 10
34.6619729141
 20
28.4131573509
 10
34.6619729141
 20
28.4000864391
 10
34.664702098
 20
28.387110829
 10
34.6701206681
 20
28.3744197342
 10
34.6781496094
 20
28.3621982195
 10
34.688671842
 20
28.3506245019
 10
34.7015339279
 20
28.3398673524
 10
34.716548309
 20
28.3300836345
 10
34.7334960419
 20
28.3214160168
 10
34.7521299904
 20
28.3139908926
 10
34.7721784295
 20
28.307916537
 10
34.7933490079
 20
28.3032815279
 10
34.8153330109
 20
28.3001534539
 10
34.8378098623
 20
28.2985779296
 10
34.8604517988
 20
28.2985779296
 10
34.8829286501
 20
28.3001534539
 10
34.9049126531
 20
28.3032815279
 10
34.9260832315
 20
28.307916537
 10
34.9461316707
 20
28.3139908926
 10
34.9647656191
 20
28.3214160168
 10
34.981713352
 20
28.3300836345
  0
LINE
  5
E7
330
1F
100
AcDbEntity
  8
0
  6
Continuous
 62
     7
370
    25
100
AcDbLine
 10
34.2959051216
 20
28.9037577653
 30
0.0
 11
34.6098310152
 21
28.952317008
 31
0.0
  0
LWPOLYLINE
  5
E8
330
1F
100
AcDbEntity
  8
0
  6
Continuous
 62
     7
370
    25
100
AcDbPolyline
 90
       27
 70
   128
 43
0.0
 10
34.6098310152
 20
28.952317008
 10
34.6313077171
 20
28.9564561474
 10
34.6517635845
 20
28.96205955
 10
34.6709003248
 20
28.9690455057
 10
34.6884388811
 20
28.9773121434
 10
34.704123502
 20
28.9867389169
 10
34.7177254702
 20
28.9971883627
 10
34.7290464385
 20
29.0085081043
 10
34.7379213216
 20
29.0205330744
 10
34.7442207037
 20
29.0330879219
 10
34.7478527258
 20
29.0459895688
 10
34.7487644246
 20
29.05904988
 10
34.7469425057
 20
29.0720784068
 10
34.7424135366
 20
29.0848851639
 10
34.73524356
 20
29.0972834
 10
34.7255371302
 20
29.1090923209
 10
34.7134357889
 20
29.1201397259
 10
34.6991160009
 20
29.130264519
 10
34.6827865808
 20
29.1393190579
 10
34.6646856485
 20
29.147171307
 10
34.6450771563
 20
29.1537067629
 10
34.6242470401
 20
29.1588301238
 10
34.60249905
 20
29.1624666797
 10
34.5801503206
 20
29.1645634014
 10
34.5575267467
 20
29.165089714
 10
34.534958231
 20
29.1640379426
 10
34.5127738732
 20
29.1614234244
  0
LINE
  5
E9
330
1F
100
AcDbEntity
  8
0
  6
Continuous
 62
     7
370
    25
100
AcDbLine
 10
34.5127738732
 20
29.1614234244
 30
0.0
 11
34.1988479797
 21
29.1128641817
 31
0.0
  0
LWPOLYLINE
  5
EA
330
1F
100
AcDbEntity
  8
0
  6
Continuous
 62
     7
370
    25
100
AcDbPolyline
 90
       27
 70
   128
 43
0.0
 10
34.1988479797
 20
29.1128641817
 10
34.1773712778
 20
29.1087250423
 10
34.1569154104
 20
29.1031216397
 10
34.1377786701
 20
29.096135684
 10
34.1202401137
 20
29.0878690464
 10
34.1045554929
 20
29.0784422728
 10
34.0909535247
 20
29.067992827
 10
34.0796325564
 20
29.0566730854
 10
34.0707576733
 20
29.0446481153
 10
34.0644582911
 20
29.0320932678
 10
34.0608262691
 20
29.019191621
 10
34.0599145702
 20
29.0061313098
 10
34.0617364892
 20
28.993102783
 10
34.0662654582
 20
28.9802960258
 10
34.0734354348
 20
28.9678977897
 10
34.0831418646
 20
28.9560888688
 10
34.0952432059
 20
28.9450414638
 10
34.109562994
 20
28.9349166707
 10
34.125892414
 20
28.9258621318
 10
34.1439933463
 20
28.9180098827
 10
34.1636018386
 20
28.9114744269
 10
34.1844319547
 20
28.9063510659
 10
34.2061799449
 20
28.90271451
 10
34.2285286743
 20
28.9006177883
 10
34.2511522481
 20
28.9000914757
 10
34.2737207639
 20
28.9011432472
 10
34.2959051216
 20
28.9037577653
  0
LINE
  5
EB
330
1F
100
AcDbEntity
  8
0
  6
Continuous
 62
     7
370
    25
100
AcDbLine
 10
34.1988479797
 20
29.5985284683
 30
0.0
 11
34.5127738732
 21
29.5499692256
 31
0.0
  0
LWPOLYLINE
  5
EC
330
1F
100
AcDbEntity
  8
0
  6
Continuous
 62
     7
370
    25
100
AcDbPolyline
 90
       27
 70
   128
 43
0.0
 10
34.5127738732
 20
29.5499692256
 10
34.534958231
 20
29.5473547074
 10
34.5575267467
 20
29.546302936
 10
34.5801503206
 20
29.5468292485
 10
34.60249905
 20
29.5489259702
 10
34.6242470401
 20
29.5525625261
 10
34.6450771563
 20
29.5576858871
 10
34.6646856485
 20
29.564221343
 10
34.6827865808
 20
29.5720735921
 10
34.6991160009
 20
29.581128131
 10
34.7134357889
 20
29.5912529241
 10
34.7255371302
 20
29.6023003291
 10
34.73524356
 20
29.61410925
 10
34.7424135366
 20
29.6265074861
 10
34.7469425057
 20
29.6393142432
 10
34.7487644246
 20
29.65234277
 10
34.7478527258
 20
29.6654030812
 10
34.7442207037
 20
29.6783047281
 10
34.7379213216
 20
29.6908595755
 10
34.7290464385
 20
29.7028845456
 10
34.7177254702
 20
29.7142042873
 10
34.704123502
 20
29.7246537331
 10
34.6884388811
 20
29.7340805066
 10
34.6709003248
 20
29.7423471443
 10
34.6517635845
 20
29.7493330999
 10
34.6313077171
 20
29.7549365026
 10
34.6098310152
 20
29.7590756419
  0
LINE
  5
ED
330
1F
100
AcDbEntity
  8
0
  6
Continuous
 62
     7
370
    25
100
AcDbLine
 10
34.6098310152
 20
29.7590756419
 30
0.0
 11
34.2959051216
 21
29.8076348846
 31
0.0
  0
LWPOLYLINE
  5
EE
330
1F
100
AcDbEntity
  8
0
  6
Continuous
 62
     7
370
    25
100
AcDbPolyline
 90
       27
 70
   128
 43
0.0
 10
34.2959051216
 20
29.8076348846
 10
34.2737207639
 20
29.8102494028
 10
34.2511522481
 20
29.8113011742
 10
34.2285286743
 20
29.8107748617
 10
34.2061799449
 20
29.80867814
 10
34.1844319547
 20
29.8050415841
 10
34.1636018386
 20
29.7999182231
 10
34.1439933463
 20
29.7933827672
 10
34.125892414
 20
29.7855305181
 10
34.109562994
 20
29.7764759792
 10
34.0952432059
 20
29.7663511862
 10
34.0831418646
 20
29.7553037811
 10
34.0734354348
 20
29.7434948603
 10
34.0662654582
 20
29.7310966241
 10
34.0617364892
 20
29.718289867
 10
34.0599145702
 20
29.7052613402
 10
34.0608262691
 20
29.692201029
 10
34.0644582911
 20
29.6792993821
 10
34.0707576733
 20
29.6667445347
 10
34.0796325564
 20
29.6547195646
 10
34.0909535247
 20
29.643399823
 10
34.1045554929
 20
29.6329503772
 10
34.1202401137
 20
29.6235236036
 10
34.1377786701
 20
29.6152569659
 10
34.1569154104
 20
29.6082710103
 10
34.1773712778
 20
29.6026676077
 10
34.1988479797
 20
29.5985284683
  0
LINE
  5
EF
330
1F
100
AcDbEntity
  8
0
  6
Continuous
 62
     7
370
    25
100
AcDbLine
 10
35.7102887245
 20
30.6241411587
 30
0.0
 11
35.7944049141
 21
30.4429155979
 31
0.0
  0
LWPOLYLINE
  5
F0
330
1F
100
AcDbEntity
  8
0
  6
Continuous
 62
     7
370
    25
100
AcDbPolyline
 90
       27
 70
   128
 43
0.0
 10
35.7944049141
 20
30.4429155979
 10
35.8015748908
 20
30.4305173618
 10
35.8112813205
 20
30.4187084409
 10
35.8233826618
 20
30.4076610359
 10
35.8377024499
 20
30.3975362428
 10
35.8540318699
 20
30.3884817039
 10
35.8721328023
 20
30.3806294548
 10
35.8917412945
 20
30.3740939989
 10
35.9125714107
 20
30.368970638
 10
35.9343194008
 20
30.365334082
 10
35.9566681302
 20
30.3632373603
 10
35.9792917041
 20
30.3627110478
 10
36.0018602198
 20
30.3637628192
 10
36.0240445775
 20
30.3663773374
 10
36.0455212795
 20
30.3705164768
 10
36.0659771469
 20
30.3761198794
 10
36.0851138871
 20
30.3831058351
 10
36.1026524435
 20
30.3913724728
 10
36.1183370644
 20
30.4007992463
 10
36.1319390326
 20
30.4112486921
 10
36.1432600008
 20
30.4225684337
 10
36.1521348839
 20
30.4345934038
 10
36.1584342661
 20
30.4471482513
 10
36.1620662881
 20
30.4600498981
 10
36.162977987
 20
30.4731102094
 10
36.1611560681
 20
30.4861387362
 10
36.156627099
 20
30.4989454933
  0
LINE
  5
F1
330
1F
100
AcDbEntity
  8
0
  6
Continuous
 62
     7
370
    25
100
AcDbLine
 10
36.156627099
 20
30.4989454933
 30
0.0
 11
36.0725109093
 21
30.6801710541
 31
0.0
  0
LWPOLYLINE
  5
F2
330
1F
100
AcDbEntity
  8
0
  6
Continuous
 62
     7
370
    25
100
AcDbPolyline
 90
       27
 70
   128
 43
0.0
 10
36.0725109093
 20
30.6801710541
 10
36.0653409327
 20
30.6925692902
 10
36.055634503
 20
30.7043782111
 10
36.0435331616
 20
30.7154256162
 10
36.0292133736
 20
30.7255504092
 10
36.0128839536
 20
30.7346049481
 10
35.9947830212
 20
30.7424571972
 10
35.975174529
 20
30.7489926531
 10
35.9543444128
 20
30.7541160141
 10
35.9325964227
 20
30.75775257
 10
35.9102476933
 20
30.7598492917
 10
35.8876241194
 20
30.7603756042
 10
35.8650556037
 20
30.7593238328
 10
35.842871246
 20
30.7567093146
 10
35.821394544
 20
30.7525701752
 10
35.8009386766
 20
30.7469667726
 10
35.7818019364
 20
30.7399808169
 10
35.76426338
 20
30.7317141793
 10
35.7485787591
 20
30.7222874057
 10
35.7349767909
 20
30.7118379599
 10
35.7236558226
 20
30.7005182183
 10
35.7147809395
 20
30.6884932482
 10
35.7084815574
 20
30.6759384007
 10
35.7048495353
 20
30.6630367539
 10
35.7039378365
 20
30.6499764427
 10
35.7057597554
 20
30.6369479159
 10
35.7102887245
 20
30.6241411587
  0
LINE
  5
F3
330
1F
100
AcDbEntity
  8
0
  6
Continuous
 62
     7
370
    25
100
AcDbLine
 10
36.9137972842
 20
30.6801710541
 30
0.0
 11
36.8296810946
 21
30.4989454933
 31
0.0
  0
LWPOLYLINE
  5
F4
330
1F
100
AcDbEntity
  8
0
  6
Continuous
 62
     7
370
    25
100
AcDbPolyline
 90
       27
 70
   128
 43
0.0
 10
36.8296810946
 20
30.4989454933
 10
36.8251521255
 20
30.4861387362
 10
36.8233302066
 20
30.4731102094
 10
36.8242419054
 20
30.4600498981
 10
36.8278739275
 20
30.4471482513
 10
36.8341733096
 20
30.4345934038
 10
36.8430481927
 20
30.4225684337
 10
36.854369161
 20
30.4112486921
 10
36.8679711292
 20
30.4007992463
 10
36.88365575
 20
30.3913724728
 10
36.9011943064
 20
30.3831058351
 10
36.9203310467
 20
30.3761198794
 10
36.9407869141
 20
30.3705164768
 10
36.962263616
 20
30.3663773374
 10
36.9844479738
 20
30.3637628192
 10
37.0070164895
 20
30.3627110478
 10
37.0296400634
 20
30.3632373603
 10
37.0519887928
 20
30.365334082
 10
37.0737367829
 20
30.368970638
 10
37.0945668991
 20
30.3740939989
 10
37.1141753913
 20
30.3806294548
 10
37.1322763236
 20
30.3884817039
 10
37.1486057437
 20
30.3975362428
 10
37.1629255317
 20
30.4076610359
 10
37.175026873
 20
30.4187084409
 10
37.1847333028
 20
30.4305173618
 10
37.1919032794
 20
30.4429155979
  0
LINE
  5
F5
330
1F
100
AcDbEntity
  8
0
  6
Continuous
 62
     7
370
    25
100
AcDbLine
 10
37.1919032794
 20
30.4429155979
 30
0.0
 11
37.2760194691
 21
30.6241411587
 31
0.0
  0
LWPOLYLINE
  5
F6
330
1F
100
AcDbEntity
  8
0
  6
Continuous
 62
     7
370
    25
100
AcDbPolyline
 90
       27
 70
   128
 43
0.0
 10
37.2760194691
 20
30.6241411587
 10
37.2805484381
 20
30.6369479159
 10
37.2823703571
 20
30.6499764427
 10
37.2814586582
 20
30.6630367539
 10
37.2778266362
 20
30.6759384007
 10
37.271527254
 20
30.6884932482
 10
37.2626523709
 20
30.7005182183
 10
37.2513314026
 20
30.7118379599
 10
37.2377294344
 20
30.7222874057
 10
37.2220448136
 20
30.7317141793
 10
37.2045062572
 20
30.7399808169
 10
37.1853695169
 20
30.7469667726
 10
37.1649136495
 20
30.7525701752
 10
37.1434369476
 20
30.7567093146
 10
37.1212525898
 20
30.7593238328
 10
37.0986840741
 20
30.7603756042
 10
37.0760605002
 20
30.7598492917
 10
37.0537117708
 20
30.75775257
 10
37.0319637807
 20
30.7541160141
 10
37.0111336646
 20
30.7489926531
 10
36.9915251723
 20
30.7424571972
 10
36.97342424
 20
30.7346049481
 10
36.95709482
 20
30.7255504092
 10
36.9427750319
 20
30.7154256162
 10
36.9306736906
 20
30.7043782111
 10
36.9209672608
 20
30.6925692902
 10
36.9137972842
 20
30.6801710541
  0
ARC
  5
F7
330
1F
100
AcDbEntity
  8
0
  6
Continuous
 62
     7
370
    25
100
AcDbCircle
 10
38.1661262563
 20
28.4743007055
 30
0.0
 40
0.1243615058054039
100
AcDbArc
 50
294.009198236
 51
354.6706608064
  0
LWPOLYLINE
  5
F8
330
1F
100
AcDbEntity
  8
0
  6
Continuous
 62
     7
370
    25
100
AcDbPolyline
 90
       24
 70
   128
 43
0.0
 10
37.7899501806
 20
28.4627499527
 10
37.7902927969
 20
28.4551967266
 10
37.7930280955
 20
28.4401730291
 10
37.7984687241
 20
28.4253966891
 10
37.806555074
 20
28.4110295993
 10
37.8171985496
 20
28.3972291685
 10
37.8302825386
 20
28.3841465971
 10
37.8456636903
 20
28.3719252205
 10
37.8631734853
 20
28.3606989387
 10
37.8826200829
 20
28.3505907492
 10
37.9037904219
 20
28.3417113993
 10
37.9264525557
 20
28.3341581732
 10
37.9503581932
 20
28.3280138256
 10
37.9752454194
 20
28.3233456751
 10
38.0008415644
 20
28.3202048671
 10
38.0268661916
 20
28.3186258128
 10
38.0530341697
 20
28.3186258128
 10
38.0790587969
 20
28.3202048671
 10
38.1046549419
 20
28.3233456751
 10
38.129542168
 20
28.3280138256
 10
38.1534478056
 20
28.3341581732
 10
38.1761099394
 20
28.3417113993
 10
38.1972802784
 20
28.3505907492
 10
38.2167268759
 20
28.3606989387
  0
ARC
  5
F9
330
1F
100
AcDbEntity
  8
0
  6
Continuous
 62
     7
370
    25
100
AcDbCircle
 10
35.0725340886
 20
30.2601934501
 30
0.0
 40
0.1243615058053635
100
AcDbArc
 50
294.009198236
 51
354.6706608064
  0
LWPOLYLINE
  5
FA
330
1F
100
AcDbEntity
  8
0
  6
Continuous
 62
     7
370
    25
100
AcDbPolyline
 90
       24
 70
   128
 43
0.0
 10
34.6963580129
 20
30.2486426973
 10
34.6967006292
 20
30.2410894712
 10
34.6994359278
 20
30.2260657737
 10
34.7048765564
 20
30.2112894337
 10
34.7129629063
 20
30.1969223439
 10
34.7236063819
 20
30.1831219131
 10
34.7366903709
 20
30.1700393417
 10
34.7520715226
 20
30.1578179651
 10
34.7695813176
 20
30.1465916833
 10
34.7890279152
 20
30.1364834938
 10
34.8101982542
 20
30.1276041439
 10
34.832860388
 20
30.1200509178
 10
34.8567660255
 20
30.1139065702
 10
34.8816532517
 20
30.1092384197
 10
34.9072493967
 20
30.1060976117
 10
34.9332740239
 20
30.1045185575
 10
34.959442002
 20
30.1045185575
 10
34.9854666292
 20
30.1060976117
 10
35.0110627742
 20
30.1092384197
 10
35.0359500003
 20
30.1139065702
 10
35.0598556379
 20
30.1200509178
 10
35.0825177717
 20
30.1276041439
 10
35.1036881107
 20
30.1364834938
 10
35.1231347082
 20
30.1465916833
  0
LWPOLYLINE
  5
FB
330
1F
100
AcDbEntity
  8
0
  6
Continuous
 62
     7
370
    25
100
AcDbPolyline
 90
       26
 70
   128
 43
0.0
 10
35.2861225218
 20
29.0769944104
 10
35.2766959509
 20
29.0884549064
 10
35.2648555568
 20
29.0991429891
 10
35.2507880696
 20
29.108890101
 10
35.2347153419
 20
29.1175425244
 10
35.2168908504
 20
29.1249638054
 10
35.1975956979
 20
29.131036906
 10
35.1771341805
 20
29.1356660498
 10
35.1558289885
 20
29.1387782323
 10
35.1340161175
 20
29.1403243726
 10
35.1120395696
 20
29.1402800872
 10
35.0902459279
 20
29.1386460744
 10
35.0689788914
 20
29.1354481036
 10
35.0485738538
 20
29.1307366088
 10
35.0293526148
 20
29.1245858929
 10
35.0116183047
 20
29.1170929566
 10
34.9956506043
 20
29.1083759678
 10
34.9817013338
 20
29.0985723986
 10
34.9699904814
 20
29.0878368573
 10
34.9607027344
 20
29.0763386497
 10
34.9539845659
 20
29.0642591094
 10
34.9499419256
 20
29.051788738
 10
34.9486385683
 20
29.0391242007
 10
34.9500950487
 20
29.0264652248
 10
34.9542883973
 20
29.01401145
 10
34.9611524824
 20
29.0019592796
  0
LWPOLYLINE
  5
FC
330
1F
100
AcDbEntity
  8
0
  6
Continuous
 62
     7
370
    25
100
AcDbPolyline
 90
       20
 70
   128
 43
0.0
 10
34.9611524824
 20
29.0019592796
 10
34.9886533614
 20
28.9645961331
 10
35.0188870548
 20
28.9279433913
 10
35.0517986454
 20
28.8920676311
 10
35.0873283517
 20
28.8570340182
 10
35.1254116367
 20
28.8229061885
 10
35.1659793249
 20
28.7897461328
 10
35.208957728
 20
28.7576140838
 10
35.254268779
 20
28.726568407
 10
35.3018301736
 20
28.6966654946
 10
35.3515555202
 20
28.667959663
 10
35.4033544963
 20
28.6405030543
 10
35.4571330128
 20
28.6143455414
 10
35.5127933852
 20
28.5895346374
 10
35.5702345104
 20
28.5661154095
 10
35.6293520508
 20
28.544130397
 10
35.6900386239
 20
28.5236195342
 10
35.7521839969
 20
28.5046200773
 10
35.8156752874
 20
28.4871665376
 10
35.8803971681
 20
28.4712906181
  0
LWPOLYLINE
  5
FD
330
1F
100
AcDbEntity
  8
0
  6
Continuous
 62
     7
370
    25
100
AcDbPolyline
 90
       26
 70
   128
 43
0.0
 10
35.8803971681
 20
28.4712906181
 10
35.9012744017
 20
28.4673280661
 10
35.9228473099
 20
28.4649072975
 10
35.9447756753
 20
28.4640664893
 10
35.9667136744
 20
28.4648189014
 10
35.9883153319
 20
28.467152668
 10
36.0092399766
 20
28.4710309841
 10
36.0291576145
 20
28.4763926863
 10
36.0477541325
 20
28.4831532175
 10
36.0647362524
 20
28.49120596
 10
36.079836156
 20
28.5004239172
 10
36.0928157088
 20
28.5106617165
 10
36.1034702156
 20
28.5217579016
 10
36.1116316484
 20
28.5335374791
 10
36.1171712964
 20
28.5458146779
 10
36.1200017963
 20
28.5583958794
 10
36.1200785092
 20
28.5710826705
 10
36.1174002254
 20
28.5836749729
 10
36.1120091831
 20
28.5959741985
 10
36.1039904021
 20
28.607786381
 10
36.0934703434
 20
28.6189252355
 10
36.0806149147
 20
28.6292150954
 10
36.0656268537
 20
28.6384936836
 10
36.0487425312
 20
28.6466146711
 10
36.0302282229
 20
28.6534499851
 10
36.0103759106
 20
28.6588918287
  0
LWPOLYLINE
  5
FE
330
1F
100
AcDbEntity
  8
0
  6
Continuous
 62
     7
370
    25
100
AcDbPolyline
 90
       18
 70
   128
 43
0.0
 10
36.0103759106
 20
28.6588918287
 10
35.9534457063
 20
28.6729538742
 10
35.8977400334
 20
28.6885649775
 10
35.843385281
 20
28.7056897191
 10
35.7905047733
 20
28.7242892448
 10
35.7392184898
 20
28.7443213548
 10
35.6896427924
 20
28.7657405987
 10
35.6418901624
 20
28.7884983789
 10
35.5960689446
 20
28.8125430608
 10
35.5522831015
 20
28.8378200899
 10
35.5106319779
 20
28.8642721159
 10
35.471210075
 20
28.8918391225
 10
35.4341068361
 20
28.9204585633
 10
35.3994064439
 20
28.9500655047
 10
35.3671876292
 20
28.9805927719
 10
35.3375234927
 20
29.0119711026
 10
35.3104813385
 20
29.0441293031
 10
35.2861225218
 20
29.0769944104
  0
LWPOLYLINE
  5
FF
330
1F
100
AcDbEntity
  8
0
  6
Continuous
 62
     7
370
    25
100
AcDbPolyline
 90
       41
 70
   128
 43
0.0
 10
36.307736483
 20
30.0984976775
 10
36.367651256
 20
30.1026649187
 10
36.4278364831
 20
30.1052224694
 10
36.4881624674
 20
30.1061648184
 10
36.5484992084
 20
30.1054899348
 10
36.6087166827
 20
30.1031992731
 10
36.6686851238
 20
30.0992977695
 10
36.7282753019
 20
30.0937938316
 10
36.7873588022
 20
30.0866993202
 10
36.8458083021
 20
30.0780295238
 10
36.9034978448
 20
30.0678031253
 10
36.9603031116
 20
30.0560421624
 10
37.0161016891
 20
30.0427719795
 10
37.0707733334
 20
30.0280211734
 10
37.1242002291
 20
30.0118215315
 10
37.1762672432
 20
29.9942079634
 10
37.2268621731
 20
29.9752184258
 10
37.2758759885
 20
29.9548938404
 10
37.3232030665
 20
29.933278006
 10
37.368741419
 20
29.9104175039
 10
37.4123929123
 20
29.8863615977
 10
37.4540634792
 20
29.8611621269
 10
37.493663321
 20
29.8348733956
 10
37.5311071016
 20
29.8075520551
 10
37.5663141309
 20
29.7792569817
 10
37.599208539
 20
29.7500491504
 10
37.6297194398
 20
29.7199915029
 10
37.6577810832
 20
29.6891488126
 10
37.6833329975
 20
29.6575875441
 10
37.7063201192
 20
29.6253757109
 10
37.7266929119
 20
29.5925827285
 10
37.744407473
 20
29.5592792643
 10
37.7594256282
 20
29.5255370863
 10
37.771715014
 20
29.4914289075
 10
37.7812491471
 20
29.45702823
 10
37.7880074818
 20
29.4224091858
 10
37.7919754543
 20
29.3876463778
 10
37.7931445135
 20
29.3528147187
 10
37.7915121404
 20
29.3179892692
 10
37.7870818525
 20
29.2832450772
 10
37.779863197
 20
29.2486570149
  0
LWPOLYLINE
  5
100
330
1F
100
AcDbEntity
  8
0
  6
Continuous
 62
     7
370
    25
100
AcDbPolyline
 90
       26
 70
   128
 43
0.0
 10
37.779863197
 20
29.2486570149
 10
37.7781006907
 20
29.2360110125
 10
37.7790976187
 20
29.2233372044
 10
37.7828382587
 20
29.2108354641
 10
37.7892636186
 20
29.1987029515
 10
37.7982723667
 20
29.1871310036
 10
37.8097224296
 20
29.176302117
 10
37.823433233
 20
29.1663870696
 10
37.8391885493
 20
29.1575422278
 10
37.8567399079
 20
29.1499070798
 10
37.8758105131
 20
29.1436020365
 10
37.8960996103
 20
29.1387265324
 10
37.9172872283
 20
29.1353574569
 10
37.9390392256
 20
29.1335479423
 10
37.9610125603
 20
29.133326526
 10
37.9828606997
 20
29.1346966996
 10
38.0042390857
 20
29.1376368547
 10
38.0248105683
 20
29.1421006234
 10
38.0442507229
 20
29.1480176093
 10
38.0622529668
 20
29.1552944981
 10
38.0785333937
 20
29.1638165288
 10
38.0928352516
 20
29.1734493039
 10
38.1049329917
 20
29.1840409089
 10
38.1146358254
 20
29.1954243077
 10
38.1217907331
 20
29.2074199774
 10
38.1262848778
 20
29.2198387391
  0
LWPOLYLINE
  5
101
330
1F
100
AcDbEntity
  8
0
  6
Continuous
 62
     7
370
    25
100
AcDbPolyline
 90
       46
 70
   128
 43
0.0
 10
38.1262848778
 20
29.2198387391
 10
38.1346034761
 20
29.2588496477
 10
38.1401270936
 20
29.2980254621
 10
38.142846325
 20
29.3372994757
 10
38.1427565401
 20
29.3766048146
 10
38.1398578918
 20
29.4158745514
 10
38.1341553158
 20
29.4550418197
 10
38.1256585221
 20
29.4940399273
 10
38.1143819787
 20
29.5328024701
 10
38.1003448867
 20
29.5712634451
 10
38.0835711478
 20
29.6093573628
 10
38.0640893235
 20
29.6470193587
 10
38.0419325866
 20
29.6841853039
 10
38.0171386644
 20
29.7207919138
 10
37.9897497749
 20
29.7567768566
 10
37.9598125545
 20
29.7920788589
 10
37.9273779788
 20
29.82663781
 10
37.892501276
 20
29.8603948647
 10
37.8552418324
 20
29.8932925431
 10
37.8156630915
 20
29.9252748286
 10
37.7738324461
 20
29.9562872633
 10
37.7298211235
 20
29.9862770408
 10
37.683704064
 20
30.0151930959
 10
37.6355597934
 20
30.0429861917
 10
37.5854702896
 20
30.0696090035
 10
37.5335208425
 20
30.0950161992
 10
37.4797999091
 20
30.1191645168
 10
37.4243989628
 20
30.1420128375
 10
37.3674123378
 20
30.1635222565
 10
37.308937068
 20
30.1836561485
 10
37.2490727224
 20
30.2023802304
 10
37.187921235
 20
30.2196626199
 10
37.1255867316
 20
30.2354738893
 10
37.0621753525
 20
30.2497871159
 10
36.9977950715
 20
30.2625779279
 10
36.9325555122
 20
30.2738245456
 10
36.8665677614
 20
30.283507819
 10
36.7999441798
 20
30.2916112597
 10
36.7327982109
 20
30.2981210696
 10
36.6652441875
 20
30.3030261642
 10
36.5973971375
 20
30.3063181913
 10
36.5293725874
 20
30.3079915453
 10
36.4612863662
 20
30.308043377
 10
36.3932544079
 20
30.3064735982
 10
36.3253925539
 20
30.3032848816
 10
36.2578163562
 20
30.2984826571
  0
LWPOLYLINE
  5
102
330
1F
100
AcDbEntity
  8
0
  6
Continuous
 62
     7
370
    25
100
AcDbPolyline
 90
       26
 70
   128
 43
0.0
 10
36.2578163562
 20
30.2984826571
 10
36.236304099
 20
30.2958882426
 10
36.2155247381
 20
30.2917578023
 10
36.1958059764
 20
30.2861564756
 10
36.1774587905
 20
30.2791725989
 10
36.1607725266
 20
30.2709163121
 10
36.1460103369
 20
30.2615178217
 10
36.13340503
 20
30.2511253475
 10
36.1231553992
 20
30.2399027851
 10
36.1154230873
 20
30.228027121
 10
36.1103300373
 20
30.2156856415
 10
36.1079565699
 20
30.203072979
 10
36.1083401158
 20
30.1903880429
 10
36.1114746265
 20
30.1778308822
 10
36.1173106688
 20
30.1655995307
 10
36.1257562049
 20
30.1538868842
 10
36.1366780435
 20
30.1428776581
 10
36.1499039408
 20
30.1327454745
 10
36.1652253164
 20
30.123650124
 10
36.1824005432
 20
30.1157350457
 10
36.2011587575
 20
30.109125065
 10
36.2212041311
 20
30.1039244255
 10
36.2422205365
 20
30.1002151441
 10
36.2638765323
 20
30.0980557186
 10
36.2858305907
 20
30.0974802043
 10
36.307736483
 20
30.0984976775
  0
LWPOLYLINE
  5
103
330
1F
100
AcDbEntity
  8
0
  6
Continuous
 62
     7
370
    25
100
AcDbPolyline
 90
      105
 70
   128
 43
0.0
 10
39.4931540968
 20
29.151561122
 10
39.4917854502
 20
29.0992536116
 10
39.4876807595
 20
29.0469938281
 10
39.4808437696
 20
28.9948294551
 10
39.4712807191
 20
28.9428080889
 10
39.4590003334
 20
28.8909771955
 10
39.4440138176
 20
28.8393840669
 10
39.4263348459
 20
28.7880757783
 10
39.4059795491
 20
28.7370991451
 10
39.3829664999
 20
28.6865006798
 10
39.3573166963
 20
28.6363265501
 10
39.3290535419
 20
28.5866225364
 10
39.2982028248
 20
28.5374339902
 10
39.2647926943
 20
28.4888057926
 10
39.2288536348
 20
28.4407823136
 10
39.1904184381
 20
28.3934073712
 10
39.1495221737
 20
28.3467241918
 10
39.1062021568
 20
28.3007753706
 10
39.0604979137
 20
28.2556028326
 10
39.0124511465
 20
28.2112477949
 10
38.9621056945
 20
28.1677507281
 10
38.9095074944
 20
28.1251513205
 10
38.8547045386
 20
28.0834884411
 10
38.7977468309
 20
28.0428001043
 10
38.7386863413
 20
28.0031234354
 10
38.6775769584
 20
27.9644946367
 10
38.6144744403
 20
27.9269489543
 10
38.5494363638
 20
27.890520646
 10
38.4825220715
 20
27.8552429502
 10
38.4137926182
 20
27.8211480552
 10
38.3433107147
 20
27.7882670705
 10
38.2711406709
 20
27.7566299975
 10
38.197348337
 20
27.7262657029
 10
38.1220010434
 20
27.6972018921
 10
38.0451675393
 20
27.6694650838
 10
37.96691793
 20
27.6430805859
 10
37.8873236129
 20
27.6180724724
 10
37.8064572123
 20
27.5944635615
 10
37.7243925131
 20
27.5722753948
 10
37.6412043939
 20
27.5515282173
 10
37.5569687579
 20
27.5322409595
 10
37.4717624644
 20
27.5144312196
 10
37.3856632583
 20
27.4981152479
 10
37.2987496992
 20
27.4833079314
 10
37.2111010896
 20
27.470022781
 10
37.122797403
 20
27.4582719182
 10
37.0339192102
 20
27.4480660651
 10
36.9445476066
 20
27.4394145337
 10
36.8547641375
 20
27.4323252179
 10
36.7646507243
 20
27.4268045863
 10
36.674289589
 20
27.4228576761
 10
36.5837631802
 20
27.4204880886
 10
36.4931540968
 20
27.4196979858
 10
36.4025450134
 20
27.4204880886
 10
36.3120186045
 20
27.4228576761
 10
36.2216574693
 20
27.4268045863
 10
36.131544056
 20
27.4323252179
 10
36.041760587
 20
27.4394145337
 10
35.9523889833
 20
27.4480660651
 10
35.8635107906
 20
27.4582719182
 10
35.7752071039
 20
27.470022781
 10
35.6875584944
 20
27.4833079314
 10
35.6006449352
 20
27.4981152479
 10
35.5145457291
 20
27.5144312196
 10
35.4293394357
 20
27.5322409595
 10
35.3451037997
 20
27.5515282173
 10
35.2619156804
 20
27.5722753948
 10
35.1798509813
 20
27.5944635615
 10
35.0989845806
 20
27.6180724724
 10
35.0193902635
 20
27.6430805859
 10
34.9411406542
 20
27.6694650838
 10
34.8643071502
 20
27.6972018921
 10
34.7889598566
 20
27.7262657029
 10
34.7151675227
 20
27.7566299975
 10
34.6429974789
 20
27.7882670705
 10
34.5725155754
 20
27.8211480552
 10
34.5037861221
 20
27.8552429502
 10
34.4368718298
 20
27.890520646
 10
34.3718337532
 20
27.9269489543
 10
34.3087312352
 20
27.9644946367
 10
34.2476218523
 20
28.0031234354
 10
34.1885613627
 20
28.0428001043
 10
34.131603655
 20
28.0834884411
 10
34.0768006991
 20
28.1251513205
 10
34.0242024991
 20
28.1677507281
 10
33.9738570471
 20
28.2112477949
 10
33.9258102799
 20
28.2556028326
 10
33.8801060368
 20
28.3007753706
 10
33.8367860198
 20
28.3467241918
 10
33.7958897555
 20
28.3934073712
 10
33.7574545588
 20
28.4407823136
 10
33.7215154992
 20
28.4888057926
 10
33.6881053687
 20
28.5374339902
 10
33.6572546517
 20
28.5866225364
 10
33.6289914973
 20
28.6363265501
 10
33.6033416936
 20
28.6865006798
 10
33.5803286445
 20
28.7370991451
 10
33.5599733477
 20
28.7880757783
 10
33.5422943759
 20
28.8393840669
 10
33.5273078602
 20
28.8909771955
 10
33.5150274745
 20
28.9428080889
 10
33.5054644239
 20
28.9948294551
 10
33.4986274341
 20
29.0469938281
 10
33.4945227433
 20
29.0992536116
 10
33.4931540968
 20
29.151561122
  0
ARC
  5
104
330
1F
100
AcDbEntity
  8
0
  6
Continuous
 62
     7
370
    25
100
AcDbCircle
 10
35.9958035125
 20
28.4923588971
 30
0.0
 40
0.1346620937698383
100
AcDbArc
 50
24.7612041794
 51
83.7875974931
  0
LWPOLYLINE
  5
105
330
1F
100
AcDbEntity
  8
0
  6
Continuous
 62
     7
370
    25
100
AcDbPolyline
 90
       22
 70
   128
 43
0.0
 10
35.2861225218
 20
29.0443327779
 10
35.2766959509
 20
29.0557932739
 10
35.2648555568
 20
29.0664813566
 10
35.2507880696
 20
29.0762284685
 10
35.2347153419
 20
29.0848808919
 10
35.2168908504
 20
29.092302173
 10
35.1975956979
 20
29.0983752736
 10
35.1771341805
 20
29.1030044173
 10
35.1558289885
 20
29.1061165998
 10
35.1340161175
 20
29.1076627401
 10
35.1120395696
 20
29.1076184547
 10
35.0902459279
 20
29.1059844419
 10
35.0689788914
 20
29.1027864712
 10
35.0485738538
 20
29.0980749763
 10
35.0293526148
 20
29.0919242605
 10
35.0116183047
 20
29.0844313241
 10
34.9956506043
 20
29.0757143353
 10
34.9817013338
 20
29.0659107661
 10
34.9699904814
 20
29.0551752248
 10
34.9607027344
 20
29.0436770172
 10
34.9539845659
 20
29.0315974769
 10
34.9509390947
 20
29.0231460288
  0
LINE
  5
106
330
1F
100
AcDbEntity
  8
0
  6
Continuous
 62
     7
370
    25
100
AcDbLine
 10
36.0103759106
 20
28.6262301962
 30
0.0
 11
35.9950883387
 21
28.6298252376
 31
0.0
  0
LWPOLYLINE
  5
107
330
1F
100
AcDbEntity
  8
0
  6
Continuous
 62
     7
370
    25
100
AcDbPolyline
 90
        3
 70
   128
 43
0.0
 10
35.8426866325
 20
28.6732610006
 10
35.7905047733
 20
28.6916276124
 10
35.7773291456
 20
28.696579197
  0
LWPOLYLINE
  5
108
330
1F
100
AcDbEntity
  8
0
  6
Continuous
 62
     7
370
    25
100
AcDbPolyline
 90
        3
 70
   128
 43
0.0
 10
35.7355677514
 20
28.7131655571
 10
35.6896427924
 20
28.7330789663
 10
35.648295726
 20
28.7526538855
  0
ARC
  5
109
330
1F
100
AcDbEntity
  8
0
  6
Continuous
 62
     7
370
    25
100
AcDbCircle
 10
36.1612322629
 20
29.8082286254
 30
0.0
 40
1.173443106065392
100
AcDbArc
 50
234.7778683085
 51
242.158005934
  0
ARC
  5
10A
330
1F
100
AcDbEntity
  8
0
  6
Continuous
 62
     7
370
    25
100
AcDbCircle
 10
35.9229485026
 20
29.4976324666
 30
0.0
 40
0.7816827601631532
100
AcDbArc
 50
215.4436764679
 51
232.3368463413
  0
SPLINE
  5
10B
330
1F
100
AcDbEntity
  8
0
  6
Continuous
 62
     7
370
    25
100
AcDbSpline
210
0.0
220
0.0
230
1.0
 70
     8
 71
     3
 72
     9
 73
     5
 74
     0
 42
0.00000001
 43
0.00000001
 40
0.0
 40
0.0
 40
0.0
 40
0.0
 40
0.5637915362173632
 40
1.0
 40
1.0
 40
1.0
 40
1.0
 10
35.03697344543034
 20
28.94351761063826
 30
0.0
 10
35.03401637696069
 20
28.94760213068267
 30
0.0
 10
35.02877140913182
 20
28.95484686527343
 30
0.0
 10
35.02835488048536
 20
28.96267319651011
 30
0.0
 10
35.02817318716436
 20
28.96608710843591
 30
0.0
  0
SPLINE
  5
10C
330
1F
100
AcDbEntity
  8
0
  6
Continuous
 62
     7
370
    25
100
AcDbSpline
210
0.0
220
0.0
230
1.0
 70
     8
 71
     3
 72
    13
 73
     9
 74
     0
 42
0.00000001
 43
0.00000001
 40
0.0
 40
0.0
 40
0.0
 40
0.0
 40
0.1867847307037738
 40
0.3732470846354795
 40
0.5595250817860609
 40
0.7062275232207219
 40
0.8530689523118623
 40
1.0
 40
1.0
 40
1.0
 40
1.0
 10
35.14038637656355
 20
28.91692499960835
 30
0.0
 10
35.13280552754066
 20
28.91565189959157
 30
0.0
 10
35.11765691348536
 20
28.91310789683544
 30
0.0
 10
35.09362307352637
 20
28.9134292152454
 30
0.0
 10
35.07278226315064
 20
28.9180699349092
 30
0.0
 10
35.05688931810707
 20
28.9254506593564
 30
0.0
 10
35.04523811256583
 20
28.93390253037245
 30
0.0
 10
35.03972889469179
 20
28.94031193212964
 30
0.0
 10
35.03697344543034
 20
28.94351761063826
 30
0.0
  0
SPLINE
  5
10D
330
1F
100
AcDbEntity
  8
0
  6
Continuous
 62
     7
370
    25
100
AcDbSpline
210
0.0
220
0.0
230
1.0
 70
     8
 71
     3
 72
     9
 73
     5
 74
     0
 42
0.00000001
 43
0.00000001
 40
0.0
 40
0.0
 40
0.0
 40
0.0
 40
0.6325228808070101
 40
1.0
 40
1.0
 40
1.0
 40
1.0
 10
35.08229340840806
 20
28.98597549809507
 30
0.0
 10
35.07808110262286
 20
28.98473829066157
 30
0.0
 10
35.07142157154025
 20
28.98278230223641
 30
0.0
 10
35.06713641472288
 20
28.97930165413663
 30
0.0
 10
35.06556171764034
 20
28.9780225956
 30
0.0
  0
SPLINE
  5
10E
330
1F
100
AcDbEntity
  8
0
  6
Continuous
 62
     7
370
    25
100
AcDbSpline
210
0.0
220
0.0
230
1.0
 70
     8
 71
     3
 72
    12
 73
     8
 74
     0
 42
0.00000001
 43
0.00000001
 40
0.0
 40
0.0
 40
0.0
 40
0.0
 40
0.2803312839461146
 40
0.5605492505782336
 40
0.7072856041817227
 40
0.8538610120662823
 40
1.0
 40
1.0
 40
1.0
 40
1.0
 10
35.19743665041882
 20
28.97015321699724
 30
0.0
 10
35.18720143008282
 20
28.97299916032867
 30
0.0
 10
35.16673512675739
 20
28.97868989658602
 30
0.0
 10
35.14007230671101
 20
28.98495697646157
 30
0.0
 10
35.11751979156705
 20
28.98821926944213
 30
0.0
 10
35.09942992351567
 20
28.98904636018308
 30
0.0
 10
35.08799989961277
 20
28.98699810084634
 30
0.0
 10
35.08229340840806
 20
28.98597549809507
 30
0.0
  0
SPLINE
  5
10F
330
1F
100
AcDbEntity
  8
0
  6
Continuous
 62
     7
370
    25
100
AcDbSpline
210
0.0
220
0.0
230
1.0
 70
     8
 71
     3
 72
    10
 73
     6
 74
     0
 42
0.00000001
 43
0.00000001
 40
0.0
 40
0.0
 40
0.0
 40
0.0
 40
0.2796426966153792
 40
0.5596950963243026
 40
1.0
 40
1.0
 40
1.0
 40
1.0
 10
35.29083226845343
 20
28.95467489853198
 30
0.0
 10
35.28163887783081
 20
28.95478805906318
 30
0.0
 10
35.26323862739567
 20
28.95501454591649
 30
0.0
 10
35.23173702624541
 20
28.96076569347422
 30
0.0
 10
35.21044872540713
 20
28.96659199770759
 30
0.0
 10
35.19743665041882
 20
28.97015321699724
 30
0.0
  0
SPLINE
  5
110
330
1F
100
AcDbEntity
  8
0
  6
Continuous
 62
     7
370
    25
100
AcDbSpline
210
0.0
220
0.0
230
1.0
 70
     8
 71
     3
 72
     9
 73
     5
 74
     0
 42
0.00000001
 43
0.00000001
 40
0.0
 40
0.0
 40
0.0
 40
0.0
 40
0.559881254703396
 40
1.0
 40
1.0
 40
1.0
 40
1.0
 10
35.31261713151174
 20
28.95800703653491
 30
0.0
 10
35.30870433466024
 20
28.95703467403167
 30
0.0
 10
35.30171571552248
 20
28.95529794415354
 30
0.0
 10
35.29415838936129
 20
28.95486530925895
 30
0.0
 10
35.29083226845343
 20
28.95467489853198
 30
0.0
  0
LINE
  5
111
330
1F
100
AcDbEntity
  8
0
  6
Continuous
 62
     7
370
    25
100
AcDbLine
 10
35.2370066178
 20
29.0115410934
 30
0.0
 11
35.2137473684
 21
29.0412674913
 31
0.0
  0
LINE
  5
112
330
1F
100
AcDbEntity
  8
0
  6
Continuous
 62
     7
370
    25
100
AcDbLine
 10
35.2803222126
 20
28.864432612
 30
0.0
 11
35.2285971274
 21
28.9126088782
 31
0.0
  0
LINE
  5
113
330
1F
100
AcDbEntity
  8
0
  6
Continuous
 62
     7
370
    25
100
AcDbLine
 10
35.3076184598
 20
28.8742140493
 30
0.0
 11
35.2803222126
 21
28.864432612
 31
0.0
  0
LINE
  5
114
330
1F
100
AcDbEntity
  8
0
  6
Continuous
 62
     7
370
    25
100
AcDbLine
 10
35.3721204004
 20
28.8461288542
 30
0.0
 11
35.3632417367
 21
28.8417074258
 31
0.0
  0
SPLINE
  5
115
330
1F
100
AcDbEntity
  8
0
  6
Continuous
 62
     7
370
    25
100
AcDbSpline
210
0.0
220
0.0
230
1.0
 70
     8
 71
     3
 72
    11
 73
     7
 74
     0
 42
0.00000001
 43
0.00000001
 40
0.0
 40
0.0
 40
0.0
 40
0.0
 40
0.2799716781945321
 40
0.5599536490832387
 40
0.7800980504298256
 40
1.0
 40
1.0
 40
1.0
 40
1.0
 10
35.4424650265425
 20
28.82301886479777
 30
0.0
 10
35.4371076101338
 20
28.82622567483925
 30
0.0
 10
35.4263925803599
 20
28.83263941281527
 30
0.0
 10
35.40779684486691
 20
28.83895564798727
 30
0.0
 10
35.38983293415968
 20
28.84380489214978
 30
0.0
 10
35.37802240921616
 20
28.84535448475761
 30
0.0
 10
35.37212040035934
 20
28.84612885417299
 30
0.0
  0
SPLINE
  5
116
330
1F
100
AcDbEntity
  8
0
  6
Continuous
 62
     7
370
    25
100
AcDbSpline
210
0.0
220
0.0
230
1.0
 70
     8
 71
     3
 72
     9
 73
     5
 74
     0
 42
0.00000001
 43
0.00000001
 40
0.0
 40
0.0
 40
0.0
 40
0.0
 40
0.4198412651869893
 40
1.0
 40
1.0
 40
1.0
 40
1.0
 10
35.46240511644694
 20
28.80270720750292
 30
0.0
 10
35.46047473310919
 20
28.805819780223
 30
0.0
 10
35.45587684457886
 20
28.81323346958176
 30
0.0
 10
35.44738920486211
 20
28.81942613554653
 30
0.0
 10
35.4424650265425
 20
28.82301886479777
 30
0.0
  0
LINE
  5
117
330
1F
100
AcDbEntity
  8
0
  6
Continuous
 62
     7
370
    25
100
AcDbLine
 10
35.2776448489
 20
28.7981245693
 30
0.0
 11
35.2698146754
 21
28.789879146
 31
0.0
  0
SPLINE
  5
118
330
1F
100
AcDbEntity
  8
0
  6
Continuous
 62
     7
370
    25
100
AcDbSpline
210
0.0
220
0.0
230
1.0
 70
     8
 71
     3
 72
    11
 73
     7
 74
     0
 42
0.00000001
 43
0.00000001
 40
0.0
 40
0.0
 40
0.0
 40
0.0
 40
0.3215015411879784
 40
0.6427825823136709
 40
0.9634628544491647
 40
1.0
 40
1.0
 40
1.0
 40
1.0
 10
35.2620416735211
 20
28.73253519476956
 30
0.0
 10
35.25642771783062
 20
28.73661891647216
 30
0.0
 10
35.24520365675026
 20
28.74478355907931
 30
0.0
 10
35.23448924069698
 20
28.7590239953229
 30
0.0
 10
35.2291044721275
 20
28.76994771833137
 30
0.0
 10
35.23034420986836
 20
28.77567097991075
 30
0.0
 10
35.23047101353482
 20
28.77625637029487
 30
0.0
  0
SPLINE
  5
119
330
1F
100
AcDbEntity
  8
0
  6
Continuous
 62
     7
370
    25
100
AcDbSpline
210
0.0
220
0.0
230
1.0
 70
     8
 71
     3
 72
    14
 73
    10
 74
     0
 42
0.00000001
 43
0.00000001
 40
0.0
 40
0.0
 40
0.0
 40
0.0
 40
0.1401173300670953
 40
0.2802012905697795
 40
0.420247850023688
 40
0.5600933501830169
 40
0.7065838167914884
 40
0.8532454150744285
 40
0.9999999999999999
 40
0.9999999999999999
 40
0.9999999999999999
 40
0.9999999999999999
 10
35.45069486369785
 20
28.72681681600323
 30
0.0
 10
35.4428470221745
 20
28.72325843782554
 30
0.0
 10
35.42715320812611
 20
28.71614252891371
 30
0.0
 10
35.39984473222274
 20
28.70886262459084
 30
0.0
 10
35.37089367626845
 20
28.70432031816549
 30
0.0
 10
35.34013222577205
 20
28.70425795842919
 30
0.0
 10
35.31049338414122
 20
28.70980148512921
 30
0.0
 10
35.28364511870191
 20
28.71941513482767
 30
0.0
 10
35.26924434316659
 20
28.72816091757907
 30
0.0
 10
35.2620416735211
 20
28.73253519476956
 30
0.0
  0
SPLINE
  5
11A
330
1F
100
AcDbEntity
  8
0
  6
Continuous
 62
     7
370
    25
100
AcDbSpline
210
0.0
220
0.0
230
1.0
 70
     8
 71
     3
 72
    11
 73
     7
 74
     0
 42
0.00000001
 43
0.00000001
 40
0.0
 40
0.0
 40
0.0
 40
0.0
 40
0.1790868498210502
 40
0.4525410915131571
 40
0.7262069995473608
 40
1.0
 40
1.0
 40
1.0
 40
1.0
 10
35.50020983365406
 20
28.78382212159857
 30
0.0
 10
35.50017729587549
 20
28.77986936626515
 30
0.0
 10
35.50009507497627
 20
28.76988100466932
 30
0.0
 10
35.48981989813839
 20
28.75473820454732
 30
0.0
 10
35.47343012442777
 20
28.7392824938841
 30
0.0
 10
35.4582744567357
 20
28.73097268500338
 30
0.0
 10
35.45069486369785
 20
28.72681681600323
 30
0.0
  0
LINE
  5
11B
330
1F
100
AcDbEntity
  8
0
  6
Continuous
 62
     7
370
    25
100
AcDbLine
 10
35.3622520436
 20
28.7826462508
 30
0.0
 11
35.2898220288
 21
28.8309085077
 31
0.0
  0
LINE
  5
11C
330
1F
100
AcDbEntity
  8
0
  6
Continuous
 62
     7
370
    25
100
AcDbLine
 10
35.3854147527
 20
28.7942119943
 30
0.0
 11
35.3622520436
 21
28.7826462508
 31
0.0
  0
LINE
  5
11D
330
1F
100
AcDbEntity
  8
0
  6
Continuous
 62
     7
370
    25
100
AcDbLine
 10
35.648295726
 20
28.7302470177
 30
0.0
 11
35.5939448029
 21
28.6503255414
 31
0.0
  0
LINE
  5
11E
330
1F
100
AcDbEntity
  8
0
  6
Continuous
 62
     7
370
    25
100
AcDbLine
 10
35.435697806
 20
28.6341739549
 30
0.0
 11
35.4079546898
 21
28.6461911494
 31
0.0
  0
LINE
  5
11F
330
1F
100
AcDbEntity
  8
0
  6
Continuous
 62
     7
370
    25
100
AcDbLine
 10
35.5690137201
 20
28.6973340933
 30
0.0
 11
35.435697806
 21
28.6341739549
 31
0.0
  0
LINE
  5
120
330
1F
100
AcDbEntity
  8
0
  6
Continuous
 62
     7
370
    25
100
AcDbLine
 10
35.5721111447
 20
28.6988061683
 30
0.0
 11
35.5690137201
 21
28.6973340933
 31
0.0
  0
LINE
  5
121
330
1F
100
AcDbEntity
  8
0
  6
Continuous
 62
     7
370
    25
100
AcDbLine
 10
35.5581399081
 20
28.5810747235
 30
0.0
 11
35.5248854077
 21
28.5954996564
 31
0.0
  0
LINE
  5
122
330
1F
100
AcDbEntity
  8
0
  6
Continuous
 62
     7
370
    25
100
AcDbLine
 10
35.7004634526
 20
28.6437952943
 30
0.0
 11
35.5581399081
 21
28.5810747235
 31
0.0
  0
LINE
  5
123
330
1F
100
AcDbEntity
  8
0
  6
Continuous
 62
     7
370
    25
100
AcDbLine
 10
35.6760760813
 20
28.5299747749
 30
0.0
 11
35.6477743788
 21
28.5422284437
 31
0.0
  0
LINE
  5
124
330
1F
100
AcDbEntity
  8
0
  6
Continuous
 62
     7
370
    25
100
AcDbLine
 10
35.7773291456
 20
28.6743315922
 30
0.0
 11
35.6760760813
 21
28.5299747749
 31
0.0
  0
LINE
  5
125
330
1F
100
AcDbEntity
  8
0
  6
Continuous
 62
     7
370
    25
100
AcDbLine
 10
35.9287284857
 20
28.6044784397
 30
0.0
 11
35.8342155038
 21
28.6302662373
 31
0.0
  0
LINE
  5
126
330
1F
100
AcDbEntity
  8
0
  6
Continuous
 62
     7
370
    25
100
AcDbLine
 10
35.8572797332
 20
28.4767459158
 30
0.0
 11
35.8520530242
 21
28.4781702607
 31
0.0
  0
LINE
  5
127
330
1F
100
AcDbEntity
  8
0
  6
Continuous
 62
     7
370
    25
100
AcDbLine
 10
35.9950883387
 20
28.606059867
 30
0.0
 11
35.8840567482
 21
28.4704729807
 31
0.0
  0
LINE
  5
128
330
1F
100
AcDbEntity
  8
0
  6
Continuous
 62
     7
370
    25
100
AcDbLine
 10
36.0103759106
 20
28.6262301962
 30
0.0
 11
36.0103759106
 21
28.6588918287
 31
0.0
  0
LWPOLYLINE
  5
129
330
1F
100
AcDbEntity
  8
0
  6
Continuous
 62
     7
370
    25
100
AcDbPolyline
 90
       16
 70
   128
 43
0.0
 10
35.7400853748
 20
29.7414411958
 10
35.7029096283
 20
29.7188641297
 10
35.667762428
 20
29.6952290541
 10
35.6347339962
 20
29.6705966399
 10
35.6039091165
 20
29.6450301183
 10
35.575366916
 20
29.618595118
 10
35.549180662
 20
29.5913594974
 10
35.5254175742
 20
29.5633931699
 10
35.5041386522
 20
29.5347679247
 10
35.4853985187
 20
29.5055572423
 10
35.4692452793
 20
29.4758361062
 10
35.4557203992
 20
29.44568081
 10
35.4448585964
 20
29.4151687621
 10
35.4366877532
 20
29.3843782864
 10
35.431228844
 20
29.3533884215
 10
35.4289997777
 20
29.3312001006
  0
LWPOLYLINE
  5
12A
330
1F
100
AcDbEntity
  8
0
  6
Continuous
 62
     7
370
    25
100
AcDbPolyline
 90
       47
 70
   128
 43
0.0
 10
37.5573084159
 20
29.3312001006
 10
37.5550793496
 20
29.3533884215
 10
37.5496204403
 20
29.3843782864
 10
37.5414495971
 20
29.4151687621
 10
37.5305877944
 20
29.44568081
 10
37.5170629142
 20
29.4758361062
 10
37.5009096748
 20
29.5055572423
 10
37.4821695413
 20
29.5347679247
 10
37.4608906193
 20
29.5633931699
 10
37.4371275316
 20
29.5913594974
 10
37.4109412776
 20
29.618595118
 10
37.382399077
 20
29.6450301183
 10
37.3515741974
 20
29.6705966399
 10
37.3185457656
 20
29.6952290541
 10
37.2833985653
 20
29.7188641297
 10
37.2462228187
 20
29.7414411958
 10
37.2071139556
 20
29.7629022975
 10
37.1661723677
 20
29.7831923443
 10
37.1235031516
 20
29.8022592521
 10
37.0792158385
 20
29.8200540764
 10
37.0334241133
 20
29.8365311381
 10
36.9862455228
 20
29.8516481407
 10
36.9378011736
 20
29.8653662793
 10
36.8882154217
 20
29.8776503395
 10
36.8376155531
 20
29.8884687883
 10
36.7861314569
 20
29.8977938549
 10
36.733895292
 20
29.905601602
 10
36.6810411478
 20
29.9118719873
 10
36.6277047004
 20
29.9165889146
 10
36.5740228634
 20
29.9197402759
 10
36.5201334375
 20
29.9213179815
 10
36.466174756
 20
29.9213179815
 10
36.4122853301
 20
29.9197402759
 10
36.3586034932
 20
29.9165889146
 10
36.3052670457
 20
29.9118719873
 10
36.2524129016
 20
29.905601602
 10
36.2001767367
 20
29.8977938549
 10
36.1486926405
 20
29.8884687883
 10
36.0980927719
 20
29.8776503395
 10
36.04850702
 20
29.8653662793
 10
36.0000626708
 20
29.8516481407
 10
35.9528840802
 20
29.8365311381
 10
35.9070923551
 20
29.8200540764
 10
35.862805042
 20
29.8022592521
 10
35.8201358258
 20
29.7831923443
 10
35.779194238
 20
29.7629022975
 10
35.7400853748
 20
29.7414411958
  0
LINE
  5
12B
330
1F
100
AcDbEntity
  8
0
  6
Continuous
 62
     7
370
    25
100
AcDbLine
 10
35.8520530242
 20
28.5108318932
 30
0.0
 11
35.8520530242
 21
28.4781702607
 31
0.0
  0
LINE
  5
12C
330
1F
100
AcDbEntity
  8
0
  6
Continuous
 62
     7
370
    25
100
AcDbLine
 10
35.8833710922
 20
28.5022973203
 30
0.0
 11
35.8520530242
 21
28.5108318932
 31
0.0
  0
LINE
  5
12D
330
1F
100
AcDbEntity
  8
0
  6
Continuous
 62
     7
370
    25
100
AcDbLine
 10
35.8833710922
 20
28.5022973203
 30
0.0
 11
35.8833710922
 21
28.4706220371
 31
0.0
  0
LINE
  5
12E
330
1F
100
AcDbEntity
  8
0
  6
Continuous
 62
     7
370
    25
100
AcDbLine
 10
35.9950883387
 20
28.6387214995
 30
0.0
 11
35.8833710922
 21
28.5022973203
 31
0.0
  0
LINE
  5
12F
330
1F
100
AcDbEntity
  8
0
  6
Continuous
 62
     7
370
    25
100
AcDbLine
 10
35.8520530242
 20
28.5108318932
 30
0.0
 11
35.9505876355
 21
28.6311758192
 31
0.0
  0
LINE
  5
130
330
1F
100
AcDbEntity
  8
0
  6
Continuous
 62
     7
370
    25
100
AcDbLine
 10
35.9505876355
 20
28.6311758192
 30
0.0
 11
35.8342155038
 21
28.6629278697
 31
0.0
  0
LINE
  5
131
330
1F
100
AcDbEntity
  8
0
  6
Continuous
 62
     7
370
    25
100
AcDbLine
 10
35.8342155038
 20
28.6629278697
 30
0.0
 11
35.8473981389
 21
28.6790081228
 31
0.0
  0
LINE
  5
132
330
1F
100
AcDbEntity
  8
0
  6
Continuous
 62
     7
370
    25
100
AcDbLine
 10
35.8473981389
 20
28.6790081228
 30
0.0
 11
35.9950883387
 21
28.6387214995
 31
0.0
  0
LINE
  5
133
330
1F
100
AcDbEntity
  8
0
  6
Continuous
 62
     7
370
    25
100
AcDbLine
 10
35.9950883387
 20
28.6387214995
 30
0.0
 11
35.9950883387
 21
28.606059867
 31
0.0
  0
LINE
  5
134
330
1F
100
AcDbEntity
  8
0
  6
Continuous
 62
     7
370
    25
100
AcDbLine
 10
35.7773291456
 20
28.7069932247
 30
0.0
 11
35.6760760813
 21
28.5626364074
 31
0.0
  0
LINE
  5
135
330
1F
100
AcDbEntity
  8
0
  6
Continuous
 62
     7
370
    25
100
AcDbLine
 10
35.6760760813
 20
28.5626364074
 30
0.0
 11
35.6477743788
 21
28.5748900762
 31
0.0
  0
LINE
  5
136
330
1F
100
AcDbEntity
  8
0
  6
Continuous
 62
     7
370
    25
100
AcDbLine
 10
35.6477743788
 20
28.5748900762
 30
0.0
 11
35.7186403522
 21
28.667566508
 31
0.0
  0
SPLINE
  5
137
330
1F
100
AcDbEntity
  8
0
  6
Continuous
 62
     7
370
    25
100
AcDbSpline
210
0.0
220
0.0
230
1.0
 70
     8
 71
     3
 72
     9
 73
     5
 74
     0
 42
0.00000001
 43
0.00000001
 40
0.0
 40
0.0
 40
0.0
 40
0.0
 40
0.559987342992046
 40
1.0
 40
1.0
 40
1.0
 40
1.0
 10
35.71864035215855
 20
28.66756650796794
 30
0.0
 10
35.72279257119476
 20
28.67293408746957
 30
0.0
 10
35.73020741563395
 20
28.68251926750767
 30
0.0
 10
35.73836331752408
 20
28.6919012324779
 30
0.0
 10
35.74195201758506
 20
28.6960294158124
 30
0.0
  0
SPLINE
  5
138
330
1F
100
AcDbEntity
  8
0
  6
Continuous
 62
     7
370
    25
100
AcDbSpline
210
0.0
220
0.0
230
1.0
 70
     8
 71
     3
 72
     9
 73
     5
 74
     0
 42
0.00000001
 43
0.00000001
 40
0.0
 40
0.0
 40
0.0
 40
0.0
 40
0.5600071078940181
 40
1.0
 40
1.0
 40
1.0
 40
1.0
 10
35.74195201758506
 20
28.6960294158124
 30
0.0
 10
35.73480879492076
 20
28.6926138158066
 30
0.0
 10
35.7220532020656
 20
28.68651460749719
 30
0.0
 10
35.70920961215653
 20
28.68047727662308
 30
0.0
 10
35.70355852388742
 20
28.67782089395117
 30
0.0
  0
LINE
  5
139
330
1F
100
AcDbEntity
  8
0
  6
Continuous
 62
     7
370
    25
100
AcDbLine
 10
35.7035585239
 20
28.677820894
 30
0.0
 11
35.5581399081
 21
28.613736356
 31
0.0
  0
LINE
  5
13A
330
1F
100
AcDbEntity
  8
0
  6
Continuous
 62
     7
370
    25
100
AcDbLine
 10
35.5581399081
 20
28.613736356
 30
0.0
 11
35.5248854077
 21
28.6281612889
 31
0.0
  0
LINE
  5
13B
330
1F
100
AcDbEntity
  8
0
  6
Continuous
 62
     7
370
    25
100
AcDbLine
 10
35.5248854077
 20
28.6281612889
 30
0.0
 11
35.5742644307
 21
28.7020272642
 31
0.0
  0
SPLINE
  5
13C
330
1F
100
AcDbEntity
  8
0
  6
Continuous
 62
     7
370
    25
100
AcDbSpline
210
0.0
220
0.0
230
1.0
 70
     8
 71
     3
 72
     9
 73
     5
 74
     0
 42
0.00000001
 43
0.00000001
 40
0.0
 40
0.0
 40
0.0
 40
0.0
 40
0.5600011622448617
 40
1.0
 40
1.0
 40
1.0
 40
1.0
 10
35.57426443065929
 20
28.70202726421769
 30
0.0
 10
35.58079355241081
 20
28.7115094671655
 30
0.0
 10
35.59245267419791
 20
28.72844193728715
 30
0.0
 10
35.60707890061995
 20
28.74458426420933
 30
0.0
 10
35.6135144232464
 20
28.75168686929375
 30
0.0
  0
SPLINE
  5
13D
330
1F
100
AcDbEntity
  8
0
  6
Continuous
 62
     7
370
    25
100
AcDbSpline
210
0.0
220
0.0
230
1.0
 70
     8
 71
     3
 72
     9
 73
     5
 74
     0
 42
0.00000001
 43
0.00000001
 40
0.0
 40
0.0
 40
0.0
 40
0.0
 40
0.5599915402456511
 40
1.0
 40
1.0
 40
1.0
 40
1.0
 10
35.6135144232464
 20
28.75168686929375
 30
0.0
 10
35.60531977764738
 20
28.74756111619632
 30
0.0
 10
35.59068626087063
 20
28.74019358865184
 30
0.0
 10
35.57563597373667
 20
28.7331117810382
 30
0.0
 10
35.569013720076
 20
28.72999572577784
 30
0.0
  0
LINE
  5
13E
330
1F
100
AcDbEntity
  8
0
  6
Continuous
 62
     7
370
    25
100
AcDbLine
 10
35.5690137201
 20
28.7299957258
 30
0.0
 11
35.435697806
 21
28.6668355874
 31
0.0
  0
LINE
  5
13F
330
1F
100
AcDbEntity
  8
0
  6
Continuous
 62
     7
370
    25
100
AcDbLine
 10
35.435697806
 20
28.6668355874
 30
0.0
 11
35.4079546898
 21
28.6788527818
 31
0.0
  0
LINE
  5
140
330
1F
100
AcDbEntity
  8
0
  6
Continuous
 62
     7
370
    25
100
AcDbLine
 10
35.4079546898
 20
28.6788527818
 30
0.0
 11
35.6217070213
 21
28.7744313984
 31
0.0
  0
LINE
  5
141
330
1F
100
AcDbEntity
  8
0
  6
Continuous
 62
     7
370
    25
100
AcDbLine
 10
35.6217070213
 20
28.7744313984
 30
0.0
 11
35.648295726
 21
28.7629086502
 31
0.0
  0
LINE
  5
142
330
1F
100
AcDbEntity
  8
0
  6
Continuous
 62
     7
370
    25
100
AcDbLine
 10
35.648295726
 20
28.7629086502
 30
0.0
 11
35.5729610628
 21
28.6521311848
 31
0.0
  0
SPLINE
  5
143
330
1F
100
AcDbEntity
  8
0
  6
Continuous
 62
     7
370
    25
100
AcDbSpline
210
0.0
220
0.0
230
1.0
 70
     8
 71
     3
 72
     9
 73
     5
 74
     0
 42
0.00000001
 43
0.00000001
 40
0.0
 40
0.0
 40
0.0
 40
0.0
 40
0.5600208437871027
 40
1.0
 40
1.0
 40
1.0
 40
1.0
 10
35.572961062784
 20
28.65213118483174
 30
0.0
 10
35.5708338211878
 20
28.64894711099723
 30
0.0
 10
35.56703531686461
 20
28.64326147648946
 30
0.0
 10
35.56295258893268
 20
28.63764198613712
 30
0.0
 10
35.56115627374215
 20
28.63516952751355
 30
0.0
  0
SPLINE
  5
144
330
1F
100
AcDbEntity
  8
0
  6
Continuous
 62
     7
370
    25
100
AcDbSpline
210
0.0
220
0.0
230
1.0
 70
     8
 71
     3
 72
     9
 73
     5
 74
     0
 42
0.00000001
 43
0.00000001
 40
0.0
 40
0.0
 40
0.0
 40
0.0
 40
0.5600091678733016
 40
1.0
 40
1.0
 40
1.0
 40
1.0
 10
35.56115627374215
 20
28.63516952751355
 30
0.0
 10
35.56566523983586
 20
28.63735886901474
 30
0.0
 10
35.57371683318895
 20
28.64126834340692
 30
0.0
 10
35.58201046696917
 20
28.64500512898105
 30
0.0
 10
35.58565958979748
 20
28.64664928037529
 30
0.0
  0
LINE
  5
145
330
1F
100
AcDbEntity
  8
0
  6
Continuous
 62
     7
370
    25
100
AcDbLine
 10
35.5856595898
 20
28.6466492804
 30
0.0
 11
35.7491763995
 21
28.7192038982
 31
0.0
  0
LINE
  5
146
330
1F
100
AcDbEntity
  8
0
  6
Continuous
 62
     7
370
    25
100
AcDbLine
 10
35.7491763995
 20
28.7192038982
 30
0.0
 11
35.7773291456
 21
28.7069932247
 31
0.0
  0
LINE
  5
147
330
1F
100
AcDbEntity
  8
0
  6
Continuous
 62
     7
370
    25
100
AcDbLine
 10
35.6477743788
 20
28.5748900762
 30
0.0
 11
35.6477743788
 21
28.5422284437
 31
0.0
  0
LINE
  5
148
330
1F
100
AcDbEntity
  8
0
  6
Continuous
 62
     7
370
    25
100
AcDbLine
 10
35.6760760813
 20
28.5626364074
 30
0.0
 11
35.6760760813
 21
28.5299747749
 31
0.0
  0
LINE
  5
149
330
1F
100
AcDbEntity
  8
0
  6
Continuous
 62
     7
370
    25
100
AcDbLine
 10
35.7773291456
 20
28.7069932247
 30
0.0
 11
35.7773291456
 21
28.6743315922
 31
0.0
  0
LINE
  5
14A
330
1F
100
AcDbEntity
  8
0
  6
Continuous
 62
     7
370
    25
100
AcDbLine
 10
35.5581399081
 20
28.613736356
 30
0.0
 11
35.5581399081
 21
28.5810747235
 31
0.0
  0
LINE
  5
14B
330
1F
100
AcDbEntity
  8
0
  6
Continuous
 62
     7
370
    25
100
AcDbLine
 10
35.5248854077
 20
28.6281612889
 30
0.0
 11
35.5248854077
 21
28.5954996564
 31
0.0
  0
LINE
  5
14C
330
1F
100
AcDbEntity
  8
0
  6
Continuous
 62
     7
370
    25
100
AcDbLine
 10
35.8342155038
 20
28.6629278697
 30
0.0
 11
35.8342155038
 21
28.6302662373
 31
0.0
  0
LINE
  5
14D
330
1F
100
AcDbEntity
  8
0
  6
Continuous
 62
     7
370
    25
100
AcDbLine
 10
35.2861225218
 20
29.0443327779
 30
0.0
 11
35.2861225218
 21
29.0769944104
 31
0.0
  0
LINE
  5
14E
330
1F
100
AcDbEntity
  8
0
  6
Continuous
 62
     7
370
    25
100
AcDbLine
 10
35.648295726
 20
28.7629086502
 30
0.0
 11
35.648295726
 21
28.7302470177
 31
0.0
  0
LINE
  5
14F
330
1F
100
AcDbEntity
  8
0
  6
Continuous
 62
     7
370
    25
100
AcDbLine
 10
35.435697806
 20
28.6668355874
 30
0.0
 11
35.435697806
 21
28.6341739549
 31
0.0
  0
LINE
  5
150
330
1F
100
AcDbEntity
  8
0
  6
Continuous
 62
     7
370
    25
100
AcDbLine
 10
35.5690137201
 20
28.7299957258
 30
0.0
 11
35.5690137201
 21
28.6973340933
 31
0.0
  0
LINE
  5
151
330
1F
100
AcDbEntity
  8
0
  6
Continuous
 62
     7
370
    25
100
AcDbLine
 10
35.4079546898
 20
28.6788527818
 30
0.0
 11
35.4079546898
 21
28.6461911494
 31
0.0
  0
LINE
  5
152
330
1F
100
AcDbEntity
  8
0
  6
Continuous
 62
     7
370
    25
100
AcDbLine
 10
35.3854147527
 20
28.8268736268
 30
0.0
 11
35.3622520436
 21
28.8153078833
 31
0.0
  0
LINE
  5
153
330
1F
100
AcDbEntity
  8
0
  6
Continuous
 62
     7
370
    25
100
AcDbLine
 10
35.3622520436
 20
28.8153078833
 30
0.0
 11
35.2898220288
 21
28.8635701402
 31
0.0
  0
LINE
  5
154
330
1F
100
AcDbEntity
  8
0
  6
Continuous
 62
     7
370
    25
100
AcDbLine
 10
35.2898220288
 20
28.8635701402
 30
0.0
 11
35.3631830206
 21
28.9001591652
 31
0.0
  0
SPLINE
  5
155
330
1F
100
AcDbEntity
  8
0
  6
Continuous
 62
     7
370
    25
100
AcDbSpline
210
0.0
220
0.0
230
1.0
 70
     8
 71
     3
 72
    11
 73
     7
 74
     0
 42
0.00000001
 43
0.00000001
 40
0.0
 40
0.0
 40
0.0
 40
0.0
 40
0.280036543337255
 40
0.559956585249253
 40
0.7799786280235663
 40
1.0
 40
1.0
 40
1.0
 40
1.0
 10
35.36318302064311
 20
28.90015916519631
 30
0.0
 10
35.37392076680043
 20
28.89873744700738
 30
0.0
 10
35.39539179197406
 20
28.8958946020959
 30
0.0
 10
35.42336573032092
 20
28.88840448855403
 30
0.0
 10
35.44685475423027
 20
28.87915621239399
 30
0.0
 10
35.45879908197998
 20
28.87191848469049
 30
0.0
 10
35.46477123675092
 20
28.8682996263553
 30
0.0
  0
SPLINE
  5
156
330
1F
100
AcDbEntity
  8
0
  6
Continuous
 62
     7
370
    25
100
AcDbSpline
210
0.0
220
0.0
230
1.0
 70
     8
 71
     3
 72
    14
 73
    10
 74
     0
 42
0.00000001
 43
0.00000001
 40
0.0
 40
0.0
 40
0.0
 40
0.0
 40
0.1401048737260532
 40
0.2801465740474863
 40
0.4201378864434608
 40
0.5599767750700324
 40
0.7065528376826363
 40
0.853242357006755
 40
1.0
 40
1.0
 40
1.0
 40
1.0
 10
35.46477123675092
 20
28.8682996263553
 30
0.0
 10
35.47091015198345
 20
28.86376798357021
 30
0.0
 10
35.48318521440649
 20
28.85470674132156
 30
0.0
 10
35.49545094759004
 20
28.83885436712418
 30
0.0
 10
35.50206473279329
 20
28.82195476689781
 30
0.0
 10
35.50049743825137
 20
28.80425595862082
 30
0.0
 10
35.49002539303638
 20
28.78739774991118
 30
0.0
 10
35.47337870629789
 20
28.77194464858843
 30
0.0
 10
35.45825731470668
 20
28.76363449158205
 30
0.0
 10
35.45069486369785
 20
28.75947844847866
 30
0.0
  0
SPLINE
  5
157
330
1F
100
AcDbEntity
  8
0
  6
Continuous
 62
     7
370
    25
100
AcDbSpline
210
0.0
220
0.0
230
1.0
 70
     8
 71
     3
 72
    14
 73
    10
 74
     0
 42
0.00000001
 43
0.00000001
 40
0.0
 40
0.0
 40
0.0
 40
0.0
 40
0.1401173300670953
 40
0.2802012905697795
 40
0.420247850023688
 40
0.5600933501830169
 40
0.7065838167914884
 40
0.8532454150744285
 40
0.9999999999999999
 40
0.9999999999999999
 40
0.9999999999999999
 40
0.9999999999999999
 10
35.45069486369785
 20
28.75947844847866
 30
0.0
 10
35.4428470221745
 20
28.75592007030097
 30
0.0
 10
35.42715320812611
 20
28.74880416138915
 30
0.0
 10
35.39984473222274
 20
28.74152425706627
 30
0.0
 10
35.37089367626845
 20
28.73698195064092
 30
0.0
 10
35.34013222577205
 20
28.73691959090463
 30
0.0
 10
35.31049338414122
 20
28.74246311760464
 30
0.0
 10
35.28364511870191
 20
28.7520767673031
 30
0.0
 10
35.26924434316659
 20
28.7608225500545
 30
0.0
 10
35.2620416735211
 20
28.765196827245
 30
0.0
  0
SPLINE
  5
158
330
1F
100
AcDbEntity
  8
0
  6
Continuous
 62
     7
370
    25
100
AcDbSpline
210
0.0
220
0.0
230
1.0
 70
     8
 71
     3
 72
    13
 73
     9
 74
     0
 42
0.00000001
 43
0.00000001
 40
0.0
 40
0.0
 40
0.0
 40
0.0
 40
0.1868343166840362
 40
0.3735404940804232
 40
0.559897546357988
 40
0.7063615275016681
 40
0.8531472079991906
 40
0.9999999999999999
 40
0.9999999999999999
 40
0.9999999999999999
 40
0.9999999999999999
 10
35.2620416735211
 20
28.765196827245
 30
0.0
 10
35.25646509633806
 20
28.76927918843698
 30
0.0
 10
35.24531576663675
 20
28.77744111095598
 30
0.0
 10
35.23404150903756
 20
28.79170192442755
 30
0.0
 10
35.22891834663741
 20
28.80602332507605
 30
0.0
 10
35.23158090907789
 20
28.81942128745241
 30
0.0
 10
35.23934333908925
 20
28.8309053174886
 30
0.0
 10
35.2470023360672
 20
28.83776196438166
 30
0.0
 10
35.25083270979366
 20
28.84119107137655
 30
0.0
  0
LINE
  5
159
330
1F
100
AcDbEntity
  8
0
  6
Continuous
 62
     7
370
    25
100
AcDbLine
 10
35.2508327098
 20
28.8411910714
 30
0.0
 11
35.2776448489
 21
28.8307862017
 31
0.0
  0
SPLINE
  5
15A
330
1F
100
AcDbEntity
  8
0
  6
Continuous
 62
     7
370
    25
100
AcDbSpline
210
0.0
220
0.0
230
1.0
 70
     8
 71
     3
 72
    12
 73
     8
 74
     0
 42
0.00000001
 43
0.00000001
 40
0.0
 40
0.0
 40
0.0
 40
0.0
 40
0.1869786982317855
 40
0.3735356132633562
 40
0.5599076619626309
 40
0.7798457772684468
 40
1.0
 40
1.0
 40
1.0
 40
1.0
 10
35.27764484894235
 20
28.83078620174156
 30
0.0
 10
35.27436789245035
 20
28.82761511870335
 30
0.0
 10
35.26782137156614
 20
28.82128010589928
 30
0.0
 10
35.26163036636233
 20
28.81057928243069
 30
0.0
 10
35.26315304404159
 20
28.79868458610118
 30
0.0
 10
35.27047803622032
 20
28.7868464207025
 30
0.0
 10
35.27967344398135
 20
28.77991001280687
 30
0.0
 10
35.28427340556522
 20
28.77644010579684
 30
0.0
  0
SPLINE
  5
15B
330
1F
100
AcDbEntity
  8
0
  6
Continuous
 62
     7
370
    25
100
AcDbSpline
210
0.0
220
0.0
230
1.0
 70
     8
 71
     3
 72
    12
 73
     8
 74
     0
 42
0.00000001
 43
0.00000001
 40
0.0
 40
0.0
 40
0.0
 40
0.0
 40
0.1869607690625446
 40
0.3737582841858587
 40
0.5605043871401314
 40
0.7801306981420348
 40
1.0
 40
1.0
 40
1.0
 40
1.0
 10
35.28427340556522
 20
28.77644010579684
 30
0.0
 10
35.28878123408585
 20
28.77361744722746
 30
0.0
 10
35.29779295489615
 20
28.76797459483108
 30
0.0
 10
35.31438965364125
 20
28.76145953373698
 30
0.0
 10
35.3339901883625
 20
28.75678020524078
 30
0.0
 10
35.35662056051549
 20
28.75554928949407
 30
0.0
 10
35.37184171468086
 20
28.75769538468221
 30
0.0
 10
35.37945649954307
 20
28.758769025549
 30
0.0
  0
SPLINE
  5
15C
330
1F
100
AcDbEntity
  8
0
  6
Continuous
 62
     7
370
    25
100
AcDbSpline
210
0.0
220
0.0
230
1.0
 70
     8
 71
     3
 72
     9
 73
     5
 74
     0
 42
0.00000001
 43
0.00000001
 40
0.0
 40
0.0
 40
0.0
 40
0.0
 40
0.5597740656923009
 40
1.0
 40
1.0
 40
1.0
 40
1.0
 10
35.37945649954307
 20
28.758769025549
 30
0.0
 10
35.3888261555941
 20
28.7609525927664
 30
0.0
 10
35.4055644373854
 20
28.76485339373456
 30
0.0
 10
35.41960215179663
 20
28.77137594693676
 30
0.0
 10
35.42578191773887
 20
28.77424734401427
 30
0.0
  0
SPLINE
  5
15D
330
1F
100
AcDbEntity
  8
0
  6
Continuous
 62
     7
370
    25
100
AcDbSpline
210
0.0
220
0.0
230
1.0
 70
     8
 71
     3
 72
    14
 73
    10
 74
     0
 42
0.00000001
 43
0.00000001
 40
0.0
 40
0.0
 40
0.0
 40
0.0
 40
0.1401851328038264
 40
0.2802701207968979
 40
0.4202495961151367
 40
0.5600727280253396
 40
0.7065152079621893
 40
0.8532660018031653
 40
1.0
 40
1.0
 40
1.0
 40
1.0
 10
35.42578191773887
 20
28.77424734401427
 30
0.0
 10
35.43131390065186
 20
28.77719202100499
 30
0.0
 10
35.44237391456533
 20
28.78307927138162
 30
0.0
 10
35.45606065428205
 20
28.7935264204222
 30
0.0
 10
35.46564344586545
 20
28.80540971535726
 30
0.0
 10
35.46950376518321
 20
28.81863792776988
 30
0.0
 10
35.46570874998882
 20
28.83203104507414
 30
0.0
 10
35.45684827892543
 20
28.84481056227121
 30
0.0
 10
35.44725926108232
 20
28.85205732384588
 30
0.0
 10
35.4424650265425
 20
28.8556804972732
 30
0.0
  0
SPLINE
  5
15E
330
1F
100
AcDbEntity
  8
0
  6
Continuous
 62
     7
370
    25
100
AcDbSpline
210
0.0
220
0.0
230
1.0
 70
     8
 71
     3
 72
    11
 73
     7
 74
     0
 42
0.00000001
 43
0.00000001
 40
0.0
 40
0.0
 40
0.0
 40
0.0
 40
0.2799716781945321
 40
0.5599536490832387
 40
0.7800980504298256
 40
1.0
 40
1.0
 40
1.0
 40
1.0
 10
35.4424650265425
 20
28.8556804972732
 30
0.0
 10
35.4371076101338
 20
28.85888730731468
 30
0.0
 10
35.4263925803599
 20
28.8653010452907
 30
0.0
 10
35.40779684486691
 20
28.8716172804627
 30
0.0
 10
35.38983293415968
 20
28.87646652462522
 30
0.0
 10
35.37802240921616
 20
28.87801611723304
 30
0.0
 10
35.37212040035934
 20
28.87879048664842
 30
0.0
  0
LINE
  5
15F
330
1F
100
AcDbEntity
  8
0
  6
Continuous
 62
     7
370
    25
100
AcDbLine
 10
35.3721204004
 20
28.8787904866
 30
0.0
 11
35.335253709
 21
28.8604314811
 31
0.0
  0
LINE
  5
160
330
1F
100
AcDbEntity
  8
0
  6
Continuous
 62
     7
370
    25
100
AcDbLine
 10
35.335253709
 20
28.8604314811
 30
0.0
 11
35.3854147527
 21
28.8268736268
 31
0.0
  0
LINE
  5
161
330
1F
100
AcDbEntity
  8
0
  6
Continuous
 62
     7
370
    25
100
AcDbLine
 10
35.2620416735
 20
28.7651968272
 30
0.0
 11
35.2620416735
 21
28.7325351948
 31
0.0
  0
LINE
  5
162
330
1F
100
AcDbEntity
  8
0
  6
Continuous
 62
     7
370
    25
100
AcDbLine
 10
35.4506948637
 20
28.7594784485
 30
0.0
 11
35.4506948637
 21
28.726816816
 31
0.0
  0
LINE
  5
163
330
1F
100
AcDbEntity
  8
0
  6
Continuous
 62
     7
370
    25
100
AcDbLine
 10
35.4424650265
 20
28.8556804973
 30
0.0
 11
35.4424650265
 21
28.8230188648
 31
0.0
  0
LINE
  5
164
330
1F
100
AcDbEntity
  8
0
  6
Continuous
 62
     7
370
    25
100
AcDbLine
 10
35.2776448489
 20
28.8307862017
 30
0.0
 11
35.2776448489
 21
28.7981245693
 31
0.0
  0
LINE
  5
165
330
1F
100
AcDbEntity
  8
0
  6
Continuous
 62
     7
370
    25
100
AcDbLine
 10
35.3622520436
 20
28.8153078833
 30
0.0
 11
35.3622520436
 21
28.7826462508
 31
0.0
  0
LINE
  5
166
330
1F
100
AcDbEntity
  8
0
  6
Continuous
 62
     7
370
    25
100
AcDbLine
 10
35.3854147527
 20
28.8268736268
 30
0.0
 11
35.3854147527
 21
28.7942119943
 31
0.0
  0
LINE
  5
167
330
1F
100
AcDbEntity
  8
0
  6
Continuous
 62
     7
370
    25
100
AcDbLine
 10
35.2898220288
 20
28.8635701402
 30
0.0
 11
35.2898220288
 21
28.8309085077
 31
0.0
  0
LINE
  5
168
330
1F
100
AcDbEntity
  8
0
  6
Continuous
 62
     7
370
    25
100
AcDbLine
 10
35.3721204004
 20
28.8787904866
 30
0.0
 11
35.3721204004
 21
28.8461288542
 31
0.0
  0
LINE
  5
169
330
1F
100
AcDbEntity
  8
0
  6
Continuous
 62
     7
370
    25
100
AcDbLine
 10
35.3076184598
 20
28.9068756818
 30
0.0
 11
35.2803222126
 21
28.8970942444
 31
0.0
  0
LINE
  5
16A
330
1F
100
AcDbEntity
  8
0
  6
Continuous
 62
     7
370
    25
100
AcDbLine
 10
35.2803222126
 20
28.8970942444
 30
0.0
 11
35.2285971274
 21
28.9452705107
 31
0.0
  0
LINE
  5
16B
330
1F
100
AcDbEntity
  8
0
  6
Continuous
 62
     7
370
    25
100
AcDbLine
 10
35.2285971274
 20
28.9452705107
 30
0.0
 11
35.2558933747
 21
28.955051948
 31
0.0
  0
LINE
  5
16C
330
1F
100
AcDbEntity
  8
0
  6
Continuous
 62
     7
370
    25
100
AcDbLine
 10
35.2558933747
 20
28.955051948
 30
0.0
 11
35.3076184598
 21
28.9068756818
 31
0.0
  0
LINE
  5
16D
330
1F
100
AcDbEntity
  8
0
  6
Continuous
 62
     7
370
    25
100
AcDbLine
 10
35.2803222126
 20
28.8970942444
 30
0.0
 11
35.2803222126
 21
28.864432612
 31
0.0
  0
LINE
  5
16E
330
1F
100
AcDbEntity
  8
0
  6
Continuous
 62
     7
370
    25
100
AcDbLine
 10
35.3076184598
 20
28.9068756818
 30
0.0
 11
35.3076184598
 21
28.8742140493
 31
0.0
  0
LINE
  5
16F
330
1F
100
AcDbEntity
  8
0
  6
Continuous
 62
     7
370
    25
100
AcDbLine
 10
35.2285971274
 20
28.9452705107
 30
0.0
 11
35.2285971274
 21
28.9126088782
 31
0.0
  0
LINE
  5
170
330
1F
100
AcDbEntity
  8
0
  6
Continuous
 62
     7
370
    25
100
AcDbLine
 10
35.2137473684
 20
29.0739291238
 30
0.0
 11
35.2417511582
 21
29.0812383297
 31
0.0
  0
LINE
  5
171
330
1F
100
AcDbEntity
  8
0
  6
Continuous
 62
     7
370
    25
100
AcDbLine
 10
35.2417511582
 20
29.0812383297
 30
0.0
 11
35.3126171315
 21
28.990668669
 31
0.0
  0
SPLINE
  5
172
330
1F
100
AcDbEntity
  8
0
  6
Continuous
 62
     7
370
    25
100
AcDbSpline
210
0.0
220
0.0
230
1.0
 70
     8
 71
     3
 72
     9
 73
     5
 74
     0
 42
0.00000001
 43
0.00000001
 40
0.0
 40
0.0
 40
0.0
 40
0.0
 40
0.559881254703396
 40
1.0
 40
1.0
 40
1.0
 40
1.0
 10
35.31261713151174
 20
28.99066866901034
 30
0.0
 10
35.30870433466024
 20
28.9896963065071
 30
0.0
 10
35.30171571552248
 20
28.98795957662897
 30
0.0
 10
35.29415838936129
 20
28.98752694173438
 30
0.0
 10
35.29083226845343
 20
28.9873365310074
 30
0.0
  0
SPLINE
  5
173
330
1F
100
AcDbEntity
  8
0
  6
Continuous
 62
     7
370
    25
100
AcDbSpline
210
0.0
220
0.0
230
1.0
 70
     8
 71
     3
 72
    10
 73
     6
 74
     0
 42
0.00000001
 43
0.00000001
 40
0.0
 40
0.0
 40
0.0
 40
0.0
 40
0.2796426966153792
 40
0.5596950963243026
 40
1.0
 40
1.0
 40
1.0
 40
1.0
 10
35.29083226845343
 20
28.9873365310074
 30
0.0
 10
35.28163887783081
 20
28.9874496915386
 30
0.0
 10
35.26323862739567
 20
28.98767617839193
 30
0.0
 10
35.23173702624541
 20
28.99342732594965
 30
0.0
 10
35.21044872540713
 20
28.99925363018302
 30
0.0
 10
35.19743665041882
 20
29.00281484947267
 30
0.0
  0
SPLINE
  5
174
330
1F
100
AcDbEntity
  8
0
  6
Continuous
 62
     7
370
    25
100
AcDbSpline
210
0.0
220
0.0
230
1.0
 70
     8
 71
     3
 72
    12
 73
     8
 74
     0
 42
0.00000001
 43
0.00000001
 40
0.0
 40
0.0
 40
0.0
 40
0.0
 40
0.2803312839461146
 40
0.5605492505782336
 40
0.7072856041817227
 40
0.8538610120662823
 40
1.0
 40
1.0
 40
1.0
 40
1.0
 10
35.19743665041882
 20
29.00281484947267
 30
0.0
 10
35.18720143008282
 20
29.0056607928041
 30
0.0
 10
35.16673512675739
 20
29.01135152906145
 30
0.0
 10
35.14007230671101
 20
29.017618608937
 30
0.0
 10
35.11751979156705
 20
29.02088090191756
 30
0.0
 10
35.09942992351567
 20
29.02170799265851
 30
0.0
 10
35.08799989961277
 20
29.01965973332176
 30
0.0
 10
35.08229340840806
 20
29.0186371305705
 30
0.0
  0
SPLINE
  5
175
330
1F
100
AcDbEntity
  8
0
  6
Continuous
 62
     7
370
    25
100
AcDbSpline
210
0.0
220
0.0
230
1.0
 70
     8
 71
     3
 72
    12
 73
     8
 74
     0
 42
0.00000001
 43
0.00000001
 40
0.0
 40
0.0
 40
0.0
 40
0.0
 40
0.1867636393966743
 40
0.3733942009337862
 40
0.5601535593976859
 40
0.7798554478480365
 40
1.0
 40
1.0
 40
1.0
 40
1.0
 10
35.08229340840806
 20
29.0186371305705
 30
0.0
 10
35.0781993032876
 20
29.01734273224782
 30
0.0
 10
35.07001401028874
 20
29.01475485792202
 30
0.0
 10
35.06130465793483
 20
29.00824367021842
 30
0.0
 10
35.05604226724725
 20
29.00023328016238
 30
0.0
 10
35.0555398064023
 20
28.99100967241185
 30
0.0
 10
35.05939717821259
 20
28.98508027894481
 30
0.0
 10
35.06132780515707
 20
28.98211259852538
 30
0.0
  0
SPLINE
  5
176
330
1F
100
AcDbEntity
  8
0
  6
Continuous
 62
     7
370
    25
100
AcDbSpline
210
0.0
220
0.0
230
1.0
 70
     8
 71
     3
 72
    12
 73
     8
 74
     0
 42
0.00000001
 43
0.00000001
 40
0.0
 40
0.0
 40
0.0
 40
0.0
 40
0.1870213984419271
 40
0.3736867533454925
 40
0.5602712630966514
 40
0.7797476356389599
 40
1.0
 40
1.0
 40
1.0
 40
1.0
 10
35.06132780515707
 20
28.98211259852538
 30
0.0
 10
35.06371022582911
 20
28.97947619231294
 30
0.0
 10
35.06847053162008
 20
28.97420839896826
 30
0.0
 10
35.08002578385312
 20
28.96805752547954
 30
0.0
 10
35.09522429613908
 20
28.96432351354248
 30
0.0
 10
35.11292319483866
 20
28.96398464933039
 30
0.0
 10
35.1242740103707
 20
28.96645187554894
 30
0.0
 10
35.12995943356129
 20
28.96768766562233
 30
0.0
  0
LINE
  5
177
330
1F
100
AcDbEntity
  8
0
  6
Continuous
 62
     7
370
    25
100
AcDbLine
 10
35.1299594336
 20
28.9676876656
 30
0.0
 11
35.1403863766
 21
28.9495866321
 31
0.0
  0
SPLINE
  5
178
330
1F
100
AcDbEntity
  8
0
  6
Continuous
 62
     7
370
    25
100
AcDbSpline
210
0.0
220
0.0
230
1.0
 70
     8
 71
     3
 72
    13
 73
     9
 74
     0
 42
0.00000001
 43
0.00000001
 40
0.0
 40
0.0
 40
0.0
 40
0.0
 40
0.1867847307037738
 40
0.3732470846354795
 40
0.5595250817860609
 40
0.7062275232207219
 40
0.8530689523118623
 40
1.0
 40
1.0
 40
1.0
 40
1.0
 10
35.14038637656355
 20
28.94958663208378
 30
0.0
 10
35.13280552754066
 20
28.948313532067
 30
0.0
 10
35.11765691348536
 20
28.94576952931087
 30
0.0
 10
35.09362307352637
 20
28.94609084772083
 30
0.0
 10
35.07278226315064
 20
28.95073156738464
 30
0.0
 10
35.05688931810707
 20
28.95811229183183
 30
0.0
 10
35.04523811256583
 20
28.96656416284788
 30
0.0
 10
35.03972889469179
 20
28.97297356460506
 30
0.0
 10
35.03697344543034
 20
28.97617924311369
 30
0.0
  0
SPLINE
  5
179
330
1F
100
AcDbEntity
  8
0
  6
Continuous
 62
     7
370
    25
100
AcDbSpline
210
0.0
220
0.0
230
1.0
 70
     8
 71
     3
 72
    13
 73
     9
 74
     0
 42
0.00000001
 43
0.00000001
 40
0.0
 40
0.0
 40
0.0
 40
0.0
 40
0.1868471974014693
 40
0.373391045553836
 40
0.559816833791343
 40
0.7065322944962071
 40
0.853211865371705
 40
1.0
 40
1.0
 40
1.0
 40
1.0
 10
35.03697344543034
 20
28.97617924311369
 30
0.0
 10
35.03417547966486
 20
28.98026644365395
 30
0.0
 10
35.02858409067362
 20
28.98843420910261
 30
0.0
 10
35.02653248239773
 20
29.00173867712062
 30
0.0
 10
35.03140138872517
 20
29.01380617417724
 30
0.0
 10
35.04091886342594
 20
29.02373035322077
 30
0.0
 10
35.0535239948786
 20
29.03130499543697
 30
0.0
 10
35.06413730626109
 20
29.0345110910225
 30
0.0
 10
35.06944592506598
 20
29.03611473183753
 30
0.0
  0
SPLINE
  5
17A
330
1F
100
AcDbEntity
  8
0
  6
Continuous
 62
     7
370
    25
100
AcDbSpline
210
0.0
220
0.0
230
1.0
 70
     8
 71
     3
 72
    12
 73
     8
 74
     0
 42
0.00000001
 43
0.00000001
 40
0.0
 40
0.0
 40
0.0
 40
0.0
 40
0.1861932211848912
 40
0.37262394869717
 40
0.5594033423511738
 40
0.7796878412358589
 40
1.0
 40
1.0
 40
1.0
 40
1.0
 10
35.06944592506598
 20
29.03611473183753
 30
0.0
 10
35.07759481308435
 20
29.03770537345823
 30
0.0
 10
35.09390298376628
 20
29.04088868570718
 30
0.0
 10
35.11995658003026
 20
29.03950472431621
 30
0.0
 10
35.14603025804889
 20
29.03515732174367
 30
0.0
 10
35.17253183727643
 20
29.02872291490426
 30
0.0
 10
35.1907980094681
 20
29.02381929689255
 30
0.0
 10
35.19993166892294
 20
29.02136733396646
 30
0.0
  0
SPLINE
  5
17B
330
1F
100
AcDbEntity
  8
0
  6
Continuous
 62
     7
370
    25
100
AcDbSpline
210
0.0
220
0.0
230
1.0
 70
     8
 71
     3
 72
    10
 73
     6
 74
     0
 42
0.00000001
 43
0.00000001
 40
0.0
 40
0.0
 40
0.0
 40
0.0
 40
0.5600956985499245
 40
0.7801084077952719
 40
0.9999999999999999
 40
0.9999999999999999
 40
0.9999999999999999
 40
0.9999999999999999
 10
35.19993166892294
 20
29.02136733396646
 30
0.0
 10
35.2119267174197
 20
29.01803172635971
 30
0.0
 10
35.22863357342388
 20
29.01338584968923
 30
0.0
 10
35.25082524921976
 20
29.00828849336329
 30
0.0
 10
35.261161999997
 20
29.00724768521266
 30
0.0
 10
35.2663289523981
 20
29.00672742441806
 30
0.0
  0
LINE
  5
17C
330
1F
100
AcDbEntity
  8
0
  6
Continuous
 62
     7
370
    25
100
AcDbLine
 10
35.2663289524
 20
29.0067274244
 30
0.0
 11
35.2137473684
 21
29.0739291238
 31
0.0
  0
LINE
  5
17D
330
1F
100
AcDbEntity
  8
0
  6
Continuous
 62
     7
370
    25
100
AcDbLine
 10
35.0369734454
 20
28.9761792431
 30
0.0
 11
35.0369734454
 21
28.9435176106
 31
0.0
  0
LINE
  5
17E
330
1F
100
AcDbEntity
  8
0
  6
Continuous
 62
     7
370
    25
100
AcDbLine
 10
35.1403863766
 20
28.9495866321
 30
0.0
 11
35.1403863766
 21
28.9169249996
 31
0.0
  0
LINE
  5
17F
330
1F
100
AcDbEntity
  8
0
  6
Continuous
 62
     7
370
    25
100
AcDbLine
 10
35.1974366504
 20
29.0028148495
 30
0.0
 11
35.1974366504
 21
28.970153217
 31
0.0
  0
LINE
  5
180
330
1F
100
AcDbEntity
  8
0
  6
Continuous
 62
     7
370
    25
100
AcDbLine
 10
35.2908322685
 20
28.987336531
 30
0.0
 11
35.2908322685
 21
28.9546748985
 31
0.0
  0
LINE
  5
181
330
1F
100
AcDbEntity
  8
0
  6
Continuous
 62
     7
370
    25
100
AcDbLine
 10
35.0822934084
 20
29.0186371306
 30
0.0
 11
35.0822934084
 21
28.9859754981
 31
0.0
  0
LINE
  5
182
330
1F
100
AcDbEntity
  8
0
  6
Continuous
 62
     7
370
    25
100
AcDbLine
 10
35.3126171315
 20
28.990668669
 30
0.0
 11
35.3126171315
 21
28.9580070365
 31
0.0
  0
LINE
  5
183
330
1F
100
AcDbEntity
  8
0
  6
Continuous
 62
     7
370
    25
100
AcDbLine
 10
35.2137473684
 20
29.0739291238
 30
0.0
 11
35.2137473684
 21
29.0412674913
 31
0.0
  0
LWPOLYLINE
  5
184
330
1F
100
AcDbEntity
  8
0
  6
Continuous
 62
     7
370
    25
100
AcDbPolyline
 90
       33
 70
   128
 43
0.0
 10
38.1429115759
 20
29.3393655087
 10
38.1427565401
 20
29.3439431821
 10
38.1398578918
 20
29.383212919
 10
38.1341553158
 20
29.4223801873
 10
38.1256585221
 20
29.4613782948
 10
38.1143819787
 20
29.5001408376
 10
38.1003448867
 20
29.5386018126
 10
38.0835711478
 20
29.5766957303
 10
38.0640893235
 20
29.6143577262
 10
38.0419325866
 20
29.6515236714
 10
38.0171386644
 20
29.6881302813
 10
37.9897497749
 20
29.7241152241
 10
37.9598125545
 20
29.7594172264
 10
37.9273779788
 20
29.7939761775
 10
37.892501276
 20
29.8277332322
 10
37.8552418324
 20
29.8606309106
 10
37.8156630915
 20
29.8926131961
 10
37.7738324461
 20
29.9236256308
 10
37.7298211235
 20
29.9536154083
 10
37.683704064
 20
29.9825314634
 10
37.6355597934
 20
30.0103245592
 10
37.5854702896
 20
30.036947371
 10
37.5335208425
 20
30.0623545667
 10
37.4797999091
 20
30.0865028843
 10
37.4243989628
 20
30.1093512051
 10
37.3674123378
 20
30.130860624
 10
37.308937068
 20
30.150994516
 10
37.2490727224
 20
30.169718598
 10
37.187921235
 20
30.1870009874
 10
37.1255867316
 20
30.2028122568
 10
37.0621753525
 20
30.2171254834
 10
36.9977950715
 20
30.2299162954
 10
36.9895012482
 20
30.2314404287
  0
ARC
  5
185
330
1F
100
AcDbEntity
  8
0
  6
Continuous
 62
     7
370
    25
100
AcDbCircle
 10
36.5083257722
 20
27.5808988171
 30
0.0
 40
2.69387630215424
100
AcDbArc
 50
80.5856411574
 51
83.3683512288
  0
ARC
  5
186
330
1F
100
AcDbEntity
  8
0
  6
Continuous
 62
     7
370
    25
100
AcDbCircle
 10
36.4936173317
 20
27.4419440095
 30
0.0
 40
2.83361817467613
100
AcDbArc
 50
84.0865836874
 51
90.3064450414
  0
LWPOLYLINE
  5
187
330
1F
100
AcDbEntity
  8
0
  6
Continuous
 62
     7
370
    25
100
AcDbPolyline
 90
        3
 70
   128
 43
0.0
 10
36.3560722489
 20
30.2722664334
 10
36.3253925539
 20
30.2706232492
 10
36.2578163562
 20
30.2658210246
  0
ARC
  5
188
330
1F
100
AcDbEntity
  8
0
  6
Continuous
 62
     7
370
    25
100
AcDbCircle
 10
37.3532711374
 20
29.3233242854
 30
0.0
 40
0.4398830546702511
100
AcDbArc
 50
346.1449930776
 51
359.9622798615
  0
LWPOLYLINE
  5
189
330
1F
100
AcDbEntity
  8
0
  6
Continuous
 62
     7
370
    25
100
AcDbPolyline
 90
       12
 70
   128
 43
0.0
 10
36.2578163562
 20
30.2658210246
 10
36.236304099
 20
30.2632266101
 10
36.2155247381
 20
30.2590961698
 10
36.1958059764
 20
30.2534948431
 10
36.1774587905
 20
30.2465109665
 10
36.1607725266
 20
30.2382546796
 10
36.1460103369
 20
30.2288561892
 10
36.13340503
 20
30.218463715
 10
36.1231553992
 20
30.2072411526
 10
36.1154230873
 20
30.1953654885
 10
36.1103300373
 20
30.183024009
 10
36.1100780122
 20
30.1821593511
  0
SPLINE
  5
18A
330
1F
100
AcDbEntity
  8
0
  6
Continuous
 62
     7
370
    25
100
AcDbSpline
210
0.0
220
0.0
230
1.0
 70
     8
 71
     3
 72
    13
 73
     9
 74
     0
 42
0.00000001
 43
0.00000001
 40
0.0
 40
0.0
 40
0.0
 40
0.0
 40
0.1680179022445954
 40
0.3359219989747713
 40
0.5036679972372594
 40
0.671239095135632
 40
0.8467585080107357
 40
1.0
 40
1.0
 40
1.0
 40
1.0
 10
37.95824908448633
 20
29.35863795740771
 30
0.0
 10
37.95072431992011
 20
29.35858009430267
 30
0.0
 10
37.93567988762375
 20
29.35846440728568
 30
0.0
 10
37.91342889984139
 20
29.35594691288854
 30
0.0
 10
37.8924853747252
 20
29.3508478850314
 30
0.0
 10
37.87444927901128
 20
29.34245480083061
 30
0.0
 10
37.86190043949119
 20
29.33158369668928
 30
0.0
 10
37.85761757878045
 20
29.3234347974771
 30
0.0
 10
37.85562125879353
 20
29.31963644598557
 30
0.0
  0
SPLINE
  5
18B
330
1F
100
AcDbEntity
  8
0
  6
Continuous
 62
     7
370
    25
100
AcDbSpline
210
0.0
220
0.0
230
1.0
 70
     8
 71
     3
 72
     9
 73
     5
 74
     0
 42
0.00000001
 43
0.00000001
 40
0.0
 40
0.0
 40
0.0
 40
0.0
 40
0.5598097653225612
 40
0.9999999999999999
 40
0.9999999999999999
 40
0.9999999999999999
 40
0.9999999999999999
 10
38.01056999490842
 20
29.35229614636986
 30
0.0
 10
38.00108182889475
 20
29.35428295871732
 30
0.0
 10
37.98413291767273
 20
29.35783204355029
 30
0.0
 10
37.96616040781732
 20
29.35839163202549
 30
0.0
 10
37.95824908448633
 20
29.35863795740771
 30
0.0
  0
SPLINE
  5
18C
330
1F
100
AcDbEntity
  8
0
  6
Continuous
 62
     7
370
    25
100
AcDbSpline
210
0.0
220
0.0
230
1.0
 70
     8
 71
     3
 72
    11
 73
     7
 74
     0
 42
0.00000001
 43
0.00000001
 40
0.0
 40
0.0
 40
0.0
 40
0.0
 40
0.1037008415810168
 40
0.3710085703446281
 40
0.6852607037703788
 40
1.0
 40
1.0
 40
1.0
 40
1.0
 10
38.05707638865578
 20
29.32078071768275
 30
0.0
 10
38.05654500164748
 20
29.32223552685731
 30
0.0
 10
38.0546438682406
 20
29.32744037055719
 30
0.0
 10
38.04641854748014
 20
29.33620836631482
 30
0.0
 10
38.03142300332011
 20
29.34596151593625
 30
0.0
 10
38.01752458588628
 20
29.3501835128931
 30
0.0
 10
38.01056999490842
 20
29.35229614636986
 30
0.0
  0
LINE
  5
18D
330
1F
100
AcDbEntity
  8
0
  6
Continuous
 62
     7
370
    25
100
AcDbLine
 10
38.0109796248
 20
29.2414326904
 30
0.0
 11
38.0030104612
 21
29.2594907286
 31
0.0
  0
SPLINE
  5
18E
330
1F
100
AcDbEntity
  8
0
  6
Continuous
 62
     7
370
    25
100
AcDbSpline
210
0.0
220
0.0
230
1.0
 70
     8
 71
     3
 72
    13
 73
     9
 74
     0
 42
0.00000001
 43
0.00000001
 40
0.0
 40
0.0
 40
0.0
 40
0.0
 40
0.186792101910828
 40
0.373471337901815
 40
0.5598983729897063
 40
0.7064430509678401
 40
0.8531756317092601
 40
1.0
 40
1.0
 40
1.0
 40
1.0
 10
38.09048506520438
 20
29.30224958333216
 30
0.0
 10
38.08992226695356
 20
29.29706579142687
 30
0.0
 10
38.08879701051308
 20
29.28670133983352
 30
0.0
 10
38.08067776500864
 20
29.27175725863389
 30
0.0
 10
38.06794562301726
 20
29.25912102759245
 30
0.0
 10
38.05044478574666
 20
29.25020511859345
 30
0.0
 10
38.03143375917028
 20
29.24461324400026
 30
0.0
 10
38.01779909066575
 20
29.24249309587989
 30
0.0
 10
38.01097962481209
 20
29.24143269036238
 30
0.0
  0
LINE
  5
18F
330
1F
100
AcDbEntity
  8
0
  6
Continuous
 62
     7
370
    25
100
AcDbLine
 10
38.0902803681
 20
29.3039107755
 30
0.0
 11
38.0904850652
 21
29.3022495833
 31
0.0
  0
SPLINE
  5
190
330
1F
100
AcDbEntity
  8
0
  6
Continuous
 62
     7
370
    25
100
AcDbSpline
210
0.0
220
0.0
230
1.0
 70
     8
 71
     3
 72
    11
 73
     7
 74
     0
 42
0.00000001
 43
0.00000001
 40
0.0
 40
0.0
 40
0.0
 40
0.0
 40
0.2800347784531187
 40
0.5599738320272494
 40
0.7799945208156391
 40
1.0
 40
1.0
 40
1.0
 40
1.0
 10
37.85911864780047
 20
29.2408307557554
 30
0.0
 10
37.85276472224516
 20
29.24602632112356
 30
0.0
 10
37.84005904311032
 20
29.25641567584882
 30
0.0
 10
37.82800355754062
 20
29.27279594712881
 30
0.0
 10
37.82114574217481
 20
29.2887225254902
 30
0.0
 10
37.82066673616971
 20
29.29871523997724
 30
0.0
 10
37.82042724144563
 20
29.30371142452054
 30
0.0
  0
LINE
  5
191
330
1F
100
AcDbEntity
  8
0
  6
Continuous
 62
     7
370
    25
100
AcDbLine
 10
37.9560147396
 20
29.2397558725
 30
0.0
 11
37.8591186478
 21
29.2408307558
 31
0.0
  0
LINE
  5
192
330
1F
100
AcDbEntity
  8
0
  6
Continuous
 62
     7
370
    25
100
AcDbLine
 10
37.9579884109
 20
29.3036254339
 30
0.0
 11
37.9560147396
 21
29.2397558725
 31
0.0
  0
LINE
  5
193
330
1F
100
AcDbEntity
  8
0
  6
Continuous
 62
     7
370
    25
100
AcDbLine
 10
37.9198697221
 20
29.5197622356
 30
0.0
 11
37.7899197006
 21
29.5061199835
 31
0.0
  0
LINE
  5
194
330
1F
100
AcDbEntity
  8
0
  6
Continuous
 62
     7
370
    25
100
AcDbLine
 10
37.8207908997
 20
29.4080691356
 30
0.0
 11
37.8144602557
 21
29.4281909496
 31
0.0
  0
LINE
  5
195
330
1F
100
AcDbEntity
  8
0
  6
Continuous
 62
     7
370
    25
100
AcDbLine
 10
38.0777405665
 20
29.4350272069
 30
0.0
 11
37.8207908997
 21
29.4080691356
 31
0.0
  0
LINE
  5
196
330
1F
100
AcDbEntity
  8
0
  6
Continuous
 62
     7
370
    25
100
AcDbLine
 10
38.0472789973
 20
29.5317666973
 30
0.0
 11
37.9419803974
 21
29.4728699382
 31
0.0
  0
LINE
  5
197
330
1F
100
AcDbEntity
  8
0
  6
Continuous
 62
     7
370
    25
100
AcDbLine
 10
37.7899197006
 20
29.5061199835
 30
0.0
 11
37.7839986865
 21
29.52493044
 31
0.0
  0
LINE
  5
198
330
1F
100
AcDbEntity
  8
0
  6
Continuous
 62
     7
370
    25
100
AcDbLine
 10
38.0154820702
 20
29.6047079552
 30
0.0
 11
37.7679166521
 21
29.5585309717
 31
0.0
  0
LINE
  5
199
330
1F
100
AcDbEntity
  8
0
  6
Continuous
 62
     7
370
    25
100
AcDbLine
 10
37.7679166521
 20
29.5585309717
 30
0.0
 11
37.7573407527
 21
29.5774489165
 31
0.0
  0
LINE
  5
19A
330
1F
100
AcDbEntity
  8
0
  6
Continuous
 62
     7
370
    25
100
AcDbLine
 10
37.9134514812
 20
29.6997857612
 30
0.0
 11
37.7052477729
 21
29.6445152657
 31
0.0
  0
LINE
  5
19B
330
1F
100
AcDbEntity
  8
0
  6
Continuous
 62
     7
370
    25
100
AcDbLine
 10
37.9493499564
 20
29.6546836611
 30
0.0
 11
37.9134514812
 21
29.6997857612
 31
0.0
  0
LINE
  5
19C
330
1F
100
AcDbEntity
  8
0
  6
Continuous
 62
     7
370
    25
100
AcDbLine
 10
37.9772047898
 20
29.6620788577
 30
0.0
 11
37.9493499564
 21
29.6546836611
 31
0.0
  0
LINE
  5
19D
330
1F
100
AcDbEntity
  8
0
  6
Continuous
 62
     7
370
    25
100
AcDbLine
 10
37.8776043149
 20
29.7447621695
 30
0.0
 11
37.8633276766
 21
29.7626879277
 31
0.0
  0
LINE
  5
19E
330
1F
100
AcDbEntity
  8
0
  6
Continuous
 62
     7
370
    25
100
AcDbLine
 10
37.7052477729
 20
29.6445152657
 30
0.0
 11
37.6908734871
 21
29.6625303086
 31
0.0
  0
LINE
  5
19F
330
1F
100
AcDbEntity
  8
0
  6
Continuous
 62
     7
370
    25
100
AcDbLine
 10
37.6347611813
 20
29.8451130564
 30
0.0
 11
37.53454427
 21
29.8049087092
 31
0.0
  0
LINE
  5
1A0
330
1F
100
AcDbEntity
  8
0
  6
Continuous
 62
     7
370
    25
100
AcDbLine
 10
37.685305675
 20
29.8031007837
 30
0.0
 11
37.6347611813
 21
29.8451130564
 31
0.0
  0
LINE
  5
1A1
330
1F
100
AcDbEntity
  8
0
  6
Continuous
 62
     7
370
    25
100
AcDbLine
 10
37.6308510777
 20
29.7244036701
 30
0.0
 11
37.6112260814
 21
29.7407203974
 31
0.0
  0
LINE
  5
1A2
330
1F
100
AcDbEntity
  8
0
  6
Continuous
 62
     7
370
    25
100
AcDbLine
 10
37.8442310184
 20
29.8100073702
 30
0.0
 11
37.6308510777
 21
29.7244036701
 31
0.0
  0
LINE
  5
1A3
330
1F
100
AcDbEntity
  8
0
  6
Continuous
 62
     7
370
    25
100
AcDbLine
 10
37.7475583612
 20
29.8903656403
 30
0.0
 11
37.6864388394
 21
29.8658485972
 31
0.0
  0
LINE
  5
1A4
330
1F
100
AcDbEntity
  8
0
  6
Continuous
 62
     7
370
    25
100
AcDbLine
 10
37.5274501993
 20
29.8103380055
 30
0.0
 11
37.5145161851
 21
29.8210571698
 31
0.0
  0
SPLINE
  5
1A5
330
1F
100
AcDbEntity
  8
0
  6
Continuous
 62
     7
370
    25
100
AcDbSpline
210
0.0
220
0.0
230
1.0
 70
     8
 71
     3
 72
    10
 73
     6
 74
     0
 42
0.00000001
 43
0.00000001
 40
0.0
 40
0.0
 40
0.0
 40
0.0
 40
0.4362161327546854
 40
0.8721615850159212
 40
1.0
 40
1.0
 40
1.0
 40
1.0
 10
37.41832825079916
 20
29.98043709539904
 30
0.0
 10
37.41356982447461
 20
29.97709934794611
 30
0.0
 10
37.40405592452046
 20
29.9704259241767
 30
0.0
 10
37.39467902356891
 20
29.9618795847384
 30
0.0
 10
37.39204564822146
 20
29.95647959048717
 30
0.0
 10
37.39144852838524
 20
29.95525513773833
 30
0.0
  0
SPLINE
  5
1A6
330
1F
100
AcDbEntity
  8
0
  6
Continuous
 62
     7
370
    25
100
AcDbSpline
210
0.0
220
0.0
230
1.0
 70
     8
 71
     3
 72
     9
 73
     5
 74
     0
 42
0.00000001
 43
0.00000001
 40
0.0
 40
0.0
 40
0.0
 40
0.0
 40
0.5597891198894425
 40
1.0
 40
1.0
 40
1.0
 40
1.0
 10
37.46074356536911
 20
29.99920455653817
 30
0.0
 10
37.45195440463361
 20
29.99634552102364
 30
0.0
 10
37.43625356225706
 20
29.99123817718119
 30
0.0
 10
37.42380725199414
 20
29.98373852422667
 30
0.0
 10
37.41832825079916
 20
29.98043709539904
 30
0.0
  0
SPLINE
  5
1A7
330
1F
100
AcDbEntity
  8
0
  6
Continuous
 62
     7
370
    25
100
AcDbSpline
210
0.0
220
0.0
230
1.0
 70
     8
 71
     3
 72
    12
 73
     8
 74
     0
 42
0.00000001
 43
0.00000001
 40
0.0
 40
0.0
 40
0.0
 40
0.0
 40
0.1869773912946247
 40
0.3737768967010512
 40
0.5604978263234154
 40
0.7800629209330606
 40
1.0
 40
1.0
 40
1.0
 40
1.0
 10
37.55898026408334
 20
29.98875669157412
 30
0.0
 10
37.55387982165715
 20
29.99121506549609
 30
0.0
 10
37.54368378924563
 20
29.99612947450095
 30
0.0
 10
37.52584008533935
 20
30.00142666712454
 30
0.0
 10
37.50534116087093
 20
30.00453447014895
 30
0.0
 10
37.48264237434526
 20
30.00414006054968
 30
0.0
 10
37.46804728600937
 20
30.00085065256824
 30
0.0
 10
37.46074356536911
 20
29.99920455653817
 30
0.0
  0
SPLINE
  5
1A8
330
1F
100
AcDbEntity
  8
0
  6
Continuous
 62
     7
370
    25
100
AcDbSpline
210
0.0
220
0.0
230
1.0
 70
     8
 71
     3
 72
     9
 73
     5
 74
     0
 42
0.00000001
 43
0.00000001
 40
0.0
 40
0.0
 40
0.0
 40
0.0
 40
0.3767082256714218
 40
1.0
 40
1.0
 40
1.0
 40
1.0
 10
37.58034845359575
 20
29.97206753670137
 30
0.0
 10
37.57844055493992
 20
29.97447254079519
 30
0.0
 10
37.57337589607182
 20
29.98085680301708
 30
0.0
 10
37.564507723254
 20
29.98572338873012
 30
0.0
 10
37.55898026408334
 20
29.98875669157412
 30
0.0
  0
LINE
  5
1A9
330
1F
100
AcDbEntity
  8
0
  6
Continuous
 62
     7
370
    25
100
AcDbLine
 10
37.606534572
 20
29.9271228874
 30
0.0
 11
37.5776370442
 21
29.9354209859
 31
0.0
  0
SPLINE
  5
1AA
330
1F
100
AcDbEntity
  8
0
  6
Continuous
 62
     7
370
    25
100
AcDbSpline
210
0.0
220
0.0
230
1.0
 70
     8
 71
     3
 72
    10
 73
     6
 74
     0
 42
0.00000001
 43
0.00000001
 40
0.0
 40
0.0
 40
0.0
 40
0.0
 40
0.1803137433948442
 40
0.5900177590066928
 40
1.0
 40
1.0
 40
1.0
 40
1.0
 10
37.61968916706738
 20
29.95554967030842
 30
0.0
 10
37.61984660555566
 20
29.95375677833442
 30
0.0
 10
37.62036177152295
 20
29.94789012566157
 30
0.0
 10
37.61544439017627
 20
29.93815593354282
 30
0.0
 10
37.6095051833654
 20
29.93080140152971
 30
0.0
 10
37.60653457199011
 20
29.92712288735201
 30
0.0
  0
SPLINE
  5
1AB
330
1F
100
AcDbEntity
  8
0
  6
Continuous
 62
     7
370
    25
100
AcDbSpline
210
0.0
220
0.0
230
1.0
 70
     8
 71
     3
 72
     9
 73
     5
 74
     0
 42
0.00000001
 43
0.00000001
 40
0.0
 40
0.0
 40
0.0
 40
0.0
 40
0.5627341441920384
 40
1.0
 40
1.0
 40
1.0
 40
1.0
 10
37.36452575250596
 20
29.91161672016607
 30
0.0
 10
37.36056156955688
 20
29.91689813235873
 30
0.0
 10
37.35351706552242
 20
29.92628340291173
 30
0.0
 10
37.35314848776051
 20
29.93647788933945
 30
0.0
 10
37.35298732129001
 20
29.9409355901718
 30
0.0
  0
SPLINE
  5
1AC
330
1F
100
AcDbEntity
  8
0
  6
Continuous
 62
     7
370
    25
100
AcDbSpline
210
0.0
220
0.0
230
1.0
 70
     8
 71
     3
 72
    10
 73
     6
 74
     0
 42
0.00000001
 43
0.00000001
 40
0.0
 40
0.0
 40
0.0
 40
0.0
 40
0.4436348819143497
 40
0.8870658016063505
 40
1.0
 40
1.0
 40
1.0
 40
1.0
 10
37.50837235144019
 20
29.86039413663508
 30
0.0
 10
37.49745374548592
 20
29.86102591031964
 30
0.0
 10
37.47562155343319
 20
29.86228916722927
 30
0.0
 10
37.45144050546856
 20
29.8661983649528
 30
0.0
 10
37.43930614802391
 20
29.86996297540763
 30
0.0
 10
37.43684304621093
 20
29.87072713773586
 30
0.0
  0
LINE
  5
1AD
330
1F
100
AcDbEntity
  8
0
  6
Continuous
 62
     7
370
    25
100
AcDbLine
 10
37.5729449199
 20
29.9020566105
 30
0.0
 11
37.5083723514
 21
29.8603941366
 31
0.0
  0
LINE
  5
1AE
330
1F
100
AcDbEntity
  8
0
  6
Continuous
 62
     7
370
    25
100
AcDbLine
 10
37.4990686893
 20
29.9163147538
 30
0.0
 11
37.4699788577
 21
29.9313149319
 31
0.0
  0
LINE
  5
1AF
330
1F
100
AcDbEntity
  8
0
  6
Continuous
 62
     7
370
    25
100
AcDbLine
 10
37.4078167486
 20
30.0813299723
 30
0.0
 11
37.2664343334
 21
29.9589654853
 31
0.0
  0
LINE
  5
1B0
330
1F
100
AcDbEntity
  8
0
  6
Continuous
 62
     7
370
    25
100
AcDbLine
 10
37.2090471936
 20
29.9953687479
 30
0.0
 11
37.1997889205
 21
29.9856193937
 31
0.0
  0
LINE
  5
1B1
330
1F
100
AcDbEntity
  8
0
  6
Continuous
 62
     7
370
    25
100
AcDbLine
 10
37.2067756096
 20
30.1478516825
 30
0.0
 11
37.1198902418
 21
30.0561908593
 31
0.0
  0
LINE
  5
1B2
330
1F
100
AcDbEntity
  8
0
  6
Continuous
 62
     7
370
    25
100
AcDbLine
 10
36.7787652823
 20
30.1294189941
 30
0.0
 11
36.7618403996
 21
30.0899662808
 31
0.0
  0
LINE
  5
1B3
330
1F
100
AcDbEntity
  8
0
  6
Continuous
 62
     7
370
    25
100
AcDbLine
 10
36.829857303
 20
30.1467031164
 30
0.0
 11
36.7787652823
 21
30.1294189941
 31
0.0
  0
LINE
  5
1B4
330
1F
100
AcDbEntity
  8
0
  6
Continuous
 62
     7
370
    25
100
AcDbLine
 10
36.8800082381
 20
30.0721715147
 30
0.0
 11
36.829857303
 21
30.1467031164
 31
0.0
  0
LINE
  5
1B5
330
1F
100
AcDbEntity
  8
0
  6
Continuous
 62
     7
370
    25
100
AcDbLine
 10
36.9895012482
 20
30.2000388221
 30
0.0
 11
36.8776157832
 21
30.1625651559
 31
0.0
  0
LINE
  5
1B6
330
1F
100
AcDbEntity
  8
0
  6
Continuous
 62
     7
370
    25
100
AcDbLine
 10
36.81943036
 20
30.2243526807
 30
0.0
 11
36.8050065357
 21
30.1906943453
 31
0.0
  0
LINE
  5
1B7
330
1F
100
AcDbEntity
  8
0
  6
Continuous
 62
     7
370
    25
100
AcDbLine
 10
36.6984555693
 20
30.1512153351
 30
0.0
 11
36.6949178565
 21
30.1328348319
 31
0.0
  0
LINE
  5
1B8
330
1F
100
AcDbEntity
  8
0
  6
Continuous
 62
     7
370
    25
100
AcDbLine
 10
36.6949178565
 20
30.1328348319
 30
0.0
 11
36.5976121349
 21
30.1390476569
 31
0.0
  0
SPLINE
  5
1B9
330
1F
100
AcDbEntity
  8
0
  6
Continuous
 62
     7
370
    25
100
AcDbSpline
210
0.0
220
0.0
230
1.0
 70
     8
 71
     3
 72
    11
 73
     7
 74
     0
 42
0.00000001
 43
0.00000001
 40
0.0
 40
0.0
 40
0.0
 40
0.0
 40
0.3165639386897874
 40
0.6331138195443078
 40
0.9494866809144777
 40
1.0
 40
1.0
 40
1.0
 40
1.0
 10
36.55675366260139
 20
30.13769402032118
 30
0.0
 10
36.55649218534106
 20
30.13389270374898
 30
0.0
 10
36.55596924243197
 20
30.12629023941182
 30
0.0
 10
36.54835147988827
 20
30.11584885682089
 30
0.0
 10
36.54132708365468
 20
30.10840640286816
 30
0.0
 10
36.53512573390501
 20
30.10588705187016
 30
0.0
 10
36.53427192480738
 20
30.10554018467365
 30
0.0
  0
LINE
  5
1BA
330
1F
100
AcDbEntity
  8
0
  6
Continuous
 62
     7
370
    25
100
AcDbLine
 10
36.5414483998
 20
30.2057771239
 30
0.0
 11
36.5387100803
 21
30.19487418
 31
0.0
  0
LINE
  5
1BB
330
1F
100
AcDbEntity
  8
0
  6
Continuous
 62
     7
370
    25
100
AcDbLine
 10
36.3615692638
 20
30.1023160348
 30
0.0
 11
36.3560722489
 21
30.2417642143
 31
0.0
  0
LINE
  5
1BC
330
1F
100
AcDbEntity
  8
0
  6
Continuous
 62
     7
370
    25
100
AcDbLine
 10
36.2578163562
 20
30.2658210246
 30
0.0
 11
36.2578163562
 21
30.2984826571
 31
0.0
  0
LINE
  5
1BD
330
1F
100
AcDbEntity
  8
0
  6
Continuous
 62
     7
370
    25
100
AcDbLine
 10
37.9273778854
 20
29.336631029
 30
0.0
 11
37.9579884109
 21
29.3362870663
 31
0.0
  0
LINE
  5
1BE
330
1F
100
AcDbEntity
  8
0
  6
Continuous
 62
     7
370
    25
100
AcDbLine
 10
37.9579884109
 20
29.3362870663
 30
0.0
 11
37.9560147396
 21
29.272417505
 31
0.0
  0
LINE
  5
1BF
330
1F
100
AcDbEntity
  8
0
  6
Continuous
 62
     7
370
    25
100
AcDbLine
 10
37.9560147396
 20
29.272417505
 30
0.0
 11
37.8591186478
 21
29.2734923882
 31
0.0
  0
SPLINE
  5
1C0
330
1F
100
AcDbEntity
  8
0
  6
Continuous
 62
     7
370
    25
100
AcDbSpline
210
0.0
220
0.0
230
1.0
 70
     8
 71
     3
 72
    11
 73
     7
 74
     0
 42
0.00000001
 43
0.00000001
 40
0.0
 40
0.0
 40
0.0
 40
0.0
 40
0.2800347784531174
 40
0.5599738320272486
 40
0.7799945208156389
 40
1.0
 40
1.0
 40
1.0
 40
1.0
 10
37.85911864780047
 20
29.27349238823083
 30
0.0
 10
37.85276472224516
 20
29.27868795359899
 30
0.0
 10
37.84005904311032
 20
29.28907730832426
 30
0.0
 10
37.82800355754062
 20
29.30545757960423
 30
0.0
 10
37.82114574217481
 20
29.32138415796563
 30
0.0
 10
37.82066673616971
 20
29.33137687245267
 30
0.0
 10
37.82042724144563
 20
29.33637305699597
 30
0.0
  0
SPLINE
  5
1C1
330
1F
100
AcDbEntity
  8
0
  6
Continuous
 62
     7
370
    25
100
AcDbSpline
210
0.0
220
0.0
230
1.0
 70
     8
 71
     3
 72
    14
 73
    10
 74
     0
 42
0.00000001
 43
0.00000001
 40
0.0
 40
0.0
 40
0.0
 40
0.0
 40
0.1401019666398582
 40
0.2801450937110749
 40
0.4201271512885034
 40
0.5599830352000065
 40
0.7065378921557833
 40
0.8532361259553289
 40
1.0
 40
1.0
 40
1.0
 40
1.0
 10
37.82042724144563
 20
29.33637305699597
 30
0.0
 10
37.82109810588605
 20
29.34211101166704
 30
0.0
 10
37.82243955301943
 20
29.3535845112016
 30
0.0
 10
37.83167722854638
 20
29.37010343842234
 30
0.0
 10
37.84632816993685
 20
29.38521294262967
 30
0.0
 10
37.8679157211816
 20
29.39780646468246
 30
0.0
 10
37.89524131654527
 20
29.40628222250501
 30
0.0
 10
37.92549715836107
 20
29.41135948730963
 30
0.0
 10
37.9463620039913
 20
29.41170170681666
 30
0.0
 10
37.95679676028244
 20
29.41187285484322
 30
0.0
  0
SPLINE
  5
1C2
330
1F
100
AcDbEntity
  8
0
  6
Continuous
 62
     7
370
    25
100
AcDbSpline
210
0.0
220
0.0
230
1.0
 70
     8
 71
     3
 72
    14
 73
    10
 74
     0
 42
0.00000001
 43
0.00000001
 40
0.0
 40
0.0
 40
0.0
 40
0.0
 40
0.1452790186584771
 40
0.2905165238715386
 40
0.4357349484591694
 40
0.5807667016007605
 40
0.7326332299814825
 40
0.8846803196481592
 40
1.0
 40
1.0
 40
1.0
 40
1.0
 10
37.95679676028244
 20
29.41187285484322
 30
0.0
 10
37.96674732550083
 20
29.41148725346283
 30
0.0
 10
37.98664561256591
 20
29.41071616088756
 30
0.0
 10
38.01538804065132
 20
29.40563251580576
 30
0.0
 10
38.0421821081095
 20
29.39785416350453
 30
0.0
 10
38.06512859800485
 20
29.38603568268727
 30
0.0
 10
38.0807585314585
 20
29.37050346915491
 30
0.0
 10
38.08904774194416
 20
29.35442148936709
 30
0.0
 10
38.08967672324589
 20
29.34383550082713
 30
0.0
 10
38.08994801321457
 20
29.33926959005763
 30
0.0
  0
LINE
  5
1C3
330
1F
100
AcDbEntity
  8
0
  6
Continuous
 62
     7
370
    25
100
AcDbLine
 10
38.0902803681
 20
29.336572408
 30
0.0
 11
38.0904850652
 21
29.3349112158
 31
0.0
  0
SPLINE
  5
1C4
330
1F
100
AcDbEntity
  8
0
  6
Continuous
 62
     7
370
    25
100
AcDbSpline
210
0.0
220
0.0
230
1.0
 70
     8
 71
     3
 72
    13
 73
     9
 74
     0
 42
0.00000001
 43
0.00000001
 40
0.0
 40
0.0
 40
0.0
 40
0.0
 40
0.186792101910828
 40
0.373471337901815
 40
0.5598983729897063
 40
0.7064430509678401
 40
0.8531756317092601
 40
1.0
 40
1.0
 40
1.0
 40
1.0
 10
38.09048506520438
 20
29.33491121580759
 30
0.0
 10
38.08992226695356
 20
29.3297274239023
 30
0.0
 10
38.08879701051308
 20
29.31936297230896
 30
0.0
 10
38.08067776500864
 20
29.30441889110933
 30
0.0
 10
38.06794562301726
 20
29.29178266006788
 30
0.0
 10
38.05044478574666
 20
29.28286675106887
 30
0.0
 10
38.03143375917028
 20
29.27727487647569
 30
0.0
 10
38.01779909066575
 20
29.27515472835532
 30
0.0
 10
38.01097962481209
 20
29.27409432283781
 30
0.0
  0
LINE
  5
1C5
330
1F
100
AcDbEntity
  8
0
  6
Continuous
 62
     7
370
    25
100
AcDbLine
 10
38.0109796248
 20
29.2740943228
 30
0.0
 11
38.0030104612
 21
29.292152361
 31
0.0
  0
SPLINE
  5
1C6
330
1F
100
AcDbEntity
  8
0
  6
Continuous
 62
     7
370
    25
100
AcDbSpline
210
0.0
220
0.0
230
1.0
 70
     8
 71
     3
 72
    12
 73
     8
 74
     0
 42
0.00000001
 43
0.00000001
 40
0.0
 40
0.0
 40
0.0
 40
0.0
 40
0.1869728162279387
 40
0.3735812011727653
 40
0.5599498344845295
 40
0.7798966606871047
 40
1.0
 40
1.0
 40
1.0
 40
1.0
 10
38.00301046123178
 20
29.29215236104729
 30
0.0
 10
38.00912739713112
 20
29.29324033682416
 30
0.0
 10
38.02134934632605
 20
29.29541416778938
 30
0.0
 10
38.03830662693723
 20
29.30102193029207
 30
0.0
 10
38.05104104045739
 20
29.31041786203112
 30
0.0
 10
38.0592282713782
 20
29.32208091676545
 30
0.0
 10
38.06037893607913
 20
29.33079106635075
 30
0.0
 10
38.06095447305867
 20
29.33514769011747
 30
0.0
  0
LINE
  5
1C7
330
1F
100
AcDbEntity
  8
0
  6
Continuous
 62
     7
370
    25
100
AcDbLine
 10
38.0609544731
 20
29.3351476901
 30
0.0
 11
38.060783149
 21
29.3370216581
 31
0.0
  0
SPLINE
  5
1C8
330
1F
100
AcDbEntity
  8
0
  6
Continuous
 62
     7
370
    25
100
AcDbSpline
210
0.0
220
0.0
230
1.0
 70
     8
 71
     3
 72
    12
 73
     8
 74
     0
 42
0.00000001
 43
0.00000001
 40
0.0
 40
0.0
 40
0.0
 40
0.0
 40
0.1212966092928554
 40
0.3231651947599585
 40
0.5250209845790789
 40
0.7623265532897197
 40
1.0
 40
1.0
 40
1.0
 40
1.0
 10
38.06053573090067
 20
29.33972795357929
 30
0.0
 10
38.06043594139233
 20
29.34202845116332
 30
0.0
 10
38.060170076616
 20
29.34815756519313
 30
0.0
 10
38.05593226851127
 20
29.3579183297444
 30
0.0
 10
38.04663434525472
 20
29.36889877336861
 30
0.0
 10
38.03136536951574
 20
29.37861546349266
 30
0.0
 10
38.01750536470112
 20
29.38284258240652
 30
0.0
 10
38.01056999490842
 20
29.38495777884528
 30
0.0
  0
SPLINE
  5
1C9
330
1F
100
AcDbEntity
  8
0
  6
Continuous
 62
     7
370
    25
100
AcDbSpline
210
0.0
220
0.0
230
1.0
 70
     8
 71
     3
 72
     9
 73
     5
 74
     0
 42
0.00000001
 43
0.00000001
 40
0.0
 40
0.0
 40
0.0
 40
0.0
 40
0.5598097653225612
 40
0.9999999999999999
 40
0.9999999999999999
 40
0.9999999999999999
 40
0.9999999999999999
 10
38.01056999490842
 20
29.38495777884528
 30
0.0
 10
38.00108182889475
 20
29.38694459119274
 30
0.0
 10
37.98413291767273
 20
29.39049367602572
 30
0.0
 10
37.96616040781732
 20
29.39105326450092
 30
0.0
 10
37.95824908448633
 20
29.39129958988314
 30
0.0
  0
SPLINE
  5
1CA
330
1F
100
AcDbEntity
  8
0
  6
Continuous
 62
     7
370
    25
100
AcDbSpline
210
0.0
220
0.0
230
1.0
 70
     8
 71
     3
 72
    14
 73
    10
 74
     0
 42
0.00000001
 43
0.00000001
 40
0.0
 40
0.0
 40
0.0
 40
0.0
 40
0.1401851635606872
 40
0.2802753738786553
 40
0.4202336752794459
 40
0.5600460491580926
 40
0.7064900725226545
 40
0.8532467447384142
 40
1.0
 40
1.0
 40
1.0
 40
1.0
 10
37.95824908448633
 20
29.39129958988314
 30
0.0
 10
37.95072485195288
 20
29.39124165367138
 30
0.0
 10
37.93568148336168
 20
29.39112582049047
 30
0.0
 10
37.91342252443543
 20
29.38860942140968
 30
0.0
 10
37.89250924738704
 20
29.38350623715997
 30
0.0
 10
37.87435847056545
 20
29.37512891131127
 30
0.0
 10
37.86168490143962
 20
29.36370008899175
 30
0.0
 10
37.85356950939646
 20
29.35075760261583
 30
0.0
 10
37.85230371913369
 20
29.34166948244136
 30
0.0
 10
37.85167083137028
 20
29.3371254752547
 30
0.0
  0
SPLINE
  5
1CB
330
1F
100
AcDbEntity
  8
0
  6
Continuous
 62
     7
370
    25
100
AcDbSpline
210
0.0
220
0.0
230
1.0
 70
     8
 71
     3
 72
    11
 73
     7
 74
     0
 42
0.00000001
 43
0.00000001
 40
0.0
 40
0.0
 40
0.0
 40
0.0
 40
0.2799373277552417
 40
0.5599031950349136
 40
0.7800660290213166
 40
1.0
 40
1.0
 40
1.0
 40
1.0
 10
37.85167083137028
 20
29.3371254752547
 30
0.0
 10
37.85194536640885
 20
29.33267499257084
 30
0.0
 10
37.85249446447474
 20
29.32377357347776
 30
0.0
 10
37.85898964483862
 20
29.31190228584877
 30
0.0
 10
37.86670900709399
 20
29.30135684691587
 30
0.0
 10
37.87374027505724
 20
29.29566382122479
 30
0.0
 10
37.87725408080799
 20
29.29281878864788
 30
0.0
  0
LINE
  5
1CC
330
1F
100
AcDbEntity
  8
0
  6
Continuous
 62
     7
370
    25
100
AcDbLine
 10
37.8772540808
 20
29.2928187886
 30
0.0
 11
37.9259255612
 21
29.292281347
 31
0.0
  0
LINE
  5
1CD
330
1F
100
AcDbEntity
  8
0
  6
Continuous
 62
     7
370
    25
100
AcDbLine
 10
37.9259255612
 20
29.292281347
 30
0.0
 11
37.9273778854
 21
29.336631029
 31
0.0
  0
LINE
  5
1CE
330
1F
100
AcDbEntity
  8
0
  6
Continuous
 62
     7
370
    25
100
AcDbLine
 10
37.8591186478
 20
29.2734923882
 30
0.0
 11
37.8591186478
 21
29.2408307558
 31
0.0
  0
LINE
  5
1CF
330
1F
100
AcDbEntity
  8
0
  6
Continuous
 62
     7
370
    25
100
AcDbLine
 10
37.9560147396
 20
29.272417505
 30
0.0
 11
37.9560147396
 21
29.2397558725
 31
0.0
  0
LINE
  5
1D0
330
1F
100
AcDbEntity
  8
0
  6
Continuous
 62
     7
370
    25
100
AcDbLine
 10
38.0109796248
 20
29.2740943228
 30
0.0
 11
38.0109796248
 21
29.2414326904
 31
0.0
  0
LINE
  5
1D1
330
1F
100
AcDbEntity
  8
0
  6
Continuous
 62
     7
370
    25
100
AcDbLine
 10
38.0904850652
 20
29.3349112158
 30
0.0
 11
38.0904850652
 21
29.3022495833
 31
0.0
  0
LINE
  5
1D2
330
1F
100
AcDbEntity
  8
0
  6
Continuous
 62
     7
370
    25
100
AcDbLine
 10
37.9579884109
 20
29.3362870663
 30
0.0
 11
37.9579884109
 21
29.3036254339
 31
0.0
  0
LINE
  5
1D3
330
1F
100
AcDbEntity
  8
0
  6
Continuous
 62
     7
370
    25
100
AcDbLine
 10
37.8204272414
 20
29.336373057
 30
0.0
 11
37.8204272414
 21
29.3037114245
 31
0.0
  0
LINE
  5
1D4
330
1F
100
AcDbEntity
  8
0
  6
Continuous
 62
     7
370
    25
100
AcDbLine
 10
38.0030104612
 20
29.292152361
 30
0.0
 11
38.0030104612
 21
29.2594907286
 31
0.0
  0
LINE
  5
1D5
330
1F
100
AcDbEntity
  8
0
  6
Continuous
 62
     7
370
    25
100
AcDbLine
 10
37.9582490845
 20
29.3912995899
 30
0.0
 11
37.9582490845
 21
29.3586379574
 31
0.0
  0
LINE
  5
1D6
330
1F
100
AcDbEntity
  8
0
  6
Continuous
 62
     7
370
    25
100
AcDbLine
 10
38.0105699949
 20
29.3849577788
 30
0.0
 11
38.0105699949
 21
29.3522961464
 31
0.0
  0
LINE
  5
1D7
330
1F
100
AcDbEntity
  8
0
  6
Continuous
 62
     7
370
    25
100
AcDbLine
 10
37.7839986865
 20
29.5575920725
 30
0.0
 11
38.0409483534
 21
29.5845501438
 31
0.0
  0
LINE
  5
1D8
330
1F
100
AcDbEntity
  8
0
  6
Continuous
 62
     7
370
    25
100
AcDbLine
 10
38.0409483534
 20
29.5845501438
 30
0.0
 11
38.0472789973
 21
29.5644283298
 31
0.0
  0
LINE
  5
1D9
330
1F
100
AcDbEntity
  8
0
  6
Continuous
 62
     7
370
    25
100
AcDbLine
 10
38.0472789973
 20
29.5644283298
 30
0.0
 11
37.8700954445
 21
29.4653240963
 31
0.0
  0
LINE
  5
1DA
330
1F
100
AcDbEntity
  8
0
  6
Continuous
 62
     7
370
    25
100
AcDbLine
 10
37.8700954445
 20
29.4653240963
 30
0.0
 11
38.0718195525
 21
29.4864992958
 31
0.0
  0
LINE
  5
1DB
330
1F
100
AcDbEntity
  8
0
  6
Continuous
 62
     7
370
    25
100
AcDbLine
 10
38.0718195525
 20
29.4864992958
 30
0.0
 11
38.0777405665
 21
29.4676888394
 31
0.0
  0
LINE
  5
1DC
330
1F
100
AcDbEntity
  8
0
  6
Continuous
 62
     7
370
    25
100
AcDbLine
 10
38.0777405665
 20
29.4676888394
 30
0.0
 11
37.8207908997
 21
29.4407307681
 31
0.0
  0
LINE
  5
1DD
330
1F
100
AcDbEntity
  8
0
  6
Continuous
 62
     7
370
    25
100
AcDbLine
 10
37.8207908997
 20
29.4407307681
 30
0.0
 11
37.8144602557
 21
29.4608525821
 31
0.0
  0
LINE
  5
1DE
330
1F
100
AcDbEntity
  8
0
  6
Continuous
 62
     7
370
    25
100
AcDbLine
 10
37.8144602557
 20
29.4608525821
 30
0.0
 11
37.991830004
 21
29.5599783132
 31
0.0
  0
LINE
  5
1DF
330
1F
100
AcDbEntity
  8
0
  6
Continuous
 62
     7
370
    25
100
AcDbLine
 10
37.991830004
 20
29.5599783132
 30
0.0
 11
37.7899197006
 21
29.538781616
 31
0.0
  0
LINE
  5
1E0
330
1F
100
AcDbEntity
  8
0
  6
Continuous
 62
     7
370
    25
100
AcDbLine
 10
37.7899197006
 20
29.538781616
 30
0.0
 11
37.7839986865
 21
29.5575920725
 31
0.0
  0
LINE
  5
1E1
330
1F
100
AcDbEntity
  8
0
  6
Continuous
 62
     7
370
    25
100
AcDbLine
 10
37.8207908997
 20
29.4407307681
 30
0.0
 11
37.8207908997
 21
29.4080691356
 31
0.0
  0
LINE
  5
1E2
330
1F
100
AcDbEntity
  8
0
  6
Continuous
 62
     7
370
    25
100
AcDbLine
 10
38.0777405665
 20
29.4676888394
 30
0.0
 11
38.0777405665
 21
29.4350272069
 31
0.0
  0
LINE
  5
1E3
330
1F
100
AcDbEntity
  8
0
  6
Continuous
 62
     7
370
    25
100
AcDbLine
 10
37.8144602557
 20
29.4608525821
 30
0.0
 11
37.8144602557
 21
29.4281909496
 31
0.0
  0
LINE
  5
1E4
330
1F
100
AcDbEntity
  8
0
  6
Continuous
 62
     7
370
    25
100
AcDbLine
 10
38.0472789973
 20
29.5644283298
 30
0.0
 11
38.0472789973
 21
29.5317666973
 31
0.0
  0
LINE
  5
1E5
330
1F
100
AcDbEntity
  8
0
  6
Continuous
 62
     7
370
    25
100
AcDbLine
 10
37.7899197006
 20
29.538781616
 30
0.0
 11
37.7899197006
 21
29.5061199835
 31
0.0
  0
LINE
  5
1E6
330
1F
100
AcDbEntity
  8
0
  6
Continuous
 62
     7
370
    25
100
AcDbLine
 10
37.7839986865
 20
29.5575920725
 30
0.0
 11
37.7839986865
 21
29.52493044
 31
0.0
  0
LINE
  5
1E7
330
1F
100
AcDbEntity
  8
0
  6
Continuous
 62
     7
370
    25
100
AcDbLine
 10
37.7573407527
 20
29.610110549
 30
0.0
 11
38.0049061709
 21
29.6562875324
 31
0.0
  0
LINE
  5
1E8
330
1F
100
AcDbEntity
  8
0
  6
Continuous
 62
     7
370
    25
100
AcDbLine
 10
38.0049061709
 20
29.6562875324
 30
0.0
 11
38.0154820702
 21
29.6373695876
 31
0.0
  0
LINE
  5
1E9
330
1F
100
AcDbEntity
  8
0
  6
Continuous
 62
     7
370
    25
100
AcDbLine
 10
38.0154820702
 20
29.6373695876
 30
0.0
 11
37.7679166521
 21
29.5911926042
 31
0.0
  0
LINE
  5
1EA
330
1F
100
AcDbEntity
  8
0
  6
Continuous
 62
     7
370
    25
100
AcDbLine
 10
37.7679166521
 20
29.5911926042
 30
0.0
 11
37.7573407527
 21
29.610110549
 31
0.0
  0
LINE
  5
1EB
330
1F
100
AcDbEntity
  8
0
  6
Continuous
 62
     7
370
    25
100
AcDbLine
 10
37.7679166521
 20
29.5911926042
 30
0.0
 11
37.7679166521
 21
29.5585309717
 31
0.0
  0
LINE
  5
1EC
330
1F
100
AcDbEntity
  8
0
  6
Continuous
 62
     7
370
    25
100
AcDbLine
 10
38.0154820702
 20
29.6373695876
 30
0.0
 11
38.0154820702
 21
29.6047079552
 31
0.0
  0
LINE
  5
1ED
330
1F
100
AcDbEntity
  8
0
  6
Continuous
 62
     7
370
    25
100
AcDbLine
 10
37.7573407527
 20
29.610110549
 30
0.0
 11
37.7573407527
 21
29.5774489165
 31
0.0
  0
LINE
  5
1EE
330
1F
100
AcDbEntity
  8
0
  6
Continuous
 62
     7
370
    25
100
AcDbLine
 10
37.6908734871
 20
29.6951919411
 30
0.0
 11
37.8990771955
 21
29.7504624366
 31
0.0
  0
LINE
  5
1EF
330
1F
100
AcDbEntity
  8
0
  6
Continuous
 62
     7
370
    25
100
AcDbLine
 10
37.8990771955
 20
29.7504624366
 30
0.0
 11
37.8633276766
 21
29.7953495602
 31
0.0
  0
LINE
  5
1F0
330
1F
100
AcDbEntity
  8
0
  6
Continuous
 62
     7
370
    25
100
AcDbLine
 10
37.8633276766
 20
29.7953495602
 30
0.0
 11
37.89118251
 21
29.8027447568
 31
0.0
  0
LINE
  5
1F1
330
1F
100
AcDbEntity
  8
0
  6
Continuous
 62
     7
370
    25
100
AcDbLine
 10
37.89118251
 20
29.8027447568
 30
0.0
 11
37.9772047898
 21
29.6947404901
 31
0.0
  0
LINE
  5
1F2
330
1F
100
AcDbEntity
  8
0
  6
Continuous
 62
     7
370
    25
100
AcDbLine
 10
37.9772047898
 20
29.6947404901
 30
0.0
 11
37.9493499564
 21
29.6873452935
 31
0.0
  0
LINE
  5
1F3
330
1F
100
AcDbEntity
  8
0
  6
Continuous
 62
     7
370
    25
100
AcDbLine
 10
37.9493499564
 20
29.6873452935
 30
0.0
 11
37.9134514812
 21
29.7324473937
 31
0.0
  0
LINE
  5
1F4
330
1F
100
AcDbEntity
  8
0
  6
Continuous
 62
     7
370
    25
100
AcDbLine
 10
37.9134514812
 20
29.7324473937
 30
0.0
 11
37.7052477729
 21
29.6771768982
 31
0.0
  0
LINE
  5
1F5
330
1F
100
AcDbEntity
  8
0
  6
Continuous
 62
     7
370
    25
100
AcDbLine
 10
37.7052477729
 20
29.6771768982
 30
0.0
 11
37.6908734871
 21
29.6951919411
 31
0.0
  0
LINE
  5
1F6
330
1F
100
AcDbEntity
  8
0
  6
Continuous
 62
     7
370
    25
100
AcDbLine
 10
37.7052477729
 20
29.6771768982
 30
0.0
 11
37.7052477729
 21
29.6445152657
 31
0.0
  0
LINE
  5
1F7
330
1F
100
AcDbEntity
  8
0
  6
Continuous
 62
     7
370
    25
100
AcDbLine
 10
37.9134514812
 20
29.7324473937
 30
0.0
 11
37.9134514812
 21
29.6997857612
 31
0.0
  0
LINE
  5
1F8
330
1F
100
AcDbEntity
  8
0
  6
Continuous
 62
     7
370
    25
100
AcDbLine
 10
37.6908734871
 20
29.6951919411
 30
0.0
 11
37.6908734871
 21
29.6625303086
 31
0.0
  0
LINE
  5
1F9
330
1F
100
AcDbEntity
  8
0
  6
Continuous
 62
     7
370
    25
100
AcDbLine
 10
37.9493499564
 20
29.6873452935
 30
0.0
 11
37.9493499564
 21
29.6546836611
 31
0.0
  0
LINE
  5
1FA
330
1F
100
AcDbEntity
  8
0
  6
Continuous
 62
     7
370
    25
100
AcDbLine
 10
37.9772047898
 20
29.6947404901
 30
0.0
 11
37.9772047898
 21
29.6620788577
 31
0.0
  0
LINE
  5
1FB
330
1F
100
AcDbEntity
  8
0
  6
Continuous
 62
     7
370
    25
100
AcDbLine
 10
37.5145161851
 20
29.8537188023
 30
0.0
 11
37.7278961258
 21
29.9393225025
 31
0.0
  0
LINE
  5
1FC
330
1F
100
AcDbEntity
  8
0
  6
Continuous
 62
     7
370
    25
100
AcDbLine
 10
37.7278961258
 20
29.9393225025
 30
0.0
 11
37.7475583612
 21
29.9230272728
 31
0.0
  0
LINE
  5
1FD
330
1F
100
AcDbEntity
  8
0
  6
Continuous
 62
     7
370
    25
100
AcDbLine
 10
37.7475583612
 20
29.9230272728
 30
0.0
 11
37.6599348009
 21
29.8878785912
 31
0.0
  0
LINE
  5
1FE
330
1F
100
AcDbEntity
  8
0
  6
Continuous
 62
     7
370
    25
100
AcDbLine
 10
37.6599348009
 20
29.8878785912
 30
0.0
 11
37.7369824618
 21
29.8238370486
 31
0.0
  0
LINE
  5
1FF
330
1F
100
AcDbEntity
  8
0
  6
Continuous
 62
     7
370
    25
100
AcDbLine
 10
37.7369824618
 20
29.8238370486
 30
0.0
 11
37.8246060221
 21
29.8589857301
 31
0.0
  0
LINE
  5
200
330
1F
100
AcDbEntity
  8
0
  6
Continuous
 62
     7
370
    25
100
AcDbLine
 10
37.8246060221
 20
29.8589857301
 30
0.0
 11
37.8442310184
 21
29.8426690027
 31
0.0
  0
LINE
  5
201
330
1F
100
AcDbEntity
  8
0
  6
Continuous
 62
     7
370
    25
100
AcDbLine
 10
37.8442310184
 20
29.8426690027
 30
0.0
 11
37.6308510777
 21
29.7570653025
 31
0.0
  0
LINE
  5
202
330
1F
100
AcDbEntity
  8
0
  6
Continuous
 62
     7
370
    25
100
AcDbLine
 10
37.6308510777
 20
29.7570653025
 30
0.0
 11
37.6112260814
 21
29.7733820299
 31
0.0
  0
LINE
  5
203
330
1F
100
AcDbEntity
  8
0
  6
Continuous
 62
     7
370
    25
100
AcDbLine
 10
37.6112260814
 20
29.7733820299
 30
0.0
 11
37.7118088423
 21
29.8137331463
 31
0.0
  0
LINE
  5
204
330
1F
100
AcDbEntity
  8
0
  6
Continuous
 62
     7
370
    25
100
AcDbLine
 10
37.7118088423
 20
29.8137331463
 30
0.0
 11
37.6347611813
 21
29.8777746889
 31
0.0
  0
LINE
  5
205
330
1F
100
AcDbEntity
  8
0
  6
Continuous
 62
     7
370
    25
100
AcDbLine
 10
37.6347611813
 20
29.8777746889
 30
0.0
 11
37.5341784205
 21
29.8374235726
 31
0.0
  0
LINE
  5
206
330
1F
100
AcDbEntity
  8
0
  6
Continuous
 62
     7
370
    25
100
AcDbLine
 10
37.5341784205
 20
29.8374235726
 30
0.0
 11
37.5145161851
 21
29.8537188023
 31
0.0
  0
LINE
  5
207
330
1F
100
AcDbEntity
  8
0
  6
Continuous
 62
     7
370
    25
100
AcDbLine
 10
37.6308510777
 20
29.7570653025
 30
0.0
 11
37.6308510777
 21
29.7244036701
 31
0.0
  0
LINE
  5
208
330
1F
100
AcDbEntity
  8
0
  6
Continuous
 62
     7
370
    25
100
AcDbLine
 10
37.8442310184
 20
29.8426690027
 30
0.0
 11
37.8442310184
 21
29.8100073702
 31
0.0
  0
LINE
  5
209
330
1F
100
AcDbEntity
  8
0
  6
Continuous
 62
     7
370
    25
100
AcDbLine
 10
37.8633276766
 20
29.7953495602
 30
0.0
 11
37.8633276766
 21
29.7626879277
 31
0.0
  0
LINE
  5
20A
330
1F
100
AcDbEntity
  8
0
  6
Continuous
 62
     7
370
    25
100
AcDbLine
 10
37.6112260814
 20
29.7733820299
 30
0.0
 11
37.6112260814
 21
29.7407203974
 31
0.0
  0
LINE
  5
20B
330
1F
100
AcDbEntity
  8
0
  6
Continuous
 62
     7
370
    25
100
AcDbLine
 10
37.6347611813
 20
29.8777746889
 30
0.0
 11
37.6347611813
 21
29.8451130564
 31
0.0
  0
LINE
  5
20C
330
1F
100
AcDbEntity
  8
0
  6
Continuous
 62
     7
370
    25
100
AcDbLine
 10
37.5341784205
 20
29.8374235726
 30
0.0
 11
37.5341784205
 21
29.8051912207
 31
0.0
  0
LINE
  5
20D
330
1F
100
AcDbEntity
  8
0
  6
Continuous
 62
     7
370
    25
100
AcDbLine
 10
37.5145161851
 20
29.8537188023
 30
0.0
 11
37.5145161851
 21
29.8210571698
 31
0.0
  0
LINE
  5
20E
330
1F
100
AcDbEntity
  8
0
  6
Continuous
 62
     7
370
    25
100
AcDbLine
 10
37.4699788577
 20
29.9639765644
 30
0.0
 11
37.4903858748
 21
29.9771331351
 31
0.0
  0
LINE
  5
20F
330
1F
100
AcDbEntity
  8
0
  6
Continuous
 62
     7
370
    25
100
AcDbLine
 10
37.4903858748
 20
29.9771331351
 30
0.0
 11
37.5729449199
 21
29.934718243
 31
0.0
  0
LINE
  5
210
330
1F
100
AcDbEntity
  8
0
  6
Continuous
 62
     7
370
    25
100
AcDbLine
 10
37.5729449199
 20
29.934718243
 30
0.0
 11
37.5083723514
 21
29.8930557691
 31
0.0
  0
SPLINE
  5
211
330
1F
100
AcDbEntity
  8
0
  6
Continuous
 62
     7
370
    25
100
AcDbSpline
210
0.0
220
0.0
230
1.0
 70
     8
 71
     3
 72
    11
 73
     7
 74
     0
 42
0.00000001
 43
0.00000001
 40
0.0
 40
0.0
 40
0.0
 40
0.0
 40
0.2800413325830079
 40
0.5599539154782168
 40
0.7799887076695435
 40
1.0
 40
1.0
 40
1.0
 40
1.0
 10
37.50837235144019
 20
29.89305576911051
 30
0.0
 10
37.49741454015663
 20
29.89364605431881
 30
0.0
 10
37.47550395547006
 20
29.89482635335036
 30
0.0
 10
37.44617072686668
 20
29.90023433555986
 30
0.0
 10
37.42078479533498
 20
29.90757954276017
 30
0.0
 10
37.40737931038622
 20
29.91389140176562
 30
0.0
 10
37.40067692585961
 20
29.91704716273167
 30
0.0
  0
SPLINE
  5
212
330
1F
100
AcDbEntity
  8
0
  6
Continuous
 62
     7
370
    25
100
AcDbSpline
210
0.0
220
0.0
230
1.0
 70
     8
 71
     3
 72
    14
 73
    10
 74
     0
 42
0.00000001
 43
0.00000001
 40
0.0
 40
0.0
 40
0.0
 40
0.0
 40
0.140100408818376
 40
0.2801621534998557
 40
0.4201427513210465
 40
0.560012008941773
 40
0.7065666953564606
 40
0.8532398555563384
 40
0.9999999999999999
 40
0.9999999999999999
 40
0.9999999999999999
 40
0.9999999999999999
 10
37.40067692585961
 20
29.91704716273167
 30
0.0
 10
37.39357865083472
 20
29.92107576895662
 30
0.0
 10
37.37938405972766
 20
29.92913186961401
 30
0.0
 10
37.36368152373441
 20
29.94392358224707
 30
0.0
 10
37.35344730316947
 20
29.96018950942473
 30
0.0
 10
37.35098803138322
 20
29.97783371303967
 30
0.0
 10
37.3576389938989
 20
29.99531051698853
 30
0.0
 10
37.37066470316172
 20
30.01185694707589
 30
0.0
 10
37.3837947370508
 20
30.02121128355265
 30
0.0
 10
37.3903617001038
 20
30.02588983827285
 30
0.0
  0
SPLINE
  5
213
330
1F
100
AcDbEntity
  8
0
  6
Continuous
 62
     7
370
    25
100
AcDbSpline
210
0.0
220
0.0
230
1.0
 70
     8
 71
     3
 72
    14
 73
    10
 74
     0
 42
0.00000001
 43
0.00000001
 40
0.0
 40
0.0
 40
0.0
 40
0.0
 40
0.1401159132109858
 40
0.2802230909018741
 40
0.4202527760169226
 40
0.5601237431437628
 40
0.706592473780595
 40
0.8532443226547416
 40
1.0
 40
1.0
 40
1.0
 40
1.0
 10
37.3903617001038
 20
30.02588983827285
 30
0.0
 10
37.39735382031826
 20
30.02999161214457
 30
0.0
 10
37.41133762482377
 20
30.03819490416313
 30
0.0
 10
37.43673079658529
 20
30.04747324664875
 30
0.0
 10
37.46442019321408
 20
30.05410627324854
 30
0.0
 10
37.49488161728424
 20
30.05646403184134
 30
0.0
 10
37.52547567420493
 20
30.05314349041084
 30
0.0
 10
37.55421560830032
 20
30.04561462783027
 30
0.0
 10
37.57042381236967
 20
30.03801206235168
 30
0.0
 10
37.57853078221259
 20
30.03420943444793
 30
0.0
  0
SPLINE
  5
214
330
1F
100
AcDbEntity
  8
0
  6
Continuous
 62
     7
370
    25
100
AcDbSpline
210
0.0
220
0.0
230
1.0
 70
     8
 71
     3
 72
    13
 73
     9
 74
     0
 42
0.00000001
 43
0.00000001
 40
0.0
 40
0.0
 40
0.0
 40
0.0
 40
0.186781950686183
 40
0.3734653789548907
 40
0.5599110891616729
 40
0.706432986248932
 40
0.8531666705284873
 40
1.0
 40
1.0
 40
1.0
 40
1.0
 10
37.57853078221259
 20
30.03420943444793
 30
0.0
 10
37.58495947714577
 20
30.03058052193039
 30
0.0
 10
37.59781347604978
 20
30.02332461104831
 30
0.0
 10
37.61217529839463
 20
30.01004794428025
 30
0.0
 10
37.62046564509123
 20
29.99623972441371
 30
0.0
 10
37.62073092000163
 20
29.98277070986155
 30
0.0
 10
37.61563363949283
 20
29.97081962413446
 30
0.0
 10
37.60956828074413
 20
29.9634637201991
 30
0.0
 10
37.60653457199011
 20
29.95978451982744
 30
0.0
  0
LINE
  5
215
330
1F
100
AcDbEntity
  8
0
  6
Continuous
 62
     7
370
    25
100
AcDbLine
 10
37.606534572
 20
29.9597845198
 30
0.0
 11
37.5776370442
 21
29.9680826183
 31
0.0
  0
SPLINE
  5
216
330
1F
100
AcDbEntity
  8
0
  6
Continuous
 62
     7
370
    25
100
AcDbSpline
210
0.0
220
0.0
230
1.0
 70
     8
 71
     3
 72
    12
 73
     8
 74
     0
 42
0.00000001
 43
0.00000001
 40
0.0
 40
0.0
 40
0.0
 40
0.0
 40
0.1869487545978479
 40
0.3735696045951158
 40
0.5599645706437245
 40
0.7798744359432231
 40
1.0
 40
1.0
 40
1.0
 40
1.0
 10
37.57763704424097
 20
29.96808261833798
 30
0.0
 10
37.58019275725665
 20
29.97146555371269
 30
0.0
 10
37.58529970061545
 20
29.97822549085705
 30
0.0
 10
37.58902897225655
 20
29.98928904117372
 30
0.0
 10
37.58499309622623
 20
30.00098156697803
 30
0.0
 10
37.57499281883702
 20
30.01214861932933
 30
0.0
 10
37.56431952629712
 20
30.01832741289221
 30
0.0
 10
37.55898026408334
 20
30.02141832404955
 30
0.0
  0
SPLINE
  5
217
330
1F
100
AcDbEntity
  8
0
  6
Continuous
 62
     7
370
    25
100
AcDbSpline
210
0.0
220
0.0
230
1.0
 70
     8
 71
     3
 72
    12
 73
     8
 74
     0
 42
0.00000001
 43
0.00000001
 40
0.0
 40
0.0
 40
0.0
 40
0.0
 40
0.1869773912946247
 40
0.3737768967010512
 40
0.5604978263234154
 40
0.7800629209330606
 40
1.0
 40
1.0
 40
1.0
 40
1.0
 10
37.55898026408334
 20
30.02141832404955
 30
0.0
 10
37.55387982165715
 20
30.02387669797152
 30
0.0
 10
37.54368378924563
 20
30.02879110697639
 30
0.0
 10
37.52584008533935
 20
30.03408829959997
 30
0.0
 10
37.50534116087093
 20
30.03719610262437
 30
0.0
 10
37.48264237434526
 20
30.03680169302511
 30
0.0
 10
37.46804728600937
 20
30.03351228504367
 30
0.0
 10
37.46074356536911
 20
30.0318661890136
 30
0.0
  0
SPLINE
  5
218
330
1F
100
AcDbEntity
  8
0
  6
Continuous
 62
     7
370
    25
100
AcDbSpline
210
0.0
220
0.0
230
1.0
 70
     8
 71
     3
 72
     9
 73
     5
 74
     0
 42
0.00000001
 43
0.00000001
 40
0.0
 40
0.0
 40
0.0
 40
0.0
 40
0.5597891198894425
 40
1.0
 40
1.0
 40
1.0
 40
1.0
 10
37.46074356536911
 20
30.0318661890136
 30
0.0
 10
37.45195440463361
 20
30.02900715349907
 30
0.0
 10
37.43625356225706
 20
30.02389980965663
 30
0.0
 10
37.42380725199414
 20
30.0164001567021
 30
0.0
 10
37.41832825079916
 20
30.01309872787447
 30
0.0
  0
SPLINE
  5
219
330
1F
100
AcDbEntity
  8
0
  6
Continuous
 62
     7
370
    25
100
AcDbSpline
210
0.0
220
0.0
230
1.0
 70
     8
 71
     3
 72
    14
 73
    10
 74
     0
 42
0.00000001
 43
0.00000001
 40
0.0
 40
0.0
 40
0.0
 40
0.0
 40
0.1401817991375573
 40
0.2802766127747766
 40
0.4202196195808234
 40
0.5600385937601253
 40
0.7065155743674613
 40
0.8532697625699757
 40
1.0
 40
1.0
 40
1.0
 40
1.0
 10
37.41832825079916
 20
30.01309872787447
 30
0.0
 10
37.41349797874719
 20
30.009774552004
 30
0.0
 10
37.4038404319199
 20
30.00312826297807
 30
0.0
 10
37.39265532151046
 20
29.9917494331246
 30
0.0
 10
37.385823220936
 20
29.97927154155651
 30
0.0
 10
37.38490471725293
 20
29.96588059096734
 30
0.0
 10
37.39171557709248
 20
29.9529055541256
 30
0.0
 10
37.40331799114482
 20
29.94090240701311
 30
0.0
 10
37.41441747926103
 20
29.93442904357476
 30
0.0
 10
37.41996677041381
 20
29.93119262599576
 30
0.0
  0
SPLINE
  5
21A
330
1F
100
AcDbEntity
  8
0
  6
Continuous
 62
     7
370
    25
100
AcDbSpline
210
0.0
220
0.0
230
1.0
 70
     8
 71
     3
 72
    11
 73
     7
 74
     0
 42
0.00000001
 43
0.00000001
 40
0.0
 40
0.0
 40
0.0
 40
0.0
 40
0.2799357428865319
 40
0.5599333474557622
 40
0.7800949405810205
 40
1.0
 40
1.0
 40
1.0
 40
1.0
 10
37.41996677041381
 20
29.93119262599576
 30
0.0
 10
37.42599178843582
 20
29.92842080302183
 30
0.0
 10
37.43804315592022
 20
29.92287654454185
 30
0.0
 10
37.45786780913757
 20
29.91801683556333
 30
0.0
 10
37.47672324987676
 20
29.91452687315407
 30
0.0
 10
37.48876348051774
 20
29.91387085918678
 30
0.0
 10
37.49478008645508
 20
29.91354304341246
 30
0.0
  0
LINE
  5
21B
330
1F
100
AcDbEntity
  8
0
  6
Continuous
 62
     7
370
    25
100
AcDbLine
 10
37.4947800865
 20
29.9135430434
 30
0.0
 11
37.5271780879
 21
29.9344817687
 31
0.0
  0
LINE
  5
21C
330
1F
100
AcDbEntity
  8
0
  6
Continuous
 62
     7
370
    25
100
AcDbLine
 10
37.5271780879
 20
29.9344817687
 30
0.0
 11
37.4699788577
 21
29.9639765644
 31
0.0
  0
LINE
  5
21D
330
1F
100
AcDbEntity
  8
0
  6
Continuous
 62
     7
370
    25
100
AcDbLine
 10
37.4006769259
 20
29.9170471627
 30
0.0
 11
37.4006769259
 21
29.8930399679
 31
0.0
  0
LINE
  5
21E
330
1F
100
AcDbEntity
  8
0
  6
Continuous
 62
     7
370
    25
100
AcDbLine
 10
37.5083723514
 20
29.8930557691
 30
0.0
 11
37.5083723514
 21
29.8603941366
 31
0.0
  0
LINE
  5
21F
330
1F
100
AcDbEntity
  8
0
  6
Continuous
 62
     7
370
    25
100
AcDbLine
 10
37.7475583612
 20
29.9230272728
 30
0.0
 11
37.7475583612
 21
29.8903656403
 31
0.0
  0
LINE
  5
220
330
1F
100
AcDbEntity
  8
0
  6
Continuous
 62
     7
370
    25
100
AcDbLine
 10
37.5729449199
 20
29.934718243
 30
0.0
 11
37.5729449199
 21
29.9020566105
 31
0.0
  0
LINE
  5
221
330
1F
100
AcDbEntity
  8
0
  6
Continuous
 62
     7
370
    25
100
AcDbLine
 10
37.4183282508
 20
30.0130987279
 30
0.0
 11
37.4183282508
 21
29.9804370954
 31
0.0
  0
LINE
  5
222
330
1F
100
AcDbEntity
  8
0
  6
Continuous
 62
     7
370
    25
100
AcDbLine
 10
37.4699788577
 20
29.9639765644
 30
0.0
 11
37.4699788577
 21
29.9313149319
 31
0.0
  0
LINE
  5
223
330
1F
100
AcDbEntity
  8
0
  6
Continuous
 62
     7
370
    25
100
AcDbLine
 10
37.5776370442
 20
29.9680826183
 30
0.0
 11
37.5776370442
 21
29.9354209859
 31
0.0
  0
LINE
  5
224
330
1F
100
AcDbEntity
  8
0
  6
Continuous
 62
     7
370
    25
100
AcDbLine
 10
37.606534572
 20
29.9597845198
 30
0.0
 11
37.606534572
 21
29.9271228874
 31
0.0
  0
LINE
  5
225
330
1F
100
AcDbEntity
  8
0
  6
Continuous
 62
     7
370
    25
100
AcDbLine
 10
37.5589802641
 20
30.021418324
 30
0.0
 11
37.5589802641
 21
29.9887566916
 31
0.0
  0
LINE
  5
226
330
1F
100
AcDbEntity
  8
0
  6
Continuous
 62
     7
370
    25
100
AcDbLine
 10
37.234394343
 20
29.9997745131
 30
0.0
 11
37.3791054162
 21
30.1250199067
 31
0.0
  0
LINE
  5
227
330
1F
100
AcDbEntity
  8
0
  6
Continuous
 62
     7
370
    25
100
AcDbLine
 10
37.3791054162
 20
30.1250199067
 30
0.0
 11
37.4078167486
 21
30.1139916048
 31
0.0
  0
LINE
  5
228
330
1F
100
AcDbEntity
  8
0
  6
Continuous
 62
     7
370
    25
100
AcDbLine
 10
37.4078167486
 20
30.1139916048
 30
0.0
 11
37.2631056753
 21
29.9887462112
 31
0.0
  0
LINE
  5
229
330
1F
100
AcDbEntity
  8
0
  6
Continuous
 62
     7
370
    25
100
AcDbLine
 10
37.2631056753
 20
29.9887462112
 30
0.0
 11
37.234394343
 21
29.9997745131
 31
0.0
  0
LINE
  5
22A
330
1F
100
AcDbEntity
  8
0
  6
Continuous
 62
     7
370
    25
100
AcDbLine
 10
37.234394343
 20
29.9997745131
 30
0.0
 11
37.234394343
 21
29.9722230873
 31
0.0
  0
LINE
  5
22B
330
1F
100
AcDbEntity
  8
0
  6
Continuous
 62
     7
370
    25
100
AcDbLine
 10
37.2631056753
 20
29.9887462112
 30
0.0
 11
37.2631056753
 21
29.9603826947
 31
0.0
  0
LINE
  5
22C
330
1F
100
AcDbEntity
  8
0
  6
Continuous
 62
     7
370
    25
100
AcDbLine
 10
37.4078167486
 20
30.1139916048
 30
0.0
 11
37.4078167486
 21
30.0813299723
 31
0.0
  0
LINE
  5
22D
330
1F
100
AcDbEntity
  8
0
  6
Continuous
 62
     7
370
    25
100
AcDbLine
 10
37.0509300508
 20
30.0576971575
 30
0.0
 11
37.0509300508
 21
30.0335820555
 31
0.0
  0
LINE
  5
22E
330
1F
100
AcDbEntity
  8
0
  6
Continuous
 62
     7
370
    25
100
AcDbLine
 10
37.1942260389
 20
30.012423076
 30
0.0
 11
37.0509300508
 21
30.0576971575
 31
0.0
  0
LINE
  5
22F
330
1F
100
AcDbEntity
  8
0
  6
Continuous
 62
     7
370
    25
100
AcDbLine
 10
37.1942260389
 20
30.012423076
 30
0.0
 11
37.1942260389
 21
29.9876874712
 31
0.0
  0
LINE
  5
230
330
1F
100
AcDbEntity
  8
0
  6
Continuous
 62
     7
370
    25
100
AcDbLine
 10
37.0509300508
 20
30.0576971575
 30
0.0
 11
37.1764629967
 21
30.1901012733
 31
0.0
  0
LINE
  5
231
330
1F
100
AcDbEntity
  8
0
  6
Continuous
 62
     7
370
    25
100
AcDbLine
 10
37.1764629967
 20
30.1901012733
 30
0.0
 11
37.2067756096
 21
30.180513315
 31
0.0
  0
LINE
  5
232
330
1F
100
AcDbEntity
  8
0
  6
Continuous
 62
     7
370
    25
100
AcDbLine
 10
37.2067756096
 20
30.180513315
 30
0.0
 11
37.0960638183
 21
30.0637165035
 31
0.0
  0
LINE
  5
233
330
1F
100
AcDbEntity
  8
0
  6
Continuous
 62
     7
370
    25
100
AcDbLine
 10
37.0960638183
 20
30.0637165035
 30
0.0
 11
37.2090471936
 21
30.0280303804
 31
0.0
  0
LINE
  5
234
330
1F
100
AcDbEntity
  8
0
  6
Continuous
 62
     7
370
    25
100
AcDbLine
 10
37.2090471936
 20
30.0280303804
 30
0.0
 11
37.1942260389
 21
30.012423076
 31
0.0
  0
LINE
  5
235
330
1F
100
AcDbEntity
  8
0
  6
Continuous
 62
     7
370
    25
100
AcDbLine
 10
37.4607435654
 20
30.031866189
 30
0.0
 11
37.4607435654
 21
29.9992045565
 31
0.0
  0
LINE
  5
236
330
1F
100
AcDbEntity
  8
0
  6
Continuous
 62
     7
370
    25
100
AcDbLine
 10
37.2090471936
 20
30.0280303804
 30
0.0
 11
37.2090471936
 21
29.9953687479
 31
0.0
  0
LINE
  5
237
330
1F
100
AcDbEntity
  8
0
  6
Continuous
 62
     7
370
    25
100
AcDbLine
 10
36.7238376361
 20
30.1164840801
 30
0.0
 11
36.7861013815
 21
30.261765297
 31
0.0
  0
LINE
  5
238
330
1F
100
AcDbEntity
  8
0
  6
Continuous
 62
     7
370
    25
100
AcDbLine
 10
36.7861013815
 20
30.261765297
 30
0.0
 11
36.81943036
 21
30.2570143131
 31
0.0
  0
LINE
  5
239
330
1F
100
AcDbEntity
  8
0
  6
Continuous
 62
     7
370
    25
100
AcDbLine
 10
36.81943036
 20
30.2570143131
 30
0.0
 11
36.7885591609
 21
30.1849756393
 31
0.0
  0
LINE
  5
23A
330
1F
100
AcDbEntity
  8
0
  6
Continuous
 62
     7
370
    25
100
AcDbLine
 10
36.7885591609
 20
30.1849756393
 30
0.0
 11
36.9443674806
 21
30.2391497539
 31
0.0
  0
LINE
  5
23B
330
1F
100
AcDbEntity
  8
0
  6
Continuous
 62
     7
370
    25
100
AcDbLine
 10
36.9443674806
 20
30.2391497539
 30
0.0
 11
36.9895012482
 21
30.2327004546
 31
0.0
  0
LINE
  5
23C
330
1F
100
AcDbEntity
  8
0
  6
Continuous
 62
     7
370
    25
100
AcDbLine
 10
36.9895012482
 20
30.2327004546
 30
0.0
 11
36.8587548307
 21
30.1889097119
 31
0.0
  0
LINE
  5
23D
330
1F
100
AcDbEntity
  8
0
  6
Continuous
 62
     7
370
    25
100
AcDbLine
 10
36.8587548307
 20
30.1889097119
 30
0.0
 11
36.9318923881
 21
30.08675281
 31
0.0
  0
LINE
  5
23E
330
1F
100
AcDbEntity
  8
0
  6
Continuous
 62
     7
370
    25
100
AcDbLine
 10
36.9318923881
 20
30.08675281
 30
0.0
 11
36.8879502711
 21
30.0930301281
 31
0.0
  0
LINE
  5
23F
330
1F
100
AcDbEntity
  8
0
  6
Continuous
 62
     7
370
    25
100
AcDbLine
 10
36.8879502711
 20
30.0930301281
 30
0.0
 11
36.829857303
 21
30.1793647488
 31
0.0
  0
LINE
  5
240
330
1F
100
AcDbEntity
  8
0
  6
Continuous
 62
     7
370
    25
100
AcDbLine
 10
36.829857303
 20
30.1793647488
 30
0.0
 11
36.7787652823
 21
30.1620806266
 31
0.0
  0
LINE
  5
241
330
1F
100
AcDbEntity
  8
0
  6
Continuous
 62
     7
370
    25
100
AcDbLine
 10
36.7787652823
 20
30.1620806266
 30
0.0
 11
36.7571666146
 21
30.1117330962
 31
0.0
  0
LINE
  5
242
330
1F
100
AcDbEntity
  8
0
  6
Continuous
 62
     7
370
    25
100
AcDbLine
 10
36.7571666146
 20
30.1117330962
 30
0.0
 11
36.7238376361
 21
30.1164840801
 31
0.0
  0
LINE
  5
243
330
1F
100
AcDbEntity
  8
0
  6
Continuous
 62
     7
370
    25
100
AcDbLine
 10
37.2067756096
 20
30.180513315
 30
0.0
 11
37.2067756096
 21
30.1478516825
 31
0.0
  0
LINE
  5
244
330
1F
100
AcDbEntity
  8
0
  6
Continuous
 62
     7
370
    25
100
AcDbLine
 10
36.8879502711
 20
30.0930301281
 30
0.0
 11
36.8879502711
 21
30.0707262882
 31
0.0
  0
LINE
  5
245
330
1F
100
AcDbEntity
  8
0
  6
Continuous
 62
     7
370
    25
100
AcDbLine
 10
36.9318923881
 20
30.08675281
 30
0.0
 11
36.9318923881
 21
30.062139107
 31
0.0
  0
SPLINE
  5
246
330
1F
100
AcDbEntity
  8
0
  6
Continuous
 62
     7
370
    25
100
AcDbSpline
210
0.0
220
0.0
230
1.0
 70
     8
 71
     3
 72
     9
 73
     5
 74
     0
 42
0.00000001
 43
0.00000001
 40
0.0
 40
0.0
 40
0.0
 40
0.0
 40
0.5601200490725525
 40
1.0
 40
1.0
 40
1.0
 40
1.0
 10
36.46045339615901
 20
30.14326859548239
 30
0.0
 10
36.46484468399598
 20
30.14332596382031
 30
0.0
 10
36.47268458875252
 20
30.14342838532446
 30
0.0
 10
36.48045759098944
 20
30.14401912928928
 30
0.0
 10
36.48387677883196
 20
30.14427898571554
 30
0.0
  0
SPLINE
  5
247
330
1F
100
AcDbEntity
  8
0
  6
Continuous
 62
     7
370
    25
100
AcDbSpline
210
0.0
220
0.0
230
1.0
 70
     8
 71
     3
 72
    11
 73
     7
 74
     0
 42
0.00000001
 43
0.00000001
 40
0.0
 40
0.0
 40
0.0
 40
0.0
 40
0.2804856045498624
 40
0.5592064529517039
 40
0.7794996820251333
 40
1.0
 40
1.0
 40
1.0
 40
1.0
 10
36.48387677883196
 20
30.14427898571554
 30
0.0
 10
36.48969052260532
 20
30.14514080061655
 30
0.0
 10
36.50128143130485
 20
30.14685900806134
 30
0.0
 10
36.51387564852125
 20
30.15360870053061
 30
0.0
 10
36.52044394370451
 20
30.16175675309283
 30
0.0
 10
36.52086699625068
 20
30.16717320558227
 30
0.0
 10
36.52107862190077
 20
30.16988270417684
 30
0.0
  0
SPLINE
  5
248
330
1F
100
AcDbEntity
  8
0
  6
Continuous
 62
     7
370
    25
100
AcDbSpline
210
0.0
220
0.0
230
1.0
 70
     8
 71
     3
 72
    14
 73
    10
 74
     0
 42
0.00000001
 43
0.00000001
 40
0.0
 40
0.0
 40
0.0
 40
0.0
 40
0.1250361296241334
 40
0.2499839926356898
 40
0.3748727506733477
 40
0.4998211635270038
 40
0.666255669011117
 40
0.8330913027458011
 40
1.0
 40
1.0
 40
1.0
 40
1.0
 10
36.52107862190077
 20
30.16988270417684
 30
0.0
 10
36.52077845442776
 20
30.17208056815101
 30
0.0
 10
36.52017833137861
 20
30.17647474456375
 30
0.0
 10
36.51566164769569
 20
30.18263672615538
 30
0.0
 10
36.50852423532156
 20
30.18786034748635
 30
0.0
 10
36.49789151176516
 20
30.19204448489191
 30
0.0
 10
36.48423488360558
 20
30.19412822948451
 30
0.0
 10
36.46908321743004
 20
30.19490767649213
 30
0.0
 10
36.45893653199514
 20
30.19486355718497
 30
0.0
 10
36.45386207861829
 20
30.19484149270207
 30
0.0
  0
LINE
  5
249
330
1F
100
AcDbEntity
  8
0
  6
Continuous
 62
     7
370
    25
100
AcDbLine
 10
36.4538620786
 20
30.1948414927
 30
0.0
 11
36.3937209609
 21
30.1940460791
 31
0.0
  0
LINE
  5
24A
330
1F
100
AcDbEntity
  8
0
  6
Continuous
 62
     7
370
    25
100
AcDbLine
 10
36.3937209609
 20
30.1940460791
 30
0.0
 11
36.3957318714
 21
30.1424086889
 31
0.0
  0
LINE
  5
24B
330
1F
100
AcDbEntity
  8
0
  6
Continuous
 62
     7
370
    25
100
AcDbLine
 10
36.3957318714
 20
30.1424086889
 30
0.0
 11
36.4604533962
 21
30.1432685955
 31
0.0
  0
LINE
  5
24C
330
1F
100
AcDbEntity
  8
0
  6
Continuous
 62
     7
370
    25
100
AcDbLine
 10
36.361993263
 20
30.1242216647
 30
0.0
 11
36.3560722489
 21
30.2744258468
 31
0.0
  0
LINE
  5
24D
330
1F
100
AcDbEntity
  8
0
  6
Continuous
 62
     7
370
    25
100
AcDbLine
 10
36.3560722489
 20
30.2744258468
 30
0.0
 11
36.4536386441
 21
30.2757157067
 31
0.0
  0
SPLINE
  5
24E
330
1F
100
AcDbEntity
  8
0
  6
Continuous
 62
     7
370
    25
100
AcDbSpline
210
0.0
220
0.0
230
1.0
 70
     8
 71
     3
 72
    13
 73
     9
 74
     0
 42
0.00000001
 43
0.00000001
 40
0.0
 40
0.0
 40
0.0
 40
0.0
 40
0.1869986270412298
 40
0.3737328981235973
 40
0.5600382718830916
 40
0.706659225098141
 40
0.8533891641660708
 40
1.0
 40
1.0
 40
1.0
 40
1.0
 10
36.45363864412538
 20
30.27571570668309
 30
0.0
 10
36.46129136016727
 20
30.27568731637565
 30
0.0
 10
36.47658597377006
 20
30.27563057589551
 30
0.0
 10
36.4992827973534
 20
30.27307726784383
 30
0.0
 10
36.51833997662994
 20
30.266977644767
 30
0.0
 10
36.53118339894161
 20
30.25826308487514
 30
0.0
 10
36.53950552360035
 20
30.24884015106361
 30
0.0
 10
36.54080094974948
 20
30.24190494932251
 30
0.0
 10
36.54144839983734
 20
30.23843875637924
 30
0.0
  0
SPLINE
  5
24F
330
1F
100
AcDbEntity
  8
0
  6
Continuous
 62
     7
370
    25
100
AcDbSpline
210
0.0
220
0.0
230
1.0
 70
     8
 71
     3
 72
    11
 73
     7
 74
     0
 42
0.00000001
 43
0.00000001
 40
0.0
 40
0.0
 40
0.0
 40
0.0
 40
0.2796429620182561
 40
0.5595002498433146
 40
0.7796957793626884
 40
1.0
 40
1.0
 40
1.0
 40
1.0
 10
36.54144839983734
 20
30.23843875637924
 30
0.0
 10
36.54095467065417
 20
30.23467024892679
 30
0.0
 10
36.53996683388064
 20
30.22713034573749
 30
0.0
 10
36.53127082877128
 20
30.21764854476398
 30
0.0
 10
36.51959436289751
 20
30.21060119334356
 30
0.0
 10
36.5107534783599
 20
30.20759049290891
 30
0.0
 10
36.50633194536899
 20
30.20608477125393
 30
0.0
  0
SPLINE
  5
250
330
1F
100
AcDbEntity
  8
0
  6
Continuous
 62
     7
370
    25
100
AcDbSpline
210
0.0
220
0.0
230
1.0
 70
     8
 71
     3
 72
    11
 73
     7
 74
     0
 42
0.00000001
 43
0.00000001
 40
0.0
 40
0.0
 40
0.0
 40
0.0
 40
0.280155556750713
 40
0.5596005344505134
 40
0.779690096095261
 40
1.0
 40
1.0
 40
1.0
 40
1.0
 10
36.50633194536899
 20
30.20608477125393
 30
0.0
 10
36.51398866954882
 20
30.20455962173656
 30
0.0
 10
36.52928269759832
 20
30.20151319105022
 30
0.0
 10
36.54573091848418
 20
30.19218411822324
 30
0.0
 10
36.55503084622148
 20
30.1813090127185
 30
0.0
 10
36.55617919895874
 20
30.17400799039524
 30
0.0
 10
36.55675366260139
 20
30.17035565279661
 30
0.0
  0
SPLINE
  5
251
330
1F
100
AcDbEntity
  8
0
  6
Continuous
 62
     7
370
    25
100
AcDbSpline
210
0.0
220
0.0
230
1.0
 70
     8
 71
     3
 72
    14
 73
    10
 74
     0
 42
0.00000001
 43
0.00000001
 40
0.0
 40
0.0
 40
0.0
 40
0.0
 40
0.1399807413099325
 40
0.2799552664152966
 40
0.4198515156477099
 40
0.5595754935867566
 40
0.7062539341903047
 40
0.8530978688762118
 40
1.0
 40
1.0
 40
1.0
 40
1.0
 10
36.55675366260139
 20
30.17035565279661
 30
0.0
 10
36.55647186494495
 20
30.16656815145857
 30
0.0
 10
36.555908282146
 20
30.15899331697622
 30
0.0
 10
36.54859525158576
 20
30.14834475615498
 30
0.0
 10
36.53768546835655
 20
30.13879792073628
 30
0.0
 10
36.52115802244083
 20
30.13200016028086
 30
0.0
 10
36.50197761228874
 20
30.12810996881486
 30
0.0
 10
36.4816971554057
 20
30.12601968768954
 30
0.0
 10
36.46800724835501
 20
30.12569526548178
 30
0.0
 10
36.46116093871988
 20
30.12553302224094
 30
0.0
  0
LINE
  5
252
330
1F
100
AcDbEntity
  8
0
  6
Continuous
 62
     7
370
    25
100
AcDbLine
 10
36.4611609387
 20
30.1255330222
 30
0.0
 11
36.361993263
 21
30.1242216647
 31
0.0
  0
SPLINE
  5
253
330
1F
100
AcDbEntity
  8
0
  6
Continuous
 62
     7
370
    25
100
AcDbSpline
210
0.0
220
0.0
230
1.0
 70
     8
 71
     3
 72
     9
 73
     5
 74
     0
 42
0.00000001
 43
0.00000001
 40
0.0
 40
0.0
 40
0.0
 40
0.0
 40
0.5603048054131017
 40
1.0
 40
1.0
 40
1.0
 40
1.0
 10
36.44920719334942
 20
30.21253407061446
 30
0.0
 10
36.45539541070402
 20
30.2126133886589
 30
0.0
 10
36.46643978743401
 20
30.21275495097226
 30
0.0
 10
36.47723220951521
 20
30.21409473879885
 30
0.0
 10
36.48197758564226
 20
30.21468383706797
 30
0.0
  0
SPLINE
  5
254
330
1F
100
AcDbEntity
  8
0
  6
Continuous
 62
     7
370
    25
100
AcDbSpline
210
0.0
220
0.0
230
1.0
 70
     8
 71
     3
 72
    11
 73
     7
 74
     0
 42
0.00000001
 43
0.00000001
 40
0.0
 40
0.0
 40
0.0
 40
0.0
 40
0.2800633560654092
 40
0.5593107280085545
 40
0.7794795196751275
 40
1.0
 40
1.0
 40
1.0
 40
1.0
 10
36.48197758564226
 20
30.21468383706797
 30
0.0
 10
36.48618232890716
 20
30.21564833310685
 30
0.0
 10
36.49457956462414
 20
30.21757451505813
 30
0.0
 10
36.50316187138866
 20
30.22316494266483
 30
0.0
 10
36.50732258006995
 20
30.2294885338684
 30
0.0
 10
36.50750619395419
 20
30.23357679863689
 30
0.0
 10
36.50759807416213
 20
30.23562256232514
 30
0.0
  0
SPLINE
  5
255
330
1F
100
AcDbEntity
  8
0
  6
Continuous
 62
     7
370
    25
100
AcDbSpline
210
0.0
220
0.0
230
1.0
 70
     8
 71
     3
 72
    14
 73
    10
 74
     0
 42
0.00000001
 43
0.00000001
 40
0.0
 40
0.0
 40
0.0
 40
0.0
 40
0.1250374168697541
 40
0.2500093489499744
 40
0.3748300138937694
 40
0.4996454591814965
 40
0.6661183983831668
 40
0.8330436895259584
 40
1.0
 40
1.0
 40
1.0
 40
1.0
 10
36.50759807416213
 20
30.23562256232514
 30
0.0
 10
36.50730803255063
 20
30.23770488617215
 30
0.0
 10
36.50672810122866
 20
30.2418684433083
 30
0.0
 10
36.50258099116903
 20
30.24773646314792
 30
0.0
 10
36.49576558702459
 20
30.25269637779466
 30
0.0
 10
36.48524573399126
 20
30.25634586224726
 30
0.0
 10
36.47201984165513
 20
30.25756744711543
 30
0.0
 10
36.4576487055683
 20
30.25795541098794
 30
0.0
 10
36.44802433398951
 20
30.25790023545066
 30
0.0
 10
36.44321170112312
 20
30.25787264511897
 30
0.0
  0
LINE
  5
256
330
1F
100
AcDbEntity
  8
0
  6
Continuous
 62
     7
370
    25
100
AcDbLine
 10
36.4432117011
 20
30.2578726451
 30
0.0
 11
36.3912259424
 21
30.2571847199
 31
0.0
  0
LINE
  5
257
330
1F
100
AcDbEntity
  8
0
  6
Continuous
 62
     7
370
    25
100
AcDbLine
 10
36.3912259424
 20
30.2571847199
 30
0.0
 11
36.3930134184
 21
30.2117816524
 31
0.0
  0
LINE
  5
258
330
1F
100
AcDbEntity
  8
0
  6
Continuous
 62
     7
370
    25
100
AcDbLine
 10
36.3930134184
 20
30.2117816524
 30
0.0
 11
36.4492071933
 21
30.2125340706
 31
0.0
  0
LINE
  5
259
330
1F
100
AcDbEntity
  8
0
  6
Continuous
 62
     7
370
    25
100
AcDbLine
 10
36.829857303
 20
30.1793647488
 30
0.0
 11
36.829857303
 21
30.1467031164
 31
0.0
  0
LINE
  5
25A
330
1F
100
AcDbEntity
  8
0
  6
Continuous
 62
     7
370
    25
100
AcDbLine
 10
36.361993263
 20
30.1242216647
 30
0.0
 11
36.361993263
 21
30.1023408976
 31
0.0
  0
LINE
  5
25B
330
1F
100
AcDbEntity
  8
0
  6
Continuous
 62
     7
370
    25
100
AcDbLine
 10
36.7238376361
 20
30.1164840801
 30
0.0
 11
36.7238376361
 21
30.0942603429
 31
0.0
  0
LINE
  5
25C
330
1F
100
AcDbEntity
  8
0
  6
Continuous
 62
     7
370
    25
100
AcDbLine
 10
36.7571666146
 20
30.1117330962
 30
0.0
 11
36.7571666146
 21
30.0905310647
 31
0.0
  0
LINE
  5
25D
330
1F
100
AcDbEntity
  8
0
  6
Continuous
 62
     7
370
    25
100
AcDbLine
 10
36.5567536626
 20
30.1703556528
 30
0.0
 11
36.5567536626
 21
30.1376940203
 31
0.0
  0
LINE
  5
25E
330
1F
100
AcDbEntity
  8
0
  6
Continuous
 62
     7
370
    25
100
AcDbLine
 10
36.7787652823
 20
30.1620806266
 30
0.0
 11
36.7787652823
 21
30.1294189941
 31
0.0
  0
LINE
  5
25F
330
1F
100
AcDbEntity
  8
0
  6
Continuous
 62
     7
370
    25
100
AcDbLine
 10
36.3560722489
 20
30.2744258468
 30
0.0
 11
36.3560722489
 21
30.2417642143
 31
0.0
  0
LINE
  5
260
330
1F
100
AcDbEntity
  8
0
  6
Continuous
 62
     7
370
    25
100
AcDbLine
 10
36.4538620786
 20
30.1621798602
 30
0.0
 11
36.3949922453
 21
30.1614012604
 31
0.0
  0
SPLINE
  5
261
330
1F
100
AcDbEntity
  8
0
  6
Continuous
 62
     7
370
    25
100
AcDbSpline
210
0.0
220
0.0
230
1.0
 70
     8
 71
     3
 72
    12
 73
     8
 74
     0
 42
0.00000001
 43
0.00000001
 40
0.0
 40
0.0
 40
0.0
 40
0.0
 40
0.0706811273567933
 40
0.2564303780842116
 40
0.5038531662797785
 40
0.7518722747509492
 40
1.0
 40
1.0
 40
1.0
 40
1.0
 10
36.51082421098337
 20
30.15300021233763
 30
0.0
 10
36.50996022767071
 20
30.15367233700544
 30
0.0
 10
36.5068257054042
 20
30.15611079814963
 30
0.0
 10
36.4977546198857
 20
30.15931630882829
 30
0.0
 10
36.48427578997922
 20
30.16148648173045
 30
0.0
 10
36.46907297535131
 20
30.16224106530889
 30
0.0
 10
36.45893311747066
 20
30.16220026489808
 30
0.0
 10
36.45386207861829
 20
30.16217986022664
 30
0.0
  0
LINE
  5
262
330
1F
100
AcDbEntity
  8
0
  6
Continuous
 62
     7
370
    25
100
AcDbLine
 10
36.5976121349
 20
30.1717092894
 30
0.0
 11
36.6011498477
 21
30.1900897926
 31
0.0
  0
LINE
  5
263
330
1F
100
AcDbEntity
  8
0
  6
Continuous
 62
     7
370
    25
100
AcDbLine
 10
36.6011498477
 20
30.1900897926
 30
0.0
 11
36.6984555693
 21
30.1838769675
 31
0.0
  0
LINE
  5
264
330
1F
100
AcDbEntity
  8
0
  6
Continuous
 62
     7
370
    25
100
AcDbLine
 10
36.6984555693
 20
30.1838769675
 30
0.0
 11
36.6949178565
 21
30.1654964644
 31
0.0
  0
LINE
  5
265
330
1F
100
AcDbEntity
  8
0
  6
Continuous
 62
     7
370
    25
100
AcDbLine
 10
36.6949178565
 20
30.1654964644
 30
0.0
 11
36.5976121349
 21
30.1717092894
 31
0.0
  0
LINE
  5
266
330
1F
100
AcDbEntity
  8
0
  6
Continuous
 62
     7
370
    25
100
AcDbLine
 10
36.5976121349
 20
30.1717092894
 30
0.0
 11
36.5976121349
 21
30.1390476569
 31
0.0
  0
LINE
  5
267
330
1F
100
AcDbEntity
  8
0
  6
Continuous
 62
     7
370
    25
100
AcDbLine
 10
36.6949178565
 20
30.1654964644
 30
0.0
 11
36.6949178565
 21
30.1328348319
 31
0.0
  0
LINE
  5
268
330
1F
100
AcDbEntity
  8
0
  6
Continuous
 62
     7
370
    25
100
AcDbLine
 10
36.4538620786
 20
30.1948414927
 30
0.0
 11
36.4538620786
 21
30.1621798602
 31
0.0
  0
LINE
  5
269
330
1F
100
AcDbEntity
  8
0
  6
Continuous
 62
     7
370
    25
100
AcDbLine
 10
36.6984555693
 20
30.1838769675
 30
0.0
 11
36.6984555693
 21
30.1512153351
 31
0.0
  0
LINE
  5
26A
330
1F
100
AcDbEntity
  8
0
  6
Continuous
 62
     7
370
    25
100
AcDbLine
 10
36.9895012482
 20
30.2327004546
 30
0.0
 11
36.9895012482
 21
30.2000388221
 31
0.0
  0
LINE
  5
26B
330
1F
100
AcDbEntity
  8
0
  6
Continuous
 62
     7
370
    25
100
AcDbLine
 10
36.81943036
 20
30.2570143131
 30
0.0
 11
36.81943036
 21
30.2243526807
 31
0.0
  0
LINE
  5
26C
330
1F
100
AcDbEntity
  8
0
  6
Continuous
 62
     7
370
    25
100
AcDbLine
 10
36.4432117011
 20
30.2252110126
 30
0.0
 11
36.3925111306
 21
30.2245400942
 31
0.0
  0
SPLINE
  5
26D
330
1F
100
AcDbEntity
  8
0
  6
Continuous
 62
     7
370
    25
100
AcDbSpline
210
0.0
220
0.0
230
1.0
 70
     8
 71
     3
 72
    12
 73
     8
 74
     0
 42
0.00000001
 43
0.00000001
 40
0.0
 40
0.0
 40
0.0
 40
0.0
 40
0.017671144060259
 40
0.2137935048548928
 40
0.4753722363122842
 40
0.737661747836984
 40
1.0
 40
1.0
 40
1.0
 40
1.0
 10
36.4959367282216
 20
30.21932070343202
 30
0.0
 10
36.49573512329422
 20
30.21946742088054
 30
0.0
 10
36.4932960155674
 20
30.22124247502729
 30
0.0
 10
36.48500908855436
 20
30.22355957782993
 30
0.0
 10
36.47209061364254
 20
30.22494309347275
 30
0.0
 10
36.45763098873137
 20
30.22528444624666
 30
0.0
 10
36.44801842801144
 20
30.22523549202728
 30
0.0
 10
36.44321170112312
 20
30.22521101264354
 30
0.0
  0
LINE
  5
26E
330
1F
100
AcDbEntity
  8
0
  6
Continuous
 62
     7
370
    25
100
AcDbLine
 10
36.5414483998
 20
30.2384387564
 30
0.0
 11
36.5414483998
 21
30.2057771239
 31
0.0
  0
LINE
  5
26F
330
1F
100
AcDbEntity
  8
0
  6
Continuous
 62
     7
370
    25
100
AcDbLine
 10
36.4432117011
 20
30.2578726451
 30
0.0
 11
36.4432117011
 21
30.2252110126
 31
0.0
  0
LINE
  5
270
330
1F
100
AcDbEntity
  8
0
  6
Continuous
 62
     7
370
    25
100
AcDbLine
 10
38.0126608826
 20
28.5054014711
 30
0.0
 11
38.0841650223
 21
28.4997602345
 31
0.0
  0
LINE
  5
271
330
1F
100
AcDbEntity
  8
0
  6
Continuous
 62
     7
370
    25
100
AcDbLine
 10
37.968446041
 20
28.4724738933
 30
0.0
 11
38.0126608826
 21
28.5054014711
 31
0.0
  0
LINE
  5
272
330
1F
100
AcDbEntity
  8
0
  6
Continuous
 62
     7
370
    25
100
AcDbLine
 10
37.9957353389
 20
28.433905079
 30
0.0
 11
37.968446041
 21
28.4724738933
 31
0.0
  0
LINE
  5
273
330
1F
100
AcDbEntity
  8
0
  6
Continuous
 62
     7
370
    25
100
AcDbLine
 10
38.0672394786
 20
28.4282638424
 30
0.0
 11
37.9957353389
 21
28.433905079
 31
0.0
  0
LINE
  5
274
330
1F
100
AcDbEntity
  8
0
  6
Continuous
 62
     7
370
    25
100
AcDbLine
 10
38.1114543203
 20
28.4611914201
 30
0.0
 11
38.0672394786
 21
28.4282638424
 31
0.0
  0
LINE
  5
275
330
1F
100
AcDbEntity
  8
0
  6
Continuous
 62
     7
370
    25
100
AcDbLine
 10
38.0841650223
 20
28.4997602345
 30
0.0
 11
38.1114543203
 21
28.4611914201
 31
0.0
  0
LWPOLYLINE
  5
276
330
1F
100
AcDbEntity
  8
0
  6
Continuous
 62
     7
370
    25
100
AcDbPolyline
 90
       61
 70
   128
 43
0.0
 10
38.073801268
 20
28.6098254408
 10
38.0477243782
 20
28.6110847875
 10
38.0215623126
 20
28.6107636776
 10
37.9956017083
 20
28.6088656293
 10
37.9701269951
 20
28.6054114381
 10
37.9454172794
 20
28.6004389487
 10
37.921743286
 20
28.5940026409
 10
37.899364392
 20
28.586173032
 10
37.8785257853
 20
28.5770359051
 10
37.8594557781
 20
28.5666913683
 10
37.8423633053
 20
28.5552527586
 10
37.8274356357
 20
28.5428453997
 10
37.8148363199
 20
28.5296052293
 10
37.8047033987
 20
28.5156773095
 10
37.7971478905
 20
28.5012142374
 10
37.7922525749
 20
28.4863744735
 10
37.7900710862
 20
28.4713206054
 10
37.7906273251
 20
28.4562175664
 10
37.7939151973
 20
28.4412308286
 10
37.7998986804
 20
28.4265245897
 10
37.8085122179
 20
28.4122599745
 10
37.8196614382
 20
28.398593269
 10
37.833224188
 20
28.3856742085
 10
37.8490518711
 20
28.3736443369
 10
37.866971076
 20
28.3626354561
 10
37.8867854761
 20
28.3527681816
 10
37.9082779808
 20
28.3441506213
 10
37.9312131137
 20
28.3368771911
 10
37.9553395927
 20
28.3310275802
 10
37.9803930829
 20
28.3266658782
 10
38.0060990932
 20
28.3238398726
 10
38.0321759831
 20
28.322580526
 10
38.0583380487
 20
28.3229016359
 10
38.084298653
 20
28.3247996841
 10
38.1097733661
 20
28.3282538754
 10
38.1344830818
 20
28.3332263647
 10
38.1581570753
 20
28.3396626726
 10
38.1805359693
 20
28.3474922814
 10
38.2013745759
 20
28.3566294084
 10
38.2204445832
 20
28.3669739452
 10
38.2375370559
 20
28.3784125549
 10
38.2524647255
 20
28.3908199138
 10
38.2650640413
 20
28.4040600842
 10
38.2751969625
 20
28.417988004
 10
38.2827524708
 20
28.4324510761
 10
38.2876477863
 20
28.4472908399
 10
38.2898292751
 20
28.462344708
 10
38.2892730362
 20
28.477447747
 10
38.2859851639
 20
28.4924344849
 10
38.2800016809
 20
28.5071407237
 10
38.2713881433
 20
28.521405339
 10
38.2602389231
 20
28.5350720445
 10
38.2466761733
 20
28.547991105
 10
38.2308484902
 20
28.5600209766
 10
38.2129292853
 20
28.5710298574
 10
38.1931148851
 20
28.5808971319
 10
38.1716223804
 20
28.5895146922
 10
38.1486872475
 20
28.5967881223
 10
38.1245607686
 20
28.6026377332
 10
38.0995072783
 20
28.6069994353
 10
38.073801268
 20
28.6098254408
  0
LWPOLYLINE
  5
277
330
1F
100
AcDbEntity
  8
0
  6
Continuous
 62
     7
370
    25
100
AcDbPolyline
 90
       32
 70
   128
 43
0.0
 10
37.7899501806
 20
28.4627499527
 10
37.7906273251
 20
28.4521348624
 10
37.7939151973
 20
28.4371481245
 10
37.7998986804
 20
28.4224418857
 10
37.8085122179
 20
28.4081772704
 10
37.8196614382
 20
28.3945105649
 10
37.833224188
 20
28.3815915044
 10
37.8490518711
 20
28.3695616328
 10
37.866971076
 20
28.358552752
 10
37.8867854761
 20
28.3486854775
 10
37.9082779808
 20
28.3400679173
 10
37.9312131137
 20
28.3327944871
 10
37.9553395927
 20
28.3269448762
 10
37.9803930829
 20
28.3225831741
 10
38.0060990932
 20
28.3197571686
 10
38.0321759831
 20
28.3184978219
 10
38.0583380487
 20
28.3188189318
 10
38.084298653
 20
28.3207169801
 10
38.1097733661
 20
28.3241711713
 10
38.1344830818
 20
28.3291436607
 10
38.1581570753
 20
28.3355799685
 10
38.1805359693
 20
28.3434095774
 10
38.2013745759
 20
28.3525467043
 10
38.2204445832
 20
28.3628912411
 10
38.2375370559
 20
28.3743298508
 10
38.2524647255
 20
28.3867372097
 10
38.2650640413
 20
28.3999773801
 10
38.2751969625
 20
28.4139052999
 10
38.2827524708
 20
28.428368372
 10
38.2876477863
 20
28.4432081359
 10
38.2898292751
 20
28.458262004
 10
38.2899501806
 20
28.4627499527
  0
LINE
  5
278
330
1F
100
AcDbEntity
  8
0
  6
Continuous
 62
     7
370
    25
100
AcDbLine
 10
38.0841650223
 20
28.4408685954
 30
0.0
 11
38.0841650223
 21
28.4997602345
 31
0.0
  0
ARC
  5
279
330
1F
100
AcDbEntity
  8
0
  6
Continuous
 62
     7
370
    25
100
AcDbCircle
 10
38.0410268543
 20
28.3337229126
 30
0.0
 40
0.0980973475344469
100
AcDbArc
 50
74.5340223807
 51
85.6819104516
  0
ARC
  5
27A
330
1F
100
AcDbEntity
  8
0
  6
Continuous
 62
     7
370
    25
100
AcDbCircle
 10
38.0399532887
 20
28.3242720155
 30
0.0
 40
0.1076028486616812
100
AcDbArc
 50
85.4907908746
 51
95.945990583
  0
LINE
  5
27B
330
1F
100
AcDbEntity
  8
0
  6
Continuous
 62
     7
370
    25
100
AcDbLine
 10
38.0126608826
 20
28.4343624204
 30
0.0
 11
38.0126608826
 21
28.5054014711
 31
0.0
  0
LINE
  5
27C
330
1F
100
AcDbEntity
  8
0
  6
Continuous
 62
     7
370
    25
100
AcDbLine
 10
38.0104842952
 20
28.4327414771
 30
0.0
 11
38.0126608826
 21
28.4343624204
 31
0.0
  0
LINE
  5
27D
330
1F
100
AcDbEntity
  8
0
  6
Continuous
 62
     7
370
    25
100
AcDbLine
 10
38.0484129525
 20
28.4315418021
 30
0.0
 11
38.069416066
 21
28.4298847857
 31
0.0
  0
LINE
  5
27E
330
1F
100
AcDbEntity
  8
0
  6
Continuous
 62
     7
370
    25
100
AcDbLine
 10
38.0126608826
 20
28.4343624204
 30
0.0
 11
38.0484129525
 21
28.4315418021
 31
0.0
  0
LWPOLYLINE
  5
27F
330
1F
100
AcDbEntity
  8
0
  6
Continuous
 62
     7
370
    25
100
AcDbPolyline
 90
       61
 70
   128
 43
0.0
 10
34.9767465745
 20
30.395977152
 10
34.9506417621
 20
30.3970261408
 10
34.924490016
 20
30.3964941405
 10
34.8985778603
 20
30.3943869798
 10
34.8731891939
 20
30.3907277452
 10
34.8486021805
 20
30.3855565281
 10
34.8250862004
 20
30.3789299853
 10
34.8028988996
 20
30.3709207187
 10
34.7822833669
 20
30.3616164795
 10
34.7634654704
 20
30.3511192069
 10
34.7466513828
 20
30.3395439111
 10
34.7320253229
 20
30.3270174135
 10
34.7197475368
 20
30.3136769572
 10
34.7099525424
 20
30.2996687028
 10
34.7027476559
 20
30.2851461278
 10
34.6982118154
 20
30.2702683445
 10
34.6963947166
 20
30.2551983571
 10
34.697316268
 20
30.2401012754
 10
34.7009663729
 20
30.2251425063
 10
34.7073050399
 20
30.2104859412
 10
34.7162628213
 20
30.1962921605
 10
34.7277415738
 20
30.1827166741
 10
34.7416155337
 20
30.169908218
 10
34.7577326951
 20
30.1580071243
 10
34.7759164749
 20
30.1471437839
 10
34.7959676479
 20
30.1374372178
 10
34.8176665292
 20
30.1289937731
 10
34.8407753814
 20
30.121905958
 10
34.8650410189
 20
30.1162514282
 10
34.8901975824
 20
30.1120921357
 10
34.9159694514
 20
30.1094736507
 10
34.9420742638
 20
30.1084246619
 10
34.9682260099
 20
30.1089566622
 10
34.9941381656
 20
30.1110638229
 10
35.0195268319
 20
30.1147230575
 10
35.0441138454
 20
30.1198942746
 10
35.0676298255
 20
30.1265208174
 10
35.0898171263
 20
30.1345300839
 10
35.110432659
 20
30.1438343232
 10
35.1292505555
 20
30.1543315958
 10
35.146064643
 20
30.1659068916
 10
35.160690703
 20
30.1784333892
 10
35.1729684891
 20
30.1917738455
 10
35.1827634834
 20
30.2057820999
 10
35.18996837
 20
30.2203046749
 10
35.1945042104
 20
30.2351824582
 10
35.1963213092
 20
30.2502524456
 10
35.1953997578
 20
30.2653495273
 10
35.191749653
 20
30.2803082964
 10
35.185410986
 20
30.2949648615
 10
35.1764532046
 20
30.3091586422
 10
35.1649744521
 20
30.3227341286
 10
35.1511004922
 20
30.3355425847
 10
35.1349833308
 20
30.3474436784
 10
35.1167995509
 20
30.3583070188
 10
35.0967483779
 20
30.3680135849
 10
35.0750494966
 20
30.3764570296
 10
35.0519406445
 20
30.3835448447
 10
35.027675007
 20
30.3891993745
 10
35.0025184434
 20
30.393358667
 10
34.9767465745
 20
30.395977152
  0
LWPOLYLINE
  5
280
330
1F
100
AcDbEntity
  8
0
  6
Continuous
 62
     7
370
    25
100
AcDbPolyline
 90
       32
 70
   128
 43
0.0
 10
34.6963580129
 20
30.2486426973
 10
34.697316268
 20
30.2360185714
 10
34.7009663729
 20
30.2210598023
 10
34.7073050399
 20
30.2064032372
 10
34.7162628213
 20
30.1922094564
 10
34.7277415738
 20
30.1786339701
 10
34.7416155337
 20
30.165825514
 10
34.7577326951
 20
30.1539244203
 10
34.7759164749
 20
30.1430610798
 10
34.7959676479
 20
30.1333545137
 10
34.8176665292
 20
30.124911069
 10
34.8407753814
 20
30.117823254
 10
34.8650410189
 20
30.1121687241
 10
34.8901975824
 20
30.1080094316
 10
34.9159694514
 20
30.1053909467
 10
34.9420742638
 20
30.1043419579
 10
34.9682260099
 20
30.1048739582
 10
34.9941381656
 20
30.1069811188
 10
35.0195268319
 20
30.1106403534
 10
35.0441138454
 20
30.1158115705
 10
35.0676298255
 20
30.1224381133
 10
35.0898171263
 20
30.1304473799
 10
35.110432659
 20
30.1397516191
 10
35.1292505555
 20
30.1502488918
 10
35.146064643
 20
30.1618241876
 10
35.160690703
 20
30.1743506851
 10
35.1729684891
 20
30.1876911415
 10
35.1827634834
 20
30.2016993958
 10
35.18996837
 20
30.2162219709
 10
35.1945042104
 20
30.2310997541
 10
35.1963213092
 20
30.2461697416
 10
35.1963580129
 20
30.2486426973
  0
LINE
  5
281
330
1F
100
AcDbEntity
  8
0
  6
Continuous
 62
     7
370
    25
100
AcDbLine
 10
34.9181383348
 20
30.2910704447
 30
0.0
 11
34.9897719718
 21
30.2860062333
 31
0.0
  0
LINE
  5
282
330
1F
100
AcDbEntity
  8
0
  6
Continuous
 62
     7
370
    25
100
AcDbLine
 10
34.874724376
 20
30.2577896128
 30
0.0
 11
34.9181383348
 21
30.2910704447
 31
0.0
  0
LINE
  5
283
330
1F
100
AcDbEntity
  8
0
  6
Continuous
 62
     7
370
    25
100
AcDbLine
 10
34.9029440541
 20
30.2194445694
 30
0.0
 11
34.874724376
 21
30.2577896128
 31
0.0
  0
LINE
  5
284
330
1F
100
AcDbEntity
  8
0
  6
Continuous
 62
     7
370
    25
100
AcDbLine
 10
34.974577691
 20
30.214380358
 30
0.0
 11
34.9029440541
 21
30.2194445694
 31
0.0
  0
LINE
  5
285
330
1F
100
AcDbEntity
  8
0
  6
Continuous
 62
     7
370
    25
100
AcDbLine
 10
35.0179916499
 20
30.2476611899
 30
0.0
 11
34.974577691
 21
30.214380358
 31
0.0
  0
LINE
  5
286
330
1F
100
AcDbEntity
  8
0
  6
Continuous
 62
     7
370
    25
100
AcDbLine
 10
34.9897719718
 20
30.2860062333
 30
0.0
 11
35.0179916499
 21
30.2476611899
 31
0.0
  0
LINE
  5
287
330
1F
100
AcDbEntity
  8
0
  6
Continuous
 62
     7
370
    25
100
AcDbLine
 10
34.9897719718
 20
30.2260281855
 30
0.0
 11
34.9897719718
 21
30.2860062333
 31
0.0
  0
ARC
  5
288
330
1F
100
AcDbEntity
  8
0
  6
Continuous
 62
     7
370
    25
100
AcDbCircle
 10
34.9472606969
 20
30.1185572368
 30
0.0
 40
0.0991682676702606
100
AcDbArc
 50
75.4665021307
 51
86.1292455166
  0
ARC
  5
289
330
1F
100
AcDbEntity
  8
0
  6
Continuous
 62
     7
370
    25
100
AcDbCircle
 10
34.9463604519
 20
30.1102217931
 30
0.0
 40
0.1075459923822062
100
AcDbArc
 50
85.9505062543
 51
96.0264638365
  0
LINE
  5
28A
330
1F
100
AcDbEntity
  8
0
  6
Continuous
 62
     7
370
    25
100
AcDbLine
 10
34.9181383348
 20
30.2200313941
 30
0.0
 11
34.9181383348
 21
30.2910704447
 31
0.0
  0
LINE
  5
28B
330
1F
100
AcDbEntity
  8
0
  6
Continuous
 62
     7
370
    25
100
AcDbLine
 10
34.9161545518
 20
30.2185106401
 30
0.0
 11
34.9181383348
 21
30.2200313941
 31
0.0
  0
LINE
  5
28C
330
1F
100
AcDbEntity
  8
0
  6
Continuous
 62
     7
370
    25
100
AcDbLine
 10
34.9539551533
 20
30.2174992884
 30
0.0
 11
34.9765614741
 21
30.215901112
 31
0.0
  0
LINE
  5
28D
330
1F
100
AcDbEntity
  8
0
  6
Continuous
 62
     7
370
    25
100
AcDbLine
 10
34.9181383348
 20
30.2200313941
 30
0.0
 11
34.9539551533
 21
30.2174992884
 31
0.0
  0
LINE
  5
28E
330
1F
100
AcDbEntity
  8
0
  6
Continuous
 62
     7
370
    25
100
AcDbLine
 10
37.2760194691
 20
28.0312215958
 30
0.0
 11
37.2760194691
 21
28.0872514912
 31
0.0
  0
LINE
  5
28F
330
1F
100
AcDbEntity
  8
0
  6
Continuous
 62
     7
370
    25
100
AcDbLine
 10
35.7102887245
 20
28.0312215958
 30
0.0
 11
35.7102887245
 21
28.0872514912
 31
0.0
  0
LINE
  5
290
330
1F
100
AcDbEntity
  8
0
  6
Continuous
 62
     7
370
    25
100
AcDbLine
 10
37.1919032794
 20
27.9666034692
 30
0.0
 11
37.1919032794
 21
28.2684770521
 31
0.0
  0
LINE
  5
291
330
1F
100
AcDbEntity
  8
0
  6
Continuous
 62
     7
370
    25
100
AcDbLine
 10
35.7944049141
 20
27.9666034692
 30
0.0
 11
35.7944049141
 21
28.2684770521
 31
0.0
  0
LINE
  5
292
330
1F
100
AcDbEntity
  8
0
  6
Continuous
 62
     7
370
    25
100
AcDbLine
 10
34.716548309
 20
28.3300836345
 30
0.0
 11
34.716548309
 21
28.4831601555
 31
0.0
  0
LINE
  5
293
330
1F
100
AcDbEntity
  8
0
  6
Continuous
 62
     7
370
    25
100
AcDbLine
 10
34.9463580129
 20
28.3140700081
 30
0.0
 11
34.9463580129
 21
28.6158264736
 31
0.0
  0
LINE
  5
294
330
1F
100
AcDbEntity
  8
0
  6
Continuous
 62
     7
370
    25
100
AcDbLine
 10
35.7035585239
 20
28.677820894
 30
0.0
 11
35.7035585239
 21
28.6478429374
 31
0.0
  0
LINE
  5
295
330
1F
100
AcDbEntity
  8
0
  6
Continuous
 62
     7
370
    25
100
AcDbLine
 10
35.5729610628
 20
28.6521311848
 30
0.0
 11
35.5729610628
 21
28.6408223935
 31
0.0
  0
LINE
  5
296
330
1F
100
AcDbEntity
  8
0
  6
Continuous
 62
     7
370
    25
100
AcDbLine
 10
38.7874602139
 20
28.9037577653
 30
0.0
 11
38.7874602139
 21
29.1128641817
 31
0.0
  0
LINE
  5
297
330
1F
100
AcDbEntity
  8
0
  6
Continuous
 62
     7
370
    25
100
AcDbLine
 10
34.1988479797
 20
28.9037577653
 30
0.0
 11
34.1988479797
 21
29.1128641817
 31
0.0
  0
LINE
  5
298
330
1F
100
AcDbEntity
  8
0
  6
Continuous
 62
     7
370
    25
100
AcDbLine
 10
38.4735343203
 20
28.9373038428
 30
0.0
 11
38.4735343203
 21
29.1614234244
 31
0.0
  0
LINE
  5
299
330
1F
100
AcDbEntity
  8
0
  6
Continuous
 62
     7
370
    25
100
AcDbLine
 10
34.5127738732
 20
28.9373038428
 30
0.0
 11
34.5127738732
 21
29.1614234244
 31
0.0
  0
LINE
  5
29A
330
1F
100
AcDbEntity
  8
0
  6
Continuous
 62
     7
370
    25
100
AcDbLine
 10
37.779863197
 20
29.2198387391
 30
0.0
 11
37.779863197
 21
29.2486570149
 31
0.0
  0
LINE
  5
29B
330
1F
100
AcDbEntity
  8
0
  6
Continuous
 62
     7
370
    25
100
AcDbLine
 10
38.3764771784
 20
29.5499692256
 30
0.0
 11
38.3764771784
 21
29.7590756419
 31
0.0
  0
LINE
  5
29C
330
1F
100
AcDbEntity
  8
0
  6
Continuous
 62
     7
370
    25
100
AcDbLine
 10
34.6098310152
 20
29.5499692256
 30
0.0
 11
34.6098310152
 21
29.7590756419
 31
0.0
  0
LINE
  5
29D
330
1F
100
AcDbEntity
  8
0
  6
Continuous
 62
     7
370
    25
100
AcDbLine
 10
38.6904030719
 20
29.583515303
 30
0.0
 11
38.6904030719
 21
29.8076348846
 31
0.0
  0
LINE
  5
29E
330
1F
100
AcDbEntity
  8
0
  6
Continuous
 62
     7
370
    25
100
AcDbLine
 10
34.2959051216
 20
29.583515303
 30
0.0
 11
34.2959051216
 21
29.8076348846
 31
0.0
  0
LINE
  5
29F
330
1F
100
AcDbEntity
  8
0
  6
Continuous
 62
     7
370
    25
100
AcDbLine
 10
37.7747851377
 20
30.0955661763
 30
0.0
 11
37.7747851377
 21
30.2486426973
 31
0.0
  0
LINE
  5
2A0
330
1F
100
AcDbEntity
  8
0
  6
Continuous
 62
     7
370
    25
100
AcDbLine
 10
36.4611609387
 20
30.1255330222
 30
0.0
 11
36.4611609387
 21
30.1059430509
 31
0.0
  0
LINE
  5
2A1
330
1F
100
AcDbEntity
  8
0
  6
Continuous
 62
     7
370
    25
100
AcDbLine
 10
38.0045948416
 20
30.0795525499
 30
0.0
 11
38.0045948416
 21
30.3813090155
 31
0.0
  0
LINE
  5
2A2
330
1F
100
AcDbEntity
  8
0
  6
Continuous
 62
     7
370
    25
100
AcDbLine
 10
36.8296810946
 20
30.4429155979
 30
0.0
 11
36.8296810946
 21
30.4989454933
 31
0.0
  0
LINE
  5
2A3
330
1F
100
AcDbEntity
  8
0
  6
Continuous
 62
     7
370
    25
100
AcDbLine
 10
36.156627099
 20
30.4429155979
 30
0.0
 11
36.156627099
 21
30.4989454933
 31
0.0
  0
LINE
  5
2A4
330
1F
100
AcDbEntity
  8
0
  6
Continuous
 62
     7
370
    25
100
AcDbLine
 10
36.9137972842
 20
30.3782974712
 30
0.0
 11
36.9137972842
 21
30.6801710541
 31
0.0
  0
LINE
  5
2A5
330
1F
100
AcDbEntity
  8
0
  6
Continuous
 62
     7
370
    25
100
AcDbLine
 10
36.0725109093
 20
30.3782974712
 30
0.0
 11
36.0725109093
 21
30.6801710541
 31
0.0
  0
CIRCLE
  5
2A6
330
1F
100
AcDbEntity
  8
0
  6
Continuous
 62
     7
370
    25
100
AcDbCircle
 10
12.7691201252
 20
25.3746521292
 30
0.0
 40
0.8900000000000041
  0
CIRCLE
  5
2A7
330
1F
100
AcDbEntity
  8
0
  6
Continuous
 62
     7
370
    25
100
AcDbCircle
 10
12.7691201252
 20
25.3746521292
 30
0.0
 40
1.065000000000005
  0
LINE
  5
2A8
330
1F
100
AcDbEntity
  8
0
  6
Continuous
 62
     7
370
    25
100
AcDbLine
 10
12.5816201252
 20
27.6996521292
 30
0.0
 11
12.5816201252
 21
27.3746521292
 31
0.0
  0
ARC
  5
2A9
330
1F
100
AcDbEntity
  8
0
  6
Continuous
 62
     7
370
    25
100
AcDbCircle
 10
12.7691201252
 20
27.3746521292
 30
0.0
 40
0.1875000000000018
100
AcDbArc
 50
180.0
 51
0.0
  0
LINE
  5
2AA
330
1F
100
AcDbEntity
  8
0
  6
Continuous
 62
     7
370
    25
100
AcDbLine
 10
12.9566201252
 20
27.3746521292
 30
0.0
 11
12.9566201252
 21
27.6996521292
 31
0.0
  0
ARC
  5
2AB
330
1F
100
AcDbEntity
  8
0
  6
Continuous
 62
     7
370
    25
100
AcDbCircle
 10
12.7691201252
 20
27.6996521292
 30
0.0
 40
0.1875000000000018
100
AcDbArc
 50
0.0
 51
180.0
  0
LINE
  5
2AC
330
1F
100
AcDbEntity
  8
0
  6
Continuous
 62
     7
370
    25
100
AcDbLine
 10
13.769240362
 20
27.481911193
 30
0.0
 11
13.606740362
 21
27.2004529368
 31
0.0
  0
ARC
  5
2AD
330
1F
100
AcDbEntity
  8
0
  6
Continuous
 62
     7
370
    25
100
AcDbCircle
 10
13.7691201252
 20
27.1067029368
 30
0.0
 40
0.1875000000000016
100
AcDbArc
 50
150.0
 51
330.0
  0
LINE
  5
2AE
330
1F
100
AcDbEntity
  8
0
  6
Continuous
 62
     7
370
    25
100
AcDbLine
 10
13.9314998884
 20
27.0129529368
 30
0.0
 11
14.0939998884
 21
27.294411193
 31
0.0
  0
ARC
  5
2AF
330
1F
100
AcDbEntity
  8
0
  6
Continuous
 62
     7
370
    25
100
AcDbCircle
 10
13.9316201252
 20
27.388161193
 30
0.0
 40
0.1875000000000016
100
AcDbArc
 50
330.0
 51
150.0
  0
LINE
  5
2B0
330
1F
100
AcDbEntity
  8
0
  6
Continuous
 62
     7
370
    25
100
AcDbLine
 10
14.688879189
 20
26.6995318924
 30
0.0
 11
14.4074209327
 21
26.5370318924
 31
0.0
  0
ARC
  5
2B1
330
1F
100
AcDbEntity
  8
0
  6
Continuous
 62
     7
370
    25
100
AcDbCircle
 10
14.5011709327
 20
26.3746521292
 30
0.0
 40
0.1875000000000062
100
AcDbArc
 50
120.0
 51
300.0
  0
LINE
  5
2B2
330
1F
100
AcDbEntity
  8
0
  6
Continuous
 62
     7
370
    25
100
AcDbLine
 10
14.5949209327
 20
26.212272366
 30
0.0
 11
14.876379189
 21
26.374772366
 31
0.0
  0
ARC
  5
2B3
330
1F
100
AcDbEntity
  8
0
  6
Continuous
 62
     7
370
    25
100
AcDbCircle
 10
14.782629189
 20
26.5371521292
 30
0.0
 40
0.1875000000000031
100
AcDbArc
 50
300.0
 51
120.0
  0
LINE
  5
2B4
330
1F
100
AcDbEntity
  8
0
  6
Continuous
 62
     7
370
    25
100
AcDbLine
 10
14.876379189
 20
24.3745318924
 30
0.0
 11
14.5949209327
 21
24.5370318924
 31
0.0
  0
ARC
  5
2B5
330
1F
100
AcDbEntity
  8
0
  6
Continuous
 62
     7
370
    25
100
AcDbCircle
 10
14.5011709327
 20
24.3746521292
 30
0.0
 40
0.1875
100
AcDbArc
 50
60.0
 51
240.0
  0
LINE
  5
2B6
330
1F
100
AcDbEntity
  8
0
  6
Continuous
 62
     7
370
    25
100
AcDbLine
 10
14.4074209327
 20
24.212272366
 30
0.0
 11
14.688879189
 21
24.049772366
 31
0.0
  0
ARC
  5
2B7
330
1F
100
AcDbEntity
  8
0
  6
Continuous
 62
     7
370
    25
100
AcDbCircle
 10
14.782629189
 20
24.2121521292
 30
0.0
 40
0.1875000000000049
100
AcDbArc
 50
240.0
 51
60.0
  0
LINE
  5
2B8
330
1F
100
AcDbEntity
  8
0
  6
Continuous
 62
     7
370
    25
100
AcDbLine
 10
14.0939998884
 20
23.4548930654
 30
0.0
 11
13.9314998884
 21
23.7363513216
 31
0.0
  0
ARC
  5
2B9
330
1F
100
AcDbEntity
  8
0
  6
Continuous
 62
     7
370
    25
100
AcDbCircle
 10
13.7691201252
 20
23.6426013216
 30
0.0
 40
0.1875000000000031
100
AcDbArc
 50
30.0
 51
210.0
  0
LINE
  5
2BA
330
1F
100
AcDbEntity
  8
0
  6
Continuous
 62
     7
370
    25
100
AcDbLine
 10
13.606740362
 20
23.5488513216
 30
0.0
 11
13.769240362
 21
23.2673930654
 31
0.0
  0
ARC
  5
2BB
330
1F
100
AcDbEntity
  8
0
  6
Continuous
 62
     7
370
    25
100
AcDbCircle
 10
13.9316201252
 20
23.3611430654
 30
0.0
 40
0.1875000000000016
100
AcDbArc
 50
210.0
 51
30.0
  0
LINE
  5
2BC
330
1F
100
AcDbEntity
  8
0
  6
Continuous
 62
     7
370
    25
100
AcDbLine
 10
12.9566201252
 20
23.0496521292
 30
0.0
 11
12.9566201252
 21
23.3746521292
 31
0.0
  0
ARC
  5
2BD
330
1F
100
AcDbEntity
  8
0
  6
Continuous
 62
     7
370
    25
100
AcDbCircle
 10
12.7691201252
 20
23.3746521292
 30
0.0
 40
0.1875000000000018
100
AcDbArc
 50
0.0
 51
180.0
  0
LINE
  5
2BE
330
1F
100
AcDbEntity
  8
0
  6
Continuous
 62
     7
370
    25
100
AcDbLine
 10
12.5816201252
 20
23.3746521292
 30
0.0
 11
12.5816201252
 21
23.0496521292
 31
0.0
  0
ARC
  5
2BF
330
1F
100
AcDbEntity
  8
0
  6
Continuous
 62
     7
370
    25
100
AcDbCircle
 10
12.7691201252
 20
23.0496521292
 30
0.0
 40
0.1875000000000018
100
AcDbArc
 50
180.0
 51
360.0
  0
LINE
  5
2C0
330
1F
100
AcDbEntity
  8
0
  6
Continuous
 62
     7
370
    25
100
AcDbLine
 10
11.7689998884
 20
23.2673930654
 30
0.0
 11
11.9314998884
 21
23.5488513216
 31
0.0
  0
ARC
  5
2C1
330
1F
100
AcDbEntity
  8
0
  6
Continuous
 62
     7
370
    25
100
AcDbCircle
 10
11.7691201252
 20
23.6426013216
 30
0.0
 40
0.1875000000000018
100
AcDbArc
 50
330.0
 51
150.0
  0
LINE
  5
2C2
330
1F
100
AcDbEntity
  8
0
  6
Continuous
 62
     7
370
    25
100
AcDbLine
 10
11.606740362
 20
23.7363513216
 30
0.0
 11
11.444240362
 21
23.4548930654
 31
0.0
  0
ARC
  5
2C3
330
1F
100
AcDbEntity
  8
0
  6
Continuous
 62
     7
370
    25
100
AcDbCircle
 10
11.6066201252
 20
23.3611430654
 30
0.0
 40
0.1875
100
AcDbArc
 50
150.0
 51
330.0
  0
LINE
  5
2C4
330
1F
100
AcDbEntity
  8
0
  6
Continuous
 62
     7
370
    25
100
AcDbLine
 10
10.8493610614
 20
24.049772366
 30
0.0
 11
11.1308193176
 21
24.212272366
 31
0.0
  0
ARC
  5
2C5
330
1F
100
AcDbEntity
  8
0
  6
Continuous
 62
     7
370
    25
100
AcDbCircle
 10
11.0370693176
 20
24.3746521292
 30
0.0
 40
0.1875000000000053
100
AcDbArc
 50
300.0
 51
120.0
  0
LINE
  5
2C6
330
1F
100
AcDbEntity
  8
0
  6
Continuous
 62
     7
370
    25
100
AcDbLine
 10
10.9433193176
 20
24.5370318924
 30
0.0
 11
10.6618610614
 21
24.3745318924
 31
0.0
  0
ARC
  5
2C7
330
1F
100
AcDbEntity
  8
0
  6
Continuous
 62
     7
370
    25
100
AcDbCircle
 10
10.7556110614
 20
24.2121521292
 30
0.0
 40
0.1875
100
AcDbArc
 50
120.0
 51
300.0
  0
LINE
  5
2C8
330
1F
100
AcDbEntity
  8
0
  6
Continuous
 62
     7
370
    25
100
AcDbLine
 10
10.6618610614
 20
26.374772366
 30
0.0
 11
10.9433193176
 21
26.212272366
 31
0.0
  0
ARC
  5
2C9
330
1F
100
AcDbEntity
  8
0
  6
Continuous
 62
     7
370
    25
100
AcDbCircle
 10
11.0370693176
 20
26.3746521292
 30
0.0
 40
0.1875000000000031
100
AcDbArc
 50
240.0
 51
60.0
  0
LINE
  5
2CA
330
1F
100
AcDbEntity
  8
0
  6
Continuous
 62
     7
370
    25
100
AcDbLine
 10
11.1308193176
 20
26.5370318924
 30
0.0
 11
10.8493610614
 21
26.6995318924
 31
0.0
  0
ARC
  5
2CB
330
1F
100
AcDbEntity
  8
0
  6
Continuous
 62
     7
370
    25
100
AcDbCircle
 10
10.7556110614
 20
26.5371521292
 30
0.0
 40
0.1875000000000009
100
AcDbArc
 50
60.0
 51
240.0
  0
LINE
  5
2CC
330
1F
100
AcDbEntity
  8
0
  6
Continuous
 62
     7
370
    25
100
AcDbLine
 10
11.444240362
 20
27.294411193
 30
0.0
 11
11.606740362
 21
27.0129529368
 31
0.0
  0
ARC
  5
2CD
330
1F
100
AcDbEntity
  8
0
  6
Continuous
 62
     7
370
    25
100
AcDbCircle
 10
11.7691201252
 20
27.1067029368
 30
0.0
 40
0.1875000000000046
100
AcDbArc
 50
210.0
 51
30.0
  0
LINE
  5
2CE
330
1F
100
AcDbEntity
  8
0
  6
Continuous
 62
     7
370
    25
100
AcDbLine
 10
11.9314998884
 20
27.2004529368
 30
0.0
 11
11.7689998884
 21
27.481911193
 31
0.0
  0
ARC
  5
2CF
330
1F
100
AcDbEntity
  8
0
  6
Continuous
 62
     7
370
    25
100
AcDbCircle
 10
11.6066201252
 20
27.388161193
 30
0.0
 40
0.1875000000000033
100
AcDbArc
 50
30.0
 51
210.0
  0
ARC
  5
2D0
330
1F
100
AcDbEntity
  8
0
  6
Continuous
 62
     7
370
    25
100
AcDbCircle
 10
12.1880558085
 20
24.0189275038
 30
0.0
 40
0.1750000000000023
100
AcDbArc
 50
66.8
 51
246.8
  0
ARC
  5
2D1
330
1F
100
AcDbEntity
  8
0
  6
Continuous
 62
     7
370
    25
100
AcDbCircle
 10
12.7691201252
 20
25.3746521292
 30
0.0
 40
1.650000000000011
100
AcDbArc
 50
246.8
 51
293.2
  0
ARC
  5
2D2
330
1F
100
AcDbEntity
  8
0
  6
Continuous
 62
     7
370
    25
100
AcDbCircle
 10
13.3501844418
 20
24.0189275038
 30
0.0
 40
0.1750000000000016
100
AcDbArc
 50
293.2
 51
113.2
  0
ARC
  5
2D3
330
1F
100
AcDbEntity
  8
0
  6
Continuous
 62
     7
370
    25
100
AcDbCircle
 10
12.7691201252
 20
25.3746521292
 30
0.0
 40
1.30000000000001
100
AcDbArc
 50
246.8
 51
293.2
  0
ARC
  5
2D4
330
1F
100
AcDbEntity
  8
0
  6
Continuous
 62
     7
370
    25
100
AcDbCircle
 10
12.7691201252
 20
25.3746521292
 30
0.0
 40
1.300000000000007
100
AcDbArc
 50
36.8
 51
143.2
  0
ARC
  5
2D5
330
1F
100
AcDbEntity
  8
0
  6
Continuous
 62
     7
370
    25
100
AcDbCircle
 10
13.9501988973
 20
26.258211937
 30
0.0
 40
0.1750000000000042
100
AcDbArc
 50
216.8
 51
36.8
  0
ARC
  5
2D6
330
1F
100
AcDbEntity
  8
0
  6
Continuous
 62
     7
370
    25
100
AcDbCircle
 10
12.7691201252
 20
25.3746521292
 30
0.0
 40
1.650000000000011
100
AcDbArc
 50
36.8
 51
143.2
  0
ARC
  5
2D7
330
1F
100
AcDbEntity
  8
0
  6
Continuous
 62
     7
370
    25
100
AcDbCircle
 10
11.588041353
 20
26.258211937
 30
0.0
 40
0.1750000000000042
100
AcDbArc
 50
143.2
 51
323.2
  0
CIRCLE
  5
2D8
330
1F
100
AcDbEntity
  8
0
  6
Continuous
 62
     7
370
    25
100
AcDbCircle
 10
12.7691201252
 20
25.3746521292
 30
0.0
 40
3.00000000000002
  0
LINE
  5
2D9
330
1F
100
AcDbEntity
  8
0
  6
Continuous
 62
     7
370
    25
100
AcDbLine
 10
13.2001950562
 20
26.6374082039
 30
0.0
 11
13.2797177189
 21
26.8523300493
 31
0.0
  0
LINE
  5
2DA
330
1F
100
AcDbEntity
  8
0
  6
Continuous
 62
     7
370
    25
100
AcDbLine
 10
13.2797177189
 20
26.8523300493
 30
0.0
 11
13.19945776
 21
26.8820325537
 31
0.0
  0
LINE
  5
2DB
330
1F
100
AcDbEntity
  8
0
  6
Continuous
 62
     7
370
    25
100
AcDbLine
 10
13.19945776
 20
26.8820325537
 30
0.0
 11
13.210095891
 21
26.910787106
 31
0.0
  0
LINE
  5
2DC
330
1F
100
AcDbEntity
  8
0
  6
Continuous
 62
     7
370
    25
100
AcDbLine
 10
13.210095891
 20
26.910787106
 30
0.0
 11
13.4032148341
 21
26.8393220376
 31
0.0
  0
LINE
  5
2DD
330
1F
100
AcDbEntity
  8
0
  6
Continuous
 62
     7
370
    25
100
AcDbLine
 10
13.4032148341
 20
26.8393220376
 30
0.0
 11
13.3925767031
 21
26.8105674854
 31
0.0
  0
LINE
  5
2DE
330
1F
100
AcDbEntity
  8
0
  6
Continuous
 62
     7
370
    25
100
AcDbLine
 10
13.3925767031
 20
26.8105674854
 30
0.0
 11
13.3119480961
 21
26.8404279819
 31
0.0
  0
LINE
  5
2DF
330
1F
100
AcDbEntity
  8
0
  6
Continuous
 62
     7
370
    25
100
AcDbLine
 10
13.3119480961
 20
26.8404279819
 30
0.0
 11
13.2324254334
 21
26.6255061365
 31
0.0
  0
LINE
  5
2E0
330
1F
100
AcDbEntity
  8
0
  6
Continuous
 62
     7
370
    25
100
AcDbLine
 10
13.2324254334
 20
26.6255061365
 30
0.0
 11
13.2001950562
 21
26.6374082039
 31
0.0
  0
LINE
  5
2E1
330
1F
100
AcDbEntity
  8
0
  6
Continuous
 62
     7
370
    25
100
AcDbLine
 10
12.5043391913
 20
26.6877050722
 30
0.0
 11
12.4532550967
 21
26.9434415292
 31
0.0
  0
LINE
  5
2E2
330
1F
100
AcDbEntity
  8
0
  6
Continuous
 62
     7
370
    25
100
AcDbLine
 10
12.4532550967
 20
26.9434415292
 30
0.0
 11
12.4870653944
 21
26.9502351871
 31
0.0
  0
LINE
  5
2E3
330
1F
100
AcDbEntity
  8
0
  6
Continuous
 62
     7
370
    25
100
AcDbLine
 10
12.4870653944
 20
26.9502351871
 30
0.0
 11
12.5381494889
 21
26.6944987302
 31
0.0
  0
LINE
  5
2E4
330
1F
100
AcDbEntity
  8
0
  6
Continuous
 62
     7
370
    25
100
AcDbLine
 10
12.5381494889
 20
26.6944987302
 30
0.0
 11
12.5043391913
 21
26.6877050722
 31
0.0
  0
LINE
  5
2E5
330
1F
100
AcDbEntity
  8
0
  6
Continuous
 62
     7
370
    25
100
AcDbLine
 10
12.7147707043
 20
26.8104403751
 30
0.0
 11
12.7130854558
 21
26.8409855038
 31
0.0
  0
LINE
  5
2E6
330
1F
100
AcDbEntity
  8
0
  6
Continuous
 62
     7
370
    25
100
AcDbLine
 10
12.7130854558
 20
26.8409855038
 30
0.0
 11
12.8234165673
 21
26.8474105136
 31
0.0
  0
LINE
  5
2E7
330
1F
100
AcDbEntity
  8
0
  6
Continuous
 62
     7
370
    25
100
AcDbLine
 10
12.8234165673
 20
26.8474105136
 30
0.0
 11
12.8287882968
 21
26.750719382
 31
0.0
  0
SPLINE
  5
2E8
330
1F
100
AcDbEntity
  8
0
  6
Continuous
 62
     7
370
    25
100
AcDbSpline
210
0.0
220
0.0
230
1.0
 70
     8
 71
     3
 72
    11
 73
     7
 74
     0
 42
0.00000001
 43
0.00000001
 40
0.0
 40
0.0
 40
0.0
 40
0.0
 40
0.2800413325830067
 40
0.559953915478218
 40
0.7799887076695426
 40
1.0
 40
1.0
 40
1.0
 40
1.0
 10
12.8287882968471
 20
26.75071938201927
 30
0.0
 10
12.82031692705851
 20
26.74369406647673
 30
0.0
 10
12.80337808221431
 20
26.72964666529766
 30
0.0
 10
12.77601224114232
 20
26.71552905665057
 30
0.0
 10
12.74906469712015
 20
26.70657547200714
 30
0.0
 10
12.73185433316437
 20
26.70482761733819
 30
0.0
 10
12.72324961073057
 20
26.70395373667422
 30
0.0
  0
SPLINE
  5
2E9
330
1F
100
AcDbEntity
  8
0
  6
Continuous
 62
     7
370
    25
100
AcDbSpline
210
0.0
220
0.0
230
1.0
 70
     8
 71
     3
 72
    16
 73
    12
 74
     0
 42
0.00000001
 43
0.00000001
 40
0.0
 40
0.0
 40
0.0
 40
0.0
 40
0.1120481115386985
 40
0.2240742770846029
 40
0.3360663384872583
 40
0.4480124698346735
 40
0.5599377537111846
 40
0.6698885251485664
 40
0.7799084156750694
 40
0.8899421643054445
 40
1.0
 40
1.0
 40
1.0
 40
1.0
 10
12.72324961073057
 20
26.70395373667422
 30
0.0
 10
12.71529185491085
 20
26.70379782560349
 30
0.0
 10
12.69937790189519
 20
26.70348603399913
 30
0.0
 10
12.67577470178102
 20
26.70768126293099
 30
0.0
 10
12.65314241632774
 20
26.71539595612522
 30
0.0
 10
12.63226190199203
 20
26.72719252730538
 30
0.0
 10
12.61454716143095
 20
26.7432059419537
 30
0.0
 10
12.60097877697211
 20
26.76263415480511
 30
0.0
 10
12.59116853658932
 20
26.78397334900339
 30
0.0
 10
12.58480045124529
 20
26.80663540434557
 30
0.0
 10
12.58335799677319
 20
26.82219705017849
 30
0.0
 10
12.58263669060524
 20
26.82997872463673
 30
0.0
  0
SPLINE
  5
2EA
330
1F
100
AcDbEntity
  8
0
  6
Continuous
 62
     7
370
    25
100
AcDbSpline
210
0.0
220
0.0
230
1.0
 70
     8
 71
     3
 72
    14
 73
    10
 74
     0
 42
0.00000001
 43
0.00000001
 40
0.0
 40
0.0
 40
0.0
 40
0.0
 40
0.1400891919965519
 40
0.2801813712163208
 40
0.4202103767040814
 40
0.5601550188576119
 40
0.7065957027151694
 40
0.8532480563769598
 40
1.0
 40
1.0
 40
1.0
 40
1.0
 10
12.70550183766606
 20
26.97322484551346
 30
0.0
 10
12.71223713684194
 20
26.97338705812637
 30
0.0
 10
12.72570787881536
 20
26.97371148681115
 30
0.0
 10
12.74576721840132
 20
26.97066730689
 30
0.0
 10
12.76508998213457
 20
26.9646188713099
 30
0.0
 10
12.78328454661246
 20
26.95479132303492
 30
0.0
 10
12.79834599882508
 20
26.94005850623099
 30
0.0
 10
12.80938277424626
 20
26.92181581999332
 30
0.0
 10
12.81410366883273
 20
26.90851684811735
 30
0.0
 10
12.8164649173305
 20
26.90186510515024
 30
0.0
  0
SPLINE
  5
2EB
330
1F
100
AcDbEntity
  8
0
  6
Continuous
 62
     7
370
    25
100
AcDbSpline
210
0.0
220
0.0
230
1.0
 70
     8
 71
     3
 72
    13
 73
     9
 74
     0
 42
0.00000001
 43
0.00000001
 40
0.0
 40
0.0
 40
0.0
 40
0.0
 40
0.1867955826708395
 40
0.3734134524219244
 40
0.5599528227925996
 40
0.7065689118606598
 40
0.8532914251951208
 40
1.0
 40
1.0
 40
1.0
 40
1.0
 10
12.70734507819205
 20
26.94373299709767
 30
0.0
 10
12.70072689950751
 20
26.94313702593557
 30
0.0
 10
12.68749683851783
 20
26.94194565060431
 30
0.0
 10
12.66839722561637
 20
26.93582595946331
 30
0.0
 10
12.65232041787086
 20
26.9264169823785
 30
0.0
 10
12.63992831234317
 20
26.91455409424179
 30
0.0
 10
12.63108377681626
 20
26.90152019594303
 30
0.0
 10
12.62708378674839
 20
26.89188425735747
 30
0.0
 10
12.62508388671798
 20
26.88706651692731
 30
0.0
  0
SPLINE
  5
2EC
330
1F
100
AcDbEntity
  8
0
  6
Continuous
 62
     7
370
    25
100
AcDbSpline
210
0.0
220
0.0
230
1.0
 70
     8
 71
     3
 72
    10
 73
     6
 74
     0
 42
0.00000001
 43
0.00000001
 40
0.0
 40
0.0
 40
0.0
 40
0.0
 40
0.2800466189712545
 40
0.5601843902098831
 40
1.0
 40
1.0
 40
1.0
 40
1.0
 10
12.62508388671798
 20
26.88706651692731
 30
0.0
 10
12.62361360265234
 20
26.88226644074195
 30
0.0
 10
12.62067255595886
 20
26.87266472599624
 30
0.0
 10
12.61777878657027
 20
26.85490319542721
 30
0.0
 10
12.61796550651762
 20
26.8419807621222
 30
0.0
 10
12.61807957271923
 20
26.83408651780893
 30
0.0
  0
SPLINE
  5
2ED
330
1F
100
AcDbEntity
  8
0
  6
Continuous
 62
     7
370
    25
100
AcDbSpline
210
0.0
220
0.0
230
1.0
 70
     8
 71
     3
 72
    15
 73
    11
 74
     0
 42
0.00000001
 43
0.00000001
 40
0.0
 40
0.0
 40
0.0
 40
0.0
 40
0.1401125645331168
 40
0.2801381865272948
 40
0.4200120766664113
 40
0.5597619954374479
 40
0.6697115472357256
 40
0.779793693622033
 40
0.889917160475821
 40
1.0
 40
1.0
 40
1.0
 40
1.0
 10
12.61807957271923
 20
26.83408651780893
 30
0.0
 10
12.61873572969806
 20
26.82659909634047
 30
0.0
 10
12.6200476364977
 20
26.81162889949245
 30
0.0
 10
12.62607674356504
 20
26.7897850773185
 30
0.0
 10
12.63652770840159
 20
26.76965908730042
 30
0.0
 10
12.65093913235115
 20
26.75410484922498
 30
0.0
 10
12.66763490042196
 20
26.74412151745381
 30
0.0
 10
12.68437306786349
 20
26.73822268535959
 30
0.0
 10
12.70182608018595
 20
26.7346780065729
 30
0.0
 10
12.71365150709833
 20
26.73483946379428
 30
0.0
 10
12.71956312967859
 20
26.7349201775108
 30
0.0
  0
SPLINE
  5
2EE
330
1F
100
AcDbEntity
  8
0
  6
Continuous
 62
     7
370
    25
100
AcDbSpline
210
0.0
220
0.0
230
1.0
 70
     8
 71
     3
 72
    11
 73
     7
 74
     0
 42
0.00000001
 43
0.00000001
 40
0.0
 40
0.0
 40
0.0
 40
0.0
 40
0.2799357428865317
 40
0.5599333474557606
 40
0.7800949405810186
 40
1.0
 40
1.0
 40
1.0
 40
1.0
 10
12.71956312967859
 20
26.7349201775108
 30
0.0
 10
12.72721860462137
 20
26.7357853647683
 30
0.0
 10
12.74253124625429
 20
26.73751593047696
 30
0.0
 10
12.76250194159788
 20
26.74558152858269
 30
0.0
 10
12.78010952834989
 20
26.75463956184857
 30
0.0
 10
12.78942679389007
 20
26.76234975377497
 30
0.0
 10
12.79408271094351
 20
26.76620260243757
 30
0.0
  0
LINE
  5
2EF
330
1F
100
AcDbEntity
  8
0
  6
Continuous
 62
     7
370
    25
100
AcDbLine
 10
12.7940827109
 20
26.7662026024
 30
0.0
 11
12.7913441822
 21
26.8147588243
 31
0.0
  0
LINE
  5
2F0
330
1F
100
AcDbEntity
  8
0
  6
Continuous
 62
     7
370
    25
100
AcDbLine
 10
12.7913441822
 20
26.8147588243
 30
0.0
 11
12.7147707043
 21
26.8104403751
 31
0.0
  0
LINE
  5
2F1
330
1F
100
AcDbEntity
  8
0
  6
Continuous
 62
     7
370
    25
100
AcDbLine
 10
12.8164649173
 20
26.9018651052
 30
0.0
 11
12.7858671246
 21
26.8915956222
 31
0.0
  0
SPLINE
  5
2F2
330
1F
100
AcDbEntity
  8
0
  6
Continuous
 62
     7
370
    25
100
AcDbSpline
210
0.0
220
0.0
230
1.0
 70
     8
 71
     3
 72
    13
 73
     9
 74
     0
 42
0.00000001
 43
0.00000001
 40
0.0
 40
0.0
 40
0.0
 40
0.0
 40
0.1401896132945501
 40
0.2803191865548487
 40
0.4202037222810233
 40
0.5602581163270199
 40
0.780021280730713
 40
1.0
 40
1.0
 40
1.0
 40
1.0
 10
12.78586712459911
 20
26.89159562221974
 30
0.0
 10
12.78415631428092
 20
26.89608261445829
 30
0.0
 10
12.7807354263458
 20
26.90505467725831
 30
0.0
 10
12.77356597427054
 20
26.91759175566289
 30
0.0
 10
12.76397914167309
 20
26.92854723210159
 30
0.0
 10
12.74923160392712
 20
26.93752214103184
 30
0.0
 10
12.73002427274431
 20
26.94371900573402
 30
0.0
 10
12.71490727975043
 20
26.94372833178596
 30
0.0
 10
12.70734507819205
 20
26.94373299709767
 30
0.0
  0
SPLINE
  5
2F3
330
1F
100
AcDbEntity
  8
0
  6
Continuous
 62
     7
370
    25
100
AcDbSpline
210
0.0
220
0.0
230
1.0
 70
     8
 71
     3
 72
    16
 73
    12
 74
     0
 42
0.00000001
 43
0.00000001
 40
0.0
 40
0.0
 40
0.0
 40
0.0
 40
0.1120526536382589
 40
0.2240916696276933
 40
0.3361159761379864
 40
0.4480801158755064
 40
0.560002329828947
 40
0.6699272669355401
 40
0.7799231083899961
 40
0.8899444394853954
 40
1.0
 40
1.0
 40
1.0
 40
1.0
 10
12.58263669060524
 20
26.82997872463673
 30
0.0
 10
12.58248871269218
 20
26.83794828202558
 30
0.0
 10
12.58219277487607
 20
26.85388642684835
 30
0.0
 10
12.58615256215812
 20
26.87755007425331
 30
0.0
 10
12.5932025748562
 20
26.9004161635128
 30
0.0
 10
12.60399234161419
 20
26.92185673679479
 30
0.0
 10
12.6191035495302
 20
26.9404109972956
 30
0.0
 10
12.63810904097457
 20
26.95469808303016
 30
0.0
 10
12.65942910093561
 20
26.96468538461506
 30
0.0
 10
12.6821167526244
 20
26.97109960140938
 30
0.0
 10
12.69770600109992
 20
26.97251635736091
 30
0.0
 10
12.70550183766606
 20
26.97322484551346
 30
0.0
  0
LINE
  5
2F4
330
1F
100
AcDbEntity
  8
0
  6
Continuous
 62
     7
370
    25
100
AcDbLine
 10
12.9612069232
 20
26.9565608546
 30
0.0
 11
12.9423005418
 21
26.8515488086
 31
0.0
  0
LINE
  5
2F5
330
1F
100
AcDbEntity
  8
0
  6
Continuous
 62
     7
370
    25
100
AcDbLine
 10
12.9423005418
 20
26.8515488086
 30
0.0
 11
13.0752245157
 21
26.8275866818
 31
0.0
  0
LINE
  5
2F6
330
1F
100
AcDbEntity
  8
0
  6
Continuous
 62
     7
370
    25
100
AcDbLine
 10
13.0819655096
 20
26.670753245
 30
0.0
 11
13.048102548
 21
26.6768622708
 31
0.0
  0
LINE
  5
2F7
330
1F
100
AcDbEntity
  8
0
  6
Continuous
 62
     7
370
    25
100
AcDbLine
 10
13.048102548
 20
26.6768622708
 30
0.0
 11
13.0698001222
 21
26.7974102012
 31
0.0
  0
LINE
  5
2F8
330
1F
100
AcDbEntity
  8
0
  6
Continuous
 62
     7
370
    25
100
AcDbLine
 10
13.0698001222
 20
26.7974102012
 30
0.0
 11
12.9368761482
 21
26.821372328
 31
0.0
  0
LINE
  5
2F9
330
1F
100
AcDbEntity
  8
0
  6
Continuous
 62
     7
370
    25
100
AcDbLine
 10
12.9368761482
 20
26.821372328
 30
0.0
 11
12.915178574
 21
26.7008243976
 31
0.0
  0
LINE
  5
2FA
330
1F
100
AcDbEntity
  8
0
  6
Continuous
 62
     7
370
    25
100
AcDbLine
 10
12.915178574
 20
26.7008243976
 30
0.0
 11
12.8813156124
 21
26.7068807594
 31
0.0
  0
LINE
  5
2FB
330
1F
100
AcDbEntity
  8
0
  6
Continuous
 62
     7
370
    25
100
AcDbLine
 10
12.8813156124
 20
26.7068807594
 30
0.0
 11
12.9273439615
 21
26.9626172163
 31
0.0
  0
LINE
  5
2FC
330
1F
100
AcDbEntity
  8
0
  6
Continuous
 62
     7
370
    25
100
AcDbLine
 10
13.1279938588
 20
26.926489702
 30
0.0
 11
13.0819655096
 21
26.670753245
 31
0.0
  0
LINE
  5
2FD
330
1F
100
AcDbEntity
  8
0
  6
Continuous
 62
     7
370
    25
100
AcDbLine
 10
13.0752245157
 20
26.8275866818
 30
0.0
 11
13.0941308971
 21
26.9325987278
 31
0.0
  0
LINE
  5
2FE
330
1F
100
AcDbEntity
  8
0
  6
Continuous
 62
     7
370
    25
100
AcDbLine
 10
13.0941308971
 20
26.9325987278
 30
0.0
 11
13.1279938588
 21
26.926489702
 31
0.0
  0
LINE
  5
2FF
330
1F
100
AcDbEntity
  8
0
  6
Continuous
 62
     7
370
    25
100
AcDbLine
 10
12.9273439615
 20
26.9626172163
 30
0.0
 11
12.9612069232
 21
26.9565608546
 31
0.0
  0
LINE
  5
300
330
1F
100
AcDbEntity
  8
0
  6
Continuous
 62
     7
370
    25
100
AcDbLine
 10
12.3282036282
 20
26.6682117313
 30
0.0
 11
12.4518060714
 21
26.7043919096
 31
0.0
  0
LINE
  5
301
330
1F
100
AcDbEntity
  8
0
  6
Continuous
 62
     7
370
    25
100
AcDbLine
 10
12.4518060714
 20
26.7043919096
 30
0.0
 11
12.4604429699
 21
26.6747947332
 31
0.0
  0
LINE
  5
302
330
1F
100
AcDbEntity
  8
0
  6
Continuous
 62
     7
370
    25
100
AcDbLine
 10
12.4604429699
 20
26.6747947332
 30
0.0
 11
12.3036621972
 21
26.6289243761
 31
0.0
  0
LINE
  5
303
330
1F
100
AcDbEntity
  8
0
  6
Continuous
 62
     7
370
    25
100
AcDbLine
 10
12.2302485602
 20
26.8798684077
 30
0.0
 11
12.2634268897
 21
26.8895585865
 31
0.0
  0
LINE
  5
304
330
1F
100
AcDbEntity
  8
0
  6
Continuous
 62
     7
370
    25
100
AcDbLine
 10
12.3036621972
 20
26.6289243761
 30
0.0
 11
12.2302485602
 21
26.8798684077
 31
0.0
  0
LINE
  5
305
330
1F
100
AcDbEntity
  8
0
  6
Continuous
 62
     7
370
    25
100
AcDbLine
 10
12.2634268897
 20
26.8895585865
 30
0.0
 11
12.3282036282
 21
26.6682117313
 31
0.0
  0
LINE
  5
306
330
1F
100
AcDbEntity
  8
0
  6
Continuous
 62
     7
370
    25
100
AcDbLine
 10
13.3514088008
 20
26.5801933677
 30
0.0
 11
13.4699028347
 21
26.8118097058
 31
0.0
  0
LINE
  5
307
330
1F
100
AcDbEntity
  8
0
  6
Continuous
 62
     7
370
    25
100
AcDbLine
 10
13.4699028347
 20
26.8118097058
 30
0.0
 11
13.5005532914
 21
26.7961158293
 31
0.0
  0
LINE
  5
308
330
1F
100
AcDbEntity
  8
0
  6
Continuous
 62
     7
370
    25
100
AcDbLine
 10
13.5005532914
 20
26.7961158293
 30
0.0
 11
13.3820592576
 21
26.5644994913
 31
0.0
  0
LINE
  5
309
330
1F
100
AcDbEntity
  8
0
  6
Continuous
 62
     7
370
    25
100
AcDbLine
 10
13.3820592576
 20
26.5644994913
 30
0.0
 11
13.3514088008
 21
26.5801933677
 31
0.0
  0
LINE
  5
30A
330
1F
100
AcDbEntity
  8
0
  6
Continuous
 62
     7
370
    25
100
AcDbLine
 10
12.0003661486
 20
26.4696418957
 30
0.0
 11
11.8664415584
 21
26.691620719
 31
0.0
  0
LINE
  5
30B
330
1F
100
AcDbEntity
  8
0
  6
Continuous
 62
     7
370
    25
100
AcDbLine
 10
11.8664415584
 20
26.691620719
 30
0.0
 11
11.8958280788
 21
26.7093684921
 31
0.0
  0
LINE
  5
30C
330
1F
100
AcDbEntity
  8
0
  6
Continuous
 62
     7
370
    25
100
AcDbLine
 10
11.8958280788
 20
26.7093684921
 30
0.0
 11
11.9622374017
 21
26.5993007007
 31
0.0
  0
LINE
  5
30D
330
1F
100
AcDbEntity
  8
0
  6
Continuous
 62
     7
370
    25
100
AcDbLine
 10
11.9622374017
 20
26.5993007007
 30
0.0
 11
12.0060538622
 21
26.775830479
 31
0.0
  0
LINE
  5
30E
330
1F
100
AcDbEntity
  8
0
  6
Continuous
 62
     7
370
    25
100
AcDbLine
 10
12.0458678576
 20
26.7998452699
 30
0.0
 11
12.0070544785
 21
26.6537552922
 31
0.0
  0
LINE
  5
30F
330
1F
100
AcDbEntity
  8
0
  6
Continuous
 62
     7
370
    25
100
AcDbLine
 10
12.0070544785
 20
26.6537552922
 30
0.0
 11
12.183900241
 21
26.5803416553
 31
0.0
  0
LINE
  5
310
330
1F
100
AcDbEntity
  8
0
  6
Continuous
 62
     7
370
    25
100
AcDbLine
 10
12.183900241
 20
26.5803416553
 30
0.0
 11
12.1451395259
 21
26.5569588326
 31
0.0
  0
LINE
  5
311
330
1F
100
AcDbEntity
  8
0
  6
Continuous
 62
     7
370
    25
100
AcDbLine
 10
12.1451395259
 20
26.5569588326
 30
0.0
 11
11.998312252
 21
26.621630243
 31
0.0
  0
LINE
  5
312
330
1F
100
AcDbEntity
  8
0
  6
Continuous
 62
     7
370
    25
100
AcDbLine
 10
11.998312252
 20
26.621630243
 30
0.0
 11
11.9833556718
 21
26.5643317947
 31
0.0
  0
LINE
  5
313
330
1F
100
AcDbEntity
  8
0
  6
Continuous
 62
     7
370
    25
100
AcDbLine
 10
11.9833556718
 20
26.5643317947
 30
0.0
 11
12.029752669
 21
26.4873896687
 31
0.0
  0
LINE
  5
314
330
1F
100
AcDbEntity
  8
0
  6
Continuous
 62
     7
370
    25
100
AcDbLine
 10
12.029752669
 20
26.4873896687
 30
0.0
 11
12.0003661486
 21
26.4696418957
 31
0.0
  0
LINE
  5
315
330
1F
100
AcDbEntity
  8
0
  6
Continuous
 62
     7
370
    25
100
AcDbLine
 10
12.0060538622
 20
26.775830479
 30
0.0
 11
12.0458678576
 21
26.7998452699
 31
0.0
  0
LINE
  5
316
330
1F
100
AcDbEntity
  8
0
  6
Continuous
 62
     7
370
    25
100
AcDbLine
 10
13.6123812263
 20
26.7292555401
 30
0.0
 11
13.6084840892
 21
26.4825772937
 31
0.0
  0
LINE
  5
317
330
1F
100
AcDbEntity
  8
0
  6
Continuous
 62
     7
370
    25
100
AcDbLine
 10
13.6084840892
 20
26.4825772937
 30
0.0
 11
13.7251875465
 21
26.6511548058
 31
0.0
  0
LINE
  5
318
330
1F
100
AcDbEntity
  8
0
  6
Continuous
 62
     7
370
    25
100
AcDbLine
 10
13.7251875465
 20
26.6511548058
 30
0.0
 11
13.7524148422
 21
26.6323010884
 31
0.0
  0
LINE
  5
319
330
1F
100
AcDbEntity
  8
0
  6
Continuous
 62
     7
370
    25
100
AcDbLine
 10
13.7524148422
 20
26.6323010884
 30
0.0
 11
13.6037443278
 21
26.4175898991
 31
0.0
  0
LINE
  5
31A
330
1F
100
AcDbEntity
  8
0
  6
Continuous
 62
     7
370
    25
100
AcDbLine
 10
13.6037443278
 20
26.4175898991
 30
0.0
 11
13.5746211275
 21
26.4377602169
 31
0.0
  0
LINE
  5
31B
330
1F
100
AcDbEntity
  8
0
  6
Continuous
 62
     7
370
    25
100
AcDbLine
 10
13.5746211275
 20
26.4377602169
 30
0.0
 11
13.5786235926
 21
26.6845964553
 31
0.0
  0
LINE
  5
31C
330
1F
100
AcDbEntity
  8
0
  6
Continuous
 62
     7
370
    25
100
AcDbLine
 10
13.5786235926
 20
26.6845964553
 30
0.0
 11
13.4618148073
 21
26.5158609512
 31
0.0
  0
LINE
  5
31D
330
1F
100
AcDbEntity
  8
0
  6
Continuous
 62
     7
370
    25
100
AcDbLine
 10
13.4618148073
 20
26.5158609512
 30
0.0
 11
13.4345875115
 21
26.5347146685
 31
0.0
  0
LINE
  5
31E
330
1F
100
AcDbEntity
  8
0
  6
Continuous
 62
     7
370
    25
100
AcDbLine
 10
13.4345875115
 20
26.5347146685
 30
0.0
 11
13.583258026
 21
26.7494258578
 31
0.0
  0
LINE
  5
31F
330
1F
100
AcDbEntity
  8
0
  6
Continuous
 62
     7
370
    25
100
AcDbLine
 10
13.583258026
 20
26.7494258578
 30
0.0
 11
13.6123812263
 21
26.7292555401
 31
0.0
  0
LINE
  5
320
330
1F
100
AcDbEntity
  8
0
  6
Continuous
 62
     7
370
    25
100
AcDbLine
 10
13.8066221457
 20
26.365448842
 30
0.0
 11
13.828688368
 21
26.3866724401
 31
0.0
  0
LINE
  5
321
330
1F
100
AcDbEntity
  8
0
  6
Continuous
 62
     7
370
    25
100
AcDbLine
 10
13.828688368
 20
26.3866724401
 30
0.0
 11
13.9055251659
 21
26.3070444494
 31
0.0
  0
LINE
  5
322
330
1F
100
AcDbEntity
  8
0
  6
Continuous
 62
     7
370
    25
100
AcDbLine
 10
13.9055251659
 20
26.3070444494
 30
0.0
 11
13.835692682
 21
26.2398451662
 31
0.0
  0
SPLINE
  5
323
330
1F
100
AcDbEntity
  8
0
  6
Continuous
 62
     7
370
    25
100
AcDbSpline
210
0.0
220
0.0
230
1.0
 70
     8
 71
     3
 72
    12
 73
     8
 74
     0
 42
0.00000001
 43
0.00000001
 40
0.0
 40
0.0
 40
0.0
 40
0.0
 40
0.1867341727273348
 40
0.3734303959771549
 40
0.5601234578236357
 40
0.780069331127908
 40
1.0
 40
1.0
 40
1.0
 40
1.0
 10
13.83569268195016
 20
26.23984516618107
 30
0.0
 10
13.82844589966111
 20
26.24099683869927
 30
0.0
 10
13.81395380782685
 20
26.24329994968439
 30
0.0
 10
13.79282932334621
 20
26.2496679041638
 30
0.0
 10
13.771384426766
 20
26.25883962286391
 30
0.0
 10
13.75018039766603
 20
26.2716703749412
 30
0.0
 10
13.7376017237366
 20
26.28356181689231
 30
0.0
 10
13.73131260416424
 20
26.28950733235268
 30
0.0
  0
SPLINE
  5
324
330
1F
100
AcDbEntity
  8
0
  6
Continuous
 62
     7
370
    25
100
AcDbSpline
210
0.0
220
0.0
230
1.0
 70
     8
 71
     3
 72
    16
 73
    12
 74
     0
 42
0.00000001
 43
0.00000001
 40
0.0
 40
0.0
 40
0.0
 40
0.0
 40
0.112037607177963
 40
0.2240482135896596
 40
0.3360614008568766
 40
0.4480182721461289
 40
0.5599381337898603
 40
0.6698831462841168
 40
0.7798977818577065
 40
0.8899335478886157
 40
0.9999999999999999
 40
0.9999999999999999
 40
0.9999999999999999
 40
0.9999999999999999
 10
13.73131260416424
 20
26.28950733235268
 30
0.0
 10
13.7260279700698
 20
26.29546250540181
 30
0.0
 10
13.71545997546371
 20
26.30737141631916
 30
0.0
 10
13.70312327411548
 20
26.32794673004613
 30
0.0
 10
13.69430472669238
 20
26.35019585951451
 30
0.0
 10
13.68956213849749
 20
26.37371880874527
 30
0.0
 10
13.69017651410279
 20
26.39761429204644
 30
0.0
 10
13.69608646140291
 20
26.42058063893282
 30
0.0
 10
13.70593400623595
 20
26.44191759240467
 30
0.0
 10
13.71892995416975
 20
26.46156528776186
 30
0.0
 10
13.72981774893479
 20
26.47279667680949
 30
0.0
 10
13.73526240529136
 20
26.47841315425887
 30
0.0
  0
SPLINE
  5
325
330
1F
100
AcDbEntity
  8
0
  6
Continuous
 62
     7
370
    25
100
AcDbSpline
210
0.0
220
0.0
230
1.0
 70
     8
 71
     3
 72
    16
 73
    12
 74
     0
 42
0.00000001
 43
0.00000001
 40
0.0
 40
0.0
 40
0.0
 40
0.0
 40
0.1120398723645177
 40
0.2240751268406014
 40
0.3361139818571681
 40
0.4480759185367331
 40
0.560002806962961
 40
0.6699180983784341
 40
0.779914730684223
 40
0.8899432647279384
 40
1.0
 40
1.0
 40
1.0
 40
1.0
 10
13.73526240529136
 20
26.47841315425887
 30
0.0
 10
13.74121751155811
 20
26.48371211966362
 30
0.0
 10
13.75312747864312
 20
26.49430983206845
 30
0.0
 10
13.77359998068199
 20
26.50684523367074
 30
0.0
 10
13.79559933125582
 20
26.51628692532653
 30
0.0
 10
13.8188802782378
 20
26.52214996223637
 30
0.0
 10
13.84281483058956
 20
26.5227623319646
 30
0.0
 10
13.8660493147865
 20
26.51770847926812
 30
0.0
 10
13.88756283560663
 20
26.50810346518308
 30
0.0
 10
13.90717429140645
 20
26.49499934013869
 30
0.0
 10
13.9184328823637
 20
26.48411789437685
 30
0.0
 10
13.9240628991675
 20
26.47867647433402
 30
0.0
  0
SPLINE
  5
326
330
1F
100
AcDbEntity
  8
0
  6
Continuous
 62
     7
370
    25
100
AcDbSpline
210
0.0
220
0.0
230
1.0
 70
     8
 71
     3
 72
    14
 73
    10
 74
     0
 42
0.00000001
 43
0.00000001
 40
0.0
 40
0.0
 40
0.0
 40
0.0
 40
0.1400890064145582
 40
0.280177931010877
 40
0.4202251804374569
 40
0.5601579671110853
 40
0.7066162056520815
 40
0.8532622361218429
 40
1.0
 40
1.0
 40
1.0
 40
1.0
 10
13.9240628991675
 20
26.47867647433402
 30
0.0
 10
13.92858202929723
 20
26.47367510939594
 30
0.0
 10
13.93762028691732
 20
26.46367238244082
 30
0.0
 10
13.94842211696076
 20
26.44648347470007
 30
0.0
 10
13.9564216729893
 20
26.42786836621142
 30
0.0
 10
13.96081014162594
 20
26.40765112838931
 30
0.0
 10
13.95949864872829
 20
26.38661738216805
 30
0.0
 10
13.95290467944612
 20
26.36632299459109
 30
0.0
 10
13.94586050224665
 20
26.35408519969873
 30
0.0
 10
13.94233731238229
 20
26.34796438903399
 30
0.0
  0
LINE
  5
327
330
1F
100
AcDbEntity
  8
0
  6
Continuous
 62
     7
370
    25
100
AcDbLine
 10
13.9423373124
 20
26.347964389
 30
0.0
 11
13.9145833765
 21
26.3644482257
 31
0.0
  0
SPLINE
  5
328
330
1F
100
AcDbEntity
  8
0
  6
Continuous
 62
     7
370
    25
100
AcDbSpline
210
0.0
220
0.0
230
1.0
 70
     8
 71
     3
 72
    12
 73
     8
 74
     0
 42
0.00000001
 43
0.00000001
 40
0.0
 40
0.0
 40
0.0
 40
0.0
 40
0.1869728162279403
 40
0.3735812011727658
 40
0.5599498344845297
 40
0.7798966606871057
 40
1.0
 40
1.0
 40
1.0
 40
1.0
 10
13.91458337646242
 20
26.36444822573782
 30
0.0
 10
13.91757606617
 20
26.37010618973926
 30
0.0
 10
13.92355561249255
 20
26.38141108972681
 30
0.0
 10
13.92867739798681
 20
26.40027052045384
 30
0.0
 10
13.92617312192237
 20
26.42078397682737
 30
0.0
 10
13.91767655405724
 20
26.44085903769898
 30
0.0
 10
13.90782132984255
 20
26.45234154753949
 30
0.0
 10
13.90289196512616
 20
26.45808484445799
 30
0.0
  0
SPLINE
  5
329
330
1F
100
AcDbEntity
  8
0
  6
Continuous
 62
     7
370
    25
100
AcDbSpline
210
0.0
220
0.0
230
1.0
 70
     8
 71
     3
 72
    13
 73
     9
 74
     0
 42
0.00000001
 43
0.00000001
 40
0.0
 40
0.0
 40
0.0
 40
0.0
 40
0.1867348899442522
 40
0.3733518826619062
 40
0.5599570464694757
 40
0.7065717409471349
 40
0.8532916222588145
 40
1.0
 40
1.0
 40
1.0
 40
1.0
 10
13.90289196512616
 20
26.45808484445799
 30
0.0
 10
13.89811753949467
 20
26.46270353036208
 30
0.0
 10
13.88857170262037
 20
26.47193798610966
 30
0.0
 10
13.87149253128103
 20
26.48246432070997
 30
0.0
 10
13.85384619852554
 20
26.48845183051075
 30
0.0
 10
13.83677611046908
 20
26.49013880222508
 30
0.0
 10
13.82111555376712
 20
26.48838497616102
 30
0.0
 10
13.8112073868086
 20
26.48510754902528
 30
0.0
 10
13.80625349754939
 20
26.48346889970158
 30
0.0
  0
SPLINE
  5
32A
330
1F
100
AcDbEntity
  8
0
  6
Continuous
 62
     7
370
    25
100
AcDbSpline
210
0.0
220
0.0
230
1.0
 70
     8
 71
     3
 72
    10
 73
     6
 74
     0
 42
0.00000001
 43
0.00000001
 40
0.0
 40
0.0
 40
0.0
 40
0.0
 40
0.2800424641392442
 40
0.5602358102429629
 40
1.0
 40
1.0
 40
1.0
 40
1.0
 10
13.80625349754939
 20
26.48346889970158
 30
0.0
 10
13.80164485121357
 20
26.48147050146507
 30
0.0
 10
13.79242507548417
 20
26.47747262829014
 30
0.0
 10
13.77709570225466
 20
26.4680269344422
 30
0.0
 10
13.76740708332541
 20
26.45946820887492
 30
0.0
 10
13.76148908477541
 20
26.45424037136092
 30
0.0
  0
SPLINE
  5
32B
330
1F
100
AcDbEntity
  8
0
  6
Continuous
 62
     7
370
    25
100
AcDbSpline
210
0.0
220
0.0
230
1.0
 70
     8
 71
     3
 72
    15
 73
    11
 74
     0
 42
0.00000001
 43
0.00000001
 40
0.0
 40
0.0
 40
0.0
 40
0.0
 40
0.1401127180136055
 40
0.2801305318548762
 40
0.4200165049474784
 40
0.5597566259310456
 40
0.6696876153499083
 40
0.7797771338996204
 40
0.8899068494026944
 40
1.0
 40
1.0
 40
1.0
 40
1.0
 10
13.76148908477541
 20
26.45424037136092
 30
0.0
 10
13.75623936548399
 20
26.44884886813355
 30
0.0
 10
13.74574348275441
 20
26.43806951356821
 30
0.0
 10
13.73309002160256
 20
26.41924930931165
 30
0.0
 10
13.72453876586522
 20
26.39820477937258
 30
0.0
 10
13.72223446348391
 20
26.3771047592195
 30
0.0
 10
13.7254658962424
 20
26.35790500599298
 30
0.0
 10
13.73196725242881
 20
26.34135891028489
 30
0.0
 10
13.74073335934104
 20
26.32583730701321
 30
0.0
 10
13.74856724548623
 20
26.31695961561253
 30
0.0
 10
13.75248353820559
 20
26.31252150692001
 30
0.0
  0
SPLINE
  5
32C
330
1F
100
AcDbEntity
  8
0
  6
Continuous
 62
     7
370
    25
100
AcDbSpline
210
0.0
220
0.0
230
1.0
 70
     8
 71
     3
 72
    11
 73
     7
 74
     0
 42
0.00000001
 43
0.00000001
 40
0.0
 40
0.0
 40
0.0
 40
0.0
 40
0.2799373277552388
 40
0.559903195034914
 40
0.7800660290213209
 40
1.0
 40
1.0
 40
1.0
 40
1.0
 10
13.75248353820559
 20
26.31252150692001
 30
0.0
 10
13.75812896029464
 20
26.30726433600584
 30
0.0
 10
13.7694203800218
 20
26.29674945821054
 30
0.0
 10
13.78855404027655
 20
26.28680137011645
 30
0.0
 10
13.80692932549337
 20
26.27934291169404
 30
0.0
 10
13.81887444233556
 20
26.27734150936616
 30
0.0
 10
13.82484389485435
 20
26.27634132859562
 30
0.0
  0
LINE
  5
32D
330
1F
100
AcDbEntity
  8
0
  6
Continuous
 62
     7
370
    25
100
AcDbLine
 10
13.8248438949
 20
26.2763413286
 30
0.0
 11
13.8599181289
 21
26.3100989622
 31
0.0
  0
LINE
  5
32E
330
1F
100
AcDbEntity
  8
0
  6
Continuous
 62
     7
370
    25
100
AcDbLine
 10
13.8599181289
 20
26.3100989622
 30
0.0
 11
13.8066221457
 21
26.365448842
 31
0.0
  0
LINE
  5
32F
330
1F
100
AcDbEntity
  8
0
  6
Continuous
 62
     7
370
    25
100
AcDbLine
 10
11.8434671195
 20
26.4480311091
 30
0.0
 11
11.8234547937
 21
26.4730465162
 31
0.0
  0
LINE
  5
330
330
1F
100
AcDbEntity
  8
0
  6
Continuous
 62
     7
370
    25
100
AcDbLine
 10
11.8998702796
 20
26.5342421017
 30
0.0
 11
11.9198826053
 21
26.5092266945
 31
0.0
  0
LINE
  5
331
330
1F
100
AcDbEntity
  8
0
  6
Continuous
 62
     7
370
    25
100
AcDbLine
 10
11.8234547937
 20
26.4730465162
 30
0.0
 11
11.8998702796
 21
26.5342421017
 31
0.0
  0
LINE
  5
332
330
1F
100
AcDbEntity
  8
0
  6
Continuous
 62
     7
370
    25
100
AcDbLine
 10
11.9198826053
 20
26.5092266945
 30
0.0
 11
11.8434671195
 21
26.4480311091
 31
0.0
  0
SPLINE
  5
333
330
1F
100
AcDbEntity
  8
0
  6
Continuous
 62
     7
370
    25
100
AcDbSpline
210
0.0
220
0.0
230
1.0
 70
     8
 71
     3
 72
     9
 73
     5
 74
     0
 42
0.00000001
 43
0.00000001
 40
0.0
 40
0.0
 40
0.0
 40
0.0
 40
0.560120049072545
 40
1.0
 40
1.0
 40
1.0
 40
1.0
 10
11.78131761382317
 20
26.31620886621673
 30
0.0
 10
11.78435245403935
 20
26.31938424481586
 30
0.0
 10
11.78977065005147
 20
26.32505334843817
 30
0.0
 10
11.79454340359976
 20
26.33127328007367
 30
0.0
 10
11.79664284219638
 20
26.33400930329627
 30
0.0
  0
SPLINE
  5
334
330
1F
100
AcDbEntity
  8
0
  6
Continuous
 62
     7
370
    25
100
AcDbSpline
210
0.0
220
0.0
230
1.0
 70
     8
 71
     3
 72
    12
 73
     8
 74
     0
 42
0.00000001
 43
0.00000001
 40
0.0
 40
0.0
 40
0.0
 40
0.0
 40
0.1870050697002664
 40
0.3737199622267802
 40
0.5602021420217337
 40
0.779997760452136
 40
1.0
 40
1.0
 40
1.0
 40
1.0
 10
11.79664284219638
 20
26.33400930329627
 30
0.0
 10
11.79869661779056
 20
26.33740349475149
 30
0.0
 10
11.80280098211988
 20
26.34418661086953
 30
0.0
 10
11.80632921478146
 20
26.35574759368814
 30
0.0
 10
11.80569261656716
 20
26.36847118584086
 30
0.0
 10
11.80110602327494
 20
26.38128621832979
 30
0.0
 10
11.79476106590072
 20
26.38821192135817
 30
0.0
 10
11.79158709675367
 20
26.39167639975216
 30
0.0
  0
SPLINE
  5
335
330
1F
100
AcDbEntity
  8
0
  6
Continuous
 62
     7
370
    25
100
AcDbSpline
210
0.0
220
0.0
230
1.0
 70
     8
 71
     3
 72
    14
 73
    10
 74
     0
 42
0.00000001
 43
0.00000001
 40
0.0
 40
0.0
 40
0.0
 40
0.0
 40
0.1250361296241346
 40
0.2499839926356897
 40
0.3748727506733477
 40
0.4998211635270057
 40
0.6662556690111177
 40
0.8330913027457999
 40
1.0
 40
1.0
 40
1.0
 40
1.0
 10
11.79158709675367
 20
26.39167639975216
 30
0.0
 10
11.78868273197142
 20
26.39415626362308
 30
0.0
 10
11.78287605268185
 20
26.39911424075746
 30
0.0
 10
11.77213460186312
 20
26.40346813625484
 30
0.0
 10
11.76068939246928
 20
26.40481952026895
 30
0.0
 10
11.74804586540092
 20
26.40242610547889
 30
0.0
 10
11.73583683896756
 20
26.39532174315267
 30
0.0
 10
11.72416826589679
 20
26.38556262442546
 30
0.0
 10
11.71704751656979
 20
26.37833379359727
 30
0.0
 10
11.71348636246683
 20
26.37471858691308
 30
0.0
  0
LINE
  5
336
330
1F
100
AcDbEntity
  8
0
  6
Continuous
 62
     7
370
    25
100
AcDbLine
 10
11.7134863625
 20
26.3747185869
 30
0.0
 11
11.6719344546
 21
26.3312181105
 31
0.0
  0
LINE
  5
337
330
1F
100
AcDbEntity
  8
0
  6
Continuous
 62
     7
370
    25
100
AcDbLine
 10
11.6719344546
 20
26.3312181105
 30
0.0
 11
11.7366058651
 21
26.2693905569
 31
0.0
  0
LINE
  5
338
330
1F
100
AcDbEntity
  8
0
  6
Continuous
 62
     7
370
    25
100
AcDbLine
 10
11.7366058651
 20
26.2693905569
 30
0.0
 11
11.7813176138
 21
26.3162088662
 31
0.0
  0
LINE
  5
339
330
1F
100
AcDbEntity
  8
0
  6
Continuous
 62
     7
370
    25
100
AcDbLine
 10
11.7350259446
 20
26.2232568797
 30
0.0
 11
11.5468574189
 21
26.403051827
 31
0.0
  0
SPLINE
  5
33A
330
1F
100
AcDbEntity
  8
0
  6
Continuous
 62
     7
370
    25
100
AcDbSpline
210
0.0
220
0.0
230
1.0
 70
     8
 71
     3
 72
    14
 73
    10
 74
     0
 42
0.00000001
 43
0.00000001
 40
0.0
 40
0.0
 40
0.0
 40
0.0
 40
0.1402183266257215
 40
0.2803631956239096
 40
0.4203702249113793
 40
0.5603170185238178
 40
0.7068450770719976
 40
0.8534820524228687
 40
1.0
 40
1.0
 40
1.0
 40
1.0
 10
11.61426735815368
 20
26.47362160713606
 30
0.0
 10
11.61832405928345
 20
26.4776828588339
 30
0.0
 10
11.62643533631695
 20
26.48580323461956
 30
0.0
 10
11.64008332758976
 20
26.4963707415112
 30
0.0
 10
11.65536504493615
 20
26.50450459649957
 30
0.0
 10
11.67262916140628
 20
26.50850512046253
 30
0.0
 10
11.6904764941859
 20
26.50707957451353
 30
0.0
 10
11.70790382941237
 20
26.50141867688528
 30
0.0
 10
11.7173145053901
 20
26.49384038652379
 30
0.0
 10
11.7220179329014
 20
26.49005277982486
 30
0.0
  0
SPLINE
  5
33B
330
1F
100
AcDbEntity
  8
0
  6
Continuous
 62
     7
370
    25
100
AcDbSpline
210
0.0
220
0.0
230
1.0
 70
     8
 71
     3
 72
    12
 73
     8
 74
     0
 42
0.00000001
 43
0.00000001
 40
0.0
 40
0.0
 40
0.0
 40
0.0
 40
0.1867025525854245
 40
0.373372756169011
 40
0.5600876810500683
 40
0.7799895674389254
 40
0.9999999999999999
 40
0.9999999999999999
 40
0.9999999999999999
 40
0.9999999999999999
 10
11.7220179329014
 20
26.49005277982486
 30
0.0
 10
11.72498296722488
 20
26.48685689648051
 30
0.0
 10
11.73091252213544
 20
26.48046568352627
 30
0.0
 10
11.73666117511302
 20
26.46861354245677
 30
0.0
 10
11.74040755134488
 20
26.45527900868862
 30
0.0
 10
11.74064309163366
 20
26.4404843685091
 30
0.0
 10
11.73809225442956
 20
26.43055695630308
 30
0.0
 10
11.73681652112433
 20
26.42559202543033
 30
0.0
  0
SPLINE
  5
33C
330
1F
100
AcDbEntity
  8
0
  6
Continuous
 62
     7
370
    25
100
AcDbSpline
210
0.0
220
0.0
230
1.0
 70
     8
 71
     3
 72
    12
 73
     8
 74
     0
 42
0.00000001
 43
0.00000001
 40
0.0
 40
0.0
 40
0.0
 40
0.0
 40
0.1869257345126139
 40
0.3736654663812647
 40
0.560320838360155
 40
0.7800504282426136
 40
1.0
 40
1.0
 40
1.0
 40
1.0
 10
11.73681652112433
 20
26.42559202543033
 30
0.0
 10
11.74159541191547
 20
26.42805187560972
 30
0.0
 10
11.75114843820644
 20
26.43296912826575
 30
0.0
 10
11.76707599184719
 20
26.43639891843177
 30
0.0
 10
11.78420307697649
 20
26.43557844090131
 30
0.0
 10
11.8016139639127
 20
26.42967466522829
 30
0.0
 10
11.81135893328266
 20
26.42154742190405
 30
0.0
 10
11.81623385578687
 20
26.41748176711598
 30
0.0
  0
SPLINE
  5
33D
330
1F
100
AcDbEntity
  8
0
  6
Continuous
 62
     7
370
    25
100
AcDbSpline
210
0.0
220
0.0
230
1.0
 70
     8
 71
     3
 72
    14
 73
    10
 74
     0
 42
0.00000001
 43
0.00000001
 40
0.0
 40
0.0
 40
0.0
 40
0.0
 40
0.1399807413099323
 40
0.2799552664152953
 40
0.4198515156477103
 40
0.559575493586756
 40
0.7062539341903017
 40
0.8530978688762112
 40
1.0
 40
1.0
 40
1.0
 40
1.0
 10
11.81623385578687
 20
26.41748176711598
 30
0.0
 10
11.82067382026197
 20
26.41264328057329
 30
0.0
 10
11.82955355204414
 20
26.40296652235333
 30
0.0
 10
11.83742564205358
 20
26.38475224534355
 30
0.0
 10
11.84140496510527
 20
26.36534415888656
 30
0.0
 10
11.83804472046272
 20
26.34533106536372
 30
0.0
 10
11.82924713072354
 20
26.32700345893394
 30
0.0
 10
11.81746702064198
 20
26.31010267184036
 30
0.0
 10
11.80818417202442
 20
26.30002506823921
 30
0.0
 10
11.80354182816507
 20
26.29498526816036
 30
0.0
  0
LINE
  5
33E
330
1F
100
AcDbEntity
  8
0
  6
Continuous
 62
     7
370
    25
100
AcDbLine
 10
11.8035418282
 20
26.2949852682
 30
0.0
 11
11.7350259446
 21
26.2232568797
 31
0.0
  0
SPLINE
  5
33F
330
1F
100
AcDbEntity
  8
0
  6
Continuous
 62
     7
370
    25
100
AcDbSpline
210
0.0
220
0.0
230
1.0
 70
     8
 71
     3
 72
     9
 73
     5
 74
     0
 42
0.00000001
 43
0.00000001
 40
0.0
 40
0.0
 40
0.0
 40
0.0
 40
0.5603048054130976
 40
1.0
 40
1.0
 40
1.0
 40
1.0
 10
11.68852361934346
 20
26.39309832815792
 30
0.0
 10
11.69280219490328
 20
26.39757121350789
 30
0.0
 10
11.70043835207788
 20
26.40555416369278
 30
0.0
 10
11.70642867083355
 20
26.41482663461521
 30
0.0
 10
11.70906258520446
 20
26.41890369552174
 30
0.0
  0
SPLINE
  5
340
330
1F
100
AcDbEntity
  8
0
  6
Continuous
 62
     7
370
    25
100
AcDbSpline
210
0.0
220
0.0
230
1.0
 70
     8
 71
     3
 72
    11
 73
     7
 74
     0
 42
0.00000001
 43
0.00000001
 40
0.0
 40
0.0
 40
0.0
 40
0.0
 40
0.2800633560654127
 40
0.5593107280085551
 40
0.7794795196751255
 40
1.0
 40
1.0
 40
1.0
 40
1.0
 10
11.70906258520446
 20
26.41890369552174
 30
0.0
 10
11.71085439809709
 20
26.42305828758062
 30
0.0
 10
11.7144328033105
 20
26.43135536700461
 30
0.0
 10
11.71365382113114
 20
26.4442715638068
 30
0.0
 10
11.70885026130426
 20
26.45495925427985
 30
0.0
 10
11.70397247203235
 20
26.46009671279709
 30
0.0
 10
11.70153163105543
 20
26.46266749201019
 30
0.0
  0
LINE
  5
341
330
1F
100
AcDbEntity
  8
0
  6
Continuous
 62
     7
370
    25
100
AcDbLine
 10
11.6287499623
 20
26.4443930788
 30
0.0
 11
11.592833104
 21
26.4067909721
 31
0.0
  0
LINE
  5
342
330
1F
100
AcDbEntity
  8
0
  6
Continuous
 62
     7
370
    25
100
AcDbLine
 10
11.592833104
 20
26.4067909721
 30
0.0
 11
11.6497102403
 21
26.3524417086
 31
0.0
  0
LINE
  5
343
330
1F
100
AcDbEntity
  8
0
  6
Continuous
 62
     7
370
    25
100
AcDbLine
 10
11.6497102403
 20
26.3524417086
 30
0.0
 11
11.6885236193
 21
26.3930983282
 31
0.0
  0
LINE
  5
344
330
1F
100
AcDbEntity
  8
0
  6
Continuous
 62
     7
370
    25
100
AcDbLine
 10
11.5468574189
 20
26.403051827
 30
0.0
 11
11.6142673582
 21
26.4736216071
 31
0.0
  0
SPLINE
  5
345
330
1F
100
AcDbEntity
  8
0
  6
Continuous
 62
     7
370
    25
100
AcDbSpline
210
0.0
220
0.0
230
1.0
 70
     8
 71
     3
 72
    14
 73
    10
 74
     0
 42
0.00000001
 43
0.00000001
 40
0.0
 40
0.0
 40
0.0
 40
0.0
 40
0.1250374168697596
 40
0.2500093489499738
 40
0.3748300138937701
 40
0.499645459181495
 40
0.6661183983831676
 40
0.8330436895259583
 40
1.0
 40
1.0
 40
1.0
 40
1.0
 10
11.70153163105543
 20
26.46266749201019
 30
0.0
 10
11.69877594885097
 20
26.465012993434
 30
0.0
 10
11.69326602765221
 20
26.469702767892
 30
0.0
 10
11.68314597201084
 20
26.47395792424238
 30
0.0
 10
11.6722514652275
 20
26.4752139940516
 30
0.0
 10
11.66034263409159
 20
26.4722455063536
 30
0.0
 10
11.64949422400487
 20
26.46438968012409
 30
0.0
 10
11.63885708797157
 20
26.45470296059667
 30
0.0
 10
11.63211921284265
 20
26.44782991890956
 30
0.0
 10
11.62874996228644
 20
26.4443930787954
 30
0.0
  0
SPLINE
  5
346
330
1F
100
AcDbEntity
  8
0
  6
Continuous
 62
     7
370
    25
100
AcDbSpline
210
0.0
220
0.0
230
1.0
 70
     8
 71
     3
 72
    10
 73
     6
 74
     0
 42
0.00000001
 43
0.00000001
 40
0.0
 40
0.0
 40
0.0
 40
0.0
 40
0.2796426966153778
 40
0.5596950963243021
 40
1.0
 40
1.0
 40
1.0
 40
1.0
 10
12.37014586368175
 20
24.0732865547188
 30
0.0
 10
12.36350654703172
 20
24.06692445366612
 30
0.0
 10
12.35021818650258
 20
24.05419093047884
 30
0.0
 10
12.32089873895404
 20
24.03896038644422
 30
0.0
 10
12.2987091275867
 20
24.03104379404618
 30
0.0
 10
12.28514614342622
 20
24.02620492528358
 30
0.0
  0
SPLINE
  5
347
330
1F
100
AcDbEntity
  8
0
  6
Continuous
 62
     7
370
    25
100
AcDbSpline
210
0.0
220
0.0
230
1.0
 70
     8
 71
     3
 72
    12
 73
     8
 74
     0
 42
0.00000001
 43
0.00000001
 40
0.0
 40
0.0
 40
0.0
 40
0.0
 40
0.2803312839461147
 40
0.5605492505782341
 40
0.7072856041817223
 40
0.8538610120662823
 40
1.0
 40
1.0
 40
1.0
 40
1.0
 10
12.28514614342622
 20
24.02620492528358
 30
0.0
 10
12.27442281751224
 20
24.0224534637845
 30
0.0
 10
12.25298050033603
 20
24.01495205722625
 30
0.0
 10
12.22645063378495
 20
24.00377500205662
 30
0.0
 10
12.2065076878318
 20
23.99182387522756
 30
0.0
 10
12.19270313454888
 20
23.98004549177068
 30
0.0
 10
12.18712975409694
 20
23.96945437740089
 30
0.0
 10
12.18434721866222
 20
23.96416671558035
 30
0.0
  0
SPLINE
  5
348
330
1F
100
AcDbEntity
  8
0
  6
Continuous
 62
     7
370
    25
100
AcDbSpline
210
0.0
220
0.0
230
1.0
 70
     8
 71
     3
 72
    12
 73
     8
 74
     0
 42
0.00000001
 43
0.00000001
 40
0.0
 40
0.0
 40
0.0
 40
0.0
 40
0.1867636393966705
 40
0.373394200933786
 40
0.5601535593976859
 40
0.7798554478480353
 40
1.0
 40
1.0
 40
1.0
 40
1.0
 10
12.18434721866222
 20
23.96416671558035
 30
0.0
 10
12.1830377286659
 20
23.95968626658953
 30
0.0
 10
12.18041968174634
 20
23.95072856113811
 30
0.0
 10
12.18223664753585
 20
23.93659471113019
 30
0.0
 10
12.18832732265765
 20
23.92306189172754
 30
0.0
 10
12.19926981961422
 20
23.91140880782947
 30
0.0
 10
12.20926017455551
 20
23.90687360041741
 30
0.0
 10
12.21426037919824
 20
23.90460371458344
 30
0.0
  0
SPLINE
  5
349
330
1F
100
AcDbEntity
  8
0
  6
Continuous
 62
     7
370
    25
100
AcDbSpline
210
0.0
220
0.0
230
1.0
 70
     8
 71
     3
 72
    13
 73
     9
 74
     0
 42
0.00000001
 43
0.00000001
 40
0.0
 40
0.0
 40
0.0
 40
0.0
 40
0.1867832570273253
 40
0.3732109238799878
 40
0.5595578485234263
 40
0.7062388401284705
 40
0.8530865733856073
 40
1.0
 40
1.0
 40
1.0
 40
1.0
 10
12.21426037919824
 20
23.90460371458344
 30
0.0
 10
12.21917461330655
 20
23.90305974027608
 30
0.0
 10
12.22899372600921
 20
23.89997473101526
 30
0.0
 10
12.24469360194744
 20
23.90060136549439
 30
0.0
 10
12.25815510954601
 20
23.90605402331906
 30
0.0
 10
12.26846912801941
 20
23.91446532503435
 30
0.0
 10
12.27564940969429
 20
23.92435013619516
 30
0.0
 10
12.27885559495914
 20
23.93175937801924
 30
0.0
 10
12.2804590460887
 20
23.93546482738997
 30
0.0
  0
LINE
  5
34A
330
1F
100
AcDbEntity
  8
0
  6
Continuous
 62
     7
370
    25
100
AcDbLine
 10
12.2804590461
 20
23.9354648274
 30
0.0
 11
12.3100035585
 21
23.9206662392
 31
0.0
  0
SPLINE
  5
34B
330
1F
100
AcDbEntity
  8
0
  6
Continuous
 62
     7
370
    25
100
AcDbSpline
210
0.0
220
0.0
230
1.0
 70
     8
 71
     3
 72
    14
 73
    10
 74
     0
 42
0.00000001
 43
0.00000001
 40
0.0
 40
0.0
 40
0.0
 40
0.0
 40
0.1401117221514038
 40
0.2801485089901625
 40
0.4200499793788216
 40
0.5599469956033191
 40
0.7065089164668715
 40
0.8532096918560239
 40
1.0
 40
1.0
 40
1.0
 40
1.0
 10
12.31000355851954
 20
23.92066623916704
 30
0.0
 10
12.30723183616466
 20
23.9154370890267
 30
0.0
 10
12.30168987384254
 20
23.90498158542852
 30
0.0
 10
12.29009946078788
 20
23.89138864511181
 30
0.0
 10
12.27580933553601
 20
23.88065441171169
 30
0.0
 10
12.25883950341971
 20
23.87407465434526
 30
0.0
 10
12.24052037046324
 20
23.87206203842616
 30
0.0
 10
12.22192791914769
 20
23.87418309353956
 30
0.0
 10
12.21018175438772
 20
23.87813726082234
 30
0.0
 10
12.20430688035791
 20
23.88011494759532
 30
0.0
  0
SPLINE
  5
34C
330
1F
100
AcDbEntity
  8
0
  6
Continuous
 62
     7
370
    25
100
AcDbSpline
210
0.0
220
0.0
230
1.0
 70
     8
 71
     3
 72
    14
 73
    10
 74
     0
 42
0.00000001
 43
0.00000001
 40
0.0
 40
0.0
 40
0.0
 40
0.0
 40
0.1401492053293401
 40
0.2802400925729603
 40
0.4202273711050278
 40
0.5601946341085816
 40
0.7067841718980478
 40
0.8533378506616629
 40
1.0
 40
1.0
 40
1.0
 40
1.0
 10
12.20430688035791
 20
23.88011494759532
 30
0.0
 10
12.19904469671635
 20
23.88231934639539
 30
0.0
 10
12.18852251910297
 20
23.88672722671373
 30
0.0
 10
12.17426468197558
 20
23.89637725742051
 30
0.0
 10
12.16239555396782
 20
23.90885602823819
 30
0.0
 10
12.1537682787347
 20
23.92408874219932
 30
0.0
 10
12.14884866263989
 20
23.94114864152058
 30
0.0
 10
12.14848852830351
 20
23.95934035879922
 30
0.0
 10
12.1520655709849
 20
23.97077210666605
 30
0.0
 10
12.15385475396089
 20
23.97649009509695
 30
0.0
  0
SPLINE
  5
34D
330
1F
100
AcDbEntity
  8
0
  6
Continuous
 62
     7
370
    25
100
AcDbSpline
210
0.0
220
0.0
230
1.0
 70
     8
 71
     3
 72
    13
 73
     9
 74
     0
 42
0.00000001
 43
0.00000001
 40
0.0
 40
0.0
 40
0.0
 40
0.0
 40
0.1398159585322003
 40
0.279631233738046
 40
0.4196195231642414
 40
0.5596854053177913
 40
0.7798288815728747
 40
1.0
 40
1.0
 40
1.0
 40
1.0
 10
12.15385475396089
 20
23.97649009509695
 30
0.0
 10
12.15657934626091
 20
23.98231610162802
 30
0.0
 10
12.162028517545
 20
23.99396808621657
 30
0.0
 10
12.17528455765961
 20
24.00824891897724
 30
0.0
 10
12.19092580104447
 20
24.01950822628686
 30
0.0
 10
12.21118409886736
 20
24.03027142311037
 30
0.0
 10
12.2357942066341
 20
24.04033059520857
 30
0.0
 10
12.25472158309894
 20
24.04723918201437
 30
0.0
 10
12.26418586544499
 20
24.0506936922717
 30
0.0
  0
SPLINE
  5
34E
330
1F
100
AcDbEntity
  8
0
  6
Continuous
 62
     7
370
    25
100
AcDbSpline
210
0.0
220
0.0
230
1.0
 70
     8
 71
     3
 72
    10
 73
     6
 74
     0
 42
0.00000001
 43
0.00000001
 40
0.0
 40
0.0
 40
0.0
 40
0.0
 40
0.5600956985499247
 40
0.7801084077952736
 40
1.0
 40
1.0
 40
1.0
 40
1.0
 10
12.26418586544499
 20
24.0506936922717
 30
0.0
 10
12.27675335658235
 20
24.05508976139978
 30
0.0
 10
12.29425751797214
 20
24.06121266235573
 30
0.0
 10
12.31619303994227
 20
24.0706609092679
 30
0.0
 10
12.32477708909089
 20
24.07669523325933
 30
0.0
 10
12.32906793195975
 20
24.07971156455224
 30
0.0
  0
LINE
  5
34F
330
1F
100
AcDbEntity
  8
0
  6
Continuous
 62
     7
370
    25
100
AcDbLine
 10
12.220422069
 20
24.1535991776
 30
0.0
 11
12.3814686269
 21
24.0927722403
 31
0.0
  0
SPLINE
  5
350
330
1F
100
AcDbEntity
  8
0
  6
Continuous
 62
     7
370
    25
100
AcDbSpline
210
0.0
220
0.0
230
1.0
 70
     8
 71
     3
 72
     9
 73
     5
 74
     0
 42
0.00000001
 43
0.00000001
 40
0.0
 40
0.0
 40
0.0
 40
0.0
 40
0.5598812547033977
 40
1.0
 40
1.0
 40
1.0
 40
1.0
 10
12.38146862691282
 20
24.09277224027924
 30
0.0
 10
12.37989288676475
 20
24.08881445005311
 30
0.0
 10
12.37707846828791
 20
24.08174546856306
 30
0.0
 10
12.37226455649848
 20
24.07587170720006
 30
0.0
 10
12.37014586368175
 20
24.0732865547188
 30
0.0
  0
LINE
  5
351
330
1F
100
AcDbEntity
  8
0
  6
Continuous
 62
     7
370
    25
100
AcDbLine
 10
12.329067932
 20
24.0797115646
 30
0.0
 11
12.2095732819
 21
24.1248446254
 31
0.0
  0
LINE
  5
352
330
1F
100
AcDbEntity
  8
0
  6
Continuous
 62
     7
370
    25
100
AcDbLine
 10
12.2095732819
 20
24.1248446254
 30
0.0
 11
12.220422069
 21
24.1535991776
 31
0.0
  0
LINE
  5
353
330
1F
100
AcDbEntity
  8
0
  6
Continuous
 62
     7
370
    25
100
AcDbLine
 10
13.3832477432
 20
23.898161116
 30
0.0
 11
13.3506487179
 21
23.8864697047
 31
0.0
  0
LINE
  5
354
330
1F
100
AcDbEntity
  8
0
  6
Continuous
 62
     7
370
    25
100
AcDbLine
 10
13.3506487179
 20
23.8864697047
 30
0.0
 11
13.2729166318
 21
24.1035507746
 31
0.0
  0
LINE
  5
355
330
1F
100
AcDbEntity
  8
0
  6
Continuous
 62
     7
370
    25
100
AcDbLine
 10
13.1517367332
 20
24.0601556262
 30
0.0
 11
13.1413619222
 21
24.0891734985
 31
0.0
  0
LINE
  5
356
330
1F
100
AcDbEntity
  8
0
  6
Continuous
 62
     7
370
    25
100
AcDbLine
 10
13.2951408461
 20
24.1442600582
 30
0.0
 11
13.3832477432
 21
23.898161116
 31
0.0
  0
LINE
  5
357
330
1F
100
AcDbEntity
  8
0
  6
Continuous
 62
     7
370
    25
100
AcDbLine
 10
13.2729166318
 20
24.1035507746
 30
0.0
 11
13.1517367332
 21
24.0601556262
 31
0.0
  0
LINE
  5
358
330
1F
100
AcDbEntity
  8
0
  6
Continuous
 62
     7
370
    25
100
AcDbLine
 10
13.1413619222
 20
24.0891734985
 30
0.0
 11
13.2951408461
 21
24.1442600582
 31
0.0
  0
LINE
  5
359
330
1F
100
AcDbEntity
  8
0
  6
Continuous
 62
     7
370
    25
100
AcDbLine
 10
12.633573195
 20
23.9436190554
 30
0.0
 11
12.6313613063
 21
23.9130739267
 31
0.0
  0
LINE
  5
35A
330
1F
100
AcDbEntity
  8
0
  6
Continuous
 62
     7
370
    25
100
AcDbLine
 10
12.6313613063
 20
23.9130739267
 30
0.0
 11
12.5210301949
 21
23.9209735289
 31
0.0
  0
LINE
  5
35B
330
1F
100
AcDbEntity
  8
0
  6
Continuous
 62
     7
370
    25
100
AcDbLine
 10
12.5210301949
 20
23.9209735289
 30
0.0
 11
12.5280871729
 21
24.0176646605
 31
0.0
  0
SPLINE
  5
35C
330
1F
100
AcDbEntity
  8
0
  6
Continuous
 62
     7
370
    25
100
AcDbSpline
210
0.0
220
0.0
230
1.0
 70
     8
 71
     3
 72
    11
 73
     7
 74
     0
 42
0.00000001
 43
0.00000001
 40
0.0
 40
0.0
 40
0.0
 40
0.0
 40
0.2800365433372555
 40
0.5599565852492526
 40
0.7799786280235659
 40
1.0
 40
1.0
 40
1.0
 40
1.0
 10
12.52808717286652
 20
24.01766466052856
 30
0.0
 10
12.53742133673712
 20
24.02351596290298
 30
0.0
 10
12.55608578125872
 20
24.03521613337999
 30
0.0
 10
12.58504081498
 20
24.04582222266182
 30
0.0
 10
12.61297806927904
 20
24.05110346454229
 30
0.0
 10
12.63028931488999
 20
24.0506840492284
 30
0.0
 10
12.63894492450091
 20
24.05047434189114
 30
0.0
  0
SPLINE
  5
35D
330
1F
100
AcDbEntity
  8
0
  6
Continuous
 62
     7
370
    25
100
AcDbSpline
210
0.0
220
0.0
230
1.0
 70
     8
 71
     3
 72
    16
 73
    12
 74
     0
 42
0.00000001
 43
0.00000001
 40
0.0
 40
0.0
 40
0.0
 40
0.0
 40
0.1120441745186973
 40
0.2240646206431847
 40
0.3360755469206932
 40
0.448039068866387
 40
0.5599481633169605
 40
0.6699149956826808
 40
0.7799272722949026
 40
0.8899528153861269
 40
1.0
 40
1.0
 40
1.0
 40
1.0
 10
12.63894492450091
 20
24.05047434189114
 30
0.0
 10
12.64685953107617
 20
24.049576487351
 30
0.0
 10
12.66268706809399
 20
24.04778096841579
 30
0.0
 10
12.68560740756023
 20
24.04067385954942
 30
0.0
 10
12.70706515163764
 20
24.03006061267795
 30
0.0
 10
12.72631434778982
 20
24.01570906311407
 30
0.0
 10
12.74177989919088
 20
23.99747620021404
 30
0.0
 10
12.75275732344949
 20
23.97645098130015
 30
0.0
 10
12.75969798167047
 20
23.95398736447054
 30
0.0
 10
12.76313231547855
 20
23.93067968587877
 30
0.0
 10
12.76256682216068
 20
23.9150458884349
 30
0.0
 10
12.76228404769698
 20
23.9072282210144
 30
0.0
  0
SPLINE
  5
35E
330
1F
100
AcDbEntity
  8
0
  6
Continuous
 62
     7
370
    25
100
AcDbSpline
210
0.0
220
0.0
230
1.0
 70
     8
 71
     3
 72
    16
 73
    12
 74
     0
 42
0.00000001
 43
0.00000001
 40
0.0
 40
0.0
 40
0.0
 40
0.0
 40
0.1120585452516483
 40
0.224102558593007
 40
0.336142078343891
 40
0.4481112508544602
 40
0.5600244712832617
 40
0.6699561472750291
 40
0.7799460369337815
 40
0.8899545986585284
 40
1.0
 40
1.0
 40
1.0
 40
1.0
 10
12.76228404769698
 20
23.9072282210144
 30
0.0
 10
12.76140301657679
 20
23.89930034994553
 30
0.0
 10
12.75964106858976
 20
23.88344563590531
 30
0.0
 10
12.75275867693569
 20
23.86043044110393
 30
0.0
 10
12.74265596876202
 20
23.83871645946662
 30
0.0
 10
12.7292762737405
 20
23.81877001063547
 30
0.0
 10
12.71184680834675
 20
23.80233053843218
 30
0.0
 10
12.69114625924624
 20
23.79060700223312
 30
0.0
 10
12.6687063006108
 20
23.7834148192008
 30
0.0
 10
12.64536414112379
 20
23.77997486453815
 30
0.0
 10
12.62971010968532
 20
23.78054797949512
 30
0.0
 10
12.62188178363177
 20
23.7808345849467
 30
0.0
  0
SPLINE
  5
35F
330
1F
100
AcDbEntity
  8
0
  6
Continuous
 62
     7
370
    25
100
AcDbSpline
210
0.0
220
0.0
230
1.0
 70
     8
 71
     3
 72
    14
 73
    10
 74
     0
 42
0.00000001
 43
0.00000001
 40
0.0
 40
0.0
 40
0.0
 40
0.0
 40
0.1401141300363447
 40
0.2802335047400447
 40
0.4202891968250816
 40
0.5601670861642523
 40
0.7065413657559959
 40
0.8532371476775039
 40
1.0
 40
1.0
 40
1.0
 40
1.0
 10
12.62188178363177
 20
23.7808345849467
 30
0.0
 10
12.61517266861684
 20
23.78154928806451
 30
0.0
 10
12.60175418745545
 20
23.78297872105248
 30
0.0
 10
12.58220783525922
 20
23.78853150790196
 30
0.0
 10
12.56380599937189
 20
23.79705925279569
 30
0.0
 10
12.54704661521188
 20
23.80919748532294
 30
0.0
 10
12.53392461782283
 20
23.82571183087808
 30
0.0
 10
12.52534673688699
 20
23.84526981340055
 30
0.0
 10
12.52236394140819
 20
23.85908375023322
 30
0.0
 10
12.52087220280766
 20
23.86599229724731
 30
0.0
  0
LINE
  5
360
330
1F
100
AcDbEntity
  8
0
  6
Continuous
 62
     7
370
    25
100
AcDbLine
 10
12.5208722028
 20
23.8659922972
 30
0.0
 11
12.5525759399
 21
23.872206651
 31
0.0
  0
SPLINE
  5
361
330
1F
100
AcDbEntity
  8
0
  6
Continuous
 62
     7
370
    25
100
AcDbSpline
210
0.0
220
0.0
230
1.0
 70
     8
 71
     3
 72
    13
 73
     9
 74
     0
 42
0.00000001
 43
0.00000001
 40
0.0
 40
0.0
 40
0.0
 40
0.0
 40
0.1401880522641833
 40
0.2803404149858267
 40
0.4202480204466122
 40
0.5602455716643108
 40
0.7800148150845989
 40
1.0
 40
1.0
 40
1.0
 40
1.0
 10
12.55257593985464
 20
23.87220665102064
 30
0.0
 10
12.55371562906469
 20
23.86754022264378
 30
0.0
 10
12.55599471733889
 20
23.85820855388499
 30
0.0
 10
12.56139403544758
 20
23.84479831206168
 30
0.0
 10
12.56959955136793
 20
23.8327492477832
 30
0.0
 10
12.58311154646893
 20
23.82200915424182
 30
0.0
 10
12.60132647433669
 20
23.81330079205979
 30
0.0
 10
12.61632660429856
 20
23.81131821077723
 30
0.0
 10
12.62383035218781
 20
23.81032643336249
 30
0.0
  0
SPLINE
  5
362
330
1F
100
AcDbEntity
  8
0
  6
Continuous
 62
     7
370
    25
100
AcDbSpline
210
0.0
220
0.0
230
1.0
 70
     8
 71
     3
 72
    13
 73
     9
 74
     0
 42
0.00000001
 43
0.00000001
 40
0.0
 40
0.0
 40
0.0
 40
0.0
 40
0.1867805925620128
 40
0.3733980885147185
 40
0.5599642218449541
 40
0.7065804288734404
 40
0.8532983912161355
 40
0.9999999999999999
 40
0.9999999999999999
 40
0.9999999999999999
 40
0.9999999999999999
 10
12.62383035218781
 20
23.81032643336249
 30
0.0
 10
12.63047632314779
 20
23.81005634527665
 30
0.0
 10
12.64376246181317
 20
23.80951640494558
 30
0.0
 10
12.66346261680731
 20
23.81327478203402
 30
0.0
 10
12.68070232864996
 20
23.82039414852821
 30
0.0
 10
12.69440543830711
 20
23.83072924733736
 30
0.0
 10
12.70500193370487
 20
23.84238450239596
 30
0.0
 10
12.71018732328343
 20
23.85145242552499
 30
0.0
 10
12.71277987357046
 20
23.85598613439196
 30
0.0
  0
SPLINE
  5
363
330
1F
100
AcDbEntity
  8
0
  6
Continuous
 62
     7
370
    25
100
AcDbSpline
210
0.0
220
0.0
230
1.0
 70
     8
 71
     3
 72
    10
 73
     6
 74
     0
 42
0.00000001
 43
0.00000001
 40
0.0
 40
0.0
 40
0.0
 40
0.0
 40
0.2800426270523585
 40
0.560185995356303
 40
1.0
 40
1.0
 40
1.0
 40
1.0
 10
12.71277987357046
 20
23.85598613439196
 30
0.0
 10
12.71486916628244
 20
23.86056025571031
 30
0.0
 10
12.71904850329899
 20
23.86971014382047
 30
0.0
 10
12.72418130053479
 20
23.88698976327009
 30
0.0
 10
12.72566901635214
 20
23.89984752969838
 30
0.0
 10
12.72657784550786
 20
23.90770219714966
 30
0.0
  0
SPLINE
  5
364
330
1F
100
AcDbEntity
  8
0
  6
Continuous
 62
     7
370
    25
100
AcDbSpline
210
0.0
220
0.0
230
1.0
 70
     8
 71
     3
 72
    15
 73
    11
 74
     0
 42
0.00000001
 43
0.00000001
 40
0.0
 40
0.0
 40
0.0
 40
0.0
 40
0.1401131901784672
 40
0.2801262869402215
 40
0.4200339251759582
 40
0.5597853002386669
 40
0.6697034468350084
 40
0.7797853825556733
 40
0.8899166766629312
 40
1.0
 40
1.0
 40
1.0
 40
1.0
 10
12.72657784550786
 20
23.90770219714966
 30
0.0
 10
12.72688275075608
 20
23.91522096171116
 30
0.0
 10
12.72749234343571
 20
23.9302531196137
 30
0.0
 10
12.7243727803411
 20
23.95272469201523
 30
0.0
 10
12.71659731966968
 20
23.97406730950983
 30
0.0
 10
12.70426266994245
 20
23.9913420465287
 30
0.0
 10
12.68900973950045
 20
24.00344483861219
 30
0.0
 10
12.67315912303994
 20
24.01148335770777
 30
0.0
 10
12.65627300952727
 20
24.01721525023857
 30
0.0
 10
12.64450944260504
 20
24.01856823564231
 30
0.0
 10
12.63862894041074
 20
24.01924458097941
 30
0.0
  0
SPLINE
  5
365
330
1F
100
AcDbEntity
  8
0
  6
Continuous
 62
     7
370
    25
100
AcDbSpline
210
0.0
220
0.0
230
1.0
 70
     8
 71
     3
 72
    11
 73
     7
 74
     0
 42
0.00000001
 43
0.00000001
 40
0.0
 40
0.0
 40
0.0
 40
0.0
 40
0.2799716781945321
 40
0.5599536490832387
 40
0.7800980504298255
 40
1.0
 40
1.0
 40
1.0
 40
1.0
 10
12.63862894041074
 20
24.01924458097941
 30
0.0
 10
12.63091272518514
 20
24.01938426526056
 30
0.0
 10
12.6154800110601
 20
24.0196636389581
 30
0.0
 10
12.59459422548011
 20
24.01425108320162
 30
0.0
 10
12.57595209190206
 20
24.00748841062423
 30
0.0
 10
12.56570272836706
 20
24.00103516960537
 30
0.0
 10
12.56058087013893
 20
23.99781032686293
 30
0.0
  0
LINE
  5
366
330
1F
100
AcDbEntity
  8
0
  6
Continuous
 62
     7
370
    25
100
AcDbLine
 10
12.5605808701
 20
23.9978103269
 30
0.0
 11
12.5569997171
 21
23.949254105
 31
0.0
  0
LINE
  5
367
330
1F
100
AcDbEntity
  8
0
  6
Continuous
 62
     7
370
    25
100
AcDbLine
 10
12.5569997171
 20
23.949254105
 30
0.0
 11
12.633573195
 21
23.9436190554
 31
0.0
  0
LINE
  5
368
330
1F
100
AcDbEntity
  8
0
  6
Continuous
 62
     7
370
    25
100
AcDbLine
 10
12.4805701844
 20
23.9866014934
 30
0.0
 11
12.4732498863
 21
23.9553190685
 31
0.0
  0
LINE
  5
369
330
1F
100
AcDbEntity
  8
0
  6
Continuous
 62
     7
370
    25
100
AcDbLine
 10
12.4732498863
 20
23.9553190685
 30
0.0
 11
12.377664699
 21
23.9777539389
 31
0.0
  0
LINE
  5
36A
330
1F
100
AcDbEntity
  8
0
  6
Continuous
 62
     7
370
    25
100
AcDbLine
 10
12.3849849971
 20
24.0090363638
 30
0.0
 11
12.4805701844
 21
23.9866014934
 31
0.0
  0
LINE
  5
36B
330
1F
100
AcDbEntity
  8
0
  6
Continuous
 62
     7
370
    25
100
AcDbLine
 10
12.377664699
 20
23.9777539389
 30
0.0
 11
12.3849849971
 21
24.0090363638
 31
0.0
  0
LINE
  5
36C
330
1F
100
AcDbEntity
  8
0
  6
Continuous
 62
     7
370
    25
100
AcDbLine
 10
13.1627600398
 20
23.8254894035
 30
0.0
 11
13.1277384698
 21
23.8204863221
 31
0.0
  0
LINE
  5
36D
330
1F
100
AcDbEntity
  8
0
  6
Continuous
 62
     7
370
    25
100
AcDbLine
 10
13.1277384698
 20
23.8204863221
 30
0.0
 11
13.0643309957
 21
23.9841134168
 31
0.0
  0
LINE
  5
36E
330
1F
100
AcDbEntity
  8
0
  6
Continuous
 62
     7
370
    25
100
AcDbLine
 10
13.0411061651
 20
23.9860093213
 30
0.0
 11
13.0167753901
 21
23.8046871176
 31
0.0
  0
LINE
  5
36F
330
1F
100
AcDbEntity
  8
0
  6
Continuous
 62
     7
370
    25
100
AcDbLine
 10
13.0167753901
 20
23.8046871176
 30
0.0
 11
12.9755921304
 21
23.7988414119
 31
0.0
  0
LINE
  5
370
330
1F
100
AcDbEntity
  8
0
  6
Continuous
 62
     7
370
    25
100
AcDbLine
 10
12.9755921304
 20
23.7988414119
 30
0.0
 11
12.9200315945
 21
23.9242344317
 31
0.0
  0
SPLINE
  5
371
330
1F
100
AcDbEntity
  8
0
  6
Continuous
 62
     7
370
    25
100
AcDbSpline
210
0.0
220
0.0
230
1.0
 70
     8
 71
     3
 72
     9
 73
     5
 74
     0
 42
0.00000001
 43
0.00000001
 40
0.0
 40
0.0
 40
0.0
 40
0.0
 40
0.5600011622448617
 40
1.0
 40
1.0
 40
1.0
 40
1.0
 10
12.92003159453113
 20
23.92423443167368
 30
0.0
 10
12.91303384290764
 20
23.94046575582856
 30
0.0
 10
12.90053788380028
 20
23.9694502030926
 30
0.0
 10
12.89110781319826
 20
23.99956488146701
 30
0.0
 10
12.88695859309342
 20
24.01281530495113
 30
0.0
  0
LINE
  5
372
330
1F
100
AcDbEntity
  8
0
  6
Continuous
 62
     7
370
    25
100
AcDbLine
 10
12.8820608397
 20
23.9547795604
 30
0.0
 11
12.8651556909
 21
23.7831475354
 31
0.0
  0
LINE
  5
373
330
1F
100
AcDbEntity
  8
0
  6
Continuous
 62
     7
370
    25
100
AcDbLine
 10
12.8651556909
 20
23.7831475354
 30
0.0
 11
12.8308187531
 21
23.778249782
 31
0.0
  0
SPLINE
  5
374
330
1F
100
AcDbEntity
  8
0
  6
Continuous
 62
     7
370
    25
100
AcDbSpline
210
0.0
220
0.0
230
1.0
 70
     8
 71
     3
 72
     9
 73
     5
 74
     0
 42
0.00000001
 43
0.00000001
 40
0.0
 40
0.0
 40
0.0
 40
0.0
 40
0.5600208437871027
 40
1.0
 40
1.0
 40
1.0
 40
1.0
 10
12.98022656370838
 20
23.86219622197044
 30
0.0
 10
12.98262247743346
 20
23.85679193432957
 30
0.0
 10
12.98690073555842
 20
23.84714177987403
 30
0.0
 10
12.99089699874861
 20
23.83737166747102
 30
0.0
 10
12.99265527125504
 20
23.83307302165984
 30
0.0
  0
SPLINE
  5
375
330
1F
100
AcDbEntity
  8
0
  6
Continuous
 62
     7
370
    25
100
AcDbSpline
210
0.0
220
0.0
230
1.0
 70
     8
 71
     3
 72
     9
 73
     5
 74
     0
 42
0.00000001
 43
0.00000001
 40
0.0
 40
0.0
 40
0.0
 40
0.0
 40
0.5600091678733016
 40
1.0
 40
1.0
 40
1.0
 40
1.0
 10
12.99265527125504
 20
23.83307302165984
 30
0.0
 10
12.99316191641563
 20
23.83894301750126
 30
0.0
 10
12.99406662510552
 20
23.84942498133001
 30
0.0
 10
12.99535400488594
 20
23.85986657092294
 30
0.0
 10
12.99592044018679
 20
23.86446077461665
 30
0.0
  0
LINE
  5
376
330
1F
100
AcDbEntity
  8
0
  6
Continuous
 62
     7
370
    25
100
AcDbLine
 10
12.9959204402
 20
23.8644607746
 30
0.0
 11
13.0226737598
 21
24.068955145
 31
0.0
  0
LINE
  5
377
330
1F
100
AcDbEntity
  8
0
  6
Continuous
 62
     7
370
    25
100
AcDbLine
 10
13.0226737598
 20
24.068955145
 30
0.0
 11
13.0575373378
 21
24.0739055624
 31
0.0
  0
LINE
  5
378
330
1F
100
AcDbEntity
  8
0
  6
Continuous
 62
     7
370
    25
100
AcDbLine
 10
12.8978073802
 20
24.0511547079
 30
0.0
 11
12.9802265637
 21
23.862196222
 31
0.0
  0
SPLINE
  5
379
330
1F
100
AcDbEntity
  8
0
  6
Continuous
 62
     7
370
    25
100
AcDbSpline
210
0.0
220
0.0
230
1.0
 70
     8
 71
     3
 72
     9
 73
     5
 74
     0
 42
0.00000001
 43
0.00000001
 40
0.0
 40
0.0
 40
0.0
 40
0.0
 40
0.5599873429920461
 40
1.0
 40
1.0
 40
1.0
 40
1.0
 10
13.06433099570843
 20
23.98411341676075
 30
0.0
 10
13.06069243010487
 20
23.99362410683926
 30
0.0
 10
13.05419484466995
 20
24.01060786584297
 30
0.0
 10
13.04847017956632
 20
24.02786671801301
 30
0.0
 10
13.04595125446359
 20
24.03546083141326
 30
0.0
  0
SPLINE
  5
37A
330
1F
100
AcDbEntity
  8
0
  6
Continuous
 62
     7
370
    25
100
AcDbSpline
210
0.0
220
0.0
230
1.0
 70
     8
 71
     3
 72
     9
 73
     5
 74
     0
 42
0.00000001
 43
0.00000001
 40
0.0
 40
0.0
 40
0.0
 40
0.0
 40
0.5600071078940181
 40
1.0
 40
1.0
 40
1.0
 40
1.0
 10
13.04595125446359
 20
24.03546083141326
 30
0.0
 10
13.0450839251797
 20
24.02622611832626
 30
0.0
 10
13.04353514254522
 20
24.00973576854886
 30
0.0
 10
13.04184834431341
 20
23.9932589877417
 30
0.0
 10
13.04110616508099
 20
23.98600932130177
 30
0.0
  0
SPLINE
  5
37B
330
1F
100
AcDbEntity
  8
0
  6
Continuous
 62
     7
370
    25
100
AcDbSpline
210
0.0
220
0.0
230
1.0
 70
     8
 71
     3
 72
     9
 73
     5
 74
     0
 42
0.00000001
 43
0.00000001
 40
0.0
 40
0.0
 40
0.0
 40
0.0
 40
0.5599915402456463
 40
1.0
 40
1.0
 40
1.0
 40
1.0
 10
12.88695859309342
 20
24.01281530495113
 30
0.0
 10
12.8862176461295
 20
24.00196727297007
 30
0.0
 10
12.88489450656279
 20
23.98259549464589
 30
0.0
 10
12.88292669391016
 20
23.96327898711607
 30
0.0
 10
12.88206083969579
 20
23.95477956039004
 30
0.0
  0
LINE
  5
37C
330
1F
100
AcDbEntity
  8
0
  6
Continuous
 62
     7
370
    25
100
AcDbLine
 10
12.8648923708
 20
24.0464676106
 30
0.0
 11
12.8978073802
 21
24.0511547079
 31
0.0
  0
LINE
  5
37D
330
1F
100
AcDbEntity
  8
0
  6
Continuous
 62
     7
370
    25
100
AcDbLine
 10
12.8308187531
 20
23.778249782
 30
0.0
 11
12.8648923708
 21
24.0464676106
 31
0.0
  0
LINE
  5
37E
330
1F
100
AcDbEntity
  8
0
  6
Continuous
 62
     7
370
    25
100
AcDbLine
 10
13.0575373378
 20
24.0739055624
 30
0.0
 11
13.1627600398
 21
23.8254894035
 31
0.0
  0
LINE
  5
37F
330
1F
100
AcDbEntity
  8
0
  6
Continuous
 62
     7
370
    25
100
AcDbLine
 10
14.8900816012
 20
25.4025977578
 30
0.0
 11
14.9475524875
 21
25.4462489956
 31
0.0
  0
LINE
  5
380
330
1F
100
AcDbEntity
  8
0
  6
Continuous
 62
     7
370
    25
100
AcDbLine
 10
14.8991492388
 20
25.3310008914
 30
0.0
 11
14.8900816012
 21
25.4025977578
 31
0.0
  0
LINE
  5
381
330
1F
100
AcDbEntity
  8
0
  6
Continuous
 62
     7
370
    25
100
AcDbLine
 10
14.9656877628
 20
25.3030552628
 30
0.0
 11
14.8991492388
 21
25.3310008914
 31
0.0
  0
LINE
  5
382
330
1F
100
AcDbEntity
  8
0
  6
Continuous
 62
     7
370
    25
100
AcDbLine
 10
15.0231586491
 20
25.3467065005
 30
0.0
 11
14.9656877628
 21
25.3030552628
 31
0.0
  0
LINE
  5
383
330
1F
100
AcDbEntity
  8
0
  6
Continuous
 62
     7
370
    25
100
AcDbLine
 10
15.0140910115
 20
25.4183033669
 30
0.0
 11
15.0231586491
 21
25.3467065005
 31
0.0
  0
LINE
  5
384
330
1F
100
AcDbEntity
  8
0
  6
Continuous
 62
     7
370
    25
100
AcDbLine
 10
14.9475524875
 20
25.4462489956
 30
0.0
 11
15.0140910115
 21
25.4183033669
 31
0.0
  0
CIRCLE
  5
385
330
1F
100
AcDbEntity
  8
0
  6
Continuous
 62
     7
370
    25
100
AcDbCircle
 10
14.9566201252
 20
25.3746521292
 30
0.0
 40
0.2499999999999998
  0
ARC
  5
386
330
1F
100
AcDbEntity
  8
0
  6
Continuous
 62
     7
370
    25
100
AcDbCircle
 10
14.9566201252
 20
25.3746521292
 30
0.0
 40
0.0624999999999999
100
AcDbArc
 50
127.2179978857
 51
187.2179978857
  0
ARC
  5
387
330
1F
100
AcDbEntity
  8
0
  6
Continuous
 62
     7
370
    25
100
AcDbCircle
 10
14.9566201252
 20
25.3746521292
 30
0.0
 40
0.0624999999999988
100
AcDbArc
 50
67.2179978857
 51
127.2179978857
  0
ARC
  5
388
330
1F
100
AcDbEntity
  8
0
  6
Continuous
 62
     7
370
    25
100
AcDbCircle
 10
14.9566201252
 20
25.3746521292
 30
0.0
 40
0.0624999999999999
100
AcDbArc
 50
7.2179978857
 51
67.2179978857
  0
ARC
  5
389
330
1F
100
AcDbEntity
  8
0
  6
Continuous
 62
     7
370
    25
100
AcDbCircle
 10
14.9566201252
 20
25.3746521292
 30
0.0
 40
0.0625000000000005
100
AcDbArc
 50
307.2179978857
 51
7.2179978857
  0
ARC
  5
38A
330
1F
100
AcDbEntity
  8
0
  6
Continuous
 62
     7
370
    25
100
AcDbCircle
 10
14.9566201252
 20
25.3746521292
 30
0.0
 40
0.0625000000000005
100
AcDbArc
 50
247.2179978857
 51
307.2179978857
  0
ARC
  5
38B
330
1F
100
AcDbEntity
  8
0
  6
Continuous
 62
     7
370
    25
100
AcDbCircle
 10
14.9566201252
 20
25.3746521292
 30
0.0
 40
0.0625000000000005
100
AcDbArc
 50
187.2179978857
 51
247.2179978857
  0
LINE
  5
38C
330
1F
100
AcDbEntity
  8
0
  6
Continuous
 62
     7
370
    25
100
AcDbLine
 10
10.5146978151
 20
25.4016657878
 30
0.0
 11
10.5715534847
 21
25.4461153791
 31
0.0
  0
LINE
  5
38D
330
1F
100
AcDbEntity
  8
0
  6
Continuous
 62
     7
370
    25
100
AcDbLine
 10
10.5247644556
 20
25.3302025379
 30
0.0
 11
10.5146978151
 21
25.4016657878
 31
0.0
  0
LINE
  5
38E
330
1F
100
AcDbEntity
  8
0
  6
Continuous
 62
     7
370
    25
100
AcDbLine
 10
10.5916867656
 20
25.3031888793
 30
0.0
 11
10.5247644556
 21
25.3302025379
 31
0.0
  0
LINE
  5
38F
330
1F
100
AcDbEntity
  8
0
  6
Continuous
 62
     7
370
    25
100
AcDbLine
 10
10.6485424352
 20
25.3476384706
 30
0.0
 11
10.5916867656
 21
25.3031888793
 31
0.0
  0
LINE
  5
390
330
1F
100
AcDbEntity
  8
0
  6
Continuous
 62
     7
370
    25
100
AcDbLine
 10
10.6384757948
 20
25.4191017205
 30
0.0
 11
10.6485424352
 21
25.3476384706
 31
0.0
  0
LINE
  5
391
330
1F
100
AcDbEntity
  8
0
  6
Continuous
 62
     7
370
    25
100
AcDbLine
 10
10.5715534847
 20
25.4461153791
 30
0.0
 11
10.6384757948
 21
25.4191017205
 31
0.0
  0
CIRCLE
  5
392
330
1F
100
AcDbEntity
  8
0
  6
Continuous
 62
     7
370
    25
100
AcDbCircle
 10
10.5816201252
 20
25.3746521292
 30
0.0
 40
0.2499999999999965
  0
ARC
  5
393
330
1F
100
AcDbEntity
  8
0
  6
Continuous
 62
     7
370
    25
100
AcDbCircle
 10
10.5816201252
 20
25.3746521292
 30
0.0
 40
0.0625000000000007
100
AcDbArc
 50
128.0181889709
 51
188.0181889709
  0
ARC
  5
394
330
1F
100
AcDbEntity
  8
0
  6
Continuous
 62
     7
370
    25
100
AcDbCircle
 10
10.5816201252
 20
25.3746521292
 30
0.0
 40
0.062499999999998
100
AcDbArc
 50
68.0181889709
 51
128.0181889709
  0
ARC
  5
395
330
1F
100
AcDbEntity
  8
0
  6
Continuous
 62
     7
370
    25
100
AcDbCircle
 10
10.5816201252
 20
25.3746521292
 30
0.0
 40
0.062499999999998
100
AcDbArc
 50
8.0181889709
 51
68.0181889709
  0
ARC
  5
396
330
1F
100
AcDbEntity
  8
0
  6
Continuous
 62
     7
370
    25
100
AcDbCircle
 10
10.5816201252
 20
25.3746521292
 30
0.0
 40
0.0625000000000036
100
AcDbArc
 50
308.0181889709
 51
8.0181889709
  0
ARC
  5
397
330
1F
100
AcDbEntity
  8
0
  6
Continuous
 62
     7
370
    25
100
AcDbCircle
 10
10.5816201252
 20
25.3746521292
 30
0.0
 40
0.0625000000000047
100
AcDbArc
 50
248.0181889709
 51
308.0181889709
  0
ARC
  5
398
330
1F
100
AcDbEntity
  8
0
  6
Continuous
 62
     7
370
    25
100
AcDbCircle
 10
10.5816201252
 20
25.3746521292
 30
0.0
 40
0.0625000000000047
100
AcDbArc
 50
188.0181889709
 51
248.0181889709
  0
DIMENSION
  5
399
330
1F
100
AcDbEntity
  8
0
  6
Continuous
 62
     7
370
    18
100
AcDbDimension
  2
_D_3
 10
15.5708909806
 20
24.3022342658
 30
0.0
 11
5.4802790473
 21
27.2138296073
 31
0.0
 70
   163
  1
<>
 71
     1
 42
-1.0
  3
SLDDIMSTYLE2
100
AcDbDiametricDimension
 15
9.9673492698
 25
26.4470699926
 35
0.0
 40
0.0
  0
DIMENSION
  5
3AA
330
1F
100
AcDbEntity
  8
0
  6
Continuous
 62
     7
370
    18
100
AcDbDimension
  2
_D_4
 10
11.9983575158
 20
24.9296521292
 30
0.0
 11
18.253800887
 21
27.2138296073
 31
0.0
 70
   163
  1
<>
 71
     1
 42
-1.0
  3
SLDDIMSTYLE2
100
AcDbDiametricDimension
 15
13.5398827345
 25
25.8196521292
 35
0.0
 40
0.0
  0
ENDSEC
  0
SECTION
  2
OBJECTS
  0
DICTIONARY
  5
C
330
0
100
AcDbDictionary
281
     1
  3
ACAD_GROUP
350
D
  3
ACAD_LAYOUT
350
1A
  3
ACAD_MLINESTYLE
350
17
  3
ACAD_PLOTSETTINGS
350
19
  3
ACAD_PLOTSTYLENAME
350
E
  3
ACAD_SCALELIST
350
47
  3
DWGPROPS
350
3BA
  0
DICTIONARY
  5
D
102
{ACAD_REACTORS
330
C
102
}
330
C
100
AcDbDictionary
281
     1
  0
DICTIONARY
  5
1A
102
{ACAD_REACTORS
330
C
102
}
330
C
100
AcDbDictionary
281
     1
  3
Layout1
350
1E
  3
Layout2
350
26
  3
Model
350
22
  0
DICTIONARY
  5
17
102
{ACAD_REACTORS
330
C
102
}
330
C
100
AcDbDictionary
281
     1
  3
Standard
350
18
  0
DICTIONARY
  5
19
102
{ACAD_REACTORS
330
C
102
}
330
C
100
AcDbDictionary
281
     1
  0
ACDBDICTIONARYWDFLT
  5
E
102
{ACAD_REACTORS
330
C
102
}
330
C
100
AcDbDictionary
281
     1
  3
Normal
350
F
100
AcDbDictionaryWithDefault
340
F
  0
DICTIONARY
  5
47
102
{ACAD_REACTORS
330
C
102
}
330
C
100
AcDbDictionary
281
     1
  3
A0
350
48
  3
A1
350
49
  3
A2
350
4A
  3
A3
350
4B
  3
A4
350
4C
  3
A5
350
4D
  3
A6
350
4E
  3
A7
350
4F
  3
A8
350
50
  3
A9
350
51
  3
B1
350
52
  3
B2
350
53
  3
B3
350
54
  3
B4
350
55
  3
B5
350
56
  3
B6
350
57
  3
B7
350
58
  0
XRECORD
  5
3BA
102
{ACAD_REACTORS
330
C
102
}
330
C
100
AcDbXrecord
280
     1
  1
DWGPROPS COOKIE
  2

  3

  4

  6

  7

  8
stevend
  9

300
=
301
=
302
=
303
=
304
=
305
=
306
=
307
=
308
=
309
=
 40
0.0
 41
2460537.21350801
 42
2460537.213514259
  1

 90
        0
  0
LAYOUT
  5
1E
102
{ACAD_REACTORS
330
1A
102
}
330
1A
100
AcDbPlotSettings
  1

  2
none_device
  4

  6

 40
0.0
 41
0.0
 42
0.0
 43
0.0
 44
0.0
 45
0.0
 46
0.0
 47
0.0
 48
0.0
 49
0.0
140
0.0
141
0.0
142
1.0
143
1.0
 70
   688
 72
     0
 73
     0
 74
     5
  7

 75
    16
147
1.0
148
0.0
149
0.0
100
AcDbLayout
  1
Layout1
 70
     1
 71
     1
 10
0.0
 20
0.0
 11
12.0
 21
9.0
 12
0.0
 22
0.0
 32
0.0
 14
1.0000000000E+20
 24
1.0000000000E+20
 34
1.0000000000E+20
 15
-1.0000000000E+20
 25
-1.0000000000E+20
 35
-1.0000000000E+20
146
0.0
 13
0.0
 23
0.0
 33
0.0
 16
1.0
 26
0.0
 36
0.0
 17
0.0
 27
1.0
 37
0.0
 76
     0
330
1B
  0
LAYOUT
  5
26
102
{ACAD_REACTORS
330
1A
102
}
330
1A
100
AcDbPlotSettings
  1

  2
none_device
  4

  6

 40
0.0
 41
0.0
 42
0.0
 43
0.0
 44
0.0
 45
0.0
 46
0.0
 47
0.0
 48
0.0
 49
0.0
140
0.0
141
0.0
142
1.0
143
1.0
 70
   688
 72
     0
 73
     0
 74
     5
  7

 75
    16
147
1.0
148
0.0
149
0.0
100
AcDbLayout
  1
Layout2
 70
     1
 71
     2
 10
0.0
 20
0.0
 11
0.0
 21
0.0
 12
0.0
 22
0.0
 32
0.0
 14
0.0
 24
0.0
 34
0.0
 15
0.0
 25
0.0
 35
0.0
146
0.0
 13
0.0
 23
0.0
 33
0.0
 16
1.0
 26
0.0
 36
0.0
 17
0.0
 27
1.0
 37
0.0
 76
     0
330
23
  0
LAYOUT
  5
22
102
{ACAD_REACTORS
330
1A
102
}
330
1A
100
AcDbPlotSettings
  1

  2
none_device
  4
Letter_(8.50_x_11.00_Inches)
  6

 40
6.35
 41
6.35
 42
6.35000508
 43
6.35000508
 44
215.9
 45
279.4
 46
0.0
 47
0.0
 48
0.0
 49
0.0
140
0.0
141
0.0
142
1.0
143
1.0
 70
  1712
 72
     0
 73
     0
 74
     0
  7

 75
     0
147
1.0
148
0.0
149
0.0
100
AcDbLayout
  1
Model
 70
     1
 71
     0
 10
0.0
 20
0.0
 11
44.0
 21
34.0
 12
0.0
 22
0.0
 32
0.0
 14
0.0
 24
0.0
 34
0.0
 15
44.0
 25
34.0
 35
0.0
146
0.0
 13
0.0
 23
0.0
 33
0.0
 16
1.0
 26
0.0
 36
0.0
 17
0.0
 27
1.0
 37
0.0
 76
     0
330
1F
331
29
  0
MLINESTYLE
  5
18
102
{ACAD_REACTORS
330
17
102
}
330
17
100
AcDbMlineStyle
  2
Standard
 70
     0
  3

 62
   256
 51
90.0
 52
90.0
 71
     2
 49
0.5
 62
   256
  6
BYLAYER
 49
-0.5
 62
   256
  6
BYLAYER
  0
ACDBPLACEHOLDER
  5
F
102
{ACAD_REACTORS
330
E
102
}
330
E
  0
SCALE
  5
48
102
{ACAD_REACTORS
330
47
102
}
330
47
100
AcDbScale
 70
     0
300
1:1
140
1.0
141
1.0
290
     1
  0
SCALE
  5
49
102
{ACAD_REACTORS
330
47
102
}
330
47
100
AcDbScale
 70
     0
300
1/128" = 1'-0"
140
0.0078125
141
12.0
290
     0
  0
SCALE
  5
4A
102
{ACAD_REACTORS
330
47
102
}
330
47
100
AcDbScale
 70
     0
300
1/64" = 1'-0"
140
0.015625
141
12.0
290
     0
  0
SCALE
  5
4B
102
{ACAD_REACTORS
330
47
102
}
330
47
100
AcDbScale
 70
     0
300
1/32" = 1'-0"
140
0.03125
141
12.0
290
     0
  0
SCALE
  5
4C
102
{ACAD_REACTORS
330
47
102
}
330
47
100
AcDbScale
 70
     0
300
1/16" = 1'-0"
140
0.0625
141
12.0
290
     0
  0
SCALE
  5
4D
102
{ACAD_REACTORS
330
47
102
}
330
47
100
AcDbScale
 70
     0
300
3/32" = 1'-0"
140
0.09375
141
12.0
290
     0
  0
SCALE
  5
4E
102
{ACAD_REACTORS
330
47
102
}
330
47
100
AcDbScale
 70
     0
300
1/8" = 1'-0"
140
0.125
141
12.0
290
     0
  0
SCALE
  5
4F
102
{ACAD_REACTORS
330
47
102
}
330
47
100
AcDbScale
 70
     0
300
3/16" = 1'-0"
140
0.1875
141
12.0
290
     0
  0
SCALE
  5
50
102
{ACAD_REACTORS
330
47
102
}
330
47
100
AcDbScale
 70
     0
300
1/4" = 1'-0"
140
0.25
141
12.0
290
     0
  0
SCALE
  5
51
102
{ACAD_REACTORS
330
47
102
}
330
47
100
AcDbScale
 70
     0
300
3/8" = 1'-0"
140
0.375
141
12.0
290
     0
  0
SCALE
  5
52
102
{ACAD_REACTORS
330
47
102
}
330
47
100
AcDbScale
 70
     0
300
1/2" = 1'-0"
140
0.5
141
12.0
290
     0
  0
SCALE
  5
53
102
{ACAD_REACTORS
330
47
102
}
330
47
100
AcDbScale
 70
     0
300
3/4" = 1'-0"
140
0.75
141
12.0
290
     0
  0
SCALE
  5
54
102
{ACAD_REACTORS
330
47
102
}
330
47
100
AcDbScale
 70
     0
300
1" = 1'-0"
140
1.0
141
12.0
290
     0
  0
SCALE
  5
55
102
{ACAD_REACTORS
330
47
102
}
330
47
100
AcDbScale
 70
     0
300
1-1/2" = 1'-0"
140
1.5
141
12.0
290
     0
  0
SCALE
  5
56
102
{ACAD_REACTORS
330
47
102
}
330
47
100
AcDbScale
 70
     0
300
3" = 1'-0"
140
3.0
141
12.0
290
     0
  0
SCALE
  5
57
102
{ACAD_REACTORS
330
47
102
}
330
47
100
AcDbScale
 70
     0
300
6" = 1'-0"
140
6.0
141
12.0
290
     0
  0
SCALE
  5
58
102
{ACAD_REACTORS
330
47
102
}
330
47
100
AcDbScale
 70
     0
300
1'-0" = 1'-0"
140
12.0
141
12.0
290
     0
  0
ENDSEC
  0
EOF
