  0
SECTION
  2
HEADER
  9
$ACADVER
  1
AC1015
  9
$ACADMAINTVER
 70
     6
  9
$DWGCODEPAGE
  3
ANSI_1252
  9
$INSBASE
 10
0.0
 20
0.0
 30
0.0
  9
$EXTMIN
 10
0.0
 20
0.0
 30
0.0
  9
$EXTMAX
 10
22.0
 20
17.0
 30
0.0
  9
$LIMMIN
 10
0.0
 20
0.0
  9
$LIMMAX
 10
22.0
 20
17.0
  9
$ORTHOMODE
 70
     0
  9
$REGENMODE
 70
     1
  9
$FILLMODE
 70
     1
  9
$QTEXTMODE
 70
     0
  9
$MIRRTEXT
 70
     1
  9
$LTSCALE
 40
2.0
  9
$ATTMODE
 70
     1
  9
$TEXTSIZE
 40
0.25
  9
$TRACEWID
 40
0.05
  9
$TEXTSTYLE
  7
Standard
  9
$CLAYER
  8
0
  9
$CELTYPE
  6
ByLayer
  9
$CECOLOR
 62
   256
  9
$CELTSCALE
 40
1.0
  9
$DISPSILH
 70
     0
  9
$DIMSCALE
 40
1.0
  9
$DIMASZ
 40
0.26
  9
$DIMEXO
 40
0.1
  9
$DIMDLI
 40
0.38
  9
$DIMRND
 40
0.0
  9
$DIMDLE
 40
0.0
  9
$DIMEXE
 40
0.25
  9
$DIMTP
 40
0.0
  9
$DIMTM
 40
0.0
  9
$DIMTXT
 40
0.25
  9
$DIMCEN
 40
0.09
  9
$DIMTSZ
 40
0.0
  9
$DIMTOL
 70
     0
  9
$DIMLIM
 70
     0
  9
$DIMTIH
 70
     1
  9
$DIMTOH
 70
     1
  9
$DIMSE1
 70
     0
  9
$DIMSE2
 70
     0
  9
$DIMTAD
 70
     0
  9
$DIMZIN
 70
     1
  9
$DIMBLK
  1

  9
$DIMASO
 70
     1
  9
$DIMSHO
 70
     1
  9
$DIMPOST
  1

  9
$DIMAPOST
  1

  9
$DIMALT
 70
     0
  9
$DIMALTD
 70
     2
  9
$DIMALTF
 40
25.4
  9
$DIMLFAC
 40
1.0
  9
$DIMTOFL
 70
     0
  9
$DIMTVP
 40
0.0
  9
$DIMTIX
 70
     0
  9
$DIMSOXD
 70
     0
  9
$DIMSAH
 70
     0
  9
$DIMBLK1
  1

  9
$DIMBLK2
  1

  9
$DIMSTYLE
  2
Standard
  9
$DIMCLRD
 70
     0
  9
$DIMCLRE
 70
     0
  9
$DIMCLRT
 70
     0
  9
$DIMTFAC
 40
1.0
  9
$DIMGAP
 40
0.12
  9
$DIMJUST
 70
     0
  9
$DIMSD1
 70
     0
  9
$DIMSD2
 70
     0
  9
$DIMTOLJ
 70
     1
  9
$DIMTZIN
 70
     1
  9
$DIMALTZ
 70
     0
  9
$DIMALTTZ
 70
     0
  9
$DIMUPT
 70
     0
  9
$DIMDEC
 70
     0
  9
$DIMTDEC
 70
     0
  9
$DIMALTU
 70
     2
  9
$DIMALTTD
 70
     2
  9
$DIMTXSTY
  7
Standard
  9
$DIMAUNIT
 70
     0
  9
$DIMADEC
 70
     0
  9
$DIMALTRND
 40
0.0
  9
$DIMAZIN
 70
     0
  9
$DIMDSEP
 70
    46
  9
$DIMATFIT
 70
     3
  9
$DIMFRAC
 70
     0
  9
$DIMLDRBLK
  1

  9
$DIMLUNIT
 70
     2
  9
$DIMLWD
 70
    -2
  9
$DIMLWE
 70
    -2
  9
$DIMTMOVE
 70
     0
  9
$LUNITS
 70
     2
  9
$LUPREC
 70
     6
  9
$SKETCHINC
 40
0.1
  9
$FILLETRAD
 40
0.0
  9
$AUNITS
 70
     0
  9
$AUPREC
 70
     2
  9
$MENU
  1
.
  9
$ELEVATION
 40
0.0
  9
$PELEVATION
 40
0.0
  9
$THICKNESS
 40
0.0
  9
$LIMCHECK
 70
     0
  9
$CHAMFERA
 40
0.0
  9
$CHAMFERB
 40
0.0
  9
$CHAMFERC
 40
0.0
  9
$CHAMFERD
 40
0.0
  9
$SKPOLY
 70
     0
  9
$TDCREATE
 40
2460889.378847292
  9
$TDUCREATE
 40
2460889.670513958
  9
$TDUPDATE
 40
2460889.378847685
  9
$TDUUPDATE
 40
2460889.670514352
  9
$TDINDWG
 40
0.0000000116
  9
$TDUSRTIMER
 40
0.0000000116
  9
$USRTIMER
 70
     1
  9
$ANGBASE
 50
0.0
  9
$ANGDIR
 70
     0
  9
$PDMODE
 70
     0
  9
$PDSIZE
 40
-1.0
  9
$PLINEWID
 40
0.0
  9
$SPLFRAME
 70
     0
  9
$SPLINETYPE
 70
     6
  9
$SPLINESEGS
 70
     8
  9
$HANDSEED
  5
124
  9
$SURFTAB1
 70
     6
  9
$SURFTAB2
 70
     6
  9
$SURFTYPE
 70
     6
  9
$SURFU
 70
     6
  9
$SURFV
 70
     6
  9
$UCSBASE
  2

  9
$UCSNAME
  2

  9
$UCSORG
 10
0.0
 20
0.0
 30
0.0
  9
$UCSXDIR
 10
1.0
 20
0.0
 30
0.0
  9
$UCSYDIR
 10
0.0
 20
1.0
 30
0.0
  9
$UCSORTHOREF
  2

  9
$UCSORTHOVIEW
 70
     0
  9
$UCSORGTOP
 10
0.0
 20
0.0
 30
0.0
  9
$UCSORGBOTTOM
 10
0.0
 20
0.0
 30
0.0
  9
$UCSORGLEFT
 10
0.0
 20
0.0
 30
0.0
  9
$UCSORGRIGHT
 10
0.0
 20
0.0
 30
0.0
  9
$UCSORGFRONT
 10
0.0
 20
0.0
 30
0.0
  9
$UCSORGBACK
 10
0.0
 20
0.0
 30
0.0
  9
$PUCSBASE
  2

  9
$PUCSNAME
  2

  9
$PUCSORG
 10
0.0
 20
0.0
 30
0.0
  9
$PUCSXDIR
 10
1.0
 20
0.0
 30
0.0
  9
$PUCSYDIR
 10
0.0
 20
1.0
 30
0.0
  9
$PUCSORTHOREF
  2

  9
$PUCSORTHOVIEW
 70
     0
  9
$PUCSORGTOP
 10
0.0
 20
0.0
 30
0.0
  9
$PUCSORGBOTTOM
 10
0.0
 20
0.0
 30
0.0
  9
$PUCSORGLEFT
 10
0.0
 20
0.0
 30
0.0
  9
$PUCSORGRIGHT
 10
0.0
 20
0.0
 30
0.0
  9
$PUCSORGFRONT
 10
0.0
 20
0.0
 30
0.0
  9
$PUCSORGBACK
 10
0.0
 20
0.0
 30
0.0
  9
$USERI1
 70
     0
  9
$USERI2
 70
     0
  9
$USERI3
 70
     0
  9
$USERI4
 70
     0
  9
$USERI5
 70
     0
  9
$USERR1
 40
0.0
  9
$USERR2
 40
0.0
  9
$USERR3
 40
0.0
  9
$USERR4
 40
0.0
  9
$USERR5
 40
0.0
  9
$WORLDVIEW
 70
     1
  9
$SHADEDGE
 70
     3
  9
$SHADEDIF
 70
    70
  9
$TILEMODE
 70
     1
  9
$MAXACTVP
 70
    64
  9
$PINSBASE
 10
0.0
 20
0.0
 30
0.0
  9
$PLIMCHECK
 70
     0
  9
$PEXTMIN
 10
1.0000000000E+20
 20
1.0000000000E+20
 30
1.0000000000E+20
  9
$PEXTMAX
 10
-1.0000000000E+20
 20
-1.0000000000E+20
 30
-1.0000000000E+20
  9
$PLIMMIN
 10
0.0
 20
0.0
  9
$PLIMMAX
 10
12.0
 20
9.0
  9
$UNITMODE
 70
     0
  9
$VISRETAIN
 70
     1
  9
$PLINEGEN
 70
     0
  9
$PSLTSCALE
 70
     1
  9
$TREEDEPTH
 70
  3020
  9
$CMLSTYLE
  2
Standard
  9
$CMLJUST
 70
     0
  9
$CMLSCALE
 40
1.0
  9
$PROXYGRAPHICS
 70
     1
  9
$MEASUREMENT
 70
     0
  9
$CELWEIGHT
370
    -1
  9
$ENDCAPS
280
     0
  9
$JOINSTYLE
280
     0
  9
$LWDISPLAY
290
     1
  9
$INSUNITS
 70
     1
  9
$HYPERLINKBASE
  1

  9
$STYLESHEET
  1

  9
$XEDIT
290
     1
  9
$CEPSNTYPE
380
     0
  9
$PSTYLEMODE
290
     1
  9
$FINGERPRINTGUID
  2
{9e51da96-f438-41ce-9b31-aff1e95caefa}
  9
$VERSIONGUID
  2
{FAEB1C32-E019-11D5-929B-00C0DF256EC4}
  9
$EXTNAMES
290
     1
  9
$PSVPSCALE
 40
0.0
  9
$OLESTARTUP
290
     0
  0
ENDSEC
  0
SECTION
  2
CLASSES
  0
CLASS
  1
ACDBDICTIONARYWDFLT
  2
AcDbDictionaryWithDefault
  3
ObjectDBX Classes
 90
        0
280
     0
281
     0
  0
CLASS
  1
VISUALSTYLE
  2
AcDbVisualStyle
  3
ObjectDBX Classes
 90
     4095
280
     0
281
     0
  0
CLASS
  1
MATERIAL
  2
AcDbMaterial
  3
ObjectDBX Classes
 90
     1153
280
     0
281
     0
  0
CLASS
  1
SCALE
  2
AcDbScale
  3
ObjectDBX Classes
 90
     1153
280
     0
281
     0
  0
CLASS
  1
TABLESTYLE
  2
AcDbTableStyle
  3
ObjectDBX Classes
 90
     4095
280
     0
281
     0
  0
CLASS
  1
MLEADERSTYLE
  2
AcDbMLeaderStyle
  3
ACDB_MLEADERSTYLE_CLASS
 90
     4095
280
     0
281
     0
  0
CLASS
  1
SUN
  2
AcDbSun
  3
SCENEOE
 90
     1153
280
     0
281
     0
  0
CLASS
  1
ACDBPLACEHOLDER
  2
AcDbPlaceHolder
  3
ObjectDBX Classes
 90
        0
280
     0
281
     0
  0
CLASS
  1
LAYOUT
  2
AcDbLayout
  3
ObjectDBX Classes
 90
        0
280
     0
281
     0
  0
ENDSEC
  0
SECTION
  2
TABLES
  0
TABLE
  2
VPORT
  5
8
330
0
100
AcDbSymbolTable
 70
     1
  0
VPORT
  5
29
330
8
100
AcDbSymbolTableRecord
100
AcDbViewportTableRecord
  2
*Active
 70
     0
 10
0.0
 20
0.0
 11
1.0
 21
1.0
 12
11.0
 22
8.5
 13
0.0
 23
0.0
 14
0.5
 24
0.5
 15
0.5
 25
0.5
 16
0.0
 26
0.0
 36
1.0
 17
0.0
 27
0.0
 37
0.0
 40
17.0
 41
1.2941176471
 42
50.0
 43
0.0
 44
0.0
 50
0.0
 51
0.0
 71
     0
 72
  2000
 73
     1
 74
     3
 75
     0
 76
     0
 77
     0
 78
     0
281
     0
 65
     1
110
0.0
120
0.0
130
0.0
111
1.0
121
0.0
131
0.0
112
0.0
122
1.0
132
0.0
 79
     0
146
0.0
  0
ENDTAB
  0
TABLE
  2
LTYPE
  5
5
330
0
100
AcDbSymbolTable
 70
     6
  0
LTYPE
  5
14
330
5
100
AcDbSymbolTableRecord
100
AcDbLinetypeTableRecord
  2
ByBlock
 70
     0
  3

 72
    65
 73
     0
 40
0.0
  0
LTYPE
  5
15
330
5
100
AcDbSymbolTableRecord
100
AcDbLinetypeTableRecord
  2
ByLayer
 70
     0
  3

 72
    65
 73
     0
 40
0.0
  0
LTYPE
  5
16
330
5
100
AcDbSymbolTableRecord
100
AcDbLinetypeTableRecord
  2
Continuous
 70
     0
  3
Solid line
 72
    65
 73
     0
 40
0.0
  0
LTYPE
  5
5E
330
5
100
AcDbSymbolTableRecord
100
AcDbLinetypeTableRecord
  2
HIDDEN
 70
     0
  3
Hidden __ __ __ __ __ __ __ __ __ __ __ __ __ __
 72
    65
 73
     2
 40
0.075
 49
0.05
 74
     0
 49
-0.025
 74
     0
  0
LTYPE
  5
5F
330
5
100
AcDbSymbolTableRecord
100
AcDbLinetypeTableRecord
  2
PHANTOM
 70
     0
  3
Phantom ______  __  __  ______  __  __  ______
 72
    65
 73
     6
 40
0.5
 49
0.25
 74
     0
 49
-0.05
 74
     0
 49
0.05
 74
     0
 49
-0.05
 74
     0
 49
0.05
 74
     0
 49
-0.05
 74
     0
  0
LTYPE
  5
60
330
5
100
AcDbSymbolTableRecord
100
AcDbLinetypeTableRecord
  2
CENTER
 70
     0
  3
Center ____ _ ____ _ ____ _ ____ _ ____ _ ____
 72
    65
 73
     4
 40
0.4
 49
0.25
 74
     0
 49
-0.05
 74
     0
 49
0.05
 74
     0
 49
-0.05
 74
     0
  0
LTYPE
  5
61
330
5
100
AcDbSymbolTableRecord
100
AcDbLinetypeTableRecord
  2
CENTERX2
 70
     0
  3
Center (2x) ________  __  ________  __  _____
 72
    65
 73
     4
 40
0.8
 49
0.5
 74
     0
 49
-0.1
 74
     0
 49
0.1
 74
     0
 49
-0.1
 74
     0
  0
LTYPE
  5
62
330
5
100
AcDbSymbolTableRecord
100
AcDbLinetypeTableRecord
  2
DOT2
 70
     0
  3
Dot (.5x) ........................................
 72
    65
 73
     2
 40
0.025
 49
0.0
 74
     0
 49
-0.025
 74
     0
  0
ENDTAB
  0
TABLE
  2
LAYER
  5
2
330
0
100
AcDbSymbolTable
 70
    11
  0
LAYER
  5
10
330
2
100
AcDbSymbolTableRecord
100
AcDbLayerTableRecord
  2
0
 70
     0
 62
     7
  6
Continuous
370
    -3
390
F
  0
LAYER
  5
63
330
2
100
AcDbSymbolTableRecord
100
AcDbLayerTableRecord
  2
SLD-0
 70
     0
 62
     7
  6
Continuous
370
    -3
390
F
  0
LAYER
  5
64
330
2
100
AcDbSymbolTableRecord
100
AcDbLayerTableRecord
  2
DIM
 70
     0
 62
     7
  6
Continuous
370
    -3
390
F
  0
LAYER
  5
65
330
2
100
AcDbSymbolTableRecord
100
AcDbLayerTableRecord
  2
CEN
 70
     0
 62
     1
  6
CENTER
370
    -3
390
F
  0
LAYER
  5
66
330
2
100
AcDbSymbolTableRecord
100
AcDbLayerTableRecord
  2
HAT
 70
     0
 62
     4
  6
Continuous
370
    -3
390
F
  0
LAYER
  5
67
330
2
100
AcDbSymbolTableRecord
100
AcDbLayerTableRecord
  2
OBJ
 70
     0
 62
     5
  6
Continuous
370
    -3
390
F
  0
LAYER
  5
68
330
2
100
AcDbSymbolTableRecord
100
AcDbLayerTableRecord
  2
SLD-DEFPOINTS
 70
     0
 62
     7
  6
Continuous
370
    -3
390
F
  0
LAYER
  5
69
330
2
100
AcDbSymbolTableRecord
100
AcDbLayerTableRecord
  2
HID
 70
     0
 62
     4
  6
HIDDEN
370
    -3
390
F
  0
LAYER
  5
6A
330
2
100
AcDbSymbolTableRecord
100
AcDbLayerTableRecord
  2
NOTE
 70
     0
 62
     7
  6
Continuous
370
    -3
390
F
  0
LAYER
  5
6B
330
2
100
AcDbSymbolTableRecord
100
AcDbLayerTableRecord
  2
TITLE
 70
     0
 62
     7
  6
Continuous
370
    -3
390
F
  0
LAYER
  5
6C
330
2
100
AcDbSymbolTableRecord
100
AcDbLayerTableRecord
  2
THICK_TITLE
 70
     0
 62
     7
  6
Continuous
370
   100
390
F
  0
ENDTAB
  0
TABLE
  2
STYLE
  5
3
330
0
100
AcDbSymbolTable
 70
     2
  0
STYLE
  5
11
330
3
100
AcDbSymbolTableRecord
100
AcDbTextStyleTableRecord
  2
Standard
 70
     0
 40
0.0
 41
1.0
 50
0.0
 71
     0
 42
0.25
  3
txt
  4

  0
STYLE
  5
6D
330
3
100
AcDbSymbolTableRecord
100
AcDbTextStyleTableRecord
  2
SLDTEXTSTYLE0
 70
     0
 40
0.0
 41
0.75
 50
0.0
 71
     0
 42
0.25
  3
TXT
  4

  0
ENDTAB
  0
TABLE
  2
VIEW
  5
6
330
0
100
AcDbSymbolTable
 70
     0
  0
ENDTAB
  0
TABLE
  2
UCS
  5
7
330
0
100
AcDbSymbolTable
 70
     0
  0
ENDTAB
  0
TABLE
  2
APPID
  5
9
330
0
100
AcDbSymbolTable
 70
     1
  0
APPID
  5
12
330
9
100
AcDbSymbolTableRecord
100
AcDbRegAppTableRecord
  2
ACAD
 70
     0
  0
ENDTAB
  0
TABLE
  2
DIMSTYLE
  5
A
330
0
100
AcDbSymbolTable
 70
     6
100
AcDbDimStyleTable
  0
DIMSTYLE
105
27
330
A
100
AcDbSymbolTableRecord
100
AcDbDimStyleTableRecord
  2
Standard
 70
     0
178
     0
340
11
  0
DIMSTYLE
105
77
102
{ACAD_REACTORS
330
76
102
}
330
A
100
AcDbSymbolTableRecord
100
AcDbDimStyleTableRecord
  2
SLDDIMSTYLE0
 70
     0
 41
0.26
 44
0.0
 45
0.000000001
 78
    12
 79
     3
140
0.25
147
0.0625
148
0.000000001
170
     1
172
     1
173
     1
178
     0
271
     6
272
     0
276
     2
277
     5
284
    12
289
     0
340
6D
  0
DIMSTYLE
105
9D
102
{ACAD_REACTORS
330
9C
330
B1
102
}
330
A
100
AcDbSymbolTableRecord
100
AcDbDimStyleTableRecord
  2
SLDDIMSTYLE1
 70
     0
 41
0.26
 44
0.0
 45
0.000000001
 78
    12
 79
     3
140
0.25
147
0.0625
148
0.000000001
170
     1
173
     1
178
     0
271
     0
272
     0
276
     2
277
     5
284
    12
340
6D
  0
DIMSTYLE
105
C6
102
{ACAD_REACTORS
330
C5
102
}
330
A
100
AcDbSymbolTableRecord
100
AcDbDimStyleTableRecord
  2
SLDDIMSTYLE2
 70
     0
 41
0.26
 44
0.0
 45
0.000000001
 78
    12
 79
     3
140
0.25
141
0.0
147
0.0625
148
0.000000001
170
     1
173
     1
178
     0
271
     0
272
     0
276
     2
277
     5
284
    12
340
6D
  0
DIMSTYLE
105
DA
102
{ACAD_REACTORS
330
D9
102
}
330
A
100
AcDbSymbolTableRecord
100
AcDbDimStyleTableRecord
  2
SLDDIMSTYLE3
 70
     0
 41
0.26
 44
0.0
 45
0.000000001
 78
    12
 79
     3
140
0.25
147
0.0625
148
0.000000001
170
     1
173
     1
178
     0
271
     6
272
     0
276
     2
277
     5
284
    12
340
6D
  0
DIMSTYLE
105
F0
330
A
100
AcDbSymbolTableRecord
100
AcDbDimStyleTableRecord
  2
SLDDIMSTYLE4
 70
     0
 41
0.26
 44
0.0
 45
0.000000001
146
0.26
147
0.0
173
     1
178
     0
271
     0
272
     0
276
     2
277
     5
340
11
  0
ENDTAB
  0
TABLE
  2
BLOCK_RECORD
  5
1
330
0
100
AcDbSymbolTable
 70
     8
  0
BLOCK_RECORD
  5
1F
330
1
100
AcDbSymbolTableRecord
100
AcDbBlockTableRecord
  2
*Model_Space
340
22
  0
BLOCK_RECORD
  5
1B
330
1
100
AcDbSymbolTableRecord
100
AcDbBlockTableRecord
  2
*Paper_Space
340
1E
  0
BLOCK_RECORD
  5
23
330
1
100
AcDbSymbolTableRecord
100
AcDbBlockTableRecord
  2
*Paper_Space0
340
26
  0
BLOCK_RECORD
  5
78
330
1
100
AcDbSymbolTableRecord
100
AcDbBlockTableRecord
  2
_D
340
0
  0
BLOCK_RECORD
  5
9E
330
1
100
AcDbSymbolTableRecord
100
AcDbBlockTableRecord
  2
_D_1
340
0
  0
BLOCK_RECORD
  5
B2
330
1
100
AcDbSymbolTableRecord
100
AcDbBlockTableRecord
  2
_D_2
340
0
  0
BLOCK_RECORD
  5
C7
330
1
100
AcDbSymbolTableRecord
100
AcDbBlockTableRecord
  2
_D_3
340
0
  0
BLOCK_RECORD
  5
DB
330
1
100
AcDbSymbolTableRecord
100
AcDbBlockTableRecord
  2
_D_4
340
0
  0
BLOCK_RECORD
  5
F2
330
1
100
AcDbSymbolTableRecord
100
AcDbBlockTableRecord
  2
SW_CENTERMARKSYMBOL_0
340
0
102
{BLKREFS
331
FD
102
}
  0
BLOCK_RECORD
  5
FE
330
1
100
AcDbSymbolTableRecord
100
AcDbBlockTableRecord
  2
SW_CENTERMARKSYMBOL_1
340
0
102
{BLKREFS
331
109
102
}
  0
ENDTAB
  0
ENDSEC
  0
SECTION
  2
BLOCKS
  0
BLOCK
  5
20
330
1F
100
AcDbEntity
  8
0
100
AcDbBlockBegin
  2
*Model_Space
 70
     0
 10
0.0
 20
0.0
 30
0.0
  3
*Model_Space
  1

  0
ENDBLK
  5
21
330
1F
100
AcDbEntity
  8
0
100
AcDbBlockEnd
  0
BLOCK
  5
1C
330
1B
100
AcDbEntity
 67
     1
  8
0
100
AcDbBlockBegin
  2
*Paper_Space
 70
     0
 10
0.0
 20
0.0
 30
0.0
  3
*Paper_Space
  1

  0
ENDBLK
  5
1D
330
1B
100
AcDbEntity
 67
     1
  8
0
100
AcDbBlockEnd
  0
BLOCK
  5
24
330
23
100
AcDbEntity
  8
0
100
AcDbBlockBegin
  2
*Paper_Space0
 70
     0
 10
0.0
 20
0.0
 30
0.0
  3
*Paper_Space0
  1

  0
ENDBLK
  5
25
330
23
100
AcDbEntity
  8
0
100
AcDbBlockEnd
  0
BLOCK
  5
79
330
78
100
AcDbEntity
  8
0
100
AcDbBlockBegin
  2
_D
 70
     0
 10
0.0
 20
0.0
 30
0.0
  3
_D
  1

  0
SOLID
  5
7B
330
78
100
AcDbEntity
  8
SLD-0
100
AcDbTrace
 10
3.5500702516
 20
10.2653291859
 30
0.0
 11
3.2900702516
 21
10.3053291859
 31
0.0
 12
3.2900702516
 22
10.2253291859
 32
0.0
 13
3.2900702516
 23
10.2253291859
 33
0.0
  0
SOLID
  5
7C
330
78
100
AcDbEntity
  8
SLD-0
100
AcDbTrace
 10
3.9250702516
 20
10.2653291859
 30
0.0
 11
4.1850702516
 21
10.2253291859
 31
0.0
 12
4.1850702516
 22
10.3053291859
 32
0.0
 13
4.1850702516
 23
10.3053291859
 33
0.0
  0
LINE
  5
7D
330
78
100
AcDbEntity
  8
SLD-0
100
AcDbLine
 10
4.6697751114
 20
10.2634194246
 30
0.0
 11
4.5936032372
 21
10.2634194246
 31
0.0
  0
LINE
  5
7E
330
78
100
AcDbEntity
  8
SLD-0
100
AcDbLine
 10
4.5936032372
 20
10.2634194246
 30
0.0
 11
4.5936032372
 21
9.8665444127
 31
0.0
  0
LINE
  5
7F
330
78
100
AcDbEntity
  8
SLD-0
100
AcDbLine
 10
4.5936032372
 20
9.8665444127
 30
0.0
 11
4.6697751114
 21
9.8665444127
 31
0.0
  0
LINE
  5
80
330
78
100
AcDbEntity
  8
SLD-0
100
AcDbLine
 10
5.6642195769
 20
10.2634194246
 30
0.0
 11
5.7403914511
 21
10.2634194246
 31
0.0
  0
LINE
  5
81
330
78
100
AcDbEntity
  8
SLD-0
100
AcDbLine
 10
5.7403914511
 20
10.2634194246
 30
0.0
 11
5.7403914511
 21
9.8665444127
 31
0.0
  0
LINE
  5
82
330
78
100
AcDbEntity
  8
SLD-0
100
AcDbLine
 10
5.7403914511
 20
9.8665444127
 30
0.0
 11
5.6642195769
 21
9.8665444127
 31
0.0
  0
LINE
  5
83
330
78
100
AcDbEntity
  8
SLD-0
100
AcDbLine
 10
3.5500702516
 20
9.5779276111
 30
0.0
 11
3.5500702516
 21
10.5153291859
 31
0.0
  0
LINE
  5
84
330
78
100
AcDbEntity
  8
SLD-0
100
AcDbLine
 10
3.9250702516
 20
9.5279276111
 30
0.0
 11
3.9250702516
 21
10.5153291859
 31
0.0
  0
LINE
  5
85
330
78
100
AcDbEntity
  8
SLD-0
100
AcDbLine
 10
3.5500702516
 20
10.2653291859
 30
0.0
 11
3.0500702516
 21
10.2653291859
 31
0.0
  0
LINE
  5
86
330
78
100
AcDbEntity
  8
SLD-0
100
AcDbLine
 10
3.9250702516
 20
10.2653291859
 30
0.0
 11
4.3743758301
 21
10.2653291859
 31
0.0
  0
MTEXT
  5
87
330
78
100
AcDbEntity
  8
SLD-0
100
AcDbMText
 10
4.5188202516
 20
10.6402870796
 30
0.0
 40
0.25
 41
0.0
 71
     1
 72
     1
  1

  7
SLDTEXTSTYLE0
 73
     1
 44
1.0
  0
MTEXT
  5
88
330
78
100
AcDbEntity
  8
SLD-0
100
AcDbMText
 10
4.8577959211
 20
10.6364676167
 30
0.0
 40
0.25
 41
0.0
 71
     1
 72
     1
  1
3/8"
  7
SLDTEXTSTYLE0
 73
     1
 44
1.0
  0
MTEXT
  5
89
330
78
100
AcDbEntity
  8
SLD-0
100
AcDbMText
 10
4.6697751114
 20
10.1888113751
 30
0.0
 40
0.25
 41
0.0
 71
     1
 72
     1
  1
10mm
  7
SLDTEXTSTYLE0
 73
     1
 44
1.0
  0
MTEXT
  5
8A
330
78
100
AcDbEntity
  8
SLD-0
100
AcDbMText
 10
5.9103132703
 20
10.6402870796
 30
0.0
 40
0.25
 41
0.0
 71
     1
 72
     1
  1

  7
SLDTEXTSTYLE0
 73
     1
 44
1.0
  0
ENDBLK
  5
7A
330
78
100
AcDbEntity
  8
0
100
AcDbBlockEnd
  0
BLOCK
  5
9F
330
9E
100
AcDbEntity
  8
0
100
AcDbBlockBegin
  2
_D_1
 70
     0
 10
0.0
 20
0.0
 30
0.0
  3
_D_1
  1

  0
SOLID
  5
A1
330
9E
100
AcDbEntity
  8
SLD-0
100
AcDbTrace
 10
7.5768421487
 20
4.4779276111
 30
0.0
 11
7.6168421487
 21
4.7379276111
 31
0.0
 12
7.5368421487
 22
4.7379276111
 32
0.0
 13
7.5368421487
 23
4.7379276111
 33
0.0
  0
SOLID
  5
A2
330
9E
100
AcDbEntity
  8
SLD-0
100
AcDbTrace
 10
7.5768421487
 20
9.4779276111
 30
0.0
 11
7.5368421487
 21
9.2179276111
 31
0.0
 12
7.6168421487
 22
9.2179276111
 32
0.0
 13
7.6168421487
 23
9.2179276111
 33
0.0
  0
LINE
  5
A3
330
9E
100
AcDbEntity
  8
SLD-0
100
AcDbLine
 10
6.9872588597
 20
6.9760178498
 30
0.0
 11
6.9110869854
 21
6.9760178498
 31
0.0
  0
LINE
  5
A4
330
9E
100
AcDbEntity
  8
SLD-0
100
AcDbLine
 10
6.9110869854
 20
6.9760178498
 30
0.0
 11
6.9110869854
 21
6.5791428379
 31
0.0
  0
LINE
  5
A5
330
9E
100
AcDbEntity
  8
SLD-0
100
AcDbLine
 10
6.9110869854
 20
6.5791428379
 30
0.0
 11
6.9872588597
 21
6.5791428379
 31
0.0
  0
LINE
  5
A6
330
9E
100
AcDbEntity
  8
SLD-0
100
AcDbLine
 10
8.1664255112
 20
6.9760178498
 30
0.0
 11
8.2425973854
 21
6.9760178498
 31
0.0
  0
LINE
  5
A7
330
9E
100
AcDbEntity
  8
SLD-0
100
AcDbLine
 10
8.2425973854
 20
6.9760178498
 30
0.0
 11
8.2425973854
 21
6.5791428379
 31
0.0
  0
LINE
  5
A8
330
9E
100
AcDbEntity
  8
SLD-0
100
AcDbLine
 10
8.2425973854
 20
6.5791428379
 30
0.0
 11
8.1664255112
 21
6.5791428379
 31
0.0
  0
LINE
  5
A9
330
9E
100
AcDbEntity
  8
SLD-0
100
AcDbLine
 10
8.7366846684
 20
4.4779276111
 30
0.0
 11
7.3268421487
 21
4.4779276111
 31
0.0
  0
LINE
  5
AA
330
9E
100
AcDbEntity
  8
SLD-0
100
AcDbLine
 10
8.7366846684
 20
9.4779276111
 30
0.0
 11
7.3268421487
 21
9.4779276111
 31
0.0
  0
LINE
  5
AB
330
9E
100
AcDbEntity
  8
SLD-0
100
AcDbLine
 10
7.5768421487
 20
4.4779276111
 30
0.0
 11
7.5768421487
 21
6.5283616678
 31
0.0
  0
LINE
  5
AC
330
9E
100
AcDbEntity
  8
SLD-0
100
AcDbLine
 10
7.5768421487
 20
9.4779276111
 30
0.0
 11
7.5768421487
 21
7.4274935543
 31
0.0
  0
MTEXT
  5
AD
330
9E
100
AcDbEntity
  8
SLD-0
100
AcDbMText
 10
6.8363039999
 20
7.3528855048
 30
0.0
 40
0.25
 41
0.0
 71
     1
 72
     1
  1

  7
SLDTEXTSTYLE0
 73
     1
 44
1.0
  0
MTEXT
  5
AE
330
9E
100
AcDbEntity
  8
SLD-0
100
AcDbMText
 10
7.4329185555
 20
7.3490660418
 30
0.0
 40
0.25
 41
0.0
 71
     1
 72
     1
  1
5"
  7
SLDTEXTSTYLE0
 73
     1
 44
1.0
  0
MTEXT
  5
AF
330
9E
100
AcDbEntity
  8
SLD-0
100
AcDbMText
 10
6.9872588597
 20
6.9014098003
 30
0.0
 40
0.25
 41
0.0
 71
     1
 72
     1
  1
127mm
  7
SLDTEXTSTYLE0
 73
     1
 44
1.0
  0
MTEXT
  5
B0
330
9E
100
AcDbEntity
  8
SLD-0
100
AcDbMText
 10
8.4125192046
 20
7.3528855048
 30
0.0
 40
0.25
 41
0.0
 71
     1
 72
     1
  1

  7
SLDTEXTSTYLE0
 73
     1
 44
1.0
  0
ENDBLK
  5
A0
330
9E
100
AcDbEntity
  8
0
100
AcDbBlockEnd
  0
BLOCK
  5
B3
330
B2
100
AcDbEntity
  8
0
100
AcDbBlockBegin
  2
_D_2
 70
     0
 10
0.0
 20
0.0
 30
0.0
  3
_D_2
  1

  0
SOLID
  5
B5
330
B2
100
AcDbEntity
  8
SLD-0
100
AcDbTrace
 10
8.8366846684
 20
10.2653291859
 30
0.0
 11
9.0966846684
 21
10.2253291859
 31
0.0
 12
9.0966846684
 22
10.3053291859
 32
0.0
 13
9.0966846684
 23
10.3053291859
 33
0.0
  0
SOLID
  5
B6
330
B2
100
AcDbEntity
  8
SLD-0
100
AcDbTrace
 10
11.8366846684
 20
10.2653291859
 30
0.0
 11
11.5766846684
 21
10.3053291859
 31
0.0
 12
11.5766846684
 22
10.2253291859
 32
0.0
 13
11.5766846684
 23
10.2253291859
 33
0.0
  0
LINE
  5
B7
330
B2
100
AcDbEntity
  8
SLD-0
100
AcDbLine
 10
9.8394624724
 20
10.2634194246
 30
0.0
 11
9.7632905982
 21
10.2634194246
 31
0.0
  0
LINE
  5
B8
330
B2
100
AcDbEntity
  8
SLD-0
100
AcDbLine
 10
9.7632905982
 20
10.2634194246
 30
0.0
 11
9.7632905982
 21
9.8665444127
 31
0.0
  0
LINE
  5
B9
330
B2
100
AcDbEntity
  8
SLD-0
100
AcDbLine
 10
9.7632905982
 20
9.8665444127
 30
0.0
 11
9.8394624724
 21
9.8665444127
 31
0.0
  0
LINE
  5
BA
330
B2
100
AcDbEntity
  8
SLD-0
100
AcDbLine
 10
10.8339069378
 20
10.2634194246
 30
0.0
 11
10.910078812
 21
10.2634194246
 31
0.0
  0
LINE
  5
BB
330
B2
100
AcDbEntity
  8
SLD-0
100
AcDbLine
 10
10.910078812
 20
10.2634194246
 30
0.0
 11
10.910078812
 21
9.8665444127
 31
0.0
  0
LINE
  5
BC
330
B2
100
AcDbEntity
  8
SLD-0
100
AcDbLine
 10
10.910078812
 20
9.8665444127
 30
0.0
 11
10.8339069378
 21
9.8665444127
 31
0.0
  0
LINE
  5
BD
330
B2
100
AcDbEntity
  8
SLD-0
100
AcDbLine
 10
8.8366846684
 20
9.5779276111
 30
0.0
 11
8.8366846684
 21
10.5153291859
 31
0.0
  0
LINE
  5
BE
330
B2
100
AcDbEntity
  8
SLD-0
100
AcDbLine
 10
11.8366846684
 20
9.5779276111
 30
0.0
 11
11.8366846684
 21
10.5153291859
 31
0.0
  0
LINE
  5
BF
330
B2
100
AcDbEntity
  8
SLD-0
100
AcDbLine
 10
8.8366846684
 20
10.2653291859
 30
0.0
 11
9.5440631911
 21
10.2653291859
 31
0.0
  0
LINE
  5
C0
330
B2
100
AcDbEntity
  8
SLD-0
100
AcDbLine
 10
11.8366846684
 20
10.2653291859
 30
0.0
 11
11.1293061458
 21
10.2653291859
 31
0.0
  0
MTEXT
  5
C1
330
B2
100
AcDbEntity
  8
SLD-0
100
AcDbMText
 10
9.6885076126
 20
10.6402870796
 30
0.0
 40
0.25
 41
0.0
 71
     1
 72
     1
  1

  7
SLDTEXTSTYLE0
 73
     1
 44
1.0
  0
MTEXT
  5
C2
330
B2
100
AcDbEntity
  8
SLD-0
100
AcDbMText
 10
10.1927610752
 20
10.6364676167
 30
0.0
 40
0.25
 41
0.0
 71
     1
 72
     1
  1
3"
  7
SLDTEXTSTYLE0
 73
     1
 44
1.0
  0
MTEXT
  5
C3
330
B2
100
AcDbEntity
  8
SLD-0
100
AcDbMText
 10
9.8394624724
 20
10.1888113751
 30
0.0
 40
0.25
 41
0.0
 71
     1
 72
     1
  1
76mm
  7
SLDTEXTSTYLE0
 73
     1
 44
1.0
  0
MTEXT
  5
C4
330
B2
100
AcDbEntity
  8
SLD-0
100
AcDbMText
 10
11.0800006313
 20
10.6402870796
 30
0.0
 40
0.25
 41
0.0
 71
     1
 72
     1
  1

  7
SLDTEXTSTYLE0
 73
     1
 44
1.0
  0
ENDBLK
  5
B4
330
B2
100
AcDbEntity
  8
0
100
AcDbBlockEnd
  0
BLOCK
  5
C8
330
C7
100
AcDbEntity
  8
0
100
AcDbBlockBegin
  2
_D_3
 70
     0
 10
0.0
 20
0.0
 30
0.0
  3
_D_3
  1

  0
SOLID
  5
CA
330
C7
100
AcDbEntity
  8
SLD-0
100
AcDbTrace
 10
10.1789836188
 20
6.5865015274
 30
0.0
 11
10.0447198363
 21
6.3602865043
 31
0.0
 12
10.1189238332
 22
6.3303905707
 32
0.0
 13
10.1189238332
 23
6.3303905707
 33
0.0
  0
LINE
  5
CB
330
C7
100
AcDbEntity
  8
SLD-0
100
AcDbLine
 10
6.4387898746
 20
4.2282407874
 30
0.0
 11
6.3626180004
 21
4.2282407874
 31
0.0
  0
LINE
  5
CC
330
C7
100
AcDbEntity
  8
SLD-0
100
AcDbLine
 10
6.3626180004
 20
4.2282407874
 30
0.0
 11
6.3626180004
 21
3.8313657755
 31
0.0
  0
LINE
  5
CD
330
C7
100
AcDbEntity
  8
SLD-0
100
AcDbLine
 10
6.3626180004
 20
3.8313657755
 30
0.0
 11
6.4387898746
 21
3.8313657755
 31
0.0
  0
LINE
  5
CE
330
C7
100
AcDbEntity
  8
SLD-0
100
AcDbLine
 10
7.43323434
 20
4.2282407874
 30
0.0
 11
7.5094062142
 21
4.2282407874
 31
0.0
  0
LINE
  5
CF
330
C7
100
AcDbEntity
  8
SLD-0
100
AcDbLine
 10
7.5094062142
 20
4.2282407874
 30
0.0
 11
7.5094062142
 21
3.8313657755
 31
0.0
  0
LINE
  5
D0
330
C7
100
AcDbEntity
  8
SLD-0
100
AcDbLine
 10
7.5094062142
 20
3.8313657755
 30
0.0
 11
7.43323434
 21
3.8313657755
 31
0.0
  0
LINE
  5
D1
330
C7
100
AcDbEntity
  8
SLD-0
100
AcDbLine
 10
10.1789836188
 20
6.5865015274
 30
0.0
 11
8.9685638848
 21
3.5821470399
 31
0.0
  0
LINE
  5
D2
330
C7
100
AcDbEntity
  8
SLD-0
100
AcDbLine
 10
8.9685638848
 20
3.5821470399
 30
0.0
 11
8.4244059949
 21
3.5821470399
 31
0.0
  0
MTEXT
  5
D3
330
C7
100
AcDbEntity
  8
SLD-0
100
AcDbMText
 10
5.2910121122
 20
4.1498132933
 30
0.0
 40
0.25
 41
0.0
 71
     1
 72
     1
  1
%%c
  7
SLDTEXTSTYLE0
 73
     1
 44
1.0
  0
MTEXT
  5
D4
330
C7
100
AcDbEntity
  8
SLD-0
100
AcDbMText
 10
5.6680433533
 20
4.1536327379
 30
0.0
 40
0.25
 41
0.0
 71
     1
 72
     1
  1
7/8"
  7
SLDTEXTSTYLE0
 73
     1
 44
1.0
  0
MTEXT
  5
D5
330
C7
100
AcDbEntity
  8
SLD-0
100
AcDbMText
 10
6.4387898746
 20
4.1536327379
 30
0.0
 40
0.25
 41
0.0
 71
     1
 72
     1
  1
21mm
  7
SLDTEXTSTYLE0
 73
     1
 44
1.0
  0
MTEXT
  5
D6
330
C7
100
AcDbEntity
  8
SLD-0
100
AcDbMText
 10
7.6793281251
 20
4.1536327379
 30
0.0
 40
0.25
 41
0.0
 71
     1
 72
     1
  1
THRU
  7
SLDTEXTSTYLE0
 73
     1
 44
1.0
  0
MTEXT
  5
D7
330
C7
100
AcDbEntity
  8
SLD-0
100
AcDbMText
 10
5.335170002
 20
3.7059764826
 30
0.0
 40
0.25
 41
0.0
 71
     1
 72
     1
  1
FIXTURE MOUNTING
  7
SLDTEXTSTYLE0
 73
     1
 44
1.0
  0
MTEXT
  5
D8
330
C7
100
AcDbEntity
  8
SLD-0
100
AcDbMText
 10
6.4547879981
 20
3.3091014707
 30
0.0
 40
0.25
 41
0.0
 71
     1
 72
     1
  1
HOLE
  7
SLDTEXTSTYLE0
 73
     1
 44
1.0
  0
ENDBLK
  5
C9
330
C7
100
AcDbEntity
  8
0
100
AcDbBlockEnd
  0
BLOCK
  5
DC
330
DB
100
AcDbEntity
  8
0
100
AcDbBlockBegin
  2
_D_4
 70
     0
 10
0.0
 20
0.0
 30
0.0
  3
_D_4
  1

  0
SOLID
  5
DE
330
DB
100
AcDbEntity
  8
SLD-0
100
AcDbTrace
 10
12.6240862432
 20
8.6339276111
 30
0.0
 11
12.5840862432
 21
8.3739276111
 31
0.0
 12
12.6640862432
 22
8.3739276111
 32
0.0
 13
12.6640862432
 23
8.3739276111
 33
0.0
  0
SOLID
  5
DF
330
DB
100
AcDbEntity
  8
SLD-0
100
AcDbTrace
 10
12.6240862432
 20
5.3219276111
 30
0.0
 11
12.6640862432
 21
5.5819276111
 31
0.0
 12
12.5840862432
 22
5.5819276111
 32
0.0
 13
12.5840862432
 23
5.5819276111
 33
0.0
  0
LINE
  5
E0
330
DB
100
AcDbEntity
  8
SLD-0
100
AcDbLine
 10
12.1268640472
 20
6.9760178498
 30
0.0
 11
12.050692173
 21
6.9760178498
 31
0.0
  0
LINE
  5
E1
330
DB
100
AcDbEntity
  8
SLD-0
100
AcDbLine
 10
12.050692173
 20
6.9760178498
 30
0.0
 11
12.050692173
 21
6.5791428379
 31
0.0
  0
LINE
  5
E2
330
DB
100
AcDbEntity
  8
SLD-0
100
AcDbLine
 10
12.050692173
 20
6.5791428379
 30
0.0
 11
12.1268640472
 21
6.5791428379
 31
0.0
  0
LINE
  5
E3
330
DB
100
AcDbEntity
  8
SLD-0
100
AcDbLine
 10
13.1213085126
 20
6.9760178498
 30
0.0
 11
13.1974803868
 21
6.9760178498
 31
0.0
  0
LINE
  5
E4
330
DB
100
AcDbEntity
  8
SLD-0
100
AcDbLine
 10
13.1974803868
 20
6.9760178498
 30
0.0
 11
13.1974803868
 21
6.5791428379
 31
0.0
  0
LINE
  5
E5
330
DB
100
AcDbEntity
  8
SLD-0
100
AcDbLine
 10
13.1974803868
 20
6.5791428379
 30
0.0
 11
13.1213085126
 21
6.5791428379
 31
0.0
  0
LINE
  5
E6
330
DB
100
AcDbEntity
  8
SLD-0
100
AcDbLine
 10
10.6866846684
 20
8.6339276111
 30
0.0
 11
12.8740862432
 21
8.6339276111
 31
0.0
  0
LINE
  5
E7
330
DB
100
AcDbEntity
  8
SLD-0
100
AcDbLine
 10
10.6866846684
 20
5.3219276111
 30
0.0
 11
12.8740862432
 21
5.3219276111
 31
0.0
  0
LINE
  5
E8
330
DB
100
AcDbEntity
  8
SLD-0
100
AcDbLine
 10
12.6240862432
 20
8.6339276111
 30
0.0
 11
12.6240862432
 21
7.4274935543
 31
0.0
  0
LINE
  5
E9
330
DB
100
AcDbEntity
  8
SLD-0
100
AcDbLine
 10
12.6240862432
 20
5.3219276111
 30
0.0
 11
12.6240862432
 21
6.5283616678
 31
0.0
  0
MTEXT
  5
EA
330
DB
100
AcDbEntity
  8
SLD-0
100
AcDbMText
 10
11.9759091874
 20
7.3528855048
 30
0.0
 40
0.25
 41
0.0
 71
     1
 72
     1
  1

  7
SLDTEXTSTYLE0
 73
     1
 44
1.0
  0
MTEXT
  5
EB
330
DB
100
AcDbEntity
  8
SLD-0
100
AcDbMText
 10
12.0839820876
 20
7.3490660418
 30
0.0
 40
0.25
 41
0.0
 71
     1
 72
     1
  1
3 5/16"
  7
SLDTEXTSTYLE0
 73
     1
 44
1.0
  0
MTEXT
  5
EC
330
DB
100
AcDbEntity
  8
SLD-0
100
AcDbMText
 10
12.1268640472
 20
6.9014098003
 30
0.0
 40
0.25
 41
0.0
 71
     1
 72
     1
  1
84mm
  7
SLDTEXTSTYLE0
 73
     1
 44
1.0
  0
MTEXT
  5
ED
330
DB
100
AcDbEntity
  8
SLD-0
100
AcDbMText
 10
13.3674022061
 20
7.3528855048
 30
0.0
 40
0.25
 41
0.0
 71
     1
 72
     1
  1

  7
SLDTEXTSTYLE0
 73
     1
 44
1.0
  0
ENDBLK
  5
DD
330
DB
100
AcDbEntity
  8
0
100
AcDbBlockEnd
  0
BLOCK
  5
F3
330
F2
100
AcDbEntity
  8
0
100
AcDbBlockBegin
  2
SW_CENTERMARKSYMBOL_0
 70
     0
 10
0.0
 20
0.0
 30
0.0
  3
SW_CENTERMARKSYMBOL_0
  1

  0
LINE
  5
F5
330
F2
100
AcDbEntity
  8
SLD-0
 62
     0
100
AcDbLine
 10
0.0
 20
0.0
 30
0.0
 11
0.0
 21
0.1
 31
0.0
  0
LINE
  5
F6
330
F2
100
AcDbEntity
  8
SLD-0
 62
     0
100
AcDbLine
 10
0.0
 20
0.0
 30
0.0
 11
-0.1
 21
0.0
 31
0.0
  0
LINE
  5
F7
330
F2
100
AcDbEntity
  8
SLD-0
 62
     0
100
AcDbLine
 10
0.0
 20
0.0
 30
0.0
 11
0.0
 21
-0.1
 31
0.0
  0
LINE
  5
F8
330
F2
100
AcDbEntity
  8
SLD-0
 62
     0
100
AcDbLine
 10
0.0
 20
0.0
 30
0.0
 11
0.1
 21
0.0
 31
0.0
  0
LINE
  5
F9
330
F2
100
AcDbEntity
  8
SLD-0
 62
     0
100
AcDbLine
 10
0.0
 20
0.2
 30
0.0
 11
0.0
 21
0.25
 31
0.0
  0
LINE
  5
FA
330
F2
100
AcDbEntity
  8
SLD-0
 62
     0
100
AcDbLine
 10
-0.2
 20
0.0
 30
0.0
 11
-0.25
 21
0.0
 31
0.0
  0
LINE
  5
FB
330
F2
100
AcDbEntity
  8
SLD-0
 62
     0
100
AcDbLine
 10
0.0
 20
-0.2
 30
0.0
 11
0.0
 21
-1.715524394
 31
0.0
  0
LINE
  5
FC
330
F2
100
AcDbEntity
  8
SLD-0
 62
     0
100
AcDbLine
 10
0.2
 20
0.0
 30
0.0
 11
0.25
 21
0.0
 31
0.0
  0
ENDBLK
  5
F4
330
F2
100
AcDbEntity
  8
0
100
AcDbBlockEnd
  0
BLOCK
  5
FF
330
FE
100
AcDbEntity
  8
0
100
AcDbBlockBegin
  2
SW_CENTERMARKSYMBOL_1
 70
     0
 10
0.0
 20
0.0
 30
0.0
  3
SW_CENTERMARKSYMBOL_1
  1

  0
LINE
  5
101
330
FE
100
AcDbEntity
  8
SLD-0
 62
     0
100
AcDbLine
 10
0.0
 20
0.0
 30
0.0
 11
0.0
 21
0.1
 31
0.0
  0
LINE
  5
102
330
FE
100
AcDbEntity
  8
SLD-0
 62
     0
100
AcDbLine
 10
0.0
 20
0.0
 30
0.0
 11
-0.1
 21
0.0
 31
0.0
  0
LINE
  5
103
330
FE
100
AcDbEntity
  8
SLD-0
 62
     0
100
AcDbLine
 10
0.0
 20
0.0
 30
0.0
 11
0.0
 21
-0.1
 31
0.0
  0
LINE
  5
104
330
FE
100
AcDbEntity
  8
SLD-0
 62
     0
100
AcDbLine
 10
0.0
 20
0.0
 30
0.0
 11
0.1
 21
0.0
 31
0.0
  0
LINE
  5
105
330
FE
100
AcDbEntity
  8
SLD-0
 62
     0
100
AcDbLine
 10
0.0
 20
0.2
 30
0.0
 11
0.0
 21
1.6073710372
 31
0.0
  0
LINE
  5
106
330
FE
100
AcDbEntity
  8
SLD-0
 62
     0
100
AcDbLine
 10
-0.2
 20
0.0
 30
0.0
 11
-0.25
 21
0.0
 31
0.0
  0
LINE
  5
107
330
FE
100
AcDbEntity
  8
SLD-0
 62
     0
100
AcDbLine
 10
0.0
 20
-0.2
 30
0.0
 11
0.0
 21
-0.25
 31
0.0
  0
LINE
  5
108
330
FE
100
AcDbEntity
  8
SLD-0
 62
     0
100
AcDbLine
 10
0.2
 20
0.0
 30
0.0
 11
0.25
 21
0.0
 31
0.0
  0
ENDBLK
  5
100
330
FE
100
AcDbEntity
  8
0
100
AcDbBlockEnd
  0
ENDSEC
  0
SECTION
  2
ENTITIES
  0
MTEXT
  5
6E
330
1F
100
AcDbEntity
  8
SLD-0
100
AcDbMText
 10
17.5084710744
 20
1.6865019925
 30
0.0
 40
0.25
 41
0.0
 71
     1
 72
     1
  1
BC10
  7
SLDTEXTSTYLE0
 73
     1
 44
1.0
  0
LINE
  5
6F
330
1F
100
AcDbEntity
  8
0
  6
Continuous
 62
     7
370
    25
100
AcDbLine
 10
3.5500702516
 20
9.4779276111
 30
0.0
 11
3.5500702516
 21
4.4779276111
 31
0.0
  0
LINE
  5
70
330
1F
100
AcDbEntity
  8
0
  6
Continuous
 62
     7
370
    25
100
AcDbLine
 10
3.8750702516
 20
9.4779276111
 30
0.0
 11
3.5500702516
 21
9.4779276111
 31
0.0
  0
LINE
  5
71
330
1F
100
AcDbEntity
  8
0
  6
Continuous
 62
     7
370
    25
100
AcDbLine
 10
3.8750702516
 20
4.4779276111
 30
0.0
 11
3.8750702516
 21
9.4779276111
 31
0.0
  0
LINE
  5
72
330
1F
100
AcDbEntity
  8
0
  6
Continuous
 62
     7
370
    25
100
AcDbLine
 10
3.8750702516
 20
4.4779276111
 30
0.0
 11
3.5500702516
 21
4.4779276111
 31
0.0
  0
LINE
  5
73
330
1F
100
AcDbEntity
  8
0
  6
Continuous
 62
     7
370
    25
100
AcDbLine
 10
3.8750702516
 20
9.4779276111
 30
0.0
 11
3.9250702516
 21
9.4279276111
 31
0.0
  0
LINE
  5
74
330
1F
100
AcDbEntity
  8
0
  6
Continuous
 62
     7
370
    25
100
AcDbLine
 10
3.9250702516
 20
9.4279276111
 30
0.0
 11
3.9250702516
 21
4.5279276111
 31
0.0
  0
LINE
  5
75
330
1F
100
AcDbEntity
  8
0
  6
Continuous
 62
     7
370
    25
100
AcDbLine
 10
3.8750702516
 20
4.4779276111
 30
0.0
 11
3.9250702516
 21
4.5279276111
 31
0.0
  0
DIMENSION
  5
76
330
1F
100
AcDbEntity
  8
SLD-0
100
AcDbDimension
  2
_D
 10
3.9250702516
 20
10.2653291859
 30
0.0
 11
5.1669973075
 21
10.2653291859
 31
0.0
 70
   160
  1
<>
 71
     2
 42
-1.0
  3
SLDDIMSTYLE0
100
AcDbAlignedDimension
 13
3.5500702516
 23
9.4779276111
 33
0.0
 14
3.9250702516
 24
9.4279276111
 34
0.0
 50
0.0
100
AcDbRotatedDimension
  0
LINE
  5
8B
330
1F
100
AcDbEntity
  8
0
  6
Continuous
 62
     7
370
    25
100
AcDbLine
 10
11.7866846684
 20
9.4279276111
 30
0.0
 11
8.8866846684
 21
9.4279276111
 31
0.0
  0
LINE
  5
8C
330
1F
100
AcDbEntity
  8
0
  6
Continuous
 62
     7
370
    25
100
AcDbLine
 10
8.8366846684
 20
9.4779276111
 30
0.0
 11
8.8866846684
 21
9.4279276111
 31
0.0
  0
LINE
  5
8D
330
1F
100
AcDbEntity
  8
0
  6
Continuous
 62
     7
370
    25
100
AcDbLine
 10
8.8366846684
 20
9.4779276111
 30
0.0
 11
11.8366846684
 21
9.4779276111
 31
0.0
  0
LINE
  5
8E
330
1F
100
AcDbEntity
  8
0
  6
Continuous
 62
     7
370
    25
100
AcDbLine
 10
11.7866846684
 20
9.4279276111
 30
0.0
 11
11.8366846684
 21
9.4779276111
 31
0.0
  0
LINE
  5
8F
330
1F
100
AcDbEntity
  8
0
  6
Continuous
 62
     7
370
    25
100
AcDbLine
 10
8.8366846684
 20
4.4779276111
 30
0.0
 11
8.8366846684
 21
9.4779276111
 31
0.0
  0
LINE
  5
90
330
1F
100
AcDbEntity
  8
0
  6
Continuous
 62
     7
370
    25
100
AcDbLine
 10
8.8866846684
 20
9.4279276111
 30
0.0
 11
8.8866846684
 21
4.5279276111
 31
0.0
  0
LINE
  5
91
330
1F
100
AcDbEntity
  8
0
  6
Continuous
 62
     7
370
    25
100
AcDbLine
 10
8.8366846684
 20
4.4779276111
 30
0.0
 11
8.8866846684
 21
4.5279276111
 31
0.0
  0
LINE
  5
92
330
1F
100
AcDbEntity
  8
0
  6
Continuous
 62
     7
370
    25
100
AcDbLine
 10
11.7866846684
 20
4.5279276111
 30
0.0
 11
11.7866846684
 21
9.4279276111
 31
0.0
  0
LINE
  5
93
330
1F
100
AcDbEntity
  8
0
  6
Continuous
 62
     7
370
    25
100
AcDbLine
 10
11.8366846684
 20
9.4779276111
 30
0.0
 11
11.8366846684
 21
4.4779276111
 31
0.0
  0
LINE
  5
94
330
1F
100
AcDbEntity
  8
0
  6
Continuous
 62
     7
370
    25
100
AcDbLine
 10
11.7866846684
 20
4.5279276111
 30
0.0
 11
11.8366846684
 21
4.4779276111
 31
0.0
  0
CIRCLE
  5
95
330
1F
100
AcDbEntity
  8
0
  6
Continuous
 62
     7
370
    25
100
AcDbCircle
 10
10.3366846684
 20
6.9779276111
 30
0.0
 40
0.4220000000000006
  0
LINE
  5
96
330
1F
100
AcDbEntity
  8
0
  6
Continuous
 62
     7
370
    25
100
AcDbLine
 10
8.8866846684
 20
4.5279276111
 30
0.0
 11
11.7866846684
 21
4.5279276111
 31
0.0
  0
CIRCLE
  5
97
330
1F
100
AcDbEntity
  8
0
  6
Continuous
 62
     7
370
    25
100
AcDbCircle
 10
10.3366846684
 20
5.3219276111
 30
0.0
 40
0.1500000000000004
  0
CIRCLE
  5
98
330
1F
100
AcDbEntity
  8
0
  6
Continuous
 62
     7
370
    25
100
AcDbCircle
 10
10.3366846684
 20
8.6339276111
 30
0.0
 40
0.1500000000000004
  0
CIRCLE
  5
99
330
1F
100
AcDbEntity
  8
0
  6
Continuous
 62
     7
370
    25
100
AcDbCircle
 10
10.3366846684
 20
8.6339276111
 30
0.0
 40
0.0860000000000003
  0
CIRCLE
  5
9A
330
1F
100
AcDbEntity
  8
0
  6
Continuous
 62
     7
370
    25
100
AcDbCircle
 10
10.3366846684
 20
5.3219276111
 30
0.0
 40
0.0860000000000003
  0
LINE
  5
9B
330
1F
100
AcDbEntity
  8
0
  6
Continuous
 62
     7
370
    25
100
AcDbLine
 10
11.8366846684
 20
4.4779276111
 30
0.0
 11
8.8366846684
 21
4.4779276111
 31
0.0
  0
DIMENSION
  5
9C
330
1F
100
AcDbEntity
  8
SLD-0
100
AcDbDimension
  2
_D_1
 10
7.5768421487
 20
9.4779276111
 30
0.0
 11
7.5768421487
 21
6.9779276111
 31
0.0
 70
   160
  1
<>
 71
     2
 42
-1.0
  3
SLDDIMSTYLE1
100
AcDbAlignedDimension
 13
8.8366846684
 23
4.4779276111
 33
0.0
 14
8.8366846684
 24
9.4779276111
 34
0.0
 50
90.0
100
AcDbRotatedDimension
  0
DIMENSION
  5
B1
330
1F
100
AcDbEntity
  8
SLD-0
100
AcDbDimension
  2
_D_2
 10
11.8366846684
 20
10.2653291859
 30
0.0
 11
10.3366846684
 21
10.2653291859
 31
0.0
 70
   160
  1
<>
 71
     2
 42
-1.0
  3
SLDDIMSTYLE1
100
AcDbAlignedDimension
 13
8.8366846684
 23
9.4779276111
 33
0.0
 14
11.8366846684
 24
9.4779276111
 34
0.0
100
AcDbRotatedDimension
  0
DIMENSION
  5
C5
330
1F
100
AcDbEntity
  8
SLD-0
100
AcDbDimension
  2
_D_3
 10
10.494385718
 20
7.3693536947
 30
0.0
 11
6.8797879985
 21
3.6329282878
 31
0.0
 70
   163
  1
<> THRU\PFIXTURE MOUNTING\PHOLE
 71
     1
 42
-1.0
  3
SLDDIMSTYLE2
100
AcDbDiametricDimension
 15
10.1789836188
 25
6.5865015274
 35
0.0
 40
0.0
  0
DIMENSION
  5
D9
330
1F
100
AcDbEntity
  8
SLD-0
100
AcDbDimension
  2
_D_4
 10
12.6240862432
 20
5.3219276111
 30
0.0
 11
12.6240862432
 21
6.9779276111
 31
0.0
 70
   160
  1
<>
 71
     2
 42
-1.0
  3
SLDDIMSTYLE3
100
AcDbAlignedDimension
 13
10.5866846684
 23
8.6339276111
 33
0.0
 14
10.5866846684
 24
5.3219276111
 34
0.0
 50
90.0
100
AcDbRotatedDimension
  0
MTEXT
  5
EE
330
1F
100
AcDbEntity
  8
SLD-0
100
AcDbMText
 10
15.7207154215
 20
9.6240706734
 30
0.0
 40
0.25
 41
0.0
 71
     2
 72
     1
  1
2X #6-32 CLEARANCE HOLES
  7
SLDTEXTSTYLE0
 73
     1
 44
1.0
  0
MTEXT
  5
EF
330
1F
100
AcDbEntity
  8
SLD-0
100
AcDbMText
 10
15.7266180418
 20
9.2953305243
 30
0.0
 40
0.25
 41
0.0
 71
     2
 72
     1
  1
(HARDWARE INCLUDED)
  7
SLDTEXTSTYLE0
 73
     1
 44
1.0
  0
LEADER
  5
F1
330
1F
100
AcDbEntity
  8
SLD-0
100
AcDbLeader
  3
SLDDIMSTYLE4
 76
     3
 10
10.4744839709
 20
8.6931842752
 30
0.0
 10
12.9344787177
 20
9.4924436421
 30
0.0
 10
13.4344787177
 20
9.4924436421
 30
0.0
  0
INSERT
  5
FD
330
1F
100
AcDbEntity
  8
SLD-0
100
AcDbBlockReference
  2
SW_CENTERMARKSYMBOL_0
 10
10.3366846684
 20
8.6339276111
 30
0.0
  0
INSERT
  5
109
330
1F
100
AcDbEntity
  8
SLD-0
100
AcDbBlockReference
  2
SW_CENTERMARKSYMBOL_1
 10
10.3366846684
 20
5.3219276111
 30
0.0
  0
LINE
  5
10A
330
1F
100
AcDbEntity
  8
0
  6
Continuous
 62
     7
370
    25
100
AcDbLine
 10
15.713864251
 20
10.5793445031
 30
0.0
 11
15.713864251
 21
14.5803944813
 31
0.0
  0
LINE
  5
10B
330
1F
100
AcDbEntity
  8
0
  6
Continuous
 62
     7
370
    25
100
AcDbLine
 10
15.713864251
 20
14.5803944813
 30
0.0
 11
15.7845749291
 21
14.6212215219
 31
0.0
  0
LINE
  5
10C
330
1F
100
AcDbEntity
  8
0
  6
Continuous
 62
     7
370
    25
100
AcDbLine
 10
15.7845749291
 20
14.6212215219
 30
0.0
 11
15.7845749291
 21
10.5385174625
 31
0.0
  0
LINE
  5
10D
330
1F
100
AcDbEntity
  8
0
  6
Continuous
 62
     7
370
    25
100
AcDbLine
 10
15.713864251
 20
10.5793445031
 30
0.0
 11
15.7845749291
 21
10.5385174625
 31
0.0
  0
LINE
  5
10E
330
1F
100
AcDbEntity
  8
0
  6
Continuous
 62
     7
370
    25
100
AcDbLine
 10
15.713864251
 20
14.5803944813
 30
0.0
 11
13.6632545855
 21
15.7641862435
 31
0.0
  0
LINE
  5
10F
330
1F
100
AcDbEntity
  8
0
  6
Continuous
 62
     7
370
    25
100
AcDbLine
 10
13.6632545855
 20
15.8458336897
 30
0.0
 11
13.6632545855
 21
15.7641862435
 31
0.0
  0
LINE
  5
110
330
1F
100
AcDbEntity
  8
0
  6
Continuous
 62
     7
370
    25
100
AcDbLine
 10
13.6632545855
 20
15.8458336897
 30
0.0
 11
15.7845749291
 21
14.6212215219
 31
0.0
  0
LINE
  5
111
330
1F
100
AcDbEntity
  8
0
  6
Continuous
 62
     7
370
    25
100
AcDbLine
 10
16.014384633
 20
10.6711837807
 30
0.0
 11
16.014384633
 21
14.7538878401
 31
0.0
  0
LINE
  5
112
330
1F
100
AcDbEntity
  8
0
  6
Continuous
 62
     7
370
    25
100
AcDbLine
 10
15.7845749291
 20
10.5385174625
 30
0.0
 11
16.014384633
 21
10.6711837807
 31
0.0
  0
LINE
  5
113
330
1F
100
AcDbEntity
  8
0
  6
Continuous
 62
     7
370
    25
100
AcDbLine
 10
15.7845749291
 20
14.6212215219
 30
0.0
 11
16.014384633
 21
14.7538878401
 31
0.0
  0
LINE
  5
114
330
1F
100
AcDbEntity
  8
0
  6
Continuous
 62
     7
370
    25
100
AcDbLine
 10
16.014384633
 20
14.7538878401
 30
0.0
 11
13.8930642894
 21
15.9785000078
 31
0.0
  0
LINE
  5
115
330
1F
100
AcDbEntity
  8
0
  6
Continuous
 62
     7
370
    25
100
AcDbLine
 10
13.6632545855
 20
15.8458336897
 30
0.0
 11
13.8930642894
 21
15.9785000078
 31
0.0
  0
LWPOLYLINE
  5
116
330
1F
100
AcDbEntity
  8
0
  6
Continuous
 62
     7
370
    25
100
AcDbPolyline
 90
       57
 70
   128
 43
0.0
 10
14.6885594183
 20
12.8271851507
 10
14.7219695129
 20
12.8100645617
 10
14.7549594561
 20
12.7974925703
 10
14.7871143804
 20
12.7896272766
 10
14.8180299189
 20
12.7865675911
 10
14.8473172907
 20
12.7883519913
 10
14.8746081901
 20
12.7949580372
 10
14.8995594183
 20
12.806302654
 10
14.921857199
 20
12.8222431765
 10
14.9412211248
 20
12.8425791434
 10
14.957407683
 20
12.8670548182
 10
14.9702133183
 20
12.895362405
 10
14.9794769924
 20
12.9271459195
 10
14.9850822092
 20
12.9620056656
 10
14.9869584799
 20
12.9995032617
 10
14.9850822092
 20
13.0391671538
 10
14.9794769924
 20
13.0804985454
 10
14.9702133183
 20
13.1229776704
 10
14.957407683
 20
13.166070329
 10
14.9412211248
 20
13.2092346061
 10
14.921857199
 20
13.2519276859
 10
14.8995594183
 20
13.2936126781
 10
14.8746081901
 20
13.3337653697
 10
14.8473172907
 20
13.3718808174
 10
14.8180299189
 20
13.4074796973
 10
14.7871143804
 20
13.4401143327
 10
14.7549594561
 20
13.4693743243
 10
14.7219695129
 20
13.4948917107
 10
14.6885594183
 20
13.5163455959
 10
14.6551493236
 20
13.5334661849
 10
14.6221593804
 20
13.5460381763
 10
14.5900044561
 20
13.55390347
 10
14.5590889176
 20
13.5569631554
 10
14.5298015458
 20
13.5551787553
 10
14.5025106464
 20
13.5485727094
 10
14.4775594183
 20
13.5372280926
 10
14.4552616375
 20
13.5212875701
 10
14.4358977117
 20
13.5009516031
 10
14.4197111535
 20
13.4764759284
 10
14.4069055182
 20
13.4481683416
 10
14.3976418441
 20
13.416384827
 10
14.3920366273
 20
13.381525081
 10
14.3901603566
 20
13.3440274849
 10
14.3920366273
 20
13.3043635928
 10
14.3976418441
 20
13.2630322011
 10
14.4069055182
 20
13.2205530762
 10
14.4197111535
 20
13.1774604175
 10
14.4358977117
 20
13.1342961404
 10
14.4552616375
 20
13.0916030606
 10
14.4775594183
 20
13.0499180685
 10
14.5025106464
 20
13.0097653768
 10
14.5298015458
 20
12.9716499292
 10
14.5590889176
 20
12.9360510493
 10
14.5900044561
 20
12.9034164138
 10
14.6221593804
 20
12.8741564222
 10
14.6551493236
 20
12.8486390359
 10
14.6885594183
 20
12.8271851507
  0
LINE
  5
117
330
1F
100
AcDbEntity
  8
0
  6
Continuous
 62
     7
370
    25
100
AcDbLine
 10
13.6632545855
 20
11.7631362652
 30
0.0
 11
15.713864251
 21
10.5793445031
 31
0.0
  0
LINE
  5
118
330
1F
100
AcDbEntity
  8
0
  6
Continuous
 62
     7
370
    25
100
AcDbLine
 10
13.6632545855
 20
15.7641862435
 30
0.0
 11
13.6632545855
 21
11.7631362652
 31
0.0
  0
LWPOLYLINE
  5
119
330
1F
100
AcDbEntity
  8
0
  6
Continuous
 62
     7
370
    25
100
AcDbPolyline
 90
       34
 70
   128
 43
0.0
 10
14.6885594183
 20
11.697092667
 10
14.708632544
 20
11.6877180916
 10
14.7279801747
 20
11.6831091247
 10
14.7459030365
 20
11.6834323462
 10
14.7617533505
 20
11.6886760742
 10
14.7749582452
 20
11.6986507867
 10
14.7850404611
 20
11.7129959715
 10
14.7916356008
 20
11.7311931563
 10
14.7945052986
 20
11.7525846475
 10
14.7935458363
 20
11.7763973008
 10
14.7887918913
 20
11.8017704648
 10
14.7804152836
 20
11.8277870873
 10
14.7687187656
 20
11.8535068599
 10
14.7541250799
 20
11.8780002028
 10
14.7371616804
 20
11.9003818629
 10
14.7184416685
 20
11.9198429087
 10
14.6986416342
 20
11.9356799672
 10
14.6784772023
 20
11.9473206459
 10
14.658677168
 20
11.9543442204
 10
14.6399571561
 20
11.9564968403
 10
14.6229937566
 20
11.9537007044
 10
14.6084000709
 20
11.9460568723
 10
14.5967035529
 20
11.933841612
 10
14.5883269452
 20
11.9174964149
 10
14.5835730002
 20
11.8976120389
 10
14.5826135379
 20
11.8749071572
 10
14.5854832358
 20
11.8502023835
 10
14.5920783754
 20
11.8243906125
 10
14.6021605913
 20
11.7984047489
 10
14.615365486
 20
11.7731839896
 10
14.6312158
 20
11.7496398786
 10
14.6491386618
 20
11.7286233612
 10
14.6684862925
 20
11.7108940293
 10
14.6885594183
 20
11.697092667
  0
LWPOLYLINE
  5
11A
330
1F
100
AcDbEntity
  8
0
  6
Continuous
 62
     7
370
    25
100
AcDbPolyline
 90
       34
 70
   128
 43
0.0
 10
14.6885594183
 20
14.401475836
 10
14.708632544
 20
14.3921012606
 10
14.7279801747
 20
14.3874922936
 10
14.7459030365
 20
14.3878155152
 10
14.7617533505
 20
14.3930592432
 10
14.7749582452
 20
14.4030339557
 10
14.7850404611
 20
14.4173791405
 10
14.7916356008
 20
14.4355763253
 10
14.7945052986
 20
14.4569678165
 10
14.7935458363
 20
14.4807804697
 10
14.7887918913
 20
14.5061536338
 10
14.7804152836
 20
14.5321702563
 10
14.7687187656
 20
14.5578900288
 10
14.7541250799
 20
14.5823833718
 10
14.7371616804
 20
14.6047650319
 10
14.7184416685
 20
14.6242260777
 10
14.6986416342
 20
14.6400631362
 10
14.6784772023
 20
14.6517038149
 10
14.658677168
 20
14.6587273894
 10
14.6399571561
 20
14.6608800093
 10
14.6229937566
 20
14.6580838734
 10
14.6084000709
 20
14.6504400413
 10
14.5967035529
 20
14.638224781
 10
14.5883269452
 20
14.6218795839
 10
14.5835730002
 20
14.6019952079
 10
14.5826135379
 20
14.5792903262
 10
14.5854832358
 20
14.5545855524
 10
14.5920783754
 20
14.5287737815
 10
14.6021605913
 20
14.5027879179
 10
14.615365486
 20
14.4775671586
 10
14.6312158
 20
14.4540230475
 10
14.6491386618
 20
14.4330065302
 10
14.6684862925
 20
14.4152771982
 10
14.6885594183
 20
14.401475836
  0
LWPOLYLINE
  5
11B
330
1F
100
AcDbEntity
  8
0
  6
Continuous
 62
     7
370
    25
100
AcDbPolyline
 90
        6
 70
   128
 43
0.0
 10
14.7406191496
 20
14.4837878911
 10
14.7557422758
 20
14.4772636654
 10
14.7699151605
 20
14.4755617194
 10
14.782247269
 20
14.4787889925
 10
14.7919637297
 20
14.4867427034
 10
14.7926204477
 20
14.487586063
  0
LWPOLYLINE
  5
11C
330
1F
100
AcDbEntity
  8
0
  6
Continuous
 62
     7
370
    25
100
AcDbPolyline
 90
       12
 70
   128
 43
0.0
 10
14.7091019772
 20
14.6322599729
 10
14.7048752329
 20
14.6314561286
 10
14.6937633276
 20
14.6258212036
 10
14.6855955459
 20
14.6156741417
 10
14.6808850996
 20
14.6016525202
 10
14.6799279634
 20
14.5846373691
 10
14.6827842775
 20
14.565697813
 10
14.6892745694
 20
14.5460238938
 10
14.6989910301
 20
14.5268517962
 10
14.7113231386
 20
14.5093861736
 10
14.7254960233
 20
14.4947244554
 10
14.7406191496
 20
14.4837878911
  0
ARC
  5
11D
330
1F
100
AcDbEntity
  8
0
  6
Continuous
 62
     7
370
    25
100
AcDbCircle
 10
15.4870016515
 20
13.6326962634
 30
0.0
 40
0.978420614259148
100
AcDbArc
 50
185.6468204723
 51
234.347802995
  0
LWPOLYLINE
  5
11E
330
1F
100
AcDbEntity
  8
0
  6
Continuous
 62
     7
370
    25
100
AcDbPolyline
 90
       27
 70
   128
 43
0.0
 10
14.5264497534
 20
13.5546455787
 10
14.5242860594
 20
13.5519771101
 10
14.5080995011
 20
13.5275014354
 10
14.4952938658
 20
13.4991938485
 10
14.4860301917
 20
13.467410334
 10
14.4804249749
 20
13.432550588
 10
14.4785487042
 20
13.3950529919
 10
14.4804249749
 20
13.3553890998
 10
14.4860301917
 20
13.3140577081
 10
14.4952938658
 20
13.2715785832
 10
14.5080995011
 20
13.2284859245
 10
14.5242860594
 20
13.1853216474
 10
14.5436499852
 20
13.1426285676
 10
14.5659477659
 20
13.1009435754
 10
14.5908989941
 20
13.0607908838
 10
14.6181898935
 20
13.0226754361
 10
14.6474772653
 20
12.9870765563
 10
14.6783928037
 20
12.9544419208
 10
14.710547728
 20
12.9251819292
 10
14.7435376713
 20
12.8996645428
 10
14.7769477659
 20
12.8782106577
 10
14.8103578605
 20
12.8610900687
 10
14.8433478038
 20
12.8485180773
 10
14.8755027281
 20
12.8406527836
 10
14.9064182665
 20
12.8375930981
 10
14.9357056383
 20
12.8393774983
 10
14.9390574308
 20
12.8399106749
  0
LINE
  5
11F
330
1F
100
AcDbEntity
  8
0
  6
Continuous
 62
     7
370
    25
100
AcDbLine
 10
15.7845749291
 20
10.5385174625
 30
0.0
 11
13.6632545855
 21
11.7631296302
 31
0.0
  0
LINE
  5
120
330
1F
100
AcDbEntity
  8
0
  6
Continuous
 62
     7
370
    25
100
AcDbLine
 10
13.6632545855
 20
11.7631296302
 30
0.0
 11
13.6632545855
 21
11.7631362652
 31
0.0
  0
LWPOLYLINE
  5
121
330
1F
100
AcDbEntity
  8
0
  6
Continuous
 62
     7
370
    25
100
AcDbPolyline
 90
        6
 70
   128
 43
0.0
 10
14.7406191496
 20
11.7794047222
 10
14.7557422758
 20
11.7728804965
 10
14.7699151605
 20
11.7711785504
 10
14.782247269
 20
11.7744058235
 10
14.7919637297
 20
11.7823595344
 10
14.7926204477
 20
11.7832028941
  0
LWPOLYLINE
  5
122
330
1F
100
AcDbEntity
  8
0
  6
Continuous
 62
     7
370
    25
100
AcDbPolyline
 90
       12
 70
   128
 43
0.0
 10
14.7091019772
 20
11.927876804
 10
14.7048752329
 20
11.9270729597
 10
14.6937633276
 20
11.9214380346
 10
14.6855955459
 20
11.9112909727
 10
14.6808850996
 20
11.8972693512
 10
14.6799279634
 20
11.8802542001
 10
14.6827842775
 20
11.861314644
 10
14.6892745694
 20
11.8416407248
 10
14.6989910301
 20
11.8224686272
 10
14.7113231386
 20
11.8050030046
 10
14.7254960233
 20
11.7903412864
 10
14.7406191496
 20
11.7794047222
  0
ENDSEC
  0
SECTION
  2
OBJECTS
  0
DICTIONARY
  5
C
330
0
100
AcDbDictionary
281
     1
  3
ACAD_GROUP
350
D
  3
ACAD_LAYOUT
350
1A
  3
ACAD_MLINESTYLE
350
17
  3
ACAD_PLOTSETTINGS
350
19
  3
ACAD_PLOTSTYLENAME
350
E
  3
ACAD_SCALELIST
350
47
  3
DWGPROPS
350
123
  0
DICTIONARY
  5
D
102
{ACAD_REACTORS
330
C
102
}
330
C
100
AcDbDictionary
281
     1
  0
DICTIONARY
  5
1A
102
{ACAD_REACTORS
330
C
102
}
330
C
100
AcDbDictionary
281
     1
  3
Layout1
350
1E
  3
Layout2
350
26
  3
Model
350
22
  0
DICTIONARY
  5
17
102
{ACAD_REACTORS
330
C
102
}
330
C
100
AcDbDictionary
281
     1
  3
Standard
350
18
  0
DICTIONARY
  5
19
102
{ACAD_REACTORS
330
C
102
}
330
C
100
AcDbDictionary
281
     1
  0
ACDBDICTIONARYWDFLT
  5
E
102
{ACAD_REACTORS
330
C
102
}
330
C
100
AcDbDictionary
281
     1
  3
Normal
350
F
100
AcDbDictionaryWithDefault
340
F
  0
DICTIONARY
  5
47
102
{ACAD_REACTORS
330
C
102
}
330
C
100
AcDbDictionary
281
     1
  3
A0
350
48
  3
A1
350
49
  3
A2
350
4A
  3
A3
350
4B
  3
A4
350
4C
  3
A5
350
4D
  3
A6
350
4E
  3
A7
350
4F
  3
A8
350
50
  3
A9
350
51
  3
B1
350
52
  3
B2
350
53
  3
B3
350
54
  3
B4
350
55
  3
B5
350
56
  3
B6
350
57
  3
B7
350
58
  0
XRECORD
  5
123
102
{ACAD_REACTORS
330
C
102
}
330
C
100
AcDbXrecord
280
     1
  1
DWGPROPS COOKIE
  2

  3

  4

  6

  7

  8
shawnd
  9

300
=
301
=
302
=
303
=
304
=
305
=
306
=
307
=
308
=
309
=
 40
0.0
 41
2460889.670513958
 42
2460889.670514352
  1

 90
        0
  0
LAYOUT
  5
1E
102
{ACAD_REACTORS
330
1A
102
}
330
1A
100
AcDbPlotSettings
  1

  2
none_device
  4

  6

 40
0.0
 41
0.0
 42
0.0
 43
0.0
 44
0.0
 45
0.0
 46
0.0
 47
0.0
 48
0.0
 49
0.0
140
0.0
141
0.0
142
1.0
143
1.0
 70
   688
 72
     0
 73
     0
 74
     5
  7

 75
    16
147
1.0
148
0.0
149
0.0
100
AcDbLayout
  1
Layout1
 70
     1
 71
     1
 10
0.0
 20
0.0
 11
12.0
 21
9.0
 12
0.0
 22
0.0
 32
0.0
 14
1.0000000000E+20
 24
1.0000000000E+20
 34
1.0000000000E+20
 15
-1.0000000000E+20
 25
-1.0000000000E+20
 35
-1.0000000000E+20
146
0.0
 13
0.0
 23
0.0
 33
0.0
 16
1.0
 26
0.0
 36
0.0
 17
0.0
 27
1.0
 37
0.0
 76
     0
330
1B
  0
LAYOUT
  5
26
102
{ACAD_REACTORS
330
1A
102
}
330
1A
100
AcDbPlotSettings
  1

  2
none_device
  4

  6

 40
0.0
 41
0.0
 42
0.0
 43
0.0
 44
0.0
 45
0.0
 46
0.0
 47
0.0
 48
0.0
 49
0.0
140
0.0
141
0.0
142
1.0
143
1.0
 70
   688
 72
     0
 73
     0
 74
     5
  7

 75
    16
147
1.0
148
0.0
149
0.0
100
AcDbLayout
  1
Layout2
 70
     1
 71
     2
 10
0.0
 20
0.0
 11
0.0
 21
0.0
 12
0.0
 22
0.0
 32
0.0
 14
0.0
 24
0.0
 34
0.0
 15
0.0
 25
0.0
 35
0.0
146
0.0
 13
0.0
 23
0.0
 33
0.0
 16
1.0
 26
0.0
 36
0.0
 17
0.0
 27
1.0
 37
0.0
 76
     0
330
23
  0
LAYOUT
  5
22
102
{ACAD_REACTORS
330
1A
102
}
330
1A
100
AcDbPlotSettings
  1

  2
none_device
  4
Letter_(8.50_x_11.00_Inches)
  6

 40
6.35
 41
6.35
 42
6.35000508
 43
6.35000508
 44
215.9
 45
279.4
 46
0.0
 47
0.0
 48
0.0
 49
0.0
140
0.0
141
0.0
142
1.0
143
1.0
 70
  1712
 72
     0
 73
     0
 74
     0
  7

 75
     0
147
1.0
148
0.0
149
0.0
100
AcDbLayout
  1
Model
 70
     1
 71
     0
 10
0.0
 20
0.0
 11
22.0
 21
17.0
 12
0.0
 22
0.0
 32
0.0
 14
0.0
 24
0.0
 34
0.0
 15
22.0
 25
17.0
 35
0.0
146
0.0
 13
0.0
 23
0.0
 33
0.0
 16
1.0
 26
0.0
 36
0.0
 17
0.0
 27
1.0
 37
0.0
 76
     0
330
1F
331
29
  0
MLINESTYLE
  5
18
102
{ACAD_REACTORS
330
17
102
}
330
17
100
AcDbMlineStyle
  2
Standard
 70
     0
  3

 62
   256
 51
90.0
 52
90.0
 71
     2
 49
0.5
 62
   256
  6
BYLAYER
 49
-0.5
 62
   256
  6
BYLAYER
  0
ACDBPLACEHOLDER
  5
F
102
{ACAD_REACTORS
330
E
102
}
330
E
  0
SCALE
  5
48
102
{ACAD_REACTORS
330
47
102
}
330
47
100
AcDbScale
 70
     0
300
1:1
140
1.0
141
1.0
290
     1
  0
SCALE
  5
49
102
{ACAD_REACTORS
330
47
102
}
330
47
100
AcDbScale
 70
     0
300
1/128" = 1'-0"
140
0.0078125
141
12.0
290
     0
  0
SCALE
  5
4A
102
{ACAD_REACTORS
330
47
102
}
330
47
100
AcDbScale
 70
     0
300
1/64" = 1'-0"
140
0.015625
141
12.0
290
     0
  0
SCALE
  5
4B
102
{ACAD_REACTORS
330
47
102
}
330
47
100
AcDbScale
 70
     0
300
1/32" = 1'-0"
140
0.03125
141
12.0
290
     0
  0
SCALE
  5
4C
102
{ACAD_REACTORS
330
47
102
}
330
47
100
AcDbScale
 70
     0
300
1/16" = 1'-0"
140
0.0625
141
12.0
290
     0
  0
SCALE
  5
4D
102
{ACAD_REACTORS
330
47
102
}
330
47
100
AcDbScale
 70
     0
300
3/32" = 1'-0"
140
0.09375
141
12.0
290
     0
  0
SCALE
  5
4E
102
{ACAD_REACTORS
330
47
102
}
330
47
100
AcDbScale
 70
     0
300
1/8" = 1'-0"
140
0.125
141
12.0
290
     0
  0
SCALE
  5
4F
102
{ACAD_REACTORS
330
47
102
}
330
47
100
AcDbScale
 70
     0
300
3/16" = 1'-0"
140
0.1875
141
12.0
290
     0
  0
SCALE
  5
50
102
{ACAD_REACTORS
330
47
102
}
330
47
100
AcDbScale
 70
     0
300
1/4" = 1'-0"
140
0.25
141
12.0
290
     0
  0
SCALE
  5
51
102
{ACAD_REACTORS
330
47
102
}
330
47
100
AcDbScale
 70
     0
300
3/8" = 1'-0"
140
0.375
141
12.0
290
     0
  0
SCALE
  5
52
102
{ACAD_REACTORS
330
47
102
}
330
47
100
AcDbScale
 70
     0
300
1/2" = 1'-0"
140
0.5
141
12.0
290
     0
  0
SCALE
  5
53
102
{ACAD_REACTORS
330
47
102
}
330
47
100
AcDbScale
 70
     0
300
3/4" = 1'-0"
140
0.75
141
12.0
290
     0
  0
SCALE
  5
54
102
{ACAD_REACTORS
330
47
102
}
330
47
100
AcDbScale
 70
     0
300
1" = 1'-0"
140
1.0
141
12.0
290
     0
  0
SCALE
  5
55
102
{ACAD_REACTORS
330
47
102
}
330
47
100
AcDbScale
 70
     0
300
1-1/2" = 1'-0"
140
1.5
141
12.0
290
     0
  0
SCALE
  5
56
102
{ACAD_REACTORS
330
47
102
}
330
47
100
AcDbScale
 70
     0
300
3" = 1'-0"
140
3.0
141
12.0
290
     0
  0
SCALE
  5
57
102
{ACAD_REACTORS
330
47
102
}
330
47
100
AcDbScale
 70
     0
300
6" = 1'-0"
140
6.0
141
12.0
290
     0
  0
SCALE
  5
58
102
{ACAD_REACTORS
330
47
102
}
330
47
100
AcDbScale
 70
     0
300
1'-0" = 1'-0"
140
12.0
141
12.0
290
     0
  0
ENDSEC
  0
EOF
