  0
SECTION
  2
HEADER
  9
$ACADVER
  1
AC1015
  9
$ACADMAINTVER
 70
     6
  9
$DWGCODEPAGE
  3
ANSI_1252
  9
$INSBASE
 10
0.0
 20
0.0
 30
0.0
  9
$EXTMIN
 10
0.0
 20
0.0
 30
0.0
  9
$EXTMAX
 10
22.0
 20
17.0
 30
0.0
  9
$LIMMIN
 10
0.0
 20
0.0
  9
$LIMMAX
 10
22.0
 20
17.0
  9
$ORTHOMODE
 70
     0
  9
$REGENMODE
 70
     1
  9
$FILLMODE
 70
     1
  9
$QTEXTMODE
 70
     0
  9
$MIRRTEXT
 70
     1
  9
$LTSCALE
 40
2.0
  9
$ATTMODE
 70
     1
  9
$TEXTSIZE
 40
0.25
  9
$TRACEWID
 40
0.05
  9
$TEXTSTYLE
  7
Standard
  9
$CLAYER
  8
0
  9
$CELTYPE
  6
ByLayer
  9
$CECOLOR
 62
   256
  9
$CELTSCALE
 40
1.0
  9
$DISPSILH
 70
     0
  9
$DIMSCALE
 40
1.0
  9
$DIMASZ
 40
0.26
  9
$DIMEXO
 40
0.1
  9
$DIMDLI
 40
0.38
  9
$DIMRND
 40
0.0
  9
$DIMDLE
 40
0.0
  9
$DIMEXE
 40
0.25
  9
$DIMTP
 40
0.0
  9
$DIMTM
 40
0.0
  9
$DIMTXT
 40
0.25
  9
$DIMCEN
 40
0.09
  9
$DIMTSZ
 40
0.0
  9
$DIMTOL
 70
     0
  9
$DIMLIM
 70
     0
  9
$DIMTIH
 70
     1
  9
$DIMTOH
 70
     1
  9
$DIMSE1
 70
     0
  9
$DIMSE2
 70
     0
  9
$DIMTAD
 70
     0
  9
$DIMZIN
 70
     1
  9
$DIMBLK
  1

  9
$DIMASO
 70
     1
  9
$DIMSHO
 70
     1
  9
$DIMPOST
  1

  9
$DIMAPOST
  1

  9
$DIMALT
 70
     0
  9
$DIMALTD
 70
     2
  9
$DIMALTF
 40
25.4
  9
$DIMLFAC
 40
1.0
  9
$DIMTOFL
 70
     0
  9
$DIMTVP
 40
0.0
  9
$DIMTIX
 70
     0
  9
$DIMSOXD
 70
     0
  9
$DIMSAH
 70
     0
  9
$DIMBLK1
  1

  9
$DIMBLK2
  1

  9
$DIMSTYLE
  2
Standard
  9
$DIMCLRD
 70
     0
  9
$DIMCLRE
 70
     0
  9
$DIMCLRT
 70
     0
  9
$DIMTFAC
 40
1.0
  9
$DIMGAP
 40
0.12
  9
$DIMJUST
 70
     0
  9
$DIMSD1
 70
     0
  9
$DIMSD2
 70
     0
  9
$DIMTOLJ
 70
     1
  9
$DIMTZIN
 70
     1
  9
$DIMALTZ
 70
     0
  9
$DIMALTTZ
 70
     0
  9
$DIMUPT
 70
     0
  9
$DIMDEC
 70
     0
  9
$DIMTDEC
 70
     0
  9
$DIMALTU
 70
     2
  9
$DIMALTTD
 70
     2
  9
$DIMTXSTY
  7
Standard
  9
$DIMAUNIT
 70
     0
  9
$DIMADEC
 70
     0
  9
$DIMALTRND
 40
0.0
  9
$DIMAZIN
 70
     0
  9
$DIMDSEP
 70
    46
  9
$DIMATFIT
 70
     3
  9
$DIMFRAC
 70
     0
  9
$DIMLDRBLK
  1

  9
$DIMLUNIT
 70
     2
  9
$DIMLWD
 70
    -2
  9
$DIMLWE
 70
    -2
  9
$DIMTMOVE
 70
     0
  9
$LUNITS
 70
     2
  9
$LUPREC
 70
     6
  9
$SKETCHINC
 40
0.1
  9
$FILLETRAD
 40
0.0
  9
$AUNITS
 70
     0
  9
$AUPREC
 70
     2
  9
$MENU
  1
.
  9
$ELEVATION
 40
0.0
  9
$PELEVATION
 40
0.0
  9
$THICKNESS
 40
0.0
  9
$LIMCHECK
 70
     0
  9
$CHAMFERA
 40
0.0
  9
$CHAMFERB
 40
0.0
  9
$CHAMFERC
 40
0.0
  9
$CHAMFERD
 40
0.0
  9
$SKPOLY
 70
     0
  9
$TDCREATE
 40
2460889.380255325
  9
$TDUCREATE
 40
2460889.671921991
  9
$TDUPDATE
 40
2460889.380255776
  9
$TDUUPDATE
 40
2460889.671922442
  9
$TDINDWG
 40
0.0000000116
  9
$TDUSRTIMER
 40
0.0000000116
  9
$USRTIMER
 70
     1
  9
$ANGBASE
 50
0.0
  9
$ANGDIR
 70
     0
  9
$PDMODE
 70
     0
  9
$PDSIZE
 40
-1.0
  9
$PLINEWID
 40
0.0
  9
$SPLFRAME
 70
     0
  9
$SPLINETYPE
 70
     6
  9
$SPLINESEGS
 70
     8
  9
$HANDSEED
  5
148
  9
$SURFTAB1
 70
     6
  9
$SURFTAB2
 70
     6
  9
$SURFTYPE
 70
     6
  9
$SURFU
 70
     6
  9
$SURFV
 70
     6
  9
$UCSBASE
  2

  9
$UCSNAME
  2

  9
$UCSORG
 10
0.0
 20
0.0
 30
0.0
  9
$UCSXDIR
 10
1.0
 20
0.0
 30
0.0
  9
$UCSYDIR
 10
0.0
 20
1.0
 30
0.0
  9
$UCSORTHOREF
  2

  9
$UCSORTHOVIEW
 70
     0
  9
$UCSORGTOP
 10
0.0
 20
0.0
 30
0.0
  9
$UCSORGBOTTOM
 10
0.0
 20
0.0
 30
0.0
  9
$UCSORGLEFT
 10
0.0
 20
0.0
 30
0.0
  9
$UCSORGRIGHT
 10
0.0
 20
0.0
 30
0.0
  9
$UCSORGFRONT
 10
0.0
 20
0.0
 30
0.0
  9
$UCSORGBACK
 10
0.0
 20
0.0
 30
0.0
  9
$PUCSBASE
  2

  9
$PUCSNAME
  2

  9
$PUCSORG
 10
0.0
 20
0.0
 30
0.0
  9
$PUCSXDIR
 10
1.0
 20
0.0
 30
0.0
  9
$PUCSYDIR
 10
0.0
 20
1.0
 30
0.0
  9
$PUCSORTHOREF
  2

  9
$PUCSORTHOVIEW
 70
     0
  9
$PUCSORGTOP
 10
0.0
 20
0.0
 30
0.0
  9
$PUCSORGBOTTOM
 10
0.0
 20
0.0
 30
0.0
  9
$PUCSORGLEFT
 10
0.0
 20
0.0
 30
0.0
  9
$PUCSORGRIGHT
 10
0.0
 20
0.0
 30
0.0
  9
$PUCSORGFRONT
 10
0.0
 20
0.0
 30
0.0
  9
$PUCSORGBACK
 10
0.0
 20
0.0
 30
0.0
  9
$USERI1
 70
     0
  9
$USERI2
 70
     0
  9
$USERI3
 70
     0
  9
$USERI4
 70
     0
  9
$USERI5
 70
     0
  9
$USERR1
 40
0.0
  9
$USERR2
 40
0.0
  9
$USERR3
 40
0.0
  9
$USERR4
 40
0.0
  9
$USERR5
 40
0.0
  9
$WORLDVIEW
 70
     1
  9
$SHADEDGE
 70
     3
  9
$SHADEDIF
 70
    70
  9
$TILEMODE
 70
     1
  9
$MAXACTVP
 70
    64
  9
$PINSBASE
 10
0.0
 20
0.0
 30
0.0
  9
$PLIMCHECK
 70
     0
  9
$PEXTMIN
 10
1.0000000000E+20
 20
1.0000000000E+20
 30
1.0000000000E+20
  9
$PEXTMAX
 10
-1.0000000000E+20
 20
-1.0000000000E+20
 30
-1.0000000000E+20
  9
$PLIMMIN
 10
0.0
 20
0.0
  9
$PLIMMAX
 10
12.0
 20
9.0
  9
$UNITMODE
 70
     0
  9
$VISRETAIN
 70
     1
  9
$PLINEGEN
 70
     0
  9
$PSLTSCALE
 70
     1
  9
$TREEDEPTH
 70
  3020
  9
$CMLSTYLE
  2
Standard
  9
$CMLJUST
 70
     0
  9
$CMLSCALE
 40
1.0
  9
$PROXYGRAPHICS
 70
     1
  9
$MEASUREMENT
 70
     0
  9
$CELWEIGHT
370
    -1
  9
$ENDCAPS
280
     0
  9
$JOINSTYLE
280
     0
  9
$LWDISPLAY
290
     1
  9
$INSUNITS
 70
     1
  9
$HYPERLINKBASE
  1

  9
$STYLESHEET
  1

  9
$XEDIT
290
     1
  9
$CEPSNTYPE
380
     0
  9
$PSTYLEMODE
290
     1
  9
$FINGERPRINTGUID
  2
{c0ec505f-1603-4006-83f5-7b0638c71496}
  9
$VERSIONGUID
  2
{FAEB1C32-E019-11D5-929B-00C0DF256EC4}
  9
$EXTNAMES
290
     1
  9
$PSVPSCALE
 40
0.0
  9
$OLESTARTUP
290
     0
  0
ENDSEC
  0
SECTION
  2
CLASSES
  0
CLASS
  1
ACDBDICTIONARYWDFLT
  2
AcDbDictionaryWithDefault
  3
ObjectDBX Classes
 90
        0
280
     0
281
     0
  0
CLASS
  1
VISUALSTYLE
  2
AcDbVisualStyle
  3
ObjectDBX Classes
 90
     4095
280
     0
281
     0
  0
CLASS
  1
MATERIAL
  2
AcDbMaterial
  3
ObjectDBX Classes
 90
     1153
280
     0
281
     0
  0
CLASS
  1
SCALE
  2
AcDbScale
  3
ObjectDBX Classes
 90
     1153
280
     0
281
     0
  0
CLASS
  1
TABLESTYLE
  2
AcDbTableStyle
  3
ObjectDBX Classes
 90
     4095
280
     0
281
     0
  0
CLASS
  1
MLEADERSTYLE
  2
AcDbMLeaderStyle
  3
ACDB_MLEADERSTYLE_CLASS
 90
     4095
280
     0
281
     0
  0
CLASS
  1
SUN
  2
AcDbSun
  3
SCENEOE
 90
     1153
280
     0
281
     0
  0
CLASS
  1
ACDBPLACEHOLDER
  2
AcDbPlaceHolder
  3
ObjectDBX Classes
 90
        0
280
     0
281
     0
  0
CLASS
  1
LAYOUT
  2
AcDbLayout
  3
ObjectDBX Classes
 90
        0
280
     0
281
     0
  0
ENDSEC
  0
SECTION
  2
TABLES
  0
TABLE
  2
VPORT
  5
8
330
0
100
AcDbSymbolTable
 70
     1
  0
VPORT
  5
29
330
8
100
AcDbSymbolTableRecord
100
AcDbViewportTableRecord
  2
*Active
 70
     0
 10
0.0
 20
0.0
 11
1.0
 21
1.0
 12
11.0
 22
8.5
 13
0.0
 23
0.0
 14
0.5
 24
0.5
 15
0.5
 25
0.5
 16
0.0
 26
0.0
 36
1.0
 17
0.0
 27
0.0
 37
0.0
 40
17.0
 41
1.2941176471
 42
50.0
 43
0.0
 44
0.0
 50
0.0
 51
0.0
 71
     0
 72
  2000
 73
     1
 74
     3
 75
     0
 76
     0
 77
     0
 78
     0
281
     0
 65
     1
110
0.0
120
0.0
130
0.0
111
1.0
121
0.0
131
0.0
112
0.0
122
1.0
132
0.0
 79
     0
146
0.0
  0
ENDTAB
  0
TABLE
  2
LTYPE
  5
5
330
0
100
AcDbSymbolTable
 70
     6
  0
LTYPE
  5
14
330
5
100
AcDbSymbolTableRecord
100
AcDbLinetypeTableRecord
  2
ByBlock
 70
     0
  3

 72
    65
 73
     0
 40
0.0
  0
LTYPE
  5
15
330
5
100
AcDbSymbolTableRecord
100
AcDbLinetypeTableRecord
  2
ByLayer
 70
     0
  3

 72
    65
 73
     0
 40
0.0
  0
LTYPE
  5
16
330
5
100
AcDbSymbolTableRecord
100
AcDbLinetypeTableRecord
  2
Continuous
 70
     0
  3
Solid line
 72
    65
 73
     0
 40
0.0
  0
LTYPE
  5
5E
330
5
100
AcDbSymbolTableRecord
100
AcDbLinetypeTableRecord
  2
HIDDEN
 70
     0
  3
Hidden __ __ __ __ __ __ __ __ __ __ __ __ __ __
 72
    65
 73
     2
 40
0.075
 49
0.05
 74
     0
 49
-0.025
 74
     0
  0
LTYPE
  5
5F
330
5
100
AcDbSymbolTableRecord
100
AcDbLinetypeTableRecord
  2
PHANTOM
 70
     0
  3
Phantom ______  __  __  ______  __  __  ______
 72
    65
 73
     6
 40
0.5
 49
0.25
 74
     0
 49
-0.05
 74
     0
 49
0.05
 74
     0
 49
-0.05
 74
     0
 49
0.05
 74
     0
 49
-0.05
 74
     0
  0
LTYPE
  5
60
330
5
100
AcDbSymbolTableRecord
100
AcDbLinetypeTableRecord
  2
CENTER
 70
     0
  3
Center ____ _ ____ _ ____ _ ____ _ ____ _ ____
 72
    65
 73
     4
 40
0.4
 49
0.25
 74
     0
 49
-0.05
 74
     0
 49
0.05
 74
     0
 49
-0.05
 74
     0
  0
LTYPE
  5
61
330
5
100
AcDbSymbolTableRecord
100
AcDbLinetypeTableRecord
  2
CENTERX2
 70
     0
  3
Center (2x) ________  __  ________  __  _____
 72
    65
 73
     4
 40
0.8
 49
0.5
 74
     0
 49
-0.1
 74
     0
 49
0.1
 74
     0
 49
-0.1
 74
     0
  0
LTYPE
  5
62
330
5
100
AcDbSymbolTableRecord
100
AcDbLinetypeTableRecord
  2
DOT2
 70
     0
  3
Dot (.5x) ........................................
 72
    65
 73
     2
 40
0.025
 49
0.0
 74
     0
 49
-0.025
 74
     0
  0
ENDTAB
  0
TABLE
  2
LAYER
  5
2
330
0
100
AcDbSymbolTable
 70
    11
  0
LAYER
  5
10
330
2
100
AcDbSymbolTableRecord
100
AcDbLayerTableRecord
  2
0
 70
     0
 62
     7
  6
Continuous
370
    -3
390
F
  0
LAYER
  5
63
330
2
100
AcDbSymbolTableRecord
100
AcDbLayerTableRecord
  2
SLD-0
 70
     0
 62
     7
  6
Continuous
370
    -3
390
F
  0
LAYER
  5
64
330
2
100
AcDbSymbolTableRecord
100
AcDbLayerTableRecord
  2
DIM
 70
     0
 62
     7
  6
Continuous
370
    -3
390
F
  0
LAYER
  5
65
330
2
100
AcDbSymbolTableRecord
100
AcDbLayerTableRecord
  2
CEN
 70
     0
 62
     1
  6
CENTER
370
    -3
390
F
  0
LAYER
  5
66
330
2
100
AcDbSymbolTableRecord
100
AcDbLayerTableRecord
  2
HAT
 70
     0
 62
     4
  6
Continuous
370
    -3
390
F
  0
LAYER
  5
67
330
2
100
AcDbSymbolTableRecord
100
AcDbLayerTableRecord
  2
OBJ
 70
     0
 62
     5
  6
Continuous
370
    -3
390
F
  0
LAYER
  5
68
330
2
100
AcDbSymbolTableRecord
100
AcDbLayerTableRecord
  2
SLD-DEFPOINTS
 70
     0
 62
     7
  6
Continuous
370
    -3
390
F
  0
LAYER
  5
69
330
2
100
AcDbSymbolTableRecord
100
AcDbLayerTableRecord
  2
HID
 70
     0
 62
     4
  6
HIDDEN
370
    -3
390
F
  0
LAYER
  5
6A
330
2
100
AcDbSymbolTableRecord
100
AcDbLayerTableRecord
  2
NOTE
 70
     0
 62
     7
  6
Continuous
370
    -3
390
F
  0
LAYER
  5
6B
330
2
100
AcDbSymbolTableRecord
100
AcDbLayerTableRecord
  2
TITLE
 70
     0
 62
     7
  6
Continuous
370
    -3
390
F
  0
LAYER
  5
6C
330
2
100
AcDbSymbolTableRecord
100
AcDbLayerTableRecord
  2
THICK_TITLE
 70
     0
 62
     7
  6
Continuous
370
   100
390
F
  0
ENDTAB
  0
TABLE
  2
STYLE
  5
3
330
0
100
AcDbSymbolTable
 70
     2
  0
STYLE
  5
11
330
3
100
AcDbSymbolTableRecord
100
AcDbTextStyleTableRecord
  2
Standard
 70
     0
 40
0.0
 41
1.0
 50
0.0
 71
     0
 42
0.25
  3
txt
  4

  0
STYLE
  5
6D
330
3
100
AcDbSymbolTableRecord
100
AcDbTextStyleTableRecord
  2
SLDTEXTSTYLE0
 70
     0
 40
0.0
 41
0.75
 50
0.0
 71
     0
 42
0.25
  3
TXT
  4

  0
ENDTAB
  0
TABLE
  2
VIEW
  5
6
330
0
100
AcDbSymbolTable
 70
     0
  0
ENDTAB
  0
TABLE
  2
UCS
  5
7
330
0
100
AcDbSymbolTable
 70
     0
  0
ENDTAB
  0
TABLE
  2
APPID
  5
9
330
0
100
AcDbSymbolTable
 70
     1
  0
APPID
  5
12
330
9
100
AcDbSymbolTableRecord
100
AcDbRegAppTableRecord
  2
ACAD
 70
     0
  0
ENDTAB
  0
TABLE
  2
DIMSTYLE
  5
A
330
0
100
AcDbSymbolTable
 70
     5
100
AcDbDimStyleTable
  0
DIMSTYLE
105
27
330
A
100
AcDbSymbolTableRecord
100
AcDbDimStyleTableRecord
  2
Standard
 70
     0
178
     0
340
11
  0
DIMSTYLE
105
85
102
{ACAD_REACTORS
330
84
330
C7
102
}
330
A
100
AcDbSymbolTableRecord
100
AcDbDimStyleTableRecord
  2
SLDDIMSTYLE0
 70
     0
 41
0.26
 44
0.0
 45
0.000000001
 78
    12
 79
     3
140
0.25
147
0.0625
148
0.000000001
170
     1
173
     1
178
     0
271
     6
272
     0
276
     2
277
     5
284
    12
340
6D
  0
DIMSTYLE
105
AA
102
{ACAD_REACTORS
330
A9
102
}
330
A
100
AcDbSymbolTableRecord
100
AcDbDimStyleTableRecord
  2
SLDDIMSTYLE1
 70
     0
 41
0.26
 44
0.0
 45
0.000000001
 78
    12
 79
     3
140
0.25
147
0.0625
148
0.000000001
170
     1
173
     1
178
     0
271
     0
272
     0
276
     2
277
     5
284
    12
340
6D
  0
DIMSTYLE
105
DD
330
A
100
AcDbSymbolTableRecord
100
AcDbDimStyleTableRecord
  2
SLDDIMSTYLE2
 70
     0
 41
0.26
 44
0.0
 45
0.000000001
146
0.26
147
0.0
173
     1
178
     0
271
     0
272
     0
276
     2
277
     5
340
11
  0
DIMSTYLE
105
12E
102
{ACAD_REACTORS
330
12D
330
139
102
}
330
A
100
AcDbSymbolTableRecord
100
AcDbDimStyleTableRecord
  2
SLDDIMSTYLE3
 70
     0
 41
0.26
 44
0.0
 78
    12
 79
     3
140
0.25
144
2.0
147
0.0625
148
0.000000001
170
     1
173
     1
178
     0
179
     1
272
     1
276
     2
277
     5
284
    12
340
6D
  0
ENDTAB
  0
TABLE
  2
BLOCK_RECORD
  5
1
330
0
100
AcDbSymbolTable
 70
     9
  0
BLOCK_RECORD
  5
1F
330
1
100
AcDbSymbolTableRecord
100
AcDbBlockTableRecord
  2
*Model_Space
340
22
  0
BLOCK_RECORD
  5
1B
330
1
100
AcDbSymbolTableRecord
100
AcDbBlockTableRecord
  2
*Paper_Space
340
1E
  0
BLOCK_RECORD
  5
23
330
1
100
AcDbSymbolTableRecord
100
AcDbBlockTableRecord
  2
*Paper_Space0
340
26
  0
BLOCK_RECORD
  5
86
330
1
100
AcDbSymbolTableRecord
100
AcDbBlockTableRecord
  2
_D
340
0
  0
BLOCK_RECORD
  5
AB
330
1
100
AcDbSymbolTableRecord
100
AcDbBlockTableRecord
  2
_D_1
340
0
  0
BLOCK_RECORD
  5
BD
330
1
100
AcDbSymbolTableRecord
100
AcDbBlockTableRecord
  2
SW_RADIAL_DIMENSION_0
340
0
102
{BLKREFS
331
C6
102
}
  0
BLOCK_RECORD
  5
C8
330
1
100
AcDbSymbolTableRecord
100
AcDbBlockTableRecord
  2
_D_2
340
0
  0
BLOCK_RECORD
  5
DF
330
1
100
AcDbSymbolTableRecord
100
AcDbBlockTableRecord
  2
SW_CENTERMARKSYMBOL_0
340
0
102
{BLKREFS
331
EA
102
}
  0
BLOCK_RECORD
  5
EB
330
1
100
AcDbSymbolTableRecord
100
AcDbBlockTableRecord
  2
SW_CENTERMARKSYMBOL_1
340
0
102
{BLKREFS
331
F6
102
}
  0
BLOCK_RECORD
  5
12F
330
1
100
AcDbSymbolTableRecord
100
AcDbBlockTableRecord
  2
_D_3
340
0
  0
BLOCK_RECORD
  5
13A
330
1
100
AcDbSymbolTableRecord
100
AcDbBlockTableRecord
  2
_D_4
340
0
  0
ENDTAB
  0
ENDSEC
  0
SECTION
  2
BLOCKS
  0
BLOCK
  5
20
330
1F
100
AcDbEntity
  8
0
100
AcDbBlockBegin
  2
*Model_Space
 70
     0
 10
0.0
 20
0.0
 30
0.0
  3
*Model_Space
  1

  0
ENDBLK
  5
21
330
1F
100
AcDbEntity
  8
0
100
AcDbBlockEnd
  0
BLOCK
  5
1C
330
1B
100
AcDbEntity
 67
     1
  8
0
100
AcDbBlockBegin
  2
*Paper_Space
 70
     0
 10
0.0
 20
0.0
 30
0.0
  3
*Paper_Space
  1

  0
ENDBLK
  5
1D
330
1B
100
AcDbEntity
 67
     1
  8
0
100
AcDbBlockEnd
  0
BLOCK
  5
24
330
23
100
AcDbEntity
  8
0
100
AcDbBlockBegin
  2
*Paper_Space0
 70
     0
 10
0.0
 20
0.0
 30
0.0
  3
*Paper_Space0
  1

  0
ENDBLK
  5
25
330
23
100
AcDbEntity
  8
0
100
AcDbBlockEnd
  0
BLOCK
  5
87
330
86
100
AcDbEntity
  8
0
100
AcDbBlockBegin
  2
_D
 70
     0
 10
0.0
 20
0.0
 30
0.0
  3
_D
  1

  0
SOLID
  5
89
330
86
100
AcDbEntity
  8
SLD-0
100
AcDbTrace
 10
2.9875702516
 20
10.7503291859
 30
0.0
 11
3.2475702516
 21
10.7103291859
 31
0.0
 12
3.2475702516
 22
10.7903291859
 32
0.0
 13
3.2475702516
 23
10.7903291859
 33
0.0
  0
SOLID
  5
8A
330
86
100
AcDbEntity
  8
SLD-0
100
AcDbTrace
 10
4.2375702516
 20
10.7503291859
 30
0.0
 11
3.9775702516
 21
10.7903291859
 31
0.0
 12
3.9775702516
 22
10.7103291859
 32
0.0
 13
3.9775702516
 23
10.7103291859
 33
0.0
  0
LINE
  5
8B
330
86
100
AcDbEntity
  8
SLD-0
100
AcDbLine
 10
4.8601086912
 20
10.7484194246
 30
0.0
 11
4.783936817
 21
10.7484194246
 31
0.0
  0
LINE
  5
8C
330
86
100
AcDbEntity
  8
SLD-0
100
AcDbLine
 10
4.783936817
 20
10.7484194246
 30
0.0
 11
4.783936817
 21
10.3515444127
 31
0.0
  0
LINE
  5
8D
330
86
100
AcDbEntity
  8
SLD-0
100
AcDbLine
 10
4.783936817
 20
10.3515444127
 30
0.0
 11
4.8601086912
 21
10.3515444127
 31
0.0
  0
LINE
  5
8E
330
86
100
AcDbEntity
  8
SLD-0
100
AcDbLine
 10
5.8545531566
 20
10.7484194246
 30
0.0
 11
5.9307250308
 21
10.7484194246
 31
0.0
  0
LINE
  5
8F
330
86
100
AcDbEntity
  8
SLD-0
100
AcDbLine
 10
5.9307250308
 20
10.7484194246
 30
0.0
 11
5.9307250308
 21
10.3515444127
 31
0.0
  0
LINE
  5
90
330
86
100
AcDbEntity
  8
SLD-0
100
AcDbLine
 10
5.9307250308
 20
10.3515444127
 30
0.0
 11
5.8545531566
 21
10.3515444127
 31
0.0
  0
LINE
  5
91
330
86
100
AcDbEntity
  8
SLD-0
100
AcDbLine
 10
2.9875702516
 20
10.0629276111
 30
0.0
 11
2.9875702516
 21
11.0003291859
 31
0.0
  0
LINE
  5
92
330
86
100
AcDbEntity
  8
SLD-0
100
AcDbLine
 10
4.2375702516
 20
7.0779276111
 30
0.0
 11
4.2375702516
 21
11.0003291859
 31
0.0
  0
LINE
  5
93
330
86
100
AcDbEntity
  8
SLD-0
100
AcDbLine
 10
2.9875702516
 20
10.7503291859
 30
0.0
 11
4.2375702516
 21
10.7503291859
 31
0.0
  0
LINE
  5
94
330
86
100
AcDbEntity
  8
SLD-0
100
AcDbLine
 10
4.2375702516
 20
10.7503291859
 30
0.0
 11
4.5646587488
 21
10.7503291859
 31
0.0
  0
MTEXT
  5
95
330
86
100
AcDbEntity
  8
SLD-0
100
AcDbMText
 10
4.7091538314
 20
11.1252870796
 30
0.0
 40
0.25
 41
0.0
 71
     1
 72
     1
  1

  7
SLDTEXTSTYLE0
 73
     1
 44
1.0
  0
MTEXT
  5
96
330
86
100
AcDbEntity
  8
SLD-0
100
AcDbMText
 10
4.9095878613
 20
11.1214676167
 30
0.0
 40
0.25
 41
0.0
 71
     1
 72
     1
  1
1 1/4"
  7
SLDTEXTSTYLE0
 73
     1
 44
1.0
  0
MTEXT
  5
97
330
86
100
AcDbEntity
  8
SLD-0
100
AcDbMText
 10
4.8601086912
 20
10.6738113751
 30
0.0
 40
0.25
 41
0.0
 71
     1
 72
     1
  1
32mm
  7
SLDTEXTSTYLE0
 73
     1
 44
1.0
  0
MTEXT
  5
98
330
86
100
AcDbEntity
  8
SLD-0
100
AcDbMText
 10
6.1006468501
 20
11.1252870796
 30
0.0
 40
0.25
 41
0.0
 71
     1
 72
     1
  1

  7
SLDTEXTSTYLE0
 73
     1
 44
1.0
  0
ENDBLK
  5
88
330
86
100
AcDbEntity
  8
0
100
AcDbBlockEnd
  0
BLOCK
  5
AC
330
AB
100
AcDbEntity
  8
0
100
AcDbBlockBegin
  2
_D_1
 70
     0
 10
0.0
 20
0.0
 30
0.0
  3
_D_1
  1

  0
SOLID
  5
AE
330
AB
100
AcDbEntity
  8
SLD-0
100
AcDbTrace
 10
7.3516846684
 20
11.2227701307
 30
0.0
 11
7.6116846684
 21
11.1827701307
 31
0.0
 12
7.6116846684
 22
11.2627701307
 32
0.0
 13
7.6116846684
 23
11.2627701307
 33
0.0
  0
SOLID
  5
AF
330
AB
100
AcDbEntity
  8
SLD-0
100
AcDbTrace
 10
13.3216846684
 20
11.2227701307
 30
0.0
 11
13.0616846684
 21
11.2627701307
 31
0.0
 12
13.0616846684
 22
11.1827701307
 32
0.0
 13
13.0616846684
 23
11.1827701307
 33
0.0
  0
LINE
  5
B0
330
AB
100
AcDbEntity
  8
SLD-0
100
AcDbLine
 10
9.747101361
 20
11.2227700941
 30
0.0
 11
9.6709294868
 21
11.2227700941
 31
0.0
  0
LINE
  5
B1
330
AB
100
AcDbEntity
  8
SLD-0
100
AcDbLine
 10
9.6709294868
 20
11.2227700941
 30
0.0
 11
9.6709294868
 21
10.8258950821
 31
0.0
  0
LINE
  5
B2
330
AB
100
AcDbEntity
  8
SLD-0
100
AcDbLine
 10
9.6709294868
 20
10.8258950821
 30
0.0
 11
9.747101361
 21
10.8258950821
 31
0.0
  0
LINE
  5
B3
330
AB
100
AcDbEntity
  8
SLD-0
100
AcDbLine
 10
10.9262680125
 20
11.2227700941
 30
0.0
 11
11.0024398867
 21
11.2227700941
 31
0.0
  0
LINE
  5
B4
330
AB
100
AcDbEntity
  8
SLD-0
100
AcDbLine
 10
11.0024398867
 20
11.2227700941
 30
0.0
 11
11.0024398867
 21
10.8258950821
 31
0.0
  0
LINE
  5
B5
330
AB
100
AcDbEntity
  8
SLD-0
100
AcDbLine
 10
11.0024398867
 20
10.8258950821
 30
0.0
 11
10.9262680125
 21
10.8258950821
 31
0.0
  0
LINE
  5
B6
330
AB
100
AcDbEntity
  8
SLD-0
100
AcDbLine
 10
7.3516846684
 20
7.0779276111
 30
0.0
 11
7.3516846684
 21
11.4727701307
 31
0.0
  0
LINE
  5
B7
330
AB
100
AcDbEntity
  8
SLD-0
100
AcDbLine
 10
13.3216846684
 20
7.0779276111
 30
0.0
 11
13.3216846684
 21
11.4727701307
 31
0.0
  0
LINE
  5
B8
330
AB
100
AcDbEntity
  8
SLD-0
100
AcDbLine
 10
7.3516846684
 20
11.2227701307
 30
0.0
 11
9.54401253
 21
11.2227701307
 31
0.0
  0
LINE
  5
B9
330
AB
100
AcDbEntity
  8
SLD-0
100
AcDbLine
 10
13.3216846684
 20
11.2227701307
 30
0.0
 11
11.1293568069
 21
11.2227701307
 31
0.0
  0
MTEXT
  5
BA
330
AB
100
AcDbEntity
  8
SLD-0
100
AcDbMText
 10
10.0042454455
 20
11.5958183045
 30
0.0
 40
0.25
 41
0.0
 71
     1
 72
     1
  1
%%c
  7
SLDTEXTSTYLE0
 73
     1
 44
1.0
  0
MTEXT
  5
BB
330
AB
100
AcDbEntity
  8
SLD-0
100
AcDbMText
 10
10.3812766866
 20
11.5958183045
 30
0.0
 40
0.25
 41
0.0
 71
     1
 72
     1
  1
6"
  7
SLDTEXTSTYLE0
 73
     1
 44
1.0
  0
MTEXT
  5
BC
330
AB
100
AcDbEntity
  8
SLD-0
100
AcDbMText
 10
9.747101361
 20
11.1481620446
 30
0.0
 40
0.25
 41
0.0
 71
     1
 72
     1
  1
152mm
  7
SLDTEXTSTYLE0
 73
     1
 44
1.0
  0
ENDBLK
  5
AD
330
AB
100
AcDbEntity
  8
0
100
AcDbBlockEnd
  0
BLOCK
  5
BE
330
BD
100
AcDbEntity
  8
0
100
AcDbBlockBegin
  2
SW_RADIAL_DIMENSION_0
 70
     0
 10
0.0
 20
0.0
 30
0.0
  3
SW_RADIAL_DIMENSION_0
  1

  0
SOLID
  5
C0
330
BD
100
AcDbEntity
  8
SLD-0
 62
     0
100
AcDbTrace
 10
-2.7332268164
 20
1.5121765489
 30
0.0
 11
-2.5739757959
 21
1.302798631
 31
0.0
 12
-2.5184056019
 22
1.3603482056
 32
0.0
 13
-2.5184056019
 23
1.3603482056
 33
0.0
  0
LINE
  5
C1
330
BD
100
AcDbEntity
  8
SLD-0
 62
     0
100
AcDbLine
 10
-2.7332268164
 20
1.5121765489
 30
0.0
 11
-1.1671873193
 21
-0.0000000275
 31
0.0
  0
LINE
  5
C2
330
BD
100
AcDbEntity
  8
SLD-0
 62
     0
100
AcDbLine
 10
-1.1671873193
 20
-0.0000000275
 30
0.0
 11
-0.6671873193
 21
-0.0000000275
 31
0.0
  0
MTEXT
  5
C3
330
BD
100
AcDbEntity
  8
SLD-0
 62
     0
100
AcDbMText
 10
0.0
 20
0.3222669349
 30
0.0
 40
0.25
 41
0.0
 71
     1
 72
     1
  1
2
  7
SLDTEXTSTYLE0
 73
     1
 44
1.0
  0
MTEXT
  5
C4
330
BD
100
AcDbEntity
  8
SLD-0
 62
     0
100
AcDbMText
 10
0.1847222227
 20
0.3222669349
 30
0.0
 40
0.25
 41
0.0
 71
     1
 72
     1
  1
X 1/2" THREADED
  7
SLDTEXTSTYLE0
 73
     1
 44
1.0
  0
MTEXT
  5
C5
330
BD
100
AcDbEntity
  8
SLD-0
 62
     0
100
AcDbMText
 10
-0.6671873193
 20
-0.074608077
 30
0.0
 40
0.25
 41
0.0
 71
     1
 72
     1
  1
FIXTURE MOUNTING HOLES
  7
SLDTEXTSTYLE0
 73
     1
 44
1.0
  0
ENDBLK
  5
BF
330
BD
100
AcDbEntity
  8
0
100
AcDbBlockEnd
  0
BLOCK
  5
C9
330
C8
100
AcDbEntity
  8
0
100
AcDbBlockBegin
  2
_D_2
 70
     0
 10
0.0
 20
0.0
 30
0.0
  3
_D_2
  1

  0
SOLID
  5
CB
330
C8
100
AcDbEntity
  8
SLD-0
100
AcDbTrace
 10
6.5642830936
 20
8.7279276111
 30
0.0
 11
6.5242830936
 21
8.4679276111
 31
0.0
 12
6.6042830936
 22
8.4679276111
 32
0.0
 13
6.6042830936
 23
8.4679276111
 33
0.0
  0
SOLID
  5
CC
330
C8
100
AcDbEntity
  8
SLD-0
100
AcDbTrace
 10
6.5642830936
 20
5.2279276111
 30
0.0
 11
6.6042830936
 21
5.4879276111
 31
0.0
 12
6.5242830936
 22
5.4879276111
 32
0.0
 13
6.5242830936
 23
5.4879276111
 33
0.0
  0
LINE
  5
CD
330
C8
100
AcDbEntity
  8
SLD-0
100
AcDbLine
 10
6.0670608976
 20
6.9760178498
 30
0.0
 11
5.9908890234
 21
6.9760178498
 31
0.0
  0
LINE
  5
CE
330
C8
100
AcDbEntity
  8
SLD-0
100
AcDbLine
 10
5.9908890234
 20
6.9760178498
 30
0.0
 11
5.9908890234
 21
6.5791428379
 31
0.0
  0
LINE
  5
CF
330
C8
100
AcDbEntity
  8
SLD-0
100
AcDbLine
 10
5.9908890234
 20
6.5791428379
 30
0.0
 11
6.0670608976
 21
6.5791428379
 31
0.0
  0
LINE
  5
D0
330
C8
100
AcDbEntity
  8
SLD-0
100
AcDbLine
 10
7.061505363
 20
6.9760178498
 30
0.0
 11
7.1376772372
 21
6.9760178498
 31
0.0
  0
LINE
  5
D1
330
C8
100
AcDbEntity
  8
SLD-0
100
AcDbLine
 10
7.1376772372
 20
6.9760178498
 30
0.0
 11
7.1376772372
 21
6.5791428379
 31
0.0
  0
LINE
  5
D2
330
C8
100
AcDbEntity
  8
SLD-0
100
AcDbLine
 10
7.1376772372
 20
6.5791428379
 30
0.0
 11
7.061505363
 21
6.5791428379
 31
0.0
  0
LINE
  5
D3
330
C8
100
AcDbEntity
  8
SLD-0
100
AcDbLine
 10
9.9491846684
 20
8.7279276111
 30
0.0
 11
6.3142830936
 21
8.7279276111
 31
0.0
  0
LINE
  5
D4
330
C8
100
AcDbEntity
  8
SLD-0
100
AcDbLine
 10
9.9491846684
 20
5.2279276111
 30
0.0
 11
6.3142830936
 21
5.2279276111
 31
0.0
  0
LINE
  5
D5
330
C8
100
AcDbEntity
  8
SLD-0
100
AcDbLine
 10
6.5642830936
 20
8.7279276111
 30
0.0
 11
6.5642830936
 21
7.4274935543
 31
0.0
  0
LINE
  5
D6
330
C8
100
AcDbEntity
  8
SLD-0
100
AcDbLine
 10
6.5642830936
 20
5.2279276111
 30
0.0
 11
6.5642830936
 21
6.5283616678
 31
0.0
  0
MTEXT
  5
D7
330
C8
100
AcDbEntity
  8
SLD-0
100
AcDbMText
 10
5.9161060378
 20
7.3528855048
 30
0.0
 40
0.25
 41
0.0
 71
     1
 72
     1
  1

  7
SLDTEXTSTYLE0
 73
     1
 44
1.0
  0
MTEXT
  5
D8
330
C8
100
AcDbEntity
  8
SLD-0
100
AcDbMText
 10
6.1165400677
 20
7.3490660418
 30
0.0
 40
0.25
 41
0.0
 71
     1
 72
     1
  1
3 1/2"
  7
SLDTEXTSTYLE0
 73
     1
 44
1.0
  0
MTEXT
  5
D9
330
C8
100
AcDbEntity
  8
SLD-0
100
AcDbMText
 10
6.0670608976
 20
6.9014098003
 30
0.0
 40
0.25
 41
0.0
 71
     1
 72
     1
  1
89mm
  7
SLDTEXTSTYLE0
 73
     1
 44
1.0
  0
MTEXT
  5
DA
330
C8
100
AcDbEntity
  8
SLD-0
100
AcDbMText
 10
7.3075990565
 20
7.3528855048
 30
0.0
 40
0.25
 41
0.0
 71
     1
 72
     1
  1

  7
SLDTEXTSTYLE0
 73
     1
 44
1.0
  0
ENDBLK
  5
CA
330
C8
100
AcDbEntity
  8
0
100
AcDbBlockEnd
  0
BLOCK
  5
E0
330
DF
100
AcDbEntity
  8
0
100
AcDbBlockBegin
  2
SW_CENTERMARKSYMBOL_0
 70
     0
 10
0.0
 20
0.0
 30
0.0
  3
SW_CENTERMARKSYMBOL_0
  1

  0
LINE
  5
E2
330
DF
100
AcDbEntity
  8
SLD-0
 62
     0
100
AcDbLine
 10
0.0
 20
0.0
 30
0.0
 11
0.0
 21
0.1
 31
0.0
  0
LINE
  5
E3
330
DF
100
AcDbEntity
  8
SLD-0
 62
     0
100
AcDbLine
 10
0.0
 20
0.0
 30
0.0
 11
-0.1
 21
0.0
 31
0.0
  0
LINE
  5
E4
330
DF
100
AcDbEntity
  8
SLD-0
 62
     0
100
AcDbLine
 10
0.0
 20
0.0
 30
0.0
 11
0.0
 21
-0.1
 31
0.0
  0
LINE
  5
E5
330
DF
100
AcDbEntity
  8
SLD-0
 62
     0
100
AcDbLine
 10
0.0
 20
0.0
 30
0.0
 11
0.1
 21
0.0
 31
0.0
  0
LINE
  5
E6
330
DF
100
AcDbEntity
  8
SLD-0
 62
     0
100
AcDbLine
 10
0.0
 20
0.2
 30
0.0
 11
0.0
 21
0.2875
 31
0.0
  0
LINE
  5
E7
330
DF
100
AcDbEntity
  8
SLD-0
 62
     0
100
AcDbLine
 10
-0.2
 20
0.0
 30
0.0
 11
-0.2875
 21
0.0
 31
0.0
  0
LINE
  5
E8
330
DF
100
AcDbEntity
  8
SLD-0
 62
     0
100
AcDbLine
 10
0.0
 20
-0.2
 30
0.0
 11
0.0
 21
-1.8672224518
 31
0.0
  0
LINE
  5
E9
330
DF
100
AcDbEntity
  8
SLD-0
 62
     0
100
AcDbLine
 10
0.2
 20
0.0
 30
0.0
 11
0.2875
 21
0.0
 31
0.0
  0
ENDBLK
  5
E1
330
DF
100
AcDbEntity
  8
0
100
AcDbBlockEnd
  0
BLOCK
  5
EC
330
EB
100
AcDbEntity
  8
0
100
AcDbBlockBegin
  2
SW_CENTERMARKSYMBOL_1
 70
     0
 10
0.0
 20
0.0
 30
0.0
  3
SW_CENTERMARKSYMBOL_1
  1

  0
LINE
  5
EE
330
EB
100
AcDbEntity
  8
SLD-0
 62
     0
100
AcDbLine
 10
0.0
 20
0.0
 30
0.0
 11
0.0
 21
0.1
 31
0.0
  0
LINE
  5
EF
330
EB
100
AcDbEntity
  8
SLD-0
 62
     0
100
AcDbLine
 10
0.0
 20
0.0
 30
0.0
 11
-0.1
 21
0.0
 31
0.0
  0
LINE
  5
F0
330
EB
100
AcDbEntity
  8
SLD-0
 62
     0
100
AcDbLine
 10
0.0
 20
0.0
 30
0.0
 11
0.0
 21
-0.1
 31
0.0
  0
LINE
  5
F1
330
EB
100
AcDbEntity
  8
SLD-0
 62
     0
100
AcDbLine
 10
0.0
 20
0.0
 30
0.0
 11
0.1
 21
0.0
 31
0.0
  0
LINE
  5
F2
330
EB
100
AcDbEntity
  8
SLD-0
 62
     0
100
AcDbLine
 10
0.0
 20
0.2
 30
0.0
 11
0.0
 21
1.7851479515
 31
0.0
  0
LINE
  5
F3
330
EB
100
AcDbEntity
  8
SLD-0
 62
     0
100
AcDbLine
 10
-0.2
 20
0.0
 30
0.0
 11
-0.2875
 21
0.0
 31
0.0
  0
LINE
  5
F4
330
EB
100
AcDbEntity
  8
SLD-0
 62
     0
100
AcDbLine
 10
0.0
 20
-0.2
 30
0.0
 11
0.0
 21
-0.2875
 31
0.0
  0
LINE
  5
F5
330
EB
100
AcDbEntity
  8
SLD-0
 62
     0
100
AcDbLine
 10
0.2
 20
0.0
 30
0.0
 11
0.2875
 21
0.0
 31
0.0
  0
ENDBLK
  5
ED
330
EB
100
AcDbEntity
  8
0
100
AcDbBlockEnd
  0
BLOCK
  5
130
330
12F
100
AcDbEntity
  8
0
100
AcDbBlockBegin
  2
_D_3
 70
     0
 10
0.0
 20
0.0
 30
0.0
  3
_D_3
  1

  0
ARC
  5
132
330
12F
100
AcDbEntity
  8
SLD-0
100
AcDbCircle
 10
10.3366846684
 20
18.0090327585
 30
0.0
 40
5.349068204022869
100
AcDbArc
 50
247.5
 51
254.4554692145
  0
ARC
  5
133
330
12F
100
AcDbEntity
  8
SLD-0
100
AcDbCircle
 10
10.3366846684
 20
18.0090327585
 30
0.0
 40
5.349068204022869
100
AcDbArc
 50
262.9812927301
 51
270.0
  0
SOLID
  5
134
330
12F
100
AcDbEntity
  8
SLD-0
100
AcDbTrace
 10
8.2896848882
 20
13.0671381268
 30
0.0
 11
8.5178332392
 21
12.9361864949
 31
0.0
 12
8.5466442106
 22
13.0108184446
 32
0.0
 13
8.5466442106
 23
13.0108184446
 33
0.0
  0
SOLID
  5
135
330
12F
100
AcDbEntity
  8
SLD-0
100
AcDbTrace
 10
10.3366846684
 20
12.6599645545
 30
0.0
 11
10.0777326004
 21
12.7062660284
 31
0.0
 12
10.0757900565
 22
12.6262896161
 32
0.0
 13
10.0757900565
 23
12.6262896161
 33
0.0
  0
LINE
  5
136
330
12F
100
AcDbEntity
  8
SLD-0
100
AcDbLine
 10
8.4247041381
 20
13.3931034313
 30
0.0
 11
8.1940140301
 21
12.8361682437
 31
0.0
  0
LINE
  5
137
330
12F
100
AcDbEntity
  8
SLD-0
100
AcDbLine
 10
10.3366846684
 20
12.9501469749
 30
0.0
 11
10.3366846684
 21
12.4099645545
 31
0.0
  0
MTEXT
  5
138
330
12F
100
AcDbEntity
  8
SLD-0
100
AcDbMText
 10
8.9032026579
 20
12.8865748566
 30
0.0
 40
0.25
 41
0.0
 71
     1
 72
     1
  1
22.5°
  7
SLDTEXTSTYLE0
 73
     1
 44
1.0
  0
ENDBLK
  5
131
330
12F
100
AcDbEntity
  8
0
100
AcDbBlockEnd
  0
BLOCK
  5
13B
330
13A
100
AcDbEntity
  8
0
100
AcDbBlockBegin
  2
_D_4
 70
     0
 10
0.0
 20
0.0
 30
0.0
  3
_D_4
  1

  0
ARC
  5
13D
330
13A
100
AcDbEntity
  8
SLD-0
100
AcDbCircle
 10
10.3366846684
 20
18.0090327585
 30
0.0
 40
5.349068204022895
100
AcDbArc
 50
270.0
 51
277.0187072699
  0
ARC
  5
13E
330
13A
100
AcDbEntity
  8
SLD-0
100
AcDbCircle
 10
10.3366846684
 20
18.0090327585
 30
0.0
 40
5.349068204022892
100
AcDbArc
 50
285.5445307855
 51
292.5
  0
SOLID
  5
13F
330
13A
100
AcDbEntity
  8
SLD-0
100
AcDbTrace
 10
10.3366846684
 20
12.6599645545
 30
0.0
 11
10.5975792803
 21
12.6262896161
 31
0.0
 12
10.5956367364
 22
12.7062660284
 32
0.0
 13
10.5956367364
 23
12.7062660284
 33
0.0
  0
SOLID
  5
140
330
13A
100
AcDbEntity
  8
SLD-0
100
AcDbTrace
 10
12.3836844487
 20
13.0671381268
 30
0.0
 11
12.1267251262
 21
13.0108184446
 31
0.0
 12
12.1555360976
 22
12.9361864949
 32
0.0
 13
12.1555360976
 23
12.9361864949
 33
0.0
  0
LINE
  5
141
330
13A
100
AcDbEntity
  8
SLD-0
100
AcDbLine
 10
10.3366846684
 20
12.9501469749
 30
0.0
 11
10.3366846684
 21
12.4099645545
 31
0.0
  0
LINE
  5
142
330
13A
100
AcDbEntity
  8
SLD-0
100
AcDbLine
 10
12.2486651987
 20
13.3931034313
 30
0.0
 11
12.4793553068
 21
12.8361682437
 31
0.0
  0
MTEXT
  5
143
330
13A
100
AcDbEntity
  8
SLD-0
100
AcDbMText
 10
10.9903055347
 20
12.8865748566
 30
0.0
 40
0.25
 41
0.0
 71
     1
 72
     1
  1
22.5°
  7
SLDTEXTSTYLE0
 73
     1
 44
1.0
  0
ENDBLK
  5
13C
330
13A
100
AcDbEntity
  8
0
100
AcDbBlockEnd
  0
ENDSEC
  0
SECTION
  2
ENTITIES
  0
MTEXT
  5
6E
330
1F
100
AcDbEntity
  8
SLD-0
100
AcDbMText
 10
17.5084710744
 20
1.6865019925
 30
0.0
 40
0.25
 41
0.0
 71
     1
 72
     1
  1
BC15
  7
SLDTEXTSTYLE0
 73
     1
 44
1.0
  0
LINE
  5
6F
330
1F
100
AcDbEntity
  8
0
  6
Continuous
 62
     7
370
    25
100
AcDbLine
 10
3.4695893966
 20
9.9629276111
 30
0.0
 11
2.9875702516
 21
9.9629276111
 31
0.0
  0
LINE
  5
70
330
1F
100
AcDbEntity
  8
0
  6
Continuous
 62
     7
370
    25
100
AcDbLine
 10
2.9875702516
 20
3.9929276111
 30
0.0
 11
3.4695893966
 21
3.9929276111
 31
0.0
  0
ARC
  5
71
330
1F
100
AcDbEntity
  8
0
  6
Continuous
 62
     7
370
    25
100
AcDbCircle
 10
3.4695893966
 20
4.0229276111
 30
0.0
 40
0.0299999999999998
100
AcDbArc
 50
270.0
 51
331.9555868497
  0
ARC
  5
72
330
1F
100
AcDbEntity
  8
0
  6
Continuous
 62
     7
370
    25
100
AcDbCircle
 10
3.4695893966
 20
9.9329276111
 30
0.0
 40
0.0299999999999994
100
AcDbArc
 50
28.0444131503
 51
90.0
  0
ARC
  5
73
330
1F
100
AcDbEntity
  8
0
  6
Continuous
 62
     7
370
    25
100
AcDbCircle
 10
-2.0775797484
 20
6.9779276111
 30
0.0
 40
6.315149999999999
100
AcDbArc
 50
17.848879056
 51
28.0444131503
  0
ARC
  5
74
330
1F
100
AcDbEntity
  8
0
  6
Continuous
 62
     7
370
    25
100
AcDbCircle
 10
-2.0775797484
 20
6.9779276111
 30
0.0
 40
6.315149999999999
100
AcDbArc
 50
345.6709994845
 51
14.3309040276
  0
ARC
  5
75
330
1F
100
AcDbEntity
  8
0
  6
Continuous
 62
     7
370
    25
100
AcDbCircle
 10
-2.0775797484
 20
6.9779276111
 30
0.0
 40
6.315149999999997
100
AcDbArc
 50
331.9555868497
 51
342.1519089868
  0
LINE
  5
76
330
1F
100
AcDbEntity
  8
0
  6
Continuous
 62
     7
370
    25
100
AcDbLine
 10
2.9875702516
 20
9.9629276111
 30
0.0
 11
2.9875702516
 21
3.9929276111
 31
0.0
  0
SPLINE
  5
77
330
1F
100
AcDbEntity
  8
0
  6
Continuous
 62
     7
370
    25
100
AcDbSpline
210
0.0
220
0.0
230
1.0
 70
    11
 71
     3
 72
    45
 73
    41
 74
     0
 42
0.00000001
 43
0.00000001
 40
0.0
 40
0.0
 40
0.0
 40
0.0
 40
0.0269713543477141
 40
0.0539434712520521
 40
0.0809098105591674
 40
0.107876573685941
 40
0.1349391250608359
 40
0.1620015775636624
 40
0.1891050285777002
 40
0.2162078763816372
 40
0.243238275297874
 40
0.2702678256227196
 40
0.2971415265116298
 40
0.3240145241448716
 40
0.3507183060796043
 40
0.3774218501374159
 40
0.4040196763794838
 40
0.4306178219031911
 40
0.4572207694719869
 40
0.4838244349002341
 40
0.5105401619867422
 40
0.5372566859570157
 40
0.5641422160961035
 40
0.5910282763874078
 40
0.6180655642981008
 40
0.6451028810767216
 40
0.6722070188722988
 40
0.6993106654487812
 40
0.7263678997118876
 40
0.7534243392198429
 40
0.7803431906076116
 40
0.8072612974333917
 40
0.8340124942423283
 40
0.8607633163510655
 40
0.8873902548307
 40
0.9140173330909575
 40
0.9406149591209597
 40
0.9672131665712865
 40
0.9836065279640515
 40
0.9999999999999999
 40
0.9999999999999999
 40
0.9999999999999999
 40
0.9999999999999999
 10
3.800199915848609
 20
6.429700273035587
 30
0.0
 10
3.809232942458954
 20
6.401126590615062
 30
0.0
 10
3.827299251068902
 20
6.343978417915034
 30
0.0
 10
3.858893551540065
 20
6.280411513275224
 30
0.0
 10
3.892731191787691
 20
6.236042574099536
 30
0.0
 10
3.928197595400148
 20
6.212679775705932
 30
0.0
 10
3.964233535356765
 20
6.211519996660829
 30
0.0
 10
3.999865744968215
 20
6.231909825340702
 30
0.0
 10
4.033993290000185
 20
6.274187899371708
 30
0.0
 10
4.065698449315598
 20
6.336326551036296
 30
0.0
 10
4.093943293656963
 20
6.41731566917713
 30
0.0
 10
4.118037919437478
 20
6.513933797307463
 30
0.0
 10
4.1371491677059
 20
6.624033172894332
 30
0.0
 10
4.150940296120609
 20
6.743667338481544
 30
0.0
 10
4.15885220434707
 20
6.869911103788822
 30
0.0
 10
4.160938133167164
 20
6.99874855618959
 30
0.0
 10
4.156933418335438
 20
7.126803000586807
 30
0.0
 10
4.147226339049499
 20
7.250555044938388
 30
0.0
 10
4.131855974556336
 20
7.366430808409605
 30
0.0
 10
4.111453133003141
 20
7.471713065590642
 30
0.0
 10
4.08637673373126
 20
7.562910052342551
 30
0.0
 10
4.057427214273961
 20
7.638210964180901
 30
0.0
 10
4.02528416543055
 20
7.694596173058553
 30
0.0
 10
3.990874787651113
 20
7.731242869082519
 30
0.0
 10
3.95514742909044
 20
7.746059350563084
 30
0.0
 10
3.919105714517825
 20
7.739372315435697
 30
0.0
 10
3.883847217808794
 20
7.710379478979309
 30
0.0
 10
3.850350306997451
 20
7.66071590483578
 30
0.0
 10
3.819700949881795
 20
7.590978687891371
 30
0.0
 10
3.792699174106887
 20
7.504064303842565
 30
0.0
 10
3.770270370893889
 20
7.401796571591411
 30
0.0
 10
3.752888721751109
 20
7.287954429689871
 30
0.0
 10
3.741223289194834
 20
7.16525320206072
 30
0.0
 10
3.735350680097322
 20
7.037741081030535
 30
0.0
 10
3.735640121580291
 20
6.908685063345636
 30
0.0
 10
3.74180231004569
 20
6.781820416860833
 30
0.0
 10
3.753866875390571
 20
6.660629575972402
 30
0.0
 10
3.769096901990542
 20
6.562826197573329
 30
0.0
 10
3.784950802448376
 20
6.486322236039216
 30
0.0
 10
3.795116866612989
 20
6.448574303165137
 30
0.0
 10
3.800199915848609
 20
6.429700273035587
 30
0.0
  0
SPLINE
  5
78
330
1F
100
AcDbEntity
  8
0
  6
Continuous
 62
     7
370
    25
100
AcDbSpline
210
0.0
220
0.0
230
1.0
 70
     8
 71
     3
 72
    18
 73
    14
 74
     0
 42
0.00000001
 43
0.00000001
 40
0.0
 40
0.0
 40
0.0
 40
0.0
 40
0.0708652096153021
 40
0.1438342663615975
 40
0.2870021268513151
 40
0.4336811265477868
 40
0.5070006587877084
 40
0.5825079823571595
 40
0.6546711017773732
 40
0.7290751961476762
 40
0.7987119802480538
 40
0.8705286949645202
 40
1.0
 40
1.0
 40
1.0
 40
1.0
 10
3.947394046015334
 20
5.08988359694868
 30
0.0
 10
3.949598612633217
 20
5.097475781415518
 30
0.0
 10
3.954073195067246
 20
5.112885547206065
 30
0.0
 10
3.964620126102426
 20
5.149260364935218
 30
0.0
 10
3.979614324978759
 20
5.201075866104127
 30
0.0
 10
3.995343763646193
 20
5.255604961795225
 30
0.0
 10
4.007421220253961
 20
5.297569722131402
 30
0.0
 10
4.015884517129278
 20
5.32701952509986
 30
0.0
 10
4.02353641997429
 20
5.353681449266922
 30
0.0
 10
4.029951058989042
 20
5.376058604557761
 30
0.0
 10
4.035056119518317
 20
5.393883933099346
 30
0.0
 10
4.039924711285677
 20
5.41089678934532
 30
0.0
 10
4.040636490238215
 20
5.413386200667783
 30
0.0
 10
4.041094316541019
 20
5.414987425286549
 30
0.0
  0
SPLINE
  5
79
330
1F
100
AcDbEntity
  8
0
  6
Continuous
 62
     7
370
    25
100
AcDbSpline
210
0.0
220
0.0
230
1.0
 70
     8
 71
     3
 72
    10
 73
     6
 74
     0
 42
0.00000001
 43
0.00000001
 40
0.0
 40
0.0
 40
0.0
 40
0.0
 40
0.3204628044799325
 40
0.7538505915034647
 40
1.0
 40
1.0
 40
1.0
 40
1.0
 10
3.933579802429875
 20
5.042377964370449
 30
0.0
 10
3.933664953201796
 20
5.042670412039713
 30
0.0
 10
3.933865260254232
 20
5.043358360361253
 30
0.0
 10
3.939601556265125
 20
5.063064349632596
 30
0.0
 10
3.945321944361917
 20
5.082752088472126
 30
0.0
 10
3.947394046015334
 20
5.089883596948678
 30
0.0
  0
SPLINE
  5
7A
330
1F
100
AcDbEntity
  8
0
  6
Continuous
 62
     7
370
    25
100
AcDbSpline
210
0.0
220
0.0
230
1.0
 70
     8
 71
     3
 72
    19
 73
    15
 74
     0
 42
0.00000001
 43
0.00000001
 40
0.0
 40
0.0
 40
0.0
 40
0.0
 40
0.0731847818110465
 40
0.1485381255555946
 40
0.2964004678655285
 40
0.3711828538841613
 40
0.4481009508918164
 40
0.5233710649785539
 40
0.6009042619379041
 40
0.6747024090972604
 40
0.750804032115514
 40
0.821841642260343
 40
0.8951022596436741
 40
1.0
 40
1.0
 40
1.0
 40
1.0
 10
4.024601259718905
 20
8.598456244462552
 30
0.0
 10
4.022280145998804
 20
8.606547390811414
 30
0.0
 10
4.01756914088745
 20
8.622969434882805
 30
0.0
 10
4.006673461303409
 20
8.660893564935579
 30
0.0
 10
3.99449630640394
 20
8.703191334733011
 30
0.0
 10
3.982066635024901
 20
8.746264287059407
 30
0.0
 10
3.972770829189348
 20
8.778427426157688
 30
0.0
 10
3.963771233852009
 20
8.80951811723053
 30
0.0
 10
3.95555434493036
 20
8.837863735264499
 30
0.0
 10
3.948242465409612
 20
8.863054746172699
 30
0.0
 10
3.942244365489045
 20
8.883696174073904
 30
0.0
 10
3.937655679557902
 20
8.89947372447537
 30
0.0
 10
3.933806751945969
 20
8.91269846495624
 30
0.0
 10
3.933650319342039
 20
8.91323530625768
 30
0.0
 10
3.933558213493745
 20
8.913551392688683
 30
0.0
  0
SPLINE
  5
7B
330
1F
100
AcDbEntity
  8
0
  6
Continuous
 62
     7
370
    25
100
AcDbSpline
210
0.0
220
0.0
230
1.0
 70
     8
 71
     3
 72
    10
 73
     6
 74
     0
 42
0.00000001
 43
0.00000001
 40
0.0
 40
0.0
 40
0.0
 40
0.0
 40
0.3727113325319418
 40
0.7717421192325216
 40
0.9999999999999999
 40
0.9999999999999999
 40
0.9999999999999999
 40
0.9999999999999999
 10
4.04104010142
 20
8.541057332632391
 30
0.0
 10
4.040623466684998
 20
8.542514174200955
 30
0.0
 10
4.039760776057504
 20
8.545530733938678
 30
0.0
 10
4.032939469138012
 20
8.569370873717018
 30
0.0
 10
4.026825875101115
 20
8.590696333442626
 30
0.0
 10
4.024601259718905
 20
8.598456244462552
 30
0.0
  0
LWPOLYLINE
  5
7C
330
1F
100
AcDbEntity
  8
0
  6
Continuous
 62
     7
370
    25
100
AcDbPolyline
 90
       17
 70
   128
 43
0.0
 10
4.1330389015
 20
6.9779276111
 10
4.1318933076
 20
7.0455383911
 10
4.1284654918
 20
7.1126200251
 10
4.1227822813
 20
7.1786475083
 10
4.1148881549
 20
7.2431040862
 10
4.104844895
 20
7.3054852986
 10
4.0927311036
 20
7.365302928
 10
4.0786415876
 20
7.4220888204
 10
4.0626866165
 20
7.475398549
 10
4.0449910596
 20
7.5248148931
 10
4.0256934087
 20
7.5699511027
 10
4.0049446941
 20
7.6104539257
 10
3.9829073025
 20
7.6460063728
 10
3.9597537064
 20
7.6763301977
 10
3.9356651141
 20
7.7011880754
 10
3.9108300516
 20
7.7203854594
 10
3.903610012
 20
7.7248168581
  0
LWPOLYLINE
  5
7D
330
1F
100
AcDbEntity
  8
0
  6
Continuous
 62
     7
370
    25
100
AcDbPolyline
 90
       17
 70
   128
 43
0.0
 10
3.9033109246
 20
6.2308656397
 10
3.9108300516
 20
6.2354697627
 10
3.9356651141
 20
6.2546671467
 10
3.9597537064
 20
6.2795250244
 10
3.9829073025
 20
6.3098488493
 10
4.0049446941
 20
6.3454012964
 10
4.0256934087
 20
6.3859041195
 10
4.0449910596
 20
6.431040329
 10
4.0626866165
 20
6.4804566731
 10
4.0786415876
 20
6.5337664018
 10
4.0927311036
 20
6.5905522941
 10
4.104844895
 20
6.6503699235
 10
4.1148881549
 20
6.7127511359
 10
4.1227822813
 20
6.7772077138
 10
4.1284654918
 20
6.843235197
 10
4.1318933076
 20
6.910316831
 10
4.1330389015
 20
6.9779276111
  0
LWPOLYLINE
  5
7E
330
1F
100
AcDbEntity
  8
0
  6
Continuous
 62
     7
370
    25
100
AcDbPolyline
 90
       19
 70
   128
 43
0.0
 10
3.9832183378
 20
6.9779276111
 10
3.9820912742
 20
7.0247395738
 10
3.9787278579
 20
7.0708132839
 10
3.9731811321
 20
7.1154221315
 10
3.9655385718
 20
7.1578626083
 10
3.9559207048
 20
7.1974654028
 10
3.9444792106
 20
7.2336059551
 10
3.9313945285
 20
7.2657143072
 10
3.9168730116
 20
7.2932840912
 10
3.901143673
 20
7.3158805152
 10
3.8844545738
 20
7.3331472199
 10
3.8670689109
 20
7.3448118992
 10
3.8492608668
 20
7.3506905941
 10
3.8313112848
 20
7.3506905941
 10
3.8135032406
 20
7.3448118992
 10
3.7961175778
 20
7.3331472199
 10
3.7794284785
 20
7.3158805152
 10
3.7636991399
 20
7.2932840912
 10
3.7524299351
 20
7.2725386421
  0
LWPOLYLINE
  5
7F
330
1F
100
AcDbEntity
  8
0
  6
Continuous
 62
     7
370
    25
100
AcDbPolyline
 90
       19
 70
   128
 43
0.0
 10
3.7518977499
 20
6.6844055686
 10
3.7636991399
 20
6.6625711309
 10
3.7794284785
 20
6.639974707
 10
3.7961175778
 20
6.6227080022
 10
3.8135032406
 20
6.6110433229
 10
3.8313112848
 20
6.605164628
 10
3.8492608668
 20
6.605164628
 10
3.8670689109
 20
6.6110433229
 10
3.8844545738
 20
6.6227080022
 10
3.901143673
 20
6.639974707
 10
3.9168730116
 20
6.6625711309
 10
3.9313945285
 20
6.6901409149
 10
3.9444792106
 20
6.722249267
 10
3.9559207048
 20
6.7583898193
 10
3.9655385718
 20
6.7979926138
 10
3.9731811321
 20
6.8404330906
 10
3.9787278579
 20
6.8850419382
 10
3.9820912742
 20
6.9311156483
 10
3.9832183378
 20
6.9779276111
  0
LINE
  5
80
330
1F
100
AcDbEntity
  8
0
  6
Continuous
 62
     7
370
    25
100
AcDbLine
 10
3.4695893966
 20
6.9779276111
 30
0.0
 11
3.4695893966
 21
9.9629276111
 31
0.0
  0
LINE
  5
81
330
1F
100
AcDbEntity
  8
0
  6
Continuous
 62
     7
370
    25
100
AcDbLine
 10
3.4695893966
 20
3.9929276111
 30
0.0
 11
3.4695893966
 21
6.9779276111
 31
0.0
  0
LINE
  5
82
330
1F
100
AcDbEntity
  8
0
  6
Continuous
 62
     7
370
    25
100
AcDbLine
 10
3.496066899
 20
6.9779276111
 30
0.0
 11
3.496066899
 21
4.0088229357
 31
0.0
  0
LINE
  5
83
330
1F
100
AcDbEntity
  8
0
  6
Continuous
 62
     7
370
    25
100
AcDbLine
 10
3.496066899
 20
9.9470322864
 30
0.0
 11
3.496066899
 21
6.9779276111
 31
0.0
  0
DIMENSION
  5
84
330
1F
100
AcDbEntity
  8
SLD-0
100
AcDbDimension
  2
_D
 10
4.2375702516
 20
10.7503291859
 30
0.0
 11
5.3573308872
 21
10.7503291859
 31
0.0
 70
   160
  1
<>
 71
     2
 42
-1.0
  3
SLDDIMSTYLE0
100
AcDbAlignedDimension
 13
2.9875702516
 23
9.9629276111
 33
0.0
 14
4.2375702516
 24
6.9779276111
 34
0.0
100
AcDbRotatedDimension
  0
SPLINE
  5
99
330
1F
100
AcDbEntity
  8
0
  6
Continuous
 62
     7
370
    25
100
AcDbSpline
210
0.0
220
0.0
230
1.0
 70
    11
 71
     3
 72
    45
 73
    41
 74
     0
 42
0.00000001
 43
0.00000001
 40
0.0
 40
0.0
 40
0.0
 40
0.0
 40
0.0270055999270886
 40
0.0540119264154615
 40
0.0810131205927318
 40
0.1080146142224975
 40
0.1350987654690221
 40
0.1621826729073731
 40
0.1892774300212857
 40
0.2163715052721924
 40
0.2433679085957753
 40
0.2703634959282664
 40
0.2971976826311682
 40
0.3240312779593937
 40
0.3507110457522286
 40
0.3773906912208548
 40
0.4039893919470034
 40
0.4305884743710029
 40
0.457212160614628
 40
0.4838365646520761
 40
0.5105801640101498
 40
0.5373245203180799
 40
0.564233425193833
 40
0.5911428055393732
 40
0.6181928733985896
 40
0.6452429117734644
 40
0.6723475326902499
 40
0.6994516038043039
 40
0.7264968219540751
 40
0.7535412017193028
 40
0.7804368957880127
 40
0.8073318474867227
 40
0.8340548058424696
 40
0.8607774576120705
 40
0.887382975306914
 40
0.9139887466884912
 40
0.9405845811378478
 40
0.9671810990018066
 40
0.9835904907684491
 40
1.0
 40
1.0
 40
1.0
 40
1.0
 10
11.58170676598028
 20
6.39741082710064
 30
0.0
 10
11.61481879801023
 20
6.370904483583472
 30
0.0
 10
11.68104375291946
 20
6.317891083419896
 30
0.0
 10
11.79475156979622
 20
6.261530950362145
 30
0.0
 10
11.91519650454246
 20
6.224871322487392
 30
0.0
 10
12.04012529554348
 20
6.209593372101851
 30
0.0
 10
12.16578807890906
 20
6.216655171336274
 30
0.0
 10
12.28877526952712
 20
6.245168652822607
 30
0.0
 10
12.40524212586751
 20
6.295205961810652
 30
0.0
 10
12.51205805099278
 20
6.364484900274197
 30
0.0
 10
12.60569136762228
 20
6.451758460928663
 30
0.0
 10
12.68390995594323
 20
6.553623554783345
 30
0.0
 10
12.7439453890902
 20
6.667766288133627
 30
0.0
 10
12.78485702943964
 20
6.79019209584533
 30
0.0
 10
12.80485038498173
 20
6.917869887390009
 30
0.0
 10
12.80434049996609
 20
7.046853585858593
 30
0.0
 10
12.78258401804795
 20
7.173698365257835
 30
0.0
 10
12.74113200120829
 20
7.295013947840556
 30
0.0
 10
12.68034243244326
 20
7.407204965664606
 30
0.0
 10
12.60258548803609
 20
7.50770525819957
 30
0.0
 10
12.50936310898045
 20
7.593080299098631
 30
0.0
 10
12.40360962596759
 20
7.661693889935302
 30
0.0
 10
12.28792325464633
 20
7.710678255029538
 30
0.0
 10
12.1656263702558
 20
7.739420003377983
 30
0.0
 10
12.04017502430069
 20
7.746054167740998
 30
0.0
 10
11.91506845171037
 20
7.731144407055504
 30
0.0
 10
11.79416977518331
 20
7.694147500668075
 30
0.0
 10
11.68078174091253
 20
7.636934777256697
 30
0.0
 10
11.57861214297547
 20
7.560350627024301
 30
0.0
 10
11.49024227674044
 20
7.467487398068783
 30
0.0
 10
11.41872976695046
 20
7.3603691952346
 30
0.0
 10
11.36545680596416
 20
7.242886522273235
 30
0.0
 10
11.33253853395197
 20
7.117886547788559
 30
0.0
 10
11.31996926512547
 20
6.989413343736487
 30
0.0
 10
11.32881348557016
 20
6.860796370565379
 30
0.0
 10
11.35785166434699
 20
6.735660190057676
 30
0.0
 10
11.40698675341525
 20
6.617490429911369
 30
0.0
 10
11.46570679368509
 20
6.523320123068468
 30
0.0
 10
11.52533263220701
 20
6.45052071893527
 30
0.0
 10
11.56291534321737
 20
6.415114166621047
 30
0.0
 10
11.58170676598028
 20
6.39741082710064
 30
0.0
  0
SPLINE
  5
9A
330
1F
100
AcDbEntity
  8
0
  6
Continuous
 62
     7
370
    25
100
AcDbSpline
210
0.0
220
0.0
230
1.0
 70
    11
 71
     3
 72
    45
 73
    41
 74
     0
 42
0.00000001
 43
0.00000001
 40
0.0
 40
0.0
 40
0.0
 40
0.0
 40
0.0269713543477142
 40
0.0539434712520522
 40
0.0809098105591675
 40
0.107876573685941
 40
0.1349391250608358
 40
0.1620015775636623
 40
0.1891050285777001
 40
0.2162078763816372
 40
0.243238275297874
 40
0.2702678256227196
 40
0.2971415265116299
 40
0.3240145241448718
 40
0.3507183060796045
 40
0.3774218501374161
 40
0.404019676379484
 40
0.4306178219031913
 40
0.4572207694719871
 40
0.4838244349002342
 40
0.5105401619867425
 40
0.5372566859570158
 40
0.5641422160961037
 40
0.5910282763874081
 40
0.6180655642981011
 40
0.6451028810767219
 40
0.6722070188722991
 40
0.6993106654487815
 40
0.7263678997118879
 40
0.753424339219843
 40
0.7803431906076117
 40
0.8072612974333918
 40
0.8340124942423284
 40
0.8607633163510656
 40
0.8873902548307001
 40
0.9140173330909576
 40
0.9406149591209597
 40
0.9672131665712865
 40
0.9836065279640515
 40
1.0
 40
1.0
 40
1.0
 40
1.0
 10
8.093411941556457
 20
6.429700273035588
 30
0.0
 10
8.12480563592029
 20
6.401126590615064
 30
0.0
 10
8.187593912236661
 20
6.343978417915036
 30
0.0
 10
8.297502199398085
 20
6.280411513275225
 30
0.0
 10
8.415321248609127
 20
6.236042574099538
 30
0.0
 10
8.538927303230837
 20
6.212679775705933
 30
0.0
 10
8.664649655194797
 20
6.211519996660829
 30
0.0
 10
8.789085372182708
 20
6.231909825340703
 30
0.0
 10
8.908390353959636
 20
6.274187899371708
 30
0.0
 10
9.019328924843519
 20
6.336326551036297
 30
0.0
 10
9.118248835782104
 20
6.417315669177131
 30
0.0
 10
9.202697097859428
 20
6.513933797307465
 30
0.0
 10
9.269722457566756
 20
6.624033172894333
 30
0.0
 10
9.318113844550686
 20
6.743667338481544
 30
0.0
 10
9.345883391453981
 20
6.869911103788823
 30
0.0
 10
9.353207190403914
 20
6.998748556189592
 30
0.0
 10
9.339147968109991
 20
7.126803000586808
 30
0.0
 10
9.305080202653802
 20
7.250555044938388
 30
0.0
 10
9.251155007420877
 20
7.366430808409607
 30
0.0
 10
9.179612365860205
 20
7.471713065590643
 30
0.0
 10
9.091741668289616
 20
7.562910052342552
 30
0.0
 10
8.99037725132168
 20
7.638210964180902
 30
0.0
 10
8.87793421871295
 20
7.694596173058554
 30
0.0
 10
8.75767451160687
 20
7.731242869082521
 30
0.0
 10
8.63293854504671
 20
7.746059350563085
 30
0.0
 10
8.507228243805734
 20
7.739372315435698
 30
0.0
 10
8.384377701962796
 20
7.71037947897931
 30
0.0
 10
8.267772828332266
 20
7.660715904835781
 30
0.0
 10
8.161178261410576
 20
7.590978687891372
 30
0.0
 10
8.067341763521052
 20
7.504064303842567
 30
0.0
 10
7.989450687250955
 20
7.401796571591412
 30
0.0
 10
7.92912015547501
 20
7.287954429689872
 30
0.0
 10
7.888645153281451
 20
7.165253202060721
 30
0.0
 10
7.868275418927346
 20
7.037741081030537
 30
0.0
 10
7.869278250745837
 20
6.908685063345636
 30
0.0
 10
7.890654792548616
 20
6.781820416860834
 30
0.0
 10
7.932513818130421
 20
6.660629575972403
 30
0.0
 10
7.985379158586873
 20
6.56282619757333
 30
0.0
 10
8.04043211088541
 20
6.486322236039216
 30
0.0
 10
8.075751958269057
 20
6.448574303165138
 30
0.0
 10
8.093411941556457
 20
6.429700273035588
 30
0.0
  0
SPLINE
  5
9B
330
1F
100
AcDbEntity
  8
0
  6
Continuous
 62
     7
370
    25
100
AcDbSpline
210
0.0
220
0.0
230
1.0
 70
    11
 71
     3
 72
    33
 73
    29
 74
     0
 42
0.00000001
 43
0.00000001
 40
0.0
 40
0.0
 40
0.0
 40
0.0
 40
0.0275719765033193
 40
0.0551491190648994
 40
0.1100454765374505
 40
0.1662881470188749
 40
0.1948218328907136
 40
0.2233515980690039
 40
0.2514528417414983
 40
0.2795482833698477
 40
0.3066685091149314
 40
0.3337840572428431
 40
0.3857456568939125
 40
0.4364570458837058
 40
0.4871791245980902
 40
0.5390931919014438
 40
0.5929196467403937
 40
0.6486526963467509
 40
0.6771579180111991
 40
0.7056603791186773
 40
0.7339968977772697
 40
0.7623278381392193
 40
0.7898187606037391
 40
0.817304140054015
 40
0.8698705840682571
 40
0.9207942249580933
 40
0.9713092163245695
 40
1.0
 40
1.0
 40
1.0
 40
1.0
 10
10.20979849830844
 20
5.08988359694868
 30
0.0
 10
10.20222455964648
 20
5.097598919022882
 30
0.0
 10
10.18707526322197
 20
5.113031008762366
 30
0.0
 10
10.16420835245134
 20
5.149400479303213
 30
0.0
 10
10.1473233775366
 20
5.201077687619625
 30
0.0
 10
10.14900768905003
 20
5.255774012675681
 30
0.0
 10
10.16164744683148
 20
5.297712422798744
 30
0.0
 10
10.1765213234068
 20
5.327308836703881
 30
0.0
 10
10.19646165944882
 20
5.353791439187986
 30
0.0
 10
10.22040496129842
 20
5.376252179635149
 30
0.0
 10
10.24781092860473
 20
5.394029240983707
 30
0.0
 10
10.28667820428619
 20
5.410798405570509
 30
0.0
 10
10.33900031197052
 20
5.418857326844992
 30
0.0
 10
10.40035769301762
 20
5.40780665736833
 30
0.0
 10
10.45450487402002
 20
5.378033344134802
 30
0.0
 10
10.49661911006027
 20
5.332206903565049
 30
0.0
 10
10.52213735827649
 20
5.274110461351118
 30
0.0
 10
10.5262260773976
 20
5.220197455479046
 30
0.0
 10
10.51822656846016
 20
5.177452183834466
 30
0.0
 10
10.50666364679878
 20
5.146468891092045
 30
0.0
 10
10.48970157224459
 20
5.117959826930295
 30
0.0
 10
10.46820843061272
 20
5.09292026235115
 30
0.0
 10
10.44267138361236
 20
5.072166228140298
 30
0.0
 10
10.40546013437346
 20
5.051219849474205
 30
0.0
 10
10.35381167548868
 20
5.037671570023112
 30
0.0
 10
10.29148917210967
 20
5.042663456370854
 30
0.0
 10
10.24257184030829
 20
5.062858827100609
 30
0.0
 10
10.21851326064022
 20
5.08269743795708
 30
0.0
 10
10.20979849830844
 20
5.08988359694868
 30
0.0
  0
SPLINE
  5
9C
330
1F
100
AcDbEntity
  8
0
  6
Continuous
 62
     7
370
    25
100
AcDbSpline
210
0.0
220
0.0
230
1.0
 70
    11
 71
     3
 72
    34
 73
    30
 74
     0
 42
0.00000001
 43
0.00000001
 40
0.0
 40
0.0
 40
0.0
 40
0.0
 40
0.0277106798444753
 40
0.0554262799674
 40
0.1106031322194843
 40
0.1389069057802129
 40
0.1672097469957358
 40
0.195720862319623
 40
0.2242275455472632
 40
0.2521975284979732
 40
0.2801615292525741
 40
0.3070855170801356
 40
0.3340051507095656
 40
0.3856060050419673
 40
0.4361410526841963
 40
0.4869534536214168
 40
0.5392039552158493
 40
0.593483536851211
 40
0.6495709174771697
 40
0.678100633071797
 40
0.7066267805382614
 40
0.7348045833391895
 40
0.7629766518283048
 40
0.7902135531826904
 40
0.8174455169455248
 40
0.8695999106914652
 40
0.9203810173294685
 40
0.9710282343747849
 40
1.0
 40
1.0
 40
1.0
 40
1.0
 10
10.20106234271872
 20
8.598456244462552
 30
0.0
 10
10.19398677396548
 20
8.606676878039355
 30
0.0
 10
10.17983438012862
 20
8.623119604839797
 30
0.0
 10
10.15935260832513
 20
8.661037845753514
 30
0.0
 10
10.1486047127174
 20
8.703344145315594
 30
0.0
 10
10.14918562656569
 20
8.746416918851981
 30
0.0
 10
10.15518166926379
 20
8.778737082492832
 30
0.0
 10
10.16689481284875
 20
8.809654756652929
 30
0.0
 10
10.18377481419942
 20
8.838142141235002
 30
0.0
 10
10.20547822305178
 20
8.863158385304727
 30
0.0
 10
10.23083193303995
 20
8.883856687138879
 30
0.0
 10
10.25927047406661
 20
8.899659559252473
 30
0.0
 10
10.29897095951912
 20
8.913700906804204
 30
0.0
 10
10.35144909709697
 20
8.918262593836568
 30
0.0
 10
10.41172182988724
 20
8.90335016993338
 30
0.0
 10
10.46382348878545
 20
8.870237337766723
 30
0.0
 10
10.50303851965759
 20
8.821692663553554
 30
0.0
 10
10.52482996433228
 20
8.761752658877612
 30
0.0
 10
10.52529153778064
 20
8.707351591714573
 30
0.0
 10
10.51431309978628
 20
8.665037302676755
 30
0.0
 10
10.50061382325497
 20
8.634888703082266
 30
0.0
 10
10.48171651820198
 20
8.607632061079176
 30
0.0
 10
10.45862271811768
 20
8.584213308377237
 30
0.0
 10
10.43185385504915
 20
8.565344326999817
 30
0.0
 10
10.39354188242727
 20
8.54705835850179
 30
0.0
 10
10.34137214864071
 20
8.53699504877345
 30
0.0
 10
10.27970568375825
 20
8.54595143879242
 30
0.0
 10
10.23215441921493
 20
8.569231472556877
 30
0.0
 10
10.2093576382866
 20
8.590659141528926
 30
0.0
 10
10.20106234271872
 20
8.598456244462552
 30
0.0
  0
CIRCLE
  5
9D
330
1F
100
AcDbEntity
  8
0
  6
Continuous
 62
     7
370
    25
100
AcDbCircle
 10
10.3366846684
 20
6.9779276111
 30
0.0
 40
2.969104675306077
  0
LWPOLYLINE
  5
9E
330
1F
100
AcDbEntity
  8
0
  6
Continuous
 62
     7
370
    25
100
AcDbPolyline
 90
       38
 70
   128
 43
0.0
 10
12.0328739249
 20
6.2130738487
 10
12.0346903191
 20
6.2131148244
 10
12.0970780653
 20
6.2176033645
 10
12.1588551762
 20
6.2280424727
 10
12.2195381623
 20
6.2443504488
 10
12.278652097
 20
6.2663996609
 10
12.3357343335
 20
6.2940175438
 10
12.3903381259
 20
6.3269879504
 10
12.4420361255
 20
6.3650528424
 10
12.4904237254
 20
6.4079143103
 10
12.5351222271
 20
6.4552369053
 10
12.575781804
 20
6.5066502637
 10
12.61208424
 20
6.5617520063
 10
12.6437454192
 20
6.6201108873
 10
12.67051755
 20
6.6812701693
 10
12.6921911041
 20
6.744751198
 10
12.7085964566
 20
6.8100571483
 10
12.7196052134
 20
6.8766769125
 10
12.7251312161
 20
6.9440891008
 10
12.7251312161
 20
7.0117661213
 10
12.7196052134
 20
7.0791783096
 10
12.7085964566
 20
7.1457980738
 10
12.6921911041
 20
7.2111040241
 10
12.67051755
 20
7.2745850528
 10
12.6437454192
 20
7.3357443348
 10
12.61208424
 20
7.3941032158
 10
12.575781804
 20
7.4492049584
 10
12.5351222271
 20
7.5006183168
 10
12.4904237254
 20
7.5479409118
 10
12.4420361255
 20
7.5908023798
 10
12.3903381259
 20
7.6288672717
 10
12.3357343335
 20
7.6618376783
 10
12.278652097
 20
7.6894555613
 10
12.2195381623
 20
7.7115047733
 10
12.1588551762
 20
7.7278127494
 10
12.0970780653
 20
7.7382518576
 10
12.0346903191
 20
7.7427403977
 10
12.0328825971
 20
7.7427811898
  0
LWPOLYLINE
  5
9F
330
1F
100
AcDbEntity
  8
0
  6
Continuous
 62
     7
370
    25
100
AcDbPolyline
 90
       37
 70
   128
 43
0.0
 10
8.6400194576
 20
7.7427711253
 10
8.6386790177
 20
7.7427403977
 10
8.5762912716
 20
7.7382518576
 10
8.5145141606
 20
7.7278127494
 10
8.4538311745
 20
7.7115047733
 10
8.3947172399
 20
7.6894555613
 10
8.3376350034
 20
7.6618376783
 10
8.283031211
 20
7.6288672717
 10
8.2313332113
 20
7.5908023798
 10
8.1829456114
 20
7.5479409118
 10
8.1382471098
 20
7.5006183168
 10
8.0975875328
 20
7.4492049584
 10
8.0612850969
 20
7.3941032158
 10
8.0296239177
 20
7.3357443348
 10
8.0028517869
 20
7.2745850528
 10
7.9811782328
 20
7.2111040241
 10
7.9647728802
 20
7.1457980738
 10
7.9537641234
 20
7.0791783096
 10
7.9482381208
 20
7.0117661213
 10
7.9482381208
 20
6.9440891008
 10
7.9537641234
 20
6.8766769125
 10
7.9647728802
 20
6.8100571483
 10
7.9811782328
 20
6.744751198
 10
8.0028517869
 20
6.6812701693
 10
8.0296239177
 20
6.6201108873
 10
8.0612850969
 20
6.5617520063
 10
8.0975875328
 20
6.5066502637
 10
8.1382471098
 20
6.4552369053
 10
8.1829456114
 20
6.4079143103
 10
8.2313332113
 20
6.3650528424
 10
8.283031211
 20
6.3269879504
 10
8.3376350034
 20
6.2940175438
 10
8.3947172399
 20
6.2663996609
 10
8.4538311745
 20
6.2443504488
 10
8.5145141606
 20
6.2280424727
 10
8.5762912716
 20
6.2176033645
 10
8.6276415692
 20
6.2134725705
  0
LWPOLYLINE
  5
A0
330
1F
100
AcDbEntity
  8
0
  6
Continuous
 62
     7
370
    25
100
AcDbPolyline
 90
       51
 70
   128
 43
0.0
 10
8.9993832029
 20
6.9779276111
 10
8.9966622308
 20
7.0247395738
 10
8.9885422256
 20
7.0708132839
 10
8.9751512448
 20
7.1154221315
 10
8.9567004721
 20
7.1578626083
 10
8.9334808871
 20
7.1974654028
 10
8.9058586768
 20
7.2336059551
 10
8.8742694597
 20
7.2657143072
 10
8.8392114168
 20
7.2932840912
 10
8.8012374342
 20
7.3158805152
 10
8.7609463845
 20
7.3331472199
 10
8.7189736814
 20
7.3448118992
 10
8.6759812597
 20
7.3506905941
 10
8.6326471354
 20
7.3506905941
 10
8.5896547137
 20
7.3448118992
 10
8.5476820107
 20
7.3331472199
 10
8.5073909609
 20
7.3158805152
 10
8.4694169783
 20
7.2932840912
 10
8.4343589354
 20
7.2657143072
 10
8.4027697183
 20
7.2336059551
 10
8.375147508
 20
7.1974654028
 10
8.3519279231
 20
7.1578626083
 10
8.3334771503
 20
7.1154221315
 10
8.3200861695
 20
7.0708132839
 10
8.3119661643
 20
7.0247395738
 10
8.3092451922
 20
6.9779276111
 10
8.3119661643
 20
6.9311156483
 10
8.3200861695
 20
6.8850419382
 10
8.3334771503
 20
6.8404330906
 10
8.3519279231
 20
6.7979926138
 10
8.375147508
 20
6.7583898193
 10
8.4027697183
 20
6.722249267
 10
8.4343589354
 20
6.6901409149
 10
8.4694169783
 20
6.6625711309
 10
8.5073909609
 20
6.639974707
 10
8.5476820107
 20
6.6227080022
 10
8.5896547137
 20
6.6110433229
 10
8.6326471354
 20
6.605164628
 10
8.6759812597
 20
6.605164628
 10
8.7189736814
 20
6.6110433229
 10
8.7609463845
 20
6.6227080022
 10
8.8012374342
 20
6.639974707
 10
8.8392114168
 20
6.6625711309
 10
8.8742694597
 20
6.6901409149
 10
8.9058586768
 20
6.722249267
 10
8.9334808871
 20
6.7583898193
 10
8.9567004721
 20
6.7979926138
 10
8.9751512448
 20
6.8404330906
 10
8.9885422256
 20
6.8850419382
 10
8.9966622308
 20
6.9311156483
 10
8.9993832029
 20
6.9779276111
  0
LWPOLYLINE
  5
A1
330
1F
100
AcDbEntity
  8
0
  6
Continuous
 62
     7
370
    25
100
AcDbPolyline
 90
       51
 70
   128
 43
0.0
 10
12.3641241447
 20
6.9779276111
 10
12.3614031725
 20
7.0247395738
 10
12.3532831674
 20
7.0708132839
 10
12.3398921865
 20
7.1154221315
 10
12.3214414138
 20
7.1578626083
 10
12.2982218289
 20
7.1974654028
 10
12.2705996185
 20
7.2336059551
 10
12.2390104015
 20
7.2657143072
 10
12.2039523585
 20
7.2932840912
 10
12.165978376
 20
7.3158805152
 10
12.1256873262
 20
7.3331472199
 10
12.0837146232
 20
7.3448118992
 10
12.0407222014
 20
7.3506905941
 10
11.9973880772
 20
7.3506905941
 10
11.9543956555
 20
7.3448118992
 10
11.9124229524
 20
7.3331472199
 10
11.8721319027
 20
7.3158805152
 10
11.8341579201
 20
7.2932840912
 10
11.7990998772
 20
7.2657143072
 10
11.7675106601
 20
7.2336059551
 10
11.7398884497
 20
7.1974654028
 10
11.7166688648
 20
7.1578626083
 10
11.6982180921
 20
7.1154221315
 10
11.6848271113
 20
7.0708132839
 10
11.6767071061
 20
7.0247395738
 10
11.6739861339
 20
6.9779276111
 10
11.6767071061
 20
6.9311156483
 10
11.6848271113
 20
6.8850419382
 10
11.6982180921
 20
6.8404330906
 10
11.7166688648
 20
6.7979926138
 10
11.7398884497
 20
6.7583898193
 10
11.7675106601
 20
6.722249267
 10
11.7990998772
 20
6.6901409149
 10
11.8341579201
 20
6.6625711309
 10
11.8721319027
 20
6.639974707
 10
11.9124229524
 20
6.6227080022
 10
11.9543956555
 20
6.6110433229
 10
11.9973880772
 20
6.605164628
 10
12.0407222014
 20
6.605164628
 10
12.0837146232
 20
6.6110433229
 10
12.1256873262
 20
6.6227080022
 10
12.165978376
 20
6.639974707
 10
12.2039523585
 20
6.6625711309
 10
12.2390104015
 20
6.6901409149
 10
12.2705996185
 20
6.722249267
 10
12.2982218289
 20
6.7583898193
 10
12.3214414138
 20
6.7979926138
 10
12.3398921865
 20
6.8404330906
 10
12.3532831674
 20
6.8850419382
 10
12.3614031725
 20
6.9311156483
 10
12.3641241447
 20
6.9779276111
  0
ELLIPSE
  5
A2
330
1F
100
AcDbEntity
  8
0
  6
Continuous
 62
     7
370
    25
100
AcDbEllipse
 10
8.9557439615
 20
6.9779276111
 30
0.0
 11
-0.4042734868092079
 21
-1.776356839400250E-15
 31
2.886579864025407E-15
210
7.140166145467991E-15
220
3.137352159069983E-29
230
1.0
 40
0.9238795325
 41
5.126371930570401
 42
6.283185307179586
  0
ELLIPSE
  5
A3
330
1F
100
AcDbEntity
  8
0
  6
Continuous
 62
     7
370
    25
100
AcDbEllipse
 10
8.9557439615
 20
6.9779276111
 30
0.0
 11
-0.4042734868092079
 21
-1.776356839400250E-15
 31
2.886579864025407E-15
210
7.140166145467991E-15
220
3.137352159069983E-29
230
1.0
 40
0.9238795325
 41
0.0
 42
1.156813376609195
  0
ELLIPSE
  5
A4
330
1F
100
AcDbEntity
  8
0
  6
Continuous
 62
     7
370
    25
100
AcDbEllipse
 10
11.7176253754
 20
6.9779276111
 30
0.0
 11
0.4042734868092097
 21
8.881784197001252E-16
 31
-2.886579864025407E-15
210
7.140166145467960E-15
220
1.568676079534978E-29
230
1.0
 40
0.9238795325
 41
5.126371930570407
 42
6.283185307179586
  0
ELLIPSE
  5
A5
330
1F
100
AcDbEntity
  8
0
  6
Continuous
 62
     7
370
    25
100
AcDbEllipse
 10
11.7176253754
 20
6.9779276111
 30
0.0
 11
0.4042734868092097
 21
8.881784197001252E-16
 31
-2.886579864025407E-15
210
7.140166145467960E-15
220
1.568676079534978E-29
230
1.0
 40
0.9238795325
 41
0.0
 42
1.156813376609193
  0
CIRCLE
  5
A6
330
1F
100
AcDbEntity
  8
0
  6
Continuous
 62
     7
370
    25
100
AcDbCircle
 10
10.3366846684
 20
8.7279276111
 30
0.0
 40
0.1170000000000009
  0
CIRCLE
  5
A7
330
1F
100
AcDbEntity
  8
0
  6
Continuous
 62
     7
370
    25
100
AcDbCircle
 10
10.3366846684
 20
5.2279276111
 30
0.0
 40
0.1169999999999991
  0
CIRCLE
  5
A8
330
1F
100
AcDbEntity
  8
0
  6
Continuous
 62
     7
370
    25
100
AcDbCircle
 10
10.3366846684
 20
6.9779276111
 30
0.0
 40
2.985000000000002
  0
DIMENSION
  5
A9
330
1F
100
AcDbEntity
  8
SLD-0
100
AcDbDimension
  2
_D_1
 10
13.3216846684
 20
11.2227701307
 30
0.0
 11
10.3366846684
 21
11.2227701307
 31
0.0
 70
   160
  1
%%c<>
 71
     2
 42
-1.0
  3
SLDDIMSTYLE1
100
AcDbAlignedDimension
 13
7.3516846684
 23
6.9779276111
 33
0.0
 14
13.3216846684
 24
6.9779276111
 34
0.0
100
AcDbRotatedDimension
  0
INSERT
  5
C6
330
1F
100
AcDbEntity
  8
SLD-0
100
AcDbBlockReference
  2
SW_RADIAL_DIMENSION_0
 10
15.0034010374
 20
5.2232690597
 30
0.0
  0
DIMENSION
  5
C7
330
1F
100
AcDbEntity
  8
SLD-0
100
AcDbDimension
  2
_D_2
 10
6.5642830936
 20
5.2279276111
 30
0.0
 11
6.5642830936
 21
6.9779276111
 31
0.0
 70
   160
  1
<>
 71
     2
 42
-1.0
  3
SLDDIMSTYLE0
100
AcDbAlignedDimension
 13
10.0491846684
 23
8.7279276111
 33
0.0
 14
10.0491846684
 24
5.2279276111
 34
0.0
 50
90.0
100
AcDbRotatedDimension
  0
MTEXT
  5
DB
330
1F
100
AcDbEntity
  8
SLD-0
100
AcDbMText
 10
14.6842396886
 20
2.7219576208
 30
0.0
 40
0.25
 41
0.0
 71
     2
 72
     1
  1
2X #10-24 CLEARANCE HOLES
  7
SLDTEXTSTYLE0
 73
     1
 44
1.0
  0
MTEXT
  5
DC
330
1F
100
AcDbEntity
  8
SLD-0
100
AcDbMText
 10
14.6926596519
 20
2.3932174717
 30
0.0
 40
0.25
 41
0.0
 71
     2
 72
     1
  1
(HARDWARE INCLUDED)
  7
SLDTEXTSTYLE0
 73
     1
 44
1.0
  0
LEADER
  5
DE
330
1F
100
AcDbEntity
  8
SLD-0
100
AcDbLeader
  3
SLDDIMSTYLE2
 76
     3
 10
10.4463416815
 20
5.0758368832
 30
0.0
 10
11.8063483355
 20
2.6053913005
 30
0.0
 10
12.3063483355
 20
2.6053913005
 30
0.0
  0
INSERT
  5
EA
330
1F
100
AcDbEntity
  8
SLD-0
100
AcDbBlockReference
  2
SW_CENTERMARKSYMBOL_0
 10
10.3366846684
 20
8.7279276111
 30
0.0
  0
INSERT
  5
F6
330
1F
100
AcDbEntity
  8
SLD-0
100
AcDbBlockReference
  2
SW_CENTERMARKSYMBOL_1
 10
10.3366846684
 20
5.2279276111
 30
0.0
  0
SPLINE
  5
F7
330
1F
100
AcDbEntity
  8
0
  6
Continuous
 62
     7
370
    25
100
AcDbSpline
210
0.0
220
0.0
230
1.0
 70
     8
 71
     3
 72
    20
 73
    16
 74
     0
 42
0.00000001
 43
0.00000001
 40
0.0
 40
0.0
 40
0.0
 40
0.0
 40
0.0414797396712932
 40
0.1258083132283522
 40
0.2102513275400415
 40
0.2948097488512336
 40
0.3794760346454715
 40
0.4642368947814227
 40
0.5490760575460163
 40
0.6339765715365424
 40
0.7189224381886038
 40
0.8038995788418432
 40
0.8888962595418088
 40
0.9739031361495765
 40
1.0
 40
1.0
 40
1.0
 40
1.0
 10
15.54337140066784
 20
15.22586708075885
 30
0.0
 10
15.53358735502354
 20
15.21484674615158
 30
0.0
 10
15.50391228259507
 20
15.18142200146563
 30
0.0
 10
15.4591705091858
 20
15.11933813557434
 30
0.0
 10
15.40903901067607
 20
15.04015698243618
 30
0.0
 10
15.363866349099
 20
14.95522356769117
 30
0.0
 10
15.32347166440684
 20
14.8651397405027
 30
0.0
 10
15.28804404660369
 20
14.77002566319641
 30
0.0
 10
15.25765660038923
 20
14.67015158255006
 30
0.0
 10
15.23239355077125
 20
14.56576670760629
 30
0.0
 10
15.21232215057182
 20
14.45713903148247
 30
0.0
 10
15.19747497028756
 20
14.34455539435595
 30
0.0
 10
15.18794904688012
 20
14.22827053045395
 30
0.0
 10
15.18454994771137
 20
14.13632467737188
 30
0.0
 10
15.18432941315944
 20
14.08325370154296
 30
0.0
 10
15.18427761238161
 20
14.0707880003442
 30
0.0
  0
SPLINE
  5
F8
330
1F
100
AcDbEntity
  8
0
  6
Continuous
 62
     7
370
    25
100
AcDbSpline
210
0.0
220
0.0
230
1.0
 70
     8
 71
     3
 72
    21
 73
    17
 74
     0
 42
0.00000001
 43
0.00000001
 40
0.0
 40
0.0
 40
0.0
 40
0.0
 40
0.0731829105268778
 40
0.1470746587375242
 40
0.2209745931109234
 40
0.2948801000746068
 40
0.3687864069990919
 40
0.4426867189244332
 40
0.5165730098746685
 40
0.5904350816475537
 40
0.6642605398732688
 40
0.7380350843268151
 40
0.811743264013666
 40
0.8853698240978352
 40
0.9589016775514388
 40
1.0
 40
1.0
 40
1.0
 40
1.0
 10
17.09573072897687
 20
10.54737321792409
 30
0.0
 10
17.13051811899648
 20
10.52416878009678
 30
0.0
 10
17.20042984399715
 20
10.47753515005832
 30
0.0
 10
17.30589286034058
 20
10.41494069419094
 30
0.0
 10
17.4116856438088
 20
10.35782287318201
 30
0.0
 10
17.51726412364361
 20
10.3070671139037
 30
0.0
 10
17.62235368375508
 20
10.26266370449689
 30
0.0
 10
17.72669568884683
 20
10.2247709924439
 30
0.0
 10
17.83002700852148
 20
10.1934816447941
 30
0.0
 10
17.93208468215909
 20
10.16888740711441
 30
0.0
 10
18.03260964163238
 20
10.15104880572619
 30
0.0
 10
18.13132819877197
 20
10.14004583490252
 30
0.0
 10
18.2280260750505
 20
10.13579854634203
 30
0.0
 10
18.32227804628113
 20
10.13872557798335
 30
0.0
 10
18.40095275337791
 20
10.14603211385936
 30
0.0
 10
18.44702016279545
 20
10.15506671477439
 30
0.0
 10
18.46353669722203
 20
10.15830588751993
 30
0.0
  0
SPLINE
  5
F9
330
1F
100
AcDbEntity
  8
0
  6
Continuous
 62
     7
370
    25
100
AcDbSpline
210
0.0
220
0.0
230
1.0
 70
     8
 71
     3
 72
    10
 73
     6
 74
     0
 42
0.00000001
 43
0.00000001
 40
0.0
 40
0.0
 40
0.0
 40
0.0
 40
0.2816069555758981
 40
0.8162680215904173
 40
1.0
 40
1.0
 40
1.0
 40
1.0
 10
15.18427761238161
 20
14.0707880003442
 30
0.0
 10
15.18445075713692
 20
14.04925710726272
 30
0.0
 10
15.18495263581594
 20
13.9868475000044
 30
0.0
 10
15.18777681617839
 20
13.90912218633734
 30
0.0
 10
15.19282679280473
 20
13.85189333281606
 30
0.0
 10
15.19411834511538
 20
13.83725681794277
 30
0.0
  0
LINE
  5
FA
330
1F
100
AcDbEntity
  8
0
  6
Continuous
 62
     7
370
    25
100
AcDbLine
 10
18.7961568592
 20
10.2793891609
 30
0.0
 11
19.1369958653
 21
10.4761513309
 31
0.0
  0
LINE
  5
FB
330
1F
100
AcDbEntity
  8
0
  6
Continuous
 62
     7
370
    25
100
AcDbLine
 10
16.1522384484
 20
15.6464630393
 30
0.0
 11
15.8113994423
 21
15.4497008693
 31
0.0
  0
SPLINE
  5
FC
330
1F
100
AcDbEntity
  8
0
  6
Continuous
 62
     7
370
    25
100
AcDbSpline
210
0.0
220
0.0
230
1.0
 70
    11
 71
     3
 72
    45
 73
    41
 74
     0
 42
0.00000001
 43
0.00000001
 40
0.0
 40
0.0
 40
0.0
 40
0.0
 40
0.0270055999270886
 40
0.0540119264154616
 40
0.0810131205927319
 40
0.1080146142224976
 40
0.1350987654690222
 40
0.1621826729073732
 40
0.1892774300212859
 40
0.2163715052721925
 40
0.2433679085957754
 40
0.2703634959282665
 40
0.2971976826311683
 40
0.3240312779593937
 40
0.3507110457522287
 40
0.3773906912208549
 40
0.4039893919470035
 40
0.430588474371003
 40
0.4572121606146281
 40
0.4838365646520762
 40
0.51058016401015
 40
0.53732452031808
 40
0.5642334251938331
 40
0.5911428055393733
 40
0.6181928733985897
 40
0.6452429117734645
 40
0.67234753269025
 40
0.6994516038043039
 40
0.7264968219540752
 40
0.7535412017193028
 40
0.7804368957880128
 40
0.8073318474867227
 40
0.8340548058424696
 40
0.8607774576120705
 40
0.887382975306914
 40
0.9139887466884913
 40
0.9405845811378478
 40
0.9671810990018067
 40
0.9835904907684492
 40
1.0
 40
1.0
 40
1.0
 40
1.0
 10
17.74802555038114
 20
11.63054179411794
 30
0.0
 10
17.77812526859682
 20
11.59924154877727
 30
0.0
 10
17.83832551483392
 20
11.5366402159911
 30
0.0
 10
17.9417130487153
 20
11.45747223600284
 30
0.0
 10
18.051249713714
 20
11.39244010266635
 30
0.0
 10
18.16488878152852
 20
11.34357459174334
 30
0.0
 10
18.27922242387154
 20
11.31275213013232
 30
0.0
 10
18.39114577419623
 20
11.30023878622187
 30
0.0
 10
18.49715885716557
 20
11.30721185497127
 30
0.0
 10
18.59440588134579
 20
11.33271505998289
 30
0.0
 10
18.67966673113215
 20
11.37675452572629
 30
0.0
 10
18.75090175490026
 20
11.43719634605613
 30
0.0
 10
18.80558363927917
 20
11.51295231152447
 30
0.0
 10
18.84285052547421
 20
11.60103110036798
 30
0.0
 10
18.8610633901461
 20
11.6994765532655
 30
0.0
 10
18.86059911934526
 20
11.80494526356752
 30
0.0
 10
18.84077977400829
 20
11.91483990651973
 30
0.0
 10
18.80302112047583
 20
12.02594318690634
 30
0.0
 10
18.74765255405272
 20
12.1352172357088
 30
0.0
 10
18.67683829101971
 20
12.23988102244527
 30
0.0
 10
18.59195241497904
 20
12.33669716095231
 30
0.0
 10
18.49567246479758
 20
12.42347972734572
 30
0.0
 10
18.39037080001286
 20
12.49713539542111
 30
0.0
 10
18.27907481994073
 20
12.55619857271949
 30
0.0
 10
18.16493452565103
 20
12.5981433458042
 30
0.0
 10
18.05113275950125
 20
12.62241057720221
 30
0.0
 10
17.94118427723303
 20
12.62743184567279
 30
0.0
 10
17.83808756135484
 20
12.61376976577771
 30
0.0
 10
17.74521019909682
 20
12.58103081014438
 30
0.0
 10
17.66489135439911
 20
12.53098298732077
 30
0.0
 10
17.59990390015287
 20
12.46438353732408
 30
0.0
 10
17.55149750921493
 20
12.38400220297684
 30
0.0
 10
17.52158855173025
 20
12.29154329298617
 30
0.0
 10
17.51016912854706
 20
12.19030903899081
 30
0.0
 10
17.51820417144451
 20
12.08270606951236
 30
0.0
 10
17.54458751851862
 20
11.97205104844793
 30
0.0
 10
17.58923314566783
 20
11.86121970321885
 30
0.0
 10
17.64259423574106
 20
11.76719098881374
 30
0.0
 10
17.69678422248479
 20
11.69035149947972
 30
0.0
 10
17.73094506699303
 20
11.65047841014292
 30
0.0
 10
17.74802555038114
 20
11.63054179411794
 30
0.0
  0
SPLINE
  5
FD
330
1F
100
AcDbEntity
  8
0
  6
Continuous
 62
     7
370
    25
100
AcDbSpline
210
0.0
220
0.0
230
1.0
 70
    11
 71
     3
 72
    45
 73
    41
 74
     0
 42
0.00000001
 43
0.00000001
 40
0.0
 40
0.0
 40
0.0
 40
0.0
 40
0.0269713543477142
 40
0.0539434712520523
 40
0.0809098105591675
 40
0.107876573685941
 40
0.1349391250608358
 40
0.1620015775636623
 40
0.1891050285777001
 40
0.2162078763816372
 40
0.2432382752978741
 40
0.2702678256227197
 40
0.2971415265116299
 40
0.3240145241448719
 40
0.3507183060796045
 40
0.3774218501374161
 40
0.4040196763794841
 40
0.4306178219031913
 40
0.4572207694719871
 40
0.4838244349002343
 40
0.5105401619867425
 40
0.5372566859570158
 40
0.5641422160961038
 40
0.5910282763874081
 40
0.6180655642981012
 40
0.645102881076722
 40
0.672207018872299
 40
0.6993106654487814
 40
0.7263678997118879
 40
0.7534243392198428
 40
0.7803431906076116
 40
0.8072612974333916
 40
0.8340124942423282
 40
0.8607633163510655
 40
0.8873902548306999
 40
0.9140173330909575
 40
0.9406149591209597
 40
0.9672131665712865
 40
0.9836065279640515
 40
1.0
 40
1.0
 40
1.0
 40
1.0
 10
15.48376785343804
 20
13.19765149016543
 30
0.0
 10
15.49957923323839
 20
13.15781756085435
 30
0.0
 10
15.53120243987161
 20
13.07814857601413
 30
0.0
 10
15.58657879092205
 20
12.9684816738969
 30
0.0
 10
15.64596261469368
 20
12.87034574853676
 30
0.0
 10
15.70828675961374
 20
12.78633504753354
 30
0.0
 10
15.77170462972442
 20
12.71935764977117
 30
0.0
 10
15.83449819198346
 20
12.67066640017647
 30
0.0
 10
15.89472773510991
 20
12.64255639331859
 30
0.0
 10
15.95075421772652
 20
12.6350673891806
 30
0.0
 10
16.00072903657822
 20
12.64928914058698
 30
0.0
 10
16.04340550207296
 20
12.6838741383095
 30
0.0
 10
16.07728589518594
 20
12.73861345910117
 30
0.0
 10
16.10175197265105
 20
12.81091648280653
 30
0.0
 10
16.11579344361779
 20
12.89943435472127
 30
0.0
 10
16.11949717710557
 20
13.00079430366514
 30
0.0
 10
16.11238756669756
 20
13.11272975605923
 30
0.0
 10
16.09516196031222
 20
13.23164741999722
 30
0.0
 10
16.06789957804864
 20
13.35455143851673
 30
0.0
 10
16.03173827867483
 20
13.4780512174023
 30
0.0
 10
15.98733600452796
 20
13.59862274204075
 30
0.0
 10
15.93613093943926
 20
13.71330368711953
 30
0.0
 10
15.87935027638963
 20
13.81836513623193
 30
0.0
 10
15.81864492635566
 20
13.91142520693064
 30
0.0
 10
15.75570633605525
 20
13.98902524888741
 30
0.0
 10
15.69230107036264
 20
14.04959284070233
 30
0.0
 10
15.63036414127046
 20
14.09045975729652
 30
0.0
 10
15.57159793719041
 20
14.11117957935292
 30
0.0
 10
15.51789656433793
 20
14.11025982205171
 30
0.0
 10
15.47063727911197
 20
14.0886173537551
 30
0.0
 10
15.43141952973327
 20
14.04606255832657
 30
0.0
 10
15.40105008357898
 20
13.98482823079621
 30
0.0
 10
15.38067864152539
 20
13.90592160771039
 30
0.0
 10
15.37042762594874
 20
13.8125149879127
 30
0.0
 10
15.37093206909262
 20
13.70660797125052
 30
0.0
 10
15.38169024150885
 20
13.5917763884201
 30
0.0
 10
15.40275810638417
 20
13.47080729228237
 30
0.0
 10
15.42937029202417
 20
13.36315003725802
 30
0.0
 10
15.45708820739682
 20
13.27173696550742
 30
0.0
 10
15.47487461808349
 20
13.22234670417058
 30
0.0
 10
15.48376785343804
 20
13.19765149016543
 30
0.0
  0
SPLINE
  5
FE
330
1F
100
AcDbEntity
  8
0
  6
Continuous
 62
     7
370
    25
100
AcDbSpline
210
0.0
220
0.0
230
1.0
 70
    11
 71
     3
 72
    26
 73
    22
 74
     0
 42
0.00000001
 43
0.00000001
 40
0.0
 40
0.0
 40
0.0
 40
0.0
 40
0.0550321578063099
 40
0.1100079209913924
 40
0.1663319445812899
 40
0.2232709768151305
 40
0.2793367413820588
 40
0.3334448973756109
 40
0.3854816577119158
 40
0.4362663989997774
 40
0.4870618454745528
 40
0.5390510047092187
 40
0.5929553176829577
 40
0.6487689832485386
 40
0.7056562320387411
 40
0.7621938474419049
 40
0.8170398767111728
 40
0.8696823562974342
 40
0.9206796565004876
 40
0.9712677160825548
 40
1.0
 40
1.0
 40
1.0
 40
1.0
 10
16.87619717173767
 20
11.17963367641253
 30
0.0
 10
16.86270180234801
 20
11.19680667178823
 30
0.0
 10
16.83572489305087
 20
11.23113506438234
 30
0.0
 10
16.80936376194655
 20
11.2828412185516
 30
0.0
 10
16.79722465674551
 20
11.32784835546239
 30
0.0
 10
16.80205791916472
 20
11.36107219919671
 30
0.0
 10
16.82335811951887
 20
11.37764636280868
 30
0.0
 10
16.85787451047063
 20
11.37576924265522
 30
0.0
 10
16.90050303794244
 20
11.35681832749364
 30
0.0
 10
16.94614255290845
 20
11.32403193952945
 30
0.0
 10
16.99045161479338
 20
11.28109688954248
 30
0.0
 10
17.02952254961949
 20
11.23185535694686
 30
0.0
 10
17.05938178564833
 20
11.18079737456881
 30
0.0
 10
17.07608689559527
 20
11.13346811875845
 30
0.0
 10
17.07663661947385
 20
11.09608042046207
 30
0.0
 10
17.06030923773366
 20
11.07408903202523
 30
0.0
 10
17.02946744816344
 20
11.07037299290161
 30
0.0
 10
16.98878149482802
 20
11.08440842954835
 30
0.0
 10
16.9436666216021
 20
11.11333605179882
 30
0.0
 10
16.90492435262532
 20
11.1473938650555
 30
0.0
 10
16.88383601900259
 20
11.17106078526218
 30
0.0
 10
16.87619717173767
 20
11.17963367641253
 30
0.0
  0
SPLINE
  5
FF
330
1F
100
AcDbEntity
  8
0
  6
Continuous
 62
     7
370
    25
100
AcDbSpline
210
0.0
220
0.0
230
1.0
 70
    11
 71
     3
 72
    26
 73
    22
 74
     0
 42
0.00000001
 43
0.00000001
 40
0.0
 40
0.0
 40
0.0
 40
0.0
 40
0.0553199313605046
 40
0.1105874997591972
 40
0.1670910450903294
 40
0.2239941136848106
 40
0.2798077250543813
 40
0.3335354084881338
 40
0.3852210996764935
 40
0.4358392318841455
 40
0.4867351733827572
 40
0.5390715799168433
 40
0.5934404024980816
 40
0.6496199962684308
 40
0.7065638842040712
 40
0.762794223832282
 40
0.8171453795043186
 40
0.8693855201792015
 40
0.9202501159277044
 40
0.9709806019559231
 40
1.0
 40
1.0
 40
1.0
 40
1.0
 10
16.81542603251236
 20
14.01657627093902
 30
0.0
 10
16.8094758781957
 20
14.03803426423681
 30
0.0
 10
16.79758120166811
 20
14.08092993981507
 30
0.0
 10
16.80013306791466
 20
14.14702245725259
 30
0.0
 10
16.81783912420963
 20
14.20554324845719
 30
0.0
 10
16.85057425670016
 20
14.24995204977295
 30
0.0
 10
16.89372534715698
 20
14.27384650806334
 30
0.0
 10
16.94125475409084
 20
14.27473097093473
 30
0.0
 10
16.98709552125463
 20
14.25405245478223
 30
0.0
 10
17.02666621947204
 20
14.21549300271495
 30
0.0
 10
17.05669176068189
 20
14.16325598562018
 30
0.0
 10
17.07446163217435
 20
14.10186456389304
 30
0.0
 10
17.07759370534833
 20
14.03691565745749
 30
0.0
 10
17.06465297648039
 20
13.97560407771783
 30
0.0
 10
17.03626570326645
 20
13.92608774865683
 30
0.0
 10
16.99585461474637
 20
13.89548562400478
 30
0.0
 10
16.94913194648249
 20
13.88756773870775
 30
0.0
 10
16.90221245878917
 20
13.90192777453005
 30
0.0
 10
16.86039610040637
 20
13.93546320033959
 30
0.0
 10
16.83148787775837
 20
13.9766010616269
 30
0.0
 10
16.81971129643474
 20
14.00591097566123
 30
0.0
 10
16.81542603251236
 20
14.01657627093902
 30
0.0
  0
LWPOLYLINE
  5
100
330
1F
100
AcDbEntity
  8
0
  6
Continuous
 62
     7
370
    25
100
AcDbPolyline
 90
       29
 70
   128
 43
0.0
 10
15.1947983934
 20
13.8334960039
 10
15.197276746
 20
13.8034459683
 10
15.2118650219
 20
13.6681448913
 10
15.2322316521
 20
13.5305739128
 10
15.2583198711
 20
13.3911164679
 10
15.2900569665
 20
13.2501612495
 10
15.3273544813
 20
13.108101125
 10
15.3701084606
 20
12.9653320414
 10
15.4181997414
 20
12.8222519219
 10
15.4714942847
 20
12.6792595564
 10
15.529843549
 20
12.5367534902
 10
15.5930849044
 20
12.3951309134
 10
15.661042086
 20
12.2547865534
 10
15.7335256849
 20
12.1161115751
 10
15.8103336763
 20
11.9794924906
 10
15.8912519826
 20
11.8453100817
 10
15.9760550699
 20
11.713938339
 10
16.0645065768
 20
11.5857434189
 10
16.1563599731
 20
11.4610826239
 10
16.2513592469
 20
11.3403034058
 10
16.3492396183
 20
11.2237423979
 10
16.4497282769
 20
11.1117244768
 10
16.552545143
 20
11.0045618565
 10
16.6574036475
 20
10.9025532183
 10
16.7640115309
 20
10.8059828788
 10
16.872071658
 20
10.7151199966
 10
16.9812828457
 20
10.6302178231
 10
17.091340703
 20
10.5515129957
 10
17.0928052895
 20
10.5505113879
  0
ARC
  5
101
330
1F
100
AcDbEntity
  8
0
  6
Continuous
 62
     7
370
    25
100
AcDbCircle
 10
16.3204662733
 20
14.5678979621
 30
0.0
 40
1.017984871283044
100
AcDbArc
 50
100.5389858772
 51
139.3741725413
  0
ARC
  5
102
330
1F
100
AcDbEntity
  8
0
  6
Continuous
 62
     7
370
    25
100
AcDbCircle
 10
18.2858908645
 20
11.1632007344
 30
0.0
 40
1.020193908893381
100
AcDbArc
 50
280.3994364239
 51
319.2078371459
  0
LWPOLYLINE
  5
103
330
1F
100
AcDbEntity
  8
0
  6
Continuous
 62
     7
370
    25
100
AcDbPolyline
 90
       46
 70
   128
 43
0.0
 10
19.7553308987
 20
11.8428180782
 10
19.7523894298
 20
11.9731494281
 10
19.7435732215
 20
12.1065136688
 10
19.7289068463
 20
12.2425390902
 10
19.7084311818
 20
12.3808465652
 10
19.6822032975
 20
12.521050606
 10
19.6502962952
 20
12.6627604388
 10
19.6127991053
 20
12.8055810928
 10
19.5698162394
 20
12.9491145014
 10
19.5214674983
 20
13.092960611
 10
19.4678876387
 20
13.2367184969
 10
19.4092259973
 20
13.37998748
 10
19.3456460745
 20
13.522368244
 10
19.277325079
 20
13.6634639481
 10
19.2044534338
 20
13.8028813332
 10
19.127234245
 20
13.9402318183
 10
19.0458827365
 20
14.0751325827
 10
18.9606256495
 20
14.2072076339
 10
18.8717006108
 20
14.3360888551
 10
18.7793554704
 20
14.4614170311
 10
18.6838476109
 20
14.5828428498
 10
18.5854432296
 20
14.7000278757
 10
18.4844165974
 20
14.8126454932
 10
18.3810492935
 20
14.9203818167
 10
18.2756294211
 20
15.0229365657
 10
18.1684508044
 20
15.1200239018
 10
18.0598121693
 20
15.2113732252
 10
17.9500163113
 20
15.2967299289
 10
17.8393692511
 20
15.3758561085
 10
17.7281793818
 20
15.4485312251
 10
17.6167566097
 20
15.5145527201
 10
17.5054114899
 20
15.5737365799
 10
17.3944543612
 20
15.6259178482
 10
17.2841944811
 20
15.6709510867
 10
17.1749391637
 20
15.7087107796
 10
17.0669929231
 20
15.7390916838
 10
16.9606566248
 20
15.7620091224
 10
16.8562266472
 20
15.7773992202
 10
16.7539940553
 20
15.7852190824
 10
16.6542437898
 20
15.7854469136
 10
16.5572538724
 20
15.7780820788
 10
16.4632946316
 20
15.763145105
 10
16.3726279485
 20
15.7406776244
 10
16.2855065275
 20
15.7107422579
 10
16.2021731916
 20
15.6734224405
 10
16.1522384484
 20
15.6464630393
  0
LWPOLYLINE
  5
104
330
1F
100
AcDbEntity
  8
0
  6
Continuous
 62
     7
370
    25
100
AcDbPolyline
 90
       16
 70
   128
 43
0.0
 10
19.1369958653
 20
10.4761513309
 10
19.2044534338
 20
10.5187844059
 10
19.277325079
 20
10.5740659804
 10
19.3456460745
 20
10.6362799421
 10
19.4092259973
 20
10.7052528898
 10
19.4678876387
 20
10.7807925833
 10
19.5214674983
 20
10.8626884801
 10
19.5698162394
 20
10.9507123215
 10
19.6127991053
 20
11.0446187694
 10
19.6502962952
 20
11.1441460896
 10
19.6822032975
 20
11.2490168816
 10
19.7084311818
 20
11.3589388517
 10
19.7289068463
 20
11.4736056277
 10
19.7435732215
 20
11.5926976127
 10
19.7523894298
 20
11.7158828761
 10
19.7553308987
 20
11.8428180782
  0
LWPOLYLINE
  5
105
330
1F
100
AcDbEntity
  8
0
  6
Continuous
 62
     7
370
    25
100
AcDbPolyline
 90
       26
 70
   128
 43
0.0
 10
17.5245037412
 20
12.1954772864
 10
17.5283754894
 20
12.1292573789
 10
17.5399483143
 20
12.0619113626
 10
17.5590954216
 20
11.9941770945
 10
17.5856070316
 20
11.9267966856
 10
17.6191926775
 20
11.8605083695
 10
17.659484388
 20
11.7960384151
 10
17.7060407187
 20
11.7340931686
 10
17.7583515887
 20
11.6753513151
 10
17.815843869
 20
11.6204564426
 10
17.8778876624
 20
11.5700099909
 10
17.9438032039
 20
11.5245646617
 10
18.0128683092
 20
11.4846183638
 10
18.0843262864
 20
11.450608757
 10
18.1573942271
 20
11.4229084578
 10
18.2312715836
 20
11.4018209563
 10
18.30514894
 20
11.3875772917
 10
18.3782168807
 20
11.3803335206
 10
18.4496748579
 20
11.3801690073
 10
18.5187399632
 20
11.387085554
 10
18.5846555048
 20
11.4010073819
 10
18.6466992981
 20
11.4217819603
 10
18.7041915785
 20
11.4491816786
 10
18.7565024484
 20
11.4829063399
 10
18.8030587791
 20
11.5225864496
 10
18.8133299387
 20
11.5329613858
  0
ARC
  5
106
330
1F
100
AcDbEntity
  8
0
  6
Continuous
 62
     7
370
    25
100
AcDbCircle
 10
17.9972027212
 20
12.2019299373
 30
0.0
 40
0.472743019382108
100
AcDbArc
 50
146.8394055851
 51
180.7820763656
  0
LWPOLYLINE
  5
107
330
1F
100
AcDbEntity
  8
0
  6
Continuous
 62
     7
370
    25
100
AcDbPolyline
 90
       43
 70
   128
 43
0.0
 10
18.576340589
 20
11.9439616389
 10
18.5724864533
 20
11.9903378526
 10
18.5610101412
 20
12.0375213033
 10
18.5421680147
 20
12.0844579906
 10
18.5163809756
 20
12.1300994265
 10
18.4842250639
 20
12.1734260567
 10
18.4464185894
 20
12.2134700359
 10
18.4038060863
 20
12.2493368479
 10
18.3573394475
 20
12.2802252872
 10
18.3080566609
 20
12.3054453572
 10
18.2570586226
 20
12.3244336832
 10
18.2054845445
 20
12.3367660974
 10
18.1544865062
 20
12.342167114
 10
18.1052037197
 20
12.3405160832
 10
18.0587370809
 20
12.3318498864
 10
18.0161245778
 20
12.316362112
 10
17.9783181033
 20
12.2943987313
 10
17.9461621915
 20
12.2664503701
 10
17.9203751524
 20
12.2331413483
 10
17.9015330259
 20
12.1952157347
 10
17.8900567139
 20
12.1535207247
 10
17.8862025782
 20
12.1089877159
 10
17.8900567139
 20
12.0626115022
 10
17.9015330259
 20
12.0154280515
 10
17.9203751524
 20
11.9684913642
 10
17.9461621915
 20
11.9228499283
 10
17.9783181033
 20
11.8795232981
 10
18.0161245778
 20
11.8394793189
 10
18.0587370809
 20
11.8036125069
 10
18.1052037197
 20
11.7727240676
 10
18.1544865062
 20
11.7475039976
 10
18.2054845445
 20
11.7285156716
 10
18.2570586226
 20
11.7161832574
 10
18.3080566609
 20
11.7107822408
 10
18.3573394475
 20
11.7124332716
 10
18.4038060863
 20
11.7210994684
 10
18.4464185894
 20
11.7365872428
 10
18.4842250639
 20
11.7585506234
 10
18.5163809756
 20
11.7864989847
 10
18.5421680147
 20
11.8198080065
 10
18.5610101412
 20
11.8577336201
 10
18.5724864533
 20
11.8994286301
 10
18.576340589
 20
11.9439616389
  0
ELLIPSE
  5
108
330
1F
100
AcDbEntity
  8
0
  6
Continuous
 62
     7
370
    25
100
AcDbEllipse
 10
18.5327013475
 20
12.4465760806
 30
0.0
 11
-0.2173711037698673
 21
0.3235555099364298
 31
0.0
210
0.0
220
0.0
230
1.0
 40
0.5738010212
 41
1.803939784225243
 42
2.102442618119524
  0
LWPOLYLINE
  5
109
330
1F
100
AcDbEntity
  8
0
  6
Continuous
 62
     7
370
    25
100
AcDbPolyline
 90
       28
 70
   128
 43
0.0
 10
15.6136691478
 20
14.0948211731
 10
15.5985090626
 20
14.0656480688
 10
15.5845974325
 20
14.0267793465
 10
15.5736159641
 20
13.981043231
 10
15.5656849726
 20
13.9289408167
 10
15.5608913516
 20
13.8710429485
 10
15.559287621
 20
13.8079839676
 10
15.5608913516
 20
13.7404547614
 10
15.5656849726
 20
13.669195194
 10
15.5736159641
 20
13.5949860002
 10
15.5845974325
 20
13.5186402313
 10
15.5985090626
 20
13.4409943477
 10
15.6151984355
 20
13.3628990538
 10
15.6344826991
 20
13.2852099781
 10
15.6561505709
 20
13.2087782982
 10
15.6799646532
 20
13.1344414158
 10
15.7056640338
 20
13.0630137812
 10
15.7329671451
 20
12.9952779706
 10
15.7615748484
 20
12.9319761116
 10
15.7911737117
 20
12.8738017527
 10
15.8214394437
 20
12.8213922643
 10
15.8520404467
 20
12.7753218558
 10
15.8826414497
 20
12.7360952842
 10
15.9129071817
 20
12.704142324
 10
15.942506045
 20
12.6798130585
 10
15.9711137483
 20
12.6633740442
 10
15.9984168596
 20
12.6550053905
 10
16.0067173071
 20
12.6540566186
  0
LWPOLYLINE
  5
10A
330
1F
100
AcDbEntity
  8
0
  6
Continuous
 62
     7
370
    25
100
AcDbPolyline
 90
       43
 70
   128
 43
0.0
 10
15.9949727087
 20
13.2007714803
 10
15.9933762734
 20
13.2484510367
 10
15.9886226293
 20
13.299515401
 10
15.980817965
 20
13.3528238795
 10
15.9701366237
 20
13.4071856491
 10
15.9568172089
 20
13.4613863576
 10
15.9411572544
 20
13.5142152507
 10
15.9235065777
 20
13.5644922183
 10
15.9042594657
 20
13.611094156
 10
15.8838458671
 20
13.6529800535
 10
15.862721788
 20
13.689214249
 10
15.8413591054
 20
13.7189873306
 10
15.8202350263
 20
13.7416342168
 10
15.7998214277
 20
13.7566490135
 10
15.7805743157
 20
13.763696315
 10
15.762923639
 20
13.7626186962
 10
15.7472636845
 20
13.7534402294
 10
15.7339442698
 20
13.7363659464
 10
15.7232629284
 20
13.7117772584
 10
15.7154582641
 20
13.680223436
 10
15.71070462
 20
13.6424093396
 10
15.7091081847
 20
13.5991796735
 10
15.71070462
 20
13.5515001171
 10
15.7154582641
 20
13.5004357529
 10
15.7232629284
 20
13.4471272743
 10
15.7339442698
 20
13.3927655047
 10
15.7472636845
 20
13.3385647962
 10
15.762923639
 20
13.2857359031
 10
15.7805743157
 20
13.2354589355
 10
15.7998214277
 20
13.1888569978
 10
15.8202350263
 20
13.1469711003
 10
15.8413591054
 20
13.1107369048
 10
15.862721788
 20
13.0809638232
 10
15.8838458671
 20
13.0583169371
 10
15.9042594657
 20
13.0433021404
 10
15.9235065777
 20
13.0362548389
 10
15.9411572544
 20
13.0373324576
 10
15.9568172089
 20
13.0465109244
 10
15.9701366237
 20
13.0635852074
 10
15.980817965
 20
13.0881738954
 10
15.9886226293
 20
13.1197277178
 10
15.9933762734
 20
13.1575418142
 10
15.9949727087
 20
13.2007714803
  0
LWPOLYLINE
  5
10B
330
1F
100
AcDbEntity
  8
0
  6
Continuous
 62
     7
370
    25
100
AcDbPolyline
 90
        3
 70
   128
 43
0.0
 10
15.1855816793
 20
14.0657373621
 10
15.1885074847
 20
13.9361000354
 10
15.1947983934
 20
13.8334960039
  0
LWPOLYLINE
  5
10C
330
1F
100
AcDbEntity
  8
0
  6
Continuous
 62
     7
370
    25
100
AcDbPolyline
 90
       93
 70
   128
 43
0.0
 10
17.0928052895
 20
10.5505113879
 10
17.2019384787
 20
10.479224879
 10
17.3127679172
 20
10.4135549528
 10
17.4235201168
 20
10.3546862511
 10
17.5338863913
 20
10.3027828515
 10
17.6435591301
 20
10.257989418
 10
17.7522326557
 20
10.220430798
 10
17.8596040754
 20
10.1902116741
 10
17.9653741258
 20
10.1674162725
 10
18.0692480068
 20
10.1521081279
 10
18.1709362032
 20
10.144329907
 10
18.2701552919
 20
10.1441032891
 10
18.3666287315
 20
10.1514289056
 10
18.460087633
 20
10.166286339
 10
18.55027151
 20
10.1886341788
 10
18.6369290036
 20
10.2184101375
 10
18.7198185839
 20
10.2555312243
 10
18.7987092228
 20
10.299893976
 10
18.873381038
 20
10.3513747457
 10
18.9436259056
 20
10.4098300472
 10
19.0092480407
 20
10.4750969552
 10
19.0700645426
 20
10.546993559
 10
19.1259059047
 20
10.6253194699
 10
19.1766164873
 20
10.7098563796
 10
19.2220549507
 20
10.8003686685
 10
19.2620946499
 20
10.8966040627
 10
19.296623987
 20
10.9982943368
 10
19.3255467226
 20
11.1051560618
 10
19.3487822439
 20
11.2168913949
 10
19.3662657892
 20
11.3331889097
 10
19.3779486287
 20
11.4537244642
 10
19.3837982004
 20
11.5781621041
 10
19.3837982004
 20
11.7061549995
 10
19.3779486287
 20
11.8373464112
 10
19.3662657892
 20
11.9713706851
 10
19.3487822439
 20
12.1078542716
 10
19.3255467226
 20
12.2464167665
 10
19.296623987
 20
12.3866719713
 10
19.2620946499
 20
12.5282289694
 10
19.2220549507
 20
12.6706932163
 10
19.1766164873
 20
12.8136676384
 10
19.1259059047
 20
12.9567537404
 10
19.0700645426
 20
13.0995527157
 10
19.0092480407
 20
13.241666558
 10
18.9436259056
 20
13.3826991704
 10
18.873381038
 20
13.5222574698
 10
18.7987092228
 20
13.6599524821
 10
18.7198185839
 20
13.7954004267
 10
18.6369290036
 20
13.9282237859
 10
18.55027151
 20
14.0580523571
 10
18.460087633
 20
14.1845242848
 10
18.3666287315
 20
14.3072870691
 10
18.2701552919
 20
14.425998548
 10
18.1709362032
 20
14.5403278515
 10
18.0692480068
 20
14.6499563232
 10
17.9653741258
 20
14.7545784088
 10
17.8596040754
 20
14.853902508
 10
17.7522326557
 20
14.9476517865
 10
17.6435591301
 20
15.0355649484
 10
17.5338863913
 20
15.1173969639
 10
17.4235201168
 20
15.1929197525
 10
17.3127679172
 20
15.2619228186
 10
17.2019384787
 20
15.3242138384
 10
17.091340703
 20
15.3796191955
 10
16.9812828457
 20
15.4279844653
 10
16.872071658
 20
15.4691748451
 10
16.7640115309
 20
15.50307553
 10
16.6574036475
 20
15.5295920327
 10
16.552545143
 20
15.5486504468
 10
16.4497282769
 20
15.5601976533
 10
16.3492396183
 20
15.5642014679
 10
16.2513592469
 20
15.5606507313
 10
16.1563599731
 20
15.5495553401
 10
16.0645065768
 20
15.530946219
 10
15.9760550699
 20
15.5048752351
 10
15.8912519826
 20
15.4714150529
 10
15.8103336763
 20
15.4306589318
 10
15.7335256849
 20
15.3827204666
 10
15.661042086
 20
15.3277332702
 10
15.5930849044
 20
15.2658506019
 10
15.529843549
 20
15.1972449399
 10
15.4714942847
 20
15.1221075002
 10
15.4181997414
 20
15.0406477046
 10
15.3701084606
 20
14.953092596
 10
15.3273544813
 20
14.8596862063
 10
15.2900569665
 20
14.7606888757
 10
15.2583198711
 20
14.6563765277
 10
15.2322316521
 20
14.5470398994
 10
15.2118650219
 20
14.4329837316
 10
15.197276746
 20
14.3145259194
 10
15.1885074847
 20
14.1919966259
 10
15.1855816793
 20
14.0657373621
 10
15.1855816793
 20
14.0657373621
  0
LWPOLYLINE
  5
10D
330
1F
100
AcDbEntity
  8
0
  6
Continuous
 62
     7
370
    25
100
AcDbPolyline
 90
       54
 70
   128
 43
0.0
 10
16.1342722378
 20
15.568710122
 10
16.1690398372
 20
15.5747958309
 10
16.2645476967
 20
15.5859506221
 10
16.362952078
 20
15.5895203678
 10
16.4639787102
 20
15.5854951185
 10
16.5673460141
 20
15.5738860932
 10
16.6727658865
 20
15.5547256484
 10
16.7799445032
 20
15.5280671877
 10
16.8885831383
 20
15.4939850129
 10
16.9983789963
 20
15.4525741173
 10
17.1090260565
 20
15.4039499204
 10
17.2202159258
 20
15.3482479465
 10
17.3316386979
 20
15.2856234471
 10
17.4429838178
 20
15.2162509679
 10
17.5539409464
 20
15.1403238624
 10
17.6642008265
 20
15.058053753
 10
17.7734561439
 20
14.9696699414
 10
17.8814023846
 20
14.8754187691
 10
17.9877386829
 20
14.7755629309
 10
18.0921686605
 20
14.6703807431
 10
18.1944012523
 20
14.5601653672
 10
18.2941515179
 20
14.4452239932
 10
18.3911414352
 20
14.3258769835
 10
18.485100676
 20
14.2024569794
 10
18.5757673591
 20
14.0753079747
 10
18.6628887801
 20
13.9447843565
 10
18.746222116
 20
13.8112499175
 10
18.8255351019
 20
13.6750768422
 10
18.9006066782
 20
13.5366446693
 10
18.971227607
 20
13.396339234
 10
19.0372010552
 20
13.254551593
 10
19.0983431427
 20
13.1116769336
 10
19.1544834558
 20
12.9681134732
 10
19.2054655212
 20
12.824261349
 10
19.2511472429
 20
12.6805215026
 10
19.2914012976
 20
12.5372945627
 10
19.3261154902
 20
12.3949797286
 10
19.3551930658
 20
12.2539736571
 10
19.3785529802
 20
12.1146693575
 10
19.3961301249
 20
11.9774550958
 10
19.4078755095
 20
11.8427133129
 10
19.4137563973
 20
11.7108195581
 10
19.4137563973
 20
11.5821414432
 10
19.4078755095
 20
11.457037617
 10
19.3961301249
 20
11.3358567664
 10
19.3785529802
 20
11.2189366441
 10
19.3551930658
 20
11.1066031275
 10
19.3261154902
 20
10.9991693102
 10
19.2914012976
 20
10.8969346296
 10
19.2511472429
 20
10.8001840321
 10
19.2054655212
 20
10.7091871788
 10
19.1544834558
 20
10.6241976945
 10
19.0983431427
 20
10.5454524599
 10
19.0582637844
 20
10.4966906563
  0
LINE
  5
10E
330
1F
100
AcDbEntity
  8
0
  6
Continuous
 62
     7
370
    25
100
AcDbLine
 10
13.3216846684
 20
14.31812783
 30
0.0
 11
13.3216846684
 21
14.8001469749
 31
0.0
  0
LINE
  5
10F
330
1F
100
AcDbEntity
  8
0
  6
Continuous
 62
     7
370
    25
100
AcDbLine
 10
7.3516846684
 20
14.8001469749
 30
0.0
 11
7.3516846684
 21
14.31812783
 31
0.0
  0
ARC
  5
110
330
1F
100
AcDbEntity
  8
0
  6
Continuous
 62
     7
370
    25
100
AcDbCircle
 10
7.3816846684
 20
14.31812783
 30
0.0
 40
0.0300000000000011
100
AcDbArc
 50
180.0
 51
241.9555868497
  0
ARC
  5
111
330
1F
100
AcDbEntity
  8
0
  6
Continuous
 62
     7
370
    25
100
AcDbCircle
 10
13.2916846684
 20
14.31812783
 30
0.0
 40
0.0299999999999998
100
AcDbArc
 50
298.0444131503
 51
0.0
  0
ARC
  5
112
330
1F
100
AcDbEntity
  8
0
  6
Continuous
 62
     7
370
    25
100
AcDbCircle
 10
10.3366846684
 20
19.8652969749
 30
0.0
 40
6.315149999999999
100
AcDbArc
 50
292.9705753271
 51
298.0444131503
  0
ARC
  5
113
330
1F
100
AcDbEntity
  8
0
  6
Continuous
 62
     7
370
    25
100
AcDbCircle
 10
10.3366846684
 20
19.8652969749
 30
0.0
 40
6.31515
100
AcDbArc
 50
260.9967620246
 51
278.9972321998
  0
ARC
  5
114
330
1F
100
AcDbEntity
  8
0
  6
Continuous
 62
     7
370
    25
100
AcDbCircle
 10
10.3366846684
 20
19.8652969749
 30
0.0
 40
6.31515
100
AcDbArc
 50
241.9555868497
 51
247.0278351472
  0
LINE
  5
115
330
1F
100
AcDbEntity
  8
0
  6
Continuous
 62
     7
370
    25
100
AcDbLine
 10
13.3216846684
 20
14.8001469749
 30
0.0
 11
7.3516846684
 21
14.8001469749
 31
0.0
  0
SPLINE
  5
116
330
1F
100
AcDbEntity
  8
0
  6
Continuous
 62
     7
370
    25
100
AcDbSpline
210
0.0
220
0.0
230
1.0
 70
     8
 71
     3
 72
    27
 73
    23
 74
     0
 42
0.00000001
 43
0.00000001
 40
0.0
 40
0.0
 40
0.0
 40
0.0
 40
0.028534522215368
 40
0.0809734067845707
 40
0.1349305365627128
 40
0.1874241544647147
 40
0.2414270632010133
 40
0.2941596086067358
 40
0.3484032462313426
 40
0.4014601828079623
 40
0.4560400708459706
 40
0.5093701995552726
 40
0.5642405865830348
 40
0.617671568232225
 40
0.6726583737347515
 40
0.7259669696565508
 40
0.7808380816728908
 40
0.8338506344136503
 40
0.888419951339802
 40
0.9410953722682583
 40
0.995311738690437
 40
1.0
 40
1.0
 40
1.0
 40
1.0
 10
12.80109521651607
 20
14.051213670484
 30
0.0
 10
12.80156006707523
 20
14.05134767913928
 30
0.0
 10
12.80287918968528
 20
14.05172796016431
 30
0.0
 10
12.78221823225806
 20
14.04577174309239
 30
0.0
 10
12.74172299088179
 20
14.0341005081636
 30
0.0
 10
12.68075053969603
 20
14.01653438369025
 30
0.0
 10
12.60334908293159
 20
13.99424713095884
 30
0.0
 10
12.50992631908108
 20
13.96736470267688
 30
0.0
 10
12.40461700303488
 20
13.93708564384415
 30
0.0
 10
12.28854281965233
 20
13.90374080361504
 30
0.0
 10
12.16678437835111
 20
13.86879630538145
 30
0.0
 10
12.04078199269748
 20
13.83266994273837
 30
0.0
 10
11.91625167527603
 20
13.79700202296331
 30
0.0
 10
11.79469386236172
 20
13.76222057014342
 30
0.0
 10
11.68185013406018
 20
13.72996379755324
 30
0.0
 10
11.57899388406828
 20
13.70058830159447
 30
0.0
 10
11.49104195847963
 20
13.67548959257334
 30
0.0
 10
11.41900564344036
 20
13.65494644708289
 30
0.0
 10
11.36557167017967
 20
13.63971647342276
 30
0.0
 10
11.3338418775571
 20
13.63067589924732
 30
0.0
 10
11.32062454523684
 20
13.62691064878197
 30
0.0
 10
11.32400795886525
 20
13.62787453365567
 30
0.0
 10
11.3242772471677
 20
13.62795124993984
 30
0.0
  0
SPLINE
  5
117
330
1F
100
AcDbEntity
  8
0
  6
Continuous
 62
     7
370
    25
100
AcDbSpline
210
0.0
220
0.0
230
1.0
 70
     8
 71
     3
 72
    27
 73
    23
 74
     0
 42
0.00000001
 43
0.00000001
 40
0.0
 40
0.0
 40
0.0
 40
0.0
 40
0.0086951837396912
 40
0.0611303565668116
 40
0.1150858989351486
 40
0.1675373967616978
 40
0.2214977831197555
 40
0.2741748086590431
 40
0.3283608493772197
 40
0.3813714754720013
 40
0.4359025590001406
 40
0.4892073631011292
 40
0.544050334850832
 40
0.5974802509576367
 40
0.6524645649037868
 40
0.7057966564243137
 40
0.7606906838239
 40
0.8137483282158043
 40
0.8683634470869057
 40
0.9210932671650311
 40
0.9753663398295619
 40
0.9999999999999999
 40
0.9999999999999999
 40
0.9999999999999999
 40
0.9999999999999999
 10
9.34846151379548
 20
13.62813088952163
 30
0.0
 10
9.348926001940724
 20
13.62799856426311
 30
0.0
 10
9.352191525337346
 20
13.62706826877101
 30
0.0
 10
9.338162864156326
 20
13.63106466079502
 30
0.0
 10
9.305756019403088
 20
13.64029825915451
 30
0.0
 10
9.251494703596629
 20
13.65576443778192
 30
0.0
 10
9.180329787090795
 20
13.67605946930921
 30
0.0
 10
9.09228502058124
 20
13.70118518847095
 30
0.0
 10
8.991345168856975
 20
13.73001359478079
 30
0.0
 10
8.878548512603727
 20
13.76225698564642
 30
0.0
 10
8.758814207642628
 20
13.7965163925246
 30
0.0
 10
8.633553510032229
 20
13.83239308132072
 30
0.0
 10
8.508418071816436
 20
13.86827043290497
 30
0.0
 10
8.384922375608243
 20
13.90371318318908
 30
0.0
 10
8.268873660928476
 20
13.93705070413978
 30
0.0
 10
8.161588255609056
 20
13.96789810408389
 30
0.0
 10
8.068207327528729
 20
13.99476896025468
 30
0.0
 10
7.989719254209563
 20
14.01736948611835
 30
0.0
 10
7.929477639886806
 20
14.03472547097554
 30
0.0
 10
7.889356622455029
 20
14.04628900598748
 30
0.0
 10
7.869875597717282
 20
14.05190513252527
 30
0.0
 10
7.87158005725654
 20
14.05141375946604
 30
0.0
 10
7.872112167452411
 20
14.0512603591601
 30
0.0
  0
SPLINE
  5
118
330
1F
100
AcDbEntity
  8
0
  6
Continuous
 62
     7
370
    25
100
AcDbSpline
210
0.0
220
0.0
230
1.0
 70
    11
 71
     3
 72
    34
 73
    30
 74
     0
 42
0.00000001
 43
0.00000001
 40
0.0
 40
0.0
 40
0.0
 40
0.0
 40
0.0277106798444753
 40
0.0554262799673999
 40
0.1106031322194843
 40
0.1389069057802129
 40
0.1672097469957358
 40
0.195720862319623
 40
0.2242275455472632
 40
0.2521975284979731
 40
0.2801615292525741
 40
0.3070855170801356
 40
0.3340051507095656
 40
0.3856060050419673
 40
0.4361410526841963
 40
0.4869534536214169
 40
0.5392039552158492
 40
0.5934835368512109
 40
0.6495709174771696
 40
0.678100633071797
 40
0.7066267805382614
 40
0.7348045833391895
 40
0.7629766518283048
 40
0.7902135531826904
 40
0.8174455169455248
 40
0.8695999106914652
 40
0.9203810173294685
 40
0.9710282343747849
 40
1.0
 40
1.0
 40
1.0
 40
1.0
 10
10.20106234271872
 20
13.76311596683319
 30
0.0
 10
10.19398677396548
 20
13.76547428473192
 30
0.0
 10
10.17983438012862
 20
13.77019133926975
 30
0.0
 10
10.15935260832513
 20
13.78108524148827
 30
0.0
 10
10.1486047127174
 20
13.79326482323436
 30
0.0
 10
10.14918562656569
 20
13.80569485039522
 30
0.0
 10
10.15518166926379
 20
13.81503587593928
 30
0.0
 10
10.16689481284875
 20
13.82398574179536
 30
0.0
 10
10.18377481419942
 20
13.83224357730739
 30
0.0
 10
10.20547822305178
 20
13.83950494302666
 30
0.0
 10
10.23083193303995
 20
13.84551949606866
 30
0.0
 10
10.25927047406661
 20
13.85011561813064
 30
0.0
 10
10.29897095951912
 20
13.85420217593232
 30
0.0
 10
10.35144909709697
 20
13.85553079053713
 30
0.0
 10
10.41172182988724
 20
13.85118860485686
 30
0.0
 10
10.46382348878545
 20
13.84155843474891
 30
0.0
 10
10.50303851965759
 20
13.8274687499315
 30
0.0
 10
10.52482996433228
 20
13.81011821695653
 30
0.0
 10
10.52529153778064
 20
13.79441995134388
 30
0.0
 10
10.51431309978628
 20
13.78223818632821
 30
0.0
 10
10.50061382325497
 20
13.7735711845842
 30
0.0
 10
10.48171651820198
 20
13.76574662964308
 30
0.0
 10
10.45862271811768
 20
13.7590316856534
 30
0.0
 10
10.43185385504915
 20
13.75362680959803
 30
0.0
 10
10.39354188242727
 20
13.74839304268888
 30
0.0
 10
10.34137214864072
 20
13.74551541335085
 30
0.0
 10
10.27970568375826
 20
13.74807667638301
 30
0.0
 10
10.23215441921493
 20
13.75473789034984
 30
0.0
 10
10.2093576382866
 20
13.76088071500857
 30
0.0
 10
10.20106234271872
 20
13.76311596683319
 30
0.0
  0
LINE
  5
119
330
1F
100
AcDbEntity
  8
0
  6
Continuous
 62
     7
370
    25
100
AcDbLine
 10
7.3516846684
 20
14.31812783
 30
0.0
 11
13.3216846684
 21
14.31812783
 31
0.0
  0
LINE
  5
11A
330
1F
100
AcDbEntity
  8
0
  6
Continuous
 62
     7
370
    25
100
AcDbLine
 10
13.3057893437
 20
14.2916503276
 30
0.0
 11
7.3675799931
 21
14.2916503276
 31
0.0
  0
SPLINE
  5
11B
330
1F
100
AcDbEntity
  8
0
  6
HIDDEN
 62
     7
370
    18
100
AcDbSpline
210
0.0
220
0.0
230
1.0
 70
     8
 71
     3
 72
    21
 73
    17
 74
     0
 42
0.00000001
 43
0.00000001
 40
0.0
 40
0.0
 40
0.0
 40
0.0
 40
0.073304608946229
 40
0.1487425353784453
 40
0.2220444509630141
 40
0.2974594547451012
 40
0.370980615899439
 40
0.4466318558788736
 40
0.5201730010125629
 40
0.5958616157782805
 40
0.669130667047029
 40
0.7445494256980466
 40
0.8173789287109209
 40
0.8923444527552836
 40
0.9647608965554946
 40
1.0
 40
1.0
 40
1.0
 40
1.0
 10
11.58170676598028
 20
13.70136643000427
 30
0.0
 10
11.61430522255597
 20
13.71067504632567
 30
0.0
 10
11.68045081899519
 20
13.72956317917861
 30
0.0
 10
11.7936641570487
 20
13.76192630343933
 30
0.0
 10
11.91457137507128
 20
13.79652099826051
 30
0.0
 10
12.03894133466444
 20
13.83214248867903
 30
0.0
 10
12.16519947915845
 20
13.86834161865833
 30
0.0
 10
12.28761139032097
 20
13.90347328229696
 30
0.0
 10
12.40475990605173
 20
13.93712661664037
 30
0.0
 10
12.51104766180397
 20
13.96768716855972
 30
0.0
 10
12.60538852173321
 20
13.9948341333293
 30
0.0
 10
12.68312987705986
 20
14.01721967460834
 30
0.0
 10
12.74402640037949
 20
14.03476426706872
 30
0.0
 10
12.78375774959651
 20
14.0462155223244
 30
0.0
 10
12.80339778936884
 20
14.05187746955646
 30
0.0
 10
12.80166305164884
 20
14.05137736929336
 30
0.0
 10
12.80109521651607
 20
14.051213670484
 30
0.0
  0
SPLINE
  5
11C
330
1F
100
AcDbEntity
  8
0
  6
HIDDEN
 62
     7
370
    18
100
AcDbSpline
210
0.0
220
0.0
230
1.0
 70
     8
 71
     3
 72
    13
 73
     9
 74
     0
 42
0.00000001
 43
0.00000001
 40
0.0
 40
0.0
 40
0.0
 40
0.0
 40
0.1744699406139329
 40
0.3716269937498172
 40
0.5631764715653951
 40
0.7602409734864436
 40
0.8794822454581589
 40
1.0
 40
1.0
 40
1.0
 40
1.0
 10
11.3242772471677
 20
13.62795124993984
 30
0.0
 10
11.32556774996166
 20
13.62831886327366
 30
0.0
 10
11.32831656544276
 20
13.62910189235953
 30
0.0
 10
11.35785339319397
 20
13.63751709781395
 30
0.0
 10
11.40649531599321
 20
13.65138008859888
 30
0.0
 10
11.46529128938928
 20
13.66814546418958
 30
0.0
 10
11.52522080372314
 20
13.68524246537201
 30
0.0
 10
11.56281140082679
 20
13.69597273239739
 30
0.0
 10
11.58170676598028
 20
13.70136643000427
 30
0.0
  0
SPLINE
  5
11D
330
1F
100
AcDbEntity
  8
0
  6
HIDDEN
 62
     7
370
    18
100
AcDbSpline
210
0.0
220
0.0
230
1.0
 70
     8
 71
     3
 72
    21
 73
    17
 74
     0
 42
0.00000001
 43
0.00000001
 40
0.0
 40
0.0
 40
0.0
 40
0.0
 40
0.0712586067092938
 40
0.1445917818799119
 40
0.2158475596248773
 40
0.289155575869903
 40
0.3606610780772871
 40
0.4342337841907113
 40
0.5058383767639525
 40
0.5795300362006487
 40
0.6509350616566336
 40
0.7244341523920499
 40
0.7954242653694267
 40
0.8684987019628665
 40
0.9390451105663631
 40
0.9999999999999999
 40
0.9999999999999999
 40
0.9999999999999999
 40
0.9999999999999999
 10
8.093411941556457
 20
13.98751731070349
 30
0.0
 10
8.124313117472218
 20
13.97862589633519
 30
0.0
 10
8.1870151024559
 20
13.96058420977528
 30
0.0
 10
8.296449639735062
 20
13.92912626834825
 30
0.0
 10
8.414697387979514
 20
13.89516470375295
 30
0.0
 10
8.537756003603965
 20
13.85985576493898
 30
0.0
 10
8.664049345331382
 20
13.8236551825883
 30
0.0
 10
8.787908336204202
 20
13.78818857326612
 30
0.0
 10
8.907882563948899
 20
13.75386871949326
 30
0.0
 10
9.018280433844126
 20
13.72231843367235
 30
0.0
 10
9.117903644794156
 20
13.69387227542209
 30
0.0
 10
9.201882139610737
 20
13.66991177331972
 30
0.0
 10
9.269667798619336
 20
13.65058371985773
 30
0.0
 10
9.317305824626883
 20
13.63700707783598
 30
0.0
 10
9.345678336325545
 20
13.62892369577537
 30
0.0
 10
9.347580023430407
 20
13.62838198780106
 30
0.0
 10
9.34846151379548
 20
13.62813088952163
 30
0.0
  0
SPLINE
  5
11E
330
1F
100
AcDbEntity
  8
0
  6
HIDDEN
 62
     7
370
    18
100
AcDbSpline
210
0.0
220
0.0
230
1.0
 70
     8
 71
     3
 72
    13
 73
     9
 74
     0
 42
0.00000001
 43
0.00000001
 40
0.0
 40
0.0
 40
0.0
 40
0.0
 40
0.1097445946588149
 40
0.3225465894960342
 40
0.5291343750560056
 40
0.7416808356953575
 40
0.8701522086397641
 40
1.0
 40
1.0
 40
1.0
 40
1.0
 10
7.872112167452411
 20
14.0512603591601
 30
0.0
 10
7.871689579231703
 20
14.05138218417267
 30
0.0
 10
7.870447564627026
 20
14.05174023590582
 30
0.0
 10
7.891056332810204
 20
14.04579906581921
 30
0.0
 10
7.931960741546821
 20
14.0340098732967
 30
0.0
 10
7.985014119057397
 20
14.01872542807713
 30
0.0
 10
8.040323129557741
 20
14.0027978033684
 30
0.0
 10
8.075652920899573
 20
13.99262886951724
 30
0.0
 10
8.093411941556457
 20
13.98751731070349
 30
0.0
  0
LINE
  5
11F
330
1F
100
AcDbEntity
  8
0
  6
HIDDEN
 62
     7
370
    18
100
AcDbLine
 10
12.7258229817
 20
14.2401839765
 30
0.0
 11
11.3122872969
 21
13.654678325
 31
0.0
  0
LINE
  5
120
330
1F
100
AcDbEntity
  8
0
  6
HIDDEN
 62
     7
370
    18
100
AcDbLine
 10
7.9475463552
 20
14.2401839765
 30
0.0
 11
9.3610820399
 21
13.654678325
 31
0.0
  0
LINE
  5
121
330
1F
100
AcDbEntity
  8
0
  6
HIDDEN
 62
     7
370
    18
100
AcDbLine
 10
12.3641241447
 20
14.0903634128
 30
0.0
 11
11.6739861339
 21
13.8044988888
 31
0.0
  0
LINE
  5
122
330
1F
100
AcDbEntity
  8
0
  6
HIDDEN
 62
     7
370
    18
100
AcDbLine
 10
12.1218988622
 20
14.6751469749
 30
0.0
 11
11.3133518886
 21
14.6751469749
 31
0.0
  0
LINE
  5
123
330
1F
100
AcDbEntity
  8
0
  6
HIDDEN
 62
     7
370
    18
100
AcDbLine
 10
8.9993832029
 20
13.8044988888
 30
0.0
 11
8.3092451922
 21
14.0903634128
 31
0.0
  0
LINE
  5
124
330
1F
100
AcDbEntity
  8
0
  6
HIDDEN
 62
     7
370
    18
100
AcDbLine
 10
8.5514704747
 20
14.6751469749
 30
0.0
 11
9.3600174483
 21
14.6751469749
 31
0.0
  0
LINE
  5
125
330
1F
100
AcDbEntity
  8
0
  6
HIDDEN
 62
     7
370
    18
100
AcDbLine
 10
11.3122872969
 20
13.654678325
 30
0.0
 11
11.3234923926
 21
13.6276268312
 31
0.0
  0
LINE
  5
126
330
1F
100
AcDbEntity
  8
0
  6
HIDDEN
 62
     7
370
    18
100
AcDbLine
 10
12.8036574406
 20
14.0522749703
 30
0.0
 11
12.7258229817
 21
14.2401839765
 31
0.0
  0
LINE
  5
127
330
1F
100
AcDbEntity
  8
0
  6
HIDDEN
 62
     7
370
    18
100
AcDbLine
 10
7.9475463552
 20
14.2401839765
 30
0.0
 11
7.8697046855
 21
14.052257562
 31
0.0
  0
LINE
  5
128
330
1F
100
AcDbEntity
  8
0
  6
HIDDEN
 62
     7
370
    18
100
AcDbLine
 10
9.3498481373
 20
13.627557285
 30
0.0
 11
9.3610820399
 21
13.654678325
 31
0.0
  0
LINE
  5
129
330
1F
100
AcDbEntity
  8
0
  6
HIDDEN
 62
     7
370
    18
100
AcDbLine
 10
12.3641241447
 20
14.0903634128
 30
0.0
 11
12.1218988622
 21
14.6751469749
 31
0.0
  0
LINE
  5
12A
330
1F
100
AcDbEntity
  8
0
  6
HIDDEN
 62
     7
370
    18
100
AcDbLine
 10
11.3133518886
 20
14.6751469749
 30
0.0
 11
11.6739861339
 21
13.8044988888
 31
0.0
  0
LINE
  5
12B
330
1F
100
AcDbEntity
  8
0
  6
HIDDEN
 62
     7
370
    18
100
AcDbLine
 10
8.9993832029
 20
13.8044988888
 30
0.0
 11
9.3600174483
 21
14.6751469749
 31
0.0
  0
LINE
  5
12C
330
1F
100
AcDbEntity
  8
0
  6
HIDDEN
 62
     7
370
    18
100
AcDbLine
 10
8.5514704747
 20
14.6751469749
 30
0.0
 11
8.3092451922
 21
14.0903634128
 31
0.0
  0
DIMENSION
  5
12D
330
1F
100
AcDbEntity
  8
SLD-0
100
AcDbDimension
  2
_D_3
 10
10.3366846684
 20
15.3001469749
 30
0.0
 11
9.29313323
 21
12.7627454001
 31
0.0
 70
   162
  1
<>
 71
     1
 42
-1.0
  3
SLDDIMSTYLE3
100
AcDb2LineAngularDimension
 13
8.4629724814
 23
13.4854913845
 33
0.0
 14
9.1470856777
 24
15.1370867412
 34
0.0
 15
10.3366846684
 25
13.0501469749
 35
0.0
 16
8.5932331142
 26
12.9520665406
 36
0.0
  0
DIMENSION
  5
139
330
1F
100
AcDbEntity
  8
SLD-0
100
AcDbDimension
  2
_D_4
 10
11.5262836592
 20
15.1370867412
 30
0.0
 11
11.3802361068
 21
12.7627454001
 31
0.0
 70
   162
  1
<>
 71
     1
 42
-1.0
  3
SLDDIMSTYLE3
100
AcDb2LineAngularDimension
 13
10.3366846684
 23
13.0501469749
 33
0.0
 14
10.3366846684
 24
15.3001469749
 34
0.0
 15
12.2103968555
 25
13.4854913845
 35
0.0
 16
10.6641090817
 26
12.6699950264
 36
0.0
  0
LINE
  5
144
330
1F
100
AcDbEntity
  8
SLD-0
  6
CENTERX2
370
    18
100
AcDbLine
 10
8.4629724814
 20
13.4854913845
 30
0.0
 11
9.1470856777
 21
15.1370867412
 31
0.0
  0
LINE
  5
145
330
1F
100
AcDbEntity
  8
SLD-0
  6
CENTERX2
370
    18
100
AcDbLine
 10
12.2103968555
 20
13.4854913845
 30
0.0
 11
11.5262836592
 21
15.1370867412
 31
0.0
  0
LINE
  5
146
330
1F
100
AcDbEntity
  8
SLD-0
  6
CENTERX2
370
    18
100
AcDbLine
 10
10.3366846684
 20
13.0501469749
 30
0.0
 11
10.3366846684
 21
15.3001469749
 31
0.0
  0
ENDSEC
  0
SECTION
  2
OBJECTS
  0
DICTIONARY
  5
C
330
0
100
AcDbDictionary
281
     1
  3
ACAD_GROUP
350
D
  3
ACAD_LAYOUT
350
1A
  3
ACAD_MLINESTYLE
350
17
  3
ACAD_PLOTSETTINGS
350
19
  3
ACAD_PLOTSTYLENAME
350
E
  3
ACAD_SCALELIST
350
47
  3
DWGPROPS
350
147
  0
DICTIONARY
  5
D
102
{ACAD_REACTORS
330
C
102
}
330
C
100
AcDbDictionary
281
     1
  0
DICTIONARY
  5
1A
102
{ACAD_REACTORS
330
C
102
}
330
C
100
AcDbDictionary
281
     1
  3
Layout1
350
1E
  3
Layout2
350
26
  3
Model
350
22
  0
DICTIONARY
  5
17
102
{ACAD_REACTORS
330
C
102
}
330
C
100
AcDbDictionary
281
     1
  3
Standard
350
18
  0
DICTIONARY
  5
19
102
{ACAD_REACTORS
330
C
102
}
330
C
100
AcDbDictionary
281
     1
  0
ACDBDICTIONARYWDFLT
  5
E
102
{ACAD_REACTORS
330
C
102
}
330
C
100
AcDbDictionary
281
     1
  3
Normal
350
F
100
AcDbDictionaryWithDefault
340
F
  0
DICTIONARY
  5
47
102
{ACAD_REACTORS
330
C
102
}
330
C
100
AcDbDictionary
281
     1
  3
A0
350
48
  3
A1
350
49
  3
A2
350
4A
  3
A3
350
4B
  3
A4
350
4C
  3
A5
350
4D
  3
A6
350
4E
  3
A7
350
4F
  3
A8
350
50
  3
A9
350
51
  3
B1
350
52
  3
B2
350
53
  3
B3
350
54
  3
B4
350
55
  3
B5
350
56
  3
B6
350
57
  3
B7
350
58
  0
XRECORD
  5
147
102
{ACAD_REACTORS
330
C
102
}
330
C
100
AcDbXrecord
280
     1
  1
DWGPROPS COOKIE
  2

  3

  4

  6

  7

  8
shawnd
  9

300
=
301
=
302
=
303
=
304
=
305
=
306
=
307
=
308
=
309
=
 40
0.0
 41
2460889.671921991
 42
2460889.671922442
  1

 90
        0
  0
LAYOUT
  5
1E
102
{ACAD_REACTORS
330
1A
102
}
330
1A
100
AcDbPlotSettings
  1

  2
none_device
  4

  6

 40
0.0
 41
0.0
 42
0.0
 43
0.0
 44
0.0
 45
0.0
 46
0.0
 47
0.0
 48
0.0
 49
0.0
140
0.0
141
0.0
142
1.0
143
1.0
 70
   688
 72
     0
 73
     0
 74
     5
  7

 75
    16
147
1.0
148
0.0
149
0.0
100
AcDbLayout
  1
Layout1
 70
     1
 71
     1
 10
0.0
 20
0.0
 11
12.0
 21
9.0
 12
0.0
 22
0.0
 32
0.0
 14
1.0000000000E+20
 24
1.0000000000E+20
 34
1.0000000000E+20
 15
-1.0000000000E+20
 25
-1.0000000000E+20
 35
-1.0000000000E+20
146
0.0
 13
0.0
 23
0.0
 33
0.0
 16
1.0
 26
0.0
 36
0.0
 17
0.0
 27
1.0
 37
0.0
 76
     0
330
1B
  0
LAYOUT
  5
26
102
{ACAD_REACTORS
330
1A
102
}
330
1A
100
AcDbPlotSettings
  1

  2
none_device
  4

  6

 40
0.0
 41
0.0
 42
0.0
 43
0.0
 44
0.0
 45
0.0
 46
0.0
 47
0.0
 48
0.0
 49
0.0
140
0.0
141
0.0
142
1.0
143
1.0
 70
   688
 72
     0
 73
     0
 74
     5
  7

 75
    16
147
1.0
148
0.0
149
0.0
100
AcDbLayout
  1
Layout2
 70
     1
 71
     2
 10
0.0
 20
0.0
 11
0.0
 21
0.0
 12
0.0
 22
0.0
 32
0.0
 14
0.0
 24
0.0
 34
0.0
 15
0.0
 25
0.0
 35
0.0
146
0.0
 13
0.0
 23
0.0
 33
0.0
 16
1.0
 26
0.0
 36
0.0
 17
0.0
 27
1.0
 37
0.0
 76
     0
330
23
  0
LAYOUT
  5
22
102
{ACAD_REACTORS
330
1A
102
}
330
1A
100
AcDbPlotSettings
  1

  2
none_device
  4
Letter_(8.50_x_11.00_Inches)
  6

 40
6.35
 41
6.35
 42
6.35000508
 43
6.35000508
 44
215.9
 45
279.4
 46
0.0
 47
0.0
 48
0.0
 49
0.0
140
0.0
141
0.0
142
1.0
143
1.0
 70
  1712
 72
     0
 73
     0
 74
     0
  7

 75
     0
147
1.0
148
0.0
149
0.0
100
AcDbLayout
  1
Model
 70
     1
 71
     0
 10
0.0
 20
0.0
 11
22.0
 21
17.0
 12
0.0
 22
0.0
 32
0.0
 14
0.0
 24
0.0
 34
0.0
 15
22.0
 25
17.0
 35
0.0
146
0.0
 13
0.0
 23
0.0
 33
0.0
 16
1.0
 26
0.0
 36
0.0
 17
0.0
 27
1.0
 37
0.0
 76
     0
330
1F
331
29
  0
MLINESTYLE
  5
18
102
{ACAD_REACTORS
330
17
102
}
330
17
100
AcDbMlineStyle
  2
Standard
 70
     0
  3

 62
   256
 51
90.0
 52
90.0
 71
     2
 49
0.5
 62
   256
  6
BYLAYER
 49
-0.5
 62
   256
  6
BYLAYER
  0
ACDBPLACEHOLDER
  5
F
102
{ACAD_REACTORS
330
E
102
}
330
E
  0
SCALE
  5
48
102
{ACAD_REACTORS
330
47
102
}
330
47
100
AcDbScale
 70
     0
300
1:1
140
1.0
141
1.0
290
     1
  0
SCALE
  5
49
102
{ACAD_REACTORS
330
47
102
}
330
47
100
AcDbScale
 70
     0
300
1/128" = 1'-0"
140
0.0078125
141
12.0
290
     0
  0
SCALE
  5
4A
102
{ACAD_REACTORS
330
47
102
}
330
47
100
AcDbScale
 70
     0
300
1/64" = 1'-0"
140
0.015625
141
12.0
290
     0
  0
SCALE
  5
4B
102
{ACAD_REACTORS
330
47
102
}
330
47
100
AcDbScale
 70
     0
300
1/32" = 1'-0"
140
0.03125
141
12.0
290
     0
  0
SCALE
  5
4C
102
{ACAD_REACTORS
330
47
102
}
330
47
100
AcDbScale
 70
     0
300
1/16" = 1'-0"
140
0.0625
141
12.0
290
     0
  0
SCALE
  5
4D
102
{ACAD_REACTORS
330
47
102
}
330
47
100
AcDbScale
 70
     0
300
3/32" = 1'-0"
140
0.09375
141
12.0
290
     0
  0
SCALE
  5
4E
102
{ACAD_REACTORS
330
47
102
}
330
47
100
AcDbScale
 70
     0
300
1/8" = 1'-0"
140
0.125
141
12.0
290
     0
  0
SCALE
  5
4F
102
{ACAD_REACTORS
330
47
102
}
330
47
100
AcDbScale
 70
     0
300
3/16" = 1'-0"
140
0.1875
141
12.0
290
     0
  0
SCALE
  5
50
102
{ACAD_REACTORS
330
47
102
}
330
47
100
AcDbScale
 70
     0
300
1/4" = 1'-0"
140
0.25
141
12.0
290
     0
  0
SCALE
  5
51
102
{ACAD_REACTORS
330
47
102
}
330
47
100
AcDbScale
 70
     0
300
3/8" = 1'-0"
140
0.375
141
12.0
290
     0
  0
SCALE
  5
52
102
{ACAD_REACTORS
330
47
102
}
330
47
100
AcDbScale
 70
     0
300
1/2" = 1'-0"
140
0.5
141
12.0
290
     0
  0
SCALE
  5
53
102
{ACAD_REACTORS
330
47
102
}
330
47
100
AcDbScale
 70
     0
300
3/4" = 1'-0"
140
0.75
141
12.0
290
     0
  0
SCALE
  5
54
102
{ACAD_REACTORS
330
47
102
}
330
47
100
AcDbScale
 70
     0
300
1" = 1'-0"
140
1.0
141
12.0
290
     0
  0
SCALE
  5
55
102
{ACAD_REACTORS
330
47
102
}
330
47
100
AcDbScale
 70
     0
300
1-1/2" = 1'-0"
140
1.5
141
12.0
290
     0
  0
SCALE
  5
56
102
{ACAD_REACTORS
330
47
102
}
330
47
100
AcDbScale
 70
     0
300
3" = 1'-0"
140
3.0
141
12.0
290
     0
  0
SCALE
  5
57
102
{ACAD_REACTORS
330
47
102
}
330
47
100
AcDbScale
 70
     0
300
6" = 1'-0"
140
6.0
141
12.0
290
     0
  0
SCALE
  5
58
102
{ACAD_REACTORS
330
47
102
}
330
47
100
AcDbScale
 70
     0
300
1'-0" = 1'-0"
140
12.0
141
12.0
290
     0
  0
ENDSEC
  0
EOF
