  0
SECTION
  2
HEADER
  9
$ACADVER
  1
AC1015
  9
$ACADMAINTVER
 70
     6
  9
$DWGCODEPAGE
  3
ANSI_1252
  9
$INSBASE
 10
0.0
 20
0.0
 30
0.0
  9
$EXTMIN
 10
0.0
 20
0.0
 30
0.0
  9
$EXTMAX
 10
22.0
 20
17.0
 30
0.0
  9
$LIMMIN
 10
0.0
 20
0.0
  9
$LIMMAX
 10
22.0
 20
17.0
  9
$ORTHOMODE
 70
     0
  9
$REGENMODE
 70
     1
  9
$FILLMODE
 70
     1
  9
$QTEXTMODE
 70
     0
  9
$MIRRTEXT
 70
     1
  9
$LTSCALE
 40
2.0
  9
$ATTMODE
 70
     1
  9
$TEXTSIZE
 40
0.25
  9
$TRACEWID
 40
0.05
  9
$TEXTSTYLE
  7
Standard
  9
$CLAYER
  8
0
  9
$CELTYPE
  6
ByLayer
  9
$CECOLOR
 62
   256
  9
$CELTSCALE
 40
1.0
  9
$DISPSILH
 70
     0
  9
$DIMSCALE
 40
1.0
  9
$DIMASZ
 40
0.26
  9
$DIMEXO
 40
0.1
  9
$DIMDLI
 40
0.38
  9
$DIMRND
 40
0.0
  9
$DIMDLE
 40
0.0
  9
$DIMEXE
 40
0.25
  9
$DIMTP
 40
0.0
  9
$DIMTM
 40
0.0
  9
$DIMTXT
 40
0.25
  9
$DIMCEN
 40
0.09
  9
$DIMTSZ
 40
0.0
  9
$DIMTOL
 70
     0
  9
$DIMLIM
 70
     0
  9
$DIMTIH
 70
     1
  9
$DIMTOH
 70
     1
  9
$DIMSE1
 70
     0
  9
$DIMSE2
 70
     0
  9
$DIMTAD
 70
     0
  9
$DIMZIN
 70
     1
  9
$DIMBLK
  1

  9
$DIMASO
 70
     1
  9
$DIMSHO
 70
     1
  9
$DIMPOST
  1

  9
$DIMAPOST
  1

  9
$DIMALT
 70
     0
  9
$DIMALTD
 70
     2
  9
$DIMALTF
 40
25.4
  9
$DIMLFAC
 40
1.0
  9
$DIMTOFL
 70
     0
  9
$DIMTVP
 40
0.0
  9
$DIMTIX
 70
     0
  9
$DIMSOXD
 70
     0
  9
$DIMSAH
 70
     0
  9
$DIMBLK1
  1

  9
$DIMBLK2
  1

  9
$DIMSTYLE
  2
Standard
  9
$DIMCLRD
 70
     0
  9
$DIMCLRE
 70
     0
  9
$DIMCLRT
 70
     0
  9
$DIMTFAC
 40
1.0
  9
$DIMGAP
 40
0.12
  9
$DIMJUST
 70
     0
  9
$DIMSD1
 70
     0
  9
$DIMSD2
 70
     0
  9
$DIMTOLJ
 70
     1
  9
$DIMTZIN
 70
     1
  9
$DIMALTZ
 70
     0
  9
$DIMALTTZ
 70
     0
  9
$DIMUPT
 70
     0
  9
$DIMDEC
 70
     0
  9
$DIMTDEC
 70
     0
  9
$DIMALTU
 70
     2
  9
$DIMALTTD
 70
     2
  9
$DIMTXSTY
  7
Standard
  9
$DIMAUNIT
 70
     0
  9
$DIMADEC
 70
     0
  9
$DIMALTRND
 40
0.0
  9
$DIMAZIN
 70
     0
  9
$DIMDSEP
 70
    46
  9
$DIMATFIT
 70
     3
  9
$DIMFRAC
 70
     0
  9
$DIMLDRBLK
  1

  9
$DIMLUNIT
 70
     2
  9
$DIMLWD
 70
    -2
  9
$DIMLWE
 70
    -2
  9
$DIMTMOVE
 70
     0
  9
$LUNITS
 70
     2
  9
$LUPREC
 70
     6
  9
$SKETCHINC
 40
0.1
  9
$FILLETRAD
 40
0.0
  9
$AUNITS
 70
     0
  9
$AUPREC
 70
     2
  9
$MENU
  1
.
  9
$ELEVATION
 40
0.0
  9
$PELEVATION
 40
0.0
  9
$THICKNESS
 40
0.0
  9
$LIMCHECK
 70
     0
  9
$CHAMFERA
 40
0.0
  9
$CHAMFERB
 40
0.0
  9
$CHAMFERC
 40
0.0
  9
$CHAMFERD
 40
0.0
  9
$SKPOLY
 70
     0
  9
$TDCREATE
 40
2460888.572529294
  9
$TDUCREATE
 40
2460888.864195961
  9
$TDUPDATE
 40
2460888.572529699
  9
$TDUUPDATE
 40
2460888.864196366
  9
$TDINDWG
 40
0.0000000116
  9
$TDUSRTIMER
 40
0.0000000116
  9
$USRTIMER
 70
     1
  9
$ANGBASE
 50
0.0
  9
$ANGDIR
 70
     0
  9
$PDMODE
 70
     0
  9
$PDSIZE
 40
-1.0
  9
$PLINEWID
 40
0.0
  9
$SPLFRAME
 70
     0
  9
$SPLINETYPE
 70
     6
  9
$SPLINESEGS
 70
     8
  9
$HANDSEED
  5
204
  9
$SURFTAB1
 70
     6
  9
$SURFTAB2
 70
     6
  9
$SURFTYPE
 70
     6
  9
$SURFU
 70
     6
  9
$SURFV
 70
     6
  9
$UCSBASE
  2

  9
$UCSNAME
  2

  9
$UCSORG
 10
0.0
 20
0.0
 30
0.0
  9
$UCSXDIR
 10
1.0
 20
0.0
 30
0.0
  9
$UCSYDIR
 10
0.0
 20
1.0
 30
0.0
  9
$UCSORTHOREF
  2

  9
$UCSORTHOVIEW
 70
     0
  9
$UCSORGTOP
 10
0.0
 20
0.0
 30
0.0
  9
$UCSORGBOTTOM
 10
0.0
 20
0.0
 30
0.0
  9
$UCSORGLEFT
 10
0.0
 20
0.0
 30
0.0
  9
$UCSORGRIGHT
 10
0.0
 20
0.0
 30
0.0
  9
$UCSORGFRONT
 10
0.0
 20
0.0
 30
0.0
  9
$UCSORGBACK
 10
0.0
 20
0.0
 30
0.0
  9
$PUCSBASE
  2

  9
$PUCSNAME
  2

  9
$PUCSORG
 10
0.0
 20
0.0
 30
0.0
  9
$PUCSXDIR
 10
1.0
 20
0.0
 30
0.0
  9
$PUCSYDIR
 10
0.0
 20
1.0
 30
0.0
  9
$PUCSORTHOREF
  2

  9
$PUCSORTHOVIEW
 70
     0
  9
$PUCSORGTOP
 10
0.0
 20
0.0
 30
0.0
  9
$PUCSORGBOTTOM
 10
0.0
 20
0.0
 30
0.0
  9
$PUCSORGLEFT
 10
0.0
 20
0.0
 30
0.0
  9
$PUCSORGRIGHT
 10
0.0
 20
0.0
 30
0.0
  9
$PUCSORGFRONT
 10
0.0
 20
0.0
 30
0.0
  9
$PUCSORGBACK
 10
0.0
 20
0.0
 30
0.0
  9
$USERI1
 70
     0
  9
$USERI2
 70
     0
  9
$USERI3
 70
     0
  9
$USERI4
 70
     0
  9
$USERI5
 70
     0
  9
$USERR1
 40
0.0
  9
$USERR2
 40
0.0
  9
$USERR3
 40
0.0
  9
$USERR4
 40
0.0
  9
$USERR5
 40
0.0
  9
$WORLDVIEW
 70
     1
  9
$SHADEDGE
 70
     3
  9
$SHADEDIF
 70
    70
  9
$TILEMODE
 70
     1
  9
$MAXACTVP
 70
    64
  9
$PINSBASE
 10
0.0
 20
0.0
 30
0.0
  9
$PLIMCHECK
 70
     0
  9
$PEXTMIN
 10
1.0000000000E+20
 20
1.0000000000E+20
 30
1.0000000000E+20
  9
$PEXTMAX
 10
-1.0000000000E+20
 20
-1.0000000000E+20
 30
-1.0000000000E+20
  9
$PLIMMIN
 10
0.0
 20
0.0
  9
$PLIMMAX
 10
12.0
 20
9.0
  9
$UNITMODE
 70
     0
  9
$VISRETAIN
 70
     1
  9
$PLINEGEN
 70
     0
  9
$PSLTSCALE
 70
     1
  9
$TREEDEPTH
 70
  3020
  9
$CMLSTYLE
  2
Standard
  9
$CMLJUST
 70
     0
  9
$CMLSCALE
 40
1.0
  9
$PROXYGRAPHICS
 70
     1
  9
$MEASUREMENT
 70
     0
  9
$CELWEIGHT
370
    -1
  9
$ENDCAPS
280
     0
  9
$JOINSTYLE
280
     0
  9
$LWDISPLAY
290
     1
  9
$INSUNITS
 70
     1
  9
$HYPERLINKBASE
  1

  9
$STYLESHEET
  1

  9
$XEDIT
290
     1
  9
$CEPSNTYPE
380
     0
  9
$PSTYLEMODE
290
     1
  9
$FINGERPRINTGUID
  2
{e14cebc5-2ecb-40f7-9765-3e630450bd2a}
  9
$VERSIONGUID
  2
{FAEB1C32-E019-11D5-929B-00C0DF256EC4}
  9
$EXTNAMES
290
     1
  9
$PSVPSCALE
 40
0.0
  9
$OLESTARTUP
290
     0
  0
ENDSEC
  0
SECTION
  2
CLASSES
  0
CLASS
  1
ACDBDICTIONARYWDFLT
  2
AcDbDictionaryWithDefault
  3
ObjectDBX Classes
 90
        0
280
     0
281
     0
  0
CLASS
  1
VISUALSTYLE
  2
AcDbVisualStyle
  3
ObjectDBX Classes
 90
     4095
280
     0
281
     0
  0
CLASS
  1
MATERIAL
  2
AcDbMaterial
  3
ObjectDBX Classes
 90
     1153
280
     0
281
     0
  0
CLASS
  1
SCALE
  2
AcDbScale
  3
ObjectDBX Classes
 90
     1153
280
     0
281
     0
  0
CLASS
  1
TABLESTYLE
  2
AcDbTableStyle
  3
ObjectDBX Classes
 90
     4095
280
     0
281
     0
  0
CLASS
  1
MLEADERSTYLE
  2
AcDbMLeaderStyle
  3
ACDB_MLEADERSTYLE_CLASS
 90
     4095
280
     0
281
     0
  0
CLASS
  1
SUN
  2
AcDbSun
  3
SCENEOE
 90
     1153
280
     0
281
     0
  0
CLASS
  1
ACDBPLACEHOLDER
  2
AcDbPlaceHolder
  3
ObjectDBX Classes
 90
        0
280
     0
281
     0
  0
CLASS
  1
LAYOUT
  2
AcDbLayout
  3
ObjectDBX Classes
 90
        0
280
     0
281
     0
  0
ENDSEC
  0
SECTION
  2
TABLES
  0
TABLE
  2
VPORT
  5
8
330
0
100
AcDbSymbolTable
 70
     1
  0
VPORT
  5
29
330
8
100
AcDbSymbolTableRecord
100
AcDbViewportTableRecord
  2
*Active
 70
     0
 10
0.0
 20
0.0
 11
1.0
 21
1.0
 12
11.0
 22
8.5
 13
0.0
 23
0.0
 14
0.5
 24
0.5
 15
0.5
 25
0.5
 16
0.0
 26
0.0
 36
1.0
 17
0.0
 27
0.0
 37
0.0
 40
17.0
 41
1.2941176471
 42
50.0
 43
0.0
 44
0.0
 50
0.0
 51
0.0
 71
     0
 72
  2000
 73
     1
 74
     3
 75
     0
 76
     0
 77
     0
 78
     0
281
     0
 65
     1
110
0.0
120
0.0
130
0.0
111
1.0
121
0.0
131
0.0
112
0.0
122
1.0
132
0.0
 79
     0
146
0.0
  0
ENDTAB
  0
TABLE
  2
LTYPE
  5
5
330
0
100
AcDbSymbolTable
 70
     6
  0
LTYPE
  5
14
330
5
100
AcDbSymbolTableRecord
100
AcDbLinetypeTableRecord
  2
ByBlock
 70
     0
  3

 72
    65
 73
     0
 40
0.0
  0
LTYPE
  5
15
330
5
100
AcDbSymbolTableRecord
100
AcDbLinetypeTableRecord
  2
ByLayer
 70
     0
  3

 72
    65
 73
     0
 40
0.0
  0
LTYPE
  5
16
330
5
100
AcDbSymbolTableRecord
100
AcDbLinetypeTableRecord
  2
Continuous
 70
     0
  3
Solid line
 72
    65
 73
     0
 40
0.0
  0
LTYPE
  5
5E
330
5
100
AcDbSymbolTableRecord
100
AcDbLinetypeTableRecord
  2
HIDDEN
 70
     0
  3
Hidden __ __ __ __ __ __ __ __ __ __ __ __ __ __
 72
    65
 73
     2
 40
0.075
 49
0.05
 74
     0
 49
-0.025
 74
     0
  0
LTYPE
  5
5F
330
5
100
AcDbSymbolTableRecord
100
AcDbLinetypeTableRecord
  2
PHANTOM
 70
     0
  3
Phantom ______  __  __  ______  __  __  ______
 72
    65
 73
     6
 40
0.5
 49
0.25
 74
     0
 49
-0.05
 74
     0
 49
0.05
 74
     0
 49
-0.05
 74
     0
 49
0.05
 74
     0
 49
-0.05
 74
     0
  0
LTYPE
  5
60
330
5
100
AcDbSymbolTableRecord
100
AcDbLinetypeTableRecord
  2
CENTER
 70
     0
  3
Center ____ _ ____ _ ____ _ ____ _ ____ _ ____
 72
    65
 73
     4
 40
0.4
 49
0.25
 74
     0
 49
-0.05
 74
     0
 49
0.05
 74
     0
 49
-0.05
 74
     0
  0
LTYPE
  5
61
330
5
100
AcDbSymbolTableRecord
100
AcDbLinetypeTableRecord
  2
CENTERX2
 70
     0
  3
Center (2x) ________  __  ________  __  _____
 72
    65
 73
     4
 40
0.8
 49
0.5
 74
     0
 49
-0.1
 74
     0
 49
0.1
 74
     0
 49
-0.1
 74
     0
  0
LTYPE
  5
62
330
5
100
AcDbSymbolTableRecord
100
AcDbLinetypeTableRecord
  2
DOT2
 70
     0
  3
Dot (.5x) ........................................
 72
    65
 73
     2
 40
0.025
 49
0.0
 74
     0
 49
-0.025
 74
     0
  0
ENDTAB
  0
TABLE
  2
LAYER
  5
2
330
0
100
AcDbSymbolTable
 70
    11
  0
LAYER
  5
10
330
2
100
AcDbSymbolTableRecord
100
AcDbLayerTableRecord
  2
0
 70
     0
 62
     7
  6
Continuous
370
    -3
390
F
  0
LAYER
  5
63
330
2
100
AcDbSymbolTableRecord
100
AcDbLayerTableRecord
  2
SLD-0
 70
     0
 62
     7
  6
Continuous
370
    -3
390
F
  0
LAYER
  5
64
330
2
100
AcDbSymbolTableRecord
100
AcDbLayerTableRecord
  2
DIM
 70
     0
 62
     7
  6
Continuous
370
    -3
390
F
  0
LAYER
  5
65
330
2
100
AcDbSymbolTableRecord
100
AcDbLayerTableRecord
  2
CEN
 70
     0
 62
     1
  6
CENTER
370
    -3
390
F
  0
LAYER
  5
66
330
2
100
AcDbSymbolTableRecord
100
AcDbLayerTableRecord
  2
HAT
 70
     0
 62
     4
  6
Continuous
370
    -3
390
F
  0
LAYER
  5
67
330
2
100
AcDbSymbolTableRecord
100
AcDbLayerTableRecord
  2
OBJ
 70
     0
 62
     5
  6
Continuous
370
    -3
390
F
  0
LAYER
  5
68
330
2
100
AcDbSymbolTableRecord
100
AcDbLayerTableRecord
  2
SLD-DEFPOINTS
 70
     0
 62
     7
  6
Continuous
370
    -3
390
F
  0
LAYER
  5
69
330
2
100
AcDbSymbolTableRecord
100
AcDbLayerTableRecord
  2
HID
 70
     0
 62
     4
  6
HIDDEN
370
    -3
390
F
  0
LAYER
  5
6A
330
2
100
AcDbSymbolTableRecord
100
AcDbLayerTableRecord
  2
NOTE
 70
     0
 62
     7
  6
Continuous
370
    -3
390
F
  0
LAYER
  5
6B
330
2
100
AcDbSymbolTableRecord
100
AcDbLayerTableRecord
  2
TITLE
 70
     0
 62
     7
  6
Continuous
370
    -3
390
F
  0
LAYER
  5
6C
330
2
100
AcDbSymbolTableRecord
100
AcDbLayerTableRecord
  2
THICK_TITLE
 70
     0
 62
     7
  6
Continuous
370
   100
390
F
  0
ENDTAB
  0
TABLE
  2
STYLE
  5
3
330
0
100
AcDbSymbolTable
 70
     3
  0
STYLE
  5
11
330
3
100
AcDbSymbolTableRecord
100
AcDbTextStyleTableRecord
  2
Standard
 70
     0
 40
0.0
 41
1.0
 50
0.0
 71
     0
 42
0.25
  3
txt
  4

  0
STYLE
  5
6D
330
3
100
AcDbSymbolTableRecord
100
AcDbTextStyleTableRecord
  2
SLDTEXTSTYLE0
 70
     0
 40
0.0
 41
0.75
 50
0.0
 71
     0
 42
0.25
  3
TXT
  4

  0
STYLE
  5
1B8
330
3
100
AcDbSymbolTableRecord
100
AcDbTextStyleTableRecord
  2
SLDTEXTSTYLE1
 70
     0
 40
0.0
 41
0.7
 50
0.0
 71
     0
 42
0.25
  3
TXT
  4

  0
ENDTAB
  0
TABLE
  2
VIEW
  5
6
330
0
100
AcDbSymbolTable
 70
     0
  0
ENDTAB
  0
TABLE
  2
UCS
  5
7
330
0
100
AcDbSymbolTable
 70
     0
  0
ENDTAB
  0
TABLE
  2
APPID
  5
9
330
0
100
AcDbSymbolTable
 70
     1
  0
APPID
  5
12
330
9
100
AcDbSymbolTableRecord
100
AcDbRegAppTableRecord
  2
ACAD
 70
     0
  0
ENDTAB
  0
TABLE
  2
DIMSTYLE
  5
A
330
0
100
AcDbSymbolTable
 70
     5
100
AcDbDimStyleTable
  0
DIMSTYLE
105
27
330
A
100
AcDbSymbolTableRecord
100
AcDbDimStyleTableRecord
  2
Standard
 70
     0
178
     0
340
11
  0
DIMSTYLE
105
C6
102
{ACAD_REACTORS
330
C5
102
}
330
A
100
AcDbSymbolTableRecord
100
AcDbDimStyleTableRecord
  2
SLDDIMSTYLE0
 70
     0
 41
0.26
 44
0.0
 45
0.000000001
 78
    12
 79
     3
140
0.25
147
0.0625
148
0.000000001
170
     1
172
     1
173
     1
178
     0
271
     6
272
     0
276
     2
277
     5
284
    12
289
     0
340
6D
  0
DIMSTYLE
105
DB
102
{ACAD_REACTORS
330
DA
330
179
330
18D
330
1A1
102
}
330
A
100
AcDbSymbolTableRecord
100
AcDbDimStyleTableRecord
  2
SLDDIMSTYLE1
 70
     0
 41
0.26
 44
0.0
 45
0.000000001
 78
    12
 79
     3
140
0.25
147
0.0625
148
0.000000001
170
     1
173
     1
178
     0
271
     6
272
     0
276
     2
277
     5
284
    12
340
6D
  0
DIMSTYLE
105
F1
330
A
100
AcDbSymbolTableRecord
100
AcDbDimStyleTableRecord
  2
SLDDIMSTYLE2
 70
     0
 41
0.26
 44
0.0
 45
0.000000001
146
0.26
147
0.0
173
     1
178
     0
271
     0
272
     0
276
     2
277
     5
340
11
  0
DIMSTYLE
105
1EA
102
{ACAD_REACTORS
330
1E9
330
1F6
102
}
330
A
100
AcDbSymbolTableRecord
100
AcDbDimStyleTableRecord
  2
SLDDIMSTYLE3
 70
     0
 41
0.26
 44
0.0
 78
    12
 79
     3
140
0.25
144
2.0
147
0.0625
148
0.000000001
170
     1
173
     1
178
     0
179
     2
272
     2
276
     2
277
     5
284
    12
340
6D
  0
ENDTAB
  0
TABLE
  2
BLOCK_RECORD
  5
1
330
0
100
AcDbSymbolTable
 70
    10
  0
BLOCK_RECORD
  5
1F
330
1
100
AcDbSymbolTableRecord
100
AcDbBlockTableRecord
  2
*Model_Space
340
22
  0
BLOCK_RECORD
  5
1B
330
1
100
AcDbSymbolTableRecord
100
AcDbBlockTableRecord
  2
*Paper_Space
340
1E
  0
BLOCK_RECORD
  5
23
330
1
100
AcDbSymbolTableRecord
100
AcDbBlockTableRecord
  2
*Paper_Space0
340
26
  0
BLOCK_RECORD
  5
C7
330
1
100
AcDbSymbolTableRecord
100
AcDbBlockTableRecord
  2
_D
340
0
  0
BLOCK_RECORD
  5
DC
330
1
100
AcDbSymbolTableRecord
100
AcDbBlockTableRecord
  2
_D_1
340
0
  0
BLOCK_RECORD
  5
17A
330
1
100
AcDbSymbolTableRecord
100
AcDbBlockTableRecord
  2
_D_2
340
0
  0
BLOCK_RECORD
  5
18E
330
1
100
AcDbSymbolTableRecord
100
AcDbBlockTableRecord
  2
_D_3
340
0
  0
BLOCK_RECORD
  5
1A2
330
1
100
AcDbSymbolTableRecord
100
AcDbBlockTableRecord
  2
_D_4
340
0
  0
BLOCK_RECORD
  5
1BC
330
1
100
AcDbSymbolTableRecord
100
AcDbBlockTableRecord
  2
SW_CENTERMARKSYMBOL_2
340
0
102
{BLKREFS
331
1C7
102
}
  0
BLOCK_RECORD
  5
1C8
330
1
100
AcDbSymbolTableRecord
100
AcDbBlockTableRecord
  2
SW_CENTERMARKSYMBOL_3
340
0
102
{BLKREFS
331
1D3
102
}
  0
BLOCK_RECORD
  5
1EB
330
1
100
AcDbSymbolTableRecord
100
AcDbBlockTableRecord
  2
_D_5
340
0
  0
BLOCK_RECORD
  5
1F7
330
1
100
AcDbSymbolTableRecord
100
AcDbBlockTableRecord
  2
_D_6
340
0
  0
ENDTAB
  0
ENDSEC
  0
SECTION
  2
BLOCKS
  0
BLOCK
  5
20
330
1F
100
AcDbEntity
  8
0
100
AcDbBlockBegin
  2
*Model_Space
 70
     0
 10
0.0
 20
0.0
 30
0.0
  3
*Model_Space
  1

  0
ENDBLK
  5
21
330
1F
100
AcDbEntity
  8
0
100
AcDbBlockEnd
  0
BLOCK
  5
1C
330
1B
100
AcDbEntity
 67
     1
  8
0
100
AcDbBlockBegin
  2
*Paper_Space
 70
     0
 10
0.0
 20
0.0
 30
0.0
  3
*Paper_Space
  1

  0
ENDBLK
  5
1D
330
1B
100
AcDbEntity
 67
     1
  8
0
100
AcDbBlockEnd
  0
BLOCK
  5
24
330
23
100
AcDbEntity
  8
0
100
AcDbBlockBegin
  2
*Paper_Space0
 70
     0
 10
0.0
 20
0.0
 30
0.0
  3
*Paper_Space0
  1

  0
ENDBLK
  5
25
330
23
100
AcDbEntity
  8
0
100
AcDbBlockEnd
  0
BLOCK
  5
C8
330
C7
100
AcDbEntity
  8
0
100
AcDbBlockBegin
  2
_D
 70
     0
 10
0.0
 20
0.0
 30
0.0
  3
_D
  1

  0
SOLID
  5
CA
330
C7
100
AcDbEntity
  8
0
  6
Continuous
 62
     7
370
    18
100
AcDbTrace
 10
2.5510101546
 20
10.1053070705
 30
0.0
 11
2.2910101546
 21
10.1453070705
 31
0.0
 12
2.2910101546
 22
10.0653070705
 32
0.0
 13
2.2910101546
 23
10.0653070705
 33
0.0
  0
SOLID
  5
CB
330
C7
100
AcDbEntity
  8
0
  6
Continuous
 62
     7
370
    18
100
AcDbTrace
 10
2.6760101546
 20
10.1053070705
 30
0.0
 11
2.9360101546
 21
10.0653070705
 31
0.0
 12
2.9360101546
 22
10.1453070705
 32
0.0
 13
2.9360101546
 23
10.1453070705
 33
0.0
  0
LINE
  5
CC
330
C7
100
AcDbEntity
  8
0
  6
Continuous
 62
     7
370
     0
100
AcDbLine
 10
0.9965830888
 20
10.1033973092
 30
0.0
 11
0.9204112146
 21
10.1033973092
 31
0.0
  0
LINE
  5
CD
330
C7
100
AcDbEntity
  8
0
  6
Continuous
 62
     7
370
     0
100
AcDbLine
 10
0.9204112146
 20
10.1033973092
 30
0.0
 11
0.9204112146
 21
9.7065222973
 31
0.0
  0
LINE
  5
CE
330
C7
100
AcDbEntity
  8
0
  6
Continuous
 62
     7
370
     0
100
AcDbLine
 10
0.9204112146
 20
9.7065222973
 30
0.0
 11
0.9965830888
 21
9.7065222973
 31
0.0
  0
LINE
  5
CF
330
C7
100
AcDbEntity
  8
0
  6
Continuous
 62
     7
370
     0
100
AcDbLine
 10
1.8063052948
 20
10.1033973092
 30
0.0
 11
1.882477169
 21
10.1033973092
 31
0.0
  0
LINE
  5
D0
330
C7
100
AcDbEntity
  8
0
  6
Continuous
 62
     7
370
     0
100
AcDbLine
 10
1.882477169
 20
10.1033973092
 30
0.0
 11
1.882477169
 21
9.7065222973
 31
0.0
  0
LINE
  5
D1
330
C7
100
AcDbEntity
  8
0
  6
Continuous
 62
     7
370
     0
100
AcDbLine
 10
1.882477169
 20
9.7065222973
 30
0.0
 11
1.8063052948
 21
9.7065222973
 31
0.0
  0
LINE
  5
D2
330
C7
100
AcDbEntity
  8
0
  6
Continuous
 62
     7
370
     0
100
AcDbLine
 10
2.5510101546
 20
9.4179054957
 30
0.0
 11
2.5510101546
 21
10.3553070705
 31
0.0
  0
LINE
  5
D3
330
C7
100
AcDbEntity
  8
0
  6
Continuous
 62
     7
370
     0
100
AcDbLine
 10
2.6760101546
 20
9.4179054957
 30
0.0
 11
2.6760101546
 21
10.3553070705
 31
0.0
  0
LINE
  5
D4
330
C7
100
AcDbEntity
  8
0
  6
Continuous
 62
     7
370
     0
100
AcDbLine
 10
2.5510101546
 20
10.1053070705
 30
0.0
 11
2.0987787497
 21
10.1053070705
 31
0.0
  0
LINE
  5
D5
330
C7
100
AcDbEntity
  8
0
  6
Continuous
 62
     7
370
     0
100
AcDbLine
 10
2.6760101546
 20
10.1053070705
 30
0.0
 11
3.1760101546
 21
10.1053070705
 31
0.0
  0
MTEXT
  5
D6
330
C7
100
AcDbEntity
  8
0
  6
Continuous
 62
     7
370
    18
100
AcDbMText
 10
0.845628229
 20
10.4802649642
 30
0.0
 40
0.25
 41
0.0
 71
     1
 72
     1
  1

  7
SLDTEXTSTYLE0
 73
     1
 44
1.0
  0
MTEXT
  5
D7
330
C7
100
AcDbEntity
  8
0
  6
Continuous
 62
     7
370
    18
100
AcDbMText
 10
1.0922427687
 20
10.4764455013
 30
0.0
 40
0.25
 41
0.0
 71
     1
 72
     1
  1
1/8"
  7
SLDTEXTSTYLE0
 73
     1
 44
1.0
  0
MTEXT
  5
D8
330
C7
100
AcDbEntity
  8
0
  6
Continuous
 62
     7
370
    18
100
AcDbMText
 10
0.9965830888
 20
10.0287892597
 30
0.0
 40
0.25
 41
0.0
 71
     1
 72
     1
  1
3mm
  7
SLDTEXTSTYLE0
 73
     1
 44
1.0
  0
MTEXT
  5
D9
330
C7
100
AcDbEntity
  8
0
  6
Continuous
 62
     7
370
    18
100
AcDbMText
 10
2.0523989883
 20
10.4802649642
 30
0.0
 40
0.25
 41
0.0
 71
     1
 72
     1
  1

  7
SLDTEXTSTYLE0
 73
     1
 44
1.0
  0
ENDBLK
  5
C9
330
C7
100
AcDbEntity
  8
0
100
AcDbBlockEnd
  0
BLOCK
  5
DD
330
DC
100
AcDbEntity
  8
0
100
AcDbBlockBegin
  2
_D_1
 70
     0
 10
0.0
 20
0.0
 30
0.0
  3
_D_1
  1

  0
SOLID
  5
DF
330
DC
100
AcDbEntity
  8
0
  6
Continuous
 62
     7
370
    18
100
AcDbTrace
 10
2.6760101546
 20
10.1053070705
 30
0.0
 11
2.9360101546
 21
10.0653070705
 31
0.0
 12
2.9360101546
 22
10.1453070705
 32
0.0
 13
2.9360101546
 23
10.1453070705
 33
0.0
  0
SOLID
  5
E0
330
DC
100
AcDbEntity
  8
0
  6
Continuous
 62
     7
370
    18
100
AcDbTrace
 10
3.7530101546
 20
10.1053070705
 30
0.0
 11
3.4930101546
 21
10.1453070705
 31
0.0
 12
3.4930101546
 22
10.0653070705
 32
0.0
 13
3.4930101546
 23
10.0653070705
 33
0.0
  0
LINE
  5
E1
330
DC
100
AcDbEntity
  8
0
  6
Continuous
 62
     7
370
     0
100
AcDbLine
 10
4.4977150144
 20
10.1033973092
 30
0.0
 11
4.4215431402
 21
10.1033973092
 31
0.0
  0
LINE
  5
E2
330
DC
100
AcDbEntity
  8
0
  6
Continuous
 62
     7
370
     0
100
AcDbLine
 10
4.4215431402
 20
10.1033973092
 30
0.0
 11
4.4215431402
 21
9.7065222973
 31
0.0
  0
LINE
  5
E3
330
DC
100
AcDbEntity
  8
0
  6
Continuous
 62
     7
370
     0
100
AcDbLine
 10
4.4215431402
 20
9.7065222973
 30
0.0
 11
4.4977150144
 21
9.7065222973
 31
0.0
  0
LINE
  5
E4
330
DC
100
AcDbEntity
  8
0
  6
Continuous
 62
     7
370
     0
100
AcDbLine
 10
5.4921594799
 20
10.1033973092
 30
0.0
 11
5.5683313541
 21
10.1033973092
 31
0.0
  0
LINE
  5
E5
330
DC
100
AcDbEntity
  8
0
  6
Continuous
 62
     7
370
     0
100
AcDbLine
 10
5.5683313541
 20
10.1033973092
 30
0.0
 11
5.5683313541
 21
9.7065222973
 31
0.0
  0
LINE
  5
E6
330
DC
100
AcDbEntity
  8
0
  6
Continuous
 62
     7
370
     0
100
AcDbLine
 10
5.5683313541
 20
9.7065222973
 30
0.0
 11
5.4921594799
 21
9.7065222973
 31
0.0
  0
LINE
  5
E7
330
DC
100
AcDbEntity
  8
0
  6
Continuous
 62
     7
370
     0
100
AcDbLine
 10
2.6760101546
 20
9.4179054957
 30
0.0
 11
2.6760101546
 21
10.3553070705
 31
0.0
  0
LINE
  5
E8
330
DC
100
AcDbEntity
  8
0
  6
Continuous
 62
     7
370
     0
100
AcDbLine
 10
3.7530101546
 20
7.7184054957
 30
0.0
 11
3.7530101546
 21
10.3553070705
 31
0.0
  0
LINE
  5
E9
330
DC
100
AcDbEntity
  8
0
  6
Continuous
 62
     7
370
     0
100
AcDbLine
 10
2.6760101546
 20
10.1053070705
 30
0.0
 11
3.7530101546
 21
10.1053070705
 31
0.0
  0
LINE
  5
EA
330
DC
100
AcDbEntity
  8
0
  6
Continuous
 62
     7
370
     0
100
AcDbLine
 10
3.7530101546
 20
10.1053070705
 30
0.0
 11
4.2052415596
 21
10.1053070705
 31
0.0
  0
MTEXT
  5
EB
330
DC
100
AcDbEntity
  8
0
  6
Continuous
 62
     7
370
    18
100
AcDbMText
 10
4.3467601546
 20
10.4802649642
 30
0.0
 40
0.25
 41
0.0
 71
     1
 72
     1
  1

  7
SLDTEXTSTYLE0
 73
     1
 44
1.0
  0
MTEXT
  5
EC
330
DC
100
AcDbEntity
  8
0
  6
Continuous
 62
     7
370
    18
100
AcDbMText
 10
4.4548330548
 20
10.4764455013
 30
0.0
 40
0.25
 41
0.0
 71
     1
 72
     1
  1
1 1/16"
  7
SLDTEXTSTYLE0
 73
     1
 44
1.0
  0
MTEXT
  5
ED
330
DC
100
AcDbEntity
  8
0
  6
Continuous
 62
     7
370
    18
100
AcDbMText
 10
4.4977150144
 20
10.0287892597
 30
0.0
 40
0.25
 41
0.0
 71
     1
 72
     1
  1
27mm
  7
SLDTEXTSTYLE0
 73
     1
 44
1.0
  0
MTEXT
  5
EE
330
DC
100
AcDbEntity
  8
0
  6
Continuous
 62
     7
370
    18
100
AcDbMText
 10
5.7382531733
 20
10.4802649642
 30
0.0
 40
0.25
 41
0.0
 71
     1
 72
     1
  1

  7
SLDTEXTSTYLE0
 73
     1
 44
1.0
  0
ENDBLK
  5
DE
330
DC
100
AcDbEntity
  8
0
100
AcDbBlockEnd
  0
BLOCK
  5
17B
330
17A
100
AcDbEntity
  8
0
100
AcDbBlockBegin
  2
_D_2
 70
     0
 10
0.0
 20
0.0
 30
0.0
  3
_D_2
  1

  0
SOLID
  5
17D
330
17A
100
AcDbEntity
  8
0
  6
Continuous
 62
     7
370
    18
100
AcDbTrace
 10
10.0507438017
 20
10.1053070705
 30
0.0
 11
9.7907438017
 21
10.1453070705
 31
0.0
 12
9.7907438017
 22
10.0653070705
 32
0.0
 13
9.7907438017
 23
10.0653070705
 33
0.0
  0
SOLID
  5
17E
330
17A
100
AcDbEntity
  8
0
  6
Continuous
 62
     7
370
    18
100
AcDbTrace
 10
7.1007438017
 20
10.1053070705
 30
0.0
 11
7.3607438017
 21
10.0653070705
 31
0.0
 12
7.3607438017
 22
10.1453070705
 32
0.0
 13
7.3607438017
 23
10.1453070705
 33
0.0
  0
LINE
  5
17F
330
17A
100
AcDbEntity
  8
0
  6
Continuous
 62
     7
370
     0
100
AcDbLine
 10
8.0785216056
 20
10.1033973092
 30
0.0
 11
8.0023497314
 21
10.1033973092
 31
0.0
  0
LINE
  5
180
330
17A
100
AcDbEntity
  8
0
  6
Continuous
 62
     7
370
     0
100
AcDbLine
 10
8.0023497314
 20
10.1033973092
 30
0.0
 11
8.0023497314
 21
9.7065222973
 31
0.0
  0
LINE
  5
181
330
17A
100
AcDbEntity
  8
0
  6
Continuous
 62
     7
370
     0
100
AcDbLine
 10
8.0023497314
 20
9.7065222973
 30
0.0
 11
8.0785216056
 21
9.7065222973
 31
0.0
  0
LINE
  5
182
330
17A
100
AcDbEntity
  8
0
  6
Continuous
 62
     7
370
     0
100
AcDbLine
 10
9.072966071
 20
10.1033973092
 30
0.0
 11
9.1491379453
 21
10.1033973092
 31
0.0
  0
LINE
  5
183
330
17A
100
AcDbEntity
  8
0
  6
Continuous
 62
     7
370
     0
100
AcDbLine
 10
9.1491379453
 20
10.1033973092
 30
0.0
 11
9.1491379453
 21
9.7065222973
 31
0.0
  0
LINE
  5
184
330
17A
100
AcDbEntity
  8
0
  6
Continuous
 62
     7
370
     0
100
AcDbLine
 10
9.1491379453
 20
9.7065222973
 30
0.0
 11
9.072966071
 21
9.7065222973
 31
0.0
  0
LINE
  5
185
330
17A
100
AcDbEntity
  8
0
  6
Continuous
 62
     7
370
     0
100
AcDbLine
 10
10.0507438017
 20
9.4179054957
 30
0.0
 11
10.0507438017
 21
10.3553070705
 31
0.0
  0
LINE
  5
186
330
17A
100
AcDbEntity
  8
0
  6
Continuous
 62
     7
370
     0
100
AcDbLine
 10
7.1007438017
 20
9.4179054957
 30
0.0
 11
7.1007438017
 21
10.3553070705
 31
0.0
  0
LINE
  5
187
330
17A
100
AcDbEntity
  8
0
  6
Continuous
 62
     7
370
     0
100
AcDbLine
 10
10.0507438017
 20
10.1053070705
 30
0.0
 11
9.3654394526
 21
10.1053070705
 31
0.0
  0
LINE
  5
188
330
17A
100
AcDbEntity
  8
0
  6
Continuous
 62
     7
370
     0
100
AcDbLine
 10
7.1007438017
 20
10.1053070705
 30
0.0
 11
7.7860481507
 21
10.1053070705
 31
0.0
  0
MTEXT
  5
189
330
17A
100
AcDbEntity
  8
0
  6
Continuous
 62
     7
370
    18
100
AcDbMText
 10
7.9275667458
 20
10.4802649642
 30
0.0
 40
0.25
 41
0.0
 71
     1
 72
     1
  1

  7
SLDTEXTSTYLE0
 73
     1
 44
1.0
  0
MTEXT
  5
18A
330
17A
100
AcDbEntity
  8
0
  6
Continuous
 62
     7
370
    18
100
AcDbMText
 10
7.9432785529
 20
10.4764455013
 30
0.0
 40
0.25
 41
0.0
 71
     1
 72
     1
  1
2 15/16"
  7
SLDTEXTSTYLE0
 73
     1
 44
1.0
  0
MTEXT
  5
18B
330
17A
100
AcDbEntity
  8
0
  6
Continuous
 62
     7
370
    18
100
AcDbMText
 10
8.0785216056
 20
10.0287892597
 30
0.0
 40
0.25
 41
0.0
 71
     1
 72
     1
  1
75mm
  7
SLDTEXTSTYLE0
 73
     1
 44
1.0
  0
MTEXT
  5
18C
330
17A
100
AcDbEntity
  8
0
  6
Continuous
 62
     7
370
    18
100
AcDbMText
 10
9.3190597645
 20
10.4802649642
 30
0.0
 40
0.25
 41
0.0
 71
     1
 72
     1
  1

  7
SLDTEXTSTYLE0
 73
     1
 44
1.0
  0
ENDBLK
  5
17C
330
17A
100
AcDbEntity
  8
0
100
AcDbBlockEnd
  0
BLOCK
  5
18F
330
18E
100
AcDbEntity
  8
0
100
AcDbBlockBegin
  2
_D_3
 70
     0
 10
0.0
 20
0.0
 30
0.0
  3
_D_3
  1

  0
SOLID
  5
191
330
18E
100
AcDbEntity
  8
0
  6
Continuous
 62
     7
370
    18
100
AcDbTrace
 10
11.3105863213
 20
9.3179054957
 30
0.0
 11
11.2705863213
 21
9.0579054957
 31
0.0
 12
11.3505863213
 22
9.0579054957
 32
0.0
 13
11.3505863213
 23
9.0579054957
 33
0.0
  0
SOLID
  5
192
330
18E
100
AcDbEntity
  8
0
  6
Continuous
 62
     7
370
    18
100
AcDbTrace
 10
11.3105863213
 20
4.6879054957
 30
0.0
 11
11.3505863213
 21
4.9479054957
 31
0.0
 12
11.2705863213
 22
4.9479054957
 32
0.0
 13
11.2705863213
 23
4.9479054957
 33
0.0
  0
LINE
  5
193
330
18E
100
AcDbEntity
  8
0
  6
Continuous
 62
     7
370
     0
100
AcDbLine
 10
10.7210030323
 20
7.0009957344
 30
0.0
 11
10.644831158
 21
7.0009957344
 31
0.0
  0
LINE
  5
194
330
18E
100
AcDbEntity
  8
0
  6
Continuous
 62
     7
370
     0
100
AcDbLine
 10
10.644831158
 20
7.0009957344
 30
0.0
 11
10.644831158
 21
6.6041207225
 31
0.0
  0
LINE
  5
195
330
18E
100
AcDbEntity
  8
0
  6
Continuous
 62
     7
370
     0
100
AcDbLine
 10
10.644831158
 20
6.6041207225
 30
0.0
 11
10.7210030323
 21
6.6041207225
 31
0.0
  0
LINE
  5
196
330
18E
100
AcDbEntity
  8
0
  6
Continuous
 62
     7
370
     0
100
AcDbLine
 10
11.9001696838
 20
7.0009957344
 30
0.0
 11
11.976341558
 21
7.0009957344
 31
0.0
  0
LINE
  5
197
330
18E
100
AcDbEntity
  8
0
  6
Continuous
 62
     7
370
     0
100
AcDbLine
 10
11.976341558
 20
7.0009957344
 30
0.0
 11
11.976341558
 21
6.6041207225
 31
0.0
  0
LINE
  5
198
330
18E
100
AcDbEntity
  8
0
  6
Continuous
 62
     7
370
     0
100
AcDbLine
 10
11.976341558
 20
6.6041207225
 30
0.0
 11
11.9001696838
 21
6.6041207225
 31
0.0
  0
LINE
  5
199
330
18E
100
AcDbEntity
  8
0
  6
Continuous
 62
     7
370
     0
100
AcDbLine
 10
10.1507438017
 20
9.3179054957
 30
0.0
 11
11.5605863213
 21
9.3179054957
 31
0.0
  0
LINE
  5
19A
330
18E
100
AcDbEntity
  8
0
  6
Continuous
 62
     7
370
     0
100
AcDbLine
 10
10.1507438017
 20
4.6879054957
 30
0.0
 11
11.5605863213
 21
4.6879054957
 31
0.0
  0
LINE
  5
19B
330
18E
100
AcDbEntity
  8
0
  6
Continuous
 62
     7
370
     0
100
AcDbLine
 10
11.3105863213
 20
9.3179054957
 30
0.0
 11
11.3105863213
 21
7.4524714389
 31
0.0
  0
LINE
  5
19C
330
18E
100
AcDbEntity
  8
0
  6
Continuous
 62
     7
370
     0
100
AcDbLine
 10
11.3105863213
 20
4.6879054957
 30
0.0
 11
11.3105863213
 21
6.5533395524
 31
0.0
  0
MTEXT
  5
19D
330
18E
100
AcDbEntity
  8
0
  6
Continuous
 62
     7
370
    18
100
AcDbMText
 10
10.5700481724
 20
7.3778633894
 30
0.0
 40
0.25
 41
0.0
 71
     1
 72
     1
  1

  7
SLDTEXTSTYLE0
 73
     1
 44
1.0
  0
MTEXT
  5
19E
330
18E
100
AcDbEntity
  8
0
  6
Continuous
 62
     7
370
    18
100
AcDbMText
 10
10.8628432954
 20
7.3740439265
 30
0.0
 40
0.25
 41
0.0
 71
     1
 72
     1
  1
4 5/8"
  7
SLDTEXTSTYLE0
 73
     1
 44
1.0
  0
MTEXT
  5
19F
330
18E
100
AcDbEntity
  8
0
  6
Continuous
 62
     7
370
    18
100
AcDbMText
 10
10.7210030323
 20
6.9263876849
 30
0.0
 40
0.25
 41
0.0
 71
     1
 72
     1
  1
118mm
  7
SLDTEXTSTYLE0
 73
     1
 44
1.0
  0
MTEXT
  5
1A0
330
18E
100
AcDbEntity
  8
0
  6
Continuous
 62
     7
370
    18
100
AcDbMText
 10
12.1462633772
 20
7.3778633894
 30
0.0
 40
0.25
 41
0.0
 71
     1
 72
     1
  1

  7
SLDTEXTSTYLE0
 73
     1
 44
1.0
  0
ENDBLK
  5
190
330
18E
100
AcDbEntity
  8
0
100
AcDbBlockEnd
  0
BLOCK
  5
1A3
330
1A2
100
AcDbEntity
  8
0
100
AcDbBlockBegin
  2
_D_4
 70
     0
 10
0.0
 20
0.0
 30
0.0
  3
_D_4
  1

  0
SOLID
  5
1A5
330
1A2
100
AcDbEntity
  8
0
  6
Continuous
 62
     7
370
    18
100
AcDbTrace
 10
6.3133422268
 20
8.6279054957
 30
0.0
 11
6.2733422268
 21
8.3679054957
 31
0.0
 12
6.3533422268
 22
8.3679054957
 32
0.0
 13
6.3533422268
 23
8.3679054957
 33
0.0
  0
SOLID
  5
1A6
330
1A2
100
AcDbEntity
  8
0
  6
Continuous
 62
     7
370
    18
100
AcDbTrace
 10
6.3133422268
 20
5.3779054957
 30
0.0
 11
6.3533422268
 21
5.6379054957
 31
0.0
 12
6.2733422268
 22
5.6379054957
 32
0.0
 13
6.2733422268
 23
5.6379054957
 33
0.0
  0
LINE
  5
1A7
330
1A2
100
AcDbEntity
  8
0
  6
Continuous
 62
     7
370
     0
100
AcDbLine
 10
5.8161200308
 20
7.0009957344
 30
0.0
 11
5.7399481566
 21
7.0009957344
 31
0.0
  0
LINE
  5
1A8
330
1A2
100
AcDbEntity
  8
0
  6
Continuous
 62
     7
370
     0
100
AcDbLine
 10
5.7399481566
 20
7.0009957344
 30
0.0
 11
5.7399481566
 21
6.6041207225
 31
0.0
  0
LINE
  5
1A9
330
1A2
100
AcDbEntity
  8
0
  6
Continuous
 62
     7
370
     0
100
AcDbLine
 10
5.7399481566
 20
6.6041207225
 30
0.0
 11
5.8161200308
 21
6.6041207225
 31
0.0
  0
LINE
  5
1AA
330
1A2
100
AcDbEntity
  8
0
  6
Continuous
 62
     7
370
     0
100
AcDbLine
 10
6.8105644962
 20
7.0009957344
 30
0.0
 11
6.8867363705
 21
7.0009957344
 31
0.0
  0
LINE
  5
1AB
330
1A2
100
AcDbEntity
  8
0
  6
Continuous
 62
     7
370
     0
100
AcDbLine
 10
6.8867363705
 20
7.0009957344
 30
0.0
 11
6.8867363705
 21
6.6041207225
 31
0.0
  0
LINE
  5
1AC
330
1A2
100
AcDbEntity
  8
0
  6
Continuous
 62
     7
370
     0
100
AcDbLine
 10
6.8867363705
 20
6.6041207225
 30
0.0
 11
6.8105644962
 21
6.6041207225
 31
0.0
  0
LINE
  5
1AD
330
1A2
100
AcDbEntity
  8
0
  6
Continuous
 62
     7
370
     0
100
AcDbLine
 10
8.2807438017
 20
8.6279054957
 30
0.0
 11
6.0633422268
 21
8.6279054957
 31
0.0
  0
LINE
  5
1AE
330
1A2
100
AcDbEntity
  8
0
  6
Continuous
 62
     7
370
     0
100
AcDbLine
 10
8.2857438017
 20
5.3779054957
 30
0.0
 11
6.0633422268
 21
5.3779054957
 31
0.0
  0
LINE
  5
1AF
330
1A2
100
AcDbEntity
  8
0
  6
Continuous
 62
     7
370
     0
100
AcDbLine
 10
6.3133422268
 20
8.6279054957
 30
0.0
 11
6.3133422268
 21
7.4524714389
 31
0.0
  0
LINE
  5
1B0
330
1A2
100
AcDbEntity
  8
0
  6
Continuous
 62
     7
370
     0
100
AcDbLine
 10
6.3133422268
 20
5.3779054957
 30
0.0
 11
6.3133422268
 21
6.5533395524
 31
0.0
  0
MTEXT
  5
1B1
330
1A2
100
AcDbEntity
  8
0
  6
Continuous
 62
     7
370
    18
100
AcDbMText
 10
5.665165171
 20
7.3778633894
 30
0.0
 40
0.25
 41
0.0
 71
     1
 72
     1
  1

  7
SLDTEXTSTYLE0
 73
     1
 44
1.0
  0
MTEXT
  5
1B2
330
1A2
100
AcDbEntity
  8
0
  6
Continuous
 62
     7
370
    18
100
AcDbMText
 10
5.8655992009
 20
7.3740439265
 30
0.0
 40
0.25
 41
0.0
 71
     1
 72
     1
  1
3 1/4"
  7
SLDTEXTSTYLE0
 73
     1
 44
1.0
  0
MTEXT
  5
1B3
330
1A2
100
AcDbEntity
  8
0
  6
Continuous
 62
     7
370
    18
100
AcDbMText
 10
5.8161200308
 20
6.9263876849
 30
0.0
 40
0.25
 41
0.0
 71
     1
 72
     1
  1
83mm
  7
SLDTEXTSTYLE0
 73
     1
 44
1.0
  0
MTEXT
  5
1B4
330
1A2
100
AcDbEntity
  8
0
  6
Continuous
 62
     7
370
    18
100
AcDbMText
 10
7.0566581897
 20
7.3778633894
 30
0.0
 40
0.25
 41
0.0
 71
     1
 72
     1
  1

  7
SLDTEXTSTYLE0
 73
     1
 44
1.0
  0
ENDBLK
  5
1A4
330
1A2
100
AcDbEntity
  8
0
100
AcDbBlockEnd
  0
BLOCK
  5
1BD
330
1BC
100
AcDbEntity
  8
0
100
AcDbBlockBegin
  2
SW_CENTERMARKSYMBOL_2
 70
     0
 10
0.0
 20
0.0
 30
0.0
  3
SW_CENTERMARKSYMBOL_2
  1

  0
LINE
  5
1BF
330
1BC
100
AcDbEntity
  8
0
  6
Continuous
 62
     0
370
    18
100
AcDbLine
 10
0.0
 20
0.0
 30
0.0
 11
0.0
 21
0.1
 31
0.0
  0
LINE
  5
1C0
330
1BC
100
AcDbEntity
  8
0
  6
Continuous
 62
     0
370
    18
100
AcDbLine
 10
0.0
 20
0.0
 30
0.0
 11
-0.1
 21
0.0
 31
0.0
  0
LINE
  5
1C1
330
1BC
100
AcDbEntity
  8
0
  6
Continuous
 62
     0
370
    18
100
AcDbLine
 10
0.0
 20
0.0
 30
0.0
 11
0.0
 21
-0.1
 31
0.0
  0
LINE
  5
1C2
330
1BC
100
AcDbEntity
  8
0
  6
Continuous
 62
     0
370
    18
100
AcDbLine
 10
0.0
 20
0.0
 30
0.0
 11
0.1
 21
0.0
 31
0.0
  0
LINE
  5
1C3
330
1BC
100
AcDbEntity
  8
0
  6
Continuous
 62
     0
370
    18
100
AcDbLine
 10
0.0
 20
0.1
 30
0.0
 11
0.0
 21
1.874099896
 31
0.0
  0
LINE
  5
1C4
330
1BC
100
AcDbEntity
  8
0
  6
Continuous
 62
     0
370
    18
100
AcDbLine
 10
-0.1
 20
0.0
 30
0.0
 11
-0.19
 21
0.0
 31
0.0
  0
LINE
  5
1C5
330
1BC
100
AcDbEntity
  8
0
  6
Continuous
 62
     0
370
    18
100
AcDbLine
 10
0.0
 20
-0.1
 30
0.0
 11
0.0
 21
-0.19
 31
0.0
  0
LINE
  5
1C6
330
1BC
100
AcDbEntity
  8
0
  6
Continuous
 62
     0
370
    18
100
AcDbLine
 10
0.1
 20
0.0
 30
0.0
 11
0.19
 21
0.0
 31
0.0
  0
ENDBLK
  5
1BE
330
1BC
100
AcDbEntity
  8
0
100
AcDbBlockEnd
  0
BLOCK
  5
1C9
330
1C8
100
AcDbEntity
  8
0
100
AcDbBlockBegin
  2
SW_CENTERMARKSYMBOL_3
 70
     0
 10
0.0
 20
0.0
 30
0.0
  3
SW_CENTERMARKSYMBOL_3
  1

  0
LINE
  5
1CB
330
1C8
100
AcDbEntity
  8
0
  6
Continuous
 62
     0
370
    18
100
AcDbLine
 10
0.0
 20
0.0
 30
0.0
 11
0.0
 21
0.1
 31
0.0
  0
LINE
  5
1CC
330
1C8
100
AcDbEntity
  8
0
  6
Continuous
 62
     0
370
    18
100
AcDbLine
 10
0.0
 20
0.0
 30
0.0
 11
-0.1
 21
0.0
 31
0.0
  0
LINE
  5
1CD
330
1C8
100
AcDbEntity
  8
0
  6
Continuous
 62
     0
370
    18
100
AcDbLine
 10
0.0
 20
0.0
 30
0.0
 11
0.0
 21
-0.1
 31
0.0
  0
LINE
  5
1CE
330
1C8
100
AcDbEntity
  8
0
  6
Continuous
 62
     0
370
    18
100
AcDbLine
 10
0.0
 20
0.0
 30
0.0
 11
0.1
 21
0.0
 31
0.0
  0
LINE
  5
1CF
330
1C8
100
AcDbEntity
  8
0
  6
Continuous
 62
     0
370
    18
100
AcDbLine
 10
0.0
 20
0.1
 30
0.0
 11
0.0
 21
0.19
 31
0.0
  0
LINE
  5
1D0
330
1C8
100
AcDbEntity
  8
0
  6
Continuous
 62
     0
370
    18
100
AcDbLine
 10
-0.1
 20
0.0
 30
0.0
 11
-0.19
 21
0.0
 31
0.0
  0
LINE
  5
1D1
330
1C8
100
AcDbEntity
  8
0
  6
Continuous
 62
     0
370
    18
100
AcDbLine
 10
0.0
 20
-0.1
 30
0.0
 11
0.0
 21
-1.6650423792
 31
0.0
  0
LINE
  5
1D2
330
1C8
100
AcDbEntity
  8
0
  6
Continuous
 62
     0
370
    18
100
AcDbLine
 10
0.1
 20
0.0
 30
0.0
 11
0.19
 21
0.0
 31
0.0
  0
ENDBLK
  5
1CA
330
1C8
100
AcDbEntity
  8
0
100
AcDbBlockEnd
  0
BLOCK
  5
1EC
330
1EB
100
AcDbEntity
  8
0
100
AcDbBlockBegin
  2
_D_5
 70
     0
 10
0.0
 20
0.0
 30
0.0
  3
_D_5
  1

  0
ARC
  5
1EE
330
1EB
100
AcDbEntity
  8
0
  6
Continuous
 62
     7
370
    18
100
AcDbCircle
 10
8.5757438017
 20
14.7904672673
 30
0.0
 40
2.422717538793533
100
AcDbArc
 50
226.2647054726
 51
241.2183833719
  0
ARC
  5
1EF
330
1EB
100
AcDbEntity
  8
0
  6
Continuous
 62
     7
370
    18
100
AcDbCircle
 10
8.5757438017
 20
14.7904672673
 30
0.0
 40
2.422717538793533
100
AcDbArc
 50
254.7248232623
 51
270.0
  0
SOLID
  5
1F0
330
1EB
100
AcDbEntity
  8
0
  6
Continuous
 62
     7
370
    18
100
AcDbTrace
 10
6.9008522229
 20
13.0399534935
 30
0.0
 11
7.0719787897
 21
12.8401643593
 31
0.0
 12
7.1241176477
 22
12.9008400503
 32
0.0
 13
7.1241176477
 23
12.9008400503
 33
0.0
  0
SOLID
  5
1F1
330
1EB
100
AcDbEntity
  8
0
  6
Continuous
 62
     7
370
    18
100
AcDbTrace
 10
8.5757438017
 20
12.3677497285
 30
0.0
 11
8.318252317
 21
12.421584061
 31
0.0
 12
8.3139780199
 22
12.3416983277
 32
0.0
 13
8.3139780199
 23
12.3416983277
 33
0.0
  0
LINE
  5
1F2
330
1EB
100
AcDbEntity
  8
0
  6
Continuous
 62
     7
370
     0
100
AcDbLine
 10
7.1789011979
 20
13.3305565192
 30
0.0
 11
6.7280203149
 21
12.8593181382
 31
0.0
  0
LINE
  5
1F3
330
1EB
100
AcDbEntity
  8
0
  6
Continuous
 62
     7
370
     0
100
AcDbLine
 10
8.5757438017
 20
13.0686956338
 30
0.0
 11
8.5757438017
 21
12.1177497285
 31
0.0
  0
MTEXT
  5
1F4
330
1EB
100
AcDbEntity
  8
0
  6
Continuous
 62
     7
370
    18
100
AcDbMText
 10
7.4092719654
 20
12.6678113698
 30
0.0
 40
0.25
 41
0.0
 71
     1
 72
     1
  1
45
  7
SLDTEXTSTYLE0
 73
     1
 44
1.0
  0
MTEXT
  5
1F5
330
1EB
100
AcDbEntity
  8
0
  6
Continuous
 62
     7
370
    18
100
AcDbMText
 10
7.7787164109
 20
12.6639919251
 30
0.0
 40
0.25
 41
0.0
 71
     1
 72
     1
  1
%%d
  7
SLDTEXTSTYLE0
 73
     1
 44
1.0
  0
ENDBLK
  5
1ED
330
1EB
100
AcDbEntity
  8
0
100
AcDbBlockEnd
  0
BLOCK
  5
1F8
330
1F7
100
AcDbEntity
  8
0
100
AcDbBlockBegin
  2
_D_6
 70
     0
 10
0.0
 20
0.0
 30
0.0
  3
_D_6
  1

  0
ARC
  5
1FA
330
1F7
100
AcDbEntity
  8
0
  6
Continuous
 62
     7
370
    18
100
AcDbCircle
 10
8.5757438017
 20
14.7904672673
 30
0.0
 40
2.422717538793529
100
AcDbArc
 50
270.0
 51
285.2751767377
  0
ARC
  5
1FB
330
1F7
100
AcDbEntity
  8
0
  6
Continuous
 62
     7
370
    18
100
AcDbCircle
 10
8.5757438017
 20
14.7904672673
 30
0.0
 40
2.42271753879353
100
AcDbArc
 50
298.7816166281
 51
313.7352945274
  0
SOLID
  5
1FC
330
1F7
100
AcDbEntity
  8
0
  6
Continuous
 62
     7
370
    18
100
AcDbTrace
 10
8.5757438017
 20
12.3677497285
 30
0.0
 11
8.8375095834
 21
12.3416983277
 31
0.0
 12
8.8332352863
 22
12.421584061
 32
0.0
 13
8.8332352863
 23
12.421584061
 33
0.0
  0
SOLID
  5
1FD
330
1F7
100
AcDbEntity
  8
0
  6
Continuous
 62
     7
370
    18
100
AcDbTrace
 10
10.2506353804
 20
13.0399534935
 30
0.0
 11
10.0273699556
 21
12.9008400503
 31
0.0
 12
10.0795088136
 22
12.8401643593
 32
0.0
 13
10.0795088136
 23
12.8401643593
 33
0.0
  0
LINE
  5
1FE
330
1F7
100
AcDbEntity
  8
0
  6
Continuous
 62
     7
370
     0
100
AcDbLine
 10
8.5757438017
 20
13.0686956338
 30
0.0
 11
8.5757438017
 21
12.1177497285
 31
0.0
  0
LINE
  5
1FF
330
1F7
100
AcDbEntity
  8
0
  6
Continuous
 62
     7
370
     0
100
AcDbLine
 10
9.9725864054
 20
13.3305565192
 30
0.0
 11
10.4234672884
 21
12.8593181382
 31
0.0
  0
MTEXT
  5
200
330
1F7
100
AcDbEntity
  8
0
  6
Continuous
 62
     7
370
    18
100
AcDbMText
 10
9.214021173
 20
12.6678113698
 30
0.0
 40
0.25
 41
0.0
 71
     1
 72
     1
  1
45
  7
SLDTEXTSTYLE0
 73
     1
 44
1.0
  0
MTEXT
  5
201
330
1F7
100
AcDbEntity
  8
0
  6
Continuous
 62
     7
370
    18
100
AcDbMText
 10
9.5834656185
 20
12.6639919251
 30
0.0
 40
0.25
 41
0.0
 71
     1
 72
     1
  1
%%d
  7
SLDTEXTSTYLE0
 73
     1
 44
1.0
  0
ENDBLK
  5
1F9
330
1F7
100
AcDbEntity
  8
0
100
AcDbBlockEnd
  0
ENDSEC
  0
SECTION
  2
ENTITIES
  0
MTEXT
  5
6E
330
1F
100
AcDbEntity
  8
SLD-0
100
AcDbMText
 10
17.5084710744
 20
1.6865019925
 30
0.0
 40
0.25
 41
0.0
 71
     1
 72
     1
  1
BC2
  7
SLDTEXTSTYLE0
 73
     1
 44
1.0
  0
LINE
  5
6F
330
1F
100
AcDbEntity
  8
0
  6
Continuous
 62
     7
370
    25
100
AcDbLine
 10
2.485976251
 20
8.6969054957
 30
0.0
 11
2.4729533908
 21
8.6783069238
 31
0.0
  0
LINE
  5
70
330
1F
100
AcDbEntity
  8
0
  6
Continuous
 62
     7
370
    25
100
AcDbLine
 10
2.4729533908
 20
8.5775040675
 30
0.0
 11
2.485976251
 21
8.5589054957
 31
0.0
  0
LINE
  5
71
330
1F
100
AcDbEntity
  8
0
  6
Continuous
 62
     7
370
    25
100
AcDbLine
 10
2.4897515365
 20
8.6969054957
 30
0.0
 11
2.485976251
 21
8.6969054957
 31
0.0
  0
LINE
  5
72
330
1F
100
AcDbEntity
  8
0
  6
Continuous
 62
     7
370
    25
100
AcDbLine
 10
2.485976251
 20
8.5589054957
 30
0.0
 11
2.4897515365
 21
8.5589054957
 31
0.0
  0
LINE
  5
73
330
1F
100
AcDbEntity
  8
0
  6
Continuous
 62
     7
370
    25
100
AcDbLine
 10
2.4897515365
 20
8.5589054957
 30
0.0
 11
2.5027753967
 21
8.5775054957
 31
0.0
  0
LINE
  5
74
330
1F
100
AcDbEntity
  8
0
  6
Continuous
 62
     7
370
    25
100
AcDbLine
 10
2.5027753967
 20
8.6783054957
 30
0.0
 11
2.4897515365
 21
8.6969054957
 31
0.0
  0
LINE
  5
75
330
1F
100
AcDbEntity
  8
0
  6
Continuous
 62
     7
370
    25
100
AcDbLine
 10
2.5456222629
 20
8.6969054957
 30
0.0
 11
2.5325984027
 21
8.6783054957
 31
0.0
  0
LINE
  5
76
330
1F
100
AcDbEntity
  8
0
  6
Continuous
 62
     7
370
    25
100
AcDbLine
 10
2.5325984027
 20
8.5775054957
 30
0.0
 11
2.5456222629
 21
8.5589054957
 31
0.0
  0
LINE
  5
77
330
1F
100
AcDbEntity
  8
0
  6
Continuous
 62
     7
370
    25
100
AcDbLine
 10
2.5493975485
 20
8.6969054957
 30
0.0
 11
2.5456222629
 21
8.6969054957
 31
0.0
  0
LINE
  5
78
330
1F
100
AcDbEntity
  8
0
  6
Continuous
 62
     7
370
    25
100
AcDbLine
 10
2.5456222629
 20
8.5589054957
 30
0.0
 11
2.5493975485
 21
8.5589054957
 31
0.0
  0
LINE
  5
79
330
1F
100
AcDbEntity
  8
0
  6
Continuous
 62
     7
370
    25
100
AcDbLine
 10
2.5493975485
 20
8.5589054957
 30
0.0
 11
2.5510101546
 21
8.561208536
 31
0.0
  0
LINE
  5
7A
330
1F
100
AcDbEntity
  8
0
  6
Continuous
 62
     7
370
    25
100
AcDbLine
 10
2.5510101546
 20
8.6946024554
 30
0.0
 11
2.5493975485
 21
8.6969054957
 31
0.0
  0
LINE
  5
7B
330
1F
100
AcDbEntity
  8
0
  6
Continuous
 62
     7
370
    25
100
AcDbLine
 10
2.5195745425
 20
8.6969054957
 30
0.0
 11
2.515799257
 21
8.6969054957
 31
0.0
  0
LINE
  5
7C
330
1F
100
AcDbEntity
  8
0
  6
Continuous
 62
     7
370
    25
100
AcDbLine
 10
2.515799257
 20
8.5589054957
 30
0.0
 11
2.5195745425
 21
8.5589054957
 31
0.0
  0
LINE
  5
7D
330
1F
100
AcDbEntity
  8
0
  6
Continuous
 62
     7
370
    25
100
AcDbLine
 10
2.515799257
 20
8.6969054957
 30
0.0
 11
2.5027753967
 21
8.6783054957
 31
0.0
  0
LINE
  5
7E
330
1F
100
AcDbEntity
  8
0
  6
Continuous
 62
     7
370
    25
100
AcDbLine
 10
2.5027753967
 20
8.5775054957
 30
0.0
 11
2.515799257
 21
8.5589054957
 31
0.0
  0
LINE
  5
7F
330
1F
100
AcDbEntity
  8
0
  6
Continuous
 62
     7
370
    25
100
AcDbLine
 10
2.5195745425
 20
8.5589054957
 30
0.0
 11
2.5325984027
 21
8.5775054957
 31
0.0
  0
LINE
  5
80
330
1F
100
AcDbEntity
  8
0
  6
Continuous
 62
     7
370
    25
100
AcDbLine
 10
2.5325984027
 20
8.6783054957
 30
0.0
 11
2.5195745425
 21
8.6969054957
 31
0.0
  0
LINE
  5
81
330
1F
100
AcDbEntity
  8
0
  6
Continuous
 62
     7
370
    25
100
AcDbLine
 10
2.4897515365
 20
5.4469054957
 30
0.0
 11
2.485976251
 21
5.4469054957
 31
0.0
  0
LINE
  5
82
330
1F
100
AcDbEntity
  8
0
  6
Continuous
 62
     7
370
    25
100
AcDbLine
 10
2.485976251
 20
5.3089054957
 30
0.0
 11
2.4897515365
 21
5.3089054957
 31
0.0
  0
LINE
  5
83
330
1F
100
AcDbEntity
  8
0
  6
Continuous
 62
     7
370
    25
100
AcDbLine
 10
2.4897515365
 20
5.3089054957
 30
0.0
 11
2.5027753967
 21
5.3275054957
 31
0.0
  0
LINE
  5
84
330
1F
100
AcDbEntity
  8
0
  6
Continuous
 62
     7
370
    25
100
AcDbLine
 10
2.5027753967
 20
5.4283054957
 30
0.0
 11
2.4897515365
 21
5.4469054957
 31
0.0
  0
LINE
  5
85
330
1F
100
AcDbEntity
  8
0
  6
Continuous
 62
     7
370
    25
100
AcDbLine
 10
2.485976251
 20
5.4469054957
 30
0.0
 11
2.4729533908
 21
5.4283069238
 31
0.0
  0
LINE
  5
86
330
1F
100
AcDbEntity
  8
0
  6
Continuous
 62
     7
370
    25
100
AcDbLine
 10
2.4729533908
 20
5.3275040675
 30
0.0
 11
2.485976251
 21
5.3089054957
 31
0.0
  0
LINE
  5
87
330
1F
100
AcDbEntity
  8
0
  6
Continuous
 62
     7
370
    25
100
AcDbLine
 10
2.5195745425
 20
5.4469054957
 30
0.0
 11
2.515799257
 21
5.4469054957
 31
0.0
  0
LINE
  5
88
330
1F
100
AcDbEntity
  8
0
  6
Continuous
 62
     7
370
    25
100
AcDbLine
 10
2.515799257
 20
5.3089054957
 30
0.0
 11
2.5195745425
 21
5.3089054957
 31
0.0
  0
LINE
  5
89
330
1F
100
AcDbEntity
  8
0
  6
Continuous
 62
     7
370
    25
100
AcDbLine
 10
2.5456222629
 20
5.4469054957
 30
0.0
 11
2.5325984027
 21
5.4283054957
 31
0.0
  0
LINE
  5
8A
330
1F
100
AcDbEntity
  8
0
  6
Continuous
 62
     7
370
    25
100
AcDbLine
 10
2.5325984027
 20
5.3275054957
 30
0.0
 11
2.5456222629
 21
5.3089054957
 31
0.0
  0
LINE
  5
8B
330
1F
100
AcDbEntity
  8
0
  6
Continuous
 62
     7
370
    25
100
AcDbLine
 10
2.5195745425
 20
5.3089054957
 30
0.0
 11
2.5325984027
 21
5.3275054957
 31
0.0
  0
LINE
  5
8C
330
1F
100
AcDbEntity
  8
0
  6
Continuous
 62
     7
370
    25
100
AcDbLine
 10
2.5325984027
 20
5.4283054957
 30
0.0
 11
2.5195745425
 21
5.4469054957
 31
0.0
  0
LINE
  5
8D
330
1F
100
AcDbEntity
  8
0
  6
Continuous
 62
     7
370
    25
100
AcDbLine
 10
2.5493975485
 20
5.3089054957
 30
0.0
 11
2.5510101546
 21
5.311208536
 31
0.0
  0
LINE
  5
8E
330
1F
100
AcDbEntity
  8
0
  6
Continuous
 62
     7
370
    25
100
AcDbLine
 10
2.5510101546
 20
5.4446024554
 30
0.0
 11
2.5493975485
 21
5.4469054957
 31
0.0
  0
LINE
  5
8F
330
1F
100
AcDbEntity
  8
0
  6
Continuous
 62
     7
370
    25
100
AcDbLine
 10
2.515799257
 20
5.4469054957
 30
0.0
 11
2.5027753967
 21
5.4283054957
 31
0.0
  0
LINE
  5
90
330
1F
100
AcDbEntity
  8
0
  6
Continuous
 62
     7
370
    25
100
AcDbLine
 10
2.5027753967
 20
5.3275054957
 30
0.0
 11
2.515799257
 21
5.3089054957
 31
0.0
  0
LINE
  5
91
330
1F
100
AcDbEntity
  8
0
  6
Continuous
 62
     7
370
    25
100
AcDbLine
 10
2.5493975485
 20
5.4469054957
 30
0.0
 11
2.5456222629
 21
5.4469054957
 31
0.0
  0
LINE
  5
92
330
1F
100
AcDbEntity
  8
0
  6
Continuous
 62
     7
370
    25
100
AcDbLine
 10
2.5456222629
 20
5.3089054957
 30
0.0
 11
2.5493975485
 21
5.3089054957
 31
0.0
  0
LINE
  5
93
330
1F
100
AcDbEntity
  8
0
  6
Continuous
 62
     7
370
    25
100
AcDbLine
 10
2.8560101546
 20
9.3154054957
 30
0.0
 11
2.8560101546
 21
7.6184054957
 31
0.0
  0
LINE
  5
94
330
1F
100
AcDbEntity
  8
0
  6
Continuous
 62
     7
370
    25
100
AcDbLine
 10
2.8560101546
 20
9.3154054957
 30
0.0
 11
3.3200101546
 21
7.6184054957
 31
0.0
  0
LINE
  5
95
330
1F
100
AcDbEntity
  8
0
  6
Continuous
 62
     7
370
    25
100
AcDbLine
 10
2.8560101546
 20
9.3154054957
 30
0.0
 11
2.6760101546
 21
9.3154054957
 31
0.0
  0
LINE
  5
96
330
1F
100
AcDbEntity
  8
0
  6
Continuous
 62
     7
370
    25
100
AcDbLine
 10
2.8560101546
 20
6.3874054957
 30
0.0
 11
2.8560101546
 21
7.6184054957
 31
0.0
  0
LINE
  5
97
330
1F
100
AcDbEntity
  8
0
  6
Continuous
 62
     7
370
    25
100
AcDbLine
 10
2.8560101546
 20
6.3874054957
 30
0.0
 11
2.8560101546
 21
4.6904054957
 31
0.0
  0
LINE
  5
98
330
1F
100
AcDbEntity
  8
0
  6
Continuous
 62
     7
370
    25
100
AcDbLine
 10
2.8560101546
 20
4.6904054957
 30
0.0
 11
2.6760101546
 21
4.6904054957
 31
0.0
  0
LINE
  5
99
330
1F
100
AcDbEntity
  8
0
  6
Continuous
 62
     7
370
    25
100
AcDbLine
 10
2.8560101546
 20
4.6904054957
 30
0.0
 11
3.3200101546
 21
6.3874054957
 31
0.0
  0
LINE
  5
9A
330
1F
100
AcDbEntity
  8
0
  6
Continuous
 62
     7
370
    25
100
AcDbLine
 10
3.7530101546
 20
6.3874054957
 30
0.0
 11
3.7530101546
 21
7.6184054957
 31
0.0
  0
LWPOLYLINE
  5
9B
330
1F
100
AcDbEntity
  8
0
  6
Continuous
 62
     7
370
    25
100
AcDbPolyline
 90
       63
 70
   128
 43
0.0
 10
3.0386290041
 20
7.0029054957
 10
3.0399931543
 20
6.9639966649
 10
3.0440716068
 20
6.9254870914
 10
3.0508225113
 20
6.8877719354
 10
3.0601765943
 20
6.8512382056
 10
3.0720378703
 20
6.8162607874
 10
3.0862846265
 20
6.7831985965
 10
3.102770672
 20
6.7523908957
 10
3.1213268375
 20
6.7241538137
 10
3.1417627117
 20
6.6987771011
 10
3.1638685949
 20
6.6765211575
 10
3.1874176509
 20
6.6576143588
 10
3.2121682344
 20
6.6422507144
 10
3.237866371
 20
6.6305878762
 10
3.2642483629
 20
6.6227455205
 10
3.2910434953
 20
6.6188041206
 10
3.3179768139
 20
6.6188041206
 10
3.3447719463
 20
6.6227455205
 10
3.3711539383
 20
6.6305878762
 10
3.3968520749
 20
6.6422507144
 10
3.4216026583
 20
6.6576143588
 10
3.4451517143
 20
6.6765211575
 10
3.4672575975
 20
6.6987771011
 10
3.4876934718
 20
6.7241538137
 10
3.5062496373
 20
6.7523908957
 10
3.5227356827
 20
6.7831985965
 10
3.5369824389
 20
6.8162607874
 10
3.5488437149
 20
6.8512382056
 10
3.5581977979
 20
6.8877719354
 10
3.5649487024
 20
6.9254870914
 10
3.569027155
 20
6.9639966649
 10
3.5703913052
 20
7.0029054957
 10
3.569027155
 20
7.0418143265
 10
3.5649487024
 20
7.0803239
 10
3.5581977979
 20
7.118039056
 10
3.5488437149
 20
7.1545727858
 10
3.5369824389
 20
7.189550204
 10
3.5227356827
 20
7.2226123949
 10
3.5062496373
 20
7.2534200957
 10
3.4876934718
 20
7.2816571777
 10
3.4672575975
 20
7.3070338902
 10
3.4451517143
 20
7.3292898339
 10
3.4216026583
 20
7.3481966326
 10
3.3968520749
 20
7.363560277
 10
3.3711539383
 20
7.3752231152
 10
3.3447719463
 20
7.3830654709
 10
3.3179768139
 20
7.3870068708
 10
3.2910434953
 20
7.3870068708
 10
3.2642483629
 20
7.3830654709
 10
3.237866371
 20
7.3752231152
 10
3.2121682344
 20
7.363560277
 10
3.1874176509
 20
7.3481966326
 10
3.1638685949
 20
7.3292898339
 10
3.1417627117
 20
7.3070338902
 10
3.1213268375
 20
7.2816571777
 10
3.102770672
 20
7.2534200957
 10
3.0862846265
 20
7.2226123949
 10
3.0720378703
 20
7.189550204
 10
3.0601765943
 20
7.1545727858
 10
3.0508225113
 20
7.118039056
 10
3.0440716068
 20
7.0803239
 10
3.0399931543
 20
7.0418143265
 10
3.0386290041
 20
7.0029054957
  0
LINE
  5
9C
330
1F
100
AcDbEntity
  8
0
  6
Continuous
 62
     7
370
    25
100
AcDbLine
 10
2.8560101546
 20
6.3874054957
 30
0.0
 11
3.7530101546
 21
6.3874054957
 31
0.0
  0
LINE
  5
9D
330
1F
100
AcDbEntity
  8
0
  6
Continuous
 62
     7
370
    25
100
AcDbLine
 10
2.8560101546
 20
7.6184054957
 30
0.0
 11
3.7530101546
 21
7.6184054957
 31
0.0
  0
LWPOLYLINE
  5
9E
330
1F
100
AcDbEntity
  8
0
  6
Continuous
 62
     7
370
    25
100
AcDbPolyline
 90
       22
 70
   128
 43
0.0
 10
3.1597230232
 20
6.6803362104
 10
3.1739799063
 20
6.6932556882
 10
3.1952273365
 20
6.7163192357
 10
3.2147227265
 20
6.7424206689
 10
3.2322594205
 20
6.771283306
 10
3.2476515251
 20
6.802601196
 10
3.2607358802
 20
6.8360423614
 10
3.2713737883
 20
6.8712523175
 10
3.2794524849
 20
6.9078578301
 10
3.284886334
 20
6.9454708715
 10
3.2876177353
 20
6.9836927343
 10
3.2876177353
 20
7.0221182571
 10
3.284886334
 20
7.0603401199
 10
3.2794524849
 20
7.0979531613
 10
3.2713737883
 20
7.1345586739
 10
3.2607358802
 20
7.16976863
 10
3.2476515251
 20
7.2032097954
 10
3.2322594205
 20
7.2345276853
 10
3.2147227265
 20
7.2633903225
 10
3.1952273365
 20
7.2894917557
 10
3.1739799063
 20
7.3125553032
 10
3.1597230232
 20
7.325474781
  0
LINE
  5
9F
330
1F
100
AcDbEntity
  8
0
  6
Continuous
 62
     7
370
    25
100
AcDbLine
 10
2.6760101546
 20
9.3179054957
 30
0.0
 11
2.6760101546
 21
4.6879054957
 31
0.0
  0
LINE
  5
A0
330
1F
100
AcDbEntity
  8
0
  6
Continuous
 62
     7
370
    25
100
AcDbLine
 10
2.6760101546
 20
4.6879054957
 30
0.0
 11
2.5510101546
 21
4.6879054957
 31
0.0
  0
LINE
  5
A1
330
1F
100
AcDbEntity
  8
0
  6
Continuous
 62
     7
370
    25
100
AcDbLine
 10
2.5510101546
 20
9.3179054957
 30
0.0
 11
2.5510101546
 21
4.6879054957
 31
0.0
  0
LINE
  5
A2
330
1F
100
AcDbEntity
  8
0
  6
Continuous
 62
     7
370
    25
100
AcDbLine
 10
2.6760101546
 20
9.3179054957
 30
0.0
 11
2.5510101546
 21
9.3179054957
 31
0.0
  0
LINE
  5
A3
330
1F
100
AcDbEntity
  8
0
  6
Continuous
 62
     7
370
    25
100
AcDbLine
 10
2.4729533908
 20
8.5775040675
 30
0.0
 11
2.4729533908
 21
8.6783069238
 31
0.0
  0
LINE
  5
A4
330
1F
100
AcDbEntity
  8
0
  6
Continuous
 62
     7
370
    25
100
AcDbLine
 10
2.485976251
 20
8.5653843013
 30
0.0
 11
2.485976251
 21
8.5589054957
 31
0.0
  0
LINE
  5
A5
330
1F
100
AcDbEntity
  8
0
  6
Continuous
 62
     7
370
    25
100
AcDbLine
 10
2.485976251
 20
8.6969054957
 30
0.0
 11
2.485976251
 21
8.5653843013
 31
0.0
  0
LINE
  5
A6
330
1F
100
AcDbEntity
  8
0
  6
Continuous
 62
     7
370
    25
100
AcDbLine
 10
2.4897515365
 20
8.5653843013
 30
0.0
 11
2.4897515365
 21
8.5589054957
 31
0.0
  0
LINE
  5
A7
330
1F
100
AcDbEntity
  8
0
  6
Continuous
 62
     7
370
    25
100
AcDbLine
 10
2.4897515365
 20
8.6969054957
 30
0.0
 11
2.4897515365
 21
8.5653843013
 31
0.0
  0
LINE
  5
A8
330
1F
100
AcDbEntity
  8
0
  6
Continuous
 62
     7
370
    25
100
AcDbLine
 10
2.5027753967
 20
8.5822378406
 30
0.0
 11
2.5027753967
 21
8.5775054957
 31
0.0
  0
LINE
  5
A9
330
1F
100
AcDbEntity
  8
0
  6
Continuous
 62
     7
370
    25
100
AcDbLine
 10
2.5027753967
 20
8.6783054957
 30
0.0
 11
2.5027753967
 21
8.5822378406
 31
0.0
  0
LINE
  5
AA
330
1F
100
AcDbEntity
  8
0
  6
Continuous
 62
     7
370
    25
100
AcDbLine
 10
2.5325984027
 20
8.5822378406
 30
0.0
 11
2.5325984027
 21
8.5775054957
 31
0.0
  0
LINE
  5
AB
330
1F
100
AcDbEntity
  8
0
  6
Continuous
 62
     7
370
    25
100
AcDbLine
 10
2.5325984027
 20
8.6783054957
 30
0.0
 11
2.5325984027
 21
8.5822378406
 31
0.0
  0
LINE
  5
AC
330
1F
100
AcDbEntity
  8
0
  6
Continuous
 62
     7
370
    25
100
AcDbLine
 10
2.5456222629
 20
8.5653843013
 30
0.0
 11
2.5456222629
 21
8.5589054957
 31
0.0
  0
LINE
  5
AD
330
1F
100
AcDbEntity
  8
0
  6
Continuous
 62
     7
370
    25
100
AcDbLine
 10
2.5456222629
 20
8.6969054957
 30
0.0
 11
2.5456222629
 21
8.5653843013
 31
0.0
  0
LINE
  5
AE
330
1F
100
AcDbEntity
  8
0
  6
Continuous
 62
     7
370
    25
100
AcDbLine
 10
2.5493975485
 20
8.5653843013
 30
0.0
 11
2.5493975485
 21
8.5589054957
 31
0.0
  0
LINE
  5
AF
330
1F
100
AcDbEntity
  8
0
  6
Continuous
 62
     7
370
    25
100
AcDbLine
 10
2.5493975485
 20
8.6969054957
 30
0.0
 11
2.5493975485
 21
8.5653843013
 31
0.0
  0
LINE
  5
B0
330
1F
100
AcDbEntity
  8
0
  6
Continuous
 62
     7
370
    25
100
AcDbLine
 10
2.5195745425
 20
8.5653843013
 30
0.0
 11
2.5195745425
 21
8.5589054957
 31
0.0
  0
LINE
  5
B1
330
1F
100
AcDbEntity
  8
0
  6
Continuous
 62
     7
370
    25
100
AcDbLine
 10
2.5195745425
 20
8.6969054957
 30
0.0
 11
2.5195745425
 21
8.5653843013
 31
0.0
  0
LINE
  5
B2
330
1F
100
AcDbEntity
  8
0
  6
Continuous
 62
     7
370
    25
100
AcDbLine
 10
2.515799257
 20
8.5653843013
 30
0.0
 11
2.515799257
 21
8.5589054957
 31
0.0
  0
LINE
  5
B3
330
1F
100
AcDbEntity
  8
0
  6
Continuous
 62
     7
370
    25
100
AcDbLine
 10
2.515799257
 20
8.6969054957
 30
0.0
 11
2.515799257
 21
8.5653843013
 31
0.0
  0
LINE
  5
B4
330
1F
100
AcDbEntity
  8
0
  6
Continuous
 62
     7
370
    25
100
AcDbLine
 10
2.4897515365
 20
5.3153843013
 30
0.0
 11
2.4897515365
 21
5.3089054957
 31
0.0
  0
LINE
  5
B5
330
1F
100
AcDbEntity
  8
0
  6
Continuous
 62
     7
370
    25
100
AcDbLine
 10
2.4897515365
 20
5.4469054957
 30
0.0
 11
2.4897515365
 21
5.3153843013
 31
0.0
  0
LINE
  5
B6
330
1F
100
AcDbEntity
  8
0
  6
Continuous
 62
     7
370
    25
100
AcDbLine
 10
2.485976251
 20
5.3153843013
 30
0.0
 11
2.485976251
 21
5.3089054957
 31
0.0
  0
LINE
  5
B7
330
1F
100
AcDbEntity
  8
0
  6
Continuous
 62
     7
370
    25
100
AcDbLine
 10
2.485976251
 20
5.4469054957
 30
0.0
 11
2.485976251
 21
5.3153843013
 31
0.0
  0
LINE
  5
B8
330
1F
100
AcDbEntity
  8
0
  6
Continuous
 62
     7
370
    25
100
AcDbLine
 10
2.5027753967
 20
5.3322378406
 30
0.0
 11
2.5027753967
 21
5.3275054957
 31
0.0
  0
LINE
  5
B9
330
1F
100
AcDbEntity
  8
0
  6
Continuous
 62
     7
370
    25
100
AcDbLine
 10
2.5027753967
 20
5.4283054957
 30
0.0
 11
2.5027753967
 21
5.3322378406
 31
0.0
  0
LINE
  5
BA
330
1F
100
AcDbEntity
  8
0
  6
Continuous
 62
     7
370
    25
100
AcDbLine
 10
2.4729533908
 20
5.3275040675
 30
0.0
 11
2.4729533908
 21
5.4283069238
 31
0.0
  0
LINE
  5
BB
330
1F
100
AcDbEntity
  8
0
  6
Continuous
 62
     7
370
    25
100
AcDbLine
 10
2.5195745425
 20
5.3153843013
 30
0.0
 11
2.5195745425
 21
5.3089054957
 31
0.0
  0
LINE
  5
BC
330
1F
100
AcDbEntity
  8
0
  6
Continuous
 62
     7
370
    25
100
AcDbLine
 10
2.5195745425
 20
5.4469054957
 30
0.0
 11
2.5195745425
 21
5.3153843013
 31
0.0
  0
LINE
  5
BD
330
1F
100
AcDbEntity
  8
0
  6
Continuous
 62
     7
370
    25
100
AcDbLine
 10
2.515799257
 20
5.3153843013
 30
0.0
 11
2.515799257
 21
5.3089054957
 31
0.0
  0
LINE
  5
BE
330
1F
100
AcDbEntity
  8
0
  6
Continuous
 62
     7
370
    25
100
AcDbLine
 10
2.515799257
 20
5.4469054957
 30
0.0
 11
2.515799257
 21
5.3153843013
 31
0.0
  0
LINE
  5
BF
330
1F
100
AcDbEntity
  8
0
  6
Continuous
 62
     7
370
    25
100
AcDbLine
 10
2.5325984027
 20
5.3322378406
 30
0.0
 11
2.5325984027
 21
5.3275054957
 31
0.0
  0
LINE
  5
C0
330
1F
100
AcDbEntity
  8
0
  6
Continuous
 62
     7
370
    25
100
AcDbLine
 10
2.5325984027
 20
5.4283054957
 30
0.0
 11
2.5325984027
 21
5.3322378406
 31
0.0
  0
LINE
  5
C1
330
1F
100
AcDbEntity
  8
0
  6
Continuous
 62
     7
370
    25
100
AcDbLine
 10
2.5456222629
 20
5.3153843013
 30
0.0
 11
2.5456222629
 21
5.3089054957
 31
0.0
  0
LINE
  5
C2
330
1F
100
AcDbEntity
  8
0
  6
Continuous
 62
     7
370
    25
100
AcDbLine
 10
2.5456222629
 20
5.4469054957
 30
0.0
 11
2.5456222629
 21
5.3153843013
 31
0.0
  0
LINE
  5
C3
330
1F
100
AcDbEntity
  8
0
  6
Continuous
 62
     7
370
    25
100
AcDbLine
 10
2.5493975485
 20
5.3153843013
 30
0.0
 11
2.5493975485
 21
5.3089054957
 31
0.0
  0
LINE
  5
C4
330
1F
100
AcDbEntity
  8
0
  6
Continuous
 62
     7
370
    25
100
AcDbLine
 10
2.5493975485
 20
5.4469054957
 30
0.0
 11
2.5493975485
 21
5.3153843013
 31
0.0
  0
DIMENSION
  5
C5
330
1F
100
AcDbEntity
  8
0
  6
Continuous
 62
     7
370
    18
100
AcDbDimension
  2
_D
 10
2.6760101546
 20
10.1053070705
 30
0.0
 11
1.4014441918
 21
10.1053070705
 31
0.0
 70
   160
  1
<>
 71
     2
 42
-1.0
  3
SLDDIMSTYLE0
100
AcDbAlignedDimension
 13
2.5510101546
 23
9.3179054957
 33
0.0
 14
2.6760101546
 24
9.3179054957
 34
0.0
100
AcDbRotatedDimension
  0
DIMENSION
  5
DA
330
1F
100
AcDbEntity
  8
0
  6
Continuous
 62
     7
370
    18
100
AcDbDimension
  2
_D_1
 10
3.7530101546
 20
10.1053070705
 30
0.0
 11
4.9949372105
 21
10.1053070705
 31
0.0
 70
   160
  1
<>
 71
     2
 42
-1.0
  3
SLDDIMSTYLE1
100
AcDbAlignedDimension
 13
2.6760101546
 23
9.3179054957
 33
0.0
 14
3.7530101546
 24
7.6184054957
 34
0.0
100
AcDbRotatedDimension
  0
MTEXT
  5
EF
330
1F
100
AcDbEntity
  8
0
  6
Continuous
 62
     7
370
     0
100
AcDbMText
 10
2.9225727309
 20
2.9665916759
 30
0.0
 40
0.25
 41
0.0
 71
     2
 72
     1
  1
GASKET
  7
SLDTEXTSTYLE0
 73
     1
 44
1.0
  0
MTEXT
  5
F0
330
1F
100
AcDbEntity
  8
0
  6
Continuous
 62
     7
370
     0
100
AcDbMText
 10
2.9223123029
 20
2.6378515269
 30
0.0
 40
0.25
 41
0.0
 71
     2
 72
     1
  1
(INCLUDED)
  7
SLDTEXTSTYLE0
 73
     1
 44
1.0
  0
LEADER
  5
F2
330
1F
100
AcDbEntity
  8
0
  6
Continuous
 62
     7
370
     0
100
AcDbLeader
  3
SLDDIMSTYLE2
 76
     3
 10
2.5807108801
 20
4.6879054957
 30
0.0
 10
1.7839891162
 20
2.85484359
 30
0.0
 10
2.2839891162
 20
2.85484359
 30
0.0
  0
LINE
  5
F3
330
1F
100
AcDbEntity
  8
0
  6
Continuous
 62
     7
370
    25
100
AcDbLine
 10
15.0907083258
 20
12.2711695207
 30
0.0
 11
15.0934200482
 21
12.2948433329
 31
0.0
  0
LINE
  5
F4
330
1F
100
AcDbEntity
  8
0
  6
Continuous
 62
     7
370
    25
100
AcDbLine
 10
15.0224393262
 20
12.4177988723
 30
0.0
 11
14.9778704458
 21
12.4371510608
 31
0.0
  0
ARC
  5
F5
330
1F
100
AcDbEntity
  8
0
  6
Continuous
 62
     7
370
    25
100
AcDbCircle
 10
15.1201215982
 20
12.3922237286
 30
0.0
 40
0.2309191683920986
100
AcDbArc
 50
197.4268526573
 51
221.8509528123
  0
ARC
  5
F6
330
1F
100
AcDbEntity
  8
0
  6
Continuous
 62
     7
370
    25
100
AcDbCircle
 10
15.1201215982
 20
12.3922237286
 30
0.0
 40
0.2309191683920986
100
AcDbArc
 50
221.8509528123
 51
222.56777081
  0
ARC
  5
F7
330
1F
100
AcDbEntity
  8
0
  6
Continuous
 62
     7
370
    25
100
AcDbCircle
 10
15.1201215982
 20
9.73846609
 30
0.0
 40
0.2309191683920975
100
AcDbArc
 50
197.4268526573
 51
221.8509528123
  0
ARC
  5
F8
330
1F
100
AcDbEntity
  8
0
  6
Continuous
 62
     7
370
    25
100
AcDbCircle
 10
15.1201215982
 20
9.73846609
 30
0.0
 40
0.2309191683920975
100
AcDbArc
 50
221.8509528123
 51
222.56777081
  0
LINE
  5
F9
330
1F
100
AcDbEntity
  8
0
  6
Continuous
 62
     7
370
    25
100
AcDbLine
 10
16.0891570618
 20
12.3394211417
 30
0.0
 11
15.2264867887
 21
11.0729469683
 31
0.0
  0
LINE
  5
FA
330
1F
100
AcDbEntity
  8
0
  6
Continuous
 62
     7
370
    25
100
AcDbLine
 10
16.0891570618
 20
10.953751384
 30
0.0
 11
16.0891570618
 21
12.3394211417
 31
0.0
  0
LINE
  5
FB
330
1F
100
AcDbEntity
  8
0
  6
Continuous
 62
     7
370
    25
100
AcDbLine
 10
16.0891570618
 20
10.953751384
 30
0.0
 11
15.2264867887
 21
11.0729469683
 31
0.0
  0
LINE
  5
FC
330
1F
100
AcDbEntity
  8
0
  6
Continuous
 62
     7
370
    25
100
AcDbLine
 10
16.0891570618
 20
12.3394211417
 30
0.0
 11
14.0562250659
 21
13.5130078025
 31
0.0
  0
LINE
  5
FD
330
1F
100
AcDbEntity
  8
0
  6
Continuous
 62
     7
370
    25
100
AcDbLine
 10
14.262700246
 20
11.6293290965
 30
0.0
 11
15.2264867887
 21
11.0729469683
 31
0.0
  0
LINE
  5
FE
330
1F
100
AcDbEntity
  8
0
  6
Continuous
 62
     7
370
    25
100
AcDbLine
 10
14.0562250659
 20
13.5130078025
 30
0.0
 11
14.262700246
 21
11.6293290965
 31
0.0
  0
ELLIPSE
  5
FF
330
1F
100
AcDbEntity
  8
0
  6
Continuous
 62
     7
370
    25
100
AcDbEllipse
 10
14.9397699895
 20
12.288108961
 30
0.0
 11
-0.04155433222295279
 21
0.195573363201941
 31
0.0
210
0.0
220
0.0
230
1.0
 40
0.6993487163
 41
1.008940768973895
 42
4.150533422563705
  0
LINE
  5
100
330
1F
100
AcDbEntity
  8
0
  6
Continuous
 62
     7
370
    25
100
AcDbLine
 10
15.1366244339
 20
12.4915959787
 30
0.0
 11
15.0776558118
 21
12.2085091701
 31
0.0
  0
LINE
  5
101
330
1F
100
AcDbEntity
  8
0
  6
Continuous
 62
     7
370
    25
100
AcDbLine
 10
14.8608527892
 20
12.6507955605
 30
0.0
 11
15.1366244339
 21
12.4915959787
 31
0.0
  0
LINE
  5
102
330
1F
100
AcDbEntity
  8
0
  6
Continuous
 62
     7
370
    25
100
AcDbLine
 10
14.8018841671
 20
12.3677087519
 30
0.0
 11
14.8608527892
 21
12.6507955605
 31
0.0
  0
LINE
  5
103
330
1F
100
AcDbEntity
  8
0
  6
Continuous
 62
     7
370
    25
100
AcDbLine
 10
16.0891570618
 20
8.5629198868
 30
0.0
 11
16.2164362824
 21
8.6363966168
 31
0.0
  0
LINE
  5
104
330
1F
100
AcDbEntity
  8
0
  6
Continuous
 62
     7
370
    25
100
AcDbLine
 10
16.0891570618
 20
8.5629198868
 30
0.0
 11
16.0891570618
 21
9.9485896445
 31
0.0
  0
LINE
  5
105
330
1F
100
AcDbEntity
  8
0
  6
Continuous
 62
     7
370
    25
100
AcDbLine
 10
16.0891570618
 20
10.953751384
 30
0.0
 11
16.0891570618
 21
9.9485896445
 31
0.0
  0
LINE
  5
106
330
1F
100
AcDbEntity
  8
0
  6
Continuous
 62
     7
370
    25
100
AcDbLine
 10
16.0891570618
 20
12.3394211417
 30
0.0
 11
16.2164362824
 21
12.4128978718
 31
0.0
  0
LINE
  5
107
330
1F
100
AcDbEntity
  8
0
  6
Continuous
 62
     7
370
    25
100
AcDbLine
 10
16.2164362824
 20
8.6363966168
 30
0.0
 11
16.2164362824
 21
12.4128978718
 31
0.0
  0
LINE
  5
108
330
1F
100
AcDbEntity
  8
0
  6
Continuous
 62
     7
370
    25
100
AcDbLine
 10
14.0562250659
 20
13.5130078025
 30
0.0
 11
14.1835042865
 21
13.5864845325
 31
0.0
  0
LINE
  5
109
330
1F
100
AcDbEntity
  8
0
  6
Continuous
 62
     7
370
    25
100
AcDbLine
 10
16.2164362824
 20
12.4128978718
 30
0.0
 11
14.1835042865
 21
13.5864845325
 31
0.0
  0
LINE
  5
10A
330
1F
100
AcDbEntity
  8
0
  6
Continuous
 62
     7
370
    25
100
AcDbLine
 10
14.0848628905
 20
11.3784877041
 30
0.0
 11
14.7919696717
 21
10.9702836482
 31
0.0
  0
LINE
  5
10B
330
1F
100
AcDbEntity
  8
0
  6
Continuous
 62
     7
370
    25
100
AcDbLine
 10
14.0562250659
 20
12.1273380447
 30
0.0
 11
14.0848628905
 21
11.3784877041
 31
0.0
  0
LINE
  5
10C
330
1F
100
AcDbEntity
  8
0
  6
Continuous
 62
     7
370
    25
100
AcDbLine
 10
14.262700246
 20
11.6293290965
 30
0.0
 11
14.0562250659
 21
12.1273380447
 31
0.0
  0
LINE
  5
10D
330
1F
100
AcDbEntity
  8
0
  6
Continuous
 62
     7
370
    25
100
AcDbLine
 10
16.0891570618
 20
10.953751384
 30
0.0
 11
14.7919696717
 21
10.9702836482
 31
0.0
  0
LINE
  5
10E
330
1F
100
AcDbEntity
  8
0
  6
Continuous
 62
     7
370
    25
100
AcDbLine
 10
16.0891570618
 20
9.9485896445
 30
0.0
 11
14.7919696717
 21
9.9651219088
 31
0.0
  0
LINE
  5
10F
330
1F
100
AcDbEntity
  8
0
  6
Continuous
 62
     7
370
    25
100
AcDbLine
 10
14.7919696717
 20
10.9702836482
 30
0.0
 11
14.7919696717
 21
9.9651219088
 31
0.0
  0
LWPOLYLINE
  5
110
330
1F
100
AcDbEntity
  8
0
  6
Continuous
 62
     7
370
    25
100
AcDbPolyline
 90
       53
 70
   128
 43
0.0
 10
15.0560620559
 20
10.4643370003
 10
15.0588655034
 20
10.4264482318
 10
15.0672349652
 20
10.3890405087
 10
15.0810483958
 20
10.3526593199
 10
15.1001043642
 20
10.3178351848
 10
15.1241249915
 20
10.285075918
 10
15.1527600029
 20
10.2548592232
 10
15.1855918354
 20
10.2276257279
 10
15.222141727
 20
10.2037725577
 10
15.2618766979
 20
10.1836475457
 10
15.3042173229
 20
10.1675441598
 10
15.3485461801
 20
10.1556972237
 10
15.3942168552
 20
10.1482794923
 10
15.4405633667
 20
10.1453991328
 10
15.4869098783
 20
10.1470981475
 10
15.5325805534
 20
10.1533517608
 10
15.5769094106
 20
10.164068781
 10
15.6192500356
 20
10.1790929297
 10
15.6589850065
 20
10.1982051212
 10
15.6955348981
 20
10.2211266565
 10
15.7283667306
 20
10.2475232881
 10
15.757001742
 20
10.2770100936
 10
15.7810223693
 20
10.3091570891
 10
15.8000783377
 20
10.3434954989
 10
15.8138917683
 20
10.3795245917
 10
15.8222612301
 20
10.4167189822
 10
15.8250646775
 20
10.4545362925
 10
15.8222612301
 20
10.4924250609
 10
15.8138917683
 20
10.529832784
 10
15.8000783377
 20
10.5662139729
 10
15.7810223693
 20
10.6010381079
 10
15.757001742
 20
10.6337973748
 10
15.7283667306
 20
10.6640140696
 10
15.6955348981
 20
10.6912475649
 10
15.6589850065
 20
10.715100735
 10
15.6192500356
 20
10.735225747
 10
15.5769094106
 20
10.7513291329
 10
15.5325805534
 20
10.7631760691
 10
15.4869098783
 20
10.7705938005
 10
15.4405633667
 20
10.7734741599
 10
15.3942168552
 20
10.7717751453
 10
15.3485461801
 20
10.765521532
 10
15.3042173229
 20
10.7548045118
 10
15.2618766979
 20
10.739780363
 10
15.222141727
 20
10.7206681716
 10
15.1855918354
 20
10.6977466363
 10
15.1527600029
 20
10.6713500047
 10
15.1241249915
 20
10.6418631992
 10
15.1001043642
 20
10.6097162037
 10
15.0810483958
 20
10.5753777939
 10
15.0672349652
 20
10.5393487011
 10
15.0588655034
 20
10.5021543105
 10
15.0560620559
 20
10.4643370003
  0
LWPOLYLINE
  5
111
330
1F
100
AcDbEntity
  8
0
  6
Continuous
 62
     7
370
    25
100
AcDbPolyline
 90
       22
 70
   128
 43
0.0
 10
15.0915742149
 20
10.5957008184
 10
15.1010205485
 20
10.5730994326
 10
15.1202216448
 20
10.5387681755
 10
15.1444059359
 20
10.5065589387
 10
15.1732068126
 20
10.4769599812
 10
15.206187683
 20
10.4504199933
 10
15.2428485907
 20
10.4273412939
 10
15.2826337937
 20
10.4080737327
 10
15.3249401889
 20
10.3929093863
 10
15.3691264544
 20
10.3820781307
 10
15.4145227716
 20
10.3757441567
 10
15.4604409785
 20
10.3740034809
 10
15.5061850019
 20
10.3768824901
 10
15.551061409
 20
10.3843375416
 10
15.5943899193
 20
10.3962556242
 10
15.6355137168
 20
10.4124560721
 10
15.6738094064
 20
10.432693303
 10
15.7086964647
 20
10.4566605411
 10
15.7396460395
 20
10.4839944674
 10
15.7661889666
 20
10.5142807276
 10
15.7879228824
 20
10.5470602127
 10
15.7989401443
 20
10.5686494566
  0
ARC
  5
112
330
1F
100
AcDbEntity
  8
0
  6
Continuous
 62
     7
370
    25
100
AcDbCircle
 10
15.1120666438
 20
12.3247838412
 30
0.0
 40
0.1654291032443863
100
AcDbArc
 50
232.4704796608
 51
253.1631538511
  0
LINE
  5
113
330
1F
100
AcDbEntity
  8
0
  6
Continuous
 62
     7
370
    25
100
AcDbLine
 10
14.8936872544
 20
12.3973117929
 30
0.0
 11
14.8923788346
 21
12.4199502115
 31
0.0
  0
LINE
  5
114
330
1F
100
AcDbEntity
  8
0
  6
Continuous
 62
     7
370
    25
100
AcDbLine
 10
14.8923788346
 20
12.4199502115
 30
0.0
 11
14.8923788346
 21
12.6325959619
 31
0.0
  0
ARC
  5
115
330
1F
100
AcDbEntity
  8
0
  6
Continuous
 62
     7
370
    25
100
AcDbCircle
 10
14.9615018208
 20
12.3006544802
 30
0.0
 40
0.1320461592157794
100
AcDbArc
 50
357.4776866966
 51
62.5169367707
  0
LINE
  5
116
330
1F
100
AcDbEntity
  8
0
  6
Continuous
 62
     7
370
    25
100
AcDbLine
 10
14.0562250659
 20
13.5130078025
 30
0.0
 11
14.0562250659
 21
12.1273380447
 31
0.0
  0
LINE
  5
117
330
1F
100
AcDbEntity
  8
0
  6
Continuous
 62
     7
370
    25
100
AcDbLine
 10
14.8018841671
 20
12.3677087519
 30
0.0
 11
14.8923788346
 21
12.4199502115
 31
0.0
  0
LINE
  5
118
330
1F
100
AcDbEntity
  8
0
  6
Continuous
 62
     7
370
    25
100
AcDbLine
 10
14.7919696717
 20
9.9651219088
 30
0.0
 11
14.0848628905
 21
10.3733259647
 31
0.0
  0
LINE
  5
119
330
1F
100
AcDbEntity
  8
0
  6
Continuous
 62
     7
370
    25
100
AcDbLine
 10
14.0848628905
 20
10.3733259647
 30
0.0
 11
14.0848628905
 21
11.3784877041
 31
0.0
  0
LWPOLYLINE
  5
11A
330
1F
100
AcDbEntity
  8
0
  6
Continuous
 62
     7
370
    25
100
AcDbPolyline
 90
       53
 70
   128
 43
0.0
 10
14.1665722611
 20
10.8287370189
 10
14.16855431
 20
10.7897544812
 10
14.1744715542
 20
10.7490519718
 10
14.1842377069
 20
10.7072230247
 10
14.1977103555
 20
10.6648776002
 10
14.2146930386
 20
10.62263319
 10
14.2349381103
 20
10.5811058127
 10
14.2581503519
 20
10.5409010309
 10
14.2839912767
 20
10.502605121
 10
14.3120840658
 20
10.4667765235
 10
14.3420190631
 20
10.4339377
 10
14.3733597489
 20
10.4045675146
 10
14.4056491054
 20
10.3790942507
 10
14.4384162811
 20
10.3578893658
 10
14.4711834568
 20
10.3412620749
 10
14.5034728134
 20
10.3294548413
 10
14.5348134991
 20
10.3226398412
 10
14.5647484964
 20
10.3209164524
 10
14.5928412855
 20
10.324309806
 10
14.6186822103
 20
10.3327704193
 10
14.6418944519
 20
10.3461749173
 10
14.6621395236
 20
10.3643278323
 10
14.6791222067
 20
10.3869644541
 10
14.6925948553
 20
10.4137546895
 10
14.702361008
 20
10.4443078768
 10
14.7082782522
 20
10.4781784815
 10
14.7102603012
 20
10.5148725941
 10
14.7082782522
 20
10.5538551317
 10
14.702361008
 20
10.5945576412
 10
14.6925948553
 20
10.6363865883
 10
14.6791222067
 20
10.6787320128
 10
14.6621395236
 20
10.720976423
 10
14.6418944519
 20
10.7625038003
 10
14.6186822103
 20
10.802708582
 10
14.5928412855
 20
10.8410044919
 10
14.5647484964
 20
10.8768330895
 10
14.5348134991
 20
10.9096719129
 10
14.5034728134
 20
10.9390420983
 10
14.4711834568
 20
10.9645153623
 10
14.4384162811
 20
10.9857202472
 10
14.4056491054
 20
11.0023475381
 10
14.3733597489
 20
11.0141547716
 10
14.3420190631
 20
11.0209697718
 10
14.3120840658
 20
11.0226931605
 10
14.2839912767
 20
11.0192998069
 10
14.2581503519
 20
11.0108391937
 10
14.2349381103
 20
10.9974346957
 10
14.2146930386
 20
10.9792817806
 10
14.1977103555
 20
10.9566451589
 10
14.1842377069
 20
10.9298549234
 10
14.1744715542
 20
10.8993017362
 10
14.16855431
 20
10.8654311314
 10
14.1665722611
 20
10.8287370189
  0
ARC
  5
11B
330
1F
100
AcDbEntity
  8
0
  6
Continuous
 62
     7
370
    25
100
AcDbCircle
 10
15.0037413924
 20
10.9981600465
 30
0.0
 40
0.5641340882268624
100
AcDbArc
 50
181.3428668541
 51
238.6517566132
  0
LINE
  5
11C
330
1F
100
AcDbEntity
  8
0
  6
Continuous
 62
     7
370
    25
100
AcDbLine
 10
16.0891570618
 20
8.5629198868
 30
0.0
 11
15.2889700217
 21
9.9587877884
 31
0.0
  0
LINE
  5
11D
330
1F
100
AcDbEntity
  8
0
  6
Continuous
 62
     7
370
    25
100
AcDbLine
 10
14.0562250659
 20
9.7365065475
 30
0.0
 11
16.0891570618
 21
8.5629198868
 31
0.0
  0
LINE
  5
11E
330
1F
100
AcDbEntity
  8
0
  6
Continuous
 62
     7
370
    25
100
AcDbLine
 10
14.0562250659
 20
9.7365065475
 30
0.0
 11
14.1902073368
 21
10.3125119104
 31
0.0
  0
LINE
  5
11F
330
1F
100
AcDbEntity
  8
0
  6
Continuous
 62
     7
370
    25
100
AcDbLine
 10
15.0776558118
 20
9.5547515315
 30
0.0
 11
15.1366244339
 21
9.3397484448
 31
0.0
  0
ELLIPSE
  5
120
330
1F
100
AcDbEntity
  8
0
  6
Continuous
 62
     7
370
    25
100
AcDbEllipse
 10
14.9397699895
 20
9.6343513224
 30
0.0
 11
-0.1292595317031484
 21
0.1498665292631074
 31
0.0
210
0.0
220
0.0
230
1.0
 40
0.4072944424
 41
3.849675947494648
 42
6.991268601084401
  0
LINE
  5
121
330
1F
100
AcDbEntity
  8
0
  6
Continuous
 62
     7
370
    25
100
AcDbLine
 10
14.8608527892
 20
9.4989480266
 30
0.0
 11
14.8018841671
 21
9.7139511133
 31
0.0
  0
LINE
  5
122
330
1F
100
AcDbEntity
  8
0
  6
Continuous
 62
     7
370
    25
100
AcDbLine
 10
15.1366244339
 20
9.3397484448
 30
0.0
 11
14.8608527892
 21
9.4989480266
 31
0.0
  0
ARC
  5
123
330
1F
100
AcDbEntity
  8
0
  6
Continuous
 62
     7
370
    25
100
AcDbCircle
 10
14.985877593
 20
10.9878474947
 30
0.0
 40
0.53091057034119
100
AcDbArc
 50
181.3337226356
 51
238.6609008317
  0
ARC
  5
124
330
1F
100
AcDbEntity
  8
0
  6
Continuous
 62
     7
370
    25
100
AcDbCircle
 10
14.9891501132
 20
10.9897366804
 30
0.0
 40
0.5321927978713454
100
AcDbArc
 50
181.6798576433
 51
238.314765824
  0
LINE
  5
125
330
1F
100
AcDbEntity
  8
0
  6
Continuous
 62
     7
370
    25
100
AcDbLine
 10
14.0562250659
 20
11.1221763053
 30
0.0
 11
14.0562250659
 21
12.1273380447
 31
0.0
  0
LWPOLYLINE
  5
126
330
1F
100
AcDbEntity
  8
0
  6
Continuous
 62
     7
370
    25
100
AcDbPolyline
 90
       53
 70
   128
 43
0.0
 10
14.0620553965
 20
11.4722998867
 10
14.0621172878
 20
11.4328284516
 10
14.0623020593
 20
11.3906958073
 10
14.0626070165
 20
11.3465163427
 10
14.0630277124
 20
11.3009342939
 10
14.0635580124
 20
11.2546143498
 10
14.0641901836
 20
11.2082319594
 10
14.0649150074
 20
11.1624634825
 10
14.0657219142
 20
11.1179763265
 10
14.0665991376
 20
11.0754192143
 10
14.0675338857
 20
11.0354127245
 10
14.0685125276
 20
10.9985402417
 10
14.0695207927
 20
10.9653394498
 10
14.0705439782
 20
10.9362944912
 10
14.0715671637
 20
10.9118289066
 10
14.0725754288
 20
10.8922994594
 10
14.0735540707
 20
10.877990933
 10
14.0744888188
 20
10.8691119778
 10
14.0753660422
 20
10.8657920691
 10
14.076172949
 20
10.8680796185
 10
14.0768977728
 20
10.8759412685
 10
14.077529944
 20
10.8892623785
 10
14.078060244
 20
10.9078486967
 10
14.0784809399
 20
10.9314291927
 10
14.0787858971
 20
10.9596600098
 10
14.0789706686
 20
10.9921294791
 10
14.0790325599
 20
11.0283641227
 10
14.0789706686
 20
11.0678355578
 10
14.0787858971
 20
11.1099682021
 10
14.0784809399
 20
11.1541476667
 10
14.078060244
 20
11.1997297155
 10
14.077529944
 20
11.2460496597
 10
14.0768977728
 20
11.2924320501
 10
14.076172949
 20
11.338200527
 10
14.0753660422
 20
11.382687683
 10
14.0744888188
 20
11.4252447951
 10
14.0735540707
 20
11.465251285
 10
14.0725754288
 20
11.5021237677
 10
14.0715671637
 20
11.5353245596
 10
14.0705439782
 20
11.5643695183
 10
14.0695207927
 20
11.5888351028
 10
14.0685125276
 20
11.60836455
 10
14.0675338857
 20
11.6226730764
 10
14.0665991376
 20
11.6315520316
 10
14.0657219142
 20
11.6348719403
 10
14.0649150074
 20
11.6325843909
 10
14.0641901836
 20
11.6247227409
 10
14.0635580124
 20
11.6114016309
 10
14.0630277124
 20
11.5928153128
 10
14.0626070165
 20
11.5692348168
 10
14.0623020593
 20
11.5410039996
 10
14.0621172878
 20
11.5085345303
 10
14.0620553965
 20
11.4722998867
  0
LINE
  5
127
330
1F
100
AcDbEntity
  8
0
  6
Continuous
 62
     7
370
    25
100
AcDbLine
 10
14.0562250659
 20
11.1221763053
 30
0.0
 11
14.0848628905
 21
10.3733259647
 31
0.0
  0
LWPOLYLINE
  5
128
330
1F
100
AcDbEntity
  8
0
  6
Continuous
 62
     7
370
    25
100
AcDbPolyline
 90
        4
 70
   128
 43
0.0
 10
14.4587854876
 20
10.935822779
 10
14.4588423103
 20
10.9409658378
 10
14.4590864708
 20
10.9719614468
 10
14.4590915027
 20
10.9728754677
  0
LINE
  5
129
330
1F
100
AcDbEntity
  8
0
  6
Continuous
 62
     7
370
    25
100
AcDbLine
 10
14.0562250659
 20
11.1221763053
 30
0.0
 11
14.0562250659
 21
9.7365065475
 31
0.0
  0
LINE
  5
12A
330
1F
100
AcDbEntity
  8
0
  6
Continuous
 62
     7
370
    25
100
AcDbLine
 10
14.8923788346
 20
9.7661925729
 30
0.0
 11
14.8927047651
 21
9.77694583
 31
0.0
  0
LINE
  5
12B
330
1F
100
AcDbEntity
  8
0
  6
Continuous
 62
     7
370
    25
100
AcDbLine
 10
14.8018841671
 20
9.7139511133
 30
0.0
 11
14.8923788346
 21
9.7661925729
 31
0.0
  0
LINE
  5
12C
330
1F
100
AcDbEntity
  8
0
  6
Continuous
 62
     7
370
    25
100
AcDbLine
 10
14.8923788346
 20
9.5171476252
 30
0.0
 11
14.8923788346
 21
9.703361002
 31
0.0
  0
LINE
  5
12D
330
1F
100
AcDbEntity
  8
0
  6
Continuous
 62
     7
370
    25
100
AcDbLine
 10
14.8923788346
 20
9.7360463039
 30
0.0
 11
14.8923788346
 21
9.7661925729
 31
0.0
  0
LINE
  5
12E
330
1F
100
AcDbEntity
  8
0
  6
Continuous
 62
     7
370
    25
100
AcDbLine
 10
15.1247632714
 20
9.3829949454
 30
0.0
 11
14.8923788346
 21
9.5171476252
 31
0.0
  0
LINE
  5
12F
330
1F
100
AcDbEntity
  8
0
  6
Continuous
 62
     7
370
    25
100
AcDbLine
 10
14.8608527892
 20
9.4989480266
 30
0.0
 11
14.8923788346
 21
9.5171476252
 31
0.0
  0
LINE
  5
130
330
1F
100
AcDbEntity
  8
0
  6
Continuous
 62
     7
370
    25
100
AcDbLine
 10
16.2429527867
 20
12.3996315717
 30
0.0
 11
16.3313411343
 21
12.4506570787
 31
0.0
  0
LINE
  5
131
330
1F
100
AcDbEntity
  8
0
  6
Continuous
 62
     7
370
    25
100
AcDbLine
 10
16.2429527867
 20
12.3996315717
 30
0.0
 11
14.1569877822
 21
13.6038335367
 31
0.0
  0
LINE
  5
132
330
1F
100
AcDbEntity
  8
0
  6
Continuous
 62
     7
370
    25
100
AcDbLine
 10
14.1569877822
 20
13.6038335367
 30
0.0
 11
14.2453761298
 21
13.6548590437
 31
0.0
  0
LINE
  5
133
330
1F
100
AcDbEntity
  8
0
  6
Continuous
 62
     7
370
    25
100
AcDbLine
 10
16.3313411343
 20
12.4506570787
 30
0.0
 11
14.2453761298
 21
13.6548590437
 31
0.0
  0
LINE
  5
134
330
1F
100
AcDbEntity
  8
0
  6
Continuous
 62
     7
370
    25
100
AcDbLine
 10
16.2429527867
 20
8.6190476127
 30
0.0
 11
16.2429527867
 21
12.3996315717
 31
0.0
  0
LINE
  5
135
330
1F
100
AcDbEntity
  8
0
  6
Continuous
 62
     7
370
    25
100
AcDbLine
 10
16.2146682281
 20
8.6353759408
 30
0.0
 11
16.2429527867
 21
8.6190476127
 31
0.0
  0
LINE
  5
136
330
1F
100
AcDbEntity
  8
0
  6
Continuous
 62
     7
370
    25
100
AcDbLine
 10
14.1569877822
 20
13.6038335367
 30
0.0
 11
14.1569877822
 21
13.5711768805
 31
0.0
  0
LWPOLYLINE
  5
137
330
1F
100
AcDbEntity
  8
0
  6
Continuous
 62
     7
370
    25
100
AcDbPolyline
 90
       19
 70
   128
 43
0.0
 10
15.1060807306
 20
10.562910003
 10
15.1430227256
 20
10.535451078
 10
15.1885596506
 20
10.5057639551
 10
15.234181056
 20
10.4805610501
 10
15.2795491767
 20
10.4600289564
 10
15.3243281232
 20
10.4443196863
 10
15.3681863678
 20
10.4335495459
 10
15.4107991993
 20
10.4277982736
 10
15.4518511273
 20
10.4271084496
 10
15.4910382177
 20
10.4314851812
 10
15.5280703429
 20
10.4408960647
 10
15.5626733301
 20
10.4552714252
 10
15.5945909908
 20
10.4745048324
 10
15.6235870179
 20
10.4984538891
 10
15.6494467349
 20
10.5269412847
 10
15.6719786855
 20
10.5597561085
 10
15.6910160511
 20
10.5966554111
 10
15.7064178856
 20
10.637366003
 10
15.7165307039
 20
10.6745912654
  0
LINE
  5
138
330
1F
100
AcDbEntity
  8
0
  6
Continuous
 62
     7
370
    25
100
AcDbLine
 10
16.2429527867
 20
8.6190476127
 30
0.0
 11
16.3313411343
 21
8.6700731197
 31
0.0
  0
LINE
  5
139
330
1F
100
AcDbEntity
  8
0
  6
Continuous
 62
     7
370
    25
100
AcDbLine
 10
16.3313411343
 20
8.6700731197
 30
0.0
 11
16.3313411343
 21
12.4506570787
 31
0.0
  0
LWPOLYLINE
  5
13A
330
1F
100
AcDbEntity
  8
0
  6
Continuous
 62
     7
370
    25
100
AcDbPolyline
 90
       14
 70
   128
 43
0.0
 10
15.1405400132
 20
10.6596641864
 10
15.1419361006
 20
10.6583927393
 10
15.1862957681
 20
10.6204281325
 10
15.2314110733
 20
10.5864765849
 10
15.2769479983
 20
10.5567894621
 10
15.3225694036
 20
10.5315865571
 10
15.3679375244
 20
10.5110544634
 10
15.4127164709
 20
10.4953451933
 10
15.4565747154
 20
10.4845750529
 10
15.4991875469
 20
10.4788237805
 10
15.5402394749
 20
10.4781339566
 10
15.5794265653
 20
10.4825106882
 10
15.6164586905
 20
10.4919215717
 10
15.6165213492
 20
10.4919423862
  0
LWPOLYLINE
  5
13B
330
1F
100
AcDbEntity
  8
0
  6
Continuous
 62
     7
370
    25
100
AcDbPolyline
 90
       14
 70
   128
 43
0.0
 10
15.088636825
 20
12.2612250022
 10
15.0877371137
 20
12.2760692325
 10
15.0831516055
 20
12.3007998476
 10
15.0748635573
 20
12.3261785873
 10
15.0632023968
 20
12.3511967142
 10
15.0486316241
 20
12.3748598243
 10
15.0317303889
 20
12.396227372
 10
15.0131704701
 20
12.4144500541
 10
14.9936895751
 20
12.4288035675
 10
14.9740620178
 20
12.4387173981
 10
14.9550679413
 20
12.4437974976
 10
14.9374623096
 20
12.4438419455
 10
14.9219448997
 20
12.4388489752
 10
14.9091324875
 20
12.429017044
  0
ARC
  5
13C
330
1F
100
AcDbEntity
  8
0
  6
Continuous
 62
     7
370
    25
100
AcDbCircle
 10
15.1598816476
 20
12.4764516077
 30
0.0
 40
0.2551963541000912
100
AcDbArc
 50
190.7121376791
 51
252.9897679455
  0
SPLINE
  5
13D
330
1F
100
AcDbEntity
  8
0
  6
Continuous
 62
     7
370
    25
100
AcDbSpline
210
0.0
220
0.0
230
1.0
 70
     8
 71
     3
 72
     9
 73
     5
 74
     0
 42
0.00000001
 43
0.00000001
 40
0.0
 40
0.0
 40
0.0
 40
0.0
 40
0.6535202339834918
 40
1.0
 40
1.0
 40
1.0
 40
1.0
 10
14.91803361542397
 20
12.39768909592141
 30
0.0
 10
14.91296657351254
 20
12.39858761672288
 30
0.0
 10
14.90521311516813
 20
12.39996251034475
 30
0.0
 10
14.8974598821
 20
12.40132158162694
 30
0.0
 10
14.89477354372068
 20
12.40179247232679
 30
0.0
  0
ARC
  5
13E
330
1F
100
AcDbEntity
  8
0
  6
Continuous
 62
     7
370
    25
100
AcDbCircle
 10
15.0397787766
 20
12.3715299172
 30
0.0
 40
0.1481294697768649
100
AcDbArc
 50
168.211591979
 51
199.0971716111
  0
LWPOLYLINE
  5
13F
330
1F
100
AcDbEntity
  8
0
  6
Continuous
 62
     7
370
    25
100
AcDbPolyline
 90
        8
 70
   128
 43
0.0
 10
14.9500547762
 20
12.2360157314
 10
14.966828947
 20
12.2197618671
 10
14.986309842
 20
12.2054083538
 10
15.0059373993
 20
12.1954945232
 10
15.0249314758
 20
12.1904144237
 10
15.0425371075
 20
12.1903699757
 10
15.0580545173
 20
12.195362946
 10
15.0708669296
 20
12.2051948773
  0
LINE
  5
140
330
1F
100
AcDbEntity
  8
0
  6
Continuous
 62
     7
370
    25
100
AcDbLine
 10
15.0708669296
 20
12.2051948773
 30
0.0
 11
15.0746597112
 21
12.2334178361
 31
0.0
  0
LINE
  5
141
330
1F
100
AcDbEntity
  8
0
  6
Continuous
 62
     7
370
    25
100
AcDbLine
 10
15.0767340371
 20
12.2355497962
 30
0.0
 11
15.0746597112
 21
12.2334178361
 31
0.0
  0
ARC
  5
142
330
1F
100
AcDbEntity
  8
0
  6
Continuous
 62
     7
370
    25
100
AcDbCircle
 10
15.1455227039
 20
12.449227036
 30
0.0
 40
0.255196354100083
100
AcDbArc
 50
190.7121376791
 51
252.9897679455
  0
LINE
  5
143
330
1F
100
AcDbEntity
  8
0
  6
Continuous
 62
     7
370
    25
100
AcDbLine
 10
15.0705324471
 20
12.2380256764
 30
0.0
 11
15.0746597112
 21
12.2334178361
 31
0.0
  0
ARC
  5
144
330
1F
100
AcDbEntity
  8
0
  6
Continuous
 62
     7
370
    25
100
AcDbCircle
 10
15.1588277545
 20
9.8236141066
 30
0.0
 40
0.2549491515264009
100
AcDbArc
 50
192.8589620346
 51
248.7425957989
  0
SPLINE
  5
145
330
1F
100
AcDbEntity
  8
0
  6
Continuous
 62
     7
370
    25
100
AcDbSpline
210
0.0
220
0.0
230
1.0
 70
     8
 71
     3
 72
     9
 73
     5
 74
     0
 42
0.00000001
 43
0.00000001
 40
0.0
 40
0.0
 40
0.0
 40
0.0
 40
0.6535202339834918
 40
1.0
 40
1.0
 40
1.0
 40
1.0
 10
14.91803361542397
 20
9.743931457292723
 30
0.0
 10
14.91296657351254
 20
9.744829978094192
 30
0.0
 10
14.90521311516813
 20
9.746204871716065
 30
0.0
 10
14.89745988209999
 20
9.747563942998251
 30
0.0
 10
14.89477354372068
 20
9.748034833698103
 30
0.0
  0
ARC
  5
146
330
1F
100
AcDbEntity
  8
0
  6
Continuous
 62
     7
370
    25
100
AcDbCircle
 10
15.0397787766
 20
9.7177722785
 30
0.0
 40
0.1481294697768986
100
AcDbArc
 50
168.211591979
 51
199.0971716111
  0
LWPOLYLINE
  5
147
330
1F
100
AcDbEntity
  8
0
  6
Continuous
 62
     7
370
    25
100
AcDbPolyline
 90
        8
 70
   128
 43
0.0
 10
14.9500547762
 20
9.5822580927
 10
14.966828947
 20
9.5660042285
 10
14.986309842
 20
9.5516507152
 10
15.0059373993
 20
9.5417368845
 10
15.0249314758
 20
9.536656785
 10
15.0425371075
 20
9.5366123371
 10
15.0580545173
 20
9.5416053074
 10
15.0708669296
 20
9.5514372386
  0
LINE
  5
148
330
1F
100
AcDbEntity
  8
0
  6
Continuous
 62
     7
370
    25
100
AcDbLine
 10
15.0708669296
 20
9.5514372386
 30
0.0
 11
15.0731081773
 21
9.5681148774
 31
0.0
  0
ARC
  5
149
330
1F
100
AcDbEntity
  8
0
  6
Continuous
 62
     7
370
    25
100
AcDbCircle
 10
15.1455227039
 20
9.7954693974
 30
0.0
 40
0.2551963541000979
100
AcDbArc
 50
190.7121376791
 51
252.9897679455
  0
LINE
  5
14A
330
1F
100
AcDbEntity
  8
0
  6
Continuous
 62
     7
370
    25
100
AcDbLine
 10
9.0757438017
 20
7.6184054957
 30
0.0
 11
9.0757438017
 21
6.3874054957
 31
0.0
  0
LINE
  5
14B
330
1F
100
AcDbEntity
  8
0
  6
Continuous
 62
     7
370
    25
100
AcDbLine
 10
8.0757438017
 20
6.3874054957
 30
0.0
 11
8.0757438017
 21
7.6184054957
 31
0.0
  0
LINE
  5
14C
330
1F
100
AcDbEntity
  8
0
  6
Continuous
 62
     7
370
    25
100
AcDbLine
 10
8.0757438017
 20
7.6184054957
 30
0.0
 11
9.0757438017
 21
7.6184054957
 31
0.0
  0
CIRCLE
  5
14D
330
1F
100
AcDbEntity
  8
0
  6
Continuous
 62
     7
370
    25
100
AcDbCircle
 10
8.5757438017
 20
7.0029054957
 30
0.0
 40
0.3844454999999982
  0
LINE
  5
14E
330
1F
100
AcDbEntity
  8
0
  6
Continuous
 62
     7
370
    25
100
AcDbLine
 10
9.0757438017
 20
6.3874054957
 30
0.0
 11
8.0757438017
 21
6.3874054957
 31
0.0
  0
LINE
  5
14F
330
1F
100
AcDbEntity
  8
0
  6
Continuous
 62
     7
370
    25
100
AcDbLine
 10
7.1382438017
 20
6.3874054957
 30
0.0
 11
7.1382438017
 21
7.6184054957
 31
0.0
  0
LINE
  5
150
330
1F
100
AcDbEntity
  8
0
  6
Continuous
 62
     7
370
    25
100
AcDbLine
 10
7.1382438017
 20
7.6184054957
 30
0.0
 11
8.0757438017
 21
7.6184054957
 31
0.0
  0
LWPOLYLINE
  5
151
330
1F
100
AcDbEntity
  8
0
  6
Continuous
 62
     7
370
    25
100
AcDbPolyline
 90
       63
 70
   128
 43
0.0
 10
7.3291079837
 20
7.0029054957
 10
7.330533726
 20
6.9639966649
 10
7.3347963228
 20
6.9254870914
 10
7.341852034
 20
6.8877719354
 10
7.3516284585
 20
6.8512382056
 10
7.3640252771
 20
6.8162607874
 10
7.3789152815
 20
6.7831985965
 10
7.3961456801
 20
6.7523908957
 10
7.4155396658
 20
6.7241538137
 10
7.43689823
 20
6.6987771011
 10
7.460002205
 20
6.6765211575
 10
7.4846145126
 20
6.6576143588
 10
7.5104825974
 20
6.6422507144
 10
7.5373410177
 20
6.6305878762
 10
7.5649141698
 20
6.6227455205
 10
7.5929191159
 20
6.6188041206
 10
7.6210684874
 20
6.6188041206
 10
7.6490734335
 20
6.6227455205
 10
7.6766465856
 20
6.6305878762
 10
7.7035050059
 20
6.6422507144
 10
7.7293730907
 20
6.6576143588
 10
7.7539853983
 20
6.6765211575
 10
7.7770893733
 20
6.6987771011
 10
7.7984479375
 20
6.7241538137
 10
7.8178419232
 20
6.7523908957
 10
7.8350723218
 20
6.7831985965
 10
7.8499623262
 20
6.8162607874
 10
7.8623591448
 20
6.8512382056
 10
7.8721355693
 20
6.8877719354
 10
7.8791912805
 20
6.9254870914
 10
7.8834538773
 20
6.9639966649
 10
7.8848796196
 20
7.0029054957
 10
7.8834538773
 20
7.0418143265
 10
7.8791912805
 20
7.0803239
 10
7.8721355693
 20
7.118039056
 10
7.8623591448
 20
7.1545727858
 10
7.8499623262
 20
7.189550204
 10
7.8350723218
 20
7.2226123949
 10
7.8178419232
 20
7.2534200957
 10
7.7984479375
 20
7.2816571777
 10
7.7770893733
 20
7.3070338902
 10
7.7539853983
 20
7.3292898339
 10
7.7293730907
 20
7.3481966326
 10
7.7035050059
 20
7.363560277
 10
7.6766465856
 20
7.3752231152
 10
7.6490734335
 20
7.3830654709
 10
7.6210684874
 20
7.3870068708
 10
7.5929191159
 20
7.3870068708
 10
7.5649141698
 20
7.3830654709
 10
7.5373410177
 20
7.3752231152
 10
7.5104825974
 20
7.363560277
 10
7.4846145126
 20
7.3481966326
 10
7.460002205
 20
7.3292898339
 10
7.43689823
 20
7.3070338902
 10
7.4155396658
 20
7.2816571777
 10
7.3961456801
 20
7.2534200957
 10
7.3789152815
 20
7.2226123949
 10
7.3640252771
 20
7.189550204
 10
7.3516284585
 20
7.1545727858
 10
7.341852034
 20
7.118039056
 10
7.3347963228
 20
7.0803239
 10
7.330533726
 20
7.0418143265
 10
7.3291079837
 20
7.0029054957
  0
LINE
  5
152
330
1F
100
AcDbEntity
  8
0
  6
Continuous
 62
     7
370
    25
100
AcDbLine
 10
7.1382438017
 20
6.3874054957
 30
0.0
 11
8.0757438017
 21
6.3874054957
 31
0.0
  0
LINE
  5
153
330
1F
100
AcDbEntity
  8
0
  6
Continuous
 62
     7
370
    25
100
AcDbLine
 10
10.0132438017
 20
7.6184054957
 30
0.0
 11
10.0132438017
 21
6.3874054957
 31
0.0
  0
LWPOLYLINE
  5
154
330
1F
100
AcDbEntity
  8
0
  6
Continuous
 62
     7
370
    25
100
AcDbPolyline
 90
       63
 70
   128
 43
0.0
 10
9.2666079837
 20
7.0029054957
 10
9.268033726
 20
6.9639966649
 10
9.2722963228
 20
6.9254870914
 10
9.279352034
 20
6.8877719354
 10
9.2891284585
 20
6.8512382056
 10
9.3015252771
 20
6.8162607874
 10
9.3164152815
 20
6.7831985965
 10
9.3336456801
 20
6.7523908957
 10
9.3530396658
 20
6.7241538137
 10
9.37439823
 20
6.6987771011
 10
9.397502205
 20
6.6765211575
 10
9.4221145126
 20
6.6576143588
 10
9.4479825974
 20
6.6422507144
 10
9.4748410177
 20
6.6305878762
 10
9.5024141698
 20
6.6227455205
 10
9.5304191159
 20
6.6188041206
 10
9.5585684874
 20
6.6188041206
 10
9.5865734335
 20
6.6227455205
 10
9.6141465856
 20
6.6305878762
 10
9.6410050059
 20
6.6422507144
 10
9.6668730907
 20
6.6576143588
 10
9.6914853983
 20
6.6765211575
 10
9.7145893733
 20
6.6987771011
 10
9.7359479375
 20
6.7241538137
 10
9.7553419232
 20
6.7523908957
 10
9.7725723218
 20
6.7831985965
 10
9.7874623262
 20
6.8162607874
 10
9.7998591448
 20
6.8512382056
 10
9.8096355693
 20
6.8877719354
 10
9.8166912805
 20
6.9254870914
 10
9.8209538773
 20
6.9639966649
 10
9.8223796196
 20
7.0029054957
 10
9.8209538773
 20
7.0418143265
 10
9.8166912805
 20
7.0803239
 10
9.8096355693
 20
7.118039056
 10
9.7998591448
 20
7.1545727858
 10
9.7874623262
 20
7.189550204
 10
9.7725723218
 20
7.2226123949
 10
9.7553419232
 20
7.2534200957
 10
9.7359479375
 20
7.2816571777
 10
9.7145893733
 20
7.3070338902
 10
9.6914853983
 20
7.3292898339
 10
9.6668730907
 20
7.3481966326
 10
9.6410050059
 20
7.363560277
 10
9.6141465856
 20
7.3752231152
 10
9.5865734335
 20
7.3830654709
 10
9.5585684874
 20
7.3870068708
 10
9.5304191159
 20
7.3870068708
 10
9.5024141698
 20
7.3830654709
 10
9.4748410177
 20
7.3752231152
 10
9.4479825974
 20
7.363560277
 10
9.4221145126
 20
7.3481966326
 10
9.397502205
 20
7.3292898339
 10
9.37439823
 20
7.3070338902
 10
9.3530396658
 20
7.2816571777
 10
9.3336456801
 20
7.2534200957
 10
9.3164152815
 20
7.2226123949
 10
9.3015252771
 20
7.189550204
 10
9.2891284585
 20
7.1545727858
 10
9.279352034
 20
7.118039056
 10
9.2722963228
 20
7.0803239
 10
9.268033726
 20
7.0418143265
 10
9.2666079837
 20
7.0029054957
  0
LINE
  5
155
330
1F
100
AcDbEntity
  8
0
  6
Continuous
 62
     7
370
    25
100
AcDbLine
 10
10.0132438017
 20
7.6184054957
 30
0.0
 11
9.0757438017
 21
7.6184054957
 31
0.0
  0
LINE
  5
156
330
1F
100
AcDbEntity
  8
0
  6
Continuous
 62
     7
370
    25
100
AcDbLine
 10
10.0132438017
 20
6.3874054957
 30
0.0
 11
9.0757438017
 21
6.3874054957
 31
0.0
  0
CIRCLE
  5
157
330
1F
100
AcDbEntity
  8
0
  6
Continuous
 62
     7
370
    25
100
AcDbCircle
 10
8.5757438017
 20
7.0029054957
 30
0.0
 40
0.3732174978110496
  0
ARC
  5
158
330
1F
100
AcDbEntity
  8
0
  6
Continuous
 62
     7
370
    25
100
AcDbCircle
 10
7.9995771886
 20
6.9809107658
 30
0.0
 40
0.400148781453684
100
AcDbArc
 50
176.8490704165
 51
230.8446866955
  0
ARC
  5
159
330
1F
100
AcDbEntity
  8
0
  6
Continuous
 62
     7
370
    25
100
AcDbCircle
 10
8.0090063835
 20
7.0207322362
 30
0.0
 40
0.4093613745111436
100
AcDbArc
 50
129.8103549928
 51
182.4958878952
  0
LWPOLYLINE
  5
15A
330
1F
100
AcDbEntity
  8
0
  6
Continuous
 62
     7
370
    25
100
AcDbPolyline
 90
       24
 70
   128
 43
0.0
 10
9.4045742422
 20
6.6706205185
 10
9.4085255574
 20
6.6734745057
 10
9.432328068
 20
6.6932556882
 10
9.4545348303
 20
6.7163192357
 10
9.474910447
 20
6.7424206689
 10
9.4932389315
 20
6.771283306
 10
9.5093259974
 20
6.802601196
 10
9.5230011176
 20
6.8360423614
 10
9.5341193326
 20
6.8712523175
 10
9.5425627865
 20
6.9078578301
 10
9.5482419766
 20
6.9454708715
 10
9.551096702
 20
6.9836927343
 10
9.551096702
 20
7.0221182571
 10
9.5482419766
 20
7.0603401199
 10
9.5425627865
 20
7.0979531613
 10
9.5341193326
 20
7.1345586739
 10
9.5230011176
 20
7.16976863
 10
9.5093259974
 20
7.2032097954
 10
9.4932389315
 20
7.2345276853
 10
9.474910447
 20
7.2633903225
 10
9.4545348303
 20
7.2894917557
 10
9.432328068
 20
7.3125553032
 10
9.4085255574
 20
7.3323364857
 10
9.4045742422
 20
7.3351904728
  0
CIRCLE
  5
15B
330
1F
100
AcDbEntity
  8
0
  6
Continuous
 62
     7
370
    25
100
AcDbCircle
 10
8.5757438017
 20
7.0029054957
 30
0.0
 40
0.3514999999999997
  0
LINE
  5
15C
330
1F
100
AcDbEntity
  8
0
  6
Continuous
 62
     7
370
    25
100
AcDbLine
 10
7.1382438017
 20
4.6904054957
 30
0.0
 11
10.0132438017
 21
4.6904054957
 31
0.0
  0
LINE
  5
15D
330
1F
100
AcDbEntity
  8
0
  6
Continuous
 62
     7
370
    25
100
AcDbLine
 10
7.1382438017
 20
4.6904054957
 30
0.0
 11
7.8942438017
 21
6.3874054957
 31
0.0
  0
LINE
  5
15E
330
1F
100
AcDbEntity
  8
0
  6
Continuous
 62
     7
370
    25
100
AcDbLine
 10
10.0132438017
 20
4.6904054957
 30
0.0
 11
9.2572438017
 21
6.3874054957
 31
0.0
  0
LINE
  5
15F
330
1F
100
AcDbEntity
  8
0
  6
Continuous
 62
     7
370
    25
100
AcDbLine
 10
8.7707438017
 20
5.3779054957
 30
0.0
 11
8.7707438017
 21
5.0729054957
 31
0.0
  0
ARC
  5
160
330
1F
100
AcDbEntity
  8
0
  6
Continuous
 62
     7
370
    25
100
AcDbCircle
 10
8.5757438017
 20
5.3779054957
 30
0.0
 40
0.1950000000000021
100
AcDbArc
 50
0.0
 51
180.0
  0
LINE
  5
161
330
1F
100
AcDbEntity
  8
0
  6
Continuous
 62
     7
370
    25
100
AcDbLine
 10
8.3807438017
 20
5.0729054957
 30
0.0
 11
8.3807438017
 21
5.3779054957
 31
0.0
  0
LINE
  5
162
330
1F
100
AcDbEntity
  8
0
  6
Continuous
 62
     7
370
    25
100
AcDbLine
 10
8.7707438017
 20
5.0729054957
 30
0.0
 11
8.3807438017
 21
5.0729054957
 31
0.0
  0
LINE
  5
163
330
1F
100
AcDbEntity
  8
0
  6
Continuous
 62
     7
370
    25
100
AcDbLine
 10
10.0132438017
 20
9.3154054957
 30
0.0
 11
9.2572438017
 21
7.6184054957
 31
0.0
  0
LINE
  5
164
330
1F
100
AcDbEntity
  8
0
  6
Continuous
 62
     7
370
    25
100
AcDbLine
 10
10.0132438017
 20
7.6184054957
 30
0.0
 11
10.0132438017
 21
9.3154054957
 31
0.0
  0
LINE
  5
165
330
1F
100
AcDbEntity
  8
0
  6
Continuous
 62
     7
370
    25
100
AcDbLine
 10
10.0132438017
 20
4.6904054957
 30
0.0
 11
10.0132438017
 21
6.3874054957
 31
0.0
  0
LINE
  5
166
330
1F
100
AcDbEntity
  8
0
  6
Continuous
 62
     7
370
    25
100
AcDbLine
 10
10.0132438017
 20
9.3154054957
 30
0.0
 11
7.1382438017
 21
9.3154054957
 31
0.0
  0
LINE
  5
167
330
1F
100
AcDbEntity
  8
0
  6
Continuous
 62
     7
370
    25
100
AcDbLine
 10
7.1382438017
 20
9.3154054957
 30
0.0
 11
7.8942438017
 21
7.6184054957
 31
0.0
  0
ARC
  5
168
330
1F
100
AcDbEntity
  8
0
  6
Continuous
 62
     7
370
    25
100
AcDbCircle
 10
8.5757438017
 20
8.6279054957
 30
0.0
 40
0.1950000000000003
100
AcDbArc
 50
180.0
 51
0.0
  0
LINE
  5
169
330
1F
100
AcDbEntity
  8
0
  6
Continuous
 62
     7
370
    25
100
AcDbLine
 10
8.7707438017
 20
8.9329054957
 30
0.0
 11
8.7707438017
 21
8.6279054957
 31
0.0
  0
LINE
  5
16A
330
1F
100
AcDbEntity
  8
0
  6
Continuous
 62
     7
370
    25
100
AcDbLine
 10
8.3807438017
 20
8.9329054957
 30
0.0
 11
8.7707438017
 21
8.9329054957
 31
0.0
  0
LINE
  5
16B
330
1F
100
AcDbEntity
  8
0
  6
Continuous
 62
     7
370
    25
100
AcDbLine
 10
8.3807438017
 20
8.6279054957
 30
0.0
 11
8.3807438017
 21
8.9329054957
 31
0.0
  0
LINE
  5
16C
330
1F
100
AcDbEntity
  8
0
  6
Continuous
 62
     7
370
    25
100
AcDbLine
 10
7.1382438017
 20
6.3874054957
 30
0.0
 11
7.1382438017
 21
4.6904054957
 31
0.0
  0
LINE
  5
16D
330
1F
100
AcDbEntity
  8
0
  6
Continuous
 62
     7
370
    25
100
AcDbLine
 10
7.1382438017
 20
9.3154054957
 30
0.0
 11
7.1382438017
 21
7.6184054957
 31
0.0
  0
CIRCLE
  5
16E
330
1F
100
AcDbEntity
  8
0
  6
Continuous
 62
     7
370
    25
100
AcDbCircle
 10
8.5757438017
 20
8.6279054957
 30
0.0
 40
0.0899999999999981
  0
CIRCLE
  5
16F
330
1F
100
AcDbEntity
  8
0
  6
Continuous
 62
     7
370
    25
100
AcDbCircle
 10
8.5757438017
 20
5.3779054957
 30
0.0
 40
0.0899999999999981
  0
LINE
  5
170
330
1F
100
AcDbEntity
  8
0
  6
Continuous
 62
     7
370
    25
100
AcDbLine
 10
10.0507438017
 20
4.6879054957
 30
0.0
 11
10.0507438017
 21
9.3179054957
 31
0.0
  0
LINE
  5
171
330
1F
100
AcDbEntity
  8
0
  6
Continuous
 62
     7
370
    25
100
AcDbLine
 10
7.1007438017
 20
4.6879054957
 30
0.0
 11
10.0507438017
 21
4.6879054957
 31
0.0
  0
LINE
  5
172
330
1F
100
AcDbEntity
  8
0
  6
Continuous
 62
     7
370
    25
100
AcDbLine
 10
7.1007438017
 20
9.3179054957
 30
0.0
 11
7.1007438017
 21
4.6879054957
 31
0.0
  0
LINE
  5
173
330
1F
100
AcDbEntity
  8
0
  6
Continuous
 62
     7
370
    25
100
AcDbLine
 10
10.0507438017
 20
9.3179054957
 30
0.0
 11
7.1007438017
 21
9.3179054957
 31
0.0
  0
ARC
  5
174
330
1F
100
AcDbEntity
  8
0
  6
Continuous
 62
     7
370
    25
100
AcDbCircle
 10
8.5757438017
 20
7.0029054957
 30
0.0
 40
0.75
100
AcDbArc
 50
180.0
 51
194.4845295622
  0
ARC
  5
175
330
1F
100
AcDbEntity
  8
0
  6
Continuous
 62
     7
370
    25
100
AcDbCircle
 10
8.5757438017
 20
7.0029054957
 30
0.0
 40
0.7499999999999999
100
AcDbArc
 50
345.5154704378
 51
14.4845295622
  0
ARC
  5
176
330
1F
100
AcDbEntity
  8
0
  6
Continuous
 62
     7
370
    25
100
AcDbCircle
 10
8.5757438017
 20
7.0029054957
 30
0.0
 40
0.75
100
AcDbArc
 50
165.5154704378
 51
180.0
  0
ARC
  5
177
330
1F
100
AcDbEntity
  8
0
  6
Continuous
 62
     7
370
    25
100
AcDbCircle
 10
8.5757438017
 20
5.3466554957
 30
0.0
 40
0.0999999999999999
100
AcDbArc
 50
27.4032407212
 51
152.5967592788
  0
ARC
  5
178
330
1F
100
AcDbEntity
  8
0
  6
Continuous
 62
     7
370
    25
100
AcDbCircle
 10
8.5757438017
 20
8.6591554957
 30
0.0
 40
0.1000000000000009
100
AcDbArc
 50
207.4032407212
 51
332.5967592788
  0
DIMENSION
  5
179
330
1F
100
AcDbEntity
  8
0
  6
Continuous
 62
     7
370
    18
100
AcDbDimension
  2
_D_2
 10
7.1007438017
 20
10.1053070705
 30
0.0
 11
8.5757438017
 21
10.1053070705
 31
0.0
 70
   160
  1
<>
 71
     2
 42
-1.0
  3
SLDDIMSTYLE1
100
AcDbAlignedDimension
 13
10.0507438017
 23
9.3179054957
 33
0.0
 14
7.1007438017
 24
9.3179054957
 34
0.0
100
AcDbRotatedDimension
  0
DIMENSION
  5
18D
330
1F
100
AcDbEntity
  8
0
  6
Continuous
 62
     7
370
    18
100
AcDbDimension
  2
_D_3
 10
11.3105863213
 20
4.6879054957
 30
0.0
 11
11.3105863213
 21
7.0029054957
 31
0.0
 70
   160
  1
<>
 71
     2
 42
-1.0
  3
SLDDIMSTYLE1
100
AcDbAlignedDimension
 13
10.0507438017
 23
9.3179054957
 33
0.0
 14
10.0507438017
 24
4.6879054957
 34
0.0
 50
90.0
100
AcDbRotatedDimension
  0
DIMENSION
  5
1A1
330
1F
100
AcDbEntity
  8
0
  6
Continuous
 62
     7
370
    18
100
AcDbDimension
  2
_D_4
 10
6.3133422268
 20
5.3779054957
 30
0.0
 11
6.3133422268
 21
7.0029054957
 31
0.0
 70
   160
  1
<>
 71
     2
 42
-1.0
  3
SLDDIMSTYLE1
100
AcDbAlignedDimension
 13
8.3807438017
 23
8.6279054957
 33
0.0
 14
8.3857438017
 24
5.3779054957
 34
0.0
 50
90.0
100
AcDbRotatedDimension
  0
MTEXT
  5
1B5
330
1F
100
AcDbEntity
  8
0
  6
Continuous
 62
     7
370
     0
100
AcDbMText
 10
9.1952692741
 20
2.9079115222
 30
0.0
 40
0.25
 41
0.0
 71
     2
 72
     1
  1
2X #6-32 CLEARANCE HOLES
  7
SLDTEXTSTYLE0
 73
     1
 44
1.0
  0
MTEXT
  5
1B6
330
1F
100
AcDbEntity
  8
0
  6
Continuous
 62
     7
370
     0
100
AcDbMText
 10
9.2011718944
 20
2.5791713732
 30
0.0
 40
0.25
 41
0.0
 71
     2
 72
     1
  1
(HARDWARE INCLUDED)
  7
SLDTEXTSTYLE0
 73
     1
 44
1.0
  0
LEADER
  5
1B7
330
1F
100
AcDbEntity
  8
0
  6
Continuous
 62
     7
370
     0
100
AcDbLeader
  3
SLDDIMSTYLE2
 76
     3
 10
8.5214764654
 20
5.3061067755
 30
0.0
 10
6.4053361829
 20
2.7897690797
 30
0.0
 10
6.9053361829
 20
2.7897690797
 30
0.0
  0
MTEXT
  5
1B9
330
1F
100
AcDbEntity
  8
0
  6
Continuous
 62
     7
370
     0
100
AcDbMText
 10
11.3737660755
 20
4.0994015504
 30
0.0
 40
0.1666666667
 41
0.0
 71
     2
 72
     1
  1
3X 1/2" THREADED FIXTURE
  7
SLDTEXTSTYLE1
 73
     1
 44
1.0
  0
MTEXT
  5
1BA
330
1F
100
AcDbEntity
  8
0
  6
Continuous
 62
     7
370
     0
100
AcDbMText
 10
11.3656642667
 20
3.7984391788
 30
0.0
 40
0.1666666667
 41
0.0
 71
     2
 72
     1
  1
MOUNTING HOLE
  7
SLDTEXTSTYLE1
 73
     1
 44
1.0
  0
LEADER
  5
1BB
330
1F
100
AcDbEntity
  8
0
  6
Continuous
 62
     7
370
     0
100
AcDbLeader
  3
SLDDIMSTYLE2
 76
     3
 10
8.7335069653
 20
6.6523215162
 30
0.0
 10
9.4372522015
 20
4.0639110743
 30
0.0
 10
9.9372522015
 20
4.0639110743
 30
0.0
  0
INSERT
  5
1C7
330
1F
100
AcDbEntity
  8
0
  6
Continuous
 62
     7
370
     0
100
AcDbBlockReference
  2
SW_CENTERMARKSYMBOL_2
 10
8.5757438017
 20
5.3779054957
 30
0.0
  0
INSERT
  5
1D3
330
1F
100
AcDbEntity
  8
0
  6
Continuous
 62
     7
370
     0
100
AcDbBlockReference
  2
SW_CENTERMARKSYMBOL_3
 10
8.5757438017
 20
8.6279054957
 30
0.0
  0
LINE
  5
1D4
330
1F
100
AcDbEntity
  8
0
  6
Continuous
 62
     7
370
    25
100
AcDbLine
 10
10.0132438017
 20
14.2264777188
 30
0.0
 11
7.1382438017
 21
14.2264777188
 31
0.0
  0
LINE
  5
1D5
330
1F
100
AcDbEntity
  8
0
  6
Continuous
 62
     7
370
    25
100
AcDbLine
 10
7.8942438017
 20
13.7624777188
 30
0.0
 11
9.2572438017
 21
13.7624777188
 31
0.0
  0
LINE
  5
1D6
330
1F
100
AcDbEntity
  8
0
  6
Continuous
 62
     7
370
    25
100
AcDbLine
 10
7.1382438017
 20
14.2264777188
 30
0.0
 11
7.8942438017
 21
13.7624777188
 31
0.0
  0
ELLIPSE
  5
1D7
330
1F
100
AcDbEntity
  8
0
  6
Continuous
 62
     7
370
    25
100
AcDbEllipse
 10
8.5757438017
 20
14.0384989327
 30
0.0
 11
0.1950000000000003
 21
0.0
 31
0.0
210
0.0
220
0.0
230
1.0
 40
0.2734236889
 41
3.141592653589793
 42
6.283185307179586
  0
LINE
  5
1D8
330
1F
100
AcDbEntity
  8
0
  6
Continuous
 62
     7
370
    25
100
AcDbLine
 10
8.7707438017
 20
14.1218931578
 30
0.0
 11
8.7707438017
 21
14.0384989327
 31
0.0
  0
LINE
  5
1D9
330
1F
100
AcDbEntity
  8
0
  6
Continuous
 62
     7
370
    25
100
AcDbLine
 10
8.3807438017
 20
14.1218931578
 30
0.0
 11
8.7707438017
 21
14.1218931578
 31
0.0
  0
LINE
  5
1DA
330
1F
100
AcDbEntity
  8
0
  6
Continuous
 62
     7
370
    25
100
AcDbLine
 10
8.3807438017
 20
14.0384989327
 30
0.0
 11
8.3807438017
 21
14.1218931578
 31
0.0
  0
LINE
  5
1DB
330
1F
100
AcDbEntity
  8
0
  6
Continuous
 62
     7
370
    25
100
AcDbLine
 10
10.0132438017
 20
14.2264777188
 30
0.0
 11
9.2572438017
 21
13.7624777188
 31
0.0
  0
LINE
  5
1DC
330
1F
100
AcDbEntity
  8
0
  6
Continuous
 62
     7
370
    25
100
AcDbLine
 10
7.1382438017
 20
14.2264777188
 30
0.0
 11
7.1382438017
 21
14.4064777188
 31
0.0
  0
LINE
  5
1DD
330
1F
100
AcDbEntity
  8
0
  6
Continuous
 62
     7
370
    25
100
AcDbLine
 10
10.0132438017
 20
14.2264777188
 30
0.0
 11
10.0132438017
 21
14.4064777188
 31
0.0
  0
LINE
  5
1DE
330
1F
100
AcDbEntity
  8
0
  6
Continuous
 62
     7
370
    25
100
AcDbLine
 10
8.0757438017
 20
13.3294777188
 30
0.0
 11
9.0757438017
 21
13.3294777188
 31
0.0
  0
LINE
  5
1DF
330
1F
100
AcDbEntity
  8
0
  6
Continuous
 62
     7
370
    25
100
AcDbLine
 10
7.1382438017
 20
14.2264777188
 30
0.0
 11
8.0757438017
 21
13.3294777188
 31
0.0
  0
LINE
  5
1E0
330
1F
100
AcDbEntity
  8
0
  6
Continuous
 62
     7
370
    25
100
AcDbLine
 10
10.0132438017
 20
14.2264777188
 30
0.0
 11
9.0757438017
 21
13.3294777188
 31
0.0
  0
LINE
  5
1E1
330
1F
100
AcDbEntity
  8
0
  6
Continuous
 62
     7
370
    25
100
AcDbLine
 10
10.0507438017
 20
14.4064777188
 30
0.0
 11
7.1007438017
 21
14.4064777188
 31
0.0
  0
LINE
  5
1E2
330
1F
100
AcDbEntity
  8
0
  6
Continuous
 62
     7
370
    25
100
AcDbLine
 10
7.1007438017
 20
14.4064777188
 30
0.0
 11
7.1007438017
 21
14.5314777188
 31
0.0
  0
LINE
  5
1E3
330
1F
100
AcDbEntity
  8
0
  6
Continuous
 62
     7
370
    25
100
AcDbLine
 10
10.0507438017
 20
14.5314777188
 30
0.0
 11
7.1007438017
 21
14.5314777188
 31
0.0
  0
LINE
  5
1E4
330
1F
100
AcDbEntity
  8
0
  6
Continuous
 62
     7
370
    25
100
AcDbLine
 10
10.0507438017
 20
14.4064777188
 30
0.0
 11
10.0507438017
 21
14.5314777188
 31
0.0
  0
LINE
  5
1E5
330
1F
100
AcDbEntity
  8
SLD-0
  6
CENTERX2
100
AcDbLine
 10
7.6069938017
 20
13.7779777188
 30
0.0
 11
8.3279426017
 21
14.5314777188
 31
0.0
  0
LINE
  5
1E6
330
1F
100
AcDbEntity
  8
SLD-0
  6
CENTERX2
100
AcDbLine
 10
9.5444938017
 20
13.7779777188
 30
0.0
 11
8.8235450017
 21
14.5314777188
 31
0.0
  0
LINE
  5
1E7
330
1F
100
AcDbEntity
  8
SLD-0
100
AcDbLine
 10
7.6069938017
 20
13.7779777188
 30
0.0
 11
7.2480339611
 21
13.4028106613
 31
0.0
  0
LINE
  5
1E8
330
1F
100
AcDbEntity
  8
SLD-0
100
AcDbLine
 10
9.5444938017
 20
13.7779777188
 30
0.0
 11
9.9034536422
 21
13.4028106613
 31
0.0
  0
DIMENSION
  5
1E9
330
1F
100
AcDbEntity
  8
0
  6
Continuous
 62
     7
370
    18
100
AcDbDimension
  2
_D_5
 10
8.5757438017
 20
14.9064777188
 30
0.0
 11
7.6733691979
 21
12.542072207
 31
0.0
 70
   162
  1
45%%d
 71
     1
 42
-1.0
  3
SLDDIMSTYLE3
100
AcDb2LineAngularDimension
 13
7.6069938017
 23
13.7779777188
 33
0.0
 14
7.2480339611
 24
13.4028106613
 34
0.0
 15
8.5757438017
 25
13.1686956338
 35
0.0
 16
7.1428792259
 26
12.836891218
 36
0.0
  0
DIMENSION
  5
1F6
330
1F
100
AcDbEntity
  8
0
  6
Continuous
 62
     7
370
    18
100
AcDbDimension
  2
_D_6
 10
9.9034536422
 20
13.4028106613
 30
0.0
 11
9.4781184054
 21
12.542072207
 31
0.0
 70
   162
  1
45%%d
 71
     1
 42
-1.0
  3
SLDDIMSTYLE3
100
AcDb2LineAngularDimension
 13
8.5757438017
 23
13.1686956338
 33
0.0
 14
8.5757438017
 24
14.9064777188
 34
0.0
 15
9.5444938017
 25
13.7779777188
 35
0.0
 16
8.8977390484
 26
12.3892427185
 36
0.0
  0
LINE
  5
202
330
1F
100
AcDbEntity
  8
0
  6
CENTERX2
 62
     7
370
    18
100
AcDbLine
 10
8.5757438017
 20
13.1686956338
 30
0.0
 11
8.5757438017
 21
14.9064777188
 31
0.0
  0
ENDSEC
  0
SECTION
  2
OBJECTS
  0
DICTIONARY
  5
C
330
0
100
AcDbDictionary
281
     1
  3
ACAD_GROUP
350
D
  3
ACAD_LAYOUT
350
1A
  3
ACAD_MLINESTYLE
350
17
  3
ACAD_PLOTSETTINGS
350
19
  3
ACAD_PLOTSTYLENAME
350
E
  3
ACAD_SCALELIST
350
47
  3
DWGPROPS
350
203
  0
DICTIONARY
  5
D
102
{ACAD_REACTORS
330
C
102
}
330
C
100
AcDbDictionary
281
     1
  0
DICTIONARY
  5
1A
102
{ACAD_REACTORS
330
C
102
}
330
C
100
AcDbDictionary
281
     1
  3
Layout1
350
1E
  3
Layout2
350
26
  3
Model
350
22
  0
DICTIONARY
  5
17
102
{ACAD_REACTORS
330
C
102
}
330
C
100
AcDbDictionary
281
     1
  3
Standard
350
18
  0
DICTIONARY
  5
19
102
{ACAD_REACTORS
330
C
102
}
330
C
100
AcDbDictionary
281
     1
  0
ACDBDICTIONARYWDFLT
  5
E
102
{ACAD_REACTORS
330
C
102
}
330
C
100
AcDbDictionary
281
     1
  3
Normal
350
F
100
AcDbDictionaryWithDefault
340
F
  0
DICTIONARY
  5
47
102
{ACAD_REACTORS
330
C
102
}
330
C
100
AcDbDictionary
281
     1
  3
A0
350
48
  3
A1
350
49
  3
A2
350
4A
  3
A3
350
4B
  3
A4
350
4C
  3
A5
350
4D
  3
A6
350
4E
  3
A7
350
4F
  3
A8
350
50
  3
A9
350
51
  3
B1
350
52
  3
B2
350
53
  3
B3
350
54
  3
B4
350
55
  3
B5
350
56
  3
B6
350
57
  3
B7
350
58
  0
XRECORD
  5
203
102
{ACAD_REACTORS
330
C
102
}
330
C
100
AcDbXrecord
280
     1
  1
DWGPROPS COOKIE
  2

  3

  4

  6

  7

  8
shawnd
  9

300
=
301
=
302
=
303
=
304
=
305
=
306
=
307
=
308
=
309
=
 40
0.0
 41
2460888.864195961
 42
2460888.864196366
  1

 90
        0
  0
LAYOUT
  5
1E
102
{ACAD_REACTORS
330
1A
102
}
330
1A
100
AcDbPlotSettings
  1

  2
none_device
  4

  6

 40
0.0
 41
0.0
 42
0.0
 43
0.0
 44
0.0
 45
0.0
 46
0.0
 47
0.0
 48
0.0
 49
0.0
140
0.0
141
0.0
142
1.0
143
1.0
 70
   688
 72
     0
 73
     0
 74
     5
  7

 75
    16
147
1.0
148
0.0
149
0.0
100
AcDbLayout
  1
Layout1
 70
     1
 71
     1
 10
0.0
 20
0.0
 11
12.0
 21
9.0
 12
0.0
 22
0.0
 32
0.0
 14
1.0000000000E+20
 24
1.0000000000E+20
 34
1.0000000000E+20
 15
-1.0000000000E+20
 25
-1.0000000000E+20
 35
-1.0000000000E+20
146
0.0
 13
0.0
 23
0.0
 33
0.0
 16
1.0
 26
0.0
 36
0.0
 17
0.0
 27
1.0
 37
0.0
 76
     0
330
1B
  0
LAYOUT
  5
26
102
{ACAD_REACTORS
330
1A
102
}
330
1A
100
AcDbPlotSettings
  1

  2
none_device
  4

  6

 40
0.0
 41
0.0
 42
0.0
 43
0.0
 44
0.0
 45
0.0
 46
0.0
 47
0.0
 48
0.0
 49
0.0
140
0.0
141
0.0
142
1.0
143
1.0
 70
   688
 72
     0
 73
     0
 74
     5
  7

 75
    16
147
1.0
148
0.0
149
0.0
100
AcDbLayout
  1
Layout2
 70
     1
 71
     2
 10
0.0
 20
0.0
 11
0.0
 21
0.0
 12
0.0
 22
0.0
 32
0.0
 14
0.0
 24
0.0
 34
0.0
 15
0.0
 25
0.0
 35
0.0
146
0.0
 13
0.0
 23
0.0
 33
0.0
 16
1.0
 26
0.0
 36
0.0
 17
0.0
 27
1.0
 37
0.0
 76
     0
330
23
  0
LAYOUT
  5
22
102
{ACAD_REACTORS
330
1A
102
}
330
1A
100
AcDbPlotSettings
  1

  2
none_device
  4
Letter_(8.50_x_11.00_Inches)
  6

 40
6.35
 41
6.35
 42
6.35000508
 43
6.35000508
 44
215.9
 45
279.4
 46
0.0
 47
0.0
 48
0.0
 49
0.0
140
0.0
141
0.0
142
1.0
143
1.0
 70
  1712
 72
     0
 73
     0
 74
     0
  7

 75
     0
147
1.0
148
0.0
149
0.0
100
AcDbLayout
  1
Model
 70
     1
 71
     0
 10
0.0
 20
0.0
 11
22.0
 21
17.0
 12
0.0
 22
0.0
 32
0.0
 14
0.0
 24
0.0
 34
0.0
 15
22.0
 25
17.0
 35
0.0
146
0.0
 13
0.0
 23
0.0
 33
0.0
 16
1.0
 26
0.0
 36
0.0
 17
0.0
 27
1.0
 37
0.0
 76
     0
330
1F
331
29
  0
MLINESTYLE
  5
18
102
{ACAD_REACTORS
330
17
102
}
330
17
100
AcDbMlineStyle
  2
Standard
 70
     0
  3

 62
   256
 51
90.0
 52
90.0
 71
     2
 49
0.5
 62
   256
  6
BYLAYER
 49
-0.5
 62
   256
  6
BYLAYER
  0
ACDBPLACEHOLDER
  5
F
102
{ACAD_REACTORS
330
E
102
}
330
E
  0
SCALE
  5
48
102
{ACAD_REACTORS
330
47
102
}
330
47
100
AcDbScale
 70
     0
300
1:1
140
1.0
141
1.0
290
     1
  0
SCALE
  5
49
102
{ACAD_REACTORS
330
47
102
}
330
47
100
AcDbScale
 70
     0
300
1/128" = 1'-0"
140
0.0078125
141
12.0
290
     0
  0
SCALE
  5
4A
102
{ACAD_REACTORS
330
47
102
}
330
47
100
AcDbScale
 70
     0
300
1/64" = 1'-0"
140
0.015625
141
12.0
290
     0
  0
SCALE
  5
4B
102
{ACAD_REACTORS
330
47
102
}
330
47
100
AcDbScale
 70
     0
300
1/32" = 1'-0"
140
0.03125
141
12.0
290
     0
  0
SCALE
  5
4C
102
{ACAD_REACTORS
330
47
102
}
330
47
100
AcDbScale
 70
     0
300
1/16" = 1'-0"
140
0.0625
141
12.0
290
     0
  0
SCALE
  5
4D
102
{ACAD_REACTORS
330
47
102
}
330
47
100
AcDbScale
 70
     0
300
3/32" = 1'-0"
140
0.09375
141
12.0
290
     0
  0
SCALE
  5
4E
102
{ACAD_REACTORS
330
47
102
}
330
47
100
AcDbScale
 70
     0
300
1/8" = 1'-0"
140
0.125
141
12.0
290
     0
  0
SCALE
  5
4F
102
{ACAD_REACTORS
330
47
102
}
330
47
100
AcDbScale
 70
     0
300
3/16" = 1'-0"
140
0.1875
141
12.0
290
     0
  0
SCALE
  5
50
102
{ACAD_REACTORS
330
47
102
}
330
47
100
AcDbScale
 70
     0
300
1/4" = 1'-0"
140
0.25
141
12.0
290
     0
  0
SCALE
  5
51
102
{ACAD_REACTORS
330
47
102
}
330
47
100
AcDbScale
 70
     0
300
3/8" = 1'-0"
140
0.375
141
12.0
290
     0
  0
SCALE
  5
52
102
{ACAD_REACTORS
330
47
102
}
330
47
100
AcDbScale
 70
     0
300
1/2" = 1'-0"
140
0.5
141
12.0
290
     0
  0
SCALE
  5
53
102
{ACAD_REACTORS
330
47
102
}
330
47
100
AcDbScale
 70
     0
300
3/4" = 1'-0"
140
0.75
141
12.0
290
     0
  0
SCALE
  5
54
102
{ACAD_REACTORS
330
47
102
}
330
47
100
AcDbScale
 70
     0
300
1" = 1'-0"
140
1.0
141
12.0
290
     0
  0
SCALE
  5
55
102
{ACAD_REACTORS
330
47
102
}
330
47
100
AcDbScale
 70
     0
300
1-1/2" = 1'-0"
140
1.5
141
12.0
290
     0
  0
SCALE
  5
56
102
{ACAD_REACTORS
330
47
102
}
330
47
100
AcDbScale
 70
     0
300
3" = 1'-0"
140
3.0
141
12.0
290
     0
  0
SCALE
  5
57
102
{ACAD_REACTORS
330
47
102
}
330
47
100
AcDbScale
 70
     0
300
6" = 1'-0"
140
6.0
141
12.0
290
     0
  0
SCALE
  5
58
102
{ACAD_REACTORS
330
47
102
}
330
47
100
AcDbScale
 70
     0
300
1'-0" = 1'-0"
140
12.0
141
12.0
290
     0
  0
ENDSEC
  0
EOF
