  0
SECTION
  2
HEADER
  9
$ACADVER
  1
AC1015
  9
$ACADMAINTVER
 70
     6
  9
$DWGCODEPAGE
  3
ANSI_1252
  9
$INSBASE
 10
0.0
 20
0.0
 30
0.0
  9
$EXTMIN
 10
0.0
 20
0.0
 30
0.0
  9
$EXTMAX
 10
22.0
 20
17.0
 30
0.0
  9
$LIMMIN
 10
0.0
 20
0.0
  9
$LIMMAX
 10
22.0
 20
17.0
  9
$ORTHOMODE
 70
     0
  9
$REGENMODE
 70
     1
  9
$FILLMODE
 70
     1
  9
$QTEXTMODE
 70
     0
  9
$MIRRTEXT
 70
     1
  9
$LTSCALE
 40
2.0
  9
$ATTMODE
 70
     1
  9
$TEXTSIZE
 40
0.25
  9
$TRACEWID
 40
0.05
  9
$TEXTSTYLE
  7
Standard
  9
$CLAYER
  8
0
  9
$CELTYPE
  6
ByLayer
  9
$CECOLOR
 62
   256
  9
$CELTSCALE
 40
1.0
  9
$DISPSILH
 70
     0
  9
$DIMSCALE
 40
1.0
  9
$DIMASZ
 40
0.26
  9
$DIMEXO
 40
0.1
  9
$DIMDLI
 40
0.38
  9
$DIMRND
 40
0.0
  9
$DIMDLE
 40
0.0
  9
$DIMEXE
 40
0.25
  9
$DIMTP
 40
0.0
  9
$DIMTM
 40
0.0
  9
$DIMTXT
 40
0.25
  9
$DIMCEN
 40
0.09
  9
$DIMTSZ
 40
0.0
  9
$DIMTOL
 70
     0
  9
$DIMLIM
 70
     0
  9
$DIMTIH
 70
     1
  9
$DIMTOH
 70
     1
  9
$DIMSE1
 70
     0
  9
$DIMSE2
 70
     0
  9
$DIMTAD
 70
     0
  9
$DIMZIN
 70
     1
  9
$DIMBLK
  1

  9
$DIMASO
 70
     1
  9
$DIMSHO
 70
     1
  9
$DIMPOST
  1

  9
$DIMAPOST
  1

  9
$DIMALT
 70
     0
  9
$DIMALTD
 70
     2
  9
$DIMALTF
 40
25.4
  9
$DIMLFAC
 40
1.0
  9
$DIMTOFL
 70
     0
  9
$DIMTVP
 40
0.0
  9
$DIMTIX
 70
     0
  9
$DIMSOXD
 70
     0
  9
$DIMSAH
 70
     0
  9
$DIMBLK1
  1

  9
$DIMBLK2
  1

  9
$DIMSTYLE
  2
Standard
  9
$DIMCLRD
 70
     0
  9
$DIMCLRE
 70
     0
  9
$DIMCLRT
 70
     0
  9
$DIMTFAC
 40
1.0
  9
$DIMGAP
 40
0.12
  9
$DIMJUST
 70
     0
  9
$DIMSD1
 70
     0
  9
$DIMSD2
 70
     0
  9
$DIMTOLJ
 70
     1
  9
$DIMTZIN
 70
     1
  9
$DIMALTZ
 70
     0
  9
$DIMALTTZ
 70
     0
  9
$DIMUPT
 70
     0
  9
$DIMDEC
 70
     0
  9
$DIMTDEC
 70
     0
  9
$DIMALTU
 70
     2
  9
$DIMALTTD
 70
     2
  9
$DIMTXSTY
  7
Standard
  9
$DIMAUNIT
 70
     0
  9
$DIMADEC
 70
     0
  9
$DIMALTRND
 40
0.0
  9
$DIMAZIN
 70
     0
  9
$DIMDSEP
 70
    46
  9
$DIMATFIT
 70
     3
  9
$DIMFRAC
 70
     0
  9
$DIMLDRBLK
  1

  9
$DIMLUNIT
 70
     2
  9
$DIMLWD
 70
    -2
  9
$DIMLWE
 70
    -2
  9
$DIMTMOVE
 70
     0
  9
$LUNITS
 70
     2
  9
$LUPREC
 70
     6
  9
$SKETCHINC
 40
0.1
  9
$FILLETRAD
 40
0.0
  9
$AUNITS
 70
     0
  9
$AUPREC
 70
     2
  9
$MENU
  1
.
  9
$ELEVATION
 40
0.0
  9
$PELEVATION
 40
0.0
  9
$THICKNESS
 40
0.0
  9
$LIMCHECK
 70
     0
  9
$CHAMFERA
 40
0.0
  9
$CHAMFERB
 40
0.0
  9
$CHAMFERC
 40
0.0
  9
$CHAMFERD
 40
0.0
  9
$SKPOLY
 70
     0
  9
$TDCREATE
 40
2460888.57253272
  9
$TDUCREATE
 40
2460888.864199387
  9
$TDUPDATE
 40
2460888.57253316
  9
$TDUUPDATE
 40
2460888.864199827
  9
$TDINDWG
 40
0.0000000116
  9
$TDUSRTIMER
 40
0.0000000116
  9
$USRTIMER
 70
     1
  9
$ANGBASE
 50
0.0
  9
$ANGDIR
 70
     0
  9
$PDMODE
 70
     0
  9
$PDSIZE
 40
-1.0
  9
$PLINEWID
 40
0.0
  9
$SPLFRAME
 70
     0
  9
$SPLINETYPE
 70
     6
  9
$SPLINESEGS
 70
     8
  9
$HANDSEED
  5
2E2
  9
$SURFTAB1
 70
     6
  9
$SURFTAB2
 70
     6
  9
$SURFTYPE
 70
     6
  9
$SURFU
 70
     6
  9
$SURFV
 70
     6
  9
$UCSBASE
  2

  9
$UCSNAME
  2

  9
$UCSORG
 10
0.0
 20
0.0
 30
0.0
  9
$UCSXDIR
 10
1.0
 20
0.0
 30
0.0
  9
$UCSYDIR
 10
0.0
 20
1.0
 30
0.0
  9
$UCSORTHOREF
  2

  9
$UCSORTHOVIEW
 70
     0
  9
$UCSORGTOP
 10
0.0
 20
0.0
 30
0.0
  9
$UCSORGBOTTOM
 10
0.0
 20
0.0
 30
0.0
  9
$UCSORGLEFT
 10
0.0
 20
0.0
 30
0.0
  9
$UCSORGRIGHT
 10
0.0
 20
0.0
 30
0.0
  9
$UCSORGFRONT
 10
0.0
 20
0.0
 30
0.0
  9
$UCSORGBACK
 10
0.0
 20
0.0
 30
0.0
  9
$PUCSBASE
  2

  9
$PUCSNAME
  2

  9
$PUCSORG
 10
0.0
 20
0.0
 30
0.0
  9
$PUCSXDIR
 10
1.0
 20
0.0
 30
0.0
  9
$PUCSYDIR
 10
0.0
 20
1.0
 30
0.0
  9
$PUCSORTHOREF
  2

  9
$PUCSORTHOVIEW
 70
     0
  9
$PUCSORGTOP
 10
0.0
 20
0.0
 30
0.0
  9
$PUCSORGBOTTOM
 10
0.0
 20
0.0
 30
0.0
  9
$PUCSORGLEFT
 10
0.0
 20
0.0
 30
0.0
  9
$PUCSORGRIGHT
 10
0.0
 20
0.0
 30
0.0
  9
$PUCSORGFRONT
 10
0.0
 20
0.0
 30
0.0
  9
$PUCSORGBACK
 10
0.0
 20
0.0
 30
0.0
  9
$USERI1
 70
     0
  9
$USERI2
 70
     0
  9
$USERI3
 70
     0
  9
$USERI4
 70
     0
  9
$USERI5
 70
     0
  9
$USERR1
 40
0.0
  9
$USERR2
 40
0.0
  9
$USERR3
 40
0.0
  9
$USERR4
 40
0.0
  9
$USERR5
 40
0.0
  9
$WORLDVIEW
 70
     1
  9
$SHADEDGE
 70
     3
  9
$SHADEDIF
 70
    70
  9
$TILEMODE
 70
     1
  9
$MAXACTVP
 70
    64
  9
$PINSBASE
 10
0.0
 20
0.0
 30
0.0
  9
$PLIMCHECK
 70
     0
  9
$PEXTMIN
 10
1.0000000000E+20
 20
1.0000000000E+20
 30
1.0000000000E+20
  9
$PEXTMAX
 10
-1.0000000000E+20
 20
-1.0000000000E+20
 30
-1.0000000000E+20
  9
$PLIMMIN
 10
0.0
 20
0.0
  9
$PLIMMAX
 10
12.0
 20
9.0
  9
$UNITMODE
 70
     0
  9
$VISRETAIN
 70
     1
  9
$PLINEGEN
 70
     0
  9
$PSLTSCALE
 70
     1
  9
$TREEDEPTH
 70
  3020
  9
$CMLSTYLE
  2
Standard
  9
$CMLJUST
 70
     0
  9
$CMLSCALE
 40
1.0
  9
$PROXYGRAPHICS
 70
     1
  9
$MEASUREMENT
 70
     0
  9
$CELWEIGHT
370
    -1
  9
$ENDCAPS
280
     0
  9
$JOINSTYLE
280
     0
  9
$LWDISPLAY
290
     1
  9
$INSUNITS
 70
     1
  9
$HYPERLINKBASE
  1

  9
$STYLESHEET
  1

  9
$XEDIT
290
     1
  9
$CEPSNTYPE
380
     0
  9
$PSTYLEMODE
290
     1
  9
$FINGERPRINTGUID
  2
{1cbf6eaf-9781-4794-bc4f-a6dc62465ff7}
  9
$VERSIONGUID
  2
{FAEB1C32-E019-11D5-929B-00C0DF256EC4}
  9
$EXTNAMES
290
     1
  9
$PSVPSCALE
 40
0.0
  9
$OLESTARTUP
290
     0
  0
ENDSEC
  0
SECTION
  2
CLASSES
  0
CLASS
  1
ACDBDICTIONARYWDFLT
  2
AcDbDictionaryWithDefault
  3
ObjectDBX Classes
 90
        0
280
     0
281
     0
  0
CLASS
  1
VISUALSTYLE
  2
AcDbVisualStyle
  3
ObjectDBX Classes
 90
     4095
280
     0
281
     0
  0
CLASS
  1
MATERIAL
  2
AcDbMaterial
  3
ObjectDBX Classes
 90
     1153
280
     0
281
     0
  0
CLASS
  1
SCALE
  2
AcDbScale
  3
ObjectDBX Classes
 90
     1153
280
     0
281
     0
  0
CLASS
  1
TABLESTYLE
  2
AcDbTableStyle
  3
ObjectDBX Classes
 90
     4095
280
     0
281
     0
  0
CLASS
  1
MLEADERSTYLE
  2
AcDbMLeaderStyle
  3
ACDB_MLEADERSTYLE_CLASS
 90
     4095
280
     0
281
     0
  0
CLASS
  1
SUN
  2
AcDbSun
  3
SCENEOE
 90
     1153
280
     0
281
     0
  0
CLASS
  1
ACDBPLACEHOLDER
  2
AcDbPlaceHolder
  3
ObjectDBX Classes
 90
        0
280
     0
281
     0
  0
CLASS
  1
LAYOUT
  2
AcDbLayout
  3
ObjectDBX Classes
 90
        0
280
     0
281
     0
  0
ENDSEC
  0
SECTION
  2
TABLES
  0
TABLE
  2
VPORT
  5
8
330
0
100
AcDbSymbolTable
 70
     1
  0
VPORT
  5
29
330
8
100
AcDbSymbolTableRecord
100
AcDbViewportTableRecord
  2
*Active
 70
     0
 10
0.0
 20
0.0
 11
1.0
 21
1.0
 12
11.0
 22
8.5
 13
0.0
 23
0.0
 14
0.5
 24
0.5
 15
0.5
 25
0.5
 16
0.0
 26
0.0
 36
1.0
 17
0.0
 27
0.0
 37
0.0
 40
17.0
 41
1.2941176471
 42
50.0
 43
0.0
 44
0.0
 50
0.0
 51
0.0
 71
     0
 72
  2000
 73
     1
 74
     3
 75
     0
 76
     0
 77
     0
 78
     0
281
     0
 65
     1
110
0.0
120
0.0
130
0.0
111
1.0
121
0.0
131
0.0
112
0.0
122
1.0
132
0.0
 79
     0
146
0.0
  0
ENDTAB
  0
TABLE
  2
LTYPE
  5
5
330
0
100
AcDbSymbolTable
 70
     6
  0
LTYPE
  5
14
330
5
100
AcDbSymbolTableRecord
100
AcDbLinetypeTableRecord
  2
ByBlock
 70
     0
  3

 72
    65
 73
     0
 40
0.0
  0
LTYPE
  5
15
330
5
100
AcDbSymbolTableRecord
100
AcDbLinetypeTableRecord
  2
ByLayer
 70
     0
  3

 72
    65
 73
     0
 40
0.0
  0
LTYPE
  5
16
330
5
100
AcDbSymbolTableRecord
100
AcDbLinetypeTableRecord
  2
Continuous
 70
     0
  3
Solid line
 72
    65
 73
     0
 40
0.0
  0
LTYPE
  5
5E
330
5
100
AcDbSymbolTableRecord
100
AcDbLinetypeTableRecord
  2
HIDDEN
 70
     0
  3
Hidden __ __ __ __ __ __ __ __ __ __ __ __ __ __
 72
    65
 73
     2
 40
0.075
 49
0.05
 74
     0
 49
-0.025
 74
     0
  0
LTYPE
  5
5F
330
5
100
AcDbSymbolTableRecord
100
AcDbLinetypeTableRecord
  2
PHANTOM
 70
     0
  3
Phantom ______  __  __  ______  __  __  ______
 72
    65
 73
     6
 40
0.5
 49
0.25
 74
     0
 49
-0.05
 74
     0
 49
0.05
 74
     0
 49
-0.05
 74
     0
 49
0.05
 74
     0
 49
-0.05
 74
     0
  0
LTYPE
  5
60
330
5
100
AcDbSymbolTableRecord
100
AcDbLinetypeTableRecord
  2
CENTER
 70
     0
  3
Center ____ _ ____ _ ____ _ ____ _ ____ _ ____
 72
    65
 73
     4
 40
0.4
 49
0.25
 74
     0
 49
-0.05
 74
     0
 49
0.05
 74
     0
 49
-0.05
 74
     0
  0
LTYPE
  5
61
330
5
100
AcDbSymbolTableRecord
100
AcDbLinetypeTableRecord
  2
CENTERX2
 70
     0
  3
Center (2x) ________  __  ________  __  _____
 72
    65
 73
     4
 40
0.8
 49
0.5
 74
     0
 49
-0.1
 74
     0
 49
0.1
 74
     0
 49
-0.1
 74
     0
  0
LTYPE
  5
62
330
5
100
AcDbSymbolTableRecord
100
AcDbLinetypeTableRecord
  2
DOT2
 70
     0
  3
Dot (.5x) ........................................
 72
    65
 73
     2
 40
0.025
 49
0.0
 74
     0
 49
-0.025
 74
     0
  0
ENDTAB
  0
TABLE
  2
LAYER
  5
2
330
0
100
AcDbSymbolTable
 70
    11
  0
LAYER
  5
10
330
2
100
AcDbSymbolTableRecord
100
AcDbLayerTableRecord
  2
0
 70
     0
 62
     7
  6
Continuous
370
    -3
390
F
  0
LAYER
  5
63
330
2
100
AcDbSymbolTableRecord
100
AcDbLayerTableRecord
  2
SLD-0
 70
     0
 62
     7
  6
Continuous
370
    -3
390
F
  0
LAYER
  5
64
330
2
100
AcDbSymbolTableRecord
100
AcDbLayerTableRecord
  2
DIM
 70
     0
 62
     7
  6
Continuous
370
    -3
390
F
  0
LAYER
  5
65
330
2
100
AcDbSymbolTableRecord
100
AcDbLayerTableRecord
  2
CEN
 70
     0
 62
     1
  6
CENTER
370
    -3
390
F
  0
LAYER
  5
66
330
2
100
AcDbSymbolTableRecord
100
AcDbLayerTableRecord
  2
HAT
 70
     0
 62
     4
  6
Continuous
370
    -3
390
F
  0
LAYER
  5
67
330
2
100
AcDbSymbolTableRecord
100
AcDbLayerTableRecord
  2
OBJ
 70
     0
 62
     5
  6
Continuous
370
    -3
390
F
  0
LAYER
  5
68
330
2
100
AcDbSymbolTableRecord
100
AcDbLayerTableRecord
  2
SLD-DEFPOINTS
 70
     0
 62
     7
  6
Continuous
370
    -3
390
F
  0
LAYER
  5
69
330
2
100
AcDbSymbolTableRecord
100
AcDbLayerTableRecord
  2
HID
 70
     0
 62
     4
  6
HIDDEN
370
    -3
390
F
  0
LAYER
  5
6A
330
2
100
AcDbSymbolTableRecord
100
AcDbLayerTableRecord
  2
NOTE
 70
     0
 62
     7
  6
Continuous
370
    -3
390
F
  0
LAYER
  5
6B
330
2
100
AcDbSymbolTableRecord
100
AcDbLayerTableRecord
  2
TITLE
 70
     0
 62
     7
  6
Continuous
370
    -3
390
F
  0
LAYER
  5
6C
330
2
100
AcDbSymbolTableRecord
100
AcDbLayerTableRecord
  2
THICK_TITLE
 70
     0
 62
     7
  6
Continuous
370
   100
390
F
  0
ENDTAB
  0
TABLE
  2
STYLE
  5
3
330
0
100
AcDbSymbolTable
 70
     3
  0
STYLE
  5
11
330
3
100
AcDbSymbolTableRecord
100
AcDbTextStyleTableRecord
  2
Standard
 70
     0
 40
0.0
 41
1.0
 50
0.0
 71
     0
 42
0.25
  3
txt
  4

  0
STYLE
  5
6D
330
3
100
AcDbSymbolTableRecord
100
AcDbTextStyleTableRecord
  2
SLDTEXTSTYLE0
 70
     0
 40
0.0
 41
0.75
 50
0.0
 71
     0
 42
0.25
  3
TXT
  4

  0
STYLE
  5
296
330
3
100
AcDbSymbolTableRecord
100
AcDbTextStyleTableRecord
  2
SLDTEXTSTYLE1
 70
     0
 40
0.0
 41
0.7
 50
0.0
 71
     0
 42
0.25
  3
TXT
  4

  0
ENDTAB
  0
TABLE
  2
VIEW
  5
6
330
0
100
AcDbSymbolTable
 70
     0
  0
ENDTAB
  0
TABLE
  2
UCS
  5
7
330
0
100
AcDbSymbolTable
 70
     0
  0
ENDTAB
  0
TABLE
  2
APPID
  5
9
330
0
100
AcDbSymbolTable
 70
     1
  0
APPID
  5
12
330
9
100
AcDbSymbolTableRecord
100
AcDbRegAppTableRecord
  2
ACAD
 70
     0
  0
ENDTAB
  0
TABLE
  2
DIMSTYLE
  5
A
330
0
100
AcDbSymbolTable
 70
     6
100
AcDbDimStyleTable
  0
DIMSTYLE
105
27
330
A
100
AcDbSymbolTableRecord
100
AcDbDimStyleTableRecord
  2
Standard
 70
     0
178
     0
340
11
  0
DIMSTYLE
105
18F
102
{ACAD_REACTORS
330
18E
330
262
102
}
330
A
100
AcDbSymbolTableRecord
100
AcDbDimStyleTableRecord
  2
SLDDIMSTYLE0
 70
     0
 41
0.26
 44
0.0
 45
0.000000001
 78
    12
 79
     3
140
0.25
147
0.0625
148
0.000000001
170
     1
173
     1
178
     0
271
     6
272
     0
276
     2
277
     5
284
    12
340
6D
  0
DIMSTYLE
105
1A4
102
{ACAD_REACTORS
330
1A3
102
}
330
A
100
AcDbSymbolTableRecord
100
AcDbDimStyleTableRecord
  2
SLDDIMSTYLE1
 70
     0
 41
0.26
 44
0.0
 45
0.000000001
 78
    12
 79
     3
140
0.25
147
0.0625
148
0.000000001
170
     1
172
     1
173
     1
178
     0
271
     6
272
     0
276
     2
277
     5
284
    12
289
     0
340
6D
  0
DIMSTYLE
105
1BA
330
A
100
AcDbSymbolTableRecord
100
AcDbDimStyleTableRecord
  2
SLDDIMSTYLE2
 70
     0
 41
0.26
 44
0.0
 45
0.000000001
146
0.26
147
0.0
173
     1
178
     0
271
     0
272
     0
276
     2
277
     5
340
11
  0
DIMSTYLE
105
276
102
{ACAD_REACTORS
330
275
102
}
330
A
100
AcDbSymbolTableRecord
100
AcDbDimStyleTableRecord
  2
SLDDIMSTYLE3
 70
     0
 41
0.26
 44
0.0
 45
0.000000001
 78
    12
 79
     3
140
0.25
141
0.0
147
0.0625
148
0.000000001
170
     1
173
     1
178
     0
271
     0
272
     0
276
     2
277
     5
284
    12
340
6D
  0
DIMSTYLE
105
288
102
{ACAD_REACTORS
330
287
330
2CC
330
2D6
102
}
330
A
100
AcDbSymbolTableRecord
100
AcDbDimStyleTableRecord
  2
SLDDIMSTYLE4
 70
     0
 41
0.26
 44
0.0
 78
    12
 79
     3
140
0.25
144
2.0
147
0.0625
148
0.000000001
170
     1
173
     1
178
     0
179
     2
272
     2
276
     2
277
     5
284
    12
340
6D
  0
ENDTAB
  0
TABLE
  2
BLOCK_RECORD
  5
1
330
0
100
AcDbSymbolTable
 70
     9
  0
BLOCK_RECORD
  5
1F
330
1
100
AcDbSymbolTableRecord
100
AcDbBlockTableRecord
  2
*Model_Space
340
22
  0
BLOCK_RECORD
  5
1B
330
1
100
AcDbSymbolTableRecord
100
AcDbBlockTableRecord
  2
*Paper_Space
340
1E
  0
BLOCK_RECORD
  5
23
330
1
100
AcDbSymbolTableRecord
100
AcDbBlockTableRecord
  2
*Paper_Space0
340
26
  0
BLOCK_RECORD
  5
190
330
1
100
AcDbSymbolTableRecord
100
AcDbBlockTableRecord
  2
_D
340
0
  0
BLOCK_RECORD
  5
1A5
330
1
100
AcDbSymbolTableRecord
100
AcDbBlockTableRecord
  2
_D_1
340
0
  0
BLOCK_RECORD
  5
263
330
1
100
AcDbSymbolTableRecord
100
AcDbBlockTableRecord
  2
_D_2
340
0
  0
BLOCK_RECORD
  5
277
330
1
100
AcDbSymbolTableRecord
100
AcDbBlockTableRecord
  2
_D_3
340
0
  0
BLOCK_RECORD
  5
289
330
1
100
AcDbSymbolTableRecord
100
AcDbBlockTableRecord
  2
_D_4
340
0
  0
BLOCK_RECORD
  5
29A
330
1
100
AcDbSymbolTableRecord
100
AcDbBlockTableRecord
  2
SW_CENTERMARKSYMBOL_7
340
0
102
{BLKREFS
331
2B3
102
}
  0
BLOCK_RECORD
  5
2CD
330
1
100
AcDbSymbolTableRecord
100
AcDbBlockTableRecord
  2
_D_5
340
0
  0
BLOCK_RECORD
  5
2D7
330
1
100
AcDbSymbolTableRecord
100
AcDbBlockTableRecord
  2
_D_6
340
0
  0
ENDTAB
  0
ENDSEC
  0
SECTION
  2
BLOCKS
  0
BLOCK
  5
20
330
1F
100
AcDbEntity
  8
0
100
AcDbBlockBegin
  2
*Model_Space
 70
     0
 10
0.0
 20
0.0
 30
0.0
  3
*Model_Space
  1

  0
ENDBLK
  5
21
330
1F
100
AcDbEntity
  8
0
100
AcDbBlockEnd
  0
BLOCK
  5
1C
330
1B
100
AcDbEntity
 67
     1
  8
0
100
AcDbBlockBegin
  2
*Paper_Space
 70
     0
 10
0.0
 20
0.0
 30
0.0
  3
*Paper_Space
  1

  0
ENDBLK
  5
1D
330
1B
100
AcDbEntity
 67
     1
  8
0
100
AcDbBlockEnd
  0
BLOCK
  5
24
330
23
100
AcDbEntity
  8
0
100
AcDbBlockBegin
  2
*Paper_Space0
 70
     0
 10
0.0
 20
0.0
 30
0.0
  3
*Paper_Space0
  1

  0
ENDBLK
  5
25
330
23
100
AcDbEntity
  8
0
100
AcDbBlockEnd
  0
BLOCK
  5
191
330
190
100
AcDbEntity
  8
0
100
AcDbBlockBegin
  2
_D
 70
     0
 10
0.0
 20
0.0
 30
0.0
  3
_D
  1

  0
SOLID
  5
193
330
190
100
AcDbEntity
  8
0
  6
Continuous
 62
     7
370
    18
100
AcDbTrace
 10
2.6760101546
 20
9.6633131582
 30
0.0
 11
2.9360101546
 21
9.6233131582
 31
0.0
 12
2.9360101546
 22
9.7033131582
 32
0.0
 13
2.9360101546
 23
9.7033131582
 33
0.0
  0
SOLID
  5
194
330
190
100
AcDbEntity
  8
0
  6
Continuous
 62
     7
370
    18
100
AcDbTrace
 10
3.7710101546
 20
9.6633131582
 30
0.0
 11
3.5110101546
 21
9.7033131582
 31
0.0
 12
3.5110101546
 22
9.6233131582
 32
0.0
 13
3.5110101546
 23
9.6233131582
 33
0.0
  0
LINE
  5
195
330
190
100
AcDbEntity
  8
0
  6
Continuous
 62
     7
370
     0
100
AcDbLine
 10
4.5336304783
 20
9.6614033969
 30
0.0
 11
4.457458604
 21
9.6614033969
 31
0.0
  0
LINE
  5
196
330
190
100
AcDbEntity
  8
0
  6
Continuous
 62
     7
370
     0
100
AcDbLine
 10
4.457458604
 20
9.6614033969
 30
0.0
 11
4.457458604
 21
9.264528385
 31
0.0
  0
LINE
  5
197
330
190
100
AcDbEntity
  8
0
  6
Continuous
 62
     7
370
     0
100
AcDbLine
 10
4.457458604
 20
9.264528385
 30
0.0
 11
4.5336304783
 21
9.264528385
 31
0.0
  0
LINE
  5
198
330
190
100
AcDbEntity
  8
0
  6
Continuous
 62
     7
370
     0
100
AcDbLine
 10
5.5280749437
 20
9.6614033969
 30
0.0
 11
5.6042468179
 21
9.6614033969
 31
0.0
  0
LINE
  5
199
330
190
100
AcDbEntity
  8
0
  6
Continuous
 62
     7
370
     0
100
AcDbLine
 10
5.6042468179
 20
9.6614033969
 30
0.0
 11
5.6042468179
 21
9.264528385
 31
0.0
  0
LINE
  5
19A
330
190
100
AcDbEntity
  8
0
  6
Continuous
 62
     7
370
     0
100
AcDbLine
 10
5.6042468179
 20
9.264528385
 30
0.0
 11
5.5280749437
 21
9.264528385
 31
0.0
  0
LINE
  5
19B
330
190
100
AcDbEntity
  8
0
  6
Continuous
 62
     7
370
     0
100
AcDbLine
 10
2.6760101546
 20
9.2529054957
 30
0.0
 11
2.6760101546
 21
9.9133131582
 31
0.0
  0
LINE
  5
19C
330
190
100
AcDbEntity
  8
0
  6
Continuous
 62
     7
370
     0
100
AcDbLine
 10
3.7710101546
 20
7.6242417644
 30
0.0
 11
3.7710101546
 21
9.9133131582
 31
0.0
  0
LINE
  5
19D
330
190
100
AcDbEntity
  8
0
  6
Continuous
 62
     7
370
     0
100
AcDbLine
 10
2.6760101546
 20
9.6633131582
 30
0.0
 11
3.7710101546
 21
9.6633131582
 31
0.0
  0
LINE
  5
19E
330
190
100
AcDbEntity
  8
0
  6
Continuous
 62
     7
370
     0
100
AcDbLine
 10
3.7710101546
 20
9.6633131582
 30
0.0
 11
4.2389698492
 21
9.6633131582
 31
0.0
  0
MTEXT
  5
19F
330
190
100
AcDbEntity
  8
0
  6
Continuous
 62
     7
370
    18
100
AcDbMText
 10
4.3826756184
 20
10.0382710519
 30
0.0
 40
0.25
 41
0.0
 71
     1
 72
     1
  1

  7
SLDTEXTSTYLE0
 73
     1
 44
1.0
  0
MTEXT
  5
1A0
330
190
100
AcDbEntity
  8
0
  6
Continuous
 62
     7
370
    18
100
AcDbMText
 10
4.5831096483
 20
10.034451589
 30
0.0
 40
0.25
 41
0.0
 71
     1
 72
     1
  1
1 1/8"
  7
SLDTEXTSTYLE0
 73
     1
 44
1.0
  0
MTEXT
  5
1A1
330
190
100
AcDbEntity
  8
0
  6
Continuous
 62
     7
370
    18
100
AcDbMText
 10
4.5336304783
 20
9.5867953474
 30
0.0
 40
0.25
 41
0.0
 71
     1
 72
     1
  1
28mm
  7
SLDTEXTSTYLE0
 73
     1
 44
1.0
  0
MTEXT
  5
1A2
330
190
100
AcDbEntity
  8
0
  6
Continuous
 62
     7
370
    18
100
AcDbMText
 10
5.7741686371
 20
10.0382710519
 30
0.0
 40
0.25
 41
0.0
 71
     1
 72
     1
  1

  7
SLDTEXTSTYLE0
 73
     1
 44
1.0
  0
ENDBLK
  5
192
330
190
100
AcDbEntity
  8
0
100
AcDbBlockEnd
  0
BLOCK
  5
1A6
330
1A5
100
AcDbEntity
  8
0
100
AcDbBlockBegin
  2
_D_1
 70
     0
 10
0.0
 20
0.0
 30
0.0
  3
_D_1
  1

  0
SOLID
  5
1A8
330
1A5
100
AcDbEntity
  8
0
  6
Continuous
 62
     7
370
    18
100
AcDbTrace
 10
2.6260101546
 20
4.5282763097
 30
0.0
 11
2.3660101546
 21
4.5682763097
 31
0.0
 12
2.3660101546
 22
4.4882763097
 32
0.0
 13
2.3660101546
 23
4.4882763097
 33
0.0
  0
SOLID
  5
1A9
330
1A5
100
AcDbEntity
  8
0
  6
Continuous
 62
     7
370
    18
100
AcDbTrace
 10
2.6760101546
 20
4.5282763097
 30
0.0
 11
2.9360101546
 21
4.4882763097
 31
0.0
 12
2.9360101546
 22
4.5682763097
 32
0.0
 13
2.9360101546
 23
4.5682763097
 33
0.0
  0
LINE
  5
1AA
330
1A5
100
AcDbEntity
  8
0
  6
Continuous
 62
     7
370
     0
100
AcDbLine
 10
1.216982346
 20
4.5263665484
 30
0.0
 11
1.1408104718
 21
4.5263665484
 31
0.0
  0
LINE
  5
1AB
330
1A5
100
AcDbEntity
  8
0
  6
Continuous
 62
     7
370
     0
100
AcDbLine
 10
1.1408104718
 20
4.5263665484
 30
0.0
 11
1.1408104718
 21
4.1294915365
 31
0.0
  0
LINE
  5
1AC
330
1A5
100
AcDbEntity
  8
0
  6
Continuous
 62
     7
370
     0
100
AcDbLine
 10
1.1408104718
 20
4.1294915365
 30
0.0
 11
1.216982346
 21
4.1294915365
 31
0.0
  0
LINE
  5
1AD
330
1A5
100
AcDbEntity
  8
0
  6
Continuous
 62
     7
370
     0
100
AcDbLine
 10
2.026704552
 20
4.5263665484
 30
0.0
 11
2.1028764262
 21
4.5263665484
 31
0.0
  0
LINE
  5
1AE
330
1A5
100
AcDbEntity
  8
0
  6
Continuous
 62
     7
370
     0
100
AcDbLine
 10
2.1028764262
 20
4.5263665484
 30
0.0
 11
2.1028764262
 21
4.1294915365
 31
0.0
  0
LINE
  5
1AF
330
1A5
100
AcDbEntity
  8
0
  6
Continuous
 62
     7
370
     0
100
AcDbLine
 10
2.1028764262
 20
4.1294915365
 30
0.0
 11
2.026704552
 21
4.1294915365
 31
0.0
  0
LINE
  5
1B0
330
1A5
100
AcDbEntity
  8
0
  6
Continuous
 62
     7
370
     0
100
AcDbLine
 10
2.6260101546
 20
4.7529054957
 30
0.0
 11
2.6260101546
 21
4.2782763097
 31
0.0
  0
LINE
  5
1B1
330
1A5
100
AcDbEntity
  8
0
  6
Continuous
 62
     7
370
     0
100
AcDbLine
 10
2.6760101546
 20
4.7529054957
 30
0.0
 11
2.6760101546
 21
4.2782763097
 31
0.0
  0
LINE
  5
1B2
330
1A5
100
AcDbEntity
  8
0
  6
Continuous
 62
     7
370
     0
100
AcDbLine
 10
2.6260101546
 20
4.5282763097
 30
0.0
 11
2.3213651811
 21
4.5282763097
 31
0.0
  0
LINE
  5
1B3
330
1A5
100
AcDbEntity
  8
0
  6
Continuous
 62
     7
370
     0
100
AcDbLine
 10
2.6760101546
 20
4.5282763097
 30
0.0
 11
3.1760101546
 21
4.5282763097
 31
0.0
  0
MTEXT
  5
1B4
330
1A5
100
AcDbEntity
  8
0
  6
Continuous
 62
     7
370
    18
100
AcDbMText
 10
1.0660274862
 20
4.9032342035
 30
0.0
 40
0.25
 41
0.0
 71
     1
 72
     1
  1

  7
SLDTEXTSTYLE0
 73
     1
 44
1.0
  0
MTEXT
  5
1B5
330
1A5
100
AcDbEntity
  8
0
  6
Continuous
 62
     7
370
    18
100
AcDbMText
 10
1.2202809329
 20
4.8994147405
 30
0.0
 40
0.25
 41
0.0
 71
     1
 72
     1
  1
1/16"
  7
SLDTEXTSTYLE0
 73
     1
 44
1.0
  0
MTEXT
  5
1B6
330
1A5
100
AcDbEntity
  8
0
  6
Continuous
 62
     7
370
    18
100
AcDbMText
 10
1.216982346
 20
4.4517584989
 30
0.0
 40
0.25
 41
0.0
 71
     1
 72
     1
  1
1mm
  7
SLDTEXTSTYLE0
 73
     1
 44
1.0
  0
MTEXT
  5
1B7
330
1A5
100
AcDbEntity
  8
0
  6
Continuous
 62
     7
370
    18
100
AcDbMText
 10
2.2727982455
 20
4.9032342035
 30
0.0
 40
0.25
 41
0.0
 71
     1
 72
     1
  1

  7
SLDTEXTSTYLE0
 73
     1
 44
1.0
  0
ENDBLK
  5
1A7
330
1A5
100
AcDbEntity
  8
0
100
AcDbBlockEnd
  0
BLOCK
  5
264
330
263
100
AcDbEntity
  8
0
100
AcDbBlockBegin
  2
_D_2
 70
     0
 10
0.0
 20
0.0
 30
0.0
  3
_D_2
  1

  0
SOLID
  5
266
330
263
100
AcDbEntity
  8
0
  6
Continuous
 62
     7
370
    18
100
AcDbTrace
 10
6.4257438017
 20
10.2079193114
 30
0.0
 11
6.6857438017
 21
10.1679193114
 31
0.0
 12
6.6857438017
 22
10.2479193114
 32
0.0
 13
6.6857438017
 23
10.2479193114
 33
0.0
  0
SOLID
  5
267
330
263
100
AcDbEntity
  8
0
  6
Continuous
 62
     7
370
    18
100
AcDbTrace
 10
10.7257438017
 20
10.2079193114
 30
0.0
 11
10.4657438017
 21
10.2479193114
 31
0.0
 12
10.4657438017
 22
10.1679193114
 32
0.0
 13
10.4657438017
 23
10.1679193114
 33
0.0
  0
LINE
  5
268
330
263
100
AcDbEntity
  8
0
  6
Continuous
 62
     7
370
     0
100
AcDbLine
 10
7.9861604942
 20
10.2079192747
 30
0.0
 11
7.90998862
 21
10.2079192747
 31
0.0
  0
LINE
  5
269
330
263
100
AcDbEntity
  8
0
  6
Continuous
 62
     7
370
     0
100
AcDbLine
 10
7.90998862
 20
10.2079192747
 30
0.0
 11
7.90998862
 21
9.8110442628
 31
0.0
  0
LINE
  5
26A
330
263
100
AcDbEntity
  8
0
  6
Continuous
 62
     7
370
     0
100
AcDbLine
 10
7.90998862
 20
9.8110442628
 30
0.0
 11
7.9861604942
 21
9.8110442628
 31
0.0
  0
LINE
  5
26B
330
263
100
AcDbEntity
  8
0
  6
Continuous
 62
     7
370
     0
100
AcDbLine
 10
9.1653271457
 20
10.2079192747
 30
0.0
 11
9.24149902
 21
10.2079192747
 31
0.0
  0
LINE
  5
26C
330
263
100
AcDbEntity
  8
0
  6
Continuous
 62
     7
370
     0
100
AcDbLine
 10
9.24149902
 20
10.2079192747
 30
0.0
 11
9.24149902
 21
9.8110442628
 31
0.0
  0
LINE
  5
26D
330
263
100
AcDbEntity
  8
0
  6
Continuous
 62
     7
370
     0
100
AcDbLine
 10
9.24149902
 20
9.8110442628
 30
0.0
 11
9.1653271457
 21
9.8110442628
 31
0.0
  0
LINE
  5
26E
330
263
100
AcDbEntity
  8
0
  6
Continuous
 62
     7
370
     0
100
AcDbLine
 10
6.4257438017
 20
7.1029054957
 30
0.0
 11
6.4257438017
 21
10.4579193114
 31
0.0
  0
LINE
  5
26F
330
263
100
AcDbEntity
  8
0
  6
Continuous
 62
     7
370
     0
100
AcDbLine
 10
10.7257438017
 20
7.1029054957
 30
0.0
 11
10.7257438017
 21
10.4579193114
 31
0.0
  0
LINE
  5
270
330
263
100
AcDbEntity
  8
0
  6
Continuous
 62
     7
370
     0
100
AcDbLine
 10
6.4257438017
 20
10.2079193114
 30
0.0
 11
7.7838609765
 21
10.2079193114
 31
0.0
  0
LINE
  5
271
330
263
100
AcDbEntity
  8
0
  6
Continuous
 62
     7
370
     0
100
AcDbLine
 10
10.7257438017
 20
10.2079193114
 30
0.0
 11
9.3676266268
 21
10.2079193114
 31
0.0
  0
MTEXT
  5
272
330
263
100
AcDbEntity
  8
0
  6
Continuous
 62
     7
370
    18
100
AcDbMText
 10
7.8471240254
 20
10.5809674851
 30
0.0
 40
0.25
 41
0.0
 71
     1
 72
     1
  1
%%c
  7
SLDTEXTSTYLE0
 73
     1
 44
1.0
  0
MTEXT
  5
273
330
263
100
AcDbEntity
  8
0
  6
Continuous
 62
     7
370
    18
100
AcDbMText
 10
8.2241552666
 20
10.5809674851
 30
0.0
 40
0.25
 41
0.0
 71
     1
 72
     1
  1
4 5/16"
  7
SLDTEXTSTYLE0
 73
     1
 44
1.0
  0
MTEXT
  5
274
330
263
100
AcDbEntity
  8
0
  6
Continuous
 62
     7
370
    18
100
AcDbMText
 10
7.9861604942
 20
10.1333112253
 30
0.0
 40
0.25
 41
0.0
 71
     1
 72
     1
  1
109mm
  7
SLDTEXTSTYLE0
 73
     1
 44
1.0
  0
ENDBLK
  5
265
330
263
100
AcDbEntity
  8
0
100
AcDbBlockEnd
  0
BLOCK
  5
278
330
277
100
AcDbEntity
  8
0
100
AcDbBlockBegin
  2
_D_3
 70
     0
 10
0.0
 20
0.0
 30
0.0
  3
_D_3
  1

  0
SOLID
  5
27A
330
277
100
AcDbEntity
  8
0
  6
Continuous
 62
     7
370
    18
100
AcDbTrace
 10
9.8131806687
 20
5.7654686286
 30
0.0
 11
9.9687441606
 21
5.5533365943
 31
0.0
 12
10.0253127031
 22
5.6099051368
 32
0.0
 13
10.0253127031
 23
5.6099051368
 33
0.0
  0
LINE
  5
27B
330
277
100
AcDbEntity
  8
0
  6
Continuous
 62
     7
370
     0
100
AcDbLine
 10
11.3947580365
 20
4.834325248
 30
0.0
 11
11.3185861623
 21
4.834325248
 31
0.0
  0
LINE
  5
27C
330
277
100
AcDbEntity
  8
0
  6
Continuous
 62
     7
370
     0
100
AcDbLine
 10
11.3185861623
 20
4.834325248
 30
0.0
 11
11.3185861623
 21
4.4374502361
 31
0.0
  0
LINE
  5
27D
330
277
100
AcDbEntity
  8
0
  6
Continuous
 62
     7
370
     0
100
AcDbLine
 10
11.3185861623
 20
4.4374502361
 30
0.0
 11
11.3947580365
 21
4.4374502361
 31
0.0
  0
LINE
  5
27E
330
277
100
AcDbEntity
  8
0
  6
Continuous
 62
     7
370
     0
100
AcDbLine
 10
12.3892025019
 20
4.834325248
 30
0.0
 11
12.4653743762
 21
4.834325248
 31
0.0
  0
LINE
  5
27F
330
277
100
AcDbEntity
  8
0
  6
Continuous
 62
     7
370
     0
100
AcDbLine
 10
12.4653743762
 20
4.834325248
 30
0.0
 11
12.4653743762
 21
4.4374502361
 31
0.0
  0
LINE
  5
280
330
277
100
AcDbEntity
  8
0
  6
Continuous
 62
     7
370
     0
100
AcDbLine
 10
12.4653743762
 20
4.4374502361
 30
0.0
 11
12.3892025019
 21
4.4374502361
 31
0.0
  0
LINE
  5
281
330
277
100
AcDbEntity
  8
0
  6
Continuous
 62
     7
370
     0
100
AcDbLine
 10
9.8131806687
 20
5.7654686286
 30
0.0
 11
10.7424142881
 21
4.8362350093
 31
0.0
  0
LINE
  5
282
330
277
100
AcDbEntity
  8
0
  6
Continuous
 62
     7
370
     0
100
AcDbLine
 10
10.7424142881
 20
4.8362350093
 30
0.0
 11
11.2424142881
 21
4.8362350093
 31
0.0
  0
MTEXT
  5
283
330
277
100
AcDbEntity
  8
0
  6
Continuous
 62
     7
370
    18
100
AcDbMText
 10
11.2557215677
 20
5.2073734401
 30
0.0
 40
0.25
 41
0.0
 71
     1
 72
     1
  1
%%c
  7
SLDTEXTSTYLE0
 73
     1
 44
1.0
  0
MTEXT
  5
284
330
277
100
AcDbEntity
  8
0
  6
Continuous
 62
     7
370
    18
100
AcDbMText
 10
11.6327528088
 20
5.2073734401
 30
0.0
 40
0.25
 41
0.0
 71
     1
 72
     1
  1
3 1/2"
  7
SLDTEXTSTYLE0
 73
     1
 44
1.0
  0
MTEXT
  5
285
330
277
100
AcDbEntity
  8
0
  6
Continuous
 62
     7
370
    18
100
AcDbMText
 10
11.3947580365
 20
4.7597171985
 30
0.0
 40
0.25
 41
0.0
 71
     1
 72
     1
  1
89mm
  7
SLDTEXTSTYLE0
 73
     1
 44
1.0
  0
MTEXT
  5
286
330
277
100
AcDbEntity
  8
0
  6
Continuous
 62
     7
370
    18
100
AcDbMText
 10
12.6352962137
 20
5.211192903
 30
0.0
 40
0.25
 41
0.0
 71
     1
 72
     1
  1
B.C.
  7
SLDTEXTSTYLE0
 73
     1
 44
1.0
  0
ENDBLK
  5
279
330
277
100
AcDbEntity
  8
0
100
AcDbBlockEnd
  0
BLOCK
  5
28A
330
289
100
AcDbEntity
  8
0
100
AcDbBlockBegin
  2
_D_4
 70
     0
 10
0.0
 20
0.0
 30
0.0
  3
_D_4
  1

  0
ARC
  5
28C
330
289
100
AcDbEntity
  8
0
  6
Continuous
 62
     7
370
    18
100
AcDbCircle
 10
8.5757438017
 20
7.0029054957
 30
0.0
 40
2.533682408059419
100
AcDbArc
 50
45.0
 51
61.1902871554
  0
ARC
  5
28D
330
289
100
AcDbEntity
  8
0
  6
Continuous
 62
     7
370
    18
100
AcDbCircle
 10
8.5757438017
 20
7.0029054957
 30
0.0
 40
2.533682408059418
100
AcDbArc
 50
73.5329051251
 51
90.0
  0
SOLID
  5
28E
330
289
100
AcDbEntity
  8
0
  6
Continuous
 62
     7
370
    18
100
AcDbTrace
 10
10.3673278138
 20
8.7944895078
 30
0.0
 11
10.201126086
 21
8.9983938621
 31
0.0
 12
10.147522545
 22
8.9390081703
 32
0.0
 13
10.147522545
 23
8.9390081703
 33
0.0
  0
SOLID
  5
28F
330
289
100
AcDbEntity
  8
0
  6
Continuous
 62
     7
370
    18
100
AcDbTrace
 10
8.5757438017
 20
9.5365879038
 30
0.0
 11
8.833359724
 21
9.4833522339
 31
0.0
 12
8.837448322
 22
9.5632476867
 32
0.0
 13
8.837448322
 23
9.5632476867
 33
0.0
  0
LINE
  5
290
330
289
100
AcDbEntity
  8
0
  6
Continuous
 62
     7
370
     0
100
AcDbLine
 10
10.0623298802
 20
8.4894915742
 30
0.0
 11
10.5441045091
 21
8.9712662031
 31
0.0
  0
LINE
  5
291
330
289
100
AcDbEntity
  8
0
  6
Continuous
 62
     7
370
     0
100
AcDbLine
 10
8.5757438017
 20
9.1449054957
 30
0.0
 11
8.5757438017
 21
9.7865879038
 31
0.0
  0
MTEXT
  5
292
330
289
100
AcDbEntity
  8
0
  6
Continuous
 62
     7
370
    18
100
AcDbMText
 10
9.2939531862
 20
9.4675522709
 30
0.0
 40
0.25
 41
0.0
 71
     1
 72
     1
  1
45°
  7
SLDTEXTSTYLE0
 73
     1
 44
1.0
  0
ENDBLK
  5
28B
330
289
100
AcDbEntity
  8
0
100
AcDbBlockEnd
  0
BLOCK
  5
29B
330
29A
100
AcDbEntity
  8
0
100
AcDbBlockBegin
  2
SW_CENTERMARKSYMBOL_7
 70
     0
 10
0.0
 20
0.0
 30
0.0
  3
SW_CENTERMARKSYMBOL_7
  1

  0
ARC
  5
29D
330
29A
100
AcDbEntity
  8
0
  6
Continuous
 62
     0
370
     0
100
AcDbCircle
 10
1.2374368671
 20
1.2374368671
 30
0.0
 40
1.75
100
AcDbArc
 50
225.0
 51
228.2740445436
  0
ARC
  5
29E
330
29A
100
AcDbEntity
  8
0
  6
Continuous
 62
     0
370
     0
100
AcDbCircle
 10
1.2374368671
 20
1.2374368671
 30
0.0
 40
1.75
100
AcDbArc
 50
221.7259554564
 51
225.0
  0
ARC
  5
29F
330
29A
100
AcDbEntity
  8
0
  6
Continuous
 62
     0
370
     0
100
AcDbCircle
 10
1.2374368671
 20
1.2374368671
 30
0.0
 40
1.75
100
AcDbArc
 50
45.0
 51
48.2740445436
  0
ARC
  5
2A0
330
29A
100
AcDbEntity
  8
0
  6
Continuous
 62
     0
370
     0
100
AcDbCircle
 10
1.2374368671
 20
1.2374368671
 30
0.0
 40
1.750000000000001
100
AcDbArc
 50
41.7259554564
 51
45.0
  0
ARC
  5
2A1
330
29A
100
AcDbEntity
  8
0
  6
CENTERX2
 62
     0
370
     0
100
AcDbCircle
 10
1.2374368671
 20
1.2374368671
 30
0.0
 40
1.75
100
AcDbArc
 50
51.5480890872
 51
218.4519109128
  0
ARC
  5
2A2
330
29A
100
AcDbEntity
  8
0
  6
CENTERX2
 62
     0
370
     0
100
AcDbCircle
 10
1.2374368671
 20
1.2374368671
 30
0.0
 40
1.749999999999999
100
AcDbArc
 50
231.5480890872
 51
38.4519109128
  0
LINE
  5
2A3
330
29A
100
AcDbEntity
  8
0
  6
Continuous
 62
     0
370
    18
100
AcDbLine
 10
0.0
 20
0.0
 30
0.0
 11
-0.0707106781
 21
-0.0707106781
 31
0.0
  0
LINE
  5
2A4
330
29A
100
AcDbEntity
  8
0
  6
Continuous
 62
     0
370
    18
100
AcDbLine
 10
0.0
 20
0.0
 30
0.0
 11
0.0707106781
 21
0.0707106781
 31
0.0
  0
LINE
  5
2A5
330
29A
100
AcDbEntity
  8
0
  6
Continuous
 62
     0
370
    18
100
AcDbLine
 10
-0.1414213562
 20
-0.1414213562
 30
0.0
 11
-0.1488459774
 21
-0.1488459774
 31
0.0
  0
LINE
  5
2A6
330
29A
100
AcDbEntity
  8
0
  6
Continuous
 62
     0
370
    18
100
AcDbLine
 10
0.1414213562
 20
0.1414213562
 30
0.0
 11
0.1488459774
 21
0.1488459774
 31
0.0
  0
LINE
  5
2A7
330
29A
100
AcDbEntity
  8
0
  6
Continuous
 62
     0
370
    18
100
AcDbLine
 10
2.4748737342
 20
2.4748737342
 30
0.0
 11
2.5455844123
 21
2.5455844123
 31
0.0
  0
LINE
  5
2A8
330
29A
100
AcDbEntity
  8
0
  6
Continuous
 62
     0
370
    18
100
AcDbLine
 10
2.4748737342
 20
2.4748737342
 30
0.0
 11
2.404163056
 21
2.404163056
 31
0.0
  0
LINE
  5
2A9
330
29A
100
AcDbEntity
  8
0
  6
Continuous
 62
     0
370
    18
100
AcDbLine
 10
2.6162950904
 20
2.6162950904
 30
0.0
 11
2.6533122675
 21
2.6533122675
 31
0.0
  0
LINE
  5
2AA
330
29A
100
AcDbEntity
  8
0
  6
Continuous
 62
     0
370
    18
100
AcDbLine
 10
2.3334523779
 20
2.3334523779
 30
0.0
 11
2.3260277567
 21
2.3260277567
 31
0.0
  0
LINE
  5
2AB
330
29A
100
AcDbEntity
  8
0
  6
Continuous
 62
     0
370
    18
100
AcDbLine
 10
1.2374368671
 20
1.2374368671
 30
0.0
 11
1.2374368671
 21
1.3374368671
 31
0.0
  0
LINE
  5
2AC
330
29A
100
AcDbEntity
  8
0
  6
Continuous
 62
     0
370
    18
100
AcDbLine
 10
1.2374368671
 20
1.2374368671
 30
0.0
 11
1.1374368671
 21
1.2374368671
 31
0.0
  0
LINE
  5
2AD
330
29A
100
AcDbEntity
  8
0
  6
Continuous
 62
     0
370
    18
100
AcDbLine
 10
1.2374368671
 20
1.2374368671
 30
0.0
 11
1.2374368671
 21
1.1374368671
 31
0.0
  0
LINE
  5
2AE
330
29A
100
AcDbEntity
  8
0
  6
Continuous
 62
     0
370
    18
100
AcDbLine
 10
1.2374368671
 20
1.2374368671
 30
0.0
 11
1.3374368671
 21
1.2374368671
 31
0.0
  0
LINE
  5
2AF
330
29A
100
AcDbEntity
  8
0
  6
Continuous
 62
     0
370
    18
100
AcDbLine
 10
1.2374368671
 20
1.4374368671
 30
0.0
 11
1.2374368671
 21
3.2794368671
 31
0.0
  0
LINE
  5
2B0
330
29A
100
AcDbEntity
  8
0
  6
Continuous
 62
     0
370
    18
100
AcDbLine
 10
1.0374368671
 20
1.2374368671
 30
0.0
 11
-0.8045631329
 21
1.2374368671
 31
0.0
  0
LINE
  5
2B1
330
29A
100
AcDbEntity
  8
0
  6
Continuous
 62
     0
370
    18
100
AcDbLine
 10
1.2374368671
 20
1.0374368671
 30
0.0
 11
1.2374368671
 21
-0.8045631329
 31
0.0
  0
LINE
  5
2B2
330
29A
100
AcDbEntity
  8
0
  6
Continuous
 62
     0
370
    18
100
AcDbLine
 10
1.4374368671
 20
1.2374368671
 30
0.0
 11
3.2794368671
 21
1.2374368671
 31
0.0
  0
ENDBLK
  5
29C
330
29A
100
AcDbEntity
  8
0
100
AcDbBlockEnd
  0
BLOCK
  5
2CE
330
2CD
100
AcDbEntity
  8
0
100
AcDbBlockBegin
  2
_D_5
 70
     0
 10
0.0
 20
0.0
 30
0.0
  3
_D_5
  1

  0
ARC
  5
2D0
330
2CD
100
AcDbEntity
  8
0
  6
Continuous
 62
     7
370
    18
100
AcDbCircle
 10
16.4849124854
 20
7.0029054957
 30
0.0
 40
2.190504231397172
100
AcDbArc
 50
134.9873048652
 51
151.746358091
  0
ARC
  5
2D1
330
2CD
100
AcDbEntity
  8
0
  6
Continuous
 62
     7
370
    18
100
AcDbCircle
 10
16.4849124854
 20
7.0029054957
 30
0.0
 40
2.190504231397173
100
AcDbArc
 50
163.010532387
 51
180.0
  0
SOLID
  5
2D2
330
2CD
100
AcDbEntity
  8
0
  6
Continuous
 62
     7
370
    18
100
AcDbTrace
 10
14.9363353244
 20
8.5521690511
 30
0.0
 11
14.7337200064
 21
8.3843982762
 31
0.0
 12
14.7935177107
 22
8.3312547483
 32
0.0
 13
14.7935177107
 23
8.3312547483
 33
0.0
  0
SOLID
  5
2D3
330
2CD
100
AcDbEntity
  8
0
  6
Continuous
 62
     7
370
    18
100
AcDbTrace
 10
14.294408254
 20
7.0029054957
 30
0.0
 11
14.3496879388
 21
7.2600905583
 31
0.0
 12
14.2698274722
 22
7.2648134665
 32
0.0
 13
14.2698274722
 23
7.2648134665
 33
0.0
  0
LINE
  5
2D4
330
2CD
100
AcDbEntity
  8
0
  6
Continuous
 62
     7
370
     0
100
AcDbLine
 10
14.417590438
 20
7.0029054957
 30
0.0
 11
14.044408254
 21
7.0029054957
 31
0.0
  0
MTEXT
  5
2D5
330
2CD
100
AcDbEntity
  8
0
  6
Continuous
 62
     7
370
    18
100
AcDbMText
 10
14.2098544451
 20
7.9652288293
 30
0.0
 40
0.25
 41
0.0
 71
     1
 72
     1
  1
45°
  7
SLDTEXTSTYLE0
 73
     1
 44
1.0
  0
ENDBLK
  5
2CF
330
2CD
100
AcDbEntity
  8
0
100
AcDbBlockEnd
  0
BLOCK
  5
2D8
330
2D7
100
AcDbEntity
  8
0
100
AcDbBlockBegin
  2
_D_6
 70
     0
 10
0.0
 20
0.0
 30
0.0
  3
_D_6
  1

  0
ARC
  5
2DA
330
2D7
100
AcDbEntity
  8
0
  6
Continuous
 62
     7
370
    18
100
AcDbCircle
 10
16.4842825977
 20
7.0029054957
 30
0.0
 40
2.19063162213593
100
AcDbArc
 50
180.0
 51
196.9977061527
  0
ARC
  5
2DB
330
2D7
100
AcDbEntity
  8
0
  6
Continuous
 62
     7
370
    18
100
AcDbCircle
 10
16.4842825977
 20
7.0029054957
 30
0.0
 40
2.19063162213593
100
AcDbArc
 50
208.2619013703
 51
225.0290989206
  0
SOLID
  5
2DC
330
2D7
100
AcDbEntity
  8
0
  6
Continuous
 62
     7
370
    18
100
AcDbTrace
 10
14.2936509756
 20
7.0029054957
 30
0.0
 11
14.2690693024
 21
6.7409976086
 31
0.0
 12
14.3489297852
 22
6.7457202449
 32
0.0
 13
14.3489297852
 23
6.7457202449
 33
0.0
  0
SOLID
  5
2DD
330
2D7
100
AcDbEntity
  8
0
  6
Continuous
 62
     7
370
    18
100
AcDbTrace
 10
14.9360590213
 20
5.4531085214
 30
0.0
 11
14.7931774141
 21
5.6739814403
 31
0.0
 12
14.7333951081
 22
5.620820591
 32
0.0
 13
14.7333951081
 23
5.620820591
 33
0.0
  0
LINE
  5
2DE
330
2D7
100
AcDbEntity
  8
0
  6
Continuous
 62
     7
370
     0
100
AcDbLine
 10
14.417590438
 20
7.0029054957
 30
0.0
 11
14.0436509756
 21
7.0029054957
 31
0.0
  0
MTEXT
  5
2DF
330
2D7
100
AcDbEntity
  8
0
  6
Continuous
 62
     7
370
    18
100
AcDbMText
 10
14.2092269273
 20
6.2879026151
 30
0.0
 40
0.25
 41
0.0
 71
     1
 72
     1
  1
45°
  7
SLDTEXTSTYLE0
 73
     1
 44
1.0
  0
ENDBLK
  5
2D9
330
2D7
100
AcDbEntity
  8
0
100
AcDbBlockEnd
  0
ENDSEC
  0
SECTION
  2
ENTITIES
  0
MTEXT
  5
6E
330
1F
100
AcDbEntity
  8
SLD-0
100
AcDbMText
 10
17.5084710744
 20
1.6865019925
 30
0.0
 40
0.25
 41
0.0
 71
     1
 72
     1
  1
BC5
  7
SLDTEXTSTYLE0
 73
     1
 44
1.0
  0
LINE
  5
6F
330
1F
100
AcDbEntity
  8
0
  6
Continuous
 62
     7
370
    25
100
AcDbLine
 10
2.6760101546
 20
4.9349054957
 30
0.0
 11
2.8360101546
 21
4.9349054957
 31
0.0
  0
LINE
  5
70
330
1F
100
AcDbEntity
  8
0
  6
Continuous
 62
     7
370
    25
100
AcDbLine
 10
2.8360101546
 20
9.0709054957
 30
0.0
 11
2.6760101546
 21
9.0709054957
 31
0.0
  0
LINE
  5
71
330
1F
100
AcDbEntity
  8
0
  6
Continuous
 62
     7
370
    25
100
AcDbLine
 10
2.6260101546
 20
4.8529054957
 30
0.0
 11
2.6760101546
 21
4.8529054957
 31
0.0
  0
LINE
  5
72
330
1F
100
AcDbEntity
  8
0
  6
Continuous
 62
     7
370
    25
100
AcDbLine
 10
2.6760101546
 20
9.1529054957
 30
0.0
 11
2.6260101546
 21
9.1529054957
 31
0.0
  0
LINE
  5
73
330
1F
100
AcDbEntity
  8
0
  6
Continuous
 62
     7
370
    25
100
AcDbLine
 10
2.5602878648
 20
8.1453423628
 30
0.0
 11
2.5776530118
 21
8.1701423628
 31
0.0
  0
LINE
  5
74
330
1F
100
AcDbEntity
  8
0
  6
Continuous
 62
     7
370
    25
100
AcDbLine
 10
2.5776530118
 20
8.3105423628
 30
0.0
 11
2.5602878648
 21
8.3353423628
 31
0.0
  0
LINE
  5
75
330
1F
100
AcDbEntity
  8
0
  6
Continuous
 62
     7
370
    25
100
AcDbLine
 10
2.5602878648
 20
8.3353423628
 30
0.0
 11
2.553353873
 21
8.3353423628
 31
0.0
  0
LINE
  5
76
330
1F
100
AcDbEntity
  8
0
  6
Continuous
 62
     7
370
    25
100
AcDbLine
 10
2.553353873
 20
8.1453423628
 30
0.0
 11
2.5602878648
 21
8.1453423628
 31
0.0
  0
LINE
  5
77
330
1F
100
AcDbEntity
  8
0
  6
Continuous
 62
     7
370
    25
100
AcDbLine
 10
2.5186235791
 20
8.1453423628
 30
0.0
 11
2.5359887261
 21
8.1701423628
 31
0.0
  0
LINE
  5
78
330
1F
100
AcDbEntity
  8
0
  6
Continuous
 62
     7
370
    25
100
AcDbLine
 10
2.5359887261
 20
8.3105423628
 30
0.0
 11
2.5186235791
 21
8.3353423628
 31
0.0
  0
LINE
  5
79
330
1F
100
AcDbEntity
  8
0
  6
Continuous
 62
     7
370
    25
100
AcDbLine
 10
2.6019521505
 20
8.1453423628
 30
0.0
 11
2.6193172975
 21
8.1701423628
 31
0.0
  0
LINE
  5
7A
330
1F
100
AcDbEntity
  8
0
  6
Continuous
 62
     7
370
    25
100
AcDbLine
 10
2.6193172975
 20
8.3105423628
 30
0.0
 11
2.6019521505
 21
8.3353423628
 31
0.0
  0
LINE
  5
7B
330
1F
100
AcDbEntity
  8
0
  6
Continuous
 62
     7
370
    25
100
AcDbLine
 10
2.6019521505
 20
8.3353423628
 30
0.0
 11
2.5950181587
 21
8.3353423628
 31
0.0
  0
LINE
  5
7C
330
1F
100
AcDbEntity
  8
0
  6
Continuous
 62
     7
370
    25
100
AcDbLine
 10
2.5950181587
 20
8.1453423628
 30
0.0
 11
2.6019521505
 21
8.1453423628
 31
0.0
  0
LINE
  5
7D
330
1F
100
AcDbEntity
  8
0
  6
Continuous
 62
     7
370
    25
100
AcDbLine
 10
2.4352950077
 20
8.1453423628
 30
0.0
 11
2.4526601546
 21
8.1701423628
 31
0.0
  0
LINE
  5
7E
330
1F
100
AcDbEntity
  8
0
  6
Continuous
 62
     7
370
    25
100
AcDbLine
 10
2.4526601546
 20
8.3105423628
 30
0.0
 11
2.4352950077
 21
8.3353423628
 31
0.0
  0
LINE
  5
7F
330
1F
100
AcDbEntity
  8
0
  6
Continuous
 62
     7
370
    25
100
AcDbLine
 10
2.4700253016
 20
8.3353423628
 30
0.0
 11
2.4526601546
 21
8.3105423628
 31
0.0
  0
LINE
  5
80
330
1F
100
AcDbEntity
  8
0
  6
Continuous
 62
     7
370
    25
100
AcDbLine
 10
2.4526601546
 20
8.1701423628
 30
0.0
 11
2.4700253016
 21
8.1453423628
 31
0.0
  0
LINE
  5
81
330
1F
100
AcDbEntity
  8
0
  6
Continuous
 62
     7
370
    25
100
AcDbLine
 10
2.4352950077
 20
8.3353423628
 30
0.0
 11
2.4283610159
 21
8.3353423628
 31
0.0
  0
LINE
  5
82
330
1F
100
AcDbEntity
  8
0
  6
Continuous
 62
     7
370
    25
100
AcDbLine
 10
2.4283610159
 20
8.1453423628
 30
0.0
 11
2.4352950077
 21
8.1453423628
 31
0.0
  0
LINE
  5
83
330
1F
100
AcDbEntity
  8
0
  6
Continuous
 62
     7
370
    25
100
AcDbLine
 10
2.4769592934
 20
8.1453423628
 30
0.0
 11
2.4943244403
 21
8.1701423628
 31
0.0
  0
LINE
  5
84
330
1F
100
AcDbEntity
  8
0
  6
Continuous
 62
     7
370
    25
100
AcDbLine
 10
2.4943244403
 20
8.3105423628
 30
0.0
 11
2.4769592934
 21
8.3353423628
 31
0.0
  0
LINE
  5
85
330
1F
100
AcDbEntity
  8
0
  6
Continuous
 62
     7
370
    25
100
AcDbLine
 10
2.4283610159
 20
8.3353423628
 30
0.0
 11
2.4109958689
 21
8.3105423628
 31
0.0
  0
LINE
  5
86
330
1F
100
AcDbEntity
  8
0
  6
Continuous
 62
     7
370
    25
100
AcDbLine
 10
2.4109958689
 20
8.1701423628
 30
0.0
 11
2.4283610159
 21
8.1453423628
 31
0.0
  0
LINE
  5
87
330
1F
100
AcDbEntity
  8
0
  6
Continuous
 62
     7
370
    25
100
AcDbLine
 10
2.4769592934
 20
8.3353423628
 30
0.0
 11
2.4700253016
 21
8.3353423628
 31
0.0
  0
LINE
  5
88
330
1F
100
AcDbEntity
  8
0
  6
Continuous
 62
     7
370
    25
100
AcDbLine
 10
2.4700253016
 20
8.1453423628
 30
0.0
 11
2.4769592934
 21
8.1453423628
 31
0.0
  0
LINE
  5
89
330
1F
100
AcDbEntity
  8
0
  6
Continuous
 62
     7
370
    25
100
AcDbLine
 10
2.5186235791
 20
8.3353423628
 30
0.0
 11
2.5116895873
 21
8.3353423628
 31
0.0
  0
LINE
  5
8A
330
1F
100
AcDbEntity
  8
0
  6
Continuous
 62
     7
370
    25
100
AcDbLine
 10
2.5116895873
 20
8.1453423628
 30
0.0
 11
2.5186235791
 21
8.1453423628
 31
0.0
  0
LINE
  5
8B
330
1F
100
AcDbEntity
  8
0
  6
Continuous
 62
     7
370
    25
100
AcDbLine
 10
2.6260101546
 20
8.3201007534
 30
0.0
 11
2.6193172975
 21
8.3105423628
 31
0.0
  0
LINE
  5
8C
330
1F
100
AcDbEntity
  8
0
  6
Continuous
 62
     7
370
    25
100
AcDbLine
 10
2.6193172975
 20
8.1701423628
 30
0.0
 11
2.6260101546
 21
8.1605839722
 31
0.0
  0
LINE
  5
8D
330
1F
100
AcDbEntity
  8
0
  6
Continuous
 62
     7
370
    25
100
AcDbLine
 10
2.2269735791
 20
8.3353423628
 30
0.0
 11
2.2200395873
 21
8.3353423628
 31
0.0
  0
LINE
  5
8E
330
1F
100
AcDbEntity
  8
0
  6
Continuous
 62
     7
370
    25
100
AcDbLine
 10
2.2200395873
 20
8.1453423628
 30
0.0
 11
2.2269735791
 21
8.1453423628
 31
0.0
  0
LINE
  5
8F
330
1F
100
AcDbEntity
  8
0
  6
Continuous
 62
     7
370
    25
100
AcDbLine
 10
2.5116895873
 20
8.3353423628
 30
0.0
 11
2.4943244403
 21
8.3105423628
 31
0.0
  0
LINE
  5
90
330
1F
100
AcDbEntity
  8
0
  6
Continuous
 62
     7
370
    25
100
AcDbLine
 10
2.4943244403
 20
8.1701423628
 30
0.0
 11
2.5116895873
 21
8.1453423628
 31
0.0
  0
LINE
  5
91
330
1F
100
AcDbEntity
  8
0
  6
Continuous
 62
     7
370
    25
100
AcDbLine
 10
2.3103021505
 20
8.1453423628
 30
0.0
 11
2.3276672975
 21
8.1701423628
 31
0.0
  0
LINE
  5
92
330
1F
100
AcDbEntity
  8
0
  6
Continuous
 62
     7
370
    25
100
AcDbLine
 10
2.3276672975
 20
8.3105423628
 30
0.0
 11
2.3103021505
 21
8.3353423628
 31
0.0
  0
LINE
  5
93
330
1F
100
AcDbEntity
  8
0
  6
Continuous
 62
     7
370
    25
100
AcDbLine
 10
2.553353873
 20
8.3353423628
 30
0.0
 11
2.5359887261
 21
8.3105423628
 31
0.0
  0
LINE
  5
94
330
1F
100
AcDbEntity
  8
0
  6
Continuous
 62
     7
370
    25
100
AcDbLine
 10
2.5359887261
 20
8.1701423628
 30
0.0
 11
2.553353873
 21
8.1453423628
 31
0.0
  0
LINE
  5
95
330
1F
100
AcDbEntity
  8
0
  6
Continuous
 62
     7
370
    25
100
AcDbLine
 10
2.3033681587
 20
8.3353423628
 30
0.0
 11
2.2860030118
 21
8.3105423628
 31
0.0
  0
LINE
  5
96
330
1F
100
AcDbEntity
  8
0
  6
Continuous
 62
     7
370
    25
100
AcDbLine
 10
2.2860030118
 20
8.1701423628
 30
0.0
 11
2.3033681587
 21
8.1453423628
 31
0.0
  0
LINE
  5
97
330
1F
100
AcDbEntity
  8
0
  6
Continuous
 62
     7
370
    25
100
AcDbLine
 10
2.3866967301
 20
8.3353423628
 30
0.0
 11
2.3693315832
 21
8.3105423628
 31
0.0
  0
LINE
  5
98
330
1F
100
AcDbEntity
  8
0
  6
Continuous
 62
     7
370
    25
100
AcDbLine
 10
2.3693315832
 20
8.1701423628
 30
0.0
 11
2.3866967301
 21
8.1453423628
 31
0.0
  0
LINE
  5
99
330
1F
100
AcDbEntity
  8
0
  6
Continuous
 62
     7
370
    25
100
AcDbLine
 10
2.393630722
 20
8.1453423628
 30
0.0
 11
2.4109958689
 21
8.1701423628
 31
0.0
  0
LINE
  5
9A
330
1F
100
AcDbEntity
  8
0
  6
Continuous
 62
     7
370
    25
100
AcDbLine
 10
2.4109958689
 20
8.3105423628
 30
0.0
 11
2.393630722
 21
8.3353423628
 31
0.0
  0
LINE
  5
9B
330
1F
100
AcDbEntity
  8
0
  6
Continuous
 62
     7
370
    25
100
AcDbLine
 10
2.5950181587
 20
8.3353423628
 30
0.0
 11
2.5776530118
 21
8.3105423628
 31
0.0
  0
LINE
  5
9C
330
1F
100
AcDbEntity
  8
0
  6
Continuous
 62
     7
370
    25
100
AcDbLine
 10
2.5776530118
 20
8.1701423628
 30
0.0
 11
2.5950181587
 21
8.1453423628
 31
0.0
  0
LINE
  5
9D
330
1F
100
AcDbEntity
  8
0
  6
Continuous
 62
     7
370
    25
100
AcDbLine
 10
2.3103021505
 20
8.3353423628
 30
0.0
 11
2.3033681587
 21
8.3353423628
 31
0.0
  0
LINE
  5
9E
330
1F
100
AcDbEntity
  8
0
  6
Continuous
 62
     7
370
    25
100
AcDbLine
 10
2.3033681587
 20
8.1453423628
 30
0.0
 11
2.3103021505
 21
8.1453423628
 31
0.0
  0
LINE
  5
9F
330
1F
100
AcDbEntity
  8
0
  6
Continuous
 62
     7
370
    25
100
AcDbLine
 10
2.2200395873
 20
8.3353423628
 30
0.0
 11
2.2026744403
 21
8.3105423628
 31
0.0
  0
LINE
  5
A0
330
1F
100
AcDbEntity
  8
0
  6
Continuous
 62
     7
370
    25
100
AcDbLine
 10
2.2026744403
 20
8.1701423628
 30
0.0
 11
2.2200395873
 21
8.1453423628
 31
0.0
  0
LINE
  5
A1
330
1F
100
AcDbEntity
  8
0
  6
Continuous
 62
     7
370
    25
100
AcDbLine
 10
2.261703873
 20
8.3353423628
 30
0.0
 11
2.2443387261
 21
8.3105423628
 31
0.0
  0
LINE
  5
A2
330
1F
100
AcDbEntity
  8
0
  6
Continuous
 62
     7
370
    25
100
AcDbLine
 10
2.2443387261
 20
8.1701423628
 30
0.0
 11
2.261703873
 21
8.1453423628
 31
0.0
  0
LINE
  5
A3
330
1F
100
AcDbEntity
  8
0
  6
Continuous
 62
     7
370
    25
100
AcDbLine
 10
2.2686378648
 20
8.3353423628
 30
0.0
 11
2.261703873
 21
8.3353423628
 31
0.0
  0
LINE
  5
A4
330
1F
100
AcDbEntity
  8
0
  6
Continuous
 62
     7
370
    25
100
AcDbLine
 10
2.261703873
 20
8.1453423628
 30
0.0
 11
2.2686378648
 21
8.1453423628
 31
0.0
  0
LINE
  5
A5
330
1F
100
AcDbEntity
  8
0
  6
Continuous
 62
     7
370
    25
100
AcDbLine
 10
2.2269735791
 20
8.1453423628
 30
0.0
 11
2.2443387261
 21
8.1701423628
 31
0.0
  0
LINE
  5
A6
330
1F
100
AcDbEntity
  8
0
  6
Continuous
 62
     7
370
    25
100
AcDbLine
 10
2.2443387261
 20
8.3105423628
 30
0.0
 11
2.2269735791
 21
8.3353423628
 31
0.0
  0
LINE
  5
A7
330
1F
100
AcDbEntity
  8
0
  6
Continuous
 62
     7
370
    25
100
AcDbLine
 10
2.2686378648
 20
8.1453423628
 30
0.0
 11
2.2860030118
 21
8.1701423628
 31
0.0
  0
LINE
  5
A8
330
1F
100
AcDbEntity
  8
0
  6
Continuous
 62
     7
370
    25
100
AcDbLine
 10
2.2860030118
 20
8.3105423628
 30
0.0
 11
2.2686378648
 21
8.3353423628
 31
0.0
  0
LINE
  5
A9
330
1F
100
AcDbEntity
  8
0
  6
Continuous
 62
     7
370
    25
100
AcDbLine
 10
2.393630722
 20
8.3353423628
 30
0.0
 11
2.3866967301
 21
8.3353423628
 31
0.0
  0
LINE
  5
AA
330
1F
100
AcDbEntity
  8
0
  6
Continuous
 62
     7
370
    25
100
AcDbLine
 10
2.3866967301
 20
8.1453423628
 30
0.0
 11
2.393630722
 21
8.1453423628
 31
0.0
  0
LINE
  5
AB
330
1F
100
AcDbEntity
  8
0
  6
Continuous
 62
     7
370
    25
100
AcDbLine
 10
2.3519664363
 20
8.1453423628
 30
0.0
 11
2.3693315832
 21
8.1701423628
 31
0.0
  0
LINE
  5
AC
330
1F
100
AcDbEntity
  8
0
  6
Continuous
 62
     7
370
    25
100
AcDbLine
 10
2.3693315832
 20
8.3105423628
 30
0.0
 11
2.3519664363
 21
8.3353423628
 31
0.0
  0
LINE
  5
AD
330
1F
100
AcDbEntity
  8
0
  6
Continuous
 62
     7
370
    25
100
AcDbLine
 10
2.3519664363
 20
8.3353423628
 30
0.0
 11
2.3450324444
 21
8.3353423628
 31
0.0
  0
LINE
  5
AE
330
1F
100
AcDbEntity
  8
0
  6
Continuous
 62
     7
370
    25
100
AcDbLine
 10
2.3450324444
 20
8.1453423628
 30
0.0
 11
2.3519664363
 21
8.1453423628
 31
0.0
  0
LINE
  5
AF
330
1F
100
AcDbEntity
  8
0
  6
Continuous
 62
     7
370
    25
100
AcDbLine
 10
2.3450324444
 20
8.3353423628
 30
0.0
 11
2.3276672975
 21
8.3105423628
 31
0.0
  0
LINE
  5
B0
330
1F
100
AcDbEntity
  8
0
  6
Continuous
 62
     7
370
    25
100
AcDbLine
 10
2.3276672975
 20
8.1701423628
 30
0.0
 11
2.3450324444
 21
8.1453423628
 31
0.0
  0
LINE
  5
B1
330
1F
100
AcDbEntity
  8
0
  6
Continuous
 62
     7
370
    25
100
AcDbLine
 10
2.1855155663
 20
8.1456369511
 30
0.0
 11
2.2026744403
 21
8.1701423628
 31
0.0
  0
LINE
  5
B2
330
1F
100
AcDbEntity
  8
0
  6
Continuous
 62
     7
370
    25
100
AcDbLine
 10
2.2026744403
 20
8.3105423628
 30
0.0
 11
2.1855155663
 21
8.3350477745
 31
0.0
  0
LINE
  5
B3
330
1F
100
AcDbEntity
  8
0
  6
Continuous
 62
     7
370
    25
100
AcDbLine
 10
2.1855155663
 20
8.3350477745
 30
0.0
 11
2.1610101546
 21
8.3105423628
 31
0.0
  0
LINE
  5
B4
330
1F
100
AcDbEntity
  8
0
  6
Continuous
 62
     7
370
    25
100
AcDbLine
 10
2.1610101546
 20
8.1701423628
 30
0.0
 11
2.1855155663
 21
8.1456369511
 31
0.0
  0
LINE
  5
B5
330
1F
100
AcDbEntity
  8
0
  6
Continuous
 62
     7
370
    25
100
AcDbLine
 10
2.9570101546
 20
5.9217186286
 30
0.0
 11
2.8360101546
 21
5.9217186286
 31
0.0
  0
LINE
  5
B6
330
1F
100
AcDbEntity
  8
0
  6
Continuous
 62
     7
370
    25
100
AcDbLine
 10
2.8360101546
 20
5.6092186286
 30
0.0
 11
2.9570101546
 21
5.6092186286
 31
0.0
  0
LINE
  5
B7
330
1F
100
AcDbEntity
  8
0
  6
Continuous
 62
     7
370
    25
100
AcDbLine
 10
2.9570101546
 20
5.6092186286
 30
0.0
 11
2.9760101546
 21
5.6282186286
 31
0.0
  0
LINE
  5
B8
330
1F
100
AcDbEntity
  8
0
  6
Continuous
 62
     7
370
    25
100
AcDbLine
 10
2.9760101546
 20
5.9027186286
 30
0.0
 11
2.9570101546
 21
5.9217186286
 31
0.0
  0
LINE
  5
B9
330
1F
100
AcDbEntity
  8
0
  6
Continuous
 62
     7
370
    25
100
AcDbLine
 10
2.5186235791
 20
5.8604686286
 30
0.0
 11
2.5116895873
 21
5.8604686286
 31
0.0
  0
LINE
  5
BA
330
1F
100
AcDbEntity
  8
0
  6
Continuous
 62
     7
370
    25
100
AcDbLine
 10
2.5116895873
 20
5.6704686286
 30
0.0
 11
2.5186235791
 21
5.6704686286
 31
0.0
  0
LINE
  5
BB
330
1F
100
AcDbEntity
  8
0
  6
Continuous
 62
     7
370
    25
100
AcDbLine
 10
2.5116895873
 20
5.8604686286
 30
0.0
 11
2.4943244403
 21
5.8356686286
 31
0.0
  0
LINE
  5
BC
330
1F
100
AcDbEntity
  8
0
  6
Continuous
 62
     7
370
    25
100
AcDbLine
 10
2.4943244403
 20
5.6952686286
 30
0.0
 11
2.5116895873
 21
5.6704686286
 31
0.0
  0
LINE
  5
BD
330
1F
100
AcDbEntity
  8
0
  6
Continuous
 62
     7
370
    25
100
AcDbLine
 10
2.5602878648
 20
5.8604686286
 30
0.0
 11
2.553353873
 21
5.8604686286
 31
0.0
  0
LINE
  5
BE
330
1F
100
AcDbEntity
  8
0
  6
Continuous
 62
     7
370
    25
100
AcDbLine
 10
2.553353873
 20
5.6704686286
 30
0.0
 11
2.5602878648
 21
5.6704686286
 31
0.0
  0
LINE
  5
BF
330
1F
100
AcDbEntity
  8
0
  6
Continuous
 62
     7
370
    25
100
AcDbLine
 10
2.5186235791
 20
5.6704686286
 30
0.0
 11
2.5359887261
 21
5.6952686286
 31
0.0
  0
LINE
  5
C0
330
1F
100
AcDbEntity
  8
0
  6
Continuous
 62
     7
370
    25
100
AcDbLine
 10
2.5359887261
 20
5.8356686286
 30
0.0
 11
2.5186235791
 21
5.8604686286
 31
0.0
  0
LINE
  5
C1
330
1F
100
AcDbEntity
  8
0
  6
Continuous
 62
     7
370
    25
100
AcDbLine
 10
2.553353873
 20
5.8604686286
 30
0.0
 11
2.5359887261
 21
5.8356686286
 31
0.0
  0
LINE
  5
C2
330
1F
100
AcDbEntity
  8
0
  6
Continuous
 62
     7
370
    25
100
AcDbLine
 10
2.5359887261
 20
5.6952686286
 30
0.0
 11
2.553353873
 21
5.6704686286
 31
0.0
  0
LINE
  5
C3
330
1F
100
AcDbEntity
  8
0
  6
Continuous
 62
     7
370
    25
100
AcDbLine
 10
2.4352950077
 20
5.8604686286
 30
0.0
 11
2.4283610159
 21
5.8604686286
 31
0.0
  0
LINE
  5
C4
330
1F
100
AcDbEntity
  8
0
  6
Continuous
 62
     7
370
    25
100
AcDbLine
 10
2.4283610159
 20
5.6704686286
 30
0.0
 11
2.4352950077
 21
5.6704686286
 31
0.0
  0
LINE
  5
C5
330
1F
100
AcDbEntity
  8
0
  6
Continuous
 62
     7
370
    25
100
AcDbLine
 10
2.4769592934
 20
5.6704686286
 30
0.0
 11
2.4943244403
 21
5.6952686286
 31
0.0
  0
LINE
  5
C6
330
1F
100
AcDbEntity
  8
0
  6
Continuous
 62
     7
370
    25
100
AcDbLine
 10
2.4943244403
 20
5.8356686286
 30
0.0
 11
2.4769592934
 21
5.8604686286
 31
0.0
  0
LINE
  5
C7
330
1F
100
AcDbEntity
  8
0
  6
Continuous
 62
     7
370
    25
100
AcDbLine
 10
2.4283610159
 20
5.8604686286
 30
0.0
 11
2.4109958689
 21
5.8356686286
 31
0.0
  0
LINE
  5
C8
330
1F
100
AcDbEntity
  8
0
  6
Continuous
 62
     7
370
    25
100
AcDbLine
 10
2.4109958689
 20
5.6952686286
 30
0.0
 11
2.4283610159
 21
5.6704686286
 31
0.0
  0
LINE
  5
C9
330
1F
100
AcDbEntity
  8
0
  6
Continuous
 62
     7
370
    25
100
AcDbLine
 10
2.393630722
 20
5.8604686286
 30
0.0
 11
2.3866967301
 21
5.8604686286
 31
0.0
  0
LINE
  5
CA
330
1F
100
AcDbEntity
  8
0
  6
Continuous
 62
     7
370
    25
100
AcDbLine
 10
2.3866967301
 20
5.6704686286
 30
0.0
 11
2.393630722
 21
5.6704686286
 31
0.0
  0
LINE
  5
CB
330
1F
100
AcDbEntity
  8
0
  6
Continuous
 62
     7
370
    25
100
AcDbLine
 10
2.5950181587
 20
5.8604686286
 30
0.0
 11
2.5776530118
 21
5.8356686286
 31
0.0
  0
LINE
  5
CC
330
1F
100
AcDbEntity
  8
0
  6
Continuous
 62
     7
370
    25
100
AcDbLine
 10
2.5776530118
 20
5.6952686286
 30
0.0
 11
2.5950181587
 21
5.6704686286
 31
0.0
  0
LINE
  5
CD
330
1F
100
AcDbEntity
  8
0
  6
Continuous
 62
     7
370
    25
100
AcDbLine
 10
2.3866967301
 20
5.8604686286
 30
0.0
 11
2.3693315832
 21
5.8356686286
 31
0.0
  0
LINE
  5
CE
330
1F
100
AcDbEntity
  8
0
  6
Continuous
 62
     7
370
    25
100
AcDbLine
 10
2.3693315832
 20
5.6952686286
 30
0.0
 11
2.3866967301
 21
5.6704686286
 31
0.0
  0
LINE
  5
CF
330
1F
100
AcDbEntity
  8
0
  6
Continuous
 62
     7
370
    25
100
AcDbLine
 10
2.3103021505
 20
5.6704686286
 30
0.0
 11
2.3276672975
 21
5.6952686286
 31
0.0
  0
LINE
  5
D0
330
1F
100
AcDbEntity
  8
0
  6
Continuous
 62
     7
370
    25
100
AcDbLine
 10
2.3276672975
 20
5.8356686286
 30
0.0
 11
2.3103021505
 21
5.8604686286
 31
0.0
  0
LINE
  5
D1
330
1F
100
AcDbEntity
  8
0
  6
Continuous
 62
     7
370
    25
100
AcDbLine
 10
2.6019521505
 20
5.6704686286
 30
0.0
 11
2.6193172975
 21
5.6952686286
 31
0.0
  0
LINE
  5
D2
330
1F
100
AcDbEntity
  8
0
  6
Continuous
 62
     7
370
    25
100
AcDbLine
 10
2.6193172975
 20
5.8356686286
 30
0.0
 11
2.6019521505
 21
5.8604686286
 31
0.0
  0
LINE
  5
D3
330
1F
100
AcDbEntity
  8
0
  6
Continuous
 62
     7
370
    25
100
AcDbLine
 10
2.4700253016
 20
5.8604686286
 30
0.0
 11
2.4526601546
 21
5.8356686286
 31
0.0
  0
LINE
  5
D4
330
1F
100
AcDbEntity
  8
0
  6
Continuous
 62
     7
370
    25
100
AcDbLine
 10
2.4526601546
 20
5.6952686286
 30
0.0
 11
2.4700253016
 21
5.6704686286
 31
0.0
  0
LINE
  5
D5
330
1F
100
AcDbEntity
  8
0
  6
Continuous
 62
     7
370
    25
100
AcDbLine
 10
2.393630722
 20
5.6704686286
 30
0.0
 11
2.4109958689
 21
5.6952686286
 31
0.0
  0
LINE
  5
D6
330
1F
100
AcDbEntity
  8
0
  6
Continuous
 62
     7
370
    25
100
AcDbLine
 10
2.4109958689
 20
5.8356686286
 30
0.0
 11
2.393630722
 21
5.8604686286
 31
0.0
  0
LINE
  5
D7
330
1F
100
AcDbEntity
  8
0
  6
Continuous
 62
     7
370
    25
100
AcDbLine
 10
2.261703873
 20
5.8604686286
 30
0.0
 11
2.2443387261
 21
5.8356686286
 31
0.0
  0
LINE
  5
D8
330
1F
100
AcDbEntity
  8
0
  6
Continuous
 62
     7
370
    25
100
AcDbLine
 10
2.2443387261
 20
5.6952686286
 30
0.0
 11
2.261703873
 21
5.6704686286
 31
0.0
  0
LINE
  5
D9
330
1F
100
AcDbEntity
  8
0
  6
Continuous
 62
     7
370
    25
100
AcDbLine
 10
2.2269735791
 20
5.8604686286
 30
0.0
 11
2.2200395873
 21
5.8604686286
 31
0.0
  0
LINE
  5
DA
330
1F
100
AcDbEntity
  8
0
  6
Continuous
 62
     7
370
    25
100
AcDbLine
 10
2.2200395873
 20
5.6704686286
 30
0.0
 11
2.2269735791
 21
5.6704686286
 31
0.0
  0
LINE
  5
DB
330
1F
100
AcDbEntity
  8
0
  6
Continuous
 62
     7
370
    25
100
AcDbLine
 10
2.5602878648
 20
5.6704686286
 30
0.0
 11
2.5776530118
 21
5.6952686286
 31
0.0
  0
LINE
  5
DC
330
1F
100
AcDbEntity
  8
0
  6
Continuous
 62
     7
370
    25
100
AcDbLine
 10
2.5776530118
 20
5.8356686286
 30
0.0
 11
2.5602878648
 21
5.8604686286
 31
0.0
  0
LINE
  5
DD
330
1F
100
AcDbEntity
  8
0
  6
Continuous
 62
     7
370
    25
100
AcDbLine
 10
2.2200395873
 20
5.8604686286
 30
0.0
 11
2.2026744403
 21
5.8356686286
 31
0.0
  0
LINE
  5
DE
330
1F
100
AcDbEntity
  8
0
  6
Continuous
 62
     7
370
    25
100
AcDbLine
 10
2.2026744403
 20
5.6952686286
 30
0.0
 11
2.2200395873
 21
5.6704686286
 31
0.0
  0
LINE
  5
DF
330
1F
100
AcDbEntity
  8
0
  6
Continuous
 62
     7
370
    25
100
AcDbLine
 10
2.3033681587
 20
5.8604686286
 30
0.0
 11
2.2860030118
 21
5.8356686286
 31
0.0
  0
LINE
  5
E0
330
1F
100
AcDbEntity
  8
0
  6
Continuous
 62
     7
370
    25
100
AcDbLine
 10
2.2860030118
 20
5.6952686286
 30
0.0
 11
2.3033681587
 21
5.6704686286
 31
0.0
  0
LINE
  5
E1
330
1F
100
AcDbEntity
  8
0
  6
Continuous
 62
     7
370
    25
100
AcDbLine
 10
2.2686378648
 20
5.8604686286
 30
0.0
 11
2.261703873
 21
5.8604686286
 31
0.0
  0
LINE
  5
E2
330
1F
100
AcDbEntity
  8
0
  6
Continuous
 62
     7
370
    25
100
AcDbLine
 10
2.261703873
 20
5.6704686286
 30
0.0
 11
2.2686378648
 21
5.6704686286
 31
0.0
  0
LINE
  5
E3
330
1F
100
AcDbEntity
  8
0
  6
Continuous
 62
     7
370
    25
100
AcDbLine
 10
2.6260101546
 20
5.8452270192
 30
0.0
 11
2.6193172975
 21
5.8356686286
 31
0.0
  0
LINE
  5
E4
330
1F
100
AcDbEntity
  8
0
  6
Continuous
 62
     7
370
    25
100
AcDbLine
 10
2.6193172975
 20
5.6952686286
 30
0.0
 11
2.6260101546
 21
5.685710238
 31
0.0
  0
LINE
  5
E5
330
1F
100
AcDbEntity
  8
0
  6
Continuous
 62
     7
370
    25
100
AcDbLine
 10
2.6019521505
 20
5.8604686286
 30
0.0
 11
2.5950181587
 21
5.8604686286
 31
0.0
  0
LINE
  5
E6
330
1F
100
AcDbEntity
  8
0
  6
Continuous
 62
     7
370
    25
100
AcDbLine
 10
2.5950181587
 20
5.6704686286
 30
0.0
 11
2.6019521505
 21
5.6704686286
 31
0.0
  0
LINE
  5
E7
330
1F
100
AcDbEntity
  8
0
  6
Continuous
 62
     7
370
    25
100
AcDbLine
 10
2.4769592934
 20
5.8604686286
 30
0.0
 11
2.4700253016
 21
5.8604686286
 31
0.0
  0
LINE
  5
E8
330
1F
100
AcDbEntity
  8
0
  6
Continuous
 62
     7
370
    25
100
AcDbLine
 10
2.4700253016
 20
5.6704686286
 30
0.0
 11
2.4769592934
 21
5.6704686286
 31
0.0
  0
LINE
  5
E9
330
1F
100
AcDbEntity
  8
0
  6
Continuous
 62
     7
370
    25
100
AcDbLine
 10
2.4352950077
 20
5.6704686286
 30
0.0
 11
2.4526601546
 21
5.6952686286
 31
0.0
  0
LINE
  5
EA
330
1F
100
AcDbEntity
  8
0
  6
Continuous
 62
     7
370
    25
100
AcDbLine
 10
2.4526601546
 20
5.8356686286
 30
0.0
 11
2.4352950077
 21
5.8604686286
 31
0.0
  0
LINE
  5
EB
330
1F
100
AcDbEntity
  8
0
  6
Continuous
 62
     7
370
    25
100
AcDbLine
 10
2.2269735791
 20
5.6704686286
 30
0.0
 11
2.2443387261
 21
5.6952686286
 31
0.0
  0
LINE
  5
EC
330
1F
100
AcDbEntity
  8
0
  6
Continuous
 62
     7
370
    25
100
AcDbLine
 10
2.2443387261
 20
5.8356686286
 30
0.0
 11
2.2269735791
 21
5.8604686286
 31
0.0
  0
LINE
  5
ED
330
1F
100
AcDbEntity
  8
0
  6
Continuous
 62
     7
370
    25
100
AcDbLine
 10
2.3103021505
 20
5.8604686286
 30
0.0
 11
2.3033681587
 21
5.8604686286
 31
0.0
  0
LINE
  5
EE
330
1F
100
AcDbEntity
  8
0
  6
Continuous
 62
     7
370
    25
100
AcDbLine
 10
2.3033681587
 20
5.6704686286
 30
0.0
 11
2.3103021505
 21
5.6704686286
 31
0.0
  0
LINE
  5
EF
330
1F
100
AcDbEntity
  8
0
  6
Continuous
 62
     7
370
    25
100
AcDbLine
 10
2.2686378648
 20
5.6704686286
 30
0.0
 11
2.2860030118
 21
5.6952686286
 31
0.0
  0
LINE
  5
F0
330
1F
100
AcDbEntity
  8
0
  6
Continuous
 62
     7
370
    25
100
AcDbLine
 10
2.2860030118
 20
5.8356686286
 30
0.0
 11
2.2686378648
 21
5.8604686286
 31
0.0
  0
LINE
  5
F1
330
1F
100
AcDbEntity
  8
0
  6
Continuous
 62
     7
370
    25
100
AcDbLine
 10
2.3519664363
 20
5.8604686286
 30
0.0
 11
2.3450324444
 21
5.8604686286
 31
0.0
  0
LINE
  5
F2
330
1F
100
AcDbEntity
  8
0
  6
Continuous
 62
     7
370
    25
100
AcDbLine
 10
2.3450324444
 20
5.6704686286
 30
0.0
 11
2.3519664363
 21
5.6704686286
 31
0.0
  0
LINE
  5
F3
330
1F
100
AcDbEntity
  8
0
  6
Continuous
 62
     7
370
    25
100
AcDbLine
 10
2.3519664363
 20
5.6704686286
 30
0.0
 11
2.3693315832
 21
5.6952686286
 31
0.0
  0
LINE
  5
F4
330
1F
100
AcDbEntity
  8
0
  6
Continuous
 62
     7
370
    25
100
AcDbLine
 10
2.3693315832
 20
5.8356686286
 30
0.0
 11
2.3519664363
 21
5.8604686286
 31
0.0
  0
LINE
  5
F5
330
1F
100
AcDbEntity
  8
0
  6
Continuous
 62
     7
370
    25
100
AcDbLine
 10
2.3450324444
 20
5.8604686286
 30
0.0
 11
2.3276672975
 21
5.8356686286
 31
0.0
  0
LINE
  5
F6
330
1F
100
AcDbEntity
  8
0
  6
Continuous
 62
     7
370
    25
100
AcDbLine
 10
2.3276672975
 20
5.6952686286
 30
0.0
 11
2.3450324444
 21
5.6704686286
 31
0.0
  0
LINE
  5
F7
330
1F
100
AcDbEntity
  8
0
  6
Continuous
 62
     7
370
    25
100
AcDbLine
 10
2.1855155663
 20
5.6707632169
 30
0.0
 11
2.2026744403
 21
5.6952686286
 31
0.0
  0
LINE
  5
F8
330
1F
100
AcDbEntity
  8
0
  6
Continuous
 62
     7
370
    25
100
AcDbLine
 10
2.2026744403
 20
5.8356686286
 30
0.0
 11
2.1855155663
 21
5.8601740403
 31
0.0
  0
LINE
  5
F9
330
1F
100
AcDbEntity
  8
0
  6
Continuous
 62
     7
370
    25
100
AcDbLine
 10
2.1855155663
 20
5.8601740403
 30
0.0
 11
2.1610101546
 21
5.8356686286
 31
0.0
  0
LINE
  5
FA
330
1F
100
AcDbEntity
  8
0
  6
Continuous
 62
     7
370
    25
100
AcDbLine
 10
2.1610101546
 20
5.6952686286
 30
0.0
 11
2.1855155663
 21
5.6707632169
 31
0.0
  0
LINE
  5
FB
330
1F
100
AcDbEntity
  8
0
  6
Continuous
 62
     7
370
    25
100
AcDbLine
 10
2.8360101546
 20
9.0709054957
 30
0.0
 11
2.8360101546
 21
4.9349054957
 31
0.0
  0
LINE
  5
FC
330
1F
100
AcDbEntity
  8
0
  6
Continuous
 62
     7
370
    25
100
AcDbLine
 10
3.6810195635
 20
6.481569227
 30
0.0
 11
3.6810195635
 21
7.5242417644
 31
0.0
  0
LINE
  5
FD
330
1F
100
AcDbEntity
  8
0
  6
Continuous
 62
     7
370
    25
100
AcDbLine
 10
2.8360101546
 20
8.5229562571
 30
0.0
 11
3.7252627756
 21
7.6346064307
 31
0.0
  0
LWPOLYLINE
  5
FE
330
1F
100
AcDbEntity
  8
0
  6
Continuous
 62
     7
370
    25
100
AcDbPolyline
 90
        9
 70
   128
 43
0.0
 10
3.7252627756
 20
7.6346064307
 10
3.7293436262
 20
7.6277696438
 10
3.7305622383
 20
7.6183411271
 10
3.7288881052
 20
7.6065569151
 10
3.7243631372
 20
7.5927120154
 10
3.717100613
 20
7.5771530229
 10
3.7072823435
 20
7.5602694433
 10
3.6951541206
 20
7.5424839423
 10
3.6810195635
 20
7.5242417644
  0
LWPOLYLINE
  5
FF
330
1F
100
AcDbEntity
  8
0
  6
Continuous
 62
     7
370
    25
100
AcDbPolyline
 90
        9
 70
   128
 43
0.0
 10
3.6810195635
 20
6.481569227
 10
3.6951541206
 20
6.4633270491
 10
3.7072823435
 20
6.4455415481
 10
3.717100613
 20
6.4286579685
 10
3.7243631372
 20
6.413098976
 10
3.7288881052
 20
6.3992540763
 10
3.7305622383
 20
6.3874698643
 10
3.7293436262
 20
6.3780413476
 10
3.7252627756
 20
6.3712045607
  0
LINE
  5
100
330
1F
100
AcDbEntity
  8
0
  6
Continuous
 62
     7
370
    25
100
AcDbLine
 10
3.7252627756
 20
6.3712045607
 30
0.0
 11
2.8360101546
 21
5.4828547343
 31
0.0
  0
ARC
  5
101
330
1F
100
AcDbEntity
  8
0
  6
Continuous
 62
     7
370
    25
100
AcDbCircle
 10
3.6150101546
 20
6.481569227
 30
0.0
 40
0.1560000000000005
100
AcDbArc
 50
314.9709010794
 51
0.0
  0
LINE
  5
102
330
1F
100
AcDbEntity
  8
0
  6
Continuous
 62
     7
370
    25
100
AcDbLine
 10
3.7710101546
 20
6.481569227
 30
0.0
 11
3.6810195635
 21
6.481569227
 31
0.0
  0
LINE
  5
103
330
1F
100
AcDbEntity
  8
0
  6
Continuous
 62
     7
370
    25
100
AcDbLine
 10
3.7710101546
 20
7.5242417644
 30
0.0
 11
3.7710101546
 21
6.481569227
 31
0.0
  0
LINE
  5
104
330
1F
100
AcDbEntity
  8
0
  6
Continuous
 62
     7
370
    25
100
AcDbLine
 10
3.7710101546
 20
7.5242417644
 30
0.0
 11
3.6810195635
 21
7.5242417644
 31
0.0
  0
ARC
  5
105
330
1F
100
AcDbEntity
  8
0
  6
Continuous
 62
     7
370
    25
100
AcDbCircle
 10
3.6150101546
 20
7.5242417644
 30
0.0
 40
0.1559999999999999
100
AcDbArc
 50
0.0
 51
45.0290989206
  0
LINE
  5
106
330
1F
100
AcDbEntity
  8
0
  6
Continuous
 62
     7
370
    25
100
AcDbLine
 10
2.6260101546
 20
8.5231850752
 30
0.0
 11
2.6260101546
 21
4.8529054957
 31
0.0
  0
LINE
  5
107
330
1F
100
AcDbEntity
  8
0
  6
Continuous
 62
     7
370
    25
100
AcDbLine
 10
2.6260101546
 20
9.1529054957
 30
0.0
 11
2.6260101546
 21
8.5231850752
 31
0.0
  0
LINE
  5
108
330
1F
100
AcDbEntity
  8
0
  6
Continuous
 62
     7
370
    25
100
AcDbLine
 10
2.6760101546
 20
8.5231850752
 30
0.0
 11
2.6760101546
 21
4.8529054957
 31
0.0
  0
LINE
  5
109
330
1F
100
AcDbEntity
  8
0
  6
Continuous
 62
     7
370
    25
100
AcDbLine
 10
2.6760101546
 20
9.1529054957
 30
0.0
 11
2.6760101546
 21
8.5231850752
 31
0.0
  0
LINE
  5
10A
330
1F
100
AcDbEntity
  8
0
  6
Continuous
 62
     7
370
    25
100
AcDbLine
 10
2.5602878648
 20
8.1621058321
 30
0.0
 11
2.5602878648
 21
8.1453423628
 31
0.0
  0
LINE
  5
10B
330
1F
100
AcDbEntity
  8
0
  6
Continuous
 62
     7
370
    25
100
AcDbLine
 10
2.5602878648
 20
8.3353423628
 30
0.0
 11
2.5602878648
 21
8.1621058321
 31
0.0
  0
LINE
  5
10C
330
1F
100
AcDbEntity
  8
0
  6
Continuous
 62
     7
370
    25
100
AcDbLine
 10
2.5776530118
 20
8.1825296843
 30
0.0
 11
2.5776530118
 21
8.1701423628
 31
0.0
  0
LINE
  5
10D
330
1F
100
AcDbEntity
  8
0
  6
Continuous
 62
     7
370
    25
100
AcDbLine
 10
2.5776530118
 20
8.3105423628
 30
0.0
 11
2.5776530118
 21
8.1825296843
 31
0.0
  0
LINE
  5
10E
330
1F
100
AcDbEntity
  8
0
  6
Continuous
 62
     7
370
    25
100
AcDbLine
 10
2.553353873
 20
8.1621058321
 30
0.0
 11
2.553353873
 21
8.1453423628
 31
0.0
  0
LINE
  5
10F
330
1F
100
AcDbEntity
  8
0
  6
Continuous
 62
     7
370
    25
100
AcDbLine
 10
2.553353873
 20
8.3353423628
 30
0.0
 11
2.553353873
 21
8.1621058321
 31
0.0
  0
LINE
  5
110
330
1F
100
AcDbEntity
  8
0
  6
Continuous
 62
     7
370
    25
100
AcDbLine
 10
2.5186235791
 20
8.1621058321
 30
0.0
 11
2.5186235791
 21
8.1453423628
 31
0.0
  0
LINE
  5
111
330
1F
100
AcDbEntity
  8
0
  6
Continuous
 62
     7
370
    25
100
AcDbLine
 10
2.5186235791
 20
8.3353423628
 30
0.0
 11
2.5186235791
 21
8.1621058321
 31
0.0
  0
LINE
  5
112
330
1F
100
AcDbEntity
  8
0
  6
Continuous
 62
     7
370
    25
100
AcDbLine
 10
2.5359887261
 20
8.1825296843
 30
0.0
 11
2.5359887261
 21
8.1701423628
 31
0.0
  0
LINE
  5
113
330
1F
100
AcDbEntity
  8
0
  6
Continuous
 62
     7
370
    25
100
AcDbLine
 10
2.5359887261
 20
8.3105423628
 30
0.0
 11
2.5359887261
 21
8.1825296843
 31
0.0
  0
LINE
  5
114
330
1F
100
AcDbEntity
  8
0
  6
Continuous
 62
     7
370
    25
100
AcDbLine
 10
2.6019521505
 20
8.1621058321
 30
0.0
 11
2.6019521505
 21
8.1453423628
 31
0.0
  0
LINE
  5
115
330
1F
100
AcDbEntity
  8
0
  6
Continuous
 62
     7
370
    25
100
AcDbLine
 10
2.6019521505
 20
8.3353423628
 30
0.0
 11
2.6019521505
 21
8.1621058321
 31
0.0
  0
LINE
  5
116
330
1F
100
AcDbEntity
  8
0
  6
Continuous
 62
     7
370
    25
100
AcDbLine
 10
2.6193172975
 20
8.1825296843
 30
0.0
 11
2.6193172975
 21
8.1701423628
 31
0.0
  0
LINE
  5
117
330
1F
100
AcDbEntity
  8
0
  6
Continuous
 62
     7
370
    25
100
AcDbLine
 10
2.6193172975
 20
8.3105423628
 30
0.0
 11
2.6193172975
 21
8.1825296843
 31
0.0
  0
LINE
  5
118
330
1F
100
AcDbEntity
  8
0
  6
Continuous
 62
     7
370
    25
100
AcDbLine
 10
2.5950181587
 20
8.1621058321
 30
0.0
 11
2.5950181587
 21
8.1453423628
 31
0.0
  0
LINE
  5
119
330
1F
100
AcDbEntity
  8
0
  6
Continuous
 62
     7
370
    25
100
AcDbLine
 10
2.5950181587
 20
8.3353423628
 30
0.0
 11
2.5950181587
 21
8.1621058321
 31
0.0
  0
LINE
  5
11A
330
1F
100
AcDbEntity
  8
0
  6
Continuous
 62
     7
370
    25
100
AcDbLine
 10
2.4352950077
 20
8.1621058321
 30
0.0
 11
2.4352950077
 21
8.1453423628
 31
0.0
  0
LINE
  5
11B
330
1F
100
AcDbEntity
  8
0
  6
Continuous
 62
     7
370
    25
100
AcDbLine
 10
2.4352950077
 20
8.3353423628
 30
0.0
 11
2.4352950077
 21
8.1621058321
 31
0.0
  0
LINE
  5
11C
330
1F
100
AcDbEntity
  8
0
  6
Continuous
 62
     7
370
    25
100
AcDbLine
 10
2.4526601546
 20
8.1825296843
 30
0.0
 11
2.4526601546
 21
8.1701423628
 31
0.0
  0
LINE
  5
11D
330
1F
100
AcDbEntity
  8
0
  6
Continuous
 62
     7
370
    25
100
AcDbLine
 10
2.4526601546
 20
8.3105423628
 30
0.0
 11
2.4526601546
 21
8.1825296843
 31
0.0
  0
LINE
  5
11E
330
1F
100
AcDbEntity
  8
0
  6
Continuous
 62
     7
370
    25
100
AcDbLine
 10
2.4700253016
 20
8.1621058321
 30
0.0
 11
2.4700253016
 21
8.1453423628
 31
0.0
  0
LINE
  5
11F
330
1F
100
AcDbEntity
  8
0
  6
Continuous
 62
     7
370
    25
100
AcDbLine
 10
2.4700253016
 20
8.3353423628
 30
0.0
 11
2.4700253016
 21
8.1621058321
 31
0.0
  0
LINE
  5
120
330
1F
100
AcDbEntity
  8
0
  6
Continuous
 62
     7
370
    25
100
AcDbLine
 10
2.4283610159
 20
8.1621058321
 30
0.0
 11
2.4283610159
 21
8.1453423628
 31
0.0
  0
LINE
  5
121
330
1F
100
AcDbEntity
  8
0
  6
Continuous
 62
     7
370
    25
100
AcDbLine
 10
2.4283610159
 20
8.3353423628
 30
0.0
 11
2.4283610159
 21
8.1621058321
 31
0.0
  0
LINE
  5
122
330
1F
100
AcDbEntity
  8
0
  6
Continuous
 62
     7
370
    25
100
AcDbLine
 10
2.4769592934
 20
8.1621058321
 30
0.0
 11
2.4769592934
 21
8.1453423628
 31
0.0
  0
LINE
  5
123
330
1F
100
AcDbEntity
  8
0
  6
Continuous
 62
     7
370
    25
100
AcDbLine
 10
2.4769592934
 20
8.3353423628
 30
0.0
 11
2.4769592934
 21
8.1621058321
 31
0.0
  0
LINE
  5
124
330
1F
100
AcDbEntity
  8
0
  6
Continuous
 62
     7
370
    25
100
AcDbLine
 10
2.4943244403
 20
8.1825296843
 30
0.0
 11
2.4943244403
 21
8.1701423628
 31
0.0
  0
LINE
  5
125
330
1F
100
AcDbEntity
  8
0
  6
Continuous
 62
     7
370
    25
100
AcDbLine
 10
2.4943244403
 20
8.3105423628
 30
0.0
 11
2.4943244403
 21
8.1825296843
 31
0.0
  0
LINE
  5
126
330
1F
100
AcDbEntity
  8
0
  6
Continuous
 62
     7
370
    25
100
AcDbLine
 10
2.4109958689
 20
8.1825296843
 30
0.0
 11
2.4109958689
 21
8.1701423628
 31
0.0
  0
LINE
  5
127
330
1F
100
AcDbEntity
  8
0
  6
Continuous
 62
     7
370
    25
100
AcDbLine
 10
2.4109958689
 20
8.3105423628
 30
0.0
 11
2.4109958689
 21
8.1825296843
 31
0.0
  0
LINE
  5
128
330
1F
100
AcDbEntity
  8
0
  6
Continuous
 62
     7
370
    25
100
AcDbLine
 10
2.5116895873
 20
8.1621058321
 30
0.0
 11
2.5116895873
 21
8.1453423628
 31
0.0
  0
LINE
  5
129
330
1F
100
AcDbEntity
  8
0
  6
Continuous
 62
     7
370
    25
100
AcDbLine
 10
2.5116895873
 20
8.3353423628
 30
0.0
 11
2.5116895873
 21
8.1621058321
 31
0.0
  0
LINE
  5
12A
330
1F
100
AcDbEntity
  8
0
  6
Continuous
 62
     7
370
    25
100
AcDbLine
 10
2.2269735791
 20
8.1621058321
 30
0.0
 11
2.2269735791
 21
8.1453423628
 31
0.0
  0
LINE
  5
12B
330
1F
100
AcDbEntity
  8
0
  6
Continuous
 62
     7
370
    25
100
AcDbLine
 10
2.2269735791
 20
8.3353423628
 30
0.0
 11
2.2269735791
 21
8.1621058321
 31
0.0
  0
LINE
  5
12C
330
1F
100
AcDbEntity
  8
0
  6
Continuous
 62
     7
370
    25
100
AcDbLine
 10
2.2200395873
 20
8.1621058321
 30
0.0
 11
2.2200395873
 21
8.1453423628
 31
0.0
  0
LINE
  5
12D
330
1F
100
AcDbEntity
  8
0
  6
Continuous
 62
     7
370
    25
100
AcDbLine
 10
2.2200395873
 20
8.3353423628
 30
0.0
 11
2.2200395873
 21
8.1621058321
 31
0.0
  0
LINE
  5
12E
330
1F
100
AcDbEntity
  8
0
  6
Continuous
 62
     7
370
    25
100
AcDbLine
 10
2.3103021505
 20
8.1621058321
 30
0.0
 11
2.3103021505
 21
8.1453423628
 31
0.0
  0
LINE
  5
12F
330
1F
100
AcDbEntity
  8
0
  6
Continuous
 62
     7
370
    25
100
AcDbLine
 10
2.3103021505
 20
8.3353423628
 30
0.0
 11
2.3103021505
 21
8.1621058321
 31
0.0
  0
LINE
  5
130
330
1F
100
AcDbEntity
  8
0
  6
Continuous
 62
     7
370
    25
100
AcDbLine
 10
2.3276672975
 20
8.1825296843
 30
0.0
 11
2.3276672975
 21
8.1701423628
 31
0.0
  0
LINE
  5
131
330
1F
100
AcDbEntity
  8
0
  6
Continuous
 62
     7
370
    25
100
AcDbLine
 10
2.3276672975
 20
8.3105423628
 30
0.0
 11
2.3276672975
 21
8.1825296843
 31
0.0
  0
LINE
  5
132
330
1F
100
AcDbEntity
  8
0
  6
Continuous
 62
     7
370
    25
100
AcDbLine
 10
2.2860030118
 20
8.1825296843
 30
0.0
 11
2.2860030118
 21
8.1701423628
 31
0.0
  0
LINE
  5
133
330
1F
100
AcDbEntity
  8
0
  6
Continuous
 62
     7
370
    25
100
AcDbLine
 10
2.2860030118
 20
8.3105423628
 30
0.0
 11
2.2860030118
 21
8.1825296843
 31
0.0
  0
LINE
  5
134
330
1F
100
AcDbEntity
  8
0
  6
Continuous
 62
     7
370
    25
100
AcDbLine
 10
2.3033681587
 20
8.1621058321
 30
0.0
 11
2.3033681587
 21
8.1453423628
 31
0.0
  0
LINE
  5
135
330
1F
100
AcDbEntity
  8
0
  6
Continuous
 62
     7
370
    25
100
AcDbLine
 10
2.3033681587
 20
8.3353423628
 30
0.0
 11
2.3033681587
 21
8.1621058321
 31
0.0
  0
LINE
  5
136
330
1F
100
AcDbEntity
  8
0
  6
Continuous
 62
     7
370
    25
100
AcDbLine
 10
2.3693315832
 20
8.1825296843
 30
0.0
 11
2.3693315832
 21
8.1701423628
 31
0.0
  0
LINE
  5
137
330
1F
100
AcDbEntity
  8
0
  6
Continuous
 62
     7
370
    25
100
AcDbLine
 10
2.3693315832
 20
8.3105423628
 30
0.0
 11
2.3693315832
 21
8.1825296843
 31
0.0
  0
LINE
  5
138
330
1F
100
AcDbEntity
  8
0
  6
Continuous
 62
     7
370
    25
100
AcDbLine
 10
2.3866967301
 20
8.1621058321
 30
0.0
 11
2.3866967301
 21
8.1453423628
 31
0.0
  0
LINE
  5
139
330
1F
100
AcDbEntity
  8
0
  6
Continuous
 62
     7
370
    25
100
AcDbLine
 10
2.3866967301
 20
8.3353423628
 30
0.0
 11
2.3866967301
 21
8.1621058321
 31
0.0
  0
LINE
  5
13A
330
1F
100
AcDbEntity
  8
0
  6
Continuous
 62
     7
370
    25
100
AcDbLine
 10
2.393630722
 20
8.1621058321
 30
0.0
 11
2.393630722
 21
8.1453423628
 31
0.0
  0
LINE
  5
13B
330
1F
100
AcDbEntity
  8
0
  6
Continuous
 62
     7
370
    25
100
AcDbLine
 10
2.393630722
 20
8.3353423628
 30
0.0
 11
2.393630722
 21
8.1621058321
 31
0.0
  0
LINE
  5
13C
330
1F
100
AcDbEntity
  8
0
  6
Continuous
 62
     7
370
    25
100
AcDbLine
 10
2.2026744403
 20
8.1825296843
 30
0.0
 11
2.2026744403
 21
8.1701423628
 31
0.0
  0
LINE
  5
13D
330
1F
100
AcDbEntity
  8
0
  6
Continuous
 62
     7
370
    25
100
AcDbLine
 10
2.2026744403
 20
8.3105423628
 30
0.0
 11
2.2026744403
 21
8.1825296843
 31
0.0
  0
LINE
  5
13E
330
1F
100
AcDbEntity
  8
0
  6
Continuous
 62
     7
370
    25
100
AcDbLine
 10
2.2443387261
 20
8.1825296843
 30
0.0
 11
2.2443387261
 21
8.1701423628
 31
0.0
  0
LINE
  5
13F
330
1F
100
AcDbEntity
  8
0
  6
Continuous
 62
     7
370
    25
100
AcDbLine
 10
2.2443387261
 20
8.3105423628
 30
0.0
 11
2.2443387261
 21
8.1825296843
 31
0.0
  0
LINE
  5
140
330
1F
100
AcDbEntity
  8
0
  6
Continuous
 62
     7
370
    25
100
AcDbLine
 10
2.261703873
 20
8.1621058321
 30
0.0
 11
2.261703873
 21
8.1453423628
 31
0.0
  0
LINE
  5
141
330
1F
100
AcDbEntity
  8
0
  6
Continuous
 62
     7
370
    25
100
AcDbLine
 10
2.261703873
 20
8.3353423628
 30
0.0
 11
2.261703873
 21
8.1621058321
 31
0.0
  0
LINE
  5
142
330
1F
100
AcDbEntity
  8
0
  6
Continuous
 62
     7
370
    25
100
AcDbLine
 10
2.2686378648
 20
8.1621058321
 30
0.0
 11
2.2686378648
 21
8.1453423628
 31
0.0
  0
LINE
  5
143
330
1F
100
AcDbEntity
  8
0
  6
Continuous
 62
     7
370
    25
100
AcDbLine
 10
2.2686378648
 20
8.3353423628
 30
0.0
 11
2.2686378648
 21
8.1621058321
 31
0.0
  0
LINE
  5
144
330
1F
100
AcDbEntity
  8
0
  6
Continuous
 62
     7
370
    25
100
AcDbLine
 10
2.3519664363
 20
8.1621058321
 30
0.0
 11
2.3519664363
 21
8.1453423628
 31
0.0
  0
LINE
  5
145
330
1F
100
AcDbEntity
  8
0
  6
Continuous
 62
     7
370
    25
100
AcDbLine
 10
2.3519664363
 20
8.3353423628
 30
0.0
 11
2.3519664363
 21
8.1621058321
 31
0.0
  0
LINE
  5
146
330
1F
100
AcDbEntity
  8
0
  6
Continuous
 62
     7
370
    25
100
AcDbLine
 10
2.3450324444
 20
8.1621058321
 30
0.0
 11
2.3450324444
 21
8.1453423628
 31
0.0
  0
LINE
  5
147
330
1F
100
AcDbEntity
  8
0
  6
Continuous
 62
     7
370
    25
100
AcDbLine
 10
2.3450324444
 20
8.3353423628
 30
0.0
 11
2.3450324444
 21
8.1621058321
 31
0.0
  0
LINE
  5
148
330
1F
100
AcDbEntity
  8
0
  6
Continuous
 62
     7
370
    25
100
AcDbLine
 10
2.1855155663
 20
8.1456369511
 30
0.0
 11
2.1855155663
 21
8.3350477745
 31
0.0
  0
LINE
  5
149
330
1F
100
AcDbEntity
  8
0
  6
Continuous
 62
     7
370
    25
100
AcDbLine
 10
2.1610101546
 20
8.3105423628
 30
0.0
 11
2.1610101546
 21
8.1701423628
 31
0.0
  0
LINE
  5
14A
330
1F
100
AcDbEntity
  8
0
  6
Continuous
 62
     7
370
    25
100
AcDbLine
 10
2.9570101546
 20
5.9217186286
 30
0.0
 11
2.9570101546
 21
5.6092186286
 31
0.0
  0
LINE
  5
14B
330
1F
100
AcDbEntity
  8
0
  6
Continuous
 62
     7
370
    25
100
AcDbLine
 10
2.9760101546
 20
5.9027186286
 30
0.0
 11
2.9760101546
 21
5.6282186286
 31
0.0
  0
LINE
  5
14C
330
1F
100
AcDbEntity
  8
0
  6
Continuous
 62
     7
370
    25
100
AcDbLine
 10
2.5186235791
 20
5.6872320979
 30
0.0
 11
2.5186235791
 21
5.6704686286
 31
0.0
  0
LINE
  5
14D
330
1F
100
AcDbEntity
  8
0
  6
Continuous
 62
     7
370
    25
100
AcDbLine
 10
2.5186235791
 20
5.8604686286
 30
0.0
 11
2.5186235791
 21
5.6872320979
 31
0.0
  0
LINE
  5
14E
330
1F
100
AcDbEntity
  8
0
  6
Continuous
 62
     7
370
    25
100
AcDbLine
 10
2.5116895873
 20
5.6872320979
 30
0.0
 11
2.5116895873
 21
5.6704686286
 31
0.0
  0
LINE
  5
14F
330
1F
100
AcDbEntity
  8
0
  6
Continuous
 62
     7
370
    25
100
AcDbLine
 10
2.5116895873
 20
5.8604686286
 30
0.0
 11
2.5116895873
 21
5.6872320979
 31
0.0
  0
LINE
  5
150
330
1F
100
AcDbEntity
  8
0
  6
Continuous
 62
     7
370
    25
100
AcDbLine
 10
2.4943244403
 20
5.7076559502
 30
0.0
 11
2.4943244403
 21
5.6952686286
 31
0.0
  0
LINE
  5
151
330
1F
100
AcDbEntity
  8
0
  6
Continuous
 62
     7
370
    25
100
AcDbLine
 10
2.4943244403
 20
5.8356686286
 30
0.0
 11
2.4943244403
 21
5.7076559502
 31
0.0
  0
LINE
  5
152
330
1F
100
AcDbEntity
  8
0
  6
Continuous
 62
     7
370
    25
100
AcDbLine
 10
2.5602878648
 20
5.6872320979
 30
0.0
 11
2.5602878648
 21
5.6704686286
 31
0.0
  0
LINE
  5
153
330
1F
100
AcDbEntity
  8
0
  6
Continuous
 62
     7
370
    25
100
AcDbLine
 10
2.5602878648
 20
5.8604686286
 30
0.0
 11
2.5602878648
 21
5.6872320979
 31
0.0
  0
LINE
  5
154
330
1F
100
AcDbEntity
  8
0
  6
Continuous
 62
     7
370
    25
100
AcDbLine
 10
2.553353873
 20
5.6872320979
 30
0.0
 11
2.553353873
 21
5.6704686286
 31
0.0
  0
LINE
  5
155
330
1F
100
AcDbEntity
  8
0
  6
Continuous
 62
     7
370
    25
100
AcDbLine
 10
2.553353873
 20
5.8604686286
 30
0.0
 11
2.553353873
 21
5.6872320979
 31
0.0
  0
LINE
  5
156
330
1F
100
AcDbEntity
  8
0
  6
Continuous
 62
     7
370
    25
100
AcDbLine
 10
2.5359887261
 20
5.7076559502
 30
0.0
 11
2.5359887261
 21
5.6952686286
 31
0.0
  0
LINE
  5
157
330
1F
100
AcDbEntity
  8
0
  6
Continuous
 62
     7
370
    25
100
AcDbLine
 10
2.5359887261
 20
5.8356686286
 30
0.0
 11
2.5359887261
 21
5.7076559502
 31
0.0
  0
LINE
  5
158
330
1F
100
AcDbEntity
  8
0
  6
Continuous
 62
     7
370
    25
100
AcDbLine
 10
2.4352950077
 20
5.6872320979
 30
0.0
 11
2.4352950077
 21
5.6704686286
 31
0.0
  0
LINE
  5
159
330
1F
100
AcDbEntity
  8
0
  6
Continuous
 62
     7
370
    25
100
AcDbLine
 10
2.4352950077
 20
5.8604686286
 30
0.0
 11
2.4352950077
 21
5.6872320979
 31
0.0
  0
LINE
  5
15A
330
1F
100
AcDbEntity
  8
0
  6
Continuous
 62
     7
370
    25
100
AcDbLine
 10
2.4283610159
 20
5.6872320979
 30
0.0
 11
2.4283610159
 21
5.6704686286
 31
0.0
  0
LINE
  5
15B
330
1F
100
AcDbEntity
  8
0
  6
Continuous
 62
     7
370
    25
100
AcDbLine
 10
2.4283610159
 20
5.8604686286
 30
0.0
 11
2.4283610159
 21
5.6872320979
 31
0.0
  0
LINE
  5
15C
330
1F
100
AcDbEntity
  8
0
  6
Continuous
 62
     7
370
    25
100
AcDbLine
 10
2.4769592934
 20
5.6872320979
 30
0.0
 11
2.4769592934
 21
5.6704686286
 31
0.0
  0
LINE
  5
15D
330
1F
100
AcDbEntity
  8
0
  6
Continuous
 62
     7
370
    25
100
AcDbLine
 10
2.4769592934
 20
5.8604686286
 30
0.0
 11
2.4769592934
 21
5.6872320979
 31
0.0
  0
LINE
  5
15E
330
1F
100
AcDbEntity
  8
0
  6
Continuous
 62
     7
370
    25
100
AcDbLine
 10
2.4109958689
 20
5.7076559502
 30
0.0
 11
2.4109958689
 21
5.6952686286
 31
0.0
  0
LINE
  5
15F
330
1F
100
AcDbEntity
  8
0
  6
Continuous
 62
     7
370
    25
100
AcDbLine
 10
2.4109958689
 20
5.8356686286
 30
0.0
 11
2.4109958689
 21
5.7076559502
 31
0.0
  0
LINE
  5
160
330
1F
100
AcDbEntity
  8
0
  6
Continuous
 62
     7
370
    25
100
AcDbLine
 10
2.393630722
 20
5.6872320979
 30
0.0
 11
2.393630722
 21
5.6704686286
 31
0.0
  0
LINE
  5
161
330
1F
100
AcDbEntity
  8
0
  6
Continuous
 62
     7
370
    25
100
AcDbLine
 10
2.393630722
 20
5.8604686286
 30
0.0
 11
2.393630722
 21
5.6872320979
 31
0.0
  0
LINE
  5
162
330
1F
100
AcDbEntity
  8
0
  6
Continuous
 62
     7
370
    25
100
AcDbLine
 10
2.3866967301
 20
5.6872320979
 30
0.0
 11
2.3866967301
 21
5.6704686286
 31
0.0
  0
LINE
  5
163
330
1F
100
AcDbEntity
  8
0
  6
Continuous
 62
     7
370
    25
100
AcDbLine
 10
2.3866967301
 20
5.8604686286
 30
0.0
 11
2.3866967301
 21
5.6872320979
 31
0.0
  0
LINE
  5
164
330
1F
100
AcDbEntity
  8
0
  6
Continuous
 62
     7
370
    25
100
AcDbLine
 10
2.5776530118
 20
5.7076559502
 30
0.0
 11
2.5776530118
 21
5.6952686286
 31
0.0
  0
LINE
  5
165
330
1F
100
AcDbEntity
  8
0
  6
Continuous
 62
     7
370
    25
100
AcDbLine
 10
2.5776530118
 20
5.8356686286
 30
0.0
 11
2.5776530118
 21
5.7076559502
 31
0.0
  0
LINE
  5
166
330
1F
100
AcDbEntity
  8
0
  6
Continuous
 62
     7
370
    25
100
AcDbLine
 10
2.5950181587
 20
5.6872320979
 30
0.0
 11
2.5950181587
 21
5.6704686286
 31
0.0
  0
LINE
  5
167
330
1F
100
AcDbEntity
  8
0
  6
Continuous
 62
     7
370
    25
100
AcDbLine
 10
2.5950181587
 20
5.8604686286
 30
0.0
 11
2.5950181587
 21
5.6872320979
 31
0.0
  0
LINE
  5
168
330
1F
100
AcDbEntity
  8
0
  6
Continuous
 62
     7
370
    25
100
AcDbLine
 10
2.3693315832
 20
5.7076559502
 30
0.0
 11
2.3693315832
 21
5.6952686286
 31
0.0
  0
LINE
  5
169
330
1F
100
AcDbEntity
  8
0
  6
Continuous
 62
     7
370
    25
100
AcDbLine
 10
2.3693315832
 20
5.8356686286
 30
0.0
 11
2.3693315832
 21
5.7076559502
 31
0.0
  0
LINE
  5
16A
330
1F
100
AcDbEntity
  8
0
  6
Continuous
 62
     7
370
    25
100
AcDbLine
 10
2.3103021505
 20
5.6872320979
 30
0.0
 11
2.3103021505
 21
5.6704686286
 31
0.0
  0
LINE
  5
16B
330
1F
100
AcDbEntity
  8
0
  6
Continuous
 62
     7
370
    25
100
AcDbLine
 10
2.3103021505
 20
5.8604686286
 30
0.0
 11
2.3103021505
 21
5.6872320979
 31
0.0
  0
LINE
  5
16C
330
1F
100
AcDbEntity
  8
0
  6
Continuous
 62
     7
370
    25
100
AcDbLine
 10
2.3276672975
 20
5.7076559502
 30
0.0
 11
2.3276672975
 21
5.6952686286
 31
0.0
  0
LINE
  5
16D
330
1F
100
AcDbEntity
  8
0
  6
Continuous
 62
     7
370
    25
100
AcDbLine
 10
2.3276672975
 20
5.8356686286
 30
0.0
 11
2.3276672975
 21
5.7076559502
 31
0.0
  0
LINE
  5
16E
330
1F
100
AcDbEntity
  8
0
  6
Continuous
 62
     7
370
    25
100
AcDbLine
 10
2.6019521505
 20
5.6872320979
 30
0.0
 11
2.6019521505
 21
5.6704686286
 31
0.0
  0
LINE
  5
16F
330
1F
100
AcDbEntity
  8
0
  6
Continuous
 62
     7
370
    25
100
AcDbLine
 10
2.6019521505
 20
5.8604686286
 30
0.0
 11
2.6019521505
 21
5.6872320979
 31
0.0
  0
LINE
  5
170
330
1F
100
AcDbEntity
  8
0
  6
Continuous
 62
     7
370
    25
100
AcDbLine
 10
2.6193172975
 20
5.7076559502
 30
0.0
 11
2.6193172975
 21
5.6952686286
 31
0.0
  0
LINE
  5
171
330
1F
100
AcDbEntity
  8
0
  6
Continuous
 62
     7
370
    25
100
AcDbLine
 10
2.6193172975
 20
5.8356686286
 30
0.0
 11
2.6193172975
 21
5.7076559502
 31
0.0
  0
LINE
  5
172
330
1F
100
AcDbEntity
  8
0
  6
Continuous
 62
     7
370
    25
100
AcDbLine
 10
2.4526601546
 20
5.7076559502
 30
0.0
 11
2.4526601546
 21
5.6952686286
 31
0.0
  0
LINE
  5
173
330
1F
100
AcDbEntity
  8
0
  6
Continuous
 62
     7
370
    25
100
AcDbLine
 10
2.4526601546
 20
5.8356686286
 30
0.0
 11
2.4526601546
 21
5.7076559502
 31
0.0
  0
LINE
  5
174
330
1F
100
AcDbEntity
  8
0
  6
Continuous
 62
     7
370
    25
100
AcDbLine
 10
2.4700253016
 20
5.6872320979
 30
0.0
 11
2.4700253016
 21
5.6704686286
 31
0.0
  0
LINE
  5
175
330
1F
100
AcDbEntity
  8
0
  6
Continuous
 62
     7
370
    25
100
AcDbLine
 10
2.4700253016
 20
5.8604686286
 30
0.0
 11
2.4700253016
 21
5.6872320979
 31
0.0
  0
LINE
  5
176
330
1F
100
AcDbEntity
  8
0
  6
Continuous
 62
     7
370
    25
100
AcDbLine
 10
2.2443387261
 20
5.7076559502
 30
0.0
 11
2.2443387261
 21
5.6952686286
 31
0.0
  0
LINE
  5
177
330
1F
100
AcDbEntity
  8
0
  6
Continuous
 62
     7
370
    25
100
AcDbLine
 10
2.2443387261
 20
5.8356686286
 30
0.0
 11
2.2443387261
 21
5.7076559502
 31
0.0
  0
LINE
  5
178
330
1F
100
AcDbEntity
  8
0
  6
Continuous
 62
     7
370
    25
100
AcDbLine
 10
2.261703873
 20
5.6872320979
 30
0.0
 11
2.261703873
 21
5.6704686286
 31
0.0
  0
LINE
  5
179
330
1F
100
AcDbEntity
  8
0
  6
Continuous
 62
     7
370
    25
100
AcDbLine
 10
2.261703873
 20
5.8604686286
 30
0.0
 11
2.261703873
 21
5.6872320979
 31
0.0
  0
LINE
  5
17A
330
1F
100
AcDbEntity
  8
0
  6
Continuous
 62
     7
370
    25
100
AcDbLine
 10
2.2269735791
 20
5.6872320979
 30
0.0
 11
2.2269735791
 21
5.6704686286
 31
0.0
  0
LINE
  5
17B
330
1F
100
AcDbEntity
  8
0
  6
Continuous
 62
     7
370
    25
100
AcDbLine
 10
2.2269735791
 20
5.8604686286
 30
0.0
 11
2.2269735791
 21
5.6872320979
 31
0.0
  0
LINE
  5
17C
330
1F
100
AcDbEntity
  8
0
  6
Continuous
 62
     7
370
    25
100
AcDbLine
 10
2.2200395873
 20
5.6872320979
 30
0.0
 11
2.2200395873
 21
5.6704686286
 31
0.0
  0
LINE
  5
17D
330
1F
100
AcDbEntity
  8
0
  6
Continuous
 62
     7
370
    25
100
AcDbLine
 10
2.2200395873
 20
5.8604686286
 30
0.0
 11
2.2200395873
 21
5.6872320979
 31
0.0
  0
LINE
  5
17E
330
1F
100
AcDbEntity
  8
0
  6
Continuous
 62
     7
370
    25
100
AcDbLine
 10
2.2026744403
 20
5.7076559502
 30
0.0
 11
2.2026744403
 21
5.6952686286
 31
0.0
  0
LINE
  5
17F
330
1F
100
AcDbEntity
  8
0
  6
Continuous
 62
     7
370
    25
100
AcDbLine
 10
2.2026744403
 20
5.8356686286
 30
0.0
 11
2.2026744403
 21
5.7076559502
 31
0.0
  0
LINE
  5
180
330
1F
100
AcDbEntity
  8
0
  6
Continuous
 62
     7
370
    25
100
AcDbLine
 10
2.2860030118
 20
5.7076559502
 30
0.0
 11
2.2860030118
 21
5.6952686286
 31
0.0
  0
LINE
  5
181
330
1F
100
AcDbEntity
  8
0
  6
Continuous
 62
     7
370
    25
100
AcDbLine
 10
2.2860030118
 20
5.8356686286
 30
0.0
 11
2.2860030118
 21
5.7076559502
 31
0.0
  0
LINE
  5
182
330
1F
100
AcDbEntity
  8
0
  6
Continuous
 62
     7
370
    25
100
AcDbLine
 10
2.3033681587
 20
5.6872320979
 30
0.0
 11
2.3033681587
 21
5.6704686286
 31
0.0
  0
LINE
  5
183
330
1F
100
AcDbEntity
  8
0
  6
Continuous
 62
     7
370
    25
100
AcDbLine
 10
2.3033681587
 20
5.8604686286
 30
0.0
 11
2.3033681587
 21
5.6872320979
 31
0.0
  0
LINE
  5
184
330
1F
100
AcDbEntity
  8
0
  6
Continuous
 62
     7
370
    25
100
AcDbLine
 10
2.2686378648
 20
5.6872320979
 30
0.0
 11
2.2686378648
 21
5.6704686286
 31
0.0
  0
LINE
  5
185
330
1F
100
AcDbEntity
  8
0
  6
Continuous
 62
     7
370
    25
100
AcDbLine
 10
2.2686378648
 20
5.8604686286
 30
0.0
 11
2.2686378648
 21
5.6872320979
 31
0.0
  0
LINE
  5
186
330
1F
100
AcDbEntity
  8
0
  6
Continuous
 62
     7
370
    25
100
AcDbLine
 10
2.3519664363
 20
5.6872320979
 30
0.0
 11
2.3519664363
 21
5.6704686286
 31
0.0
  0
LINE
  5
187
330
1F
100
AcDbEntity
  8
0
  6
Continuous
 62
     7
370
    25
100
AcDbLine
 10
2.3519664363
 20
5.8604686286
 30
0.0
 11
2.3519664363
 21
5.6872320979
 31
0.0
  0
LINE
  5
188
330
1F
100
AcDbEntity
  8
0
  6
Continuous
 62
     7
370
    25
100
AcDbLine
 10
2.3450324444
 20
5.6872320979
 30
0.0
 11
2.3450324444
 21
5.6704686286
 31
0.0
  0
LINE
  5
189
330
1F
100
AcDbEntity
  8
0
  6
Continuous
 62
     7
370
    25
100
AcDbLine
 10
2.3450324444
 20
5.8604686286
 30
0.0
 11
2.3450324444
 21
5.6872320979
 31
0.0
  0
LINE
  5
18A
330
1F
100
AcDbEntity
  8
0
  6
Continuous
 62
     7
370
    25
100
AcDbLine
 10
2.1855155663
 20
5.6707632169
 30
0.0
 11
2.1855155663
 21
5.8601740403
 31
0.0
  0
LINE
  5
18B
330
1F
100
AcDbEntity
  8
0
  6
Continuous
 62
     7
370
    25
100
AcDbLine
 10
2.1610101546
 20
5.8356686286
 30
0.0
 11
2.1610101546
 21
5.6952686286
 31
0.0
  0
LINE
  5
18C
330
1F
100
AcDbEntity
  8
0
  6
Continuous
 62
     7
370
    25
100
AcDbLine
 10
3.6810195635
 20
7.5242417644
 30
0.0
 11
2.8360101546
 21
8.3683932957
 31
0.0
  0
LINE
  5
18D
330
1F
100
AcDbEntity
  8
0
  6
Continuous
 62
     7
370
    25
100
AcDbLine
 10
2.9760101546
 20
5.7772755637
 30
0.0
 11
3.6810195635
 21
6.481569227
 31
0.0
  0
DIMENSION
  5
18E
330
1F
100
AcDbEntity
  8
0
  6
Continuous
 62
     7
370
    18
100
AcDbDimension
  2
_D
 10
3.7710101546
 20
9.6633131582
 30
0.0
 11
5.0308526743
 21
9.6633131582
 31
0.0
 70
   160
  1
<>
 71
     2
 42
-1.0
  3
SLDDIMSTYLE0
100
AcDbAlignedDimension
 13
2.6760101546
 23
9.1529054957
 33
0.0
 14
3.7710101546
 24
7.5242417644
 34
0.0
100
AcDbRotatedDimension
  0
DIMENSION
  5
1A3
330
1F
100
AcDbEntity
  8
0
  6
Continuous
 62
     7
370
    18
100
AcDbDimension
  2
_D_1
 10
2.6760101546
 20
4.5282763097
 30
0.0
 11
1.621843449
 21
4.5282763097
 31
0.0
 70
   160
  1
<>
 71
     2
 42
-1.0
  3
SLDDIMSTYLE1
100
AcDbAlignedDimension
 13
2.6260101546
 23
4.8529054957
 33
0.0
 14
2.6760101546
 24
4.8529054957
 34
0.0
100
AcDbRotatedDimension
  0
MTEXT
  5
1B8
330
1F
100
AcDbEntity
  8
0
  6
Continuous
 62
     7
370
     0
100
AcDbMText
 10
2.789941233
 20
11.1688581826
 30
0.0
 40
0.25
 41
0.0
 71
     2
 72
     1
  1
GASKET
  7
SLDTEXTSTYLE0
 73
     1
 44
1.0
  0
MTEXT
  5
1B9
330
1F
100
AcDbEntity
  8
0
  6
Continuous
 62
     7
370
     0
100
AcDbMText
 10
2.789680805
 20
10.8401180335
 30
0.0
 40
0.25
 41
0.0
 71
     2
 72
     1
  1
(INCLUDED)
  7
SLDTEXTSTYLE0
 73
     1
 44
1.0
  0
LEADER
  5
1BB
330
1F
100
AcDbEntity
  8
0
  6
Continuous
 62
     7
370
     0
100
AcDbLeader
  3
SLDDIMSTYLE2
 76
     3
 10
2.6260101546
 20
8.9553990818
 30
0.0
 10
1.3107026658
 20
11.0433861379
 30
0.0
 10
2.1429943438
 20
11.0433861379
 30
0.0
  0
LINE
  5
1BC
330
1F
100
AcDbEntity
  8
0
  6
Continuous
 62
     7
370
    25
100
AcDbLine
 10
15.7939440791
 20
15.2952314442
 30
0.0
 11
15.6808069941
 21
15.2299187953
 31
0.0
  0
LINE
  5
1BD
330
1F
100
AcDbEntity
  8
0
  6
Continuous
 62
     7
370
    25
100
AcDbLine
 10
17.7486389332
 20
11.6479407004
 30
0.0
 11
17.8617760182
 21
11.7132533494
 31
0.0
  0
LINE
  5
1BE
330
1F
100
AcDbEntity
  8
0
  6
Continuous
 62
     7
370
    25
100
AcDbLine
 10
16.0154412487
 20
15.0857060422
 30
0.0
 11
15.6690108035
 21
13.7854584675
 31
0.0
  0
ARC
  5
1BF
330
1F
100
AcDbEntity
  8
0
  6
Continuous
 62
     7
370
    25
100
AcDbCircle
 10
15.8197521741
 20
13.7452958084
 30
0.0
 40
0.1560000000000024
100
AcDbArc
 50
165.0810176846
 51
180.0
  0
LINE
  5
1C0
330
1F
100
AcDbEntity
  8
0
  6
Continuous
 62
     7
370
    25
100
AcDbLine
 10
15.6637521741
 20
13.7452958084
 30
0.0
 11
15.6637521741
 21
12.8939111282
 31
0.0
  0
LINE
  5
1C1
330
1F
100
AcDbEntity
  8
0
  6
Continuous
 62
     7
370
    25
100
AcDbLine
 10
16.0437709288
 20
13.2153771936
 30
0.0
 11
16.0437709288
 21
13.3804236243
 31
0.0
  0
ARC
  5
1C2
330
1F
100
AcDbEntity
  8
0
  6
Continuous
 62
     7
370
    25
100
AcDbCircle
 10
15.8197521741
 20
12.8939111282
 30
0.0
 40
0.1560000000000024
100
AcDbArc
 50
180.0
 51
240.0026882664
  0
LINE
  5
1C3
330
1F
100
AcDbEntity
  8
0
  6
Continuous
 62
     7
370
    25
100
AcDbLine
 10
15.7883027501
 20
15.3866576537
 30
0.0
 11
15.7529474111
 21
15.3662474509
 31
0.0
  0
LINE
  5
1C4
330
1F
100
AcDbEntity
  8
0
  6
Continuous
 62
     7
370
    25
100
AcDbLine
 10
17.9027726863
 20
11.6422373427
 30
0.0
 11
17.9381280253
 21
11.6626475455
 31
0.0
  0
LINE
  5
1C5
330
1F
100
AcDbEntity
  8
0
  6
Continuous
 62
     7
370
    25
100
AcDbLine
 10
17.3936776086
 20
13.9586098968
 30
0.0
 11
17.3936776086
 21
13.9430981427
 31
0.0
  0
LINE
  5
1C6
330
1F
100
AcDbEntity
  8
0
  6
Continuous
 62
     7
370
    25
100
AcDbLine
 10
17.4907122409
 20
13.7750110169
 30
0.0
 11
17.5041450862
 21
13.7672538793
 31
0.0
  0
LINE
  5
1C7
330
1F
100
AcDbEntity
  8
0
  6
Continuous
 62
     7
370
    25
100
AcDbLine
 10
17.5822816941
 20
13.7595078784
 30
0.0
 11
17.7031969537
 21
13.8293107719
 31
0.0
  0
LINE
  5
1C8
330
1F
100
AcDbEntity
  8
0
  6
Continuous
 62
     7
370
    25
100
AcDbLine
 10
17.5469596517
 20
14.0999510414
 30
0.0
 11
17.4260443922
 21
14.0301481479
 31
0.0
  0
LINE
  5
1C9
330
1F
100
AcDbEntity
  8
0
  6
Continuous
 62
     7
370
    25
100
AcDbLine
 10
18.0089507981
 20
14.0765422014
 30
0.0
 11
18.0138538707
 21
14.079372685
 31
0.0
  0
LINE
  5
1CA
330
1F
100
AcDbEntity
  8
0
  6
Continuous
 62
     7
370
    25
100
AcDbLine
 10
17.9188615911
 20
14.2439219689
 30
0.0
 11
17.9139585185
 21
14.2410914853
 31
0.0
  0
LINE
  5
1CB
330
1F
100
AcDbEntity
  8
0
  6
Continuous
 62
     7
370
    25
100
AcDbLine
 10
18.0384118971
 20
14.0935497319
 30
0.0
 11
18.0433149697
 21
14.0963802154
 31
0.0
  0
LINE
  5
1CC
330
1F
100
AcDbEntity
  8
0
  6
Continuous
 62
     7
370
    25
100
AcDbLine
 10
17.9483226901
 20
14.2609294993
 30
0.0
 11
17.9434196175
 21
14.2580990157
 31
0.0
  0
LINE
  5
1CD
330
1F
100
AcDbEntity
  8
0
  6
Continuous
 62
     7
370
    25
100
AcDbLine
 10
18.067872996
 20
14.1105572623
 30
0.0
 11
18.0727760687
 21
14.1133877459
 31
0.0
  0
LINE
  5
1CE
330
1F
100
AcDbEntity
  8
0
  6
Continuous
 62
     7
370
    25
100
AcDbLine
 10
17.9777837891
 20
14.2779370297
 30
0.0
 11
17.9728807164
 21
14.2751065461
 31
0.0
  0
LINE
  5
1CF
330
1F
100
AcDbEntity
  8
0
  6
Continuous
 62
     7
370
    25
100
AcDbLine
 10
18.116658937
 20
14.1710961
 30
0.0
 11
18.116658937
 21
14.1911025169
 31
0.0
  0
LINE
  5
1D0
330
1F
100
AcDbEntity
  8
0
  6
Continuous
 62
     7
370
    25
100
AcDbLine
 10
18.0670281087
 20
14.2770749485
 30
0.0
 11
18.0497029822
 21
14.2870797827
 31
0.0
  0
LINE
  5
1D1
330
1F
100
AcDbEntity
  8
0
  6
Continuous
 62
     7
370
    25
100
AcDbLine
 10
15.6436776086
 20
12.9480279848
 30
0.0
 11
15.6436776086
 21
12.9325162307
 31
0.0
  0
LINE
  5
1D2
330
1F
100
AcDbEntity
  8
0
  6
Continuous
 62
     7
370
    25
100
AcDbLine
 10
16.2884118971
 20
13.0829678198
 30
0.0
 11
16.289798085
 21
13.0837680491
 31
0.0
  0
LINE
  5
1D3
330
1F
100
AcDbEntity
  8
0
  6
Continuous
 62
     7
370
    25
100
AcDbLine
 10
16.1948416148
 20
13.2483380052
 30
0.0
 11
16.1934196175
 21
13.2475171037
 31
0.0
  0
LWPOLYLINE
  5
1D4
330
1F
100
AcDbEntity
  8
0
  6
Continuous
 62
     7
370
    25
100
AcDbPolyline
 90
       41
 70
   128
 43
0.0
 10
18.2901568722
 20
12.6600764092
 10
18.2875395506
 20
12.7625730338
 10
18.2796969553
 20
12.8677246422
 10
18.2666571606
 20
12.975154819
 10
18.2484668457
 20
13.084478992
 10
18.2251911272
 20
13.1953058091
 10
18.196913326
 20
13.307238539
 10
18.1637346695
 20
13.4198764915
 10
18.1257739285
 20
13.5328164521
 10
18.0831669927
 20
13.645654125
 10
18.0360663838
 20
13.7579855806
 10
17.9846407098
 20
13.8694087014
 10
17.9290740613
 20
13.9795246217
 10
17.8695653524
 20
14.087939155
 10
17.8063276088
 20
14.1942642053
 10
17.7395872054
 20
14.2981191567
 10
17.6695830554
 20
14.3991322352
 10
17.5965657554
 20
14.4969418405
 10
17.5207966886
 20
14.5911978393
 10
17.4425470884
 20
14.6815628198
 10
17.3620970681
 20
14.7677132987
 10
17.2797346179
 20
14.8493408798
 10
17.1957545741
 20
14.9261533573
 10
17.1104575634
 20
14.9978757626
 10
17.0241489269
 20
15.0642513482
 10
16.9371376271
 20
15.1250425065
 10
16.849735142
 20
15.1800316212
 10
16.7622543498
 20
15.2290218453
 10
16.6750084089
 20
15.2718378067
 10
16.5883096372
 20
15.3083262352
 10
16.5024683938
 20
15.3383565118
 10
16.4177919681
 20
15.3618211359
 10
16.3345834796
 20
15.3786361103
 10
16.2531407933
 20
15.3887412416
 10
16.1737554528
 20
15.3921003561
 10
16.0967116369
 20
15.3887014291
 10
16.0222851426
 20
15.3785566279
 10
15.9507423974
 20
15.3617022681
 10
15.8823395057
 20
15.3381986841
 10
15.8173213322
 20
15.3081300126
 10
15.7939440791
 20
15.2952314442
  0
LWPOLYLINE
  5
1D5
330
1F
100
AcDbEntity
  8
0
  6
Continuous
 62
     7
370
    25
100
AcDbPolyline
 90
       15
 70
   128
 43
0.0
 10
17.8617760182
 20
11.7132533494
 10
17.8695653524
 20
11.7178182958
 10
17.9290740613
 20
11.7575255362
 10
17.9846407098
 20
11.8034855696
 10
18.0360663838
 20
11.8555338711
 10
18.0831669927
 20
11.9134841213
 10
18.1257739285
 20
11.9771288731
 10
18.1637346695
 20
12.0462402951
 10
18.196913326
 20
12.1205709862
 10
18.2251911272
 20
12.1998548618
 10
18.2484668457
 20
12.2838081063
 10
18.2666571606
 20
12.3721301887
 10
18.2796969553
 20
12.4645049391
 10
18.2875395506
 20
12.5606016797
 10
18.2901568722
 20
12.6600764092
  0
LWPOLYLINE
  5
1D6
330
1F
100
AcDbEntity
  8
0
  6
Continuous
 62
     7
370
    25
100
AcDbPolyline
 90
       67
 70
   128
 43
0.0
 10
18.1770197872
 20
12.5947637602
 10
18.1744024656
 20
12.6972603848
 10
18.1665598703
 20
12.8024119933
 10
18.1535200756
 20
12.9098421701
 10
18.1353297607
 20
13.0191663431
 10
18.1120540422
 20
13.1299931601
 10
18.0837762411
 20
13.24192589
 10
18.0505975845
 20
13.3545638426
 10
18.0126368435
 20
13.4675038031
 10
17.9700299077
 20
13.580341476
 10
17.9229292988
 20
13.6926729316
 10
17.8715036248
 20
13.8040960525
 10
17.8159369763
 20
13.9142119728
 10
17.7564282674
 20
14.022626506
 10
17.6931905239
 20
14.1289515564
 10
17.6264501204
 20
14.2328065077
 10
17.5564459704
 20
14.3338195863
 10
17.4834286704
 20
14.4316291915
 10
17.4076596036
 20
14.5258851904
 10
17.3294100034
 20
14.6162501709
 10
17.2489599831
 20
14.7024006498
 10
17.166597533
 20
14.7840282308
 10
17.0826174891
 20
14.8608407083
 10
16.9973204784
 20
14.9325631137
 10
16.9110118419
 20
14.9989386992
 10
16.8240005421
 20
15.0597298576
 10
16.736598057
 20
15.1147189722
 10
16.6491172648
 20
15.1637091964
 10
16.5618713239
 20
15.2065251577
 10
16.4751725522
 20
15.2430135863
 10
16.3893313088
 20
15.2730438629
 10
16.3046548831
 20
15.296508487
 10
16.2214463947
 20
15.3133234613
 10
16.1400037083
 20
15.3234285926
 10
16.0606183678
 20
15.3267877072
 10
15.9835745519
 20
15.3233887802
 10
15.9091480576
 20
15.3132439789
 10
15.8376053124
 20
15.2963896192
 10
15.7692024207
 20
15.2728860352
 10
15.7041842472
 20
15.2428173636
 10
15.64278354
 20
15.2062912426
 10
15.5852200978
 20
15.1634384261
 10
15.5316999827
 20
15.1144123162
 10
15.4824147827
 20
15.0593884134
 10
15.4375409263
 20
14.9985636892
 10
15.3972390501
 20
14.9321558803
 10
15.3616534243
 20
14.8604027094
 10
15.3309114364
 20
14.7835610342
 10
15.3051231345
 20
14.701905928
 10
15.2843808342
 20
14.6157296948
 10
15.2687587875
 20
14.5253408232
 10
15.2583129173
 20
14.431062882
 10
15.253080617
 20
14.3332333616
 10
15.253080617
 20
14.2322024664
 10
15.2583129173
 20
14.1283318608
 10
15.2687587875
 20
14.0219933745
 10
15.2843808342
 20
13.9135676717
 10
15.3051231345
 20
13.8034428884
 10
15.3309114364
 20
13.6920132426
 10
15.3616534243
 20
13.5796776236
 10
15.3972390501
 20
13.4668381638
 10
15.4375409263
 20
13.353898799
 10
15.4824147827
 20
13.241263823
 10
15.5316999827
 20
13.1293364397
 10
15.5852200978
 20
13.01851732
 10
15.64278354
 20
12.9092031678
 10
15.6469941318
 20
12.9015543463
  0
LWPOLYLINE
  5
1D7
330
1F
100
AcDbEntity
  8
0
  6
Continuous
 62
     7
370
    25
100
AcDbPolyline
 90
       40
 70
   128
 43
0.0
 10
15.7217872746
 20
12.7725073454
 10
15.7692024207
 20
12.6966482424
 10
15.8376053124
 20
12.5941683608
 10
15.9091480576
 20
12.4947125056
 10
15.9835745519
 20
12.3986367032
 10
16.0606183678
 20
12.3062848798
 10
16.1400037083
 20
12.2179876311
 10
16.2214463947
 20
12.1340610383
 10
16.3046548831
 20
12.0548055368
 10
16.3893313088
 20
11.9805048408
 10
16.4751725522
 20
11.9114249274
 10
16.5618713239
 20
11.8478130848
 10
16.6491172648
 20
11.789897027
 10
16.736598057
 20
11.7378840783
 10
16.8240005421
 20
11.6919604316
 10
16.9110118419
 20
11.6522904816
 10
16.9973204784
 20
11.6190162366
 10
17.0826174891
 20
11.5922568096
 10
17.166597533
 20
11.5721079924
 10
17.2489599831
 20
11.5586419126
 10
17.3294100034
 20
11.5519067752
 10
17.4076596036
 20
11.5519266904
 10
17.4834286704
 20
11.5587015867
 10
17.5564459704
 20
11.5722072119
 10
17.6264501204
 20
11.5923952193
 10
17.6931905239
 20
11.619193341
 10
17.7564282674
 20
11.6525056468
 10
17.8159369763
 20
11.6922128872
 10
17.8715036248
 20
11.7381729207
 10
17.9229292988
 20
11.7902212222
 10
17.9700299077
 20
11.8481714723
 10
18.0126368435
 20
11.9118162242
 10
18.0505975845
 20
11.9809276462
 10
18.0837762411
 20
12.0552583372
 10
18.1120540422
 20
12.1345422129
 10
18.1353297607
 20
12.2184954573
 10
18.1535200756
 20
12.3068175398
 10
18.1665598703
 20
12.3991922902
 10
18.1744024656
 20
12.4952890308
 10
18.1770197872
 20
12.5947637602
  0
LWPOLYLINE
  5
1D8
330
1F
100
AcDbEntity
  8
0
  6
Continuous
 62
     7
370
    25
100
AcDbPolyline
 90
       64
 70
   128
 43
0.0
 10
18.0879243327
 20
12.6461974713
 10
18.0853198212
 20
12.7453195228
 10
18.0775161662
 20
12.8470726755
 10
18.0645429699
 20
12.9510709448
 10
18.046449444
 20
13.0569198296
 10
18.0233042233
 20
13.1642178089
 10
17.9951951057
 20
13.2725578647
 10
17.9622287187
 20
13.381529026
 10
17.924530115
 20
13.4907179279
 10
17.8822422985
 20
13.5997103796
 10
17.8355256812
 20
13.7080929352
 10
17.7845574752
 20
13.8154544626
 10
17.7295310206
 20
13.9213877028
 10
17.6706550513
 20
14.0254908148
 10
17.6081529043
 20
14.1273688997
 10
17.5422616714
 20
14.2266354991
 10
17.4732313008
 20
14.3229140608
 10
17.4013236482
 20
14.4158393672
 10
17.3268114841
 20
14.5050589208
 10
17.2499774585
 20
14.5902342812
 10
17.1711130293
 20
14.6710423493
 10
17.0905173563
 20
14.7471765921
 10
17.0084961664
 20
14.8183482066
 10
16.9253605942
 20
14.8842872144
 10
16.8414260012
 20
14.9447434863
 10
16.7570107802
 20
14.9994876908
 10
16.6724351471
 20
15.0483121646
 10
16.5880199261
 20
15.0910316996
 10
16.5040853332
 20
15.127484246
 10
16.4209497609
 20
15.1575315268
 10
16.338928571
 20
15.1810595624
 10
16.258332898
 20
15.1979791029
 10
16.1794684688
 20
15.2082259667
 10
16.1026344433
 20
15.2117612838
 10
16.0281222791
 20
15.2085716438
 10
15.9562146266
 20
15.1986691458
 10
15.887184256
 20
15.1820913536
 10
15.8212930231
 20
15.1589011523
 10
15.758790876
 20
15.1291865104
 10
15.6999149068
 20
15.0930601456
 10
15.6448884521
 20
15.0506590976
 10
15.5939202462
 20
15.0021442081
 10
15.5472036289
 20
14.9476995108
 10
15.5049158123
 20
14.8875315329
 10
15.4672172087
 20
14.8218685123
 10
15.4342508216
 20
14.7509595312
 10
15.4061417041
 20
14.6750735718
 10
15.3829964834
 20
14.5944984955
 10
15.3649029574
 20
14.509539951
 10
15.3519297611
 20
14.4205202154
 10
15.3441261062
 20
14.3277769709
 10
15.3415215946
 20
14.2316620244
 10
15.3441261062
 20
14.1325399729
 10
15.3519297611
 20
14.0307868202
 10
15.3649029574
 20
13.9267885509
 10
15.3829964834
 20
13.8209396661
 10
15.4061417041
 20
13.7136416868
 10
15.4342508216
 20
13.605301631
 10
15.4672172087
 20
13.4963304697
 10
15.5049158123
 20
13.3871415678
 10
15.5472036289
 20
13.2781491161
 10
15.5939202462
 20
13.1697665605
 10
15.6448884521
 20
13.0624050331
 10
15.6637521741
 20
13.0250365463
  0
LWPOLYLINE
  5
1D9
330
1F
100
AcDbEntity
  8
0
  6
Continuous
 62
     7
370
    25
100
AcDbPolyline
 90
       38
 70
   128
 43
0.0
 10
15.8607604743
 20
12.690109152
 10
15.887184256
 20
12.6512239966
 10
15.9562146266
 20
12.5549454349
 10
16.0281222791
 20
12.4620201285
 10
16.1026344433
 20
12.3728005749
 10
16.1794684688
 20
12.2876252145
 10
16.258332898
 20
12.2068171464
 10
16.338928571
 20
12.1306829036
 10
16.4209497609
 20
12.0595112891
 10
16.5040853332
 20
11.9935722813
 10
16.5880199261
 20
11.9331160094
 10
16.6724351471
 20
11.8783718048
 10
16.7570107802
 20
11.8295473311
 10
16.8414260012
 20
11.7868277961
 10
16.9253605942
 20
11.7503752497
 10
17.0084961664
 20
11.7203279689
 10
17.0905173563
 20
11.6967999333
 10
17.1711130293
 20
11.6798803928
 10
17.2499774585
 20
11.669633529
 10
17.3268114841
 20
11.6660982118
 10
17.4013236482
 20
11.6692878519
 10
17.4732313008
 20
11.6791903499
 10
17.5422616714
 20
11.6957681421
 10
17.6081529043
 20
11.7189583434
 10
17.6706550513
 20
11.7486729853
 10
17.7295310206
 20
11.7847993501
 10
17.7845574752
 20
11.8272003981
 10
17.8355256812
 20
11.8757152876
 10
17.8822422985
 20
11.9301599849
 10
17.924530115
 20
11.9903279628
 10
17.9622287187
 20
12.0559909834
 10
17.9951951057
 20
12.1268999645
 10
18.0233042233
 20
12.2027859239
 10
18.046449444
 20
12.2833610002
 10
18.0645429699
 20
12.3683195447
 10
18.0775161662
 20
12.4573392803
 10
18.0853198212
 20
12.5500825248
 10
18.0879243327
 20
12.6461974713
  0
LWPOLYLINE
  5
1DA
330
1F
100
AcDbEntity
  8
0
  6
Continuous
 62
     7
370
    25
100
AcDbPolyline
 90
       25
 70
   128
 43
0.0
 10
15.7616404345
 20
15.1307230389
 10
15.7352702459
 20
15.1134703484
 10
15.6802437912
 20
15.0710693004
 10
15.6292755853
 20
15.0225544109
 10
15.582558968
 20
14.9681097135
 10
15.5402711514
 20
14.9079417357
 10
15.5025725477
 20
14.8422787151
 10
15.4696061607
 20
14.771369734
 10
15.4414970431
 20
14.6954837746
 10
15.4183518225
 20
14.6149086983
 10
15.4002582965
 20
14.5299501538
 10
15.3872851002
 20
14.4409304182
 10
15.3794814452
 20
14.3481871737
 10
15.3768769337
 20
14.2520722272
 10
15.3794814452
 20
14.1529501757
 10
15.3872851002
 20
14.051197023
 10
15.4002582965
 20
13.9471987537
 10
15.4183518225
 20
13.8413498689
 10
15.4414970431
 20
13.7340518896
 10
15.4696061607
 20
13.6257118338
 10
15.5025725477
 20
13.5167406725
 10
15.5402711514
 20
13.4075517705
 10
15.582558968
 20
13.2985593189
 10
15.6292755853
 20
13.1901767633
 10
15.6637521741
 20
13.1164771168
  0
LWPOLYLINE
  5
1DB
330
1F
100
AcDbEntity
  8
0
  6
Continuous
 62
     7
370
    25
100
AcDbPolyline
 90
       24
 70
   128
 43
0.0
 10
15.9426290813
 20
12.6428474112
 10
15.9915699656
 20
12.5753556377
 10
16.0634776182
 20
12.4824303313
 10
16.1379897823
 20
12.3932107777
 10
16.2148238079
 20
12.3080354173
 10
16.2936882371
 20
12.2272273492
 10
16.3742839101
 20
12.1510931064
 10
16.4563051
 20
12.0799214919
 10
16.5394406723
 20
12.0139824841
 10
16.6233752652
 20
11.9535262122
 10
16.7077904862
 20
11.8987820076
 10
16.7923661193
 20
11.8499575339
 10
16.8767813403
 20
11.8072379989
 10
16.9607159332
 20
11.7707854525
 10
17.0438515055
 20
11.7407381717
 10
17.1258726954
 20
11.7172101361
 10
17.2064683684
 20
11.7002905956
 10
17.2853327976
 20
11.6900437318
 10
17.3621668231
 20
11.6865084146
 10
17.4366789873
 20
11.6896980547
 10
17.5085866398
 20
11.6996005527
 10
17.5776170105
 20
11.7161783449
 10
17.6435082433
 20
11.7393685462
 10
17.7031608319
 20
11.7675466595
  0
ELLIPSE
  5
1DC
330
1F
100
AcDbEntity
  8
0
  6
Continuous
 62
     7
370
    25
100
AcDbEllipse
 10
16.1321892795
 20
14.9179571437
 30
0.0
 11
-0.08679970336913456
 21
0.208972203690843
 31
0.0
210
0.0
220
0.0
230
1.0
 40
0.4085103178
 41
5.793165706294609
 42
6.772771881389043
  0
ELLIPSE
  5
1DD
330
1F
100
AcDbEntity
  8
0
  6
Continuous
 62
     7
370
    25
100
AcDbEllipse
 10
17.367967326
 20
12.0007227576
 30
0.0
 11
-0.08679970336913456
 21
0.208972203690843
 31
0.0
210
0.0
220
0.0
230
1.0
 40
0.4085103178
 41
2.651573052704782
 42
3.918671168355306
  0
LINE
  5
1DE
330
1F
100
AcDbEntity
  8
0
  6
Continuous
 62
     7
370
    25
100
AcDbLine
 10
17.4897119959
 20
11.8765963995
 30
0.0
 11
17.4897119959
 21
13.7755945862
 31
0.0
  0
LINE
  5
1DF
330
1F
100
AcDbEntity
  8
0
  6
Continuous
 62
     7
370
    25
100
AcDbLine
 10
17.4897119959
 20
14.0669026731
 30
0.0
 11
17.4897119959
 21
14.1881206168
 31
0.0
  0
ELLIPSE
  5
1E0
330
1F
100
AcDbEntity
  8
0
  6
Continuous
 62
     7
370
    25
100
AcDbEllipse
 10
17.367967326
 20
14.2045576626
 30
0.0
 11
-0.0225828051512984
 21
0.1718791897462388
 31
0.0
210
0.0
220
0.0
230
1.0
 40
0.6960229369
 41
4.525815258562401
 42
5.792913374212928
  0
LINE
  5
1E1
330
1F
100
AcDbEntity
  8
0
  6
Continuous
 62
     7
370
    25
100
AcDbLine
 10
17.4043752173
 20
14.3635914565
 30
0.0
 11
16.0957813882
 21
15.1190265941
 31
0.0
  0
LINE
  5
1E2
330
1F
100
AcDbEntity
  8
0
  6
Continuous
 62
     7
370
    25
100
AcDbLine
 10
17.4897119959
 20
14.1881206168
 30
0.0
 11
16.5612925683
 21
13.2633230339
 31
0.0
  0
ARC
  5
1E3
330
1F
100
AcDbEntity
  8
0
  6
Continuous
 62
     7
370
    25
100
AcDbCircle
 10
17.0307166282
 20
13.8693285213
 30
0.0
 40
0.7665517586962423
100
AcDbArc
 50
218.4103453414
 51
232.2379153598
  0
LINE
  5
1E4
330
1F
100
AcDbEntity
  8
0
  6
Continuous
 62
     7
370
    25
100
AcDbLine
 10
16.4300610123
 20
13.3930781356
 30
0.0
 11
17.4043752173
 21
14.3635914565
 31
0.0
  0
LINE
  5
1E5
330
1F
100
AcDbEntity
  8
0
  6
Continuous
 62
     7
370
    25
100
AcDbLine
 10
16.0957813882
 20
15.1190265941
 30
0.0
 11
15.7417917981
 21
13.7904074955
 31
0.0
  0
LINE
  5
1E6
330
1F
100
AcDbEntity
  8
0
  6
Continuous
 62
     7
370
    25
100
AcDbLine
 10
15.7417917981
 20
13.7904074955
 30
0.0
 11
16.4300610123
 21
13.3930781356
 31
0.0
  0
LWPOLYLINE
  5
1E7
330
1F
100
AcDbEntity
  8
0
  6
Continuous
 62
     7
370
    25
100
AcDbPolyline
 90
       46
 70
   128
 43
0.0
 10
16.1914367001
 20
13.7743683117
 10
16.2316210402
 20
13.7555426133
 10
16.2748117234
 20
13.7436407438
 10
16.3201680923
 20
13.7388943597
 10
16.3668073368
 20
13.741395844
 10
16.4138216769
 20
13.7510965081
 10
16.4602960322
 20
13.7678075396
 10
16.505325832
 20
13.7912036773
 10
16.5480346226
 20
13.8208295419
 10
16.5875911259
 20
13.8561084998
 10
16.6232254196
 20
13.8963538861
 10
16.6542439228
 20
13.9407823703
 10
16.6800428954
 20
13.9885292022
 10
16.7001201899
 20
14.0386650443
 10
16.7140850246
 20
14.0902140593
 10
16.7216655898
 20
14.1421729044
 10
16.7227143385
 20
14.1935302596
 10
16.7172108579
 20
14.2432865126
 10
16.7052622671
 20
14.2904732144
 10
16.6871011317
 20
14.3341719295
 10
16.6630809377
 20
14.3735321122
 10
16.6336692108
 20
14.4077876613
 10
16.5994384167
 20
14.4362718315
 10
16.561054819
 20
14.4584302108
 10
16.5192655107
 20
14.4738315116
 10
16.4748838732
 20
14.482175965
 10
16.4287737446
 20
14.4833011558
 10
16.381832606
 20
14.4771851834
 10
16.3349741134
 20
14.4639470883
 10
16.2891103139
 20
14.4438445349
 10
16.2451338944
 20
14.4172687966
 10
16.2039008057
 20
14.3847371398
 10
16.166213603
 20
14.3468827563
 10
16.1328058249
 20
14.3044424386
 10
16.1043277158
 20
14.2582422392
 10
16.0813335697
 20
14.2091813924
 10
16.0642709414
 20
14.1582148118
 10
16.0534719356
 20
14.106334504
 10
16.0491467427
 20
14.05455026
 10
16.0513795476
 20
14.0038700013
 10
16.0601268914
 20
13.9552801616
 10
16.0752185169
 20
13.9097264867
 10
16.0963606829
 20
13.8680956271
 10
16.123141881
 20
13.8311978801
 10
16.1550408458
 20
13.7997514185
 10
16.1914367001
 20
13.7743683117
  0
LINE
  5
1E8
330
1F
100
AcDbEntity
  8
0
  6
Continuous
 62
     7
370
    25
100
AcDbLine
 10
16.5612925683
 20
12.4119383537
 30
0.0
 11
17.4897119959
 21
11.8765963995
 31
0.0
  0
LINE
  5
1E9
330
1F
100
AcDbEntity
  8
0
  6
Continuous
 62
     7
370
    25
100
AcDbLine
 10
16.5612925683
 20
13.2633230339
 30
0.0
 11
16.5612925683
 21
12.4119383537
 31
0.0
  0
LWPOLYLINE
  5
1EA
330
1F
100
AcDbEntity
  8
0
  6
Continuous
 62
     7
370
    25
100
AcDbPolyline
 90
       21
 70
   128
 43
0.0
 10
16.2984594247
 20
13.740242476
 10
16.2836323308
 20
13.7588943538
 10
16.2602313587
 20
13.7972398615
 10
16.2425384034
 20
13.8398120576
 10
16.230897838
 20
13.8857823228
 10
16.2255362329
 20
13.9342558981
 10
16.2265579456
 20
13.9842893005
 10
16.2339430898
 20
14.0349086867
 10
16.2475479218
 20
14.0851288081
 10
16.2671076392
 20
14.133972187
 10
16.2922415343
 20
14.1804881426
 10
16.3224604044
 20
14.2237712948
 10
16.3571760737
 20
14.2629791863
 10
16.395712841
 20
14.2973486799
 10
16.437320632
 20
14.3262108128
 10
16.4811895985
 20
14.3490038161
 10
16.5264658809
 20
14.3652840502
 10
16.5722682278
 20
14.3747346386
 10
16.6177051486
 20
14.3771716366
 10
16.6618922655
 20
14.3725476106
 10
16.6640967179
 20
14.3721235385
  0
ARC
  5
1EB
330
1F
100
AcDbEntity
  8
0
  6
Continuous
 62
     7
370
    25
100
AcDbCircle
 10
16.5084543253
 20
13.4997161457
 30
0.0
 40
0.2422263058799692
100
AcDbArc
 50
242.7945605351
 51
282.599566512
  0
ARC
  5
1EC
330
1F
100
AcDbEntity
  8
0
  6
Continuous
 62
     7
370
    25
100
AcDbCircle
 10
16.6226950215
 20
13.2765949545
 30
0.0
 40
0.2251137334193724
100
AcDbArc
 50
148.8392137018
 51
178.0419430197
  0
ARC
  5
1ED
330
1F
100
AcDbEntity
  8
0
  6
Continuous
 62
     7
370
    25
100
AcDbCircle
 10
16.5084543253
 20
12.6483314655
 30
0.0
 40
0.2422263058799642
100
AcDbArc
 50
242.7945605351
 51
282.599566512
  0
LINE
  5
1EE
330
1F
100
AcDbEntity
  8
0
  6
Continuous
 62
     7
370
    25
100
AcDbLine
 10
16.3977127303
 20
12.4329019355
 30
0.0
 11
16.3977127303
 21
13.2842866157
 31
0.0
  0
LINE
  5
1EF
330
1F
100
AcDbEntity
  8
0
  6
Continuous
 62
     7
370
    25
100
AcDbLine
 10
16.3977127303
 20
13.2842866157
 30
0.0
 11
15.7094435162
 21
13.6816159756
 31
0.0
  0
ARC
  5
1F0
330
1F
100
AcDbEntity
  8
0
  6
Continuous
 62
     7
370
    25
100
AcDbCircle
 10
15.9344258073
 20
13.6739243144
 30
0.0
 40
0.2251137334193816
100
AcDbArc
 50
148.8392137018
 51
178.0419430197
  0
LINE
  5
1F1
330
1F
100
AcDbEntity
  8
0
  6
Continuous
 62
     7
370
    25
100
AcDbLine
 10
15.7094435162
 20
12.8302312954
 30
0.0
 11
16.3977127303
 21
12.4329019355
 31
0.0
  0
LINE
  5
1F2
330
1F
100
AcDbEntity
  8
0
  6
Continuous
 62
     7
370
    25
100
AcDbLine
 10
15.7094435162
 20
13.6816159756
 30
0.0
 11
15.7094435162
 21
12.8302312954
 31
0.0
  0
LWPOLYLINE
  5
1F3
330
1F
100
AcDbEntity
  8
0
  6
Continuous
 62
     7
370
    25
100
AcDbPolyline
 90
       46
 70
   128
 43
0.0
 10
16.3287038259
 20
12.8984322682
 10
16.3260263215
 20
12.9441939495
 10
16.3180459228
 20
12.9921563126
 10
16.3049179592
 20
13.0413858246
 10
16.2868979516
 20
13.090924289
 10
16.2643366389
 20
13.139807496
 10
16.2376731515
 20
13.1870839896
 10
16.2074264637
 20
13.2318335866
 10
16.174185293
 20
13.2731852869
 10
16.138596641
 20
13.3103342268
 10
16.1013532002
 20
13.3425573444
 10
16.0631798718
 20
13.3692274534
 10
16.0248196564
 20
13.3898254505
 10
15.9870191918
 20
13.403950419
 10
15.950514221
 20
13.4113274325
 10
15.916015272
 20
13.4118129059
 10
15.8841938273
 20
13.4053973899
 10
15.8556692553
 20
13.3922057553
 10
15.8309967543
 20
13.3724947623
 10
15.8106565464
 20
13.3466480628
 10
15.7950445307
 20
13.3151687336
 10
15.7844645774
 20
13.2786694839
 10
15.779122613
 20
13.2378607301
 10
15.779122613
 20
13.1935367682
 10
15.7844645774
 20
13.1465603137
 10
15.7950445307
 20
13.0978457098
 10
15.8106565464
 20
13.0483411309
 10
15.8309967543
 20
12.9990101274
 10
15.8556692553
 20
12.950812871
 10
15.8841938273
 20
12.9046874666
 10
15.916015272
 20
12.8615316926
 10
15.950514221
 20
12.8221855272
 10
15.9870191918
 20
12.7874147987
 10
16.0248196564
 20
12.7578962798
 10
16.0631798718
 20
12.7342045148
 10
16.1013532002
 20
12.7168006371
 10
16.138596641
 20
12.7060233932
 10
16.174185293
 20
12.7020825501
 10
16.2074264637
 20
12.7050548116
 10
16.2376731515
 20
12.7148823262
 10
16.2643366389
 20
12.7313738125
 10
16.2868979516
 20
12.7542082824
 10
16.3049179592
 20
12.7829412889
 10
16.3180459228
 20
12.8170135767
 10
16.3260263215
 20
12.8557619676
 10
16.3287038259
 20
12.8984322682
  0
LINE
  5
1F4
330
1F
100
AcDbEntity
  8
0
  6
Continuous
 62
     7
370
    25
100
AcDbLine
 10
16.0224257199
 20
13.3487395727
 30
0.0
 11
16.0249627825
 21
13.3897601531
 31
0.0
  0
ARC
  5
1F5
330
1F
100
AcDbEntity
  8
0
  6
Continuous
 62
     7
370
    25
100
AcDbCircle
 10
16.5853711358
 20
13.3667851956
 30
0.0
 40
0.5632345744481976
100
AcDbArc
 50
181.8360289812
 51
242.7186765362
  0
LINE
  5
1F6
330
1F
100
AcDbEntity
  8
0
  6
Continuous
 62
     7
370
    25
100
AcDbLine
 10
17.4043752173
 20
11.7996533072
 30
0.0
 11
16.4300610123
 21
12.3614589469
 31
0.0
  0
ARC
  5
1F7
330
1F
100
AcDbEntity
  8
0
  6
Continuous
 62
     7
370
    25
100
AcDbCircle
 10
16.4632838108
 20
12.4709108347
 30
0.0
 40
0.1143829972856289
100
AcDbArc
 50
253.1149667247
 51
328.9644149575
  0
ARC
  5
1F8
330
1F
100
AcDbEntity
  8
0
  6
Continuous
 62
     7
370
    25
100
AcDbCircle
 10
16.4757883663
 20
12.4252084822
 30
0.0
 40
0.0784537707824879
100
AcDbArc
 50
174.372329498
 51
234.3482372448
  0
ARC
  5
1F9
330
1F
100
AcDbEntity
  8
0
  6
Continuous
 62
     7
370
    25
100
AcDbCircle
 10
15.7875191521
 20
12.8225378421
 30
0.0
 40
0.0784537707825014
100
AcDbArc
 50
174.372329498
 51
234.3482372448
  0
LINE
  5
1FA
330
1F
100
AcDbEntity
  8
0
  6
Continuous
 62
     7
370
    25
100
AcDbLine
 10
16.4300610123
 20
12.3614589469
 30
0.0
 11
15.7417917981
 21
12.7587883069
 31
0.0
  0
ARC
  5
1FB
330
1F
100
AcDbEntity
  8
0
  6
Continuous
 62
     7
370
    25
100
AcDbCircle
 10
18.0625776377
 20
14.2170296888
 30
0.0
 40
2.14744936266833
100
AcDbArc
 50
204.0260854093
 51
215.968538058
  0
ARC
  5
1FC
330
1F
100
AcDbEntity
  8
0
  6
Continuous
 62
     7
370
    25
100
AcDbCircle
 10
16.1882485886
 20
14.6534535248
 30
0.0
 40
0.8352044394546005
100
AcDbArc
 50
121.4192092712
 51
159.1431913752
  0
LWPOLYLINE
  5
1FD
330
1F
100
AcDbEntity
  8
0
  6
Continuous
 62
     7
370
    25
100
AcDbPolyline
 90
       63
 70
   128
 43
0.0
 10
17.3704011087
 20
11.5510735564
 10
17.4250747908
 20
11.5450442972
 10
17.5060945071
 20
11.5415286721
 10
17.5847762088
 20
11.5447789277
 10
17.6608486636
 20
11.5547838599
 10
17.7340496341
 20
11.5715089796
 10
17.8041267814
 20
11.5948966317
 10
17.870838535
 20
11.6248661942
 10
17.9339549257
 20
11.6613143558
 10
17.9932583782
 20
11.7041154721
 10
18.0485444613
 20
11.7531219989
 10
18.0996225923
 20
11.8081650004
 10
18.1463166944
 20
11.8690547321
 10
18.1884658032
 20
11.9355812944
 10
18.2259246222
 20
12.0075153565
 10
18.258564023
 20
12.0846089468
 10
18.2862714907
 20
12.1665963077
 10
18.3089515121
 20
12.2531948118
 10
18.3265259045
 20
12.344105936
 10
18.3389340851
 20
12.439016291
 10
18.3461332805
 20
12.537598701
 10
18.3480986735
 20
12.6395133321
 10
18.3448234891
 20
12.7444088634
 10
18.3363190174
 20
12.8519236983
 10
18.3226145752
 20
12.9616872109
 10
18.3037574044
 20
13.0733210236
 10
18.2798125098
 20
13.1864403116
 10
18.2508624342
 20
13.3006551292
 10
18.2170069745
 20
13.4155717543
 10
18.1783628377
 20
13.5307940454
 10
18.135063238
 20
13.6459248076
 10
18.0872574381
 20
13.7605671611
 10
18.0351102344
 20
13.87432591
 10
17.9788013893
 20
13.9868089044
 10
17.918525011
 20
14.0976283921
 10
17.8544888846
 20
14.2064023553
 10
17.7869137559
 20
14.3127558277
 10
17.7160325704
 20
14.4163221868
 10
17.6420896702
 20
14.5167444179
 10
17.5653399519
 20
14.6136763448
 10
17.4860479875
 20
14.7067838231
 10
17.404487113
 20
14.7957458919
 10
17.3209384855
 20
14.8802558806
 10
17.2356901145
 20
14.9600224658
 10
17.1490358688
 20
15.0347706756
 10
17.0612744635
 20
15.1042428372
 10
16.9727084303
 20
15.1681994659
 10
16.8836430748
 20
15.2264200899
 10
16.7943854236
 20
15.2787040106
 10
16.7052431664
 20
15.3248709945
 10
16.616523595
 20
15.3647618945
 10
16.5285325441
 20
15.3982391983
 10
16.4415733371
 20
15.4251875028
 10
16.3559457405
 20
15.4455139116
 10
16.2719449302
 20
15.4591483553
 10
16.1898604745
 20
15.4660438332
 10
16.1099753356
 20
15.4661765751
 10
16.0325648939
 20
15.4595461235
 10
15.9578959994
 20
15.4461753348
 10
15.8862260512
 20
15.4261103011
 10
15.8178021105
 20
15.3994201905
 10
15.7528600487
 20
15.3661970095
 10
15.7528600487
 20
15.3661970095
  0
LWPOLYLINE
  5
1FE
330
1F
100
AcDbEntity
  8
0
  6
Continuous
 62
     7
370
    25
100
AcDbPolyline
 90
       19
 70
   128
 43
0.0
 10
16.1091100487
 20
13.1613546618
 10
16.1003065248
 20
13.1519182975
 10
16.096334047
 20
13.1370916328
 10
16.0976717548
 20
13.1186629821
 10
16.1041583008
 20
13.0988551128
 10
16.1150113119
 20
13.0800571462
 10
16.1289217548
 20
13.0645363945
 10
16.1442118247
 20
13.0541648895
 10
16.1590373136
 20
13.0501935877
 10
16.1716100487
 20
13.0531014866
 10
16.1804135725
 20
13.0625378509
 10
16.1843860503
 20
13.0773645156
 10
16.1830483425
 20
13.0957931663
 10
16.1765617965
 20
13.1156010356
 10
16.1657087854
 20
13.1343990022
 10
16.1517983425
 20
13.1499197539
 10
16.1365082726
 20
13.1602912589
 10
16.1216827837
 20
13.1642625608
 10
16.1091100487
 20
13.1613546618
  0
LWPOLYLINE
  5
1FF
330
1F
100
AcDbEntity
  8
0
  6
Continuous
 62
     7
370
    25
100
AcDbPolyline
 90
       56
 70
   128
 43
0.0
 10
17.9381280253
 20
11.6626475455
 10
17.9693102648
 20
11.6817245586
 10
18.0286137173
 20
11.7245256749
 10
18.0838998004
 20
11.7735322017
 10
18.1349779314
 20
11.8285752032
 10
18.1816720334
 20
11.8894649349
 10
18.2238211423
 20
11.9559914972
 10
18.2612799613
 20
12.0279255593
 10
18.293919362
 20
12.1050191496
 10
18.3216268298
 20
12.1870065105
 10
18.3443068512
 20
12.2736050145
 10
18.3618812435
 20
12.3645161388
 10
18.3742894241
 20
12.4594264938
 10
18.3814886195
 20
12.5580089038
 10
18.3834540126
 20
12.6599235349
 10
18.3801788281
 20
12.7648190662
 10
18.3716743565
 20
12.8723339011
 10
18.3579699142
 20
12.9820974137
 10
18.3391127435
 20
13.0937312264
 10
18.3151678488
 20
13.2068505144
 10
18.2862177732
 20
13.321065332
 10
18.2523623136
 20
13.4359819571
 10
18.2137181768
 20
13.5512042482
 10
18.170418577
 20
13.6663350104
 10
18.1226127771
 20
13.7809773639
 10
18.0704655735
 20
13.8947361128
 10
18.0141567284
 20
14.0072191072
 10
17.95388035
 20
14.1180385949
 10
17.8898442236
 20
14.2268125581
 10
17.8222690949
 20
14.3331660305
 10
17.7513879094
 20
14.4367323896
 10
17.6774450093
 20
14.5371546207
 10
17.6006952909
 20
14.6340865476
 10
17.5214033266
 20
14.7271940259
 10
17.439842452
 20
14.8161560947
 10
17.3562938245
 20
14.9006660834
 10
17.2710454535
 20
14.9804326686
 10
17.1843912078
 20
15.0551808784
 10
17.0966298025
 20
15.12465304
 10
17.0080637694
 20
15.1886096687
 10
16.9189984138
 20
15.2468302927
 10
16.8297407627
 20
15.2991142134
 10
16.7405985054
 20
15.3452811973
 10
16.651878934
 20
15.3851720973
 10
16.5638878831
 20
15.4186494011
 10
16.4769286762
 20
15.4455977056
 10
16.3913010795
 20
15.4659241144
 10
16.3073002693
 20
15.4795585581
 10
16.2252158136
 20
15.486454036
 10
16.1453306746
 20
15.4865867779
 10
16.067920233
 20
15.4799563263
 10
15.9932513385
 20
15.4665855376
 10
15.9215813903
 20
15.4465205039
 10
15.8531574495
 20
15.4198303933
 10
15.7882153877
 20
15.3866072123
 10
15.7882153877
 20
15.3866072123
  0
ARC
  5
200
330
1F
100
AcDbEntity
  8
0
  6
Continuous
 62
     7
370
    25
100
AcDbCircle
 10
18.110190768
 20
14.2445161639
 30
0.0
 40
2.161571919835744
100
AcDbArc
 50
207.1348378066
 51
212.8597856607
  0
ARC
  5
201
330
1F
100
AcDbEntity
  8
0
  6
Continuous
 62
     7
370
    25
100
AcDbCircle
 10
16.2193629181
 20
13.1528354599
 30
0.0
 40
0.0875817047255001
100
AcDbArc
 50
173.947519378
 51
246.0471040893
  0
LWPOLYLINE
  5
202
330
1F
100
AcDbEntity
  8
0
  6
Continuous
 62
     7
370
    25
100
AcDbPolyline
 90
       28
 70
   128
 43
0.0
 10
17.5706531411
 20
13.7773599823
 10
17.5811946823
 20
13.7942726778
 10
17.586859142
 20
13.816188216
 10
17.5873411477
 20
13.8419251247
 10
17.5826147144
 20
13.8700959205
 10
17.5729346453
 20
13.8991819084
 10
17.5588227954
 20
13.9276150554
 10
17.5410399383
 20
13.9538625231
 10
17.5205447523
 20
13.9765093038
 10
17.4984421383
 20
13.9943345036
 10
17.4759236538
 20
14.0063771614
 10
17.4542032763
 20
14.0119880544
 10
17.4344519568
 20
14.0108646979
 10
17.4177344942
 20
14.0030676523
 10
17.4049521311
 20
13.9890172585
 10
17.3967939681
 20
13.9694709767
 10
17.3936998138
 20
13.9454825521
 10
17.395836475
 20
13.9183452068
 10
17.4030887635
 20
13.8895219222
 10
17.4150657068
 20
13.860566569
 10
17.4311216247
 20
13.8330401378
 10
17.4503909384
 20
13.8084265855
 10
17.4718348344
 20
13.7880528353
 10
17.4942972666
 20
13.7730172412
 10
17.5165672794
 20
13.764130376
 10
17.5374442908
 20
13.7618713329
 10
17.5558028157
 20
13.7663618975
 10
17.5706531411
 20
13.7773599823
  0
LWPOLYLINE
  5
203
330
1F
100
AcDbEntity
  8
0
  6
Continuous
 62
     7
370
    25
100
AcDbPolyline
 90
       18
 70
   128
 43
0.0
 10
17.5951524862
 20
13.7699280203
 10
17.6068173299
 20
13.788389142
 10
17.6133346589
 20
13.8121875532
 10
17.6143776673
 20
13.8401299021
 10
17.6098940542
 20
13.8708150427
 10
17.6001086467
 20
13.9027042939
 10
17.5855121261
 20
13.9341985955
 10
17.5668364227
 20
13.9637186917
 10
17.5450180144
 20
13.9897843216
 10
17.5211509672
 20
14.0110884457
 10
17.4964320745
 20
14.0265627863
 10
17.472100845
 20
14.0354313952
 10
17.4493773479
 20
14.0372495635
 10
17.4294010343
 20
14.0319261205
 10
17.4131736001
 20
14.0197280059
 10
17.4015087565
 20
14.0012668842
 10
17.3949914274
 20
13.977468473
 10
17.3936776086
 20
13.9586098968
  0
ARC
  5
204
330
1F
100
AcDbEntity
  8
0
  6
Continuous
 62
     7
370
    25
100
AcDbCircle
 10
17.5479890694
 20
13.8250750722
 30
0.0
 40
0.0725643522713432
100
AcDbArc
 50
232.8281074107
 51
310.5380566375
  0
ARC
  5
205
330
1F
100
AcDbEntity
  8
0
  6
Continuous
 62
     7
370
    25
100
AcDbCircle
 10
17.6341450261
 20
13.8999524346
 30
0.0
 40
0.1016757767028574
100
AcDbArc
 50
323.6803349698
 51
6.1345334344
  0
ARC
  5
206
330
1F
100
AcDbEntity
  8
0
  6
Continuous
 62
     7
370
    25
100
AcDbCircle
 10
17.5801250612
 20
14.025988179
 30
0.0
 40
0.0810583086469989
100
AcDbArc
 50
48.7700063264
 51
114.1517621119
  0
LINE
  5
207
330
1F
100
AcDbEntity
  8
0
  6
Continuous
 62
     7
370
    25
100
AcDbLine
 10
17.7031969537
 20
13.8293107719
 30
0.0
 11
17.7160677458
 21
13.8397309138
 31
0.0
  0
LINE
  5
208
330
1F
100
AcDbEntity
  8
0
  6
Continuous
 62
     7
370
    25
100
AcDbLine
 10
17.5269240859
 20
13.9268589156
 30
0.0
 11
17.4633167703
 21
13.9694355062
 31
0.0
  0
LINE
  5
209
330
1F
100
AcDbEntity
  8
0
  6
Continuous
 62
     7
370
    25
100
AcDbLine
 10
17.4633167703
 20
13.9694355062
 30
0.0
 11
17.4271206987
 21
13.9296487267
 31
0.0
  0
LINE
  5
20A
330
1F
100
AcDbEntity
  8
0
  6
Continuous
 62
     7
370
    25
100
AcDbLine
 10
17.4545319427
 20
13.8472853565
 30
0.0
 11
17.4271206987
 21
13.9296487267
 31
0.0
  0
LINE
  5
20B
330
1F
100
AcDbEntity
  8
0
  6
Continuous
 62
     7
370
    25
100
AcDbLine
 10
17.5181392584
 20
13.8047087659
 30
0.0
 11
17.4545319427
 21
13.8472853565
 31
0.0
  0
LINE
  5
20C
330
1F
100
AcDbEntity
  8
0
  6
Continuous
 62
     7
370
    25
100
AcDbLine
 10
17.5181392584
 20
13.8047087659
 30
0.0
 11
17.5543353299
 21
13.8444955454
 31
0.0
  0
LINE
  5
20D
330
1F
100
AcDbEntity
  8
0
  6
Continuous
 62
     7
370
    25
100
AcDbLine
 10
17.5269240859
 20
13.9268589156
 30
0.0
 11
17.5543353299
 21
13.8444955454
 31
0.0
  0
LINE
  5
20E
330
1F
100
AcDbEntity
  8
0
  6
Continuous
 62
     7
370
    25
100
AcDbLine
 10
17.4784703194
 20
13.9592922318
 30
0.0
 11
17.4271206987
 21
13.9296487267
 31
0.0
  0
ARC
  5
20F
330
1F
100
AcDbEntity
  8
0
  6
Continuous
 62
     7
370
    25
100
AcDbCircle
 10
17.62352255
 20
13.963946073
 30
0.0
 40
0.1252011092680969
100
AcDbArc
 50
198.0247324531
 51
232.7576273428
  0
ARC
  5
210
330
1F
100
AcDbEntity
  8
0
  6
Continuous
 62
     7
370
    25
100
AcDbCircle
 10
17.6038967002
 20
13.9589274841
 30
0.0
 40
0.1049936015348418
100
AcDbArc
 50
187.6263359573
 51
198.7344352895
  0
LINE
  5
211
330
1F
100
AcDbEntity
  8
0
  6
Continuous
 62
     7
370
    25
100
AcDbLine
 10
17.518171553
 20
13.8840237216
 30
0.0
 11
17.4545319427
 21
13.8472853565
 31
0.0
  0
LINE
  5
212
330
1F
100
AcDbEntity
  8
0
  6
Continuous
 62
     7
370
    25
100
AcDbLine
 10
17.5477747381
 20
13.8642083484
 30
0.0
 11
17.518171553
 21
13.8840237216
 31
0.0
  0
LINE
  5
213
330
1F
100
AcDbEntity
  8
0
  6
Continuous
 62
     7
370
    25
100
AcDbLine
 10
17.504465931
 20
13.9252054066
 30
0.0
 11
17.4973209008
 21
13.9466742887
 31
0.0
  0
LINE
  5
214
330
1F
100
AcDbEntity
  8
0
  6
Continuous
 62
     7
370
    25
100
AcDbLine
 10
17.518171553
 20
13.8840237216
 30
0.0
 11
17.504465931
 21
13.9252054066
 31
0.0
  0
ARC
  5
215
330
1F
100
AcDbEntity
  8
0
  6
Continuous
 62
     7
370
    25
100
AcDbCircle
 10
17.8250681123
 20
14.0800821964
 30
0.0
 40
0.1448917488962405
100
AcDbArc
 50
3.9034271335
 51
56.095723012
  0
ARC
  5
216
330
1F
100
AcDbEntity
  8
0
  6
Continuous
 62
     7
370
    25
100
AcDbCircle
 10
17.8355057386
 20
14.0861074716
 30
0.0
 40
0.1388637610507051
100
AcDbArc
 50
358.0996412036
 51
61.8994876886
  0
LWPOLYLINE
  5
217
330
1F
100
AcDbEntity
  8
0
  6
Continuous
 62
     7
370
    25
100
AcDbPolyline
 90
       12
 70
   128
 43
0.0
 10
17.9844076581
 20
14.0630338987
 10
17.9921750127
 20
14.0726040016
 10
17.9981454012
 20
14.09013247
 10
17.9987565608
 20
14.1118474888
 10
17.9939589791
 20
14.1359898364
 10
17.9841413276
 20
14.1606036434
 10
17.9700989741
 20
14.1836948455
 10
17.9529695465
 20
14.2033927309
 10
17.9341407691
 20
14.218101494
 10
17.9151380376
 20
14.2266295183
 10
17.8975008402
 20
14.2282859141
 10
17.8899800797
 20
14.2265904748
  0
LWPOLYLINE
  5
218
330
1F
100
AcDbEntity
  8
0
  6
Continuous
 62
     7
370
    25
100
AcDbPolyline
 90
       13
 70
   128
 43
0.0
 10
17.9843927718
 20
14.0623651546
 10
17.9862321535
 20
14.0635126196
 10
17.9970780854
 20
14.0754344852
 10
18.0030484738
 20
14.0929629535
 10
18.0036596334
 20
14.1146779724
 10
17.9988620517
 20
14.13882032
 10
17.9890444002
 20
14.163434127
 10
17.9750020467
 20
14.1865253291
 10
17.9578726191
 20
14.2062232145
 10
17.9390438418
 20
14.2209319776
 10
17.9200411103
 20
14.2294600019
 10
17.9024039129
 20
14.2311163977
 10
17.8894004922
 20
14.2269144385
  0
LWPOLYLINE
  5
219
330
1F
100
AcDbEntity
  8
0
  6
Continuous
 62
     7
370
    25
100
AcDbPolyline
 90
       15
 70
   128
 43
0.0
 10
17.9950576474
 20
14.0722497492
 10
17.9959473774
 20
14.0723402422
 10
18.0107901798
 20
14.0776896664
 10
18.0216361117
 20
14.089611532
 10
18.0276065001
 20
14.1071400004
 10
18.0282176597
 20
14.1288550192
 10
18.0234200781
 20
14.1529973668
 10
18.0136024266
 20
14.1776111738
 10
17.999560073
 20
14.200702376
 10
17.9824306454
 20
14.2204002613
 10
17.9636018681
 20
14.2351090244
 10
17.9445991366
 20
14.2436370488
 10
17.9269619392
 20
14.2452934445
 10
17.9121191368
 20
14.2399440203
 10
17.9032936428
 20
14.2312068907
  0
LWPOLYLINE
  5
21A
330
1F
100
AcDbEntity
  8
0
  6
Continuous
 62
     7
370
    25
100
AcDbPolyline
 90
       13
 70
   128
 43
0.0
 10
18.0138538707
 20
14.079372685
 10
18.0156932524
 20
14.08052015
 10
18.0265391843
 20
14.0924420156
 10
18.0325095728
 20
14.109970484
 10
18.0331207324
 20
14.1316855028
 10
18.0283231507
 20
14.1558278504
 10
18.0185054992
 20
14.1804416574
 10
18.0044631457
 20
14.2035328595
 10
17.9873337181
 20
14.2232307449
 10
17.9685049407
 20
14.237939508
 10
17.9495022092
 20
14.2464675323
 10
17.9318650118
 20
14.2481239281
 10
17.9188615911
 20
14.2439219689
  0
LWPOLYLINE
  5
21B
330
1F
100
AcDbEntity
  8
0
  6
Continuous
 62
     7
370
    25
100
AcDbPolyline
 90
       15
 70
   128
 43
0.0
 10
18.0245187464
 20
14.0892572796
 10
18.0254084764
 20
14.0893477727
 10
18.0402512788
 20
14.0946971969
 10
18.0510972106
 20
14.1066190625
 10
18.0570675991
 20
14.1241475308
 10
18.0576787587
 20
14.1458625496
 10
18.052881177
 20
14.1700048972
 10
18.0430635255
 20
14.1946187042
 10
18.029021172
 20
14.2177099064
 10
18.0118917444
 20
14.2374077917
 10
17.9930629671
 20
14.2521165549
 10
17.9740602355
 20
14.2606445792
 10
17.9564230382
 20
14.2623009749
 10
17.9415802357
 20
14.2569515507
 10
17.9327547418
 20
14.2482144212
  0
LWPOLYLINE
  5
21C
330
1F
100
AcDbEntity
  8
0
  6
Continuous
 62
     7
370
    25
100
AcDbPolyline
 90
       13
 70
   128
 43
0.0
 10
18.0433149697
 20
14.0963802154
 10
18.0451543514
 20
14.0975276804
 10
18.0560002833
 20
14.109449546
 10
18.0619706717
 20
14.1269780144
 10
18.0625818313
 20
14.1486930332
 10
18.0577842497
 20
14.1728353808
 10
18.0479665982
 20
14.1974491878
 10
18.0339242446
 20
14.22054039
 10
18.016794817
 20
14.2402382753
 10
17.9979660397
 20
14.2549470384
 10
17.9789633082
 20
14.2634750628
 10
17.9613261108
 20
14.2651314585
 10
17.9483226901
 20
14.2609294993
  0
LWPOLYLINE
  5
21D
330
1F
100
AcDbEntity
  8
0
  6
Continuous
 62
     7
370
    25
100
AcDbPolyline
 90
       15
 70
   128
 43
0.0
 10
18.0539798453
 20
14.10626481
 10
18.0548695753
 20
14.1063553031
 10
18.0697123777
 20
14.1117047273
 10
18.0805583096
 20
14.1236265929
 10
18.086528698
 20
14.1411550612
 10
18.0871398577
 20
14.16287008
 10
18.082342276
 20
14.1870124277
 10
18.0725246245
 20
14.2116262347
 10
18.058482271
 20
14.2347174368
 10
18.0413528434
 20
14.2544153222
 10
18.022524066
 20
14.2691240853
 10
18.0035213345
 20
14.2776521096
 10
17.9858841371
 20
14.2793085053
 10
17.9710413347
 20
14.2739590811
 10
17.9622158408
 20
14.2652219516
  0
LWPOLYLINE
  5
21E
330
1F
100
AcDbEntity
  8
0
  6
Continuous
 62
     7
370
    25
100
AcDbPolyline
 90
       13
 70
   128
 43
0.0
 10
18.0727760687
 20
14.1133877459
 10
18.0746154504
 20
14.1145352109
 10
18.0854613822
 20
14.1264570765
 10
18.0914317707
 20
14.1439855448
 10
18.0920429303
 20
14.1657005636
 10
18.0872453486
 20
14.1898429112
 10
18.0774276971
 20
14.2144567182
 10
18.0633853436
 20
14.2375479204
 10
18.046255916
 20
14.2572458057
 10
18.0274271386
 20
14.2719545689
 10
18.0084244071
 20
14.2804825932
 10
17.9907872098
 20
14.2821389889
 10
17.9777837891
 20
14.2779370297
  0
LWPOLYLINE
  5
21F
330
1F
100
AcDbEntity
  8
0
  6
Continuous
 62
     7
370
    25
100
AcDbPolyline
 90
        9
 70
   128
 43
0.0
 10
18.0876793507
 20
14.2515108817
 10
18.1016781599
 20
14.2284912837
 10
18.1114653676
 20
14.2039538024
 10
18.1162480723
 20
14.1798863185
 10
18.1156388078
 20
14.1582386364
 10
18.1096869331
 20
14.1407645226
 10
18.0988746337
 20
14.1288796259
 10
18.0840778578
 20
14.1235467899
 10
18.0835966266
 20
14.1234952174
  0
LWPOLYLINE
  5
220
330
1F
100
AcDbEntity
  8
0
  6
Continuous
 62
     7
370
    25
100
AcDbPolyline
 90
        7
 70
   128
 43
0.0
 10
17.9919478002
 20
14.2822528428
 10
18.0005095626
 20
14.2906308404
 10
18.0153063386
 20
14.2959636765
 10
18.0328888443
 20
14.2943124171
 10
18.0518326496
 20
14.2858108376
 10
18.0706030403
 20
14.2711476853
 10
18.0876793507
 20
14.2515108817
  0
ARC
  5
221
330
1F
100
AcDbEntity
  8
0
  6
Continuous
 62
     7
370
    25
100
AcDbCircle
 10
18.0121022516
 20
14.1880550767
 30
0.0
 40
0.1046010867499774
100
AcDbArc
 50
1.6694871832
 51
58.3251362841
  0
LWPOLYLINE
  5
222
330
1F
100
AcDbEntity
  8
0
  6
Continuous
 62
     7
370
    25
100
AcDbPolyline
 90
        8
 70
   128
 43
0.0
 10
15.6637521741
 20
12.9891806824
 10
15.6549521311
 20
12.9784353464
 10
15.6467939681
 20
12.9588890646
 10
15.6436998138
 20
12.93490064
 10
15.645836475
 20
12.9077632948
 10
15.6530887635
 20
12.8789400102
 10
15.6650657068
 20
12.8499846569
 10
15.6809406279
 20
12.8227257739
  0
ARC
  5
223
330
1F
100
AcDbEntity
  8
0
  6
Continuous
 62
     7
370
    25
100
AcDbCircle
 10
15.7297094635
 20
12.9541927499
 30
0.0
 40
0.0862524456879348
100
AcDbArc
 50
139.8803556491
 51
184.0986251922
  0
LWPOLYLINE
  5
224
330
1F
100
AcDbEntity
  8
0
  6
Continuous
 62
     7
370
    25
100
AcDbPolyline
 90
        3
 70
   128
 43
0.0
 10
16.15297404
 20
13.0970079719
 10
16.1506611034
 20
13.1018296237
 10
16.1378266569
 20
13.1232399486
  0
ARC
  5
225
330
1F
100
AcDbEntity
  8
0
  6
Continuous
 62
     7
370
    25
100
AcDbCircle
 10
16.0304700927
 20
13.0437538524
 30
0.0
 40
0.1617835789457428
100
AcDbArc
 50
20.6398504282
 51
39.4130378047
  0
LINE
  5
226
330
1F
100
AcDbEntity
  8
0
  6
Continuous
 62
     7
370
    25
100
AcDbLine
 10
16.2778139061
 20
13.0978732248
 30
0.0
 11
16.278627522
 21
13.1100960371
 31
0.0
  0
LINE
  5
227
330
1F
100
AcDbEntity
  8
0
  6
Continuous
 62
     7
370
    25
100
AcDbLine
 10
16.2120796271
 20
13.2254421644
 30
0.0
 11
16.2010130416
 21
13.2308912873
 31
0.0
  0
LWPOLYLINE
  5
228
330
1F
100
AcDbEntity
  8
0
  6
Continuous
 62
     7
370
    25
100
AcDbPolyline
 90
        3
 70
   128
 43
0.0
 10
16.2810292181
 20
13.0927509083
 10
16.2825095728
 20
13.0993885719
 10
16.2827306777
 20
13.1007968041
  0
LWPOLYLINE
  5
229
330
1F
100
AcDbEntity
  8
0
  6
Continuous
 62
     7
370
    25
100
AcDbPolyline
 90
        3
 70
   128
 43
0.0
 10
16.2060760849
 20
13.2336582609
 10
16.1995022092
 20
13.2358856203
 10
16.1981854043
 20
13.2362351195
  0
LINE
  5
22A
330
1F
100
AcDbEntity
  8
0
  6
Continuous
 62
     7
370
    25
100
AcDbLine
 10
16.2884118971
 20
13.0829678198
 30
0.0
 11
16.2897828471
 21
13.0838063116
 31
0.0
  0
LINE
  5
22B
330
1F
100
AcDbEntity
  8
0
  6
Continuous
 62
     7
370
    25
100
AcDbLine
 10
16.1948684519
 20
13.2483039671
 30
0.0
 11
16.1934196175
 21
13.2475171037
 31
0.0
  0
LWPOLYLINE
  5
22C
330
1F
100
AcDbEntity
  8
0
  6
Continuous
 62
     7
370
    25
100
AcDbPolyline
 90
        8
 70
   128
 43
0.0
 10
15.7417917981
 20
13.7904074955
 10
15.7223859791
 20
13.7926960814
 10
15.7054176375
 20
13.7937980429
 10
15.691311561
 20
13.7936857935
 10
15.6804208828
 20
13.792362143
 10
15.6730182416
 20
13.7898602281
 10
15.669288956
 20
13.786242682
 10
15.6690108035
 20
13.7854584675
  0
LINE
  5
22D
330
1F
100
AcDbEntity
  8
0
  6
Continuous
 62
     7
370
    25
100
AcDbLine
 10
16.0343935102
 20
13.2503759441
 30
0.0
 11
16.0343935102
 21
13.3852656703
 31
0.0
  0
ARC
  5
22E
330
1F
100
AcDbEntity
  8
0
  6
Continuous
 62
     7
370
    25
100
AcDbCircle
 10
15.7412347575
 20
13.7526587879
 30
0.0
 40
0.0778316401238096
100
AcDbArc
 50
185.42837652
 51
245.8917644376
  0
ARC
  5
22F
330
1F
100
AcDbEntity
  8
0
  6
Continuous
 62
     7
370
    25
100
AcDbCircle
 10
15.7412347575
 20
12.9012741077
 30
0.0
 40
0.0778316401238135
100
AcDbArc
 50
185.42837652
 51
245.8917644376
  0
LINE
  5
230
330
1F
100
AcDbEntity
  8
0
  6
Continuous
 62
     7
370
    25
100
AcDbLine
 10
8.0890639731
 20
7.5242417644
 30
0.0
 11
8.0890639731
 21
6.481569227
 31
0.0
  0
LINE
  5
231
330
1F
100
AcDbEntity
  8
0
  6
Continuous
 62
     7
370
    25
100
AcDbLine
 10
8.0890639731
 20
6.481569227
 30
0.0
 11
7.9477177388
 21
6.481569227
 31
0.0
  0
LINE
  5
232
330
1F
100
AcDbEntity
  8
0
  6
Continuous
 62
     7
370
    25
100
AcDbLine
 10
7.9477177388
 20
6.481569227
 30
0.0
 11
7.9477177388
 21
7.5242417644
 31
0.0
  0
LINE
  5
233
330
1F
100
AcDbEntity
  8
0
  6
Continuous
 62
     7
370
    25
100
AcDbLine
 10
8.0890639731
 20
7.5242417644
 30
0.0
 11
7.9477177388
 21
7.5242417644
 31
0.0
  0
LINE
  5
234
330
1F
100
AcDbEntity
  8
0
  6
Continuous
 62
     7
370
    25
100
AcDbLine
 10
9.2037698645
 20
7.5242417644
 30
0.0
 11
9.2037698645
 21
6.481569227
 31
0.0
  0
LINE
  5
235
330
1F
100
AcDbEntity
  8
0
  6
Continuous
 62
     7
370
    25
100
AcDbLine
 10
9.2037698645
 20
6.481569227
 30
0.0
 11
9.0624236303
 21
6.481569227
 31
0.0
  0
LINE
  5
236
330
1F
100
AcDbEntity
  8
0
  6
Continuous
 62
     7
370
    25
100
AcDbLine
 10
9.0624236303
 20
6.481569227
 30
0.0
 11
9.0624236303
 21
7.5242417644
 31
0.0
  0
LINE
  5
237
330
1F
100
AcDbEntity
  8
0
  6
Continuous
 62
     7
370
    25
100
AcDbLine
 10
9.2037698645
 20
7.5242417644
 30
0.0
 11
9.0624236303
 21
7.5242417644
 31
0.0
  0
LINE
  5
238
330
1F
100
AcDbEntity
  8
0
  6
Continuous
 62
     7
370
    25
100
AcDbLine
 10
9.0624236303
 20
7.5242417644
 30
0.0
 11
8.0890639731
 21
7.5242417644
 31
0.0
  0
LINE
  5
239
330
1F
100
AcDbEntity
  8
0
  6
Continuous
 62
     7
370
    25
100
AcDbLine
 10
8.0890639731
 20
7.5242417644
 30
0.0
 11
8.0890639731
 21
7.6346064307
 31
0.0
  0
LINE
  5
23A
330
1F
100
AcDbEntity
  8
0
  6
Continuous
 62
     7
370
    25
100
AcDbLine
 10
8.0890639731
 20
7.6346064307
 30
0.0
 11
9.0624236303
 21
7.6346064307
 31
0.0
  0
LINE
  5
23B
330
1F
100
AcDbEntity
  8
0
  6
Continuous
 62
     7
370
    25
100
AcDbLine
 10
9.0624236303
 20
7.6346064307
 30
0.0
 11
9.0624236303
 21
7.5242417644
 31
0.0
  0
LINE
  5
23C
330
1F
100
AcDbEntity
  8
0
  6
Continuous
 62
     7
370
    25
100
AcDbLine
 10
8.0890639731
 20
6.481569227
 30
0.0
 11
8.0890639731
 21
6.3712045607
 31
0.0
  0
ARC
  5
23D
330
1F
100
AcDbEntity
  8
0
  6
Continuous
 62
     7
370
    25
100
AcDbCircle
 10
8.1286500097
 20
6.567597996
 30
0.0
 40
0.2003432947169894
100
AcDbArc
 50
205.429918787
 51
258.6038761376
  0
LINE
  5
23E
330
1F
100
AcDbEntity
  8
0
  6
Continuous
 62
     7
370
    25
100
AcDbLine
 10
9.0624236303
 20
6.3712045607
 30
0.0
 11
9.0624236303
 21
6.481569227
 31
0.0
  0
ARC
  5
23F
330
1F
100
AcDbEntity
  8
0
  6
Continuous
 62
     7
370
    25
100
AcDbCircle
 10
9.0228375936
 20
6.567597996
 30
0.0
 40
0.2003432947169831
100
AcDbArc
 50
281.3961238624
 51
334.570081213
  0
LINE
  5
240
330
1F
100
AcDbEntity
  8
0
  6
Continuous
 62
     7
370
    25
100
AcDbLine
 10
8.0890639731
 20
6.481569227
 30
0.0
 11
9.0624236303
 21
6.481569227
 31
0.0
  0
LINE
  5
241
330
1F
100
AcDbEntity
  8
0
  6
Continuous
 62
     7
370
    25
100
AcDbLine
 10
9.0624236303
 20
6.3712045607
 30
0.0
 11
8.0890639731
 21
6.3712045607
 31
0.0
  0
ARC
  5
242
330
1F
100
AcDbEntity
  8
0
  6
Continuous
 62
     7
370
    25
100
AcDbCircle
 10
9.0228375936
 20
7.4382129953
 30
0.0
 40
0.2003432947169843
100
AcDbArc
 50
25.429918787
 51
78.6038761376
  0
ARC
  5
243
330
1F
100
AcDbEntity
  8
0
  6
Continuous
 62
     7
370
    25
100
AcDbCircle
 10
8.1286500097
 20
7.4382129953
 30
0.0
 40
0.2003432947169978
100
AcDbArc
 50
101.3961238624
 51
154.570081213
  0
CIRCLE
  5
244
330
1F
100
AcDbEntity
  8
0
  6
Continuous
 62
     7
370
    25
100
AcDbCircle
 10
8.5757438017
 20
7.0029054957
 30
0.0
 40
0.3890865000000012
  0
CIRCLE
  5
245
330
1F
100
AcDbEntity
  8
0
  6
Continuous
 62
     7
370
    25
100
AcDbCircle
 10
8.5757438017
 20
7.0029054957
 30
0.0
 40
0.3790561513778705
  0
LINE
  5
246
330
1F
100
AcDbEntity
  8
0
  6
Continuous
 62
     7
370
    25
100
AcDbLine
 10
9.501059372
 20
5.4329054957
 30
0.0
 11
9.0624236303
 21
6.3712045607
 31
0.0
  0
LINE
  5
247
330
1F
100
AcDbEntity
  8
0
  6
Continuous
 62
     7
370
    25
100
AcDbLine
 10
9.2037698645
 20
6.481569227
 30
0.0
 11
9.6217438017
 21
5.5874684571
 31
0.0
  0
ELLIPSE
  5
248
330
1F
100
AcDbEntity
  8
0
  6
Continuous
 62
     7
370
    25
100
AcDbEllipse
 10
9.4495708384
 20
5.6534108514
 30
0.0
 11
-0.09834654503339912
 21
0.2103760876366652
 31
0.0
210
0.0
220
0.0
230
1.0
 40
0.6717517706
 41
2.83731424161615
 42
4.10441235726668
  0
LINE
  5
249
330
1F
100
AcDbEntity
  8
0
  6
Continuous
 62
     7
370
    25
100
AcDbLine
 10
7.5297438017
 20
5.5874684571
 30
0.0
 11
7.9477177388
 21
6.481569227
 31
0.0
  0
LINE
  5
24A
330
1F
100
AcDbEntity
  8
0
  6
Continuous
 62
     7
370
    25
100
AcDbLine
 10
8.0890639731
 20
6.3712045607
 30
0.0
 11
7.6504282313
 21
5.4329054957
 31
0.0
  0
ELLIPSE
  5
24B
330
1F
100
AcDbEntity
  8
0
  6
Continuous
 62
     7
370
    25
100
AcDbEllipse
 10
7.7019167649
 20
5.6534108514
 30
0.0
 11
0.09834654503340004
 21
0.2103760876366652
 31
0.0
210
0.0
220
0.0
230
1.0
 40
0.6717517706
 41
2.178772949912925
 42
3.445871065563467
  0
LINE
  5
24C
330
1F
100
AcDbEntity
  8
0
  6
Continuous
 62
     7
370
    25
100
AcDbLine
 10
7.6504282313
 20
8.5729054957
 30
0.0
 11
8.0890639731
 21
7.6346064307
 31
0.0
  0
LINE
  5
24D
330
1F
100
AcDbEntity
  8
0
  6
Continuous
 62
     7
370
    25
100
AcDbLine
 10
7.9477177388
 20
7.5242417644
 30
0.0
 11
7.5297438017
 21
8.4183425343
 31
0.0
  0
ELLIPSE
  5
24E
330
1F
100
AcDbEntity
  8
0
  6
Continuous
 62
     7
370
    25
100
AcDbEllipse
 10
7.7019167649
 20
8.35240014
 30
0.0
 11
0.09834654503340003
 21
-0.2103760876366643
 31
0.0
210
0.0
220
0.0
230
1.0
 40
0.6717517706
 41
2.837314241616144
 42
4.104412357266668
  0
LINE
  5
24F
330
1F
100
AcDbEntity
  8
0
  6
Continuous
 62
     7
370
    25
100
AcDbLine
 10
9.6217438017
 20
8.4183425343
 30
0.0
 11
9.2037698645
 21
7.5242417644
 31
0.0
  0
LINE
  5
250
330
1F
100
AcDbEntity
  8
0
  6
Continuous
 62
     7
370
    25
100
AcDbLine
 10
9.0624236303
 20
7.6346064307
 30
0.0
 11
9.501059372
 21
8.5729054957
 31
0.0
  0
ELLIPSE
  5
251
330
1F
100
AcDbEntity
  8
0
  6
Continuous
 62
     7
370
    25
100
AcDbEllipse
 10
9.4495708384
 20
8.35240014
 30
0.0
 11
-0.09834654503339914
 21
-0.2103760876366643
 31
0.0
210
0.0
220
0.0
230
1.0
 40
0.6717517706
 41
2.178772949912925
 42
3.445871065563458
  0
LINE
  5
252
330
1F
100
AcDbEntity
  8
0
  6
Continuous
 62
     7
370
    25
100
AcDbLine
 10
9.501059372
 20
8.5729054957
 30
0.0
 11
7.6504282313
 21
8.5729054957
 31
0.0
  0
LWPOLYLINE
  5
253
330
1F
100
AcDbEntity
  8
0
  6
Continuous
 62
     7
370
    25
100
AcDbPolyline
 90
       51
 70
   128
 43
0.0
 10
8.5757438017
 20
7.7836690344
 10
8.6245092708
 20
7.7858373806
 10
8.6725056794
 20
7.7923082233
 10
8.7189760954
 20
7.8029795133
 10
8.7631876526
 20
7.817682958
 10
8.8044431082
 20
7.8361866754
 10
8.8420918392
 20
7.8581988507
 10
8.8755401025
 20
7.8833723388
 10
8.904260399
 20
7.9113101388
 10
8.9277997926
 20
7.9415716548
 10
8.9457870529
 20
7.9736796446
 10
8.95793851
 20
8.0071277462
 10
8.9640625283
 20
8.0413884629
 10
8.9640625283
 20
8.0759214828
 10
8.95793851
 20
8.1101821995
 10
8.9457870529
 20
8.1436303011
 10
8.9277997926
 20
8.175738291
 10
8.904260399
 20
8.205999807
 10
8.8755401025
 20
8.2339376069
 10
8.8420918392
 20
8.259111095
 10
8.8044431082
 20
8.2811232703
 10
8.7631876526
 20
8.2996269877
 10
8.7189760954
 20
8.3143304324
 10
8.6725056794
 20
8.3250017224
 10
8.6245092708
 20
8.3314725651
 10
8.5757438017
 20
8.3336409114
 10
8.5269783325
 20
8.3314725651
 10
8.4789819239
 20
8.3250017224
 10
8.4325115079
 20
8.3143304324
 10
8.3882999507
 20
8.2996269877
 10
8.3470444951
 20
8.2811232703
 10
8.3093957641
 20
8.259111095
 10
8.2759475008
 20
8.2339376069
 10
8.2472272043
 20
8.205999807
 10
8.2236878107
 20
8.175738291
 10
8.2057005504
 20
8.1436303011
 10
8.1935490933
 20
8.1101821995
 10
8.187425075
 20
8.0759214828
 10
8.187425075
 20
8.0413884629
 10
8.1935490933
 20
8.0071277462
 10
8.2057005504
 20
7.9736796446
 10
8.2236878107
 20
7.9415716548
 10
8.2472272043
 20
7.9113101388
 10
8.2759475008
 20
7.8833723388
 10
8.3093957641
 20
7.8581988507
 10
8.3470444951
 20
7.8361866754
 10
8.3882999507
 20
7.817682958
 10
8.4325115079
 20
7.8029795133
 10
8.4789819239
 20
7.7923082233
 10
8.5269783325
 20
7.7858373806
 10
8.5757438017
 20
7.7836690344
  0
LINE
  5
254
330
1F
100
AcDbEntity
  8
0
  6
Continuous
 62
     7
370
    25
100
AcDbLine
 10
7.6504282313
 20
5.4329054957
 30
0.0
 11
9.501059372
 21
5.4329054957
 31
0.0
  0
LWPOLYLINE
  5
255
330
1F
100
AcDbEntity
  8
0
  6
Continuous
 62
     7
370
    25
100
AcDbPolyline
 90
       51
 70
   128
 43
0.0
 10
8.5757438017
 20
5.67217008
 10
8.6245092708
 20
5.6743384263
 10
8.6725056794
 20
5.6808092689
 10
8.7189760954
 20
5.6914805589
 10
8.7631876526
 20
5.7061840037
 10
8.8044431082
 20
5.7246877211
 10
8.8420918392
 20
5.7466998964
 10
8.8755401025
 20
5.7718733845
 10
8.904260399
 20
5.7998111844
 10
8.9277997926
 20
5.8300727004
 10
8.9457870529
 20
5.8621806903
 10
8.95793851
 20
5.8956287919
 10
8.9640625283
 20
5.9298895086
 10
8.9640625283
 20
5.9644225285
 10
8.95793851
 20
5.9986832452
 10
8.9457870529
 20
6.0321313467
 10
8.9277997926
 20
6.0642393366
 10
8.904260399
 20
6.0945008526
 10
8.8755401025
 20
6.1224386526
 10
8.8420918392
 20
6.1476121407
 10
8.8044431082
 20
6.169624316
 10
8.7631876526
 20
6.1881280334
 10
8.7189760954
 20
6.2028314781
 10
8.6725056794
 20
6.2135027681
 10
8.6245092708
 20
6.2199736108
 10
8.5757438017
 20
6.222141957
 10
8.5269783325
 20
6.2199736108
 10
8.4789819239
 20
6.2135027681
 10
8.4325115079
 20
6.2028314781
 10
8.3882999507
 20
6.1881280334
 10
8.3470444951
 20
6.169624316
 10
8.3093957641
 20
6.1476121407
 10
8.2759475008
 20
6.1224386526
 10
8.2472272043
 20
6.0945008526
 10
8.2236878107
 20
6.0642393366
 10
8.2057005504
 20
6.0321313467
 10
8.1935490933
 20
5.9986832452
 10
8.187425075
 20
5.9644225285
 10
8.187425075
 20
5.9298895086
 10
8.1935490933
 20
5.8956287919
 10
8.2057005504
 20
5.8621806903
 10
8.2236878107
 20
5.8300727004
 10
8.2472272043
 20
5.7998111844
 10
8.2759475008
 20
5.7718733845
 10
8.3093957641
 20
5.7466998964
 10
8.3470444951
 20
5.7246877211
 10
8.3882999507
 20
5.7061840037
 10
8.4325115079
 20
5.6914805589
 10
8.4789819239
 20
5.6808092689
 10
8.5269783325
 20
5.6743384263
 10
8.5757438017
 20
5.67217008
  0
LINE
  5
256
330
1F
100
AcDbEntity
  8
0
  6
Continuous
 62
     7
370
    25
100
AcDbLine
 10
9.6217438017
 20
5.5874684571
 30
0.0
 11
9.6217438017
 21
8.4183425343
 31
0.0
  0
LINE
  5
257
330
1F
100
AcDbEntity
  8
0
  6
Continuous
 62
     7
370
    25
100
AcDbLine
 10
7.5297438017
 20
8.4183425343
 30
0.0
 11
7.5297438017
 21
5.5874684571
 31
0.0
  0
LWPOLYLINE
  5
258
330
1F
100
AcDbEntity
  8
0
  6
Continuous
 62
     7
370
    25
100
AcDbPolyline
 90
       21
 70
   128
 43
0.0
 10
8.9211285996
 20
6.0737756119
 10
8.9187240618
 20
6.0700920639
 10
8.8957914956
 20
6.0406106664
 10
8.867811586
 20
6.0133930813
 10
8.8352255931
 20
5.9888685462
 10
8.7985474172
 20
5.9674238277
 10
8.7583554953
 20
5.9493971218
 10
8.7152836778
 20
5.9350727205
 10
8.6700112332
 20
5.9246765281
 10
8.6232521348
 20
5.9183724987
 10
8.5757438017
 20
5.9162600508
 10
8.5282354685
 20
5.9183724987
 10
8.4814763701
 20
5.9246765281
 10
8.4362039255
 20
5.9350727205
 10
8.393132108
 20
5.9493971218
 10
8.3529401861
 20
5.9674238277
 10
8.3162620102
 20
5.9888685462
 10
8.2836760173
 20
6.0133930813
 10
8.2556961077
 20
6.0406106664
 10
8.2327635415
 20
6.0700920639
 10
8.2303590037
 20
6.0737756119
  0
ARC
  5
259
330
1F
100
AcDbEntity
  8
0
  6
Continuous
 62
     7
370
    25
100
AcDbCircle
 10
8.6012588156
 20
7.6880769089
 30
0.0
 40
0.4022839968167557
100
AcDbArc
 50
37.3320622965
 51
93.6364472811
  0
ARC
  5
25A
330
1F
100
AcDbEntity
  8
0
  6
Continuous
 62
     7
370
    25
100
AcDbCircle
 10
8.5502287877
 20
7.6880769089
 30
0.0
 40
0.402283996816755
100
AcDbArc
 50
86.3635527189
 51
142.6679377035
  0
CIRCLE
  5
25B
330
1F
100
AcDbEntity
  8
0
  6
Continuous
 62
     7
370
    25
100
AcDbCircle
 10
8.5757438017
 20
7.0029054957
 30
0.0
 40
2.068000000000001
  0
CIRCLE
  5
25C
330
1F
100
AcDbEntity
  8
0
  6
Continuous
 62
     7
370
    25
100
AcDbCircle
 10
8.5757438017
 20
7.0029054957
 30
0.0
 40
1.942
  0
CIRCLE
  5
25D
330
1F
100
AcDbEntity
  8
0
  6
Continuous
 62
     7
370
    25
100
AcDbCircle
 10
9.8131806687
 20
8.2403423628
 30
0.0
 40
0.1105
  0
CIRCLE
  5
25E
330
1F
100
AcDbEntity
  8
0
  6
Continuous
 62
     7
370
    25
100
AcDbCircle
 10
7.3383069346
 20
5.7654686286
 30
0.0
 40
0.1105
  0
CIRCLE
  5
25F
330
1F
100
AcDbEntity
  8
0
  6
Continuous
 62
     7
370
    25
100
AcDbCircle
 10
8.5757438017
 20
7.0029054957
 30
0.0
 40
2.149999999999998
  0
CIRCLE
  5
260
330
1F
100
AcDbEntity
  8
0
  6
Continuous
 62
     7
370
    25
100
AcDbCircle
 10
7.3383069346
 20
5.7654686286
 30
0.0
 40
0.0624999999999999
  0
CIRCLE
  5
261
330
1F
100
AcDbEntity
  8
0
  6
Continuous
 62
     7
370
    25
100
AcDbCircle
 10
9.8131806687
 20
8.2403423628
 30
0.0
 40
0.0625000000000005
  0
DIMENSION
  5
262
330
1F
100
AcDbEntity
  8
0
  6
Continuous
 62
     7
370
    18
100
AcDbDimension
  2
_D_2
 10
10.7257438017
 20
10.2079193114
 30
0.0
 11
8.5757438017
 21
10.2079193114
 31
0.0
 70
   160
  1
%%c<>
 71
     2
 42
-1.0
  3
SLDDIMSTYLE0
100
AcDbAlignedDimension
 13
6.4257438017
 23
7.0029054957
 33
0.0
 14
10.7257438017
 24
7.0029054957
 34
0.0
100
AcDbRotatedDimension
  0
DIMENSION
  5
275
330
1F
100
AcDbEntity
  8
0
  6
Continuous
 62
     7
370
    18
100
AcDbDimension
  2
_D_3
 10
7.3383069346
 20
8.2403423628
 30
0.0
 11
12.2615982744
 21
4.8362350093
 31
0.0
 70
   163
  1
<> B.C.
 71
     1
 42
-1.0
  3
SLDDIMSTYLE3
100
AcDbDiametricDimension
 15
9.8131806687
 25
5.7654686286
 35
0.0
 40
0.0
  0
DIMENSION
  5
287
330
1F
100
AcDbEntity
  8
0
  6
Continuous
 62
     7
370
    18
100
AcDbDimension
  2
_D_4
 10
8.5757438017
 20
4.9609054957
 30
0.0
 11
9.5453420821
 21
9.3437228144
 31
0.0
 70
   162
  1
<>
 71
     1
 42
-1.0
  3
SLDDIMSTYLE4
100
AcDb2LineAngularDimension
 13
9.9916192021
 23
8.4187808961
 33
0.0
 14
9.6643346913
 24
8.0914963853
 34
0.0
 15
8.5757438017
 25
9.0449054957
 35
0.0
 16
10.0971896959
 26
9.0289234956
 36
0.0
  0
MTEXT
  5
293
330
1F
100
AcDbEntity
  8
0
  6
Continuous
 62
     7
370
     0
100
AcDbMText
 10
5.5822008073
 20
3.4763069171
 30
0.0
 40
0.25
 41
0.0
 71
     2
 72
     1
  1
2X #10-24 CLEARANCE HOLES
  7
SLDTEXTSTYLE0
 73
     1
 44
1.0
  0
MTEXT
  5
294
330
1F
100
AcDbEntity
  8
0
  6
Continuous
 62
     7
370
     0
100
AcDbMText
 10
5.5906207706
 20
3.147566768
 30
0.0
 40
0.25
 41
0.0
 71
     2
 72
     1
  1
(HARDWARE INCLUDED)
  7
SLDTEXTSTYLE0
 73
     1
 44
1.0
  0
LEADER
  5
295
330
1F
100
AcDbEntity
  8
0
  6
Continuous
 62
     7
370
     0
100
AcDbLeader
  3
SLDDIMSTYLE2
 76
     3
 10
7.3691914224
 20
5.6593724533
 30
0.0
 10
8.5511276411
 20
3.0358537718
 30
0.0
 10
7.5934889278
 20
3.0358537718
 30
0.0
  0
MTEXT
  5
297
330
1F
100
AcDbEntity
  8
0
  6
Continuous
 62
     7
370
     0
100
AcDbMText
 10
12.0109205696
 20
3.7232380236
 30
0.0
 40
0.1666666667
 41
0.0
 71
     2
 72
     1
  1
3X 1/2" THREADED FIXTURE
  7
SLDTEXTSTYLE1
 73
     1
 44
1.0
  0
MTEXT
  5
298
330
1F
100
AcDbEntity
  8
0
  6
Continuous
 62
     7
370
     0
100
AcDbMText
 10
12.0028187608
 20
3.4048759613
 30
0.0
 40
0.1666666667
 41
0.0
 71
     2
 72
     1
  1
MOUNTING HOLE
  7
SLDTEXTSTYLE1
 73
     1
 44
1.0
  0
LEADER
  5
299
330
1F
100
AcDbEntity
  8
0
  6
Continuous
 62
     7
370
     0
100
AcDbLeader
  3
SLDDIMSTYLE2
 76
     3
 10
8.7434208704
 20
6.6518033665
 30
0.0
 10
10.0717286771
 20
3.7008122241
 30
0.0
 10
10.5717286771
 20
3.7008122241
 30
0.0
  0
INSERT
  5
2B3
330
1F
100
AcDbEntity
  8
0
  6
Continuous
 62
     7
370
     0
100
AcDbBlockReference
  2
SW_CENTERMARKSYMBOL_7
 10
7.3383069346
 20
5.7654686286
 30
0.0
  0
LINE
  5
2B4
330
1F
100
AcDbEntity
  8
0
  6
Continuous
 62
     7
370
    25
100
AcDbLine
 10
15.9641760554
 20
9.0709054957
 30
0.0
 11
15.8041760554
 21
9.0709054957
 31
0.0
  0
LINE
  5
2B5
330
1F
100
AcDbEntity
  8
0
  6
Continuous
 62
     7
370
    25
100
AcDbLine
 10
15.8041760554
 20
4.9349054957
 30
0.0
 11
15.9641760554
 21
4.9349054957
 31
0.0
  0
LINE
  5
2B6
330
1F
100
AcDbEntity
  8
0
  6
Continuous
 62
     7
370
    25
100
AcDbLine
 10
16.0141760554
 20
9.1529054957
 30
0.0
 11
15.9641760554
 21
9.1529054957
 31
0.0
  0
LINE
  5
2B7
330
1F
100
AcDbEntity
  8
0
  6
Continuous
 62
     7
370
    25
100
AcDbLine
 10
15.9641760554
 20
4.8529054957
 30
0.0
 11
16.0141760554
 21
4.8529054957
 31
0.0
  0
LINE
  5
2B8
330
1F
100
AcDbEntity
  8
0
  6
Continuous
 62
     7
370
    25
100
AcDbLine
 10
15.8041760554
 20
7.0029054957
 30
0.0
 11
15.8041760554
 21
9.0709054957
 31
0.0
  0
LINE
  5
2B9
330
1F
100
AcDbEntity
  8
0
  6
Continuous
 62
     7
370
    25
100
AcDbLine
 10
15.8041760554
 20
4.9349054957
 30
0.0
 11
15.8041760554
 21
7.0029054957
 31
0.0
  0
LINE
  5
2BA
330
1F
100
AcDbEntity
  8
0
  6
Continuous
 62
     7
370
    25
100
AcDbLine
 10
15.8041760554
 20
5.4828547343
 30
0.0
 11
14.9149234344
 21
6.3712045607
 31
0.0
  0
LWPOLYLINE
  5
2BB
330
1F
100
AcDbEntity
  8
0
  6
Continuous
 62
     7
370
    25
100
AcDbPolyline
 90
        9
 70
   128
 43
0.0
 10
14.9149234344
 20
6.3712045607
 10
14.9108425838
 20
6.3780413476
 10
14.9096239717
 20
6.3874698643
 10
14.9112981048
 20
6.3992540763
 10
14.9158230728
 20
6.413098976
 10
14.923085597
 20
6.4286579685
 10
14.9329038665
 20
6.4455415481
 10
14.9450320894
 20
6.4633270491
 10
14.9591666465
 20
6.481569227
  0
LINE
  5
2BC
330
1F
100
AcDbEntity
  8
0
  6
Continuous
 62
     7
370
    25
100
AcDbLine
 10
14.9591666465
 20
7.5242417644
 30
0.0
 11
14.9591666465
 21
6.481569227
 31
0.0
  0
LWPOLYLINE
  5
2BD
330
1F
100
AcDbEntity
  8
0
  6
Continuous
 62
     7
370
    25
100
AcDbPolyline
 90
        9
 70
   128
 43
0.0
 10
14.9591666465
 20
7.5242417644
 10
14.9450320894
 20
7.5424839423
 10
14.9329038665
 20
7.5602694433
 10
14.923085597
 20
7.5771530229
 10
14.9158230728
 20
7.5927120154
 10
14.9112981048
 20
7.6065569151
 10
14.9096239717
 20
7.6183411271
 10
14.9108425838
 20
7.6277696438
 10
14.9149234344
 20
7.6346064307
  0
LINE
  5
2BE
330
1F
100
AcDbEntity
  8
0
  6
Continuous
 62
     7
370
    25
100
AcDbLine
 10
14.9149234344
 20
7.6346064307
 30
0.0
 11
15.8041760554
 21
8.5229562571
 31
0.0
  0
LINE
  5
2BF
330
1F
100
AcDbEntity
  8
0
  6
Continuous
 62
     7
370
    25
100
AcDbLine
 10
14.9591666465
 20
6.481569227
 30
0.0
 11
14.8691760554
 21
6.481569227
 31
0.0
  0
LINE
  5
2C0
330
1F
100
AcDbEntity
  8
0
  6
Continuous
 62
     7
370
    25
100
AcDbLine
 10
14.8691760554
 20
6.481569227
 30
0.0
 11
14.8691760554
 21
7.5242417644
 31
0.0
  0
LINE
  5
2C1
330
1F
100
AcDbEntity
  8
0
  6
Continuous
 62
     7
370
    25
100
AcDbLine
 10
14.9591666465
 20
7.5242417644
 30
0.0
 11
14.8691760554
 21
7.5242417644
 31
0.0
  0
ARC
  5
2C2
330
1F
100
AcDbEntity
  8
0
  6
Continuous
 62
     7
370
    25
100
AcDbCircle
 10
15.0251760554
 20
7.5242417644
 30
0.0
 40
0.1559999999999999
100
AcDbArc
 50
134.9709010794
 51
180.0
  0
ARC
  5
2C3
330
1F
100
AcDbEntity
  8
0
  6
Continuous
 62
     7
370
    25
100
AcDbCircle
 10
15.0251760554
 20
6.481569227
 30
0.0
 40
0.1560000000000005
100
AcDbArc
 50
180.0
 51
225.0290989206
  0
LINE
  5
2C4
330
1F
100
AcDbEntity
  8
0
  6
Continuous
 62
     7
370
    25
100
AcDbLine
 10
15.9641760554
 20
4.8529054957
 30
0.0
 11
15.9641760554
 21
9.1529054957
 31
0.0
  0
LINE
  5
2C5
330
1F
100
AcDbEntity
  8
0
  6
Continuous
 62
     7
370
    25
100
AcDbLine
 10
16.0141760554
 20
4.8529054957
 30
0.0
 11
16.0141760554
 21
9.1529054957
 31
0.0
  0
LINE
  5
2C6
330
1F
100
AcDbEntity
  8
0
  6
Continuous
 62
     7
370
    25
100
AcDbLine
 10
14.9591666465
 20
6.481569227
 30
0.0
 11
15.8041760554
 21
5.6374176957
 31
0.0
  0
LINE
  5
2C7
330
1F
100
AcDbEntity
  8
0
  6
Continuous
 62
     7
370
    25
100
AcDbLine
 10
15.8041760554
 20
8.3683932957
 30
0.0
 11
14.9591666465
 21
7.5242417644
 31
0.0
  0
LINE
  5
2C8
330
1F
100
AcDbEntity
  8
SLD-0
  6
CENTERX2
100
AcDbLine
 10
15.3845497449
 20
8.1037559632
 30
0.0
 11
16.0141760554
 21
7.4738505759
 31
0.0
  0
LINE
  5
2C9
330
1F
100
AcDbEntity
  8
SLD-0
  6
CENTERX2
100
AcDbLine
 10
15.3845497449
 20
5.9020550282
 30
0.0
 11
16.0141760554
 21
6.5323212028
 31
0.0
  0
LINE
  5
2CA
330
1F
100
AcDbEntity
  8
SLD-0
  6
CENTERX2
100
AcDbLine
 10
15.3845497449
 20
5.9020550282
 30
0.0
 11
15.0055213632
 21
5.5226414551
 31
0.0
  0
LINE
  5
2CB
330
1F
100
AcDbEntity
  8
SLD-0
  6
CENTERX2
100
AcDbLine
 10
15.3845497449
 20
8.1037559632
 30
0.0
 11
15.0054127526
 21
8.4830610049
 31
0.0
  0
DIMENSION
  5
2CC
330
1F
100
AcDbEntity
  8
0
  6
Continuous
 62
     7
370
    18
100
AcDbDimension
  2
_D_5
 10
16.4641760554
 20
7.0029054957
 30
0.0
 11
14.461243341
 21
7.8413993728
 31
0.0
 70
   162
  1
<>
 71
     1
 42
-1.0
  3
SLDDIMSTYLE4
100
AcDb2LineAngularDimension
 13
15.3845497449
 23
8.1037559632
 33
0.0
 14
15.0054127526
 24
8.4830610049
 34
0.0
 15
14.517590438
 25
7.0029054957
 35
0.0
 16
14.727093766
 26
8.3099564272
 36
0.0
  0
DIMENSION
  5
2D6
330
1F
100
AcDbEntity
  8
0
  6
Continuous
 62
     7
370
    18
100
AcDbDimension
  2
_D_6
 10
15.0055213632
 20
5.5226414551
 30
0.0
 11
14.4606158232
 21
6.1640731586
 31
0.0
 70
   162
  1
<>
 71
     1
 42
-1.0
  3
SLDDIMSTYLE4
100
AcDb2LineAngularDimension
 13
14.517590438
 23
7.0029054957
 33
0.0
 14
16.4641760554
 24
7.0029054957
 34
0.0
 15
15.3845497449
 25
5.9020550282
 35
0.0
 16
14.3177066914
 26
6.6791528952
 36
0.0
  0
LINE
  5
2E0
330
1F
100
AcDbEntity
  8
0
  6
CENTERX2
 62
     7
370
    18
100
AcDbLine
 10
14.517590438
 20
7.0029054957
 30
0.0
 11
16.4641760554
 21
7.0029054957
 31
0.0
  0
ENDSEC
  0
SECTION
  2
OBJECTS
  0
DICTIONARY
  5
C
330
0
100
AcDbDictionary
281
     1
  3
ACAD_GROUP
350
D
  3
ACAD_LAYOUT
350
1A
  3
ACAD_MLINESTYLE
350
17
  3
ACAD_PLOTSETTINGS
350
19
  3
ACAD_PLOTSTYLENAME
350
E
  3
ACAD_SCALELIST
350
47
  3
DWGPROPS
350
2E1
  0
DICTIONARY
  5
D
102
{ACAD_REACTORS
330
C
102
}
330
C
100
AcDbDictionary
281
     1
  0
DICTIONARY
  5
1A
102
{ACAD_REACTORS
330
C
102
}
330
C
100
AcDbDictionary
281
     1
  3
Layout1
350
1E
  3
Layout2
350
26
  3
Model
350
22
  0
DICTIONARY
  5
17
102
{ACAD_REACTORS
330
C
102
}
330
C
100
AcDbDictionary
281
     1
  3
Standard
350
18
  0
DICTIONARY
  5
19
102
{ACAD_REACTORS
330
C
102
}
330
C
100
AcDbDictionary
281
     1
  0
ACDBDICTIONARYWDFLT
  5
E
102
{ACAD_REACTORS
330
C
102
}
330
C
100
AcDbDictionary
281
     1
  3
Normal
350
F
100
AcDbDictionaryWithDefault
340
F
  0
DICTIONARY
  5
47
102
{ACAD_REACTORS
330
C
102
}
330
C
100
AcDbDictionary
281
     1
  3
A0
350
48
  3
A1
350
49
  3
A2
350
4A
  3
A3
350
4B
  3
A4
350
4C
  3
A5
350
4D
  3
A6
350
4E
  3
A7
350
4F
  3
A8
350
50
  3
A9
350
51
  3
B1
350
52
  3
B2
350
53
  3
B3
350
54
  3
B4
350
55
  3
B5
350
56
  3
B6
350
57
  3
B7
350
58
  0
XRECORD
  5
2E1
102
{ACAD_REACTORS
330
C
102
}
330
C
100
AcDbXrecord
280
     1
  1
DWGPROPS COOKIE
  2

  3

  4

  6

  7

  8
shawnd
  9

300
=
301
=
302
=
303
=
304
=
305
=
306
=
307
=
308
=
309
=
 40
0.0
 41
2460888.864199387
 42
2460888.864199827
  1

 90
        0
  0
LAYOUT
  5
1E
102
{ACAD_REACTORS
330
1A
102
}
330
1A
100
AcDbPlotSettings
  1

  2
none_device
  4

  6

 40
0.0
 41
0.0
 42
0.0
 43
0.0
 44
0.0
 45
0.0
 46
0.0
 47
0.0
 48
0.0
 49
0.0
140
0.0
141
0.0
142
1.0
143
1.0
 70
   688
 72
     0
 73
     0
 74
     5
  7

 75
    16
147
1.0
148
0.0
149
0.0
100
AcDbLayout
  1
Layout1
 70
     1
 71
     1
 10
0.0
 20
0.0
 11
12.0
 21
9.0
 12
0.0
 22
0.0
 32
0.0
 14
1.0000000000E+20
 24
1.0000000000E+20
 34
1.0000000000E+20
 15
-1.0000000000E+20
 25
-1.0000000000E+20
 35
-1.0000000000E+20
146
0.0
 13
0.0
 23
0.0
 33
0.0
 16
1.0
 26
0.0
 36
0.0
 17
0.0
 27
1.0
 37
0.0
 76
     0
330
1B
  0
LAYOUT
  5
26
102
{ACAD_REACTORS
330
1A
102
}
330
1A
100
AcDbPlotSettings
  1

  2
none_device
  4

  6

 40
0.0
 41
0.0
 42
0.0
 43
0.0
 44
0.0
 45
0.0
 46
0.0
 47
0.0
 48
0.0
 49
0.0
140
0.0
141
0.0
142
1.0
143
1.0
 70
   688
 72
     0
 73
     0
 74
     5
  7

 75
    16
147
1.0
148
0.0
149
0.0
100
AcDbLayout
  1
Layout2
 70
     1
 71
     2
 10
0.0
 20
0.0
 11
0.0
 21
0.0
 12
0.0
 22
0.0
 32
0.0
 14
0.0
 24
0.0
 34
0.0
 15
0.0
 25
0.0
 35
0.0
146
0.0
 13
0.0
 23
0.0
 33
0.0
 16
1.0
 26
0.0
 36
0.0
 17
0.0
 27
1.0
 37
0.0
 76
     0
330
23
  0
LAYOUT
  5
22
102
{ACAD_REACTORS
330
1A
102
}
330
1A
100
AcDbPlotSettings
  1

  2
none_device
  4
Letter_(8.50_x_11.00_Inches)
  6

 40
6.35
 41
6.35
 42
6.35000508
 43
6.35000508
 44
215.9
 45
279.4
 46
0.0
 47
0.0
 48
0.0
 49
0.0
140
0.0
141
0.0
142
1.0
143
1.0
 70
  1712
 72
     0
 73
     0
 74
     0
  7

 75
     0
147
1.0
148
0.0
149
0.0
100
AcDbLayout
  1
Model
 70
     1
 71
     0
 10
0.0
 20
0.0
 11
22.0
 21
17.0
 12
0.0
 22
0.0
 32
0.0
 14
0.0
 24
0.0
 34
0.0
 15
22.0
 25
17.0
 35
0.0
146
0.0
 13
0.0
 23
0.0
 33
0.0
 16
1.0
 26
0.0
 36
0.0
 17
0.0
 27
1.0
 37
0.0
 76
     0
330
1F
331
29
  0
MLINESTYLE
  5
18
102
{ACAD_REACTORS
330
17
102
}
330
17
100
AcDbMlineStyle
  2
Standard
 70
     0
  3

 62
   256
 51
90.0
 52
90.0
 71
     2
 49
0.5
 62
   256
  6
BYLAYER
 49
-0.5
 62
   256
  6
BYLAYER
  0
ACDBPLACEHOLDER
  5
F
102
{ACAD_REACTORS
330
E
102
}
330
E
  0
SCALE
  5
48
102
{ACAD_REACTORS
330
47
102
}
330
47
100
AcDbScale
 70
     0
300
1:1
140
1.0
141
1.0
290
     1
  0
SCALE
  5
49
102
{ACAD_REACTORS
330
47
102
}
330
47
100
AcDbScale
 70
     0
300
1/128" = 1'-0"
140
0.0078125
141
12.0
290
     0
  0
SCALE
  5
4A
102
{ACAD_REACTORS
330
47
102
}
330
47
100
AcDbScale
 70
     0
300
1/64" = 1'-0"
140
0.015625
141
12.0
290
     0
  0
SCALE
  5
4B
102
{ACAD_REACTORS
330
47
102
}
330
47
100
AcDbScale
 70
     0
300
1/32" = 1'-0"
140
0.03125
141
12.0
290
     0
  0
SCALE
  5
4C
102
{ACAD_REACTORS
330
47
102
}
330
47
100
AcDbScale
 70
     0
300
1/16" = 1'-0"
140
0.0625
141
12.0
290
     0
  0
SCALE
  5
4D
102
{ACAD_REACTORS
330
47
102
}
330
47
100
AcDbScale
 70
     0
300
3/32" = 1'-0"
140
0.09375
141
12.0
290
     0
  0
SCALE
  5
4E
102
{ACAD_REACTORS
330
47
102
}
330
47
100
AcDbScale
 70
     0
300
1/8" = 1'-0"
140
0.125
141
12.0
290
     0
  0
SCALE
  5
4F
102
{ACAD_REACTORS
330
47
102
}
330
47
100
AcDbScale
 70
     0
300
3/16" = 1'-0"
140
0.1875
141
12.0
290
     0
  0
SCALE
  5
50
102
{ACAD_REACTORS
330
47
102
}
330
47
100
AcDbScale
 70
     0
300
1/4" = 1'-0"
140
0.25
141
12.0
290
     0
  0
SCALE
  5
51
102
{ACAD_REACTORS
330
47
102
}
330
47
100
AcDbScale
 70
     0
300
3/8" = 1'-0"
140
0.375
141
12.0
290
     0
  0
SCALE
  5
52
102
{ACAD_REACTORS
330
47
102
}
330
47
100
AcDbScale
 70
     0
300
1/2" = 1'-0"
140
0.5
141
12.0
290
     0
  0
SCALE
  5
53
102
{ACAD_REACTORS
330
47
102
}
330
47
100
AcDbScale
 70
     0
300
3/4" = 1'-0"
140
0.75
141
12.0
290
     0
  0
SCALE
  5
54
102
{ACAD_REACTORS
330
47
102
}
330
47
100
AcDbScale
 70
     0
300
1" = 1'-0"
140
1.0
141
12.0
290
     0
  0
SCALE
  5
55
102
{ACAD_REACTORS
330
47
102
}
330
47
100
AcDbScale
 70
     0
300
1-1/2" = 1'-0"
140
1.5
141
12.0
290
     0
  0
SCALE
  5
56
102
{ACAD_REACTORS
330
47
102
}
330
47
100
AcDbScale
 70
     0
300
3" = 1'-0"
140
3.0
141
12.0
290
     0
  0
SCALE
  5
57
102
{ACAD_REACTORS
330
47
102
}
330
47
100
AcDbScale
 70
     0
300
6" = 1'-0"
140
6.0
141
12.0
290
     0
  0
SCALE
  5
58
102
{ACAD_REACTORS
330
47
102
}
330
47
100
AcDbScale
 70
     0
300
1'-0" = 1'-0"
140
12.0
141
12.0
290
     0
  0
ENDSEC
  0
EOF
