  0
SECTION
  2
HEADER
  9
$ACADVER
  1
AC1015
  9
$ACADMAINTVER
 70
     6
  9
$DWGCODEPAGE
  3
ANSI_1252
  9
$INSBASE
 10
0.0
 20
0.0
 30
0.0
  9
$EXTMIN
 10
0.0
 20
0.0
 30
0.0
  9
$EXTMAX
 10
22.0
 20
17.0
 30
0.0
  9
$LIMMIN
 10
0.0
 20
0.0
  9
$LIMMAX
 10
22.0
 20
17.0
  9
$ORTHOMODE
 70
     0
  9
$REGENMODE
 70
     1
  9
$FILLMODE
 70
     1
  9
$QTEXTMODE
 70
     0
  9
$MIRRTEXT
 70
     1
  9
$LTSCALE
 40
2.0
  9
$ATTMODE
 70
     1
  9
$TEXTSIZE
 40
0.25
  9
$TRACEWID
 40
0.05
  9
$TEXTSTYLE
  7
Standard
  9
$CLAYER
  8
0
  9
$CELTYPE
  6
ByLayer
  9
$CECOLOR
 62
   256
  9
$CELTSCALE
 40
1.0
  9
$DISPSILH
 70
     0
  9
$DIMSCALE
 40
1.0
  9
$DIMASZ
 40
0.26
  9
$DIMEXO
 40
0.1
  9
$DIMDLI
 40
0.38
  9
$DIMRND
 40
0.0
  9
$DIMDLE
 40
0.0
  9
$DIMEXE
 40
0.25
  9
$DIMTP
 40
0.0
  9
$DIMTM
 40
0.0
  9
$DIMTXT
 40
0.25
  9
$DIMCEN
 40
0.09
  9
$DIMTSZ
 40
0.0
  9
$DIMTOL
 70
     0
  9
$DIMLIM
 70
     0
  9
$DIMTIH
 70
     1
  9
$DIMTOH
 70
     1
  9
$DIMSE1
 70
     0
  9
$DIMSE2
 70
     0
  9
$DIMTAD
 70
     0
  9
$DIMZIN
 70
     1
  9
$DIMBLK
  1

  9
$DIMASO
 70
     1
  9
$DIMSHO
 70
     1
  9
$DIMPOST
  1

  9
$DIMAPOST
  1

  9
$DIMALT
 70
     0
  9
$DIMALTD
 70
     2
  9
$DIMALTF
 40
25.4
  9
$DIMLFAC
 40
1.0
  9
$DIMTOFL
 70
     0
  9
$DIMTVP
 40
0.0
  9
$DIMTIX
 70
     0
  9
$DIMSOXD
 70
     0
  9
$DIMSAH
 70
     0
  9
$DIMBLK1
  1

  9
$DIMBLK2
  1

  9
$DIMSTYLE
  2
Standard
  9
$DIMCLRD
 70
     0
  9
$DIMCLRE
 70
     0
  9
$DIMCLRT
 70
     0
  9
$DIMTFAC
 40
1.0
  9
$DIMGAP
 40
0.12
  9
$DIMJUST
 70
     0
  9
$DIMSD1
 70
     0
  9
$DIMSD2
 70
     0
  9
$DIMTOLJ
 70
     1
  9
$DIMTZIN
 70
     1
  9
$DIMALTZ
 70
     0
  9
$DIMALTTZ
 70
     0
  9
$DIMUPT
 70
     0
  9
$DIMDEC
 70
     0
  9
$DIMTDEC
 70
     0
  9
$DIMALTU
 70
     2
  9
$DIMALTTD
 70
     2
  9
$DIMTXSTY
  7
Standard
  9
$DIMAUNIT
 70
     0
  9
$DIMADEC
 70
     0
  9
$DIMALTRND
 40
0.0
  9
$DIMAZIN
 70
     0
  9
$DIMDSEP
 70
    46
  9
$DIMATFIT
 70
     3
  9
$DIMFRAC
 70
     0
  9
$DIMLDRBLK
  1

  9
$DIMLUNIT
 70
     2
  9
$DIMLWD
 70
    -2
  9
$DIMLWE
 70
    -2
  9
$DIMTMOVE
 70
     0
  9
$LUNITS
 70
     2
  9
$LUPREC
 70
     6
  9
$SKETCHINC
 40
0.1
  9
$FILLETRAD
 40
0.0
  9
$AUNITS
 70
     0
  9
$AUPREC
 70
     2
  9
$MENU
  1
.
  9
$ELEVATION
 40
0.0
  9
$PELEVATION
 40
0.0
  9
$THICKNESS
 40
0.0
  9
$LIMCHECK
 70
     0
  9
$CHAMFERA
 40
0.0
  9
$CHAMFERB
 40
0.0
  9
$CHAMFERC
 40
0.0
  9
$CHAMFERD
 40
0.0
  9
$SKPOLY
 70
     0
  9
$TDCREATE
 40
2460888.65675228
  9
$TDUCREATE
 40
2460888.948418947
  9
$TDUPDATE
 40
2460888.656752593
  9
$TDUUPDATE
 40
2460888.94841926
  9
$TDINDWG
 40
0.0000000116
  9
$TDUSRTIMER
 40
0.0000000116
  9
$USRTIMER
 70
     1
  9
$ANGBASE
 50
0.0
  9
$ANGDIR
 70
     0
  9
$PDMODE
 70
     0
  9
$PDSIZE
 40
-1.0
  9
$PLINEWID
 40
0.0
  9
$SPLFRAME
 70
     0
  9
$SPLINETYPE
 70
     6
  9
$SPLINESEGS
 70
     8
  9
$HANDSEED
  5
F7
  9
$SURFTAB1
 70
     6
  9
$SURFTAB2
 70
     6
  9
$SURFTYPE
 70
     6
  9
$SURFU
 70
     6
  9
$SURFV
 70
     6
  9
$UCSBASE
  2

  9
$UCSNAME
  2

  9
$UCSORG
 10
0.0
 20
0.0
 30
0.0
  9
$UCSXDIR
 10
1.0
 20
0.0
 30
0.0
  9
$UCSYDIR
 10
0.0
 20
1.0
 30
0.0
  9
$UCSORTHOREF
  2

  9
$UCSORTHOVIEW
 70
     0
  9
$UCSORGTOP
 10
0.0
 20
0.0
 30
0.0
  9
$UCSORGBOTTOM
 10
0.0
 20
0.0
 30
0.0
  9
$UCSORGLEFT
 10
0.0
 20
0.0
 30
0.0
  9
$UCSORGRIGHT
 10
0.0
 20
0.0
 30
0.0
  9
$UCSORGFRONT
 10
0.0
 20
0.0
 30
0.0
  9
$UCSORGBACK
 10
0.0
 20
0.0
 30
0.0
  9
$PUCSBASE
  2

  9
$PUCSNAME
  2

  9
$PUCSORG
 10
0.0
 20
0.0
 30
0.0
  9
$PUCSXDIR
 10
1.0
 20
0.0
 30
0.0
  9
$PUCSYDIR
 10
0.0
 20
1.0
 30
0.0
  9
$PUCSORTHOREF
  2

  9
$PUCSORTHOVIEW
 70
     0
  9
$PUCSORGTOP
 10
0.0
 20
0.0
 30
0.0
  9
$PUCSORGBOTTOM
 10
0.0
 20
0.0
 30
0.0
  9
$PUCSORGLEFT
 10
0.0
 20
0.0
 30
0.0
  9
$PUCSORGRIGHT
 10
0.0
 20
0.0
 30
0.0
  9
$PUCSORGFRONT
 10
0.0
 20
0.0
 30
0.0
  9
$PUCSORGBACK
 10
0.0
 20
0.0
 30
0.0
  9
$USERI1
 70
     0
  9
$USERI2
 70
     0
  9
$USERI3
 70
     0
  9
$USERI4
 70
     0
  9
$USERI5
 70
     0
  9
$USERR1
 40
0.0
  9
$USERR2
 40
0.0
  9
$USERR3
 40
0.0
  9
$USERR4
 40
0.0
  9
$USERR5
 40
0.0
  9
$WORLDVIEW
 70
     1
  9
$SHADEDGE
 70
     3
  9
$SHADEDIF
 70
    70
  9
$TILEMODE
 70
     1
  9
$MAXACTVP
 70
    64
  9
$PINSBASE
 10
0.0
 20
0.0
 30
0.0
  9
$PLIMCHECK
 70
     0
  9
$PEXTMIN
 10
1.0000000000E+20
 20
1.0000000000E+20
 30
1.0000000000E+20
  9
$PEXTMAX
 10
-1.0000000000E+20
 20
-1.0000000000E+20
 30
-1.0000000000E+20
  9
$PLIMMIN
 10
0.0
 20
0.0
  9
$PLIMMAX
 10
12.0
 20
9.0
  9
$UNITMODE
 70
     0
  9
$VISRETAIN
 70
     1
  9
$PLINEGEN
 70
     0
  9
$PSLTSCALE
 70
     1
  9
$TREEDEPTH
 70
  3020
  9
$CMLSTYLE
  2
Standard
  9
$CMLJUST
 70
     0
  9
$CMLSCALE
 40
1.0
  9
$PROXYGRAPHICS
 70
     1
  9
$MEASUREMENT
 70
     0
  9
$CELWEIGHT
370
    -1
  9
$ENDCAPS
280
     0
  9
$JOINSTYLE
280
     0
  9
$LWDISPLAY
290
     1
  9
$INSUNITS
 70
     1
  9
$HYPERLINKBASE
  1

  9
$STYLESHEET
  1

  9
$XEDIT
290
     1
  9
$CEPSNTYPE
380
     0
  9
$PSTYLEMODE
290
     1
  9
$FINGERPRINTGUID
  2
{baadc51e-088a-49a5-a7fa-4b1a552d177e}
  9
$VERSIONGUID
  2
{FAEB1C32-E019-11D5-929B-00C0DF256EC4}
  9
$EXTNAMES
290
     1
  9
$PSVPSCALE
 40
0.0
  9
$OLESTARTUP
290
     0
  0
ENDSEC
  0
SECTION
  2
CLASSES
  0
CLASS
  1
ACDBDICTIONARYWDFLT
  2
AcDbDictionaryWithDefault
  3
ObjectDBX Classes
 90
        0
280
     0
281
     0
  0
CLASS
  1
VISUALSTYLE
  2
AcDbVisualStyle
  3
ObjectDBX Classes
 90
     4095
280
     0
281
     0
  0
CLASS
  1
MATERIAL
  2
AcDbMaterial
  3
ObjectDBX Classes
 90
     1153
280
     0
281
     0
  0
CLASS
  1
SCALE
  2
AcDbScale
  3
ObjectDBX Classes
 90
     1153
280
     0
281
     0
  0
CLASS
  1
TABLESTYLE
  2
AcDbTableStyle
  3
ObjectDBX Classes
 90
     4095
280
     0
281
     0
  0
CLASS
  1
MLEADERSTYLE
  2
AcDbMLeaderStyle
  3
ACDB_MLEADERSTYLE_CLASS
 90
     4095
280
     0
281
     0
  0
CLASS
  1
SUN
  2
AcDbSun
  3
SCENEOE
 90
     1153
280
     0
281
     0
  0
CLASS
  1
ACDBPLACEHOLDER
  2
AcDbPlaceHolder
  3
ObjectDBX Classes
 90
        0
280
     0
281
     0
  0
CLASS
  1
LAYOUT
  2
AcDbLayout
  3
ObjectDBX Classes
 90
        0
280
     0
281
     0
  0
ENDSEC
  0
SECTION
  2
TABLES
  0
TABLE
  2
VPORT
  5
8
330
0
100
AcDbSymbolTable
 70
     1
  0
VPORT
  5
29
330
8
100
AcDbSymbolTableRecord
100
AcDbViewportTableRecord
  2
*Active
 70
     0
 10
0.0
 20
0.0
 11
1.0
 21
1.0
 12
11.0
 22
8.5
 13
0.0
 23
0.0
 14
0.5
 24
0.5
 15
0.5
 25
0.5
 16
0.0
 26
0.0
 36
1.0
 17
0.0
 27
0.0
 37
0.0
 40
17.0
 41
1.2941176471
 42
50.0
 43
0.0
 44
0.0
 50
0.0
 51
0.0
 71
     0
 72
  2000
 73
     1
 74
     3
 75
     0
 76
     0
 77
     0
 78
     0
281
     0
 65
     1
110
0.0
120
0.0
130
0.0
111
1.0
121
0.0
131
0.0
112
0.0
122
1.0
132
0.0
 79
     0
146
0.0
  0
ENDTAB
  0
TABLE
  2
LTYPE
  5
5
330
0
100
AcDbSymbolTable
 70
     6
  0
LTYPE
  5
14
330
5
100
AcDbSymbolTableRecord
100
AcDbLinetypeTableRecord
  2
ByBlock
 70
     0
  3

 72
    65
 73
     0
 40
0.0
  0
LTYPE
  5
15
330
5
100
AcDbSymbolTableRecord
100
AcDbLinetypeTableRecord
  2
ByLayer
 70
     0
  3

 72
    65
 73
     0
 40
0.0
  0
LTYPE
  5
16
330
5
100
AcDbSymbolTableRecord
100
AcDbLinetypeTableRecord
  2
Continuous
 70
     0
  3
Solid line
 72
    65
 73
     0
 40
0.0
  0
LTYPE
  5
5E
330
5
100
AcDbSymbolTableRecord
100
AcDbLinetypeTableRecord
  2
HIDDEN
 70
     0
  3
Hidden __ __ __ __ __ __ __ __ __ __ __ __ __ __
 72
    65
 73
     2
 40
0.075
 49
0.05
 74
     0
 49
-0.025
 74
     0
  0
LTYPE
  5
5F
330
5
100
AcDbSymbolTableRecord
100
AcDbLinetypeTableRecord
  2
PHANTOM
 70
     0
  3
Phantom ______  __  __  ______  __  __  ______
 72
    65
 73
     6
 40
0.5
 49
0.25
 74
     0
 49
-0.05
 74
     0
 49
0.05
 74
     0
 49
-0.05
 74
     0
 49
0.05
 74
     0
 49
-0.05
 74
     0
  0
LTYPE
  5
60
330
5
100
AcDbSymbolTableRecord
100
AcDbLinetypeTableRecord
  2
CENTER
 70
     0
  3
Center ____ _ ____ _ ____ _ ____ _ ____ _ ____
 72
    65
 73
     4
 40
0.4
 49
0.25
 74
     0
 49
-0.05
 74
     0
 49
0.05
 74
     0
 49
-0.05
 74
     0
  0
LTYPE
  5
61
330
5
100
AcDbSymbolTableRecord
100
AcDbLinetypeTableRecord
  2
CENTERX2
 70
     0
  3
Center (2x) ________  __  ________  __  _____
 72
    65
 73
     4
 40
0.8
 49
0.5
 74
     0
 49
-0.1
 74
     0
 49
0.1
 74
     0
 49
-0.1
 74
     0
  0
LTYPE
  5
62
330
5
100
AcDbSymbolTableRecord
100
AcDbLinetypeTableRecord
  2
DOT2
 70
     0
  3
Dot (.5x) ........................................
 72
    65
 73
     2
 40
0.025
 49
0.0
 74
     0
 49
-0.025
 74
     0
  0
ENDTAB
  0
TABLE
  2
LAYER
  5
2
330
0
100
AcDbSymbolTable
 70
    11
  0
LAYER
  5
10
330
2
100
AcDbSymbolTableRecord
100
AcDbLayerTableRecord
  2
0
 70
     0
 62
     7
  6
Continuous
370
    -3
390
F
  0
LAYER
  5
63
330
2
100
AcDbSymbolTableRecord
100
AcDbLayerTableRecord
  2
SLD-0
 70
     0
 62
     7
  6
Continuous
370
    -3
390
F
  0
LAYER
  5
64
330
2
100
AcDbSymbolTableRecord
100
AcDbLayerTableRecord
  2
DIM
 70
     0
 62
     7
  6
Continuous
370
    -3
390
F
  0
LAYER
  5
65
330
2
100
AcDbSymbolTableRecord
100
AcDbLayerTableRecord
  2
CEN
 70
     0
 62
     1
  6
CENTER
370
    -3
390
F
  0
LAYER
  5
66
330
2
100
AcDbSymbolTableRecord
100
AcDbLayerTableRecord
  2
HAT
 70
     0
 62
     4
  6
Continuous
370
    -3
390
F
  0
LAYER
  5
67
330
2
100
AcDbSymbolTableRecord
100
AcDbLayerTableRecord
  2
OBJ
 70
     0
 62
     5
  6
Continuous
370
    -3
390
F
  0
LAYER
  5
68
330
2
100
AcDbSymbolTableRecord
100
AcDbLayerTableRecord
  2
SLD-DEFPOINTS
 70
     0
 62
     7
  6
Continuous
370
    -3
390
F
  0
LAYER
  5
69
330
2
100
AcDbSymbolTableRecord
100
AcDbLayerTableRecord
  2
HID
 70
     0
 62
     4
  6
HIDDEN
370
    -3
390
F
  0
LAYER
  5
6A
330
2
100
AcDbSymbolTableRecord
100
AcDbLayerTableRecord
  2
NOTE
 70
     0
 62
     7
  6
Continuous
370
    -3
390
F
  0
LAYER
  5
6B
330
2
100
AcDbSymbolTableRecord
100
AcDbLayerTableRecord
  2
TITLE
 70
     0
 62
     7
  6
Continuous
370
    -3
390
F
  0
LAYER
  5
6C
330
2
100
AcDbSymbolTableRecord
100
AcDbLayerTableRecord
  2
THICK_TITLE
 70
     0
 62
     7
  6
Continuous
370
   100
390
F
  0
ENDTAB
  0
TABLE
  2
STYLE
  5
3
330
0
100
AcDbSymbolTable
 70
     2
  0
STYLE
  5
11
330
3
100
AcDbSymbolTableRecord
100
AcDbTextStyleTableRecord
  2
Standard
 70
     0
 40
0.0
 41
1.0
 50
0.0
 71
     0
 42
0.25
  3
txt
  4

  0
STYLE
  5
6D
330
3
100
AcDbSymbolTableRecord
100
AcDbTextStyleTableRecord
  2
SLDTEXTSTYLE0
 70
     0
 40
0.0
 41
0.75
 50
0.0
 71
     0
 42
0.25
  3
TXT
  4

  0
ENDTAB
  0
TABLE
  2
VIEW
  5
6
330
0
100
AcDbSymbolTable
 70
     0
  0
ENDTAB
  0
TABLE
  2
UCS
  5
7
330
0
100
AcDbSymbolTable
 70
     0
  0
ENDTAB
  0
TABLE
  2
APPID
  5
9
330
0
100
AcDbSymbolTable
 70
     1
  0
APPID
  5
12
330
9
100
AcDbSymbolTableRecord
100
AcDbRegAppTableRecord
  2
ACAD
 70
     0
  0
ENDTAB
  0
TABLE
  2
DIMSTYLE
  5
A
330
0
100
AcDbSymbolTable
 70
     5
100
AcDbDimStyleTable
  0
DIMSTYLE
105
27
330
A
100
AcDbSymbolTableRecord
100
AcDbDimStyleTableRecord
  2
Standard
 70
     0
178
     0
340
11
  0
DIMSTYLE
105
77
102
{ACAD_REACTORS
330
76
102
}
330
A
100
AcDbSymbolTableRecord
100
AcDbDimStyleTableRecord
  2
SLDDIMSTYLE0
 70
     0
 41
0.26
 44
0.0
 45
0.000000001
 78
    12
 79
     3
140
0.25
147
0.0625
148
0.000000001
170
     1
172
     1
173
     1
178
     0
271
     6
272
     0
276
     2
277
     5
284
    12
289
     0
340
6D
  0
DIMSTYLE
105
91
102
{ACAD_REACTORS
330
90
330
A5
102
}
330
A
100
AcDbSymbolTableRecord
100
AcDbDimStyleTableRecord
  2
SLDDIMSTYLE1
 70
     0
 41
0.26
 44
0.0
 45
0.000000001
 78
    12
 79
     3
140
0.25
147
0.0625
148
0.000000001
170
     1
173
     1
178
     0
271
     6
272
     0
276
     2
277
     5
284
    12
340
6D
  0
DIMSTYLE
105
B9
102
{ACAD_REACTORS
330
B8
102
}
330
A
100
AcDbSymbolTableRecord
100
AcDbDimStyleTableRecord
  2
SLDDIMSTYLE2
 70
     0
 41
0.26
 44
0.0
 45
0.000000001
 78
    12
 79
     3
140
0.25
141
0.0
147
0.0625
148
0.000000001
170
     1
173
     1
178
     0
271
     0
272
     0
276
     2
277
     5
284
    12
340
6D
  0
DIMSTYLE
105
CE
330
A
100
AcDbSymbolTableRecord
100
AcDbDimStyleTableRecord
  2
SLDDIMSTYLE3
 70
     0
 41
0.26
 44
0.0
 45
0.000000001
146
0.26
147
0.0
173
     1
178
     0
271
     0
272
     0
276
     2
277
     5
340
11
  0
ENDTAB
  0
TABLE
  2
BLOCK_RECORD
  5
1
330
0
100
AcDbSymbolTable
 70
     7
  0
BLOCK_RECORD
  5
1F
330
1
100
AcDbSymbolTableRecord
100
AcDbBlockTableRecord
  2
*Model_Space
340
22
  0
BLOCK_RECORD
  5
1B
330
1
100
AcDbSymbolTableRecord
100
AcDbBlockTableRecord
  2
*Paper_Space
340
1E
  0
BLOCK_RECORD
  5
23
330
1
100
AcDbSymbolTableRecord
100
AcDbBlockTableRecord
  2
*Paper_Space0
340
26
  0
BLOCK_RECORD
  5
78
330
1
100
AcDbSymbolTableRecord
100
AcDbBlockTableRecord
  2
_D
340
0
  0
BLOCK_RECORD
  5
92
330
1
100
AcDbSymbolTableRecord
100
AcDbBlockTableRecord
  2
_D_1
340
0
  0
BLOCK_RECORD
  5
A6
330
1
100
AcDbSymbolTableRecord
100
AcDbBlockTableRecord
  2
_D_2
340
0
  0
BLOCK_RECORD
  5
BA
330
1
100
AcDbSymbolTableRecord
100
AcDbBlockTableRecord
  2
_D_3
340
0
  0
BLOCK_RECORD
  5
D0
330
1
100
AcDbSymbolTableRecord
100
AcDbBlockTableRecord
  2
SW_CENTERMARKSYMBOL_0
340
0
102
{BLKREFS
331
DB
102
}
  0
BLOCK_RECORD
  5
DC
330
1
100
AcDbSymbolTableRecord
100
AcDbBlockTableRecord
  2
SW_CENTERMARKSYMBOL_1
340
0
102
{BLKREFS
331
E7
102
}
  0
ENDTAB
  0
ENDSEC
  0
SECTION
  2
BLOCKS
  0
BLOCK
  5
20
330
1F
100
AcDbEntity
  8
0
100
AcDbBlockBegin
  2
*Model_Space
 70
     0
 10
0.0
 20
0.0
 30
0.0
  3
*Model_Space
  1

  0
ENDBLK
  5
21
330
1F
100
AcDbEntity
  8
0
100
AcDbBlockEnd
  0
BLOCK
  5
1C
330
1B
100
AcDbEntity
 67
     1
  8
0
100
AcDbBlockBegin
  2
*Paper_Space
 70
     0
 10
0.0
 20
0.0
 30
0.0
  3
*Paper_Space
  1

  0
ENDBLK
  5
1D
330
1B
100
AcDbEntity
 67
     1
  8
0
100
AcDbBlockEnd
  0
BLOCK
  5
24
330
23
100
AcDbEntity
  8
0
100
AcDbBlockBegin
  2
*Paper_Space0
 70
     0
 10
0.0
 20
0.0
 30
0.0
  3
*Paper_Space0
  1

  0
ENDBLK
  5
25
330
23
100
AcDbEntity
  8
0
100
AcDbBlockEnd
  0
BLOCK
  5
79
330
78
100
AcDbEntity
  8
0
100
AcDbBlockBegin
  2
_D
 70
     0
 10
0.0
 20
0.0
 30
0.0
  3
_D
  1

  0
SOLID
  5
7B
330
78
100
AcDbEntity
  8
SLD-0
100
AcDbTrace
 10
5.0308966979
 20
9.5153291859
 30
0.0
 11
4.7708966979
 21
9.5553291859
 31
0.0
 12
4.7708966979
 22
9.4753291859
 32
0.0
 13
4.7708966979
 23
9.4753291859
 33
0.0
  0
SOLID
  5
7C
330
78
100
AcDbEntity
  8
SLD-0
100
AcDbTrace
 10
5.4058966979
 20
9.5153291859
 30
0.0
 11
5.6658966979
 21
9.4753291859
 31
0.0
 12
5.6658966979
 22
9.5553291859
 32
0.0
 13
5.6658966979
 23
9.5553291859
 33
0.0
  0
LINE
  5
7D
330
78
100
AcDbEntity
  8
SLD-0
100
AcDbLine
 10
3.291747446
 20
9.5134194246
 30
0.0
 11
3.2155755718
 21
9.5134194246
 31
0.0
  0
LINE
  5
7E
330
78
100
AcDbEntity
  8
SLD-0
100
AcDbLine
 10
3.2155755718
 20
9.5134194246
 30
0.0
 11
3.2155755718
 21
9.1165444127
 31
0.0
  0
LINE
  5
7F
330
78
100
AcDbEntity
  8
SLD-0
100
AcDbLine
 10
3.2155755718
 20
9.1165444127
 30
0.0
 11
3.291747446
 21
9.1165444127
 31
0.0
  0
LINE
  5
80
330
78
100
AcDbEntity
  8
SLD-0
100
AcDbLine
 10
4.2861919114
 20
9.5134194246
 30
0.0
 11
4.3623637856
 21
9.5134194246
 31
0.0
  0
LINE
  5
81
330
78
100
AcDbEntity
  8
SLD-0
100
AcDbLine
 10
4.3623637856
 20
9.5134194246
 30
0.0
 11
4.3623637856
 21
9.1165444127
 31
0.0
  0
LINE
  5
82
330
78
100
AcDbEntity
  8
SLD-0
100
AcDbLine
 10
4.3623637856
 20
9.1165444127
 30
0.0
 11
4.2861919114
 21
9.1165444127
 31
0.0
  0
LINE
  5
83
330
78
100
AcDbEntity
  8
SLD-0
100
AcDbLine
 10
5.0308966979
 20
8.8279276111
 30
0.0
 11
5.0308966979
 21
9.7653291859
 31
0.0
  0
LINE
  5
84
330
78
100
AcDbEntity
  8
SLD-0
100
AcDbLine
 10
5.4058966979
 20
8.7779276111
 30
0.0
 11
5.4058966979
 21
9.7653291859
 31
0.0
  0
LINE
  5
85
330
78
100
AcDbEntity
  8
SLD-0
100
AcDbLine
 10
5.0308966979
 20
9.5153291859
 30
0.0
 11
4.5815911194
 21
9.5153291859
 31
0.0
  0
LINE
  5
86
330
78
100
AcDbEntity
  8
SLD-0
100
AcDbLine
 10
5.4058966979
 20
9.5153291859
 30
0.0
 11
5.9058966979
 21
9.5153291859
 31
0.0
  0
MTEXT
  5
87
330
78
100
AcDbEntity
  8
SLD-0
100
AcDbMText
 10
3.1407925862
 20
9.8902870796
 30
0.0
 40
0.25
 41
0.0
 71
     1
 72
     1
  1

  7
SLDTEXTSTYLE0
 73
     1
 44
1.0
  0
MTEXT
  5
88
330
78
100
AcDbEntity
  8
SLD-0
100
AcDbMText
 10
3.4797682556
 20
9.8864676167
 30
0.0
 40
0.25
 41
0.0
 71
     1
 72
     1
  1
3/8"
  7
SLDTEXTSTYLE0
 73
     1
 44
1.0
  0
MTEXT
  5
89
330
78
100
AcDbEntity
  8
SLD-0
100
AcDbMText
 10
3.291747446
 20
9.4388113751
 30
0.0
 40
0.25
 41
0.0
 71
     1
 72
     1
  1
10mm
  7
SLDTEXTSTYLE0
 73
     1
 44
1.0
  0
MTEXT
  5
8A
330
78
100
AcDbEntity
  8
SLD-0
100
AcDbMText
 10
4.5322856049
 20
9.8902870796
 30
0.0
 40
0.25
 41
0.0
 71
     1
 72
     1
  1

  7
SLDTEXTSTYLE0
 73
     1
 44
1.0
  0
ENDBLK
  5
7A
330
78
100
AcDbEntity
  8
0
100
AcDbBlockEnd
  0
BLOCK
  5
93
330
92
100
AcDbEntity
  8
0
100
AcDbBlockBegin
  2
_D_1
 70
     0
 10
0.0
 20
0.0
 30
0.0
  3
_D_1
  1

  0
SOLID
  5
95
330
92
100
AcDbEntity
  8
SLD-0
100
AcDbTrace
 10
8.9616846684
 20
9.5153291859
 30
0.0
 11
9.2216846684
 21
9.4753291859
 31
0.0
 12
9.2216846684
 22
9.5553291859
 32
0.0
 13
9.2216846684
 23
9.5553291859
 33
0.0
  0
SOLID
  5
96
330
92
100
AcDbEntity
  8
SLD-0
100
AcDbTrace
 10
11.7116846684
 20
9.5153291859
 30
0.0
 11
11.4516846684
 21
9.5553291859
 31
0.0
 12
11.4516846684
 22
9.4753291859
 32
0.0
 13
11.4516846684
 23
9.4753291859
 33
0.0
  0
LINE
  5
97
330
92
100
AcDbEntity
  8
SLD-0
100
AcDbLine
 10
9.8394624724
 20
9.5134194246
 30
0.0
 11
9.7632905982
 21
9.5134194246
 31
0.0
  0
LINE
  5
98
330
92
100
AcDbEntity
  8
SLD-0
100
AcDbLine
 10
9.7632905982
 20
9.5134194246
 30
0.0
 11
9.7632905982
 21
9.1165444127
 31
0.0
  0
LINE
  5
99
330
92
100
AcDbEntity
  8
SLD-0
100
AcDbLine
 10
9.7632905982
 20
9.1165444127
 30
0.0
 11
9.8394624724
 21
9.1165444127
 31
0.0
  0
LINE
  5
9A
330
92
100
AcDbEntity
  8
SLD-0
100
AcDbLine
 10
10.8339069378
 20
9.5134194246
 30
0.0
 11
10.910078812
 21
9.5134194246
 31
0.0
  0
LINE
  5
9B
330
92
100
AcDbEntity
  8
SLD-0
100
AcDbLine
 10
10.910078812
 20
9.5134194246
 30
0.0
 11
10.910078812
 21
9.1165444127
 31
0.0
  0
LINE
  5
9C
330
92
100
AcDbEntity
  8
SLD-0
100
AcDbLine
 10
10.910078812
 20
9.1165444127
 30
0.0
 11
10.8339069378
 21
9.1165444127
 31
0.0
  0
LINE
  5
9D
330
92
100
AcDbEntity
  8
SLD-0
100
AcDbLine
 10
8.9616846684
 20
7.2794276111
 30
0.0
 11
8.9616846684
 21
9.7653291859
 31
0.0
  0
LINE
  5
9E
330
92
100
AcDbEntity
  8
SLD-0
100
AcDbLine
 10
11.7116846684
 20
7.2794276111
 30
0.0
 11
11.7116846684
 21
9.7653291859
 31
0.0
  0
LINE
  5
9F
330
92
100
AcDbEntity
  8
SLD-0
100
AcDbLine
 10
8.9616846684
 20
9.5153291859
 30
0.0
 11
9.5440631911
 21
9.5153291859
 31
0.0
  0
LINE
  5
A0
330
92
100
AcDbEntity
  8
SLD-0
100
AcDbLine
 10
11.7116846684
 20
9.5153291859
 30
0.0
 11
11.1293061458
 21
9.5153291859
 31
0.0
  0
MTEXT
  5
A1
330
92
100
AcDbEntity
  8
SLD-0
100
AcDbMText
 10
9.6885076126
 20
9.8902870796
 30
0.0
 40
0.25
 41
0.0
 71
     1
 72
     1
  1

  7
SLDTEXTSTYLE0
 73
     1
 44
1.0
  0
MTEXT
  5
A2
330
92
100
AcDbEntity
  8
SLD-0
100
AcDbMText
 10
9.8889416425
 20
9.8864676167
 30
0.0
 40
0.25
 41
0.0
 71
     1
 72
     1
  1
2 3/4"
  7
SLDTEXTSTYLE0
 73
     1
 44
1.0
  0
MTEXT
  5
A3
330
92
100
AcDbEntity
  8
SLD-0
100
AcDbMText
 10
9.8394624724
 20
9.4388113751
 30
0.0
 40
0.25
 41
0.0
 71
     1
 72
     1
  1
70mm
  7
SLDTEXTSTYLE0
 73
     1
 44
1.0
  0
MTEXT
  5
A4
330
92
100
AcDbEntity
  8
SLD-0
100
AcDbMText
 10
11.0800006313
 20
9.8902870796
 30
0.0
 40
0.25
 41
0.0
 71
     1
 72
     1
  1

  7
SLDTEXTSTYLE0
 73
     1
 44
1.0
  0
ENDBLK
  5
94
330
92
100
AcDbEntity
  8
0
100
AcDbBlockEnd
  0
BLOCK
  5
A7
330
A6
100
AcDbEntity
  8
0
100
AcDbBlockBegin
  2
_D_2
 70
     0
 10
0.0
 20
0.0
 30
0.0
  3
_D_2
  1

  0
SOLID
  5
A9
330
A6
100
AcDbEntity
  8
SLD-0
100
AcDbTrace
 10
8.5866846684
 20
10.4602110756
 30
0.0
 11
8.8466846684
 21
10.4202110756
 31
0.0
 12
8.8466846684
 22
10.5002110756
 32
0.0
 13
8.8466846684
 23
10.5002110756
 33
0.0
  0
SOLID
  5
AA
330
A6
100
AcDbEntity
  8
SLD-0
100
AcDbTrace
 10
12.0866846684
 20
10.4602110756
 30
0.0
 11
11.8266846684
 21
10.5002110756
 31
0.0
 12
11.8266846684
 22
10.4202110756
 32
0.0
 13
11.8266846684
 23
10.4202110756
 33
0.0
  0
LINE
  5
AB
330
A6
100
AcDbEntity
  8
SLD-0
100
AcDbLine
 10
9.8394624541
 20
10.460211039
 30
0.0
 11
9.7632905798
 21
10.460211039
 31
0.0
  0
LINE
  5
AC
330
A6
100
AcDbEntity
  8
SLD-0
100
AcDbLine
 10
9.7632905798
 20
10.460211039
 30
0.0
 11
9.7632905798
 21
10.063336027
 31
0.0
  0
LINE
  5
AD
330
A6
100
AcDbEntity
  8
SLD-0
100
AcDbLine
 10
9.7632905798
 20
10.063336027
 30
0.0
 11
9.8394624541
 21
10.063336027
 31
0.0
  0
LINE
  5
AE
330
A6
100
AcDbEntity
  8
SLD-0
100
AcDbLine
 10
10.8339069195
 20
10.460211039
 30
0.0
 11
10.9100787937
 21
10.460211039
 31
0.0
  0
LINE
  5
AF
330
A6
100
AcDbEntity
  8
SLD-0
100
AcDbLine
 10
10.9100787937
 20
10.460211039
 30
0.0
 11
10.9100787937
 21
10.063336027
 31
0.0
  0
LINE
  5
B0
330
A6
100
AcDbEntity
  8
SLD-0
100
AcDbLine
 10
10.9100787937
 20
10.063336027
 30
0.0
 11
10.8339069195
 21
10.063336027
 31
0.0
  0
LINE
  5
B1
330
A6
100
AcDbEntity
  8
SLD-0
100
AcDbLine
 10
8.5866846684
 20
7.0779276111
 30
0.0
 11
8.5866846684
 21
10.7102110756
 31
0.0
  0
LINE
  5
B2
330
A6
100
AcDbEntity
  8
SLD-0
100
AcDbLine
 10
12.0866846684
 20
7.0779276111
 30
0.0
 11
12.0866846684
 21
10.7102110756
 31
0.0
  0
LINE
  5
B3
330
A6
100
AcDbEntity
  8
SLD-0
100
AcDbLine
 10
8.5866846684
 20
10.4602110756
 30
0.0
 11
9.6364242841
 21
10.4602110756
 31
0.0
  0
LINE
  5
B4
330
A6
100
AcDbEntity
  8
SLD-0
100
AcDbLine
 10
12.0866846684
 20
10.4602110756
 30
0.0
 11
11.0369450527
 21
10.4602110756
 31
0.0
  0
MTEXT
  5
B5
330
A6
100
AcDbEntity
  8
SLD-0
100
AcDbMText
 10
9.7004259852
 20
10.8332592494
 30
0.0
 40
0.25
 41
0.0
 71
     1
 72
     1
  1
%%c
  7
SLDTEXTSTYLE0
 73
     1
 44
1.0
  0
MTEXT
  5
B6
330
A6
100
AcDbEntity
  8
SLD-0
100
AcDbMText
 10
10.0774572264
 20
10.8332592494
 30
0.0
 40
0.25
 41
0.0
 71
     1
 72
     1
  1
3 1/2"
  7
SLDTEXTSTYLE0
 73
     1
 44
1.0
  0
MTEXT
  5
B7
330
A6
100
AcDbEntity
  8
SLD-0
100
AcDbMText
 10
9.8394624541
 20
10.3856029895
 30
0.0
 40
0.25
 41
0.0
 71
     1
 72
     1
  1
89mm
  7
SLDTEXTSTYLE0
 73
     1
 44
1.0
  0
ENDBLK
  5
A8
330
A6
100
AcDbEntity
  8
0
100
AcDbBlockEnd
  0
BLOCK
  5
BB
330
BA
100
AcDbEntity
  8
0
100
AcDbBlockBegin
  2
_D_3
 70
     0
 10
0.0
 20
0.0
 30
0.0
  3
_D_3
  1

  0
SOLID
  5
BD
330
BA
100
AcDbEntity
  8
SLD-0
100
AcDbTrace
 10
10.5592417799
 20
6.6288368892
 30
0.0
 11
10.6652833744
 21
6.3880980675
 31
0.0
 12
10.7327405188
 22
6.4311042727
 32
0.0
 13
10.7327405188
 23
6.4311042727
 33
0.0
  0
LINE
  5
BE
330
BA
100
AcDbEntity
  8
SLD-0
100
AcDbLine
 10
14.4589892163
 20
4.322106139
 30
0.0
 11
14.3828173421
 21
4.322106139
 31
0.0
  0
LINE
  5
BF
330
BA
100
AcDbEntity
  8
SLD-0
100
AcDbLine
 10
14.3828173421
 20
4.322106139
 30
0.0
 11
14.3828173421
 21
3.9252311271
 31
0.0
  0
LINE
  5
C0
330
BA
100
AcDbEntity
  8
SLD-0
100
AcDbLine
 10
14.3828173421
 20
3.9252311271
 30
0.0
 11
14.4589892163
 21
3.9252311271
 31
0.0
  0
LINE
  5
C1
330
BA
100
AcDbEntity
  8
SLD-0
100
AcDbLine
 10
15.4534336818
 20
4.322106139
 30
0.0
 11
15.529605556
 21
4.322106139
 31
0.0
  0
LINE
  5
C2
330
BA
100
AcDbEntity
  8
SLD-0
100
AcDbLine
 10
15.529605556
 20
4.322106139
 30
0.0
 11
15.529605556
 21
3.9252311271
 31
0.0
  0
LINE
  5
C3
330
BA
100
AcDbEntity
  8
SLD-0
100
AcDbLine
 10
15.529605556
 20
3.9252311271
 30
0.0
 11
15.4534336818
 21
3.9252311271
 31
0.0
  0
LINE
  5
C4
330
BA
100
AcDbEntity
  8
SLD-0
100
AcDbLine
 10
10.5592417799
 20
6.6288368892
 30
0.0
 11
12.4417670084
 21
3.6760123915
 31
0.0
  0
LINE
  5
C5
330
BA
100
AcDbEntity
  8
SLD-0
100
AcDbLine
 10
12.4417670084
 20
3.6760123915
 30
0.0
 11
13.1706470844
 21
3.6760123915
 31
0.0
  0
MTEXT
  5
C6
330
BA
100
AcDbEntity
  8
SLD-0
100
AcDbMText
 10
12.9417670084
 20
4.2436786449
 30
0.0
 40
0.25
 41
0.0
 71
     1
 72
     1
  1
%%c
  7
SLDTEXTSTYLE0
 73
     1
 44
1.0
  0
MTEXT
  5
C7
330
BA
100
AcDbEntity
  8
SLD-0
100
AcDbMText
 10
13.3187982496
 20
4.2474980895
 30
0.0
 40
0.25
 41
0.0
 71
     1
 72
     1
  1
13/16"
  7
SLDTEXTSTYLE0
 73
     1
 44
1.0
  0
MTEXT
  5
C8
330
BA
100
AcDbEntity
  8
SLD-0
100
AcDbMText
 10
14.4589892163
 20
4.2474980895
 30
0.0
 40
0.25
 41
0.0
 71
     1
 72
     1
  1
21mm
  7
SLDTEXTSTYLE0
 73
     1
 44
1.0
  0
MTEXT
  5
C9
330
BA
100
AcDbEntity
  8
SLD-0
100
AcDbMText
 10
15.6995275402
 20
4.2474980895
 30
0.0
 40
0.25
 41
0.0
 71
     1
 72
     1
  1
THRU
  7
SLDTEXTSTYLE0
 73
     1
 44
1.0
  0
MTEXT
  5
CA
330
BA
100
AcDbEntity
  8
SLD-0
100
AcDbMText
 10
13.1706470844
 20
3.7998418342
 30
0.0
 40
0.25
 41
0.0
 71
     1
 72
     1
  1
FIXTURE MOUNTING
  7
SLDTEXTSTYLE0
 73
     1
 44
1.0
  0
MTEXT
  5
CB
330
BA
100
AcDbEntity
  8
SLD-0
100
AcDbMText
 10
14.2902650804
 20
3.4029668223
 30
0.0
 40
0.25
 41
0.0
 71
     1
 72
     1
  1
HOLE
  7
SLDTEXTSTYLE0
 73
     1
 44
1.0
  0
ENDBLK
  5
BC
330
BA
100
AcDbEntity
  8
0
100
AcDbBlockEnd
  0
BLOCK
  5
D1
330
D0
100
AcDbEntity
  8
0
100
AcDbBlockBegin
  2
SW_CENTERMARKSYMBOL_0
 70
     0
 10
0.0
 20
0.0
 30
0.0
  3
SW_CENTERMARKSYMBOL_0
  1

  0
LINE
  5
D3
330
D0
100
AcDbEntity
  8
SLD-0
 62
     0
100
AcDbLine
 10
0.0
 20
0.0
 30
0.0
 11
0.0
 21
0.1
 31
0.0
  0
LINE
  5
D4
330
D0
100
AcDbEntity
  8
SLD-0
 62
     0
100
AcDbLine
 10
0.0
 20
0.0
 30
0.0
 11
-0.1
 21
0.0
 31
0.0
  0
LINE
  5
D5
330
D0
100
AcDbEntity
  8
SLD-0
 62
     0
100
AcDbLine
 10
0.0
 20
0.0
 30
0.0
 11
0.0
 21
-0.1
 31
0.0
  0
LINE
  5
D6
330
D0
100
AcDbEntity
  8
SLD-0
 62
     0
100
AcDbLine
 10
0.0
 20
0.0
 30
0.0
 11
0.1
 21
0.0
 31
0.0
  0
LINE
  5
D7
330
D0
100
AcDbEntity
  8
SLD-0
 62
     0
100
AcDbLine
 10
0.0
 20
0.2
 30
0.0
 11
0.0
 21
0.2015
 31
0.0
  0
LINE
  5
D8
330
D0
100
AcDbEntity
  8
SLD-0
 62
     0
100
AcDbLine
 10
-0.2
 20
0.0
 30
0.0
 11
-0.2015
 21
0.0
 31
0.0
  0
LINE
  5
D9
330
D0
100
AcDbEntity
  8
SLD-0
 62
     0
100
AcDbLine
 10
0.0
 20
-0.2
 30
0.0
 11
0.0
 21
-0.2015
 31
0.0
  0
LINE
  5
DA
330
D0
100
AcDbEntity
  8
SLD-0
 62
     0
100
AcDbLine
 10
0.2
 20
0.0
 30
0.0
 11
1.6575093541
 21
0.0
 31
0.0
  0
ENDBLK
  5
D2
330
D0
100
AcDbEntity
  8
0
100
AcDbBlockEnd
  0
BLOCK
  5
DD
330
DC
100
AcDbEntity
  8
0
100
AcDbBlockBegin
  2
SW_CENTERMARKSYMBOL_1
 70
     0
 10
0.0
 20
0.0
 30
0.0
  3
SW_CENTERMARKSYMBOL_1
  1

  0
LINE
  5
DF
330
DC
100
AcDbEntity
  8
SLD-0
 62
     0
100
AcDbLine
 10
0.0
 20
0.0
 30
0.0
 11
0.0
 21
0.1
 31
0.0
  0
LINE
  5
E0
330
DC
100
AcDbEntity
  8
SLD-0
 62
     0
100
AcDbLine
 10
0.0
 20
0.0
 30
0.0
 11
-0.1
 21
0.0
 31
0.0
  0
LINE
  5
E1
330
DC
100
AcDbEntity
  8
SLD-0
 62
     0
100
AcDbLine
 10
0.0
 20
0.0
 30
0.0
 11
0.0
 21
-0.1
 31
0.0
  0
LINE
  5
E2
330
DC
100
AcDbEntity
  8
SLD-0
 62
     0
100
AcDbLine
 10
0.0
 20
0.0
 30
0.0
 11
0.1
 21
0.0
 31
0.0
  0
LINE
  5
E3
330
DC
100
AcDbEntity
  8
SLD-0
 62
     0
100
AcDbLine
 10
0.0
 20
0.2
 30
0.0
 11
0.0
 21
0.2015
 31
0.0
  0
LINE
  5
E4
330
DC
100
AcDbEntity
  8
SLD-0
 62
     0
100
AcDbLine
 10
-0.2
 20
0.0
 30
0.0
 11
-1.325980285
 21
0.0
 31
0.0
  0
LINE
  5
E5
330
DC
100
AcDbEntity
  8
SLD-0
 62
     0
100
AcDbLine
 10
0.0
 20
-0.2
 30
0.0
 11
0.0
 21
-0.2015
 31
0.0
  0
LINE
  5
E6
330
DC
100
AcDbEntity
  8
SLD-0
 62
     0
100
AcDbLine
 10
0.2
 20
0.0
 30
0.0
 11
0.2015
 21
0.0
 31
0.0
  0
ENDBLK
  5
DE
330
DC
100
AcDbEntity
  8
0
100
AcDbBlockEnd
  0
ENDSEC
  0
SECTION
  2
ENTITIES
  0
MTEXT
  5
6E
330
1F
100
AcDbEntity
  8
SLD-0
100
AcDbMText
 10
17.5084710744
 20
1.6865019925
 30
0.0
 40
0.25
 41
0.0
 71
     1
 72
     1
  1
BC7
  7
SLDTEXTSTYLE0
 73
     1
 44
1.0
  0
LINE
  5
6F
330
1F
100
AcDbEntity
  8
0
  6
Continuous
 62
     7
370
    25
100
AcDbLine
 10
5.0308966979
 20
5.2279276111
 30
0.0
 11
5.3558966979
 21
5.2279276111
 31
0.0
  0
LINE
  5
70
330
1F
100
AcDbEntity
  8
0
  6
Continuous
 62
     7
370
    25
100
AcDbLine
 10
5.3558966979
 20
8.7279276111
 30
0.0
 11
5.0308966979
 21
8.7279276111
 31
0.0
  0
LINE
  5
71
330
1F
100
AcDbEntity
  8
0
  6
Continuous
 62
     7
370
    25
100
AcDbLine
 10
5.3558966979
 20
5.2279276111
 30
0.0
 11
5.4058966979
 21
5.2779276111
 31
0.0
  0
LINE
  5
72
330
1F
100
AcDbEntity
  8
0
  6
Continuous
 62
     7
370
    25
100
AcDbLine
 10
5.4058966979
 20
8.6779276111
 30
0.0
 11
5.3558966979
 21
8.7279276111
 31
0.0
  0
LINE
  5
73
330
1F
100
AcDbEntity
  8
0
  6
Continuous
 62
     7
370
    25
100
AcDbLine
 10
5.0308966979
 20
8.7279276111
 30
0.0
 11
5.0308966979
 21
5.2279276111
 31
0.0
  0
LINE
  5
74
330
1F
100
AcDbEntity
  8
0
  6
Continuous
 62
     7
370
    25
100
AcDbLine
 10
5.3558966979
 20
5.2279276111
 30
0.0
 11
5.3558966979
 21
8.7279276111
 31
0.0
  0
LINE
  5
75
330
1F
100
AcDbEntity
  8
0
  6
Continuous
 62
     7
370
    25
100
AcDbLine
 10
5.4058966979
 20
8.6779276111
 30
0.0
 11
5.4058966979
 21
5.2779276111
 31
0.0
  0
DIMENSION
  5
76
330
1F
100
AcDbEntity
  8
SLD-0
100
AcDbDimension
  2
_D
 10
5.4058966979
 20
9.5153291859
 30
0.0
 11
3.788969642
 21
9.5153291859
 31
0.0
 70
   160
  1
<>
 71
     2
 42
-1.0
  3
SLDDIMSTYLE0
100
AcDbAlignedDimension
 13
5.0308966979
 23
8.7279276111
 33
0.0
 14
5.4058966979
 24
8.6779276111
 34
0.0
100
AcDbRotatedDimension
  0
CIRCLE
  5
8B
330
1F
100
AcDbEntity
  8
0
  6
Continuous
 62
     7
370
    25
100
AcDbCircle
 10
11.7116846684
 20
6.9779276111
 30
0.0
 40
0.1015000000000015
  0
CIRCLE
  5
8C
330
1F
100
AcDbEntity
  8
0
  6
Continuous
 62
     7
370
    25
100
AcDbCircle
 10
8.9616846684
 20
6.9779276111
 30
0.0
 40
0.1014999999999997
  0
CIRCLE
  5
8D
330
1F
100
AcDbEntity
  8
0
  6
Continuous
 62
     7
370
    25
100
AcDbCircle
 10
10.3366846684
 20
6.9779276111
 30
0.0
 40
1.699999999999999
  0
CIRCLE
  5
8E
330
1F
100
AcDbEntity
  8
0
  6
Continuous
 62
     7
370
    25
100
AcDbCircle
 10
10.3366846684
 20
6.9779276111
 30
0.0
 40
0.4139999999999997
  0
CIRCLE
  5
8F
330
1F
100
AcDbEntity
  8
0
  6
Continuous
 62
     7
370
    25
100
AcDbCircle
 10
10.3366846684
 20
6.9779276111
 30
0.0
 40
1.749999999999998
  0
DIMENSION
  5
90
330
1F
100
AcDbEntity
  8
SLD-0
100
AcDbDimension
  2
_D_1
 10
11.7116846684
 20
9.5153291859
 30
0.0
 11
10.3366846684
 21
9.5153291859
 31
0.0
 70
   160
  1
<>
 71
     2
 42
-1.0
  3
SLDDIMSTYLE1
100
AcDbAlignedDimension
 13
8.9616846684
 23
7.1794276111
 33
0.0
 14
11.7116846684
 24
7.1794276111
 34
0.0
100
AcDbRotatedDimension
  0
DIMENSION
  5
A5
330
1F
100
AcDbEntity
  8
SLD-0
100
AcDbDimension
  2
_D_2
 10
12.0866846684
 20
10.4602110756
 30
0.0
 11
10.3366846684
 21
10.4602110756
 31
0.0
 70
   160
  1
%%c<>
 71
     2
 42
-1.0
  3
SLDDIMSTYLE1
100
AcDbAlignedDimension
 13
8.5866846684
 23
6.9779276111
 33
0.0
 14
12.0866846684
 24
6.9779276111
 34
0.0
100
AcDbRotatedDimension
  0
DIMENSION
  5
B8
330
1F
100
AcDbEntity
  8
SLD-0
100
AcDbDimension
  2
_D_3
 10
10.1141275569
 20
7.327018333
 30
0.0
 11
14.7152650808
 21
3.7267936395
 31
0.0
 70
   163
  1
<> THRU\PFIXTURE MOUNTING\PHOLE
 71
     1
 42
-1.0
  3
SLDDIMSTYLE2
100
AcDbDiametricDimension
 15
10.5592417799
 25
6.6288368892
 35
0.0
 40
0.0
  0
MTEXT
  5
CC
330
1F
100
AcDbEntity
  8
SLD-0
100
AcDbMText
 10
16.2621233456
 20
5.3033340879
 30
0.0
 40
0.25
 41
0.0
 71
     2
 72
     1
  1
2X #10-24 CLEARANCE HOLES
  7
SLDTEXTSTYLE0
 73
     1
 44
1.0
  0
MTEXT
  5
CD
330
1F
100
AcDbEntity
  8
SLD-0
100
AcDbMText
 10
16.270543309
 20
4.9745939388
 30
0.0
 40
0.25
 41
0.0
 71
     2
 72
     1
  1
(HARDWARE INCLUDED)
  7
SLDTEXTSTYLE0
 73
     1
 44
1.0
  0
LEADER
  5
CF
330
1F
100
AcDbEntity
  8
SLD-0
100
AcDbLeader
  3
SLDDIMSTYLE3
 76
     3
 10
11.7770862239
 20
6.9003074684
 30
0.0
 10
13.3844052106
 20
5.1866802096
 30
0.0
 10
13.8844052106
 20
5.1866802096
 30
0.0
  0
INSERT
  5
DB
330
1F
100
AcDbEntity
  8
SLD-0
100
AcDbBlockReference
  2
SW_CENTERMARKSYMBOL_0
 10
8.9616846684
 20
6.9779276111
 30
0.0
  0
INSERT
  5
E7
330
1F
100
AcDbEntity
  8
SLD-0
100
AcDbBlockReference
  2
SW_CENTERMARKSYMBOL_1
 10
11.7116846684
 20
6.9779276111
 30
0.0
  0
LINE
  5
E8
330
1F
100
AcDbEntity
  8
0
  6
Continuous
 62
     7
370
    25
100
AcDbLine
 10
13.4864778902
 20
13.9065326739
 30
0.0
 11
13.4864778902
 21
13.8657122683
 31
0.0
  0
LINE
  5
E9
330
1F
100
AcDbEntity
  8
0
  6
Continuous
 62
     7
370
    25
100
AcDbLine
 10
14.6883640462
 20
11.7837587973
 30
0.0
 11
14.723713639
 21
11.7633452773
 31
0.0
  0
LINE
  5
EA
330
1F
100
AcDbEntity
  8
0
  6
Continuous
 62
     7
370
    25
100
AcDbLine
 10
14.0787955701
 20
14.8404274034
 30
0.0
 11
13.8489858663
 21
14.7077610852
 31
0.0
  0
LINE
  5
EB
330
1F
100
AcDbEntity
  8
0
  6
Continuous
 62
     7
370
    25
100
AcDbLine
 10
15.5988436484
 20
11.6765900669
 30
0.0
 11
15.8286533523
 21
11.8092563851
 31
0.0
  0
LWPOLYLINE
  5
EC
330
1F
100
AcDbEntity
  8
0
  6
Continuous
 62
     7
370
    25
100
AcDbPolyline
 90
      121
 70
   128
 43
0.0
 10
15.8906409463
 20
12.4778184782
 10
15.8889935353
 20
12.5514180635
 10
15.8840558179
 20
12.6267179776
 10
15.8758413279
 20
12.7035118287
 10
15.8643725808
 20
12.7815891302
 10
15.8496810115
 20
12.8607358778
 10
15.8318068886
 20
12.9407351355
 10
15.8107992039
 20
13.021367631
 10
15.7867155379
 20
13.1024123564
 10
15.7596219023
 20
13.1836471735
 10
15.7295925589
 20
13.2648494234
 10
15.6967098161
 20
13.3457965364
 10
15.661063803
 20
13.4262666421
 10
15.6227522231
 20
13.5060391775
 10
15.5818800856
 20
13.5848954916
 10
15.5385594183
 20
13.6626194448
 10
15.49290896
 20
13.7389980012
 10
15.4450538355
 20
13.8138218123
 10
15.3951252125
 20
13.8868857913
 10
15.3432599417
 20
13.957989675
 10
15.2896001823
 20
14.0269385725
 10
15.2342930119
 20
14.0935434997
 10
15.1774900237
 20
14.1576218972
 10
15.1193469106
 20
14.2189981304
 10
15.060023039
 20
14.2775039715
 10
14.9996810115
 20
14.3329790599
 10
14.9384862212
 20
14.3852713423
 10
14.876606399
 20
14.4342374892
 10
14.8142111531
 20
14.4797432878
 10
14.7514715045
 20
14.5216640098
 10
14.6885594183
 20
14.5598847535
 10
14.625647332
 20
14.5943007585
 10
14.5629076834
 20
14.6248176928
 10
14.5005124375
 20
14.6513519118
 10
14.4386326153
 20
14.6738306868
 10
14.377437825
 20
14.6921924053
 10
14.3170957975
 20
14.706386739
 10
14.2577719259
 20
14.7163747822
 10
14.1996288128
 20
14.7221291583
 10
14.1428258246
 20
14.7236340951
 10
14.0875186542
 20
14.7208854676
 10
14.0338588948
 20
14.7138908095
 10
13.981993624
 20
14.7026692929
 10
13.932065001
 20
14.687251675
 10
13.8842098765
 20
14.6676802145
 10
13.8385594183
 20
14.6440085554
 10
13.7952387509
 20
14.6163015801
 10
13.7543666134
 20
14.5846352314
 10
13.7160550335
 20
14.5490963047
 10
13.6804090204
 20
14.5097822096
 10
13.6475262776
 20
14.4668007034
 10
13.6174969342
 20
14.4202695953
 10
13.5904032986
 20
14.370316424
 10
13.5663196326
 20
14.3170781075
 10
13.5453119479
 20
14.2607005685
 10
13.527437825
 20
14.2013383338
 10
13.5127462557
 20
14.1391541111
 10
13.5012775086
 20
14.0743183432
 10
13.4930630186
 20
14.0070087403
 10
13.4881253012
 20
13.9374097934
 10
13.4864778902
 20
13.8657122683
 10
13.4881253012
 20
13.7921126831
 10
13.4930630186
 20
13.716812769
 10
13.5012775086
 20
13.6400189179
 10
13.5127462557
 20
13.5619416163
 10
13.527437825
 20
13.4827948688
 10
13.5453119479
 20
13.4027956111
 10
13.5663196326
 20
13.3221631155
 10
13.5904032986
 20
13.2411183902
 10
13.6174969342
 20
13.1598835731
 10
13.6475262776
 20
13.0786813232
 10
13.6804090204
 20
12.9977342102
 10
13.7160550335
 20
12.9172641045
 10
13.7543666134
 20
12.8374915691
 10
13.7952387509
 20
12.7586352549
 10
13.8385594183
 20
12.6809113017
 10
13.8842098765
 20
12.6045327454
 10
13.932065001
 20
12.5297089343
 10
13.981993624
 20
12.4566449553
 10
14.0338588948
 20
12.3855410716
 10
14.0875186542
 20
12.3165921741
 10
14.1428258246
 20
12.2499872468
 10
14.1996288128
 20
12.1859088494
 10
14.2577719259
 20
12.1245326162
 10
14.3170957975
 20
12.0660267751
 10
14.377437825
 20
12.0105516867
 10
14.4386326153
 20
11.9582594043
 10
14.5005124375
 20
11.9092932574
 10
14.5629076834
 20
11.8637874588
 10
14.625647332
 20
11.8218667368
 10
14.6885594183
 20
11.7836459931
 10
14.7514715045
 20
11.7492299881
 10
14.8142111531
 20
11.7187130538
 10
14.876606399
 20
11.6921788348
 10
14.9384862212
 20
11.6697000597
 10
14.9996810115
 20
11.6513383412
 10
15.060023039
 20
11.6371440076
 10
15.1193469106
 20
11.6271559644
 10
15.1774900237
 20
11.6214015883
 10
15.2342930119
 20
11.6198966515
 10
15.2896001823
 20
11.622645279
 10
15.3432599417
 20
11.629639937
 10
15.3951252125
 20
11.6408614537
 10
15.4450538355
 20
11.6562790716
 10
15.49290896
 20
11.6758505321
 10
15.5385594183
 20
11.6995221912
 10
15.5818800856
 20
11.7272291665
 10
15.6227522231
 20
11.7588955152
 10
15.661063803
 20
11.7944344419
 10
15.6967098161
 20
11.833748537
 10
15.7295925589
 20
11.8767300432
 10
15.7596219023
 20
11.9232611512
 10
15.7867155379
 20
11.9732143226
 10
15.8107992039
 20
12.026452639
 10
15.8318068886
 20
12.0828301781
 10
15.8496810115
 20
12.1421924128
 10
15.8643725808
 20
12.2043766355
 10
15.8758413279
 20
12.2692124034
 10
15.8840558179
 20
12.3365220063
 10
15.8889935353
 20
12.4061209532
 10
15.8906409463
 20
12.4778184782
  0
LWPOLYLINE
  5
ED
330
1F
100
AcDbEntity
  8
0
  6
Continuous
 62
     7
370
    25
100
AcDbPolyline
 90
       32
 70
   128
 43
0.0
 10
15.9613516244
 20
12.4778184782
 10
15.9597108943
 20
12.4052052692
 10
15.9547930551
 20
12.3346789639
 10
15.9466111478
 20
12.2664265854
 10
15.9351868696
 20
12.2006291269
 10
15.9205505155
 20
12.1374610713
 10
15.9027408984
 20
12.077089929
 10
15.8818052463
 20
12.0196757933
 10
15.8577990769
 20
11.9653709163
 10
15.83078605
 20
11.9143193047
 10
15.8008377994
 20
11.8666563382
 10
15.7680337426
 20
11.8225084105
 10
15.7324608699
 20
11.7819925938
 10
15.6942135142
 20
11.7452163289
 10
15.6533931006
 20
11.7122771398
 10
15.6101078776
 20
11.6832623753
 10
15.5644726297
 20
11.6582489774
 10
15.5166083734
 20
11.6373032771
 10
15.4666420362
 20
11.6204808186
 10
15.4147061198
 20
11.607826212
 10
15.3609383488
 20
11.5993730151
 10
15.3054813058
 20
11.5951436443
 10
15.2484820529
 20
11.5951493151
 10
15.1900917418
 20
11.5993900124
 10
15.1304652131
 20
11.6078544907
 10
15.0697605857
 20
11.6205203037
 10
15.0081388373
 20
11.6373538639
 10
14.9457633778
 20
11.6583105318
 10
14.8827996156
 20
11.6833347341
 10
14.8194145194
 20
11.712360111
 10
14.7557761749
 20
11.7453096926
 10
14.723713639
 20
11.7633452773
  0
LWPOLYLINE
  5
EE
330
1F
100
AcDbEntity
  8
0
  6
Continuous
 62
     7
370
    25
100
AcDbPolyline
 90
       62
 70
   128
 43
0.0
 10
13.4864778902
 20
13.9065326739
 10
13.4881186203
 20
13.979145883
 10
13.4930364596
 20
14.0496721883
 10
13.5012183668
 20
14.1179245667
 10
13.512642645
 20
14.1837220252
 10
13.5272789992
 20
14.2468900808
 10
13.5450886162
 20
14.3072612232
 10
13.5660242683
 20
14.3646753588
 10
13.5900304378
 20
14.4189802358
 10
13.6170434646
 20
14.4700318474
 10
13.6469917152
 20
14.5176948139
 10
13.6797957721
 20
14.5618427417
 10
13.7153686448
 20
14.6023585583
 10
13.7536160005
 20
14.6391348232
 10
13.794436414
 20
14.6720740123
 10
13.8377216371
 20
14.7010887768
 10
13.8833568849
 20
14.7261021747
 10
13.9312211412
 20
14.7470478751
 10
13.9811874784
 20
14.7638703336
 10
14.0331233949
 20
14.7765249402
 10
14.0868911658
 20
14.784978137
 10
14.1423482088
 20
14.7892075079
 10
14.1993474618
 20
14.7892018371
 10
14.2577377729
 20
14.7849611398
 10
14.3173643015
 20
14.7764966615
 10
14.3780689289
 20
14.7638308485
 10
14.4396906773
 20
14.7469972882
 10
14.5020661368
 20
14.7260406203
 10
14.565029899
 20
14.7010164181
 10
14.6284149952
 20
14.6719910411
 10
14.6920533397
 20
14.6390414596
 10
14.7557761749
 20
14.6022550498
 10
14.8194145194
 20
14.5617293628
 10
14.8827996156
 20
14.5175718654
 10
14.9457633778
 20
14.4698996552
 10
15.0081388373
 20
14.4188391505
 10
15.0697605857
 20
14.3645257545
 10
15.1304652131
 20
14.3071034966
 10
15.1900917418
 20
14.2467246502
 10
15.2484820529
 20
14.1835493293
 10
15.3054813058
 20
14.1177450635
 10
15.3609383488
 20
14.0494863537
 10
15.4147061198
 20
13.9789542099
 10
15.4666420362
 20
13.9063356705
 10
15.5166083734
 20
13.831823307
 10
15.5644726297
 20
13.7556147127
 10
15.6101078776
 20
13.6779119791
 10
15.6533931006
 20
13.5989211599
 10
15.6942135142
 20
13.5188517245
 10
15.7324608699
 20
13.4379160026
 10
15.7680337426
 20
13.3563286214
 10
15.8008377994
 20
13.2743059358
 10
15.83078605
 20
13.1920654552
 10
15.8577990769
 20
13.1098252667
 10
15.8818052463
 20
13.0278034563
 10
15.9027408984
 20
12.9462175313
 10
15.9205505155
 20
12.8652838428
 10
15.9351868696
 20
12.7852170124
 10
15.9466111478
 20
12.706229363
 10
15.9547930551
 20
12.6285303555
 10
15.9597108943
 20
12.5523260339
 10
15.9613516244
 20
12.4778184782
  0
LWPOLYLINE
  5
EF
330
1F
100
AcDbEntity
  8
0
  6
Continuous
 62
     7
370
    25
100
AcDbPolyline
 90
       47
 70
   128
 43
0.0
 10
16.1911613283
 20
12.6104847964
 10
16.1895205982
 20
12.6849923521
 10
16.184602759
 20
12.7611966737
 10
16.1764208517
 20
12.8388956812
 10
16.1649965735
 20
12.9178833306
 10
16.1503602193
 20
12.997950161
 10
16.1325506023
 20
13.0788838495
 10
16.1116149502
 20
13.1604697745
 10
16.0876087807
 20
13.2424915848
 10
16.0605957539
 20
13.3247317734
 10
16.0306475033
 20
13.4069722539
 10
15.9978434465
 20
13.4889949396
 10
15.9622705738
 20
13.5705823208
 10
15.9240232181
 20
13.6515180426
 10
15.8832028045
 20
13.731587478
 10
15.8399175815
 20
13.8105782973
 10
15.7942823336
 20
13.8882810309
 10
15.7464180773
 20
13.9644896252
 10
15.6964517401
 20
14.0390019887
 10
15.6445158236
 20
14.111620528
 10
15.5907480527
 20
14.1821526719
 10
15.5352910097
 20
14.2504113816
 10
15.4782917567
 20
14.3162156475
 10
15.4199014456
 20
14.3793909684
 10
15.360274917
 20
14.4397698147
 10
15.2995702896
 20
14.4971920727
 10
15.2379485412
 20
14.5515054687
 10
15.1755730817
 20
14.6025659734
 10
15.1126093195
 20
14.6502381835
 10
15.0492242233
 20
14.694395681
 10
14.9855858788
 20
14.734921368
 10
14.9218630436
 20
14.7717077778
 10
14.8582246991
 20
14.8046573593
 10
14.7948396029
 20
14.8336827362
 10
14.7318758407
 20
14.8587069385
 10
14.6695003812
 20
14.8796636064
 10
14.6078786328
 20
14.8964971667
 10
14.5471740054
 20
14.9091629797
 10
14.4875474768
 20
14.917627458
 10
14.4291571657
 20
14.9218681553
 10
14.3721579127
 20
14.921873826
 10
14.3167008697
 20
14.9176444552
 10
14.2629330987
 20
14.9091912583
 10
14.2109971823
 20
14.8965366518
 10
14.1610308451
 20
14.8797141932
 10
14.1131665888
 20
14.8587684929
 10
14.0787955701
 20
14.8404274034
  0
LWPOLYLINE
  5
F0
330
1F
100
AcDbEntity
  8
0
  6
Continuous
 62
     7
370
    25
100
AcDbPolyline
 90
       17
 70
   128
 43
0.0
 10
15.8286533523
 20
11.8092563851
 10
15.8399175815
 20
11.8159286935
 10
15.8832028045
 20
11.844943458
 10
15.9240232181
 20
11.8778826471
 10
15.9622705738
 20
11.914658912
 10
15.9978434465
 20
11.9551747286
 10
16.0306475033
 20
11.9993226564
 10
16.0605957539
 20
12.0469856229
 10
16.0876087807
 20
12.0980372345
 10
16.1116149502
 20
12.1523421115
 10
16.1325506023
 20
12.2097562471
 10
16.1503602193
 20
12.2701273895
 10
16.1649965735
 20
12.3332954451
 10
16.1764208517
 20
12.3990929036
 10
16.184602759
 20
12.467345282
 10
16.1895205982
 20
12.5378715873
 10
16.1911613283
 20
12.6104847964
  0
LWPOLYLINE
  5
F1
330
1F
100
AcDbEntity
  8
0
  6
Continuous
 62
     7
370
    25
100
AcDbPolyline
 90
       60
 70
   128
 43
0.0
 10
14.9813016257
 20
13.0027688941
 10
14.9796431826
 20
13.0396585821
 10
14.9746866441
 20
13.0780450929
 10
14.9664881699
 20
13.1174934919
 10
14.9551406518
 20
13.1575568129
 10
14.9407726618
 20
13.1977811227
 10
14.9235469951
 20
13.2377106636
 10
14.9036588251
 20
13.276893018
 10
14.881333493
 20
13.3148842342
 10
14.8568239535
 20
13.3512538565
 10
14.8304079096
 20
13.3855898026
 10
14.8023846657
 20
13.4175030324
 10
14.7730717362
 20
13.4466319564
 10
14.7428012484
 20
13.4726465322
 10
14.7119161789
 20
13.4952520042
 10
14.680766468
 20
13.5141922434
 10
14.6497050544
 20
13.5292526493
 10
14.6190838763
 20
13.5402625816
 10
14.5892498837
 20
13.5470972933
 10
14.5605411079
 20
13.5496793443
 10
14.5332828308
 20
13.547979479
 10
14.5077838993
 20
13.5420169576
 10
14.4843332268
 20
13.5318593378
 10
14.4631965186
 20
13.5176217095
 10
14.4446132621
 20
13.4994653907
 10
14.4287940131
 20
13.4775960998
 10
14.4159180098
 20
13.4522616245
 10
14.4061311427
 20
13.4237490146
 10
14.3995443008
 20
13.3923813294
 10
14.3962321156
 20
13.3585139772
 10
14.3962321156
 20
13.3225306888
 10
14.3995443008
 20
13.284839169
 10
14.4061311427
 20
13.245866478
 10
14.4159180098
 20
13.2060541919
 10
14.4287940131
 20
13.1658533997
 10
14.4446132621
 20
13.1257195926
 10
14.4631965186
 20
13.0861075025
 10
14.4843332268
 20
13.0474659504
 10
14.5077838993
 20
13.0102327604
 10
14.5332828308
 20
12.9748297994
 10
14.5605411079
 20
12.9416581972
 10
14.5892498837
 20
12.9110938012
 10
14.6190838763
 20
12.8834829183
 10
14.6497050544
 20
12.8591383908
 10
14.680766468
 20
12.838336052
 10
14.7119161789
 20
12.8213116006
 10
14.7428012484
 20
12.8082579304
 10
14.7730717362
 20
12.7993229449
 10
14.8023846657
 20
12.7946078808
 10
14.8304079096
 20
12.7941661619
 10
14.8568239535
 20
12.7980027929
 10
14.881333493
 20
12.8060743033
 10
14.9036588251
 20
12.8182892397
 10
14.9235469951
 20
12.8345092018
 10
14.9407726618
 20
12.8545504112
 10
14.9551406518
 20
12.8781857928
 10
14.9664881699
 20
12.9051475484
 10
14.9746866441
 20
12.9351301905
 10
14.9796431826
 20
12.9677940038
 10
14.9813016257
 20
13.0027688941
  0
LWPOLYLINE
  5
F2
330
1F
100
AcDbEntity
  8
0
  6
Continuous
 62
     7
370
    25
100
AcDbPolyline
 90
       30
 70
   128
 43
0.0
 10
15.7326025807
 20
12.5690520847
 10
15.7309246067
 20
12.5878372705
 10
15.7259691449
 20
12.6076814294
 10
15.7179679071
 20
12.6276566706
 10
15.7072950224
 20
12.6468289741
 10
15.694449543
 20
12.6643018642
 10
15.6800321093
 20
12.679258328
 10
15.6647168643
 20
12.690999018
 10
15.649219932
 20
12.6989749524
 10
15.6342659316
 20
12.7028131855
 10
15.6205540957
 20
12.7023342457
 10
15.6087255743
 20
12.6975605278
 10
15.5993334561
 20
12.6887152454
 10
15.5928169061
 20
12.6762119942
 10
15.5894806308
 20
12.6606354122
 10
15.5894806308
 20
12.6427138433
 10
15.5928169061
 20
12.6232852799
 10
15.5993334561
 20
12.6032581801
 10
15.6087255743
 20
12.5835689888
 10
15.6205540957
 20
12.5651383509
 10
15.6342659316
 20
12.5488280623
 10
15.649219932
 20
12.535400774
 10
15.6647168643
 20
12.5254843312
 10
15.6800321093
 20
12.5195424157
 10
15.694449543
 20
12.5178528649
 10
15.7072950224
 20
12.5204946802
 10
15.7179679071
 20
12.5273443333
 10
15.7259691449
 20
12.538081542
 10
15.7309246067
 20
12.5522042465
 10
15.7326025807
 20
12.5690520847
  0
LWPOLYLINE
  5
F3
330
1F
100
AcDbEntity
  8
0
  6
Continuous
 62
     7
370
    25
100
AcDbPolyline
 90
       30
 70
   128
 43
0.0
 10
13.7880589324
 20
13.6916132385
 10
13.7863809584
 20
13.7103984242
 10
13.7814254966
 20
13.7302425831
 10
13.7734242589
 20
13.7502178244
 10
13.7627513742
 20
13.7693901278
 10
13.7499058948
 20
13.786863018
 10
13.735488461
 20
13.8018194818
 10
13.720173216
 20
13.8135601717
 10
13.7046762837
 20
13.8215361062
 10
13.6897222834
 20
13.8253743392
 10
13.6760104474
 20
13.8248953995
 10
13.6641819261
 20
13.8201216815
 10
13.6547898079
 20
13.8112763991
 10
13.6482732578
 20
13.7987731479
 10
13.6449369825
 20
13.783196566
 10
13.6449369825
 20
13.765274997
 10
13.6482732578
 20
13.7458464336
 10
13.6547898079
 20
13.7258193338
 10
13.6641819261
 20
13.7061301426
 10
13.6760104474
 20
13.6876995046
 10
13.6897222834
 20
13.671389216
 10
13.7046762837
 20
13.6579619278
 10
13.720173216
 20
13.648045485
 10
13.735488461
 20
13.6421035695
 10
13.7499058948
 20
13.6404140186
 10
13.7627513742
 20
13.6430558339
 10
13.7734242589
 20
13.649905487
 10
13.7814254966
 20
13.6606426958
 10
13.7863809584
 20
13.6747654003
 10
13.7880589324
 20
13.6916132385
  0
ARC
  5
F4
330
1F
100
AcDbEntity
  8
0
  6
Continuous
 62
     7
370
    25
100
AcDbCircle
 10
14.8614446738
 20
13.4486897234
 30
0.0
 40
0.2889105457301674
100
AcDbArc
 50
160.1036857983
 51
181.1655591513
  0
LWPOLYLINE
  5
F5
330
1F
100
AcDbEntity
  8
0
  6
Continuous
 62
     7
370
    25
100
AcDbPolyline
 90
       19
 70
   128
 43
0.0
 10
14.9641163394
 20
12.8985702713
 10
14.9348116555
 20
12.9053191789
 10
14.9041904774
 20
12.9163291112
 10
14.8731290638
 20
12.9313895172
 10
14.8419793529
 20
12.9503297564
 10
14.8110942835
 20
12.9729352284
 10
14.7808237956
 20
12.9989498042
 10
14.7515108661
 20
13.0280787281
 10
14.7234876222
 20
13.059991958
 10
14.6970715783
 20
13.0943279041
 10
14.6725620388
 20
13.1306975264
 10
14.6502367067
 20
13.1686887426
 10
14.6303485367
 20
13.207871097
 10
14.61312287
 20
13.2478006379
 10
14.59875488
 20
13.2880249476
 10
14.5874073619
 20
13.3280882687
 10
14.5792088877
 20
13.3675366677
 10
14.5742523492
 20
13.4059231784
 10
14.5725939061
 20
13.4428128664
  0
ENDSEC
  0
SECTION
  2
OBJECTS
  0
DICTIONARY
  5
C
330
0
100
AcDbDictionary
281
     1
  3
ACAD_GROUP
350
D
  3
ACAD_LAYOUT
350
1A
  3
ACAD_MLINESTYLE
350
17
  3
ACAD_PLOTSETTINGS
350
19
  3
ACAD_PLOTSTYLENAME
350
E
  3
ACAD_SCALELIST
350
47
  3
DWGPROPS
350
F6
  0
DICTIONARY
  5
D
102
{ACAD_REACTORS
330
C
102
}
330
C
100
AcDbDictionary
281
     1
  0
DICTIONARY
  5
1A
102
{ACAD_REACTORS
330
C
102
}
330
C
100
AcDbDictionary
281
     1
  3
Layout1
350
1E
  3
Layout2
350
26
  3
Model
350
22
  0
DICTIONARY
  5
17
102
{ACAD_REACTORS
330
C
102
}
330
C
100
AcDbDictionary
281
     1
  3
Standard
350
18
  0
DICTIONARY
  5
19
102
{ACAD_REACTORS
330
C
102
}
330
C
100
AcDbDictionary
281
     1
  0
ACDBDICTIONARYWDFLT
  5
E
102
{ACAD_REACTORS
330
C
102
}
330
C
100
AcDbDictionary
281
     1
  3
Normal
350
F
100
AcDbDictionaryWithDefault
340
F
  0
DICTIONARY
  5
47
102
{ACAD_REACTORS
330
C
102
}
330
C
100
AcDbDictionary
281
     1
  3
A0
350
48
  3
A1
350
49
  3
A2
350
4A
  3
A3
350
4B
  3
A4
350
4C
  3
A5
350
4D
  3
A6
350
4E
  3
A7
350
4F
  3
A8
350
50
  3
A9
350
51
  3
B1
350
52
  3
B2
350
53
  3
B3
350
54
  3
B4
350
55
  3
B5
350
56
  3
B6
350
57
  3
B7
350
58
  0
XRECORD
  5
F6
102
{ACAD_REACTORS
330
C
102
}
330
C
100
AcDbXrecord
280
     1
  1
DWGPROPS COOKIE
  2

  3

  4

  6

  7

  8
shawnd
  9

300
=
301
=
302
=
303
=
304
=
305
=
306
=
307
=
308
=
309
=
 40
0.0
 41
2460888.948418947
 42
2460888.94841926
  1

 90
        0
  0
LAYOUT
  5
1E
102
{ACAD_REACTORS
330
1A
102
}
330
1A
100
AcDbPlotSettings
  1

  2
none_device
  4

  6

 40
0.0
 41
0.0
 42
0.0
 43
0.0
 44
0.0
 45
0.0
 46
0.0
 47
0.0
 48
0.0
 49
0.0
140
0.0
141
0.0
142
1.0
143
1.0
 70
   688
 72
     0
 73
     0
 74
     5
  7

 75
    16
147
1.0
148
0.0
149
0.0
100
AcDbLayout
  1
Layout1
 70
     1
 71
     1
 10
0.0
 20
0.0
 11
12.0
 21
9.0
 12
0.0
 22
0.0
 32
0.0
 14
1.0000000000E+20
 24
1.0000000000E+20
 34
1.0000000000E+20
 15
-1.0000000000E+20
 25
-1.0000000000E+20
 35
-1.0000000000E+20
146
0.0
 13
0.0
 23
0.0
 33
0.0
 16
1.0
 26
0.0
 36
0.0
 17
0.0
 27
1.0
 37
0.0
 76
     0
330
1B
  0
LAYOUT
  5
26
102
{ACAD_REACTORS
330
1A
102
}
330
1A
100
AcDbPlotSettings
  1

  2
none_device
  4

  6

 40
0.0
 41
0.0
 42
0.0
 43
0.0
 44
0.0
 45
0.0
 46
0.0
 47
0.0
 48
0.0
 49
0.0
140
0.0
141
0.0
142
1.0
143
1.0
 70
   688
 72
     0
 73
     0
 74
     5
  7

 75
    16
147
1.0
148
0.0
149
0.0
100
AcDbLayout
  1
Layout2
 70
     1
 71
     2
 10
0.0
 20
0.0
 11
0.0
 21
0.0
 12
0.0
 22
0.0
 32
0.0
 14
0.0
 24
0.0
 34
0.0
 15
0.0
 25
0.0
 35
0.0
146
0.0
 13
0.0
 23
0.0
 33
0.0
 16
1.0
 26
0.0
 36
0.0
 17
0.0
 27
1.0
 37
0.0
 76
     0
330
23
  0
LAYOUT
  5
22
102
{ACAD_REACTORS
330
1A
102
}
330
1A
100
AcDbPlotSettings
  1

  2
none_device
  4
Letter_(8.50_x_11.00_Inches)
  6

 40
6.35
 41
6.35
 42
6.35000508
 43
6.35000508
 44
215.9
 45
279.4
 46
0.0
 47
0.0
 48
0.0
 49
0.0
140
0.0
141
0.0
142
1.0
143
1.0
 70
  1712
 72
     0
 73
     0
 74
     0
  7

 75
     0
147
1.0
148
0.0
149
0.0
100
AcDbLayout
  1
Model
 70
     1
 71
     0
 10
0.0
 20
0.0
 11
22.0
 21
17.0
 12
0.0
 22
0.0
 32
0.0
 14
0.0
 24
0.0
 34
0.0
 15
22.0
 25
17.0
 35
0.0
146
0.0
 13
0.0
 23
0.0
 33
0.0
 16
1.0
 26
0.0
 36
0.0
 17
0.0
 27
1.0
 37
0.0
 76
     0
330
1F
331
29
  0
MLINESTYLE
  5
18
102
{ACAD_REACTORS
330
17
102
}
330
17
100
AcDbMlineStyle
  2
Standard
 70
     0
  3

 62
   256
 51
90.0
 52
90.0
 71
     2
 49
0.5
 62
   256
  6
BYLAYER
 49
-0.5
 62
   256
  6
BYLAYER
  0
ACDBPLACEHOLDER
  5
F
102
{ACAD_REACTORS
330
E
102
}
330
E
  0
SCALE
  5
48
102
{ACAD_REACTORS
330
47
102
}
330
47
100
AcDbScale
 70
     0
300
1:1
140
1.0
141
1.0
290
     1
  0
SCALE
  5
49
102
{ACAD_REACTORS
330
47
102
}
330
47
100
AcDbScale
 70
     0
300
1/128" = 1'-0"
140
0.0078125
141
12.0
290
     0
  0
SCALE
  5
4A
102
{ACAD_REACTORS
330
47
102
}
330
47
100
AcDbScale
 70
     0
300
1/64" = 1'-0"
140
0.015625
141
12.0
290
     0
  0
SCALE
  5
4B
102
{ACAD_REACTORS
330
47
102
}
330
47
100
AcDbScale
 70
     0
300
1/32" = 1'-0"
140
0.03125
141
12.0
290
     0
  0
SCALE
  5
4C
102
{ACAD_REACTORS
330
47
102
}
330
47
100
AcDbScale
 70
     0
300
1/16" = 1'-0"
140
0.0625
141
12.0
290
     0
  0
SCALE
  5
4D
102
{ACAD_REACTORS
330
47
102
}
330
47
100
AcDbScale
 70
     0
300
3/32" = 1'-0"
140
0.09375
141
12.0
290
     0
  0
SCALE
  5
4E
102
{ACAD_REACTORS
330
47
102
}
330
47
100
AcDbScale
 70
     0
300
1/8" = 1'-0"
140
0.125
141
12.0
290
     0
  0
SCALE
  5
4F
102
{ACAD_REACTORS
330
47
102
}
330
47
100
AcDbScale
 70
     0
300
3/16" = 1'-0"
140
0.1875
141
12.0
290
     0
  0
SCALE
  5
50
102
{ACAD_REACTORS
330
47
102
}
330
47
100
AcDbScale
 70
     0
300
1/4" = 1'-0"
140
0.25
141
12.0
290
     0
  0
SCALE
  5
51
102
{ACAD_REACTORS
330
47
102
}
330
47
100
AcDbScale
 70
     0
300
3/8" = 1'-0"
140
0.375
141
12.0
290
     0
  0
SCALE
  5
52
102
{ACAD_REACTORS
330
47
102
}
330
47
100
AcDbScale
 70
     0
300
1/2" = 1'-0"
140
0.5
141
12.0
290
     0
  0
SCALE
  5
53
102
{ACAD_REACTORS
330
47
102
}
330
47
100
AcDbScale
 70
     0
300
3/4" = 1'-0"
140
0.75
141
12.0
290
     0
  0
SCALE
  5
54
102
{ACAD_REACTORS
330
47
102
}
330
47
100
AcDbScale
 70
     0
300
1" = 1'-0"
140
1.0
141
12.0
290
     0
  0
SCALE
  5
55
102
{ACAD_REACTORS
330
47
102
}
330
47
100
AcDbScale
 70
     0
300
1-1/2" = 1'-0"
140
1.5
141
12.0
290
     0
  0
SCALE
  5
56
102
{ACAD_REACTORS
330
47
102
}
330
47
100
AcDbScale
 70
     0
300
3" = 1'-0"
140
3.0
141
12.0
290
     0
  0
SCALE
  5
57
102
{ACAD_REACTORS
330
47
102
}
330
47
100
AcDbScale
 70
     0
300
6" = 1'-0"
140
6.0
141
12.0
290
     0
  0
SCALE
  5
58
102
{ACAD_REACTORS
330
47
102
}
330
47
100
AcDbScale
 70
     0
300
1'-0" = 1'-0"
140
12.0
141
12.0
290
     0
  0
ENDSEC
  0
EOF
