  0
SECTION
  2
HEADER
  9
$ACADVER
  1
AC1015
  9
$ACADMAINTVER
 70
     6
  9
$DWGCODEPAGE
  3
ANSI_1252
  9
$INSBASE
 10
0.0
 20
0.0
 30
0.0
  9
$EXTMIN
 10
0.0
 20
0.0
 30
0.0
  9
$EXTMAX
 10
22.0
 20
17.0
 30
0.0
  9
$LIMMIN
 10
0.0
 20
0.0
  9
$LIMMAX
 10
22.0
 20
17.0
  9
$ORTHOMODE
 70
     0
  9
$REGENMODE
 70
     1
  9
$FILLMODE
 70
     1
  9
$QTEXTMODE
 70
     0
  9
$MIRRTEXT
 70
     1
  9
$LTSCALE
 40
2.0
  9
$ATTMODE
 70
     1
  9
$TEXTSIZE
 40
0.25
  9
$TRACEWID
 40
0.05
  9
$TEXTSTYLE
  7
Standard
  9
$CLAYER
  8
0
  9
$CELTYPE
  6
ByLayer
  9
$CECOLOR
 62
   256
  9
$CELTSCALE
 40
1.0
  9
$DISPSILH
 70
     0
  9
$DIMSCALE
 40
1.0
  9
$DIMASZ
 40
0.26
  9
$DIMEXO
 40
0.1
  9
$DIMDLI
 40
0.38
  9
$DIMRND
 40
0.0
  9
$DIMDLE
 40
0.0
  9
$DIMEXE
 40
0.25
  9
$DIMTP
 40
0.0
  9
$DIMTM
 40
0.0
  9
$DIMTXT
 40
0.25
  9
$DIMCEN
 40
0.09
  9
$DIMTSZ
 40
0.0
  9
$DIMTOL
 70
     0
  9
$DIMLIM
 70
     0
  9
$DIMTIH
 70
     1
  9
$DIMTOH
 70
     1
  9
$DIMSE1
 70
     0
  9
$DIMSE2
 70
     0
  9
$DIMTAD
 70
     0
  9
$DIMZIN
 70
     1
  9
$DIMBLK
  1

  9
$DIMASO
 70
     1
  9
$DIMSHO
 70
     1
  9
$DIMPOST
  1

  9
$DIMAPOST
  1

  9
$DIMALT
 70
     0
  9
$DIMALTD
 70
     2
  9
$DIMALTF
 40
25.4
  9
$DIMLFAC
 40
1.0
  9
$DIMTOFL
 70
     0
  9
$DIMTVP
 40
0.0
  9
$DIMTIX
 70
     0
  9
$DIMSOXD
 70
     0
  9
$DIMSAH
 70
     0
  9
$DIMBLK1
  1

  9
$DIMBLK2
  1

  9
$DIMSTYLE
  2
Standard
  9
$DIMCLRD
 70
     0
  9
$DIMCLRE
 70
     0
  9
$DIMCLRT
 70
     0
  9
$DIMTFAC
 40
1.0
  9
$DIMGAP
 40
0.12
  9
$DIMJUST
 70
     0
  9
$DIMSD1
 70
     0
  9
$DIMSD2
 70
     0
  9
$DIMTOLJ
 70
     1
  9
$DIMTZIN
 70
     1
  9
$DIMALTZ
 70
     0
  9
$DIMALTTZ
 70
     0
  9
$DIMUPT
 70
     0
  9
$DIMDEC
 70
     0
  9
$DIMTDEC
 70
     0
  9
$DIMALTU
 70
     2
  9
$DIMALTTD
 70
     2
  9
$DIMTXSTY
  7
Standard
  9
$DIMAUNIT
 70
     0
  9
$DIMADEC
 70
     0
  9
$DIMALTRND
 40
0.0
  9
$DIMAZIN
 70
     0
  9
$DIMDSEP
 70
    46
  9
$DIMATFIT
 70
     3
  9
$DIMFRAC
 70
     0
  9
$DIMLDRBLK
  1

  9
$DIMLUNIT
 70
     2
  9
$DIMLWD
 70
    -2
  9
$DIMLWE
 70
    -2
  9
$DIMTMOVE
 70
     0
  9
$LUNITS
 70
     2
  9
$LUPREC
 70
     6
  9
$SKETCHINC
 40
0.1
  9
$FILLETRAD
 40
0.0
  9
$AUNITS
 70
     0
  9
$AUPREC
 70
     2
  9
$MENU
  1
.
  9
$ELEVATION
 40
0.0
  9
$PELEVATION
 40
0.0
  9
$THICKNESS
 40
0.0
  9
$LIMCHECK
 70
     0
  9
$CHAMFERA
 40
0.0
  9
$CHAMFERB
 40
0.0
  9
$CHAMFERC
 40
0.0
  9
$CHAMFERD
 40
0.0
  9
$SKPOLY
 70
     0
  9
$TDCREATE
 40
2460888.657206817
  9
$TDUCREATE
 40
2460888.948873484
  9
$TDUPDATE
 40
2460888.657207211
  9
$TDUUPDATE
 40
2460888.948873878
  9
$TDINDWG
 40
0.0000000116
  9
$TDUSRTIMER
 40
0.0000000116
  9
$USRTIMER
 70
     1
  9
$ANGBASE
 50
0.0
  9
$ANGDIR
 70
     0
  9
$PDMODE
 70
     0
  9
$PDSIZE
 40
-1.0
  9
$PLINEWID
 40
0.0
  9
$SPLFRAME
 70
     0
  9
$SPLINETYPE
 70
     6
  9
$SPLINESEGS
 70
     8
  9
$HANDSEED
  5
11E
  9
$SURFTAB1
 70
     6
  9
$SURFTAB2
 70
     6
  9
$SURFTYPE
 70
     6
  9
$SURFU
 70
     6
  9
$SURFV
 70
     6
  9
$UCSBASE
  2

  9
$UCSNAME
  2

  9
$UCSORG
 10
0.0
 20
0.0
 30
0.0
  9
$UCSXDIR
 10
1.0
 20
0.0
 30
0.0
  9
$UCSYDIR
 10
0.0
 20
1.0
 30
0.0
  9
$UCSORTHOREF
  2

  9
$UCSORTHOVIEW
 70
     0
  9
$UCSORGTOP
 10
0.0
 20
0.0
 30
0.0
  9
$UCSORGBOTTOM
 10
0.0
 20
0.0
 30
0.0
  9
$UCSORGLEFT
 10
0.0
 20
0.0
 30
0.0
  9
$UCSORGRIGHT
 10
0.0
 20
0.0
 30
0.0
  9
$UCSORGFRONT
 10
0.0
 20
0.0
 30
0.0
  9
$UCSORGBACK
 10
0.0
 20
0.0
 30
0.0
  9
$PUCSBASE
  2

  9
$PUCSNAME
  2

  9
$PUCSORG
 10
0.0
 20
0.0
 30
0.0
  9
$PUCSXDIR
 10
1.0
 20
0.0
 30
0.0
  9
$PUCSYDIR
 10
0.0
 20
1.0
 30
0.0
  9
$PUCSORTHOREF
  2

  9
$PUCSORTHOVIEW
 70
     0
  9
$PUCSORGTOP
 10
0.0
 20
0.0
 30
0.0
  9
$PUCSORGBOTTOM
 10
0.0
 20
0.0
 30
0.0
  9
$PUCSORGLEFT
 10
0.0
 20
0.0
 30
0.0
  9
$PUCSORGRIGHT
 10
0.0
 20
0.0
 30
0.0
  9
$PUCSORGFRONT
 10
0.0
 20
0.0
 30
0.0
  9
$PUCSORGBACK
 10
0.0
 20
0.0
 30
0.0
  9
$USERI1
 70
     0
  9
$USERI2
 70
     0
  9
$USERI3
 70
     0
  9
$USERI4
 70
     0
  9
$USERI5
 70
     0
  9
$USERR1
 40
0.0
  9
$USERR2
 40
0.0
  9
$USERR3
 40
0.0
  9
$USERR4
 40
0.0
  9
$USERR5
 40
0.0
  9
$WORLDVIEW
 70
     1
  9
$SHADEDGE
 70
     3
  9
$SHADEDIF
 70
    70
  9
$TILEMODE
 70
     1
  9
$MAXACTVP
 70
    64
  9
$PINSBASE
 10
0.0
 20
0.0
 30
0.0
  9
$PLIMCHECK
 70
     0
  9
$PEXTMIN
 10
1.0000000000E+20
 20
1.0000000000E+20
 30
1.0000000000E+20
  9
$PEXTMAX
 10
-1.0000000000E+20
 20
-1.0000000000E+20
 30
-1.0000000000E+20
  9
$PLIMMIN
 10
0.0
 20
0.0
  9
$PLIMMAX
 10
12.0
 20
9.0
  9
$UNITMODE
 70
     0
  9
$VISRETAIN
 70
     1
  9
$PLINEGEN
 70
     0
  9
$PSLTSCALE
 70
     1
  9
$TREEDEPTH
 70
  3020
  9
$CMLSTYLE
  2
Standard
  9
$CMLJUST
 70
     0
  9
$CMLSCALE
 40
1.0
  9
$PROXYGRAPHICS
 70
     1
  9
$MEASUREMENT
 70
     0
  9
$CELWEIGHT
370
    -1
  9
$ENDCAPS
280
     0
  9
$JOINSTYLE
280
     0
  9
$LWDISPLAY
290
     1
  9
$INSUNITS
 70
     1
  9
$HYPERLINKBASE
  1

  9
$STYLESHEET
  1

  9
$XEDIT
290
     1
  9
$CEPSNTYPE
380
     0
  9
$PSTYLEMODE
290
     1
  9
$FINGERPRINTGUID
  2
{e3f6c1fb-5f82-46cc-8a0a-ffb7b1fff7a9}
  9
$VERSIONGUID
  2
{FAEB1C32-E019-11D5-929B-00C0DF256EC4}
  9
$EXTNAMES
290
     1
  9
$PSVPSCALE
 40
0.0
  9
$OLESTARTUP
290
     0
  0
ENDSEC
  0
SECTION
  2
CLASSES
  0
CLASS
  1
ACDBDICTIONARYWDFLT
  2
AcDbDictionaryWithDefault
  3
ObjectDBX Classes
 90
        0
280
     0
281
     0
  0
CLASS
  1
VISUALSTYLE
  2
AcDbVisualStyle
  3
ObjectDBX Classes
 90
     4095
280
     0
281
     0
  0
CLASS
  1
MATERIAL
  2
AcDbMaterial
  3
ObjectDBX Classes
 90
     1153
280
     0
281
     0
  0
CLASS
  1
SCALE
  2
AcDbScale
  3
ObjectDBX Classes
 90
     1153
280
     0
281
     0
  0
CLASS
  1
TABLESTYLE
  2
AcDbTableStyle
  3
ObjectDBX Classes
 90
     4095
280
     0
281
     0
  0
CLASS
  1
MLEADERSTYLE
  2
AcDbMLeaderStyle
  3
ACDB_MLEADERSTYLE_CLASS
 90
     4095
280
     0
281
     0
  0
CLASS
  1
SUN
  2
AcDbSun
  3
SCENEOE
 90
     1153
280
     0
281
     0
  0
CLASS
  1
ACDBPLACEHOLDER
  2
AcDbPlaceHolder
  3
ObjectDBX Classes
 90
        0
280
     0
281
     0
  0
CLASS
  1
LAYOUT
  2
AcDbLayout
  3
ObjectDBX Classes
 90
        0
280
     0
281
     0
  0
ENDSEC
  0
SECTION
  2
TABLES
  0
TABLE
  2
VPORT
  5
8
330
0
100
AcDbSymbolTable
 70
     1
  0
VPORT
  5
29
330
8
100
AcDbSymbolTableRecord
100
AcDbViewportTableRecord
  2
*Active
 70
     0
 10
0.0
 20
0.0
 11
1.0
 21
1.0
 12
11.0
 22
8.5
 13
0.0
 23
0.0
 14
0.5
 24
0.5
 15
0.5
 25
0.5
 16
0.0
 26
0.0
 36
1.0
 17
0.0
 27
0.0
 37
0.0
 40
17.0
 41
1.2941176471
 42
50.0
 43
0.0
 44
0.0
 50
0.0
 51
0.0
 71
     0
 72
  2000
 73
     1
 74
     3
 75
     0
 76
     0
 77
     0
 78
     0
281
     0
 65
     1
110
0.0
120
0.0
130
0.0
111
1.0
121
0.0
131
0.0
112
0.0
122
1.0
132
0.0
 79
     0
146
0.0
  0
ENDTAB
  0
TABLE
  2
LTYPE
  5
5
330
0
100
AcDbSymbolTable
 70
     6
  0
LTYPE
  5
14
330
5
100
AcDbSymbolTableRecord
100
AcDbLinetypeTableRecord
  2
ByBlock
 70
     0
  3

 72
    65
 73
     0
 40
0.0
  0
LTYPE
  5
15
330
5
100
AcDbSymbolTableRecord
100
AcDbLinetypeTableRecord
  2
ByLayer
 70
     0
  3

 72
    65
 73
     0
 40
0.0
  0
LTYPE
  5
16
330
5
100
AcDbSymbolTableRecord
100
AcDbLinetypeTableRecord
  2
Continuous
 70
     0
  3
Solid line
 72
    65
 73
     0
 40
0.0
  0
LTYPE
  5
5E
330
5
100
AcDbSymbolTableRecord
100
AcDbLinetypeTableRecord
  2
HIDDEN
 70
     0
  3
Hidden __ __ __ __ __ __ __ __ __ __ __ __ __ __
 72
    65
 73
     2
 40
0.075
 49
0.05
 74
     0
 49
-0.025
 74
     0
  0
LTYPE
  5
5F
330
5
100
AcDbSymbolTableRecord
100
AcDbLinetypeTableRecord
  2
PHANTOM
 70
     0
  3
Phantom ______  __  __  ______  __  __  ______
 72
    65
 73
     6
 40
0.5
 49
0.25
 74
     0
 49
-0.05
 74
     0
 49
0.05
 74
     0
 49
-0.05
 74
     0
 49
0.05
 74
     0
 49
-0.05
 74
     0
  0
LTYPE
  5
60
330
5
100
AcDbSymbolTableRecord
100
AcDbLinetypeTableRecord
  2
CENTER
 70
     0
  3
Center ____ _ ____ _ ____ _ ____ _ ____ _ ____
 72
    65
 73
     4
 40
0.4
 49
0.25
 74
     0
 49
-0.05
 74
     0
 49
0.05
 74
     0
 49
-0.05
 74
     0
  0
LTYPE
  5
61
330
5
100
AcDbSymbolTableRecord
100
AcDbLinetypeTableRecord
  2
CENTERX2
 70
     0
  3
Center (2x) ________  __  ________  __  _____
 72
    65
 73
     4
 40
0.8
 49
0.5
 74
     0
 49
-0.1
 74
     0
 49
0.1
 74
     0
 49
-0.1
 74
     0
  0
LTYPE
  5
62
330
5
100
AcDbSymbolTableRecord
100
AcDbLinetypeTableRecord
  2
DOT2
 70
     0
  3
Dot (.5x) ........................................
 72
    65
 73
     2
 40
0.025
 49
0.0
 74
     0
 49
-0.025
 74
     0
  0
ENDTAB
  0
TABLE
  2
LAYER
  5
2
330
0
100
AcDbSymbolTable
 70
    11
  0
LAYER
  5
10
330
2
100
AcDbSymbolTableRecord
100
AcDbLayerTableRecord
  2
0
 70
     0
 62
     7
  6
Continuous
370
    -3
390
F
  0
LAYER
  5
63
330
2
100
AcDbSymbolTableRecord
100
AcDbLayerTableRecord
  2
SLD-0
 70
     0
 62
     7
  6
Continuous
370
    -3
390
F
  0
LAYER
  5
64
330
2
100
AcDbSymbolTableRecord
100
AcDbLayerTableRecord
  2
DIM
 70
     0
 62
     7
  6
Continuous
370
    -3
390
F
  0
LAYER
  5
65
330
2
100
AcDbSymbolTableRecord
100
AcDbLayerTableRecord
  2
CEN
 70
     0
 62
     1
  6
CENTER
370
    -3
390
F
  0
LAYER
  5
66
330
2
100
AcDbSymbolTableRecord
100
AcDbLayerTableRecord
  2
HAT
 70
     0
 62
     4
  6
Continuous
370
    -3
390
F
  0
LAYER
  5
67
330
2
100
AcDbSymbolTableRecord
100
AcDbLayerTableRecord
  2
OBJ
 70
     0
 62
     5
  6
Continuous
370
    -3
390
F
  0
LAYER
  5
68
330
2
100
AcDbSymbolTableRecord
100
AcDbLayerTableRecord
  2
SLD-DEFPOINTS
 70
     0
 62
     7
  6
Continuous
370
    -3
390
F
  0
LAYER
  5
69
330
2
100
AcDbSymbolTableRecord
100
AcDbLayerTableRecord
  2
HID
 70
     0
 62
     4
  6
HIDDEN
370
    -3
390
F
  0
LAYER
  5
6A
330
2
100
AcDbSymbolTableRecord
100
AcDbLayerTableRecord
  2
NOTE
 70
     0
 62
     7
  6
Continuous
370
    -3
390
F
  0
LAYER
  5
6B
330
2
100
AcDbSymbolTableRecord
100
AcDbLayerTableRecord
  2
TITLE
 70
     0
 62
     7
  6
Continuous
370
    -3
390
F
  0
LAYER
  5
6C
330
2
100
AcDbSymbolTableRecord
100
AcDbLayerTableRecord
  2
THICK_TITLE
 70
     0
 62
     7
  6
Continuous
370
   100
390
F
  0
ENDTAB
  0
TABLE
  2
STYLE
  5
3
330
0
100
AcDbSymbolTable
 70
     2
  0
STYLE
  5
11
330
3
100
AcDbSymbolTableRecord
100
AcDbTextStyleTableRecord
  2
Standard
 70
     0
 40
0.0
 41
1.0
 50
0.0
 71
     0
 42
0.25
  3
txt
  4

  0
STYLE
  5
6D
330
3
100
AcDbSymbolTableRecord
100
AcDbTextStyleTableRecord
  2
SLDTEXTSTYLE0
 70
     0
 40
0.0
 41
0.75
 50
0.0
 71
     0
 42
0.25
  3
TXT
  4

  0
ENDTAB
  0
TABLE
  2
VIEW
  5
6
330
0
100
AcDbSymbolTable
 70
     0
  0
ENDTAB
  0
TABLE
  2
UCS
  5
7
330
0
100
AcDbSymbolTable
 70
     0
  0
ENDTAB
  0
TABLE
  2
APPID
  5
9
330
0
100
AcDbSymbolTable
 70
     1
  0
APPID
  5
12
330
9
100
AcDbSymbolTableRecord
100
AcDbRegAppTableRecord
  2
ACAD
 70
     0
  0
ENDTAB
  0
TABLE
  2
DIMSTYLE
  5
A
330
0
100
AcDbSymbolTable
 70
     6
100
AcDbDimStyleTable
  0
DIMSTYLE
105
27
330
A
100
AcDbSymbolTableRecord
100
AcDbDimStyleTableRecord
  2
Standard
 70
     0
178
     0
340
11
  0
DIMSTYLE
105
77
102
{ACAD_REACTORS
330
76
102
}
330
A
100
AcDbSymbolTableRecord
100
AcDbDimStyleTableRecord
  2
SLDDIMSTYLE0
 70
     0
 41
0.26
 44
0.0
 45
0.000000001
 78
    12
 79
     3
140
0.25
147
0.0625
148
0.000000001
170
     1
172
     1
173
     1
178
     0
271
     6
272
     0
276
     2
277
     5
284
    12
289
     0
340
6D
  0
DIMSTYLE
105
9B
102
{ACAD_REACTORS
330
9A
102
}
330
A
100
AcDbSymbolTableRecord
100
AcDbDimStyleTableRecord
  2
SLDDIMSTYLE1
 70
     0
 41
0.26
 44
0.0
 45
0.000000001
 78
    12
 79
     3
140
0.25
147
0.0625
148
0.000000001
170
     1
173
     1
178
     0
271
     6
272
     0
276
     2
277
     5
284
    12
340
6D
  0
DIMSTYLE
105
B0
102
{ACAD_REACTORS
330
AF
330
C4
102
}
330
A
100
AcDbSymbolTableRecord
100
AcDbDimStyleTableRecord
  2
SLDDIMSTYLE2
 70
     0
 41
0.26
 44
0.0
 45
0.000000001
 78
    12
 79
     3
140
0.25
147
0.0625
148
0.000000001
170
     1
173
     1
178
     0
271
     0
272
     0
276
     2
277
     5
284
    12
340
6D
  0
DIMSTYLE
105
D9
102
{ACAD_REACTORS
330
D8
102
}
330
A
100
AcDbSymbolTableRecord
100
AcDbDimStyleTableRecord
  2
SLDDIMSTYLE3
 70
     0
 41
0.26
 44
0.0
 45
0.000000001
 78
    12
 79
     3
140
0.25
141
0.0
147
0.0625
148
0.000000001
170
     1
173
     1
178
     0
271
     0
272
     0
276
     2
277
     5
284
    12
340
6D
  0
DIMSTYLE
105
EE
330
A
100
AcDbSymbolTableRecord
100
AcDbDimStyleTableRecord
  2
SLDDIMSTYLE4
 70
     0
 41
0.26
 44
0.0
 45
0.000000001
146
0.26
147
0.0
173
     1
178
     0
271
     0
272
     0
276
     2
277
     5
340
11
  0
ENDTAB
  0
TABLE
  2
BLOCK_RECORD
  5
1
330
0
100
AcDbSymbolTable
 70
     8
  0
BLOCK_RECORD
  5
1F
330
1
100
AcDbSymbolTableRecord
100
AcDbBlockTableRecord
  2
*Model_Space
340
22
  0
BLOCK_RECORD
  5
1B
330
1
100
AcDbSymbolTableRecord
100
AcDbBlockTableRecord
  2
*Paper_Space
340
1E
  0
BLOCK_RECORD
  5
23
330
1
100
AcDbSymbolTableRecord
100
AcDbBlockTableRecord
  2
*Paper_Space0
340
26
  0
BLOCK_RECORD
  5
78
330
1
100
AcDbSymbolTableRecord
100
AcDbBlockTableRecord
  2
_D
340
0
  0
BLOCK_RECORD
  5
9C
330
1
100
AcDbSymbolTableRecord
100
AcDbBlockTableRecord
  2
_D_1
340
0
  0
BLOCK_RECORD
  5
B1
330
1
100
AcDbSymbolTableRecord
100
AcDbBlockTableRecord
  2
_D_2
340
0
  0
BLOCK_RECORD
  5
C5
330
1
100
AcDbSymbolTableRecord
100
AcDbBlockTableRecord
  2
_D_3
340
0
  0
BLOCK_RECORD
  5
DA
330
1
100
AcDbSymbolTableRecord
100
AcDbBlockTableRecord
  2
_D_4
340
0
  0
BLOCK_RECORD
  5
F0
330
1
100
AcDbSymbolTableRecord
100
AcDbBlockTableRecord
  2
SW_CENTERMARKSYMBOL_0
340
0
102
{BLKREFS
331
FB
102
}
  0
BLOCK_RECORD
  5
FC
330
1
100
AcDbSymbolTableRecord
100
AcDbBlockTableRecord
  2
SW_CENTERMARKSYMBOL_1
340
0
102
{BLKREFS
331
107
102
}
  0
ENDTAB
  0
ENDSEC
  0
SECTION
  2
BLOCKS
  0
BLOCK
  5
20
330
1F
100
AcDbEntity
  8
0
100
AcDbBlockBegin
  2
*Model_Space
 70
     0
 10
0.0
 20
0.0
 30
0.0
  3
*Model_Space
  1

  0
ENDBLK
  5
21
330
1F
100
AcDbEntity
  8
0
100
AcDbBlockEnd
  0
BLOCK
  5
1C
330
1B
100
AcDbEntity
 67
     1
  8
0
100
AcDbBlockBegin
  2
*Paper_Space
 70
     0
 10
0.0
 20
0.0
 30
0.0
  3
*Paper_Space
  1

  0
ENDBLK
  5
1D
330
1B
100
AcDbEntity
 67
     1
  8
0
100
AcDbBlockEnd
  0
BLOCK
  5
24
330
23
100
AcDbEntity
  8
0
100
AcDbBlockBegin
  2
*Paper_Space0
 70
     0
 10
0.0
 20
0.0
 30
0.0
  3
*Paper_Space0
  1

  0
ENDBLK
  5
25
330
23
100
AcDbEntity
  8
0
100
AcDbBlockEnd
  0
BLOCK
  5
79
330
78
100
AcDbEntity
  8
0
100
AcDbBlockBegin
  2
_D
 70
     0
 10
0.0
 20
0.0
 30
0.0
  3
_D
  1

  0
SOLID
  5
7B
330
78
100
AcDbEntity
  8
SLD-0
100
AcDbTrace
 10
3.5500702516
 20
10.2653291859
 30
0.0
 11
3.2900702516
 21
10.3053291859
 31
0.0
 12
3.2900702516
 22
10.2253291859
 32
0.0
 13
3.2900702516
 23
10.2253291859
 33
0.0
  0
SOLID
  5
7C
330
78
100
AcDbEntity
  8
SLD-0
100
AcDbTrace
 10
3.9250702516
 20
10.2653291859
 30
0.0
 11
4.1850702516
 21
10.2253291859
 31
0.0
 12
4.1850702516
 22
10.3053291859
 32
0.0
 13
4.1850702516
 23
10.3053291859
 33
0.0
  0
LINE
  5
7D
330
78
100
AcDbEntity
  8
SLD-0
100
AcDbLine
 10
1.8109209997
 20
10.2634194246
 30
0.0
 11
1.7347491255
 21
10.2634194246
 31
0.0
  0
LINE
  5
7E
330
78
100
AcDbEntity
  8
SLD-0
100
AcDbLine
 10
1.7347491255
 20
10.2634194246
 30
0.0
 11
1.7347491255
 21
9.8665444127
 31
0.0
  0
LINE
  5
7F
330
78
100
AcDbEntity
  8
SLD-0
100
AcDbLine
 10
1.7347491255
 20
9.8665444127
 30
0.0
 11
1.8109209997
 21
9.8665444127
 31
0.0
  0
LINE
  5
80
330
78
100
AcDbEntity
  8
SLD-0
100
AcDbLine
 10
2.8053654651
 20
10.2634194246
 30
0.0
 11
2.8815373394
 21
10.2634194246
 31
0.0
  0
LINE
  5
81
330
78
100
AcDbEntity
  8
SLD-0
100
AcDbLine
 10
2.8815373394
 20
10.2634194246
 30
0.0
 11
2.8815373394
 21
9.8665444127
 31
0.0
  0
LINE
  5
82
330
78
100
AcDbEntity
  8
SLD-0
100
AcDbLine
 10
2.8815373394
 20
9.8665444127
 30
0.0
 11
2.8053654651
 21
9.8665444127
 31
0.0
  0
LINE
  5
83
330
78
100
AcDbEntity
  8
SLD-0
100
AcDbLine
 10
3.5500702516
 20
9.5779276111
 30
0.0
 11
3.5500702516
 21
10.5153291859
 31
0.0
  0
LINE
  5
84
330
78
100
AcDbEntity
  8
SLD-0
100
AcDbLine
 10
3.9250702516
 20
9.5279276111
 30
0.0
 11
3.9250702516
 21
10.5153291859
 31
0.0
  0
LINE
  5
85
330
78
100
AcDbEntity
  8
SLD-0
100
AcDbLine
 10
3.5500702516
 20
10.2653291859
 30
0.0
 11
3.1007646731
 21
10.2653291859
 31
0.0
  0
LINE
  5
86
330
78
100
AcDbEntity
  8
SLD-0
100
AcDbLine
 10
3.9250702516
 20
10.2653291859
 30
0.0
 11
4.4250702516
 21
10.2653291859
 31
0.0
  0
MTEXT
  5
87
330
78
100
AcDbEntity
  8
SLD-0
100
AcDbMText
 10
1.6599661399
 20
10.6402870796
 30
0.0
 40
0.25
 41
0.0
 71
     1
 72
     1
  1

  7
SLDTEXTSTYLE0
 73
     1
 44
1.0
  0
MTEXT
  5
88
330
78
100
AcDbEntity
  8
SLD-0
100
AcDbMText
 10
1.9989418093
 20
10.6364676167
 30
0.0
 40
0.25
 41
0.0
 71
     1
 72
     1
  1
3/8"
  7
SLDTEXTSTYLE0
 73
     1
 44
1.0
  0
MTEXT
  5
89
330
78
100
AcDbEntity
  8
SLD-0
100
AcDbMText
 10
1.8109209997
 20
10.1888113751
 30
0.0
 40
0.25
 41
0.0
 71
     1
 72
     1
  1
10mm
  7
SLDTEXTSTYLE0
 73
     1
 44
1.0
  0
MTEXT
  5
8A
330
78
100
AcDbEntity
  8
SLD-0
100
AcDbMText
 10
3.0514591586
 20
10.6402870796
 30
0.0
 40
0.25
 41
0.0
 71
     1
 72
     1
  1

  7
SLDTEXTSTYLE0
 73
     1
 44
1.0
  0
ENDBLK
  5
7A
330
78
100
AcDbEntity
  8
0
100
AcDbBlockEnd
  0
BLOCK
  5
9D
330
9C
100
AcDbEntity
  8
0
100
AcDbBlockBegin
  2
_D_1
 70
     0
 10
0.0
 20
0.0
 30
0.0
  3
_D_1
  1

  0
SOLID
  5
9F
330
9C
100
AcDbEntity
  8
SLD-0
100
AcDbTrace
 10
8.5866846684
 20
10.2653291859
 30
0.0
 11
8.8466846684
 21
10.2253291859
 31
0.0
 12
8.8466846684
 22
10.3053291859
 32
0.0
 13
8.8466846684
 23
10.3053291859
 33
0.0
  0
SOLID
  5
A0
330
9C
100
AcDbEntity
  8
SLD-0
100
AcDbTrace
 10
12.0866846684
 20
10.2653291859
 30
0.0
 11
11.8266846684
 21
10.3053291859
 31
0.0
 12
11.8266846684
 22
10.2253291859
 32
0.0
 13
11.8266846684
 23
10.2253291859
 33
0.0
  0
LINE
  5
A1
330
9C
100
AcDbEntity
  8
SLD-0
100
AcDbLine
 10
9.8394624724
 20
10.2634194246
 30
0.0
 11
9.7632905982
 21
10.2634194246
 31
0.0
  0
LINE
  5
A2
330
9C
100
AcDbEntity
  8
SLD-0
100
AcDbLine
 10
9.7632905982
 20
10.2634194246
 30
0.0
 11
9.7632905982
 21
9.8665444127
 31
0.0
  0
LINE
  5
A3
330
9C
100
AcDbEntity
  8
SLD-0
100
AcDbLine
 10
9.7632905982
 20
9.8665444127
 30
0.0
 11
9.8394624724
 21
9.8665444127
 31
0.0
  0
LINE
  5
A4
330
9C
100
AcDbEntity
  8
SLD-0
100
AcDbLine
 10
10.8339069378
 20
10.2634194246
 30
0.0
 11
10.910078812
 21
10.2634194246
 31
0.0
  0
LINE
  5
A5
330
9C
100
AcDbEntity
  8
SLD-0
100
AcDbLine
 10
10.910078812
 20
10.2634194246
 30
0.0
 11
10.910078812
 21
9.8665444127
 31
0.0
  0
LINE
  5
A6
330
9C
100
AcDbEntity
  8
SLD-0
100
AcDbLine
 10
10.910078812
 20
9.8665444127
 30
0.0
 11
10.8339069378
 21
9.8665444127
 31
0.0
  0
LINE
  5
A7
330
9C
100
AcDbEntity
  8
SLD-0
100
AcDbLine
 10
8.5866846684
 20
7.2951276111
 30
0.0
 11
8.5866846684
 21
10.5153291859
 31
0.0
  0
LINE
  5
A8
330
9C
100
AcDbEntity
  8
SLD-0
100
AcDbLine
 10
12.0866846684
 20
7.2951276111
 30
0.0
 11
12.0866846684
 21
10.5153291859
 31
0.0
  0
LINE
  5
A9
330
9C
100
AcDbEntity
  8
SLD-0
100
AcDbLine
 10
8.5866846684
 20
10.2653291859
 30
0.0
 11
9.5440631911
 21
10.2653291859
 31
0.0
  0
LINE
  5
AA
330
9C
100
AcDbEntity
  8
SLD-0
100
AcDbLine
 10
12.0866846684
 20
10.2653291859
 30
0.0
 11
11.1293061458
 21
10.2653291859
 31
0.0
  0
MTEXT
  5
AB
330
9C
100
AcDbEntity
  8
SLD-0
100
AcDbMText
 10
9.6885076126
 20
10.6402870796
 30
0.0
 40
0.25
 41
0.0
 71
     1
 72
     1
  1

  7
SLDTEXTSTYLE0
 73
     1
 44
1.0
  0
MTEXT
  5
AC
330
9C
100
AcDbEntity
  8
SLD-0
100
AcDbMText
 10
9.8889416425
 20
10.6364676167
 30
0.0
 40
0.25
 41
0.0
 71
     1
 72
     1
  1
3 1/2"
  7
SLDTEXTSTYLE0
 73
     1
 44
1.0
  0
MTEXT
  5
AD
330
9C
100
AcDbEntity
  8
SLD-0
100
AcDbMText
 10
9.8394624724
 20
10.1888113751
 30
0.0
 40
0.25
 41
0.0
 71
     1
 72
     1
  1
89mm
  7
SLDTEXTSTYLE0
 73
     1
 44
1.0
  0
MTEXT
  5
AE
330
9C
100
AcDbEntity
  8
SLD-0
100
AcDbMText
 10
11.0800006313
 20
10.6402870796
 30
0.0
 40
0.25
 41
0.0
 71
     1
 72
     1
  1

  7
SLDTEXTSTYLE0
 73
     1
 44
1.0
  0
ENDBLK
  5
9E
330
9C
100
AcDbEntity
  8
0
100
AcDbBlockEnd
  0
BLOCK
  5
B2
330
B1
100
AcDbEntity
  8
0
100
AcDbBlockBegin
  2
_D_2
 70
     0
 10
0.0
 20
0.0
 30
0.0
  3
_D_2
  1

  0
SOLID
  5
B4
330
B1
100
AcDbEntity
  8
SLD-0
100
AcDbTrace
 10
7.8366846684
 20
11.2102110756
 30
0.0
 11
8.0966846684
 21
11.1702110756
 31
0.0
 12
8.0966846684
 22
11.2502110756
 32
0.0
 13
8.0966846684
 23
11.2502110756
 33
0.0
  0
SOLID
  5
B5
330
B1
100
AcDbEntity
  8
SLD-0
100
AcDbTrace
 10
12.8366846684
 20
11.2102110756
 30
0.0
 11
12.5766846684
 21
11.2502110756
 31
0.0
 12
12.5766846684
 22
11.1702110756
 32
0.0
 13
12.5766846684
 23
11.1702110756
 33
0.0
  0
LINE
  5
B6
330
B1
100
AcDbEntity
  8
SLD-0
100
AcDbLine
 10
9.7471013794
 20
11.2083013144
 30
0.0
 11
9.6709295051
 21
11.2083013144
 31
0.0
  0
LINE
  5
B7
330
B1
100
AcDbEntity
  8
SLD-0
100
AcDbLine
 10
9.6709295051
 20
11.2083013144
 30
0.0
 11
9.6709295051
 21
10.8114263024
 31
0.0
  0
LINE
  5
B8
330
B1
100
AcDbEntity
  8
SLD-0
100
AcDbLine
 10
9.6709295051
 20
10.8114263024
 30
0.0
 11
9.7471013794
 21
10.8114263024
 31
0.0
  0
LINE
  5
B9
330
B1
100
AcDbEntity
  8
SLD-0
100
AcDbLine
 10
10.9262680309
 20
11.2083013144
 30
0.0
 11
11.0024399051
 21
11.2083013144
 31
0.0
  0
LINE
  5
BA
330
B1
100
AcDbEntity
  8
SLD-0
100
AcDbLine
 10
11.0024399051
 20
11.2083013144
 30
0.0
 11
11.0024399051
 21
10.8114263024
 31
0.0
  0
LINE
  5
BB
330
B1
100
AcDbEntity
  8
SLD-0
100
AcDbLine
 10
11.0024399051
 20
10.8114263024
 30
0.0
 11
10.9262680309
 21
10.8114263024
 31
0.0
  0
LINE
  5
BC
330
B1
100
AcDbEntity
  8
SLD-0
100
AcDbLine
 10
7.8366846684
 20
9.5779276111
 30
0.0
 11
7.8366846684
 21
11.4602110756
 31
0.0
  0
LINE
  5
BD
330
B1
100
AcDbEntity
  8
SLD-0
100
AcDbLine
 10
12.8366846684
 20
9.5779276111
 30
0.0
 11
12.8366846684
 21
11.4602110756
 31
0.0
  0
LINE
  5
BE
330
B1
100
AcDbEntity
  8
SLD-0
100
AcDbLine
 10
7.8366846684
 20
11.2102110756
 30
0.0
 11
9.451702098
 21
11.2102110756
 31
0.0
  0
LINE
  5
BF
330
B1
100
AcDbEntity
  8
SLD-0
100
AcDbLine
 10
12.8366846684
 20
11.2102110756
 30
0.0
 11
11.2216672388
 21
11.2102110756
 31
0.0
  0
MTEXT
  5
C0
330
B1
100
AcDbEntity
  8
SLD-0
100
AcDbMText
 10
9.5961465195
 20
11.5851689694
 30
0.0
 40
0.25
 41
0.0
 71
     1
 72
     1
  1

  7
SLDTEXTSTYLE0
 73
     1
 44
1.0
  0
MTEXT
  5
C1
330
B1
100
AcDbEntity
  8
SLD-0
100
AcDbMText
 10
10.1927610752
 20
11.5813495064
 30
0.0
 40
0.25
 41
0.0
 71
     1
 72
     1
  1
5"
  7
SLDTEXTSTYLE0
 73
     1
 44
1.0
  0
MTEXT
  5
C2
330
B1
100
AcDbEntity
  8
SLD-0
100
AcDbMText
 10
9.7471013794
 20
11.1336932649
 30
0.0
 40
0.25
 41
0.0
 71
     1
 72
     1
  1
127mm
  7
SLDTEXTSTYLE0
 73
     1
 44
1.0
  0
MTEXT
  5
C3
330
B1
100
AcDbEntity
  8
SLD-0
100
AcDbMText
 10
11.1723617243
 20
11.5851689694
 30
0.0
 40
0.25
 41
0.0
 71
     1
 72
     1
  1

  7
SLDTEXTSTYLE0
 73
     1
 44
1.0
  0
ENDBLK
  5
B3
330
B1
100
AcDbEntity
  8
0
100
AcDbBlockEnd
  0
BLOCK
  5
C6
330
C5
100
AcDbEntity
  8
0
100
AcDbBlockBegin
  2
_D_3
 70
     0
 10
0.0
 20
0.0
 30
0.0
  3
_D_3
  1

  0
SOLID
  5
C8
330
C5
100
AcDbEntity
  8
SLD-0
100
AcDbTrace
 10
6.5768421487
 20
9.4779276111
 30
0.0
 11
6.5368421487
 21
9.2179276111
 31
0.0
 12
6.6168421487
 22
9.2179276111
 32
0.0
 13
6.6168421487
 23
9.2179276111
 33
0.0
  0
SOLID
  5
C9
330
C5
100
AcDbEntity
  8
SLD-0
100
AcDbTrace
 10
6.5768421487
 20
4.4779276111
 30
0.0
 11
6.6168421487
 21
4.7379276111
 31
0.0
 12
6.5368421487
 22
4.7379276111
 32
0.0
 13
6.5368421487
 23
4.7379276111
 33
0.0
  0
LINE
  5
CA
330
C5
100
AcDbEntity
  8
SLD-0
100
AcDbLine
 10
5.9872588597
 20
6.9760178498
 30
0.0
 11
5.9110869854
 21
6.9760178498
 31
0.0
  0
LINE
  5
CB
330
C5
100
AcDbEntity
  8
SLD-0
100
AcDbLine
 10
5.9110869854
 20
6.9760178498
 30
0.0
 11
5.9110869854
 21
6.5791428379
 31
0.0
  0
LINE
  5
CC
330
C5
100
AcDbEntity
  8
SLD-0
100
AcDbLine
 10
5.9110869854
 20
6.5791428379
 30
0.0
 11
5.9872588597
 21
6.5791428379
 31
0.0
  0
LINE
  5
CD
330
C5
100
AcDbEntity
  8
SLD-0
100
AcDbLine
 10
7.1664255112
 20
6.9760178498
 30
0.0
 11
7.2425973854
 21
6.9760178498
 31
0.0
  0
LINE
  5
CE
330
C5
100
AcDbEntity
  8
SLD-0
100
AcDbLine
 10
7.2425973854
 20
6.9760178498
 30
0.0
 11
7.2425973854
 21
6.5791428379
 31
0.0
  0
LINE
  5
CF
330
C5
100
AcDbEntity
  8
SLD-0
100
AcDbLine
 10
7.2425973854
 20
6.5791428379
 30
0.0
 11
7.1664255112
 21
6.5791428379
 31
0.0
  0
LINE
  5
D0
330
C5
100
AcDbEntity
  8
SLD-0
100
AcDbLine
 10
7.7366846684
 20
9.4779276111
 30
0.0
 11
6.3268421487
 21
9.4779276111
 31
0.0
  0
LINE
  5
D1
330
C5
100
AcDbEntity
  8
SLD-0
100
AcDbLine
 10
7.7366846684
 20
4.4779276111
 30
0.0
 11
6.3268421487
 21
4.4779276111
 31
0.0
  0
LINE
  5
D2
330
C5
100
AcDbEntity
  8
SLD-0
100
AcDbLine
 10
6.5768421487
 20
9.4779276111
 30
0.0
 11
6.5768421487
 21
7.4274935543
 31
0.0
  0
LINE
  5
D3
330
C5
100
AcDbEntity
  8
SLD-0
100
AcDbLine
 10
6.5768421487
 20
4.4779276111
 30
0.0
 11
6.5768421487
 21
6.5283616678
 31
0.0
  0
MTEXT
  5
D4
330
C5
100
AcDbEntity
  8
SLD-0
100
AcDbMText
 10
5.8363039999
 20
7.3528855048
 30
0.0
 40
0.25
 41
0.0
 71
     1
 72
     1
  1

  7
SLDTEXTSTYLE0
 73
     1
 44
1.0
  0
MTEXT
  5
D5
330
C5
100
AcDbEntity
  8
SLD-0
100
AcDbMText
 10
6.4329185555
 20
7.3490660418
 30
0.0
 40
0.25
 41
0.0
 71
     1
 72
     1
  1
5"
  7
SLDTEXTSTYLE0
 73
     1
 44
1.0
  0
MTEXT
  5
D6
330
C5
100
AcDbEntity
  8
SLD-0
100
AcDbMText
 10
5.9872588597
 20
6.9014098003
 30
0.0
 40
0.25
 41
0.0
 71
     1
 72
     1
  1
127mm
  7
SLDTEXTSTYLE0
 73
     1
 44
1.0
  0
MTEXT
  5
D7
330
C5
100
AcDbEntity
  8
SLD-0
100
AcDbMText
 10
7.4125192046
 20
7.3528855048
 30
0.0
 40
0.25
 41
0.0
 71
     1
 72
     1
  1

  7
SLDTEXTSTYLE0
 73
     1
 44
1.0
  0
ENDBLK
  5
C7
330
C5
100
AcDbEntity
  8
0
100
AcDbBlockEnd
  0
BLOCK
  5
DB
330
DA
100
AcDbEntity
  8
0
100
AcDbBlockBegin
  2
_D_4
 70
     0
 10
0.0
 20
0.0
 30
0.0
  3
_D_4
  1

  0
SOLID
  5
DD
330
DA
100
AcDbEntity
  8
SLD-0
100
AcDbTrace
 10
10.5661038284
 20
6.6333077494
 30
0.0
 11
10.676886889
 21
6.3947137145
 31
0.0
 12
10.743480099
 22
6.4390459193
 32
0.0
 13
10.743480099
 23
6.4390459193
 33
0.0
  0
LINE
  5
DE
330
DA
100
AcDbEntity
  8
SLD-0
100
AcDbLine
 10
14.7242581802
 20
4.0634201486
 30
0.0
 11
14.648086306
 21
4.0634201486
 31
0.0
  0
LINE
  5
DF
330
DA
100
AcDbEntity
  8
SLD-0
100
AcDbLine
 10
14.648086306
 20
4.0634201486
 30
0.0
 11
14.648086306
 21
3.6665451366
 31
0.0
  0
LINE
  5
E0
330
DA
100
AcDbEntity
  8
SLD-0
100
AcDbLine
 10
14.648086306
 20
3.6665451366
 30
0.0
 11
14.7242581802
 21
3.6665451366
 31
0.0
  0
LINE
  5
E1
330
DA
100
AcDbEntity
  8
SLD-0
100
AcDbLine
 10
15.7187026457
 20
4.0634201486
 30
0.0
 11
15.7948745199
 21
4.0634201486
 31
0.0
  0
LINE
  5
E2
330
DA
100
AcDbEntity
  8
SLD-0
100
AcDbLine
 10
15.7948745199
 20
4.0634201486
 30
0.0
 11
15.7948745199
 21
3.6665451366
 31
0.0
  0
LINE
  5
E3
330
DA
100
AcDbEntity
  8
SLD-0
100
AcDbLine
 10
15.7948745199
 20
3.6665451366
 30
0.0
 11
15.7187026457
 21
3.6665451366
 31
0.0
  0
LINE
  5
E4
330
DA
100
AcDbEntity
  8
SLD-0
100
AcDbLine
 10
10.5661038284
 20
6.6333077494
 30
0.0
 11
12.7070359723
 21
3.417326401
 31
0.0
  0
LINE
  5
E5
330
DA
100
AcDbEntity
  8
SLD-0
100
AcDbLine
 10
12.7070359723
 20
3.417326401
 30
0.0
 11
13.4359160483
 21
3.417326401
 31
0.0
  0
MTEXT
  5
E6
330
DA
100
AcDbEntity
  8
SLD-0
100
AcDbMText
 10
13.2070359723
 20
3.9849926545
 30
0.0
 40
0.25
 41
0.0
 71
     1
 72
     1
  1
%%c
  7
SLDTEXTSTYLE0
 73
     1
 44
1.0
  0
MTEXT
  5
E7
330
DA
100
AcDbEntity
  8
SLD-0
100
AcDbMText
 10
13.5840672135
 20
3.9888120991
 30
0.0
 40
0.25
 41
0.0
 71
     1
 72
     1
  1
13/16"
  7
SLDTEXTSTYLE0
 73
     1
 44
1.0
  0
MTEXT
  5
E8
330
DA
100
AcDbEntity
  8
SLD-0
100
AcDbMText
 10
14.7242581802
 20
3.9888120991
 30
0.0
 40
0.25
 41
0.0
 71
     1
 72
     1
  1
21mm
  7
SLDTEXTSTYLE0
 73
     1
 44
1.0
  0
MTEXT
  5
E9
330
DA
100
AcDbEntity
  8
SLD-0
100
AcDbMText
 10
15.9647965041
 20
3.9888120991
 30
0.0
 40
0.25
 41
0.0
 71
     1
 72
     1
  1
THRU
  7
SLDTEXTSTYLE0
 73
     1
 44
1.0
  0
MTEXT
  5
EA
330
DA
100
AcDbEntity
  8
SLD-0
100
AcDbMText
 10
13.4359160483
 20
3.5411558438
 30
0.0
 40
0.25
 41
0.0
 71
     1
 72
     1
  1
FIXTURE MOUNTING
  7
SLDTEXTSTYLE0
 73
     1
 44
1.0
  0
MTEXT
  5
EB
330
DA
100
AcDbEntity
  8
SLD-0
100
AcDbMText
 10
14.5555340444
 20
3.1442808318
 30
0.0
 40
0.25
 41
0.0
 71
     1
 72
     1
  1
HOLE
  7
SLDTEXTSTYLE0
 73
     1
 44
1.0
  0
ENDBLK
  5
DC
330
DA
100
AcDbEntity
  8
0
100
AcDbBlockEnd
  0
BLOCK
  5
F1
330
F0
100
AcDbEntity
  8
0
100
AcDbBlockBegin
  2
SW_CENTERMARKSYMBOL_0
 70
     0
 10
0.0
 20
0.0
 30
0.0
  3
SW_CENTERMARKSYMBOL_0
  1

  0
LINE
  5
F3
330
F0
100
AcDbEntity
  8
SLD-0
 62
     0
100
AcDbLine
 10
0.0
 20
0.0
 30
0.0
 11
0.0
 21
0.1
 31
0.0
  0
LINE
  5
F4
330
F0
100
AcDbEntity
  8
SLD-0
 62
     0
100
AcDbLine
 10
0.0
 20
0.0
 30
0.0
 11
-0.1
 21
0.0
 31
0.0
  0
LINE
  5
F5
330
F0
100
AcDbEntity
  8
SLD-0
 62
     0
100
AcDbLine
 10
0.0
 20
0.0
 30
0.0
 11
0.0
 21
-0.1
 31
0.0
  0
LINE
  5
F6
330
F0
100
AcDbEntity
  8
SLD-0
 62
     0
100
AcDbLine
 10
0.0
 20
0.0
 30
0.0
 11
0.1
 21
0.0
 31
0.0
  0
LINE
  5
F7
330
F0
100
AcDbEntity
  8
SLD-0
 62
     0
100
AcDbLine
 10
0.0
 20
0.2
 30
0.0
 11
0.0
 21
0.2172
 31
0.0
  0
LINE
  5
F8
330
F0
100
AcDbEntity
  8
SLD-0
 62
     0
100
AcDbLine
 10
-0.2
 20
0.0
 30
0.0
 11
-0.2172
 21
0.0
 31
0.0
  0
LINE
  5
F9
330
F0
100
AcDbEntity
  8
SLD-0
 62
     0
100
AcDbLine
 10
0.0
 20
-0.2
 30
0.0
 11
0.0
 21
-0.2172
 31
0.0
  0
LINE
  5
FA
330
F0
100
AcDbEntity
  8
SLD-0
 62
     0
100
AcDbLine
 10
0.2
 20
0.0
 30
0.0
 11
1.7616767116
 21
0.0
 31
0.0
  0
ENDBLK
  5
F2
330
F0
100
AcDbEntity
  8
0
100
AcDbBlockEnd
  0
BLOCK
  5
FD
330
FC
100
AcDbEntity
  8
0
100
AcDbBlockBegin
  2
SW_CENTERMARKSYMBOL_1
 70
     0
 10
0.0
 20
0.0
 30
0.0
  3
SW_CENTERMARKSYMBOL_1
  1

  0
LINE
  5
FF
330
FC
100
AcDbEntity
  8
SLD-0
 62
     0
100
AcDbLine
 10
0.0
 20
0.0
 30
0.0
 11
0.0
 21
0.1
 31
0.0
  0
LINE
  5
100
330
FC
100
AcDbEntity
  8
SLD-0
 62
     0
100
AcDbLine
 10
0.0
 20
0.0
 30
0.0
 11
-0.1
 21
0.0
 31
0.0
  0
LINE
  5
101
330
FC
100
AcDbEntity
  8
SLD-0
 62
     0
100
AcDbLine
 10
0.0
 20
0.0
 30
0.0
 11
0.0
 21
-0.1
 31
0.0
  0
LINE
  5
102
330
FC
100
AcDbEntity
  8
SLD-0
 62
     0
100
AcDbLine
 10
0.0
 20
0.0
 30
0.0
 11
0.1
 21
0.0
 31
0.0
  0
LINE
  5
103
330
FC
100
AcDbEntity
  8
SLD-0
 62
     0
100
AcDbLine
 10
0.0
 20
0.2
 30
0.0
 11
0.0
 21
0.2172
 31
0.0
  0
LINE
  5
104
330
FC
100
AcDbEntity
  8
SLD-0
 62
     0
100
AcDbLine
 10
-0.2
 20
0.0
 30
0.0
 11
-1.7723738608
 21
0.0
 31
0.0
  0
LINE
  5
105
330
FC
100
AcDbEntity
  8
SLD-0
 62
     0
100
AcDbLine
 10
0.0
 20
-0.2
 30
0.0
 11
0.0
 21
-0.2172
 31
0.0
  0
LINE
  5
106
330
FC
100
AcDbEntity
  8
SLD-0
 62
     0
100
AcDbLine
 10
0.2
 20
0.0
 30
0.0
 11
0.2172
 21
0.0
 31
0.0
  0
ENDBLK
  5
FE
330
FC
100
AcDbEntity
  8
0
100
AcDbBlockEnd
  0
ENDSEC
  0
SECTION
  2
ENTITIES
  0
MTEXT
  5
6E
330
1F
100
AcDbEntity
  8
SLD-0
100
AcDbMText
 10
17.5084710744
 20
1.6865019925
 30
0.0
 40
0.25
 41
0.0
 71
     1
 72
     1
  1
BC8
  7
SLDTEXTSTYLE0
 73
     1
 44
1.0
  0
LINE
  5
6F
330
1F
100
AcDbEntity
  8
0
  6
Continuous
 62
     7
370
    25
100
AcDbLine
 10
3.5500702516
 20
9.4779276111
 30
0.0
 11
3.5500702516
 21
4.4779276111
 31
0.0
  0
LINE
  5
70
330
1F
100
AcDbEntity
  8
0
  6
Continuous
 62
     7
370
    25
100
AcDbLine
 10
3.8750702516
 20
9.4779276111
 30
0.0
 11
3.5500702516
 21
9.4779276111
 31
0.0
  0
LINE
  5
71
330
1F
100
AcDbEntity
  8
0
  6
Continuous
 62
     7
370
    25
100
AcDbLine
 10
3.8750702516
 20
4.4779276111
 30
0.0
 11
3.8750702516
 21
9.4779276111
 31
0.0
  0
LINE
  5
72
330
1F
100
AcDbEntity
  8
0
  6
Continuous
 62
     7
370
    25
100
AcDbLine
 10
3.8750702516
 20
4.4779276111
 30
0.0
 11
3.5500702516
 21
4.4779276111
 31
0.0
  0
LINE
  5
73
330
1F
100
AcDbEntity
  8
0
  6
Continuous
 62
     7
370
    25
100
AcDbLine
 10
3.9250702516
 20
9.4279276111
 30
0.0
 11
3.9250702516
 21
4.5279276111
 31
0.0
  0
LINE
  5
74
330
1F
100
AcDbEntity
  8
0
  6
Continuous
 62
     7
370
    25
100
AcDbLine
 10
3.9250702516
 20
4.5279276111
 30
0.0
 11
3.8750702516
 21
4.4779276111
 31
0.0
  0
LINE
  5
75
330
1F
100
AcDbEntity
  8
0
  6
Continuous
 62
     7
370
    25
100
AcDbLine
 10
3.9250702516
 20
9.4279276111
 30
0.0
 11
3.8750702516
 21
9.4779276111
 31
0.0
  0
DIMENSION
  5
76
330
1F
100
AcDbEntity
  8
SLD-0
100
AcDbDimension
  2
_D
 10
3.9250702516
 20
10.2653291859
 30
0.0
 11
2.3081431958
 21
10.2653291859
 31
0.0
 70
   160
  1
<>
 71
     2
 42
-1.0
  3
SLDDIMSTYLE0
100
AcDbAlignedDimension
 13
3.5500702516
 23
9.4779276111
 33
0.0
 14
3.9250702516
 24
9.4279276111
 34
0.0
100
AcDbRotatedDimension
  0
LINE
  5
8B
330
1F
100
AcDbEntity
  8
0
  6
Continuous
 62
     7
370
    25
100
AcDbLine
 10
12.7866846684
 20
9.4279276111
 30
0.0
 11
7.8866846684
 21
9.4279276111
 31
0.0
  0
LINE
  5
8C
330
1F
100
AcDbEntity
  8
0
  6
Continuous
 62
     7
370
    25
100
AcDbLine
 10
7.8866846684
 20
9.4279276111
 30
0.0
 11
7.8366846684
 21
9.4779276111
 31
0.0
  0
LINE
  5
8D
330
1F
100
AcDbEntity
  8
0
  6
Continuous
 62
     7
370
    25
100
AcDbLine
 10
7.8366846684
 20
9.4779276111
 30
0.0
 11
12.8366846684
 21
9.4779276111
 31
0.0
  0
LINE
  5
8E
330
1F
100
AcDbEntity
  8
0
  6
Continuous
 62
     7
370
    25
100
AcDbLine
 10
12.8366846684
 20
9.4779276111
 30
0.0
 11
12.7866846684
 21
9.4279276111
 31
0.0
  0
LINE
  5
8F
330
1F
100
AcDbEntity
  8
0
  6
Continuous
 62
     7
370
    25
100
AcDbLine
 10
12.7866846684
 20
4.5279276111
 30
0.0
 11
12.7866846684
 21
9.4279276111
 31
0.0
  0
LINE
  5
90
330
1F
100
AcDbEntity
  8
0
  6
Continuous
 62
     7
370
    25
100
AcDbLine
 10
7.8866846684
 20
4.5279276111
 30
0.0
 11
12.7866846684
 21
4.5279276111
 31
0.0
  0
LINE
  5
91
330
1F
100
AcDbEntity
  8
0
  6
Continuous
 62
     7
370
    25
100
AcDbLine
 10
7.8866846684
 20
9.4279276111
 30
0.0
 11
7.8866846684
 21
4.5279276111
 31
0.0
  0
CIRCLE
  5
92
330
1F
100
AcDbEntity
  8
0
  6
Continuous
 62
     7
370
    25
100
AcDbCircle
 10
8.5866846684
 20
6.9779276111
 30
0.0
 40
0.1171999999999986
  0
CIRCLE
  5
93
330
1F
100
AcDbEntity
  8
0
  6
Continuous
 62
     7
370
    25
100
AcDbCircle
 10
12.0866846684
 20
6.9779276111
 30
0.0
 40
0.1172000000000022
  0
CIRCLE
  5
94
330
1F
100
AcDbEntity
  8
0
  6
Continuous
 62
     7
370
    25
100
AcDbCircle
 10
10.3366846684
 20
6.9779276111
 30
0.0
 40
0.4139999999999997
  0
LINE
  5
95
330
1F
100
AcDbEntity
  8
0
  6
Continuous
 62
     7
370
    25
100
AcDbLine
 10
12.8366846684
 20
9.4779276111
 30
0.0
 11
12.8366846684
 21
4.4779276111
 31
0.0
  0
LINE
  5
96
330
1F
100
AcDbEntity
  8
0
  6
Continuous
 62
     7
370
    25
100
AcDbLine
 10
12.8366846684
 20
4.4779276111
 30
0.0
 11
12.7866846684
 21
4.5279276111
 31
0.0
  0
LINE
  5
97
330
1F
100
AcDbEntity
  8
0
  6
Continuous
 62
     7
370
    25
100
AcDbLine
 10
12.8366846684
 20
4.4779276111
 30
0.0
 11
7.8366846684
 21
4.4779276111
 31
0.0
  0
LINE
  5
98
330
1F
100
AcDbEntity
  8
0
  6
Continuous
 62
     7
370
    25
100
AcDbLine
 10
7.8866846684
 20
4.5279276111
 30
0.0
 11
7.8366846684
 21
4.4779276111
 31
0.0
  0
LINE
  5
99
330
1F
100
AcDbEntity
  8
0
  6
Continuous
 62
     7
370
    25
100
AcDbLine
 10
7.8366846684
 20
4.4779276111
 30
0.0
 11
7.8366846684
 21
9.4779276111
 31
0.0
  0
DIMENSION
  5
9A
330
1F
100
AcDbEntity
  8
SLD-0
100
AcDbDimension
  2
_D_1
 10
12.0866846684
 20
10.2653291859
 30
0.0
 11
10.3366846684
 21
10.2653291859
 31
0.0
 70
   160
  1
<>
 71
     2
 42
-1.0
  3
SLDDIMSTYLE1
100
AcDbAlignedDimension
 13
8.5866846684
 23
7.1951276111
 33
0.0
 14
12.0866846684
 24
7.1951276111
 34
0.0
100
AcDbRotatedDimension
  0
DIMENSION
  5
AF
330
1F
100
AcDbEntity
  8
SLD-0
100
AcDbDimension
  2
_D_2
 10
12.8366846684
 20
11.2102110756
 30
0.0
 11
10.3366846684
 21
11.2102110756
 31
0.0
 70
   160
  1
<>
 71
     2
 42
-1.0
  3
SLDDIMSTYLE2
100
AcDbAlignedDimension
 13
7.8366846684
 23
9.4779276111
 33
0.0
 14
12.8366846684
 24
9.4779276111
 34
0.0
 50
0.0
100
AcDbRotatedDimension
  0
DIMENSION
  5
C4
330
1F
100
AcDbEntity
  8
SLD-0
100
AcDbDimension
  2
_D_3
 10
6.5768421487
 20
4.4779276111
 30
0.0
 11
6.5768421487
 21
6.9779276111
 31
0.0
 70
   160
  1
<>
 71
     2
 42
-1.0
  3
SLDDIMSTYLE2
100
AcDbAlignedDimension
 13
7.8366846684
 23
9.4779276111
 33
0.0
 14
7.8366846684
 24
4.4779276111
 34
0.0
 50
90.0
100
AcDbRotatedDimension
  0
DIMENSION
  5
D8
330
1F
100
AcDbEntity
  8
SLD-0
100
AcDbDimension
  2
_D_4
 10
10.1072655085
 20
7.3225474727
 30
0.0
 11
14.9805340447
 21
3.468107649
 31
0.0
 70
   163
  1
<> THRU\PFIXTURE MOUNTING\PHOLE\P
 71
     1
 42
-1.0
  3
SLDDIMSTYLE3
100
AcDbDiametricDimension
 15
10.5661038284
 25
6.6333077494
 35
0.0
 40
0.0
  0
MTEXT
  5
EC
330
1F
100
AcDbEntity
  8
SLD-0
100
AcDbMText
 10
16.2523997076
 20
5.322025715
 30
0.0
 40
0.25
 41
0.0
 71
     2
 72
     1
  1
2X #10-24 CLEARANCE HOLES
  7
SLDTEXTSTYLE0
 73
     1
 44
1.0
  0
MTEXT
  5
ED
330
1F
100
AcDbEntity
  8
SLD-0
100
AcDbMText
 10
16.2608196709
 20
4.993285566
 30
0.0
 40
0.25
 41
0.0
 71
     2
 72
     1
  1
(HARDWARE INCLUDED)
  7
SLDTEXTSTYLE0
 73
     1
 44
1.0
  0
LEADER
  5
EF
330
1F
100
AcDbEntity
  8
SLD-0
100
AcDbLeader
  3
SLDDIMSTYLE4
 76
     3
 10
12.164355758
 20
6.8901606364
 30
0.0
 10
13.3735594589
 20
5.2083717131
 30
0.0
 10
13.8735594589
 20
5.2083717131
 30
0.0
  0
INSERT
  5
FB
330
1F
100
AcDbEntity
  8
SLD-0
100
AcDbBlockReference
  2
SW_CENTERMARKSYMBOL_0
 10
8.5866846684
 20
6.9779276111
 30
0.0
  0
INSERT
  5
107
330
1F
100
AcDbEntity
  8
SLD-0
100
AcDbBlockReference
  2
SW_CENTERMARKSYMBOL_1
 10
12.0866846684
 20
6.9779276111
 30
0.0
  0
LINE
  5
108
330
1F
100
AcDbEntity
  8
0
  6
Continuous
 62
     7
370
    25
100
AcDbLine
 10
16.4916817103
 20
14.213017466
 30
0.0
 11
16.4916817103
 21
10.1303134066
 31
0.0
  0
LINE
  5
109
330
1F
100
AcDbEntity
  8
0
  6
Continuous
 62
     7
370
    25
100
AcDbLine
 10
16.4916817103
 20
10.1303134066
 30
0.0
 11
16.4209710322
 21
10.1711404472
 31
0.0
  0
LINE
  5
10A
330
1F
100
AcDbEntity
  8
0
  6
Continuous
 62
     7
370
    25
100
AcDbLine
 10
16.4209710322
 20
10.1711404472
 30
0.0
 11
16.4209710322
 21
14.1721904254
 31
0.0
  0
LINE
  5
10B
330
1F
100
AcDbEntity
  8
0
  6
Continuous
 62
     7
370
    25
100
AcDbLine
 10
16.4916817103
 20
14.213017466
 30
0.0
 11
16.4209710322
 21
14.1721904254
 31
0.0
  0
LINE
  5
10C
330
1F
100
AcDbEntity
  8
0
  6
Continuous
 62
     7
370
    25
100
AcDbLine
 10
16.4209710322
 20
14.1721904254
 30
0.0
 11
12.9561478043
 21
16.1723902994
 31
0.0
  0
LINE
  5
10D
330
1F
100
AcDbEntity
  8
0
  6
Continuous
 62
     7
370
    25
100
AcDbLine
 10
12.9561478043
 20
16.1723902994
 30
0.0
 11
12.9561478043
 21
16.2540377456
 31
0.0
  0
LINE
  5
10E
330
1F
100
AcDbEntity
  8
0
  6
Continuous
 62
     7
370
    25
100
AcDbLine
 10
12.9561478043
 20
16.2540377456
 30
0.0
 11
16.4916817103
 21
14.213017466
 31
0.0
  0
LINE
  5
10F
330
1F
100
AcDbEntity
  8
0
  6
Continuous
 62
     7
370
    25
100
AcDbLine
 10
16.7214914142
 20
10.2629797248
 30
0.0
 11
16.7214914142
 21
14.3456837842
 31
0.0
  0
LINE
  5
110
330
1F
100
AcDbEntity
  8
0
  6
Continuous
 62
     7
370
    25
100
AcDbLine
 10
16.4916817103
 20
10.1303134066
 30
0.0
 11
16.7214914142
 21
10.2629797248
 31
0.0
  0
LINE
  5
111
330
1F
100
AcDbEntity
  8
0
  6
Continuous
 62
     7
370
    25
100
AcDbLine
 10
16.4916817103
 20
14.213017466
 30
0.0
 11
16.7214914142
 21
14.3456837842
 31
0.0
  0
LINE
  5
112
330
1F
100
AcDbEntity
  8
0
  6
Continuous
 62
     7
370
    25
100
AcDbLine
 10
16.7214914142
 20
14.3456837842
 30
0.0
 11
13.1859575082
 21
16.3867040637
 31
0.0
  0
LINE
  5
113
330
1F
100
AcDbEntity
  8
0
  6
Continuous
 62
     7
370
    25
100
AcDbLine
 10
12.9561478043
 20
16.2540377456
 30
0.0
 11
13.1859575082
 21
16.3867040637
 31
0.0
  0
LWPOLYLINE
  5
114
330
1F
100
AcDbEntity
  8
0
  6
Continuous
 62
     7
370
    25
100
AcDbPolyline
 90
       51
 70
   128
 43
0.0
 10
14.9813016257
 20
13.0027688941
 10
14.9789932659
 20
13.0464701178
 10
14.9721045909
 20
13.0921473224
 10
14.9607442391
 20
13.1390801513
 10
14.9450913701
 20
13.1865284457
 10
14.925392839
 20
13.2337439176
 10
14.9019593034
 20
13.2799819508
 10
14.8751603241
 20
13.3245133439
 10
14.845418537
 20
13.3666358103
 10
14.8132029879
 20
13.4056850536
 10
14.7790217353
 20
13.4410452437
 10
14.7434138379
 20
13.4721587294
 10
14.7069408535
 20
13.4985348324
 10
14.670177983
 20
13.5197575858
 10
14.6337049986
 20
13.5354922942
 10
14.5980971012
 20
13.5454908118
 10
14.5639158486
 20
13.5495954559
 10
14.5317002995
 20
13.5477414939
 10
14.5019585124
 20
13.5399581639
 10
14.4751595331
 20
13.5263682137
 10
14.4517259975
 20
13.5071859648
 10
14.4320274664
 20
13.4827139328
 10
14.4163745974
 20
13.4533380563
 10
14.4050142456
 20
13.4195216104
 10
14.3981255706
 20
13.3817979006
 10
14.3958172108
 20
13.3407618524
 10
14.3981255706
 20
13.2970606288
 10
14.4050142456
 20
13.2513834241
 10
14.4163745974
 20
13.2044505952
 10
14.4320274664
 20
13.1570023009
 10
14.4517259975
 20
13.109786829
 10
14.4751595331
 20
13.0635487958
 10
14.5019585124
 20
13.0190174026
 10
14.5317002995
 20
12.9768949362
 10
14.5639158486
 20
12.937845693
 10
14.5980971012
 20
12.9024855029
 10
14.6337049986
 20
12.8713720172
 10
14.670177983
 20
12.8449959142
 10
14.7069408535
 20
12.8237731607
 10
14.7434138379
 20
12.8080384524
 10
14.7790217353
 20
12.7980399348
 10
14.8132029879
 20
12.7939352907
 10
14.845418537
 20
12.7957892526
 10
14.8751603241
 20
12.8035725826
 10
14.9019593034
 20
12.8171625329
 10
14.925392839
 20
12.8363447818
 10
14.9450913701
 20
12.8608168137
 10
14.9607442391
 20
12.8901926902
 10
14.9721045909
 20
12.9240091361
 10
14.9789932659
 20
12.9617328459
 10
14.9813016257
 20
13.0027688941
  0
LWPOLYLINE
  5
115
330
1F
100
AcDbEntity
  8
0
  6
Continuous
 62
     7
370
    25
100
AcDbPolyline
 90
       27
 70
   128
 43
0.0
 10
16.0088692001
 20
12.4095667601
 10
16.0064610638
 20
12.4338591176
 10
15.9993766071
 20
12.4595200665
 10
15.9880275528
 20
12.4850582858
 10
15.9730734667
 20
12.5089895871
 10
15.9553834259
 20
12.5299231699
 10
15.9359855114
 20
12.5466424507
 10
15.9160070593
 20
12.5581757656
 10
15.8966091448
 20
12.5638528402
 10
15.878919104
 20
12.5633437437
 10
15.8639650179
 20
12.5566780627
 10
15.8526159636
 20
12.5442431826
 10
15.8455315069
 20
12.5267617733
 10
15.8431233706
 20
12.5052497908
 10
15.8455315069
 20
12.4809574333
 10
15.8526159636
 20
12.4552964844
 10
15.8639650179
 20
12.429758265
 10
15.878919104
 20
12.4058269638
 10
15.8966091448
 20
12.3848933809
 10
15.9160070593
 20
12.3681741001
 10
15.9359855114
 20
12.3566407853
 10
15.9553834259
 20
12.3509637106
 10
15.9730734667
 20
12.3514728072
 10
15.9880275528
 20
12.3581384881
 10
15.9993766071
 20
12.3705733683
 10
16.0064610638
 20
12.3880547776
 10
16.0088692001
 20
12.4095667601
  0
LWPOLYLINE
  5
116
330
1F
100
AcDbEntity
  8
0
  6
Continuous
 62
     7
370
    25
100
AcDbPolyline
 90
       27
 70
   128
 43
0.0
 10
13.5339954659
 20
13.8382809558
 10
13.5315873296
 20
13.8625733133
 10
13.5245028729
 20
13.8882342622
 10
13.5131538186
 20
13.9137724815
 10
13.4981997325
 20
13.9377037827
 10
13.4805096918
 20
13.9586373656
 10
13.4611117772
 20
13.9753566464
 10
13.4411333252
 20
13.9868899613
 10
13.4217354106
 20
13.9925670359
 10
13.4040453698
 20
13.9920579394
 10
13.3890912838
 20
13.9853922584
 10
13.3777422294
 20
13.9729573783
 10
13.3706577727
 20
13.955475969
 10
13.3682496364
 20
13.9339639865
 10
13.3706577727
 20
13.909671629
 10
13.3777422294
 20
13.88401068
 10
13.3890912838
 20
13.8584724607
 10
13.4040453698
 20
13.8345411595
 10
13.4217354106
 20
13.8136075766
 10
13.4411333252
 20
13.7968882958
 10
13.4611117772
 20
13.785354981
 10
13.4805096918
 20
13.7796779063
 10
13.4981997325
 20
13.7801870029
 10
13.5131538186
 20
13.7868526838
 10
13.5245028729
 20
13.799287564
 10
13.5315873296
 20
13.8167689733
 10
13.5339954659
 20
13.8382809558
  0
LINE
  5
117
330
1F
100
AcDbEntity
  8
0
  6
Continuous
 62
     7
370
    25
100
AcDbLine
 10
12.9561478043
 20
12.1713403211
 30
0.0
 11
16.4209710322
 21
10.1711404472
 31
0.0
  0
LINE
  5
118
330
1F
100
AcDbEntity
  8
0
  6
Continuous
 62
     7
370
    25
100
AcDbLine
 10
12.9561478043
 20
16.1723902994
 30
0.0
 11
12.9561478043
 21
12.1713403211
 31
0.0
  0
ARC
  5
119
330
1F
100
AcDbEntity
  8
0
  6
Continuous
 62
     7
370
    25
100
AcDbCircle
 10
14.86532239
 20
13.4480501789
 30
0.0
 40
0.2927753314656562
100
AcDbArc
 50
160.2442545393
 51
181.0249904103
  0
LWPOLYLINE
  5
11A
330
1F
100
AcDbEntity
  8
0
  6
Continuous
 62
     7
370
    25
100
AcDbPolyline
 90
       17
 70
   128
 43
0.0
 10
14.9641163394
 20
12.8985702713
 10
14.9557984306
 20
12.9000909488
 10
14.9201905332
 20
12.9100894663
 10
14.8837175488
 20
12.9258241747
 10
14.8469546783
 20
12.9470469282
 10
14.8104816939
 20
12.9734230312
 10
14.7748737965
 20
13.0045365169
 10
14.7406925439
 20
13.039896707
 10
14.7084769948
 20
13.0789459502
 10
14.6787352077
 20
13.1210684166
 10
14.6519362284
 20
13.1655998097
 10
14.6285026928
 20
13.211837843
 10
14.6088041617
 20
13.2590533149
 10
14.5931512927
 20
13.3065016092
 10
14.5817909409
 20
13.3534344381
 10
14.5749022659
 20
13.3991116428
 10
14.5725939061
 20
13.4428128664
  0
LINE
  5
11B
330
1F
100
AcDbEntity
  8
0
  6
Continuous
 62
     7
370
    25
100
AcDbLine
 10
16.4916817103
 20
10.1303134066
 30
0.0
 11
12.9561478043
 21
12.1713336861
 31
0.0
  0
LINE
  5
11C
330
1F
100
AcDbEntity
  8
0
  6
Continuous
 62
     7
370
    25
100
AcDbLine
 10
12.9561478043
 20
12.1713403211
 30
0.0
 11
12.9561478043
 21
12.1713336861
 31
0.0
  0
ENDSEC
  0
SECTION
  2
OBJECTS
  0
DICTIONARY
  5
C
330
0
100
AcDbDictionary
281
     1
  3
ACAD_GROUP
350
D
  3
ACAD_LAYOUT
350
1A
  3
ACAD_MLINESTYLE
350
17
  3
ACAD_PLOTSETTINGS
350
19
  3
ACAD_PLOTSTYLENAME
350
E
  3
ACAD_SCALELIST
350
47
  3
DWGPROPS
350
11D
  0
DICTIONARY
  5
D
102
{ACAD_REACTORS
330
C
102
}
330
C
100
AcDbDictionary
281
     1
  0
DICTIONARY
  5
1A
102
{ACAD_REACTORS
330
C
102
}
330
C
100
AcDbDictionary
281
     1
  3
Layout1
350
1E
  3
Layout2
350
26
  3
Model
350
22
  0
DICTIONARY
  5
17
102
{ACAD_REACTORS
330
C
102
}
330
C
100
AcDbDictionary
281
     1
  3
Standard
350
18
  0
DICTIONARY
  5
19
102
{ACAD_REACTORS
330
C
102
}
330
C
100
AcDbDictionary
281
     1
  0
ACDBDICTIONARYWDFLT
  5
E
102
{ACAD_REACTORS
330
C
102
}
330
C
100
AcDbDictionary
281
     1
  3
Normal
350
F
100
AcDbDictionaryWithDefault
340
F
  0
DICTIONARY
  5
47
102
{ACAD_REACTORS
330
C
102
}
330
C
100
AcDbDictionary
281
     1
  3
A0
350
48
  3
A1
350
49
  3
A2
350
4A
  3
A3
350
4B
  3
A4
350
4C
  3
A5
350
4D
  3
A6
350
4E
  3
A7
350
4F
  3
A8
350
50
  3
A9
350
51
  3
B1
350
52
  3
B2
350
53
  3
B3
350
54
  3
B4
350
55
  3
B5
350
56
  3
B6
350
57
  3
B7
350
58
  0
XRECORD
  5
11D
102
{ACAD_REACTORS
330
C
102
}
330
C
100
AcDbXrecord
280
     1
  1
DWGPROPS COOKIE
  2

  3

  4

  6

  7

  8
shawnd
  9

300
=
301
=
302
=
303
=
304
=
305
=
306
=
307
=
308
=
309
=
 40
0.0
 41
2460888.948873484
 42
2460888.948873878
  1

 90
        0
  0
LAYOUT
  5
1E
102
{ACAD_REACTORS
330
1A
102
}
330
1A
100
AcDbPlotSettings
  1

  2
none_device
  4

  6

 40
0.0
 41
0.0
 42
0.0
 43
0.0
 44
0.0
 45
0.0
 46
0.0
 47
0.0
 48
0.0
 49
0.0
140
0.0
141
0.0
142
1.0
143
1.0
 70
   688
 72
     0
 73
     0
 74
     5
  7

 75
    16
147
1.0
148
0.0
149
0.0
100
AcDbLayout
  1
Layout1
 70
     1
 71
     1
 10
0.0
 20
0.0
 11
12.0
 21
9.0
 12
0.0
 22
0.0
 32
0.0
 14
1.0000000000E+20
 24
1.0000000000E+20
 34
1.0000000000E+20
 15
-1.0000000000E+20
 25
-1.0000000000E+20
 35
-1.0000000000E+20
146
0.0
 13
0.0
 23
0.0
 33
0.0
 16
1.0
 26
0.0
 36
0.0
 17
0.0
 27
1.0
 37
0.0
 76
     0
330
1B
  0
LAYOUT
  5
26
102
{ACAD_REACTORS
330
1A
102
}
330
1A
100
AcDbPlotSettings
  1

  2
none_device
  4

  6

 40
0.0
 41
0.0
 42
0.0
 43
0.0
 44
0.0
 45
0.0
 46
0.0
 47
0.0
 48
0.0
 49
0.0
140
0.0
141
0.0
142
1.0
143
1.0
 70
   688
 72
     0
 73
     0
 74
     5
  7

 75
    16
147
1.0
148
0.0
149
0.0
100
AcDbLayout
  1
Layout2
 70
     1
 71
     2
 10
0.0
 20
0.0
 11
0.0
 21
0.0
 12
0.0
 22
0.0
 32
0.0
 14
0.0
 24
0.0
 34
0.0
 15
0.0
 25
0.0
 35
0.0
146
0.0
 13
0.0
 23
0.0
 33
0.0
 16
1.0
 26
0.0
 36
0.0
 17
0.0
 27
1.0
 37
0.0
 76
     0
330
23
  0
LAYOUT
  5
22
102
{ACAD_REACTORS
330
1A
102
}
330
1A
100
AcDbPlotSettings
  1

  2
none_device
  4
Letter_(8.50_x_11.00_Inches)
  6

 40
6.35
 41
6.35
 42
6.35000508
 43
6.35000508
 44
215.9
 45
279.4
 46
0.0
 47
0.0
 48
0.0
 49
0.0
140
0.0
141
0.0
142
1.0
143
1.0
 70
  1712
 72
     0
 73
     0
 74
     0
  7

 75
     0
147
1.0
148
0.0
149
0.0
100
AcDbLayout
  1
Model
 70
     1
 71
     0
 10
0.0
 20
0.0
 11
22.0
 21
17.0
 12
0.0
 22
0.0
 32
0.0
 14
0.0
 24
0.0
 34
0.0
 15
22.0
 25
17.0
 35
0.0
146
0.0
 13
0.0
 23
0.0
 33
0.0
 16
1.0
 26
0.0
 36
0.0
 17
0.0
 27
1.0
 37
0.0
 76
     0
330
1F
331
29
  0
MLINESTYLE
  5
18
102
{ACAD_REACTORS
330
17
102
}
330
17
100
AcDbMlineStyle
  2
Standard
 70
     0
  3

 62
   256
 51
90.0
 52
90.0
 71
     2
 49
0.5
 62
   256
  6
BYLAYER
 49
-0.5
 62
   256
  6
BYLAYER
  0
ACDBPLACEHOLDER
  5
F
102
{ACAD_REACTORS
330
E
102
}
330
E
  0
SCALE
  5
48
102
{ACAD_REACTORS
330
47
102
}
330
47
100
AcDbScale
 70
     0
300
1:1
140
1.0
141
1.0
290
     1
  0
SCALE
  5
49
102
{ACAD_REACTORS
330
47
102
}
330
47
100
AcDbScale
 70
     0
300
1/128" = 1'-0"
140
0.0078125
141
12.0
290
     0
  0
SCALE
  5
4A
102
{ACAD_REACTORS
330
47
102
}
330
47
100
AcDbScale
 70
     0
300
1/64" = 1'-0"
140
0.015625
141
12.0
290
     0
  0
SCALE
  5
4B
102
{ACAD_REACTORS
330
47
102
}
330
47
100
AcDbScale
 70
     0
300
1/32" = 1'-0"
140
0.03125
141
12.0
290
     0
  0
SCALE
  5
4C
102
{ACAD_REACTORS
330
47
102
}
330
47
100
AcDbScale
 70
     0
300
1/16" = 1'-0"
140
0.0625
141
12.0
290
     0
  0
SCALE
  5
4D
102
{ACAD_REACTORS
330
47
102
}
330
47
100
AcDbScale
 70
     0
300
3/32" = 1'-0"
140
0.09375
141
12.0
290
     0
  0
SCALE
  5
4E
102
{ACAD_REACTORS
330
47
102
}
330
47
100
AcDbScale
 70
     0
300
1/8" = 1'-0"
140
0.125
141
12.0
290
     0
  0
SCALE
  5
4F
102
{ACAD_REACTORS
330
47
102
}
330
47
100
AcDbScale
 70
     0
300
3/16" = 1'-0"
140
0.1875
141
12.0
290
     0
  0
SCALE
  5
50
102
{ACAD_REACTORS
330
47
102
}
330
47
100
AcDbScale
 70
     0
300
1/4" = 1'-0"
140
0.25
141
12.0
290
     0
  0
SCALE
  5
51
102
{ACAD_REACTORS
330
47
102
}
330
47
100
AcDbScale
 70
     0
300
3/8" = 1'-0"
140
0.375
141
12.0
290
     0
  0
SCALE
  5
52
102
{ACAD_REACTORS
330
47
102
}
330
47
100
AcDbScale
 70
     0
300
1/2" = 1'-0"
140
0.5
141
12.0
290
     0
  0
SCALE
  5
53
102
{ACAD_REACTORS
330
47
102
}
330
47
100
AcDbScale
 70
     0
300
3/4" = 1'-0"
140
0.75
141
12.0
290
     0
  0
SCALE
  5
54
102
{ACAD_REACTORS
330
47
102
}
330
47
100
AcDbScale
 70
     0
300
1" = 1'-0"
140
1.0
141
12.0
290
     0
  0
SCALE
  5
55
102
{ACAD_REACTORS
330
47
102
}
330
47
100
AcDbScale
 70
     0
300
1-1/2" = 1'-0"
140
1.5
141
12.0
290
     0
  0
SCALE
  5
56
102
{ACAD_REACTORS
330
47
102
}
330
47
100
AcDbScale
 70
     0
300
3" = 1'-0"
140
3.0
141
12.0
290
     0
  0
SCALE
  5
57
102
{ACAD_REACTORS
330
47
102
}
330
47
100
AcDbScale
 70
     0
300
6" = 1'-0"
140
6.0
141
12.0
290
     0
  0
SCALE
  5
58
102
{ACAD_REACTORS
330
47
102
}
330
47
100
AcDbScale
 70
     0
300
1'-0" = 1'-0"
140
12.0
141
12.0
290
     0
  0
ENDSEC
  0
EOF
