  0
SECTION
  2
HEADER
  9
$ACADVER
  1
AC1015
  9
$ACADMAINTVER
 70
     6
  9
$DWGCODEPAGE
  3
ANSI_1252
  9
$INSBASE
 10
0.0
 20
0.0
 30
0.0
  9
$EXTMIN
 10
0.0
 20
0.0
 30
0.0
  9
$EXTMAX
 10
22.0
 20
17.0
 30
0.0
  9
$LIMMIN
 10
0.0
 20
0.0
  9
$LIMMAX
 10
22.0
 20
17.0
  9
$ORTHOMODE
 70
     0
  9
$REGENMODE
 70
     1
  9
$FILLMODE
 70
     1
  9
$QTEXTMODE
 70
     0
  9
$MIRRTEXT
 70
     1
  9
$LTSCALE
 40
2.0
  9
$ATTMODE
 70
     1
  9
$TEXTSIZE
 40
0.25
  9
$TRACEWID
 40
0.05
  9
$TEXTSTYLE
  7
Standard
  9
$CLAYER
  8
0
  9
$CELTYPE
  6
ByLayer
  9
$CECOLOR
 62
   256
  9
$CELTSCALE
 40
1.0
  9
$DISPSILH
 70
     0
  9
$DIMSCALE
 40
1.0
  9
$DIMASZ
 40
0.26
  9
$DIMEXO
 40
0.1
  9
$DIMDLI
 40
0.38
  9
$DIMRND
 40
0.0
  9
$DIMDLE
 40
0.0
  9
$DIMEXE
 40
0.25
  9
$DIMTP
 40
0.0
  9
$DIMTM
 40
0.0
  9
$DIMTXT
 40
0.25
  9
$DIMCEN
 40
0.09
  9
$DIMTSZ
 40
0.0
  9
$DIMTOL
 70
     0
  9
$DIMLIM
 70
     0
  9
$DIMTIH
 70
     1
  9
$DIMTOH
 70
     1
  9
$DIMSE1
 70
     0
  9
$DIMSE2
 70
     0
  9
$DIMTAD
 70
     0
  9
$DIMZIN
 70
     1
  9
$DIMBLK
  1

  9
$DIMASO
 70
     1
  9
$DIMSHO
 70
     1
  9
$DIMPOST
  1

  9
$DIMAPOST
  1

  9
$DIMALT
 70
     0
  9
$DIMALTD
 70
     2
  9
$DIMALTF
 40
25.4
  9
$DIMLFAC
 40
1.0
  9
$DIMTOFL
 70
     0
  9
$DIMTVP
 40
0.0
  9
$DIMTIX
 70
     0
  9
$DIMSOXD
 70
     0
  9
$DIMSAH
 70
     0
  9
$DIMBLK1
  1

  9
$DIMBLK2
  1

  9
$DIMSTYLE
  2
Standard
  9
$DIMCLRD
 70
     0
  9
$DIMCLRE
 70
     0
  9
$DIMCLRT
 70
     0
  9
$DIMTFAC
 40
1.0
  9
$DIMGAP
 40
0.12
  9
$DIMJUST
 70
     0
  9
$DIMSD1
 70
     0
  9
$DIMSD2
 70
     0
  9
$DIMTOLJ
 70
     1
  9
$DIMTZIN
 70
     1
  9
$DIMALTZ
 70
     0
  9
$DIMALTTZ
 70
     0
  9
$DIMUPT
 70
     0
  9
$DIMDEC
 70
     0
  9
$DIMTDEC
 70
     0
  9
$DIMALTU
 70
     2
  9
$DIMALTTD
 70
     2
  9
$DIMTXSTY
  7
Standard
  9
$DIMAUNIT
 70
     0
  9
$DIMADEC
 70
     0
  9
$DIMALTRND
 40
0.0
  9
$DIMAZIN
 70
     0
  9
$DIMDSEP
 70
    46
  9
$DIMATFIT
 70
     3
  9
$DIMFRAC
 70
     0
  9
$DIMLDRBLK
  1

  9
$DIMLUNIT
 70
     2
  9
$DIMLWD
 70
    -2
  9
$DIMLWE
 70
    -2
  9
$DIMTMOVE
 70
     0
  9
$LUNITS
 70
     2
  9
$LUPREC
 70
     6
  9
$SKETCHINC
 40
0.1
  9
$FILLETRAD
 40
0.0
  9
$AUNITS
 70
     0
  9
$AUPREC
 70
     2
  9
$MENU
  1
.
  9
$ELEVATION
 40
0.0
  9
$PELEVATION
 40
0.0
  9
$THICKNESS
 40
0.0
  9
$LIMCHECK
 70
     0
  9
$CHAMFERA
 40
0.0
  9
$CHAMFERB
 40
0.0
  9
$CHAMFERC
 40
0.0
  9
$CHAMFERD
 40
0.0
  9
$SKPOLY
 70
     0
  9
$TDCREATE
 40
2460889.378413033
  9
$TDUCREATE
 40
2460889.6700797
  9
$TDUPDATE
 40
2460889.378413392
  9
$TDUUPDATE
 40
2460889.670080058
  9
$TDINDWG
 40
0.0000000116
  9
$TDUSRTIMER
 40
0.0000000116
  9
$USRTIMER
 70
     1
  9
$ANGBASE
 50
0.0
  9
$ANGDIR
 70
     0
  9
$PDMODE
 70
     0
  9
$PDSIZE
 40
-1.0
  9
$PLINEWID
 40
0.0
  9
$SPLFRAME
 70
     0
  9
$SPLINETYPE
 70
     6
  9
$SPLINESEGS
 70
     8
  9
$HANDSEED
  5
11D
  9
$SURFTAB1
 70
     6
  9
$SURFTAB2
 70
     6
  9
$SURFTYPE
 70
     6
  9
$SURFU
 70
     6
  9
$SURFV
 70
     6
  9
$UCSBASE
  2

  9
$UCSNAME
  2

  9
$UCSORG
 10
0.0
 20
0.0
 30
0.0
  9
$UCSXDIR
 10
1.0
 20
0.0
 30
0.0
  9
$UCSYDIR
 10
0.0
 20
1.0
 30
0.0
  9
$UCSORTHOREF
  2

  9
$UCSORTHOVIEW
 70
     0
  9
$UCSORGTOP
 10
0.0
 20
0.0
 30
0.0
  9
$UCSORGBOTTOM
 10
0.0
 20
0.0
 30
0.0
  9
$UCSORGLEFT
 10
0.0
 20
0.0
 30
0.0
  9
$UCSORGRIGHT
 10
0.0
 20
0.0
 30
0.0
  9
$UCSORGFRONT
 10
0.0
 20
0.0
 30
0.0
  9
$UCSORGBACK
 10
0.0
 20
0.0
 30
0.0
  9
$PUCSBASE
  2

  9
$PUCSNAME
  2

  9
$PUCSORG
 10
0.0
 20
0.0
 30
0.0
  9
$PUCSXDIR
 10
1.0
 20
0.0
 30
0.0
  9
$PUCSYDIR
 10
0.0
 20
1.0
 30
0.0
  9
$PUCSORTHOREF
  2

  9
$PUCSORTHOVIEW
 70
     0
  9
$PUCSORGTOP
 10
0.0
 20
0.0
 30
0.0
  9
$PUCSORGBOTTOM
 10
0.0
 20
0.0
 30
0.0
  9
$PUCSORGLEFT
 10
0.0
 20
0.0
 30
0.0
  9
$PUCSORGRIGHT
 10
0.0
 20
0.0
 30
0.0
  9
$PUCSORGFRONT
 10
0.0
 20
0.0
 30
0.0
  9
$PUCSORGBACK
 10
0.0
 20
0.0
 30
0.0
  9
$USERI1
 70
     0
  9
$USERI2
 70
     0
  9
$USERI3
 70
     0
  9
$USERI4
 70
     0
  9
$USERI5
 70
     0
  9
$USERR1
 40
0.0
  9
$USERR2
 40
0.0
  9
$USERR3
 40
0.0
  9
$USERR4
 40
0.0
  9
$USERR5
 40
0.0
  9
$WORLDVIEW
 70
     1
  9
$SHADEDGE
 70
     3
  9
$SHADEDIF
 70
    70
  9
$TILEMODE
 70
     1
  9
$MAXACTVP
 70
    64
  9
$PINSBASE
 10
0.0
 20
0.0
 30
0.0
  9
$PLIMCHECK
 70
     0
  9
$PEXTMIN
 10
1.0000000000E+20
 20
1.0000000000E+20
 30
1.0000000000E+20
  9
$PEXTMAX
 10
-1.0000000000E+20
 20
-1.0000000000E+20
 30
-1.0000000000E+20
  9
$PLIMMIN
 10
0.0
 20
0.0
  9
$PLIMMAX
 10
12.0
 20
9.0
  9
$UNITMODE
 70
     0
  9
$VISRETAIN
 70
     1
  9
$PLINEGEN
 70
     0
  9
$PSLTSCALE
 70
     1
  9
$TREEDEPTH
 70
  3020
  9
$CMLSTYLE
  2
Standard
  9
$CMLJUST
 70
     0
  9
$CMLSCALE
 40
1.0
  9
$PROXYGRAPHICS
 70
     1
  9
$MEASUREMENT
 70
     0
  9
$CELWEIGHT
370
    -1
  9
$ENDCAPS
280
     0
  9
$JOINSTYLE
280
     0
  9
$LWDISPLAY
290
     1
  9
$INSUNITS
 70
     1
  9
$HYPERLINKBASE
  1

  9
$STYLESHEET
  1

  9
$XEDIT
290
     1
  9
$CEPSNTYPE
380
     0
  9
$PSTYLEMODE
290
     1
  9
$FINGERPRINTGUID
  2
{6265bdde-9c30-49fd-a1cd-965435e591bc}
  9
$VERSIONGUID
  2
{FAEB1C32-E019-11D5-929B-00C0DF256EC4}
  9
$EXTNAMES
290
     1
  9
$PSVPSCALE
 40
0.0
  9
$OLESTARTUP
290
     0
  0
ENDSEC
  0
SECTION
  2
CLASSES
  0
CLASS
  1
ACDBDICTIONARYWDFLT
  2
AcDbDictionaryWithDefault
  3
ObjectDBX Classes
 90
        0
280
     0
281
     0
  0
CLASS
  1
VISUALSTYLE
  2
AcDbVisualStyle
  3
ObjectDBX Classes
 90
     4095
280
     0
281
     0
  0
CLASS
  1
MATERIAL
  2
AcDbMaterial
  3
ObjectDBX Classes
 90
     1153
280
     0
281
     0
  0
CLASS
  1
SCALE
  2
AcDbScale
  3
ObjectDBX Classes
 90
     1153
280
     0
281
     0
  0
CLASS
  1
TABLESTYLE
  2
AcDbTableStyle
  3
ObjectDBX Classes
 90
     4095
280
     0
281
     0
  0
CLASS
  1
MLEADERSTYLE
  2
AcDbMLeaderStyle
  3
ACDB_MLEADERSTYLE_CLASS
 90
     4095
280
     0
281
     0
  0
CLASS
  1
SUN
  2
AcDbSun
  3
SCENEOE
 90
     1153
280
     0
281
     0
  0
CLASS
  1
ACDBPLACEHOLDER
  2
AcDbPlaceHolder
  3
ObjectDBX Classes
 90
        0
280
     0
281
     0
  0
CLASS
  1
LAYOUT
  2
AcDbLayout
  3
ObjectDBX Classes
 90
        0
280
     0
281
     0
  0
ENDSEC
  0
SECTION
  2
TABLES
  0
TABLE
  2
VPORT
  5
8
330
0
100
AcDbSymbolTable
 70
     1
  0
VPORT
  5
29
330
8
100
AcDbSymbolTableRecord
100
AcDbViewportTableRecord
  2
*Active
 70
     0
 10
0.0
 20
0.0
 11
1.0
 21
1.0
 12
11.0
 22
8.5
 13
0.0
 23
0.0
 14
0.5
 24
0.5
 15
0.5
 25
0.5
 16
0.0
 26
0.0
 36
1.0
 17
0.0
 27
0.0
 37
0.0
 40
17.0
 41
1.2941176471
 42
50.0
 43
0.0
 44
0.0
 50
0.0
 51
0.0
 71
     0
 72
  2000
 73
     1
 74
     3
 75
     0
 76
     0
 77
     0
 78
     0
281
     0
 65
     1
110
0.0
120
0.0
130
0.0
111
1.0
121
0.0
131
0.0
112
0.0
122
1.0
132
0.0
 79
     0
146
0.0
  0
ENDTAB
  0
TABLE
  2
LTYPE
  5
5
330
0
100
AcDbSymbolTable
 70
     6
  0
LTYPE
  5
14
330
5
100
AcDbSymbolTableRecord
100
AcDbLinetypeTableRecord
  2
ByBlock
 70
     0
  3

 72
    65
 73
     0
 40
0.0
  0
LTYPE
  5
15
330
5
100
AcDbSymbolTableRecord
100
AcDbLinetypeTableRecord
  2
ByLayer
 70
     0
  3

 72
    65
 73
     0
 40
0.0
  0
LTYPE
  5
16
330
5
100
AcDbSymbolTableRecord
100
AcDbLinetypeTableRecord
  2
Continuous
 70
     0
  3
Solid line
 72
    65
 73
     0
 40
0.0
  0
LTYPE
  5
5E
330
5
100
AcDbSymbolTableRecord
100
AcDbLinetypeTableRecord
  2
HIDDEN
 70
     0
  3
Hidden __ __ __ __ __ __ __ __ __ __ __ __ __ __
 72
    65
 73
     2
 40
0.075
 49
0.05
 74
     0
 49
-0.025
 74
     0
  0
LTYPE
  5
5F
330
5
100
AcDbSymbolTableRecord
100
AcDbLinetypeTableRecord
  2
PHANTOM
 70
     0
  3
Phantom ______  __  __  ______  __  __  ______
 72
    65
 73
     6
 40
0.5
 49
0.25
 74
     0
 49
-0.05
 74
     0
 49
0.05
 74
     0
 49
-0.05
 74
     0
 49
0.05
 74
     0
 49
-0.05
 74
     0
  0
LTYPE
  5
60
330
5
100
AcDbSymbolTableRecord
100
AcDbLinetypeTableRecord
  2
CENTER
 70
     0
  3
Center ____ _ ____ _ ____ _ ____ _ ____ _ ____
 72
    65
 73
     4
 40
0.4
 49
0.25
 74
     0
 49
-0.05
 74
     0
 49
0.05
 74
     0
 49
-0.05
 74
     0
  0
LTYPE
  5
61
330
5
100
AcDbSymbolTableRecord
100
AcDbLinetypeTableRecord
  2
CENTERX2
 70
     0
  3
Center (2x) ________  __  ________  __  _____
 72
    65
 73
     4
 40
0.8
 49
0.5
 74
     0
 49
-0.1
 74
     0
 49
0.1
 74
     0
 49
-0.1
 74
     0
  0
LTYPE
  5
62
330
5
100
AcDbSymbolTableRecord
100
AcDbLinetypeTableRecord
  2
DOT2
 70
     0
  3
Dot (.5x) ........................................
 72
    65
 73
     2
 40
0.025
 49
0.0
 74
     0
 49
-0.025
 74
     0
  0
ENDTAB
  0
TABLE
  2
LAYER
  5
2
330
0
100
AcDbSymbolTable
 70
    11
  0
LAYER
  5
10
330
2
100
AcDbSymbolTableRecord
100
AcDbLayerTableRecord
  2
0
 70
     0
 62
     7
  6
Continuous
370
    -3
390
F
  0
LAYER
  5
63
330
2
100
AcDbSymbolTableRecord
100
AcDbLayerTableRecord
  2
SLD-0
 70
     0
 62
     7
  6
Continuous
370
    -3
390
F
  0
LAYER
  5
64
330
2
100
AcDbSymbolTableRecord
100
AcDbLayerTableRecord
  2
DIM
 70
     0
 62
     7
  6
Continuous
370
    -3
390
F
  0
LAYER
  5
65
330
2
100
AcDbSymbolTableRecord
100
AcDbLayerTableRecord
  2
CEN
 70
     0
 62
     1
  6
CENTER
370
    -3
390
F
  0
LAYER
  5
66
330
2
100
AcDbSymbolTableRecord
100
AcDbLayerTableRecord
  2
HAT
 70
     0
 62
     4
  6
Continuous
370
    -3
390
F
  0
LAYER
  5
67
330
2
100
AcDbSymbolTableRecord
100
AcDbLayerTableRecord
  2
OBJ
 70
     0
 62
     5
  6
Continuous
370
    -3
390
F
  0
LAYER
  5
68
330
2
100
AcDbSymbolTableRecord
100
AcDbLayerTableRecord
  2
SLD-DEFPOINTS
 70
     0
 62
     7
  6
Continuous
370
    -3
390
F
  0
LAYER
  5
69
330
2
100
AcDbSymbolTableRecord
100
AcDbLayerTableRecord
  2
HID
 70
     0
 62
     4
  6
HIDDEN
370
    -3
390
F
  0
LAYER
  5
6A
330
2
100
AcDbSymbolTableRecord
100
AcDbLayerTableRecord
  2
NOTE
 70
     0
 62
     7
  6
Continuous
370
    -3
390
F
  0
LAYER
  5
6B
330
2
100
AcDbSymbolTableRecord
100
AcDbLayerTableRecord
  2
TITLE
 70
     0
 62
     7
  6
Continuous
370
    -3
390
F
  0
LAYER
  5
6C
330
2
100
AcDbSymbolTableRecord
100
AcDbLayerTableRecord
  2
THICK_TITLE
 70
     0
 62
     7
  6
Continuous
370
   100
390
F
  0
ENDTAB
  0
TABLE
  2
STYLE
  5
3
330
0
100
AcDbSymbolTable
 70
     2
  0
STYLE
  5
11
330
3
100
AcDbSymbolTableRecord
100
AcDbTextStyleTableRecord
  2
Standard
 70
     0
 40
0.0
 41
1.0
 50
0.0
 71
     0
 42
0.25
  3
txt
  4

  0
STYLE
  5
6D
330
3
100
AcDbSymbolTableRecord
100
AcDbTextStyleTableRecord
  2
SLDTEXTSTYLE0
 70
     0
 40
0.0
 41
0.75
 50
0.0
 71
     0
 42
0.25
  3
TXT
  4

  0
ENDTAB
  0
TABLE
  2
VIEW
  5
6
330
0
100
AcDbSymbolTable
 70
     0
  0
ENDTAB
  0
TABLE
  2
UCS
  5
7
330
0
100
AcDbSymbolTable
 70
     0
  0
ENDTAB
  0
TABLE
  2
APPID
  5
9
330
0
100
AcDbSymbolTable
 70
     1
  0
APPID
  5
12
330
9
100
AcDbSymbolTableRecord
100
AcDbRegAppTableRecord
  2
ACAD
 70
     0
  0
ENDTAB
  0
TABLE
  2
DIMSTYLE
  5
A
330
0
100
AcDbSymbolTable
 70
     5
100
AcDbDimStyleTable
  0
DIMSTYLE
105
27
330
A
100
AcDbSymbolTableRecord
100
AcDbDimStyleTableRecord
  2
Standard
 70
     0
178
     0
340
11
  0
DIMSTYLE
105
77
102
{ACAD_REACTORS
330
76
102
}
330
A
100
AcDbSymbolTableRecord
100
AcDbDimStyleTableRecord
  2
SLDDIMSTYLE0
 70
     0
 41
0.26
 44
0.0
 45
0.000000001
 78
    12
 79
     3
140
0.25
147
0.0625
148
0.000000001
170
     1
172
     1
173
     1
178
     0
271
     6
272
     0
276
     2
277
     5
284
    12
289
     0
340
6D
  0
DIMSTYLE
105
9B
102
{ACAD_REACTORS
330
9A
330
AF
330
C3
102
}
330
A
100
AcDbSymbolTableRecord
100
AcDbDimStyleTableRecord
  2
SLDDIMSTYLE1
 70
     0
 41
0.26
 44
0.0
 45
0.000000001
 78
    12
 79
     3
140
0.25
147
0.0625
148
0.000000001
170
     1
173
     1
178
     0
271
     6
272
     0
276
     2
277
     5
284
    12
340
6D
  0
DIMSTYLE
105
D8
102
{ACAD_REACTORS
330
D7
102
}
330
A
100
AcDbSymbolTableRecord
100
AcDbDimStyleTableRecord
  2
SLDDIMSTYLE2
 70
     0
 41
0.26
 44
0.0
 45
0.000000001
 78
    12
 79
     3
140
0.25
141
0.0
147
0.0625
148
0.000000001
170
     1
173
     1
178
     0
271
     0
272
     0
276
     2
277
     5
284
    12
340
6D
  0
DIMSTYLE
105
ED
330
A
100
AcDbSymbolTableRecord
100
AcDbDimStyleTableRecord
  2
SLDDIMSTYLE3
 70
     0
 41
0.26
 44
0.0
 45
0.000000001
146
0.26
147
0.0
173
     1
178
     0
271
     0
272
     0
276
     2
277
     5
340
11
  0
ENDTAB
  0
TABLE
  2
BLOCK_RECORD
  5
1
330
0
100
AcDbSymbolTable
 70
     8
  0
BLOCK_RECORD
  5
1F
330
1
100
AcDbSymbolTableRecord
100
AcDbBlockTableRecord
  2
*Model_Space
340
22
  0
BLOCK_RECORD
  5
1B
330
1
100
AcDbSymbolTableRecord
100
AcDbBlockTableRecord
  2
*Paper_Space
340
1E
  0
BLOCK_RECORD
  5
23
330
1
100
AcDbSymbolTableRecord
100
AcDbBlockTableRecord
  2
*Paper_Space0
340
26
  0
BLOCK_RECORD
  5
78
330
1
100
AcDbSymbolTableRecord
100
AcDbBlockTableRecord
  2
_D
340
0
  0
BLOCK_RECORD
  5
9C
330
1
100
AcDbSymbolTableRecord
100
AcDbBlockTableRecord
  2
_D_1
340
0
  0
BLOCK_RECORD
  5
B0
330
1
100
AcDbSymbolTableRecord
100
AcDbBlockTableRecord
  2
_D_2
340
0
  0
BLOCK_RECORD
  5
C4
330
1
100
AcDbSymbolTableRecord
100
AcDbBlockTableRecord
  2
_D_3
340
0
  0
BLOCK_RECORD
  5
D9
330
1
100
AcDbSymbolTableRecord
100
AcDbBlockTableRecord
  2
_D_4
340
0
  0
BLOCK_RECORD
  5
EF
330
1
100
AcDbSymbolTableRecord
100
AcDbBlockTableRecord
  2
SW_CENTERMARKSYMBOL_0
340
0
102
{BLKREFS
331
FA
102
}
  0
BLOCK_RECORD
  5
FB
330
1
100
AcDbSymbolTableRecord
100
AcDbBlockTableRecord
  2
SW_CENTERMARKSYMBOL_1
340
0
102
{BLKREFS
331
106
102
}
  0
ENDTAB
  0
ENDSEC
  0
SECTION
  2
BLOCKS
  0
BLOCK
  5
20
330
1F
100
AcDbEntity
  8
0
100
AcDbBlockBegin
  2
*Model_Space
 70
     0
 10
0.0
 20
0.0
 30
0.0
  3
*Model_Space
  1

  0
ENDBLK
  5
21
330
1F
100
AcDbEntity
  8
0
100
AcDbBlockEnd
  0
BLOCK
  5
1C
330
1B
100
AcDbEntity
 67
     1
  8
0
100
AcDbBlockBegin
  2
*Paper_Space
 70
     0
 10
0.0
 20
0.0
 30
0.0
  3
*Paper_Space
  1

  0
ENDBLK
  5
1D
330
1B
100
AcDbEntity
 67
     1
  8
0
100
AcDbBlockEnd
  0
BLOCK
  5
24
330
23
100
AcDbEntity
  8
0
100
AcDbBlockBegin
  2
*Paper_Space0
 70
     0
 10
0.0
 20
0.0
 30
0.0
  3
*Paper_Space0
  1

  0
ENDBLK
  5
25
330
23
100
AcDbEntity
  8
0
100
AcDbBlockEnd
  0
BLOCK
  5
79
330
78
100
AcDbEntity
  8
0
100
AcDbBlockBegin
  2
_D
 70
     0
 10
0.0
 20
0.0
 30
0.0
  3
_D
  1

  0
SOLID
  5
7B
330
78
100
AcDbEntity
  8
SLD-0
100
AcDbTrace
 10
3.5500702516
 20
9.5153291859
 30
0.0
 11
3.2900702516
 21
9.5553291859
 31
0.0
 12
3.2900702516
 22
9.4753291859
 32
0.0
 13
3.2900702516
 23
9.4753291859
 33
0.0
  0
SOLID
  5
7C
330
78
100
AcDbEntity
  8
SLD-0
100
AcDbTrace
 10
3.9250702516
 20
9.5153291859
 30
0.0
 11
4.1850702516
 21
9.4753291859
 31
0.0
 12
4.1850702516
 22
9.5553291859
 32
0.0
 13
4.1850702516
 23
9.5553291859
 33
0.0
  0
LINE
  5
7D
330
78
100
AcDbEntity
  8
SLD-0
100
AcDbLine
 10
1.8109209997
 20
9.5134194246
 30
0.0
 11
1.7347491255
 21
9.5134194246
 31
0.0
  0
LINE
  5
7E
330
78
100
AcDbEntity
  8
SLD-0
100
AcDbLine
 10
1.7347491255
 20
9.5134194246
 30
0.0
 11
1.7347491255
 21
9.1165444127
 31
0.0
  0
LINE
  5
7F
330
78
100
AcDbEntity
  8
SLD-0
100
AcDbLine
 10
1.7347491255
 20
9.1165444127
 30
0.0
 11
1.8109209997
 21
9.1165444127
 31
0.0
  0
LINE
  5
80
330
78
100
AcDbEntity
  8
SLD-0
100
AcDbLine
 10
2.8053654651
 20
9.5134194246
 30
0.0
 11
2.8815373394
 21
9.5134194246
 31
0.0
  0
LINE
  5
81
330
78
100
AcDbEntity
  8
SLD-0
100
AcDbLine
 10
2.8815373394
 20
9.5134194246
 30
0.0
 11
2.8815373394
 21
9.1165444127
 31
0.0
  0
LINE
  5
82
330
78
100
AcDbEntity
  8
SLD-0
100
AcDbLine
 10
2.8815373394
 20
9.1165444127
 30
0.0
 11
2.8053654651
 21
9.1165444127
 31
0.0
  0
LINE
  5
83
330
78
100
AcDbEntity
  8
SLD-0
100
AcDbLine
 10
3.5500702516
 20
8.8279276111
 30
0.0
 11
3.5500702516
 21
9.7653291859
 31
0.0
  0
LINE
  5
84
330
78
100
AcDbEntity
  8
SLD-0
100
AcDbLine
 10
3.9250702516
 20
8.7779276111
 30
0.0
 11
3.9250702516
 21
9.7653291859
 31
0.0
  0
LINE
  5
85
330
78
100
AcDbEntity
  8
SLD-0
100
AcDbLine
 10
3.5500702516
 20
9.5153291859
 30
0.0
 11
3.1007646731
 21
9.5153291859
 31
0.0
  0
LINE
  5
86
330
78
100
AcDbEntity
  8
SLD-0
100
AcDbLine
 10
3.9250702516
 20
9.5153291859
 30
0.0
 11
4.4250702516
 21
9.5153291859
 31
0.0
  0
MTEXT
  5
87
330
78
100
AcDbEntity
  8
SLD-0
100
AcDbMText
 10
1.6599661399
 20
9.8902870796
 30
0.0
 40
0.25
 41
0.0
 71
     1
 72
     1
  1

  7
SLDTEXTSTYLE0
 73
     1
 44
1.0
  0
MTEXT
  5
88
330
78
100
AcDbEntity
  8
SLD-0
100
AcDbMText
 10
1.9989418093
 20
9.8864676167
 30
0.0
 40
0.25
 41
0.0
 71
     1
 72
     1
  1
3/8"
  7
SLDTEXTSTYLE0
 73
     1
 44
1.0
  0
MTEXT
  5
89
330
78
100
AcDbEntity
  8
SLD-0
100
AcDbMText
 10
1.8109209997
 20
9.4388113751
 30
0.0
 40
0.25
 41
0.0
 71
     1
 72
     1
  1
10mm
  7
SLDTEXTSTYLE0
 73
     1
 44
1.0
  0
MTEXT
  5
8A
330
78
100
AcDbEntity
  8
SLD-0
100
AcDbMText
 10
3.0514591586
 20
9.8902870796
 30
0.0
 40
0.25
 41
0.0
 71
     1
 72
     1
  1

  7
SLDTEXTSTYLE0
 73
     1
 44
1.0
  0
ENDBLK
  5
7A
330
78
100
AcDbEntity
  8
0
100
AcDbBlockEnd
  0
BLOCK
  5
9D
330
9C
100
AcDbEntity
  8
0
100
AcDbBlockBegin
  2
_D_1
 70
     0
 10
0.0
 20
0.0
 30
0.0
  3
_D_1
  1

  0
SOLID
  5
9F
330
9C
100
AcDbEntity
  8
SLD-0
100
AcDbTrace
 10
8.5866846684
 20
10.4602110756
 30
0.0
 11
8.8466846684
 21
10.4202110756
 31
0.0
 12
8.8466846684
 22
10.5002110756
 32
0.0
 13
8.8466846684
 23
10.5002110756
 33
0.0
  0
SOLID
  5
A0
330
9C
100
AcDbEntity
  8
SLD-0
100
AcDbTrace
 10
12.0866846684
 20
10.4602110756
 30
0.0
 11
11.8266846684
 21
10.5002110756
 31
0.0
 12
11.8266846684
 22
10.4202110756
 32
0.0
 13
11.8266846684
 23
10.4202110756
 33
0.0
  0
LINE
  5
A1
330
9C
100
AcDbEntity
  8
SLD-0
100
AcDbLine
 10
9.8394624724
 20
10.4583013144
 30
0.0
 11
9.7632905982
 21
10.4583013144
 31
0.0
  0
LINE
  5
A2
330
9C
100
AcDbEntity
  8
SLD-0
100
AcDbLine
 10
9.7632905982
 20
10.4583013144
 30
0.0
 11
9.7632905982
 21
10.0614263024
 31
0.0
  0
LINE
  5
A3
330
9C
100
AcDbEntity
  8
SLD-0
100
AcDbLine
 10
9.7632905982
 20
10.0614263024
 30
0.0
 11
9.8394624724
 21
10.0614263024
 31
0.0
  0
LINE
  5
A4
330
9C
100
AcDbEntity
  8
SLD-0
100
AcDbLine
 10
10.8339069378
 20
10.4583013144
 30
0.0
 11
10.910078812
 21
10.4583013144
 31
0.0
  0
LINE
  5
A5
330
9C
100
AcDbEntity
  8
SLD-0
100
AcDbLine
 10
10.910078812
 20
10.4583013144
 30
0.0
 11
10.910078812
 21
10.0614263024
 31
0.0
  0
LINE
  5
A6
330
9C
100
AcDbEntity
  8
SLD-0
100
AcDbLine
 10
10.910078812
 20
10.0614263024
 30
0.0
 11
10.8339069378
 21
10.0614263024
 31
0.0
  0
LINE
  5
A7
330
9C
100
AcDbEntity
  8
SLD-0
100
AcDbLine
 10
8.5866846684
 20
8.8279276111
 30
0.0
 11
8.5866846684
 21
10.7102110756
 31
0.0
  0
LINE
  5
A8
330
9C
100
AcDbEntity
  8
SLD-0
100
AcDbLine
 10
12.0866846684
 20
8.8279276111
 30
0.0
 11
12.0866846684
 21
10.7102110756
 31
0.0
  0
LINE
  5
A9
330
9C
100
AcDbEntity
  8
SLD-0
100
AcDbLine
 10
8.5866846684
 20
10.4602110756
 30
0.0
 11
9.5440631911
 21
10.4602110756
 31
0.0
  0
LINE
  5
AA
330
9C
100
AcDbEntity
  8
SLD-0
100
AcDbLine
 10
12.0866846684
 20
10.4602110756
 30
0.0
 11
11.1293061458
 21
10.4602110756
 31
0.0
  0
MTEXT
  5
AB
330
9C
100
AcDbEntity
  8
SLD-0
100
AcDbMText
 10
9.6885076126
 20
10.8351689694
 30
0.0
 40
0.25
 41
0.0
 71
     1
 72
     1
  1

  7
SLDTEXTSTYLE0
 73
     1
 44
1.0
  0
MTEXT
  5
AC
330
9C
100
AcDbEntity
  8
SLD-0
100
AcDbMText
 10
9.8889416425
 20
10.8313495064
 30
0.0
 40
0.25
 41
0.0
 71
     1
 72
     1
  1
3 1/2"
  7
SLDTEXTSTYLE0
 73
     1
 44
1.0
  0
MTEXT
  5
AD
330
9C
100
AcDbEntity
  8
SLD-0
100
AcDbMText
 10
9.8394624724
 20
10.3836932649
 30
0.0
 40
0.25
 41
0.0
 71
     1
 72
     1
  1
89mm
  7
SLDTEXTSTYLE0
 73
     1
 44
1.0
  0
MTEXT
  5
AE
330
9C
100
AcDbEntity
  8
SLD-0
100
AcDbMText
 10
11.0800006313
 20
10.8351689694
 30
0.0
 40
0.25
 41
0.0
 71
     1
 72
     1
  1

  7
SLDTEXTSTYLE0
 73
     1
 44
1.0
  0
ENDBLK
  5
9E
330
9C
100
AcDbEntity
  8
0
100
AcDbBlockEnd
  0
BLOCK
  5
B1
330
B0
100
AcDbEntity
  8
0
100
AcDbBlockBegin
  2
_D_2
 70
     0
 10
0.0
 20
0.0
 30
0.0
  3
_D_2
  1

  0
SOLID
  5
B3
330
B0
100
AcDbEntity
  8
SLD-0
100
AcDbTrace
 10
7.7992830936
 20
5.2279276111
 30
0.0
 11
7.8392830936
 21
5.4879276111
 31
0.0
 12
7.7592830936
 22
5.4879276111
 32
0.0
 13
7.7592830936
 23
5.4879276111
 33
0.0
  0
SOLID
  5
B4
330
B0
100
AcDbEntity
  8
SLD-0
100
AcDbTrace
 10
7.7992830936
 20
8.7279276111
 30
0.0
 11
7.7592830936
 21
8.4679276111
 31
0.0
 12
7.8392830936
 22
8.4679276111
 32
0.0
 13
7.8392830936
 23
8.4679276111
 33
0.0
  0
LINE
  5
B5
330
B0
100
AcDbEntity
  8
SLD-0
100
AcDbLine
 10
7.3020608976
 20
6.9760178498
 30
0.0
 11
7.2258890234
 21
6.9760178498
 31
0.0
  0
LINE
  5
B6
330
B0
100
AcDbEntity
  8
SLD-0
100
AcDbLine
 10
7.2258890234
 20
6.9760178498
 30
0.0
 11
7.2258890234
 21
6.5791428379
 31
0.0
  0
LINE
  5
B7
330
B0
100
AcDbEntity
  8
SLD-0
100
AcDbLine
 10
7.2258890234
 20
6.5791428379
 30
0.0
 11
7.3020608976
 21
6.5791428379
 31
0.0
  0
LINE
  5
B8
330
B0
100
AcDbEntity
  8
SLD-0
100
AcDbLine
 10
8.296505363
 20
6.9760178498
 30
0.0
 11
8.3726772372
 21
6.9760178498
 31
0.0
  0
LINE
  5
B9
330
B0
100
AcDbEntity
  8
SLD-0
100
AcDbLine
 10
8.3726772372
 20
6.9760178498
 30
0.0
 11
8.3726772372
 21
6.5791428379
 31
0.0
  0
LINE
  5
BA
330
B0
100
AcDbEntity
  8
SLD-0
100
AcDbLine
 10
8.3726772372
 20
6.5791428379
 30
0.0
 11
8.296505363
 21
6.5791428379
 31
0.0
  0
LINE
  5
BB
330
B0
100
AcDbEntity
  8
SLD-0
100
AcDbLine
 10
8.4866846684
 20
5.2279276111
 30
0.0
 11
7.5492830936
 21
5.2279276111
 31
0.0
  0
LINE
  5
BC
330
B0
100
AcDbEntity
  8
SLD-0
100
AcDbLine
 10
8.4866846684
 20
8.7279276111
 30
0.0
 11
7.5492830936
 21
8.7279276111
 31
0.0
  0
LINE
  5
BD
330
B0
100
AcDbEntity
  8
SLD-0
100
AcDbLine
 10
7.7992830936
 20
5.2279276111
 30
0.0
 11
7.7992830936
 21
6.5283616678
 31
0.0
  0
LINE
  5
BE
330
B0
100
AcDbEntity
  8
SLD-0
100
AcDbLine
 10
7.7992830936
 20
8.7279276111
 30
0.0
 11
7.7992830936
 21
7.4274935543
 31
0.0
  0
MTEXT
  5
BF
330
B0
100
AcDbEntity
  8
SLD-0
100
AcDbMText
 10
7.1511060378
 20
7.3528855048
 30
0.0
 40
0.25
 41
0.0
 71
     1
 72
     1
  1

  7
SLDTEXTSTYLE0
 73
     1
 44
1.0
  0
MTEXT
  5
C0
330
B0
100
AcDbEntity
  8
SLD-0
100
AcDbMText
 10
7.3515400677
 20
7.3490660418
 30
0.0
 40
0.25
 41
0.0
 71
     1
 72
     1
  1
3 1/2"
  7
SLDTEXTSTYLE0
 73
     1
 44
1.0
  0
MTEXT
  5
C1
330
B0
100
AcDbEntity
  8
SLD-0
100
AcDbMText
 10
7.3020608976
 20
6.9014098003
 30
0.0
 40
0.25
 41
0.0
 71
     1
 72
     1
  1
89mm
  7
SLDTEXTSTYLE0
 73
     1
 44
1.0
  0
MTEXT
  5
C2
330
B0
100
AcDbEntity
  8
SLD-0
100
AcDbMText
 10
8.5425990565
 20
7.3528855048
 30
0.0
 40
0.25
 41
0.0
 71
     1
 72
     1
  1

  7
SLDTEXTSTYLE0
 73
     1
 44
1.0
  0
ENDBLK
  5
B2
330
B0
100
AcDbEntity
  8
0
100
AcDbBlockEnd
  0
BLOCK
  5
C5
330
C4
100
AcDbEntity
  8
0
100
AcDbBlockBegin
  2
_D_3
 70
     0
 10
0.0
 20
0.0
 30
0.0
  3
_D_3
  1

  0
SOLID
  5
C7
330
C4
100
AcDbEntity
  8
SLD-0
100
AcDbTrace
 10
8.9616846684
 20
9.5153291859
 30
0.0
 11
9.2216846684
 21
9.4753291859
 31
0.0
 12
9.2216846684
 22
9.5553291859
 32
0.0
 13
9.2216846684
 23
9.5553291859
 33
0.0
  0
SOLID
  5
C8
330
C4
100
AcDbEntity
  8
SLD-0
100
AcDbTrace
 10
11.7116846684
 20
9.5153291859
 30
0.0
 11
11.4516846684
 21
9.5553291859
 31
0.0
 12
11.4516846684
 22
9.4753291859
 32
0.0
 13
11.4516846684
 23
9.4753291859
 33
0.0
  0
LINE
  5
C9
330
C4
100
AcDbEntity
  8
SLD-0
100
AcDbLine
 10
9.8394624724
 20
9.5134194246
 30
0.0
 11
9.7632905982
 21
9.5134194246
 31
0.0
  0
LINE
  5
CA
330
C4
100
AcDbEntity
  8
SLD-0
100
AcDbLine
 10
9.7632905982
 20
9.5134194246
 30
0.0
 11
9.7632905982
 21
9.1165444127
 31
0.0
  0
LINE
  5
CB
330
C4
100
AcDbEntity
  8
SLD-0
100
AcDbLine
 10
9.7632905982
 20
9.1165444127
 30
0.0
 11
9.8394624724
 21
9.1165444127
 31
0.0
  0
LINE
  5
CC
330
C4
100
AcDbEntity
  8
SLD-0
100
AcDbLine
 10
10.8339069378
 20
9.5134194246
 30
0.0
 11
10.910078812
 21
9.5134194246
 31
0.0
  0
LINE
  5
CD
330
C4
100
AcDbEntity
  8
SLD-0
100
AcDbLine
 10
10.910078812
 20
9.5134194246
 30
0.0
 11
10.910078812
 21
9.1165444127
 31
0.0
  0
LINE
  5
CE
330
C4
100
AcDbEntity
  8
SLD-0
100
AcDbLine
 10
10.910078812
 20
9.1165444127
 30
0.0
 11
10.8339069378
 21
9.1165444127
 31
0.0
  0
LINE
  5
CF
330
C4
100
AcDbEntity
  8
SLD-0
100
AcDbLine
 10
8.9616846684
 20
7.2951176111
 30
0.0
 11
8.9616846684
 21
9.7653291859
 31
0.0
  0
LINE
  5
D0
330
C4
100
AcDbEntity
  8
SLD-0
100
AcDbLine
 10
11.7116846684
 20
7.2951176111
 30
0.0
 11
11.7116846684
 21
9.7653291859
 31
0.0
  0
LINE
  5
D1
330
C4
100
AcDbEntity
  8
SLD-0
100
AcDbLine
 10
8.9616846684
 20
9.5153291859
 30
0.0
 11
9.5440631911
 21
9.5153291859
 31
0.0
  0
LINE
  5
D2
330
C4
100
AcDbEntity
  8
SLD-0
100
AcDbLine
 10
11.7116846684
 20
9.5153291859
 30
0.0
 11
11.1293061458
 21
9.5153291859
 31
0.0
  0
MTEXT
  5
D3
330
C4
100
AcDbEntity
  8
SLD-0
100
AcDbMText
 10
9.6885076126
 20
9.8902870796
 30
0.0
 40
0.25
 41
0.0
 71
     1
 72
     1
  1

  7
SLDTEXTSTYLE0
 73
     1
 44
1.0
  0
MTEXT
  5
D4
330
C4
100
AcDbEntity
  8
SLD-0
100
AcDbMText
 10
9.8889416425
 20
9.8864676167
 30
0.0
 40
0.25
 41
0.0
 71
     1
 72
     1
  1
2 3/4"
  7
SLDTEXTSTYLE0
 73
     1
 44
1.0
  0
MTEXT
  5
D5
330
C4
100
AcDbEntity
  8
SLD-0
100
AcDbMText
 10
9.8394624724
 20
9.4388113751
 30
0.0
 40
0.25
 41
0.0
 71
     1
 72
     1
  1
70mm
  7
SLDTEXTSTYLE0
 73
     1
 44
1.0
  0
MTEXT
  5
D6
330
C4
100
AcDbEntity
  8
SLD-0
100
AcDbMText
 10
11.0800006313
 20
9.8902870796
 30
0.0
 40
0.25
 41
0.0
 71
     1
 72
     1
  1

  7
SLDTEXTSTYLE0
 73
     1
 44
1.0
  0
ENDBLK
  5
C6
330
C4
100
AcDbEntity
  8
0
100
AcDbBlockEnd
  0
BLOCK
  5
DA
330
D9
100
AcDbEntity
  8
0
100
AcDbBlockBegin
  2
_D_4
 70
     0
 10
0.0
 20
0.0
 30
0.0
  3
_D_4
  1

  0
SOLID
  5
DC
330
D9
100
AcDbEntity
  8
SLD-0
100
AcDbTrace
 10
10.5412316513
 20
6.6179879886
 30
0.0
 11
10.6349143339
 21
6.3721759568
 31
0.0
 12
10.7044678842
 22
6.4117019438
 32
0.0
 13
10.7044678842
 23
6.4117019438
 33
0.0
  0
LINE
  5
DD
330
D9
100
AcDbEntity
  8
SLD-0
100
AcDbLine
 10
14.1910869589
 20
4.391150865
 30
0.0
 11
14.1149150847
 21
4.391150865
 31
0.0
  0
LINE
  5
DE
330
D9
100
AcDbEntity
  8
SLD-0
100
AcDbLine
 10
14.1149150847
 20
4.391150865
 30
0.0
 11
14.1149150847
 21
3.9942758531
 31
0.0
  0
LINE
  5
DF
330
D9
100
AcDbEntity
  8
SLD-0
100
AcDbLine
 10
14.1149150847
 20
3.9942758531
 30
0.0
 11
14.1910869589
 21
3.9942758531
 31
0.0
  0
LINE
  5
E0
330
D9
100
AcDbEntity
  8
SLD-0
100
AcDbLine
 10
15.1855314243
 20
4.391150865
 30
0.0
 11
15.2617032985
 21
4.391150865
 31
0.0
  0
LINE
  5
E1
330
D9
100
AcDbEntity
  8
SLD-0
100
AcDbLine
 10
15.2617032985
 20
4.391150865
 30
0.0
 11
15.2617032985
 21
3.9942758531
 31
0.0
  0
LINE
  5
E2
330
D9
100
AcDbEntity
  8
SLD-0
100
AcDbLine
 10
15.2617032985
 20
3.9942758531
 30
0.0
 11
15.1855314243
 21
3.9942758531
 31
0.0
  0
LINE
  5
E3
330
D9
100
AcDbEntity
  8
SLD-0
100
AcDbLine
 10
10.5412316513
 20
6.6179879886
 30
0.0
 11
12.173864751
 21
3.7450571175
 31
0.0
  0
LINE
  5
E4
330
D9
100
AcDbEntity
  8
SLD-0
100
AcDbLine
 10
12.173864751
 20
3.7450571175
 30
0.0
 11
12.9027448269
 21
3.7450571175
 31
0.0
  0
MTEXT
  5
E5
330
D9
100
AcDbEntity
  8
SLD-0
100
AcDbMText
 10
12.673864751
 20
4.3127233709
 30
0.0
 40
0.25
 41
0.0
 71
     1
 72
     1
  1
%%c
  7
SLDTEXTSTYLE0
 73
     1
 44
1.0
  0
MTEXT
  5
E6
330
D9
100
AcDbEntity
  8
SLD-0
100
AcDbMText
 10
13.0508959922
 20
4.3165428155
 30
0.0
 40
0.25
 41
0.0
 71
     1
 72
     1
  1
13/16"
  7
SLDTEXTSTYLE0
 73
     1
 44
1.0
  0
MTEXT
  5
E7
330
D9
100
AcDbEntity
  8
SLD-0
100
AcDbMText
 10
14.1910869589
 20
4.3165428155
 30
0.0
 40
0.25
 41
0.0
 71
     1
 72
     1
  1
21mm
  7
SLDTEXTSTYLE0
 73
     1
 44
1.0
  0
MTEXT
  5
E8
330
D9
100
AcDbEntity
  8
SLD-0
100
AcDbMText
 10
15.4316252828
 20
4.3165428155
 30
0.0
 40
0.25
 41
0.0
 71
     1
 72
     1
  1
THRU
  7
SLDTEXTSTYLE0
 73
     1
 44
1.0
  0
MTEXT
  5
E9
330
D9
100
AcDbEntity
  8
SLD-0
100
AcDbMText
 10
12.9027448269
 20
3.8688865602
 30
0.0
 40
0.25
 41
0.0
 71
     1
 72
     1
  1
FIXTURE MOUNTING
  7
SLDTEXTSTYLE0
 73
     1
 44
1.0
  0
MTEXT
  5
EA
330
D9
100
AcDbEntity
  8
SLD-0
100
AcDbMText
 10
14.022362823
 20
3.4720115483
 30
0.0
 40
0.25
 41
0.0
 71
     1
 72
     1
  1
HOLE
  7
SLDTEXTSTYLE0
 73
     1
 44
1.0
  0
ENDBLK
  5
DB
330
D9
100
AcDbEntity
  8
0
100
AcDbBlockEnd
  0
BLOCK
  5
F0
330
EF
100
AcDbEntity
  8
0
100
AcDbBlockBegin
  2
SW_CENTERMARKSYMBOL_0
 70
     0
 10
0.0
 20
0.0
 30
0.0
  3
SW_CENTERMARKSYMBOL_0
  1

  0
LINE
  5
F2
330
EF
100
AcDbEntity
  8
SLD-0
 62
     0
100
AcDbLine
 10
0.0
 20
0.0
 30
0.0
 11
0.0
 21
0.1
 31
0.0
  0
LINE
  5
F3
330
EF
100
AcDbEntity
  8
SLD-0
 62
     0
100
AcDbLine
 10
0.0
 20
0.0
 30
0.0
 11
-0.1
 21
0.0
 31
0.0
  0
LINE
  5
F4
330
EF
100
AcDbEntity
  8
SLD-0
 62
     0
100
AcDbLine
 10
0.0
 20
0.0
 30
0.0
 11
0.0
 21
-0.1
 31
0.0
  0
LINE
  5
F5
330
EF
100
AcDbEntity
  8
SLD-0
 62
     0
100
AcDbLine
 10
0.0
 20
0.0
 30
0.0
 11
0.1
 21
0.0
 31
0.0
  0
LINE
  5
F6
330
EF
100
AcDbEntity
  8
SLD-0
 62
     0
100
AcDbLine
 10
0.0
 20
0.2
 30
0.0
 11
0.0
 21
0.21719
 31
0.0
  0
LINE
  5
F7
330
EF
100
AcDbEntity
  8
SLD-0
 62
     0
100
AcDbLine
 10
-0.2
 20
0.0
 30
0.0
 11
-0.21719
 21
0.0
 31
0.0
  0
LINE
  5
F8
330
EF
100
AcDbEntity
  8
SLD-0
 62
     0
100
AcDbLine
 10
0.0
 20
-0.2
 30
0.0
 11
0.0
 21
-0.21719
 31
0.0
  0
LINE
  5
F9
330
EF
100
AcDbEntity
  8
SLD-0
 62
     0
100
AcDbLine
 10
0.2
 20
0.0
 30
0.0
 11
1.4617058507
 21
0.0
 31
0.0
  0
ENDBLK
  5
F1
330
EF
100
AcDbEntity
  8
0
100
AcDbBlockEnd
  0
BLOCK
  5
FC
330
FB
100
AcDbEntity
  8
0
100
AcDbBlockBegin
  2
SW_CENTERMARKSYMBOL_1
 70
     0
 10
0.0
 20
0.0
 30
0.0
  3
SW_CENTERMARKSYMBOL_1
  1

  0
LINE
  5
FE
330
FB
100
AcDbEntity
  8
SLD-0
 62
     0
100
AcDbLine
 10
0.0
 20
0.0
 30
0.0
 11
0.0
 21
0.1
 31
0.0
  0
LINE
  5
FF
330
FB
100
AcDbEntity
  8
SLD-0
 62
     0
100
AcDbLine
 10
0.0
 20
0.0
 30
0.0
 11
-0.1
 21
0.0
 31
0.0
  0
LINE
  5
100
330
FB
100
AcDbEntity
  8
SLD-0
 62
     0
100
AcDbLine
 10
0.0
 20
0.0
 30
0.0
 11
0.0
 21
-0.1
 31
0.0
  0
LINE
  5
101
330
FB
100
AcDbEntity
  8
SLD-0
 62
     0
100
AcDbLine
 10
0.0
 20
0.0
 30
0.0
 11
0.1
 21
0.0
 31
0.0
  0
LINE
  5
102
330
FB
100
AcDbEntity
  8
SLD-0
 62
     0
100
AcDbLine
 10
0.0
 20
0.2
 30
0.0
 11
0.0
 21
0.21719
 31
0.0
  0
LINE
  5
103
330
FB
100
AcDbEntity
  8
SLD-0
 62
     0
100
AcDbLine
 10
-0.2
 20
0.0
 30
0.0
 11
-1.3378268261
 21
0.0
 31
0.0
  0
LINE
  5
104
330
FB
100
AcDbEntity
  8
SLD-0
 62
     0
100
AcDbLine
 10
0.0
 20
-0.2
 30
0.0
 11
0.0
 21
-0.21719
 31
0.0
  0
LINE
  5
105
330
FB
100
AcDbEntity
  8
SLD-0
 62
     0
100
AcDbLine
 10
0.2
 20
0.0
 30
0.0
 11
0.21719
 21
0.0
 31
0.0
  0
ENDBLK
  5
FD
330
FB
100
AcDbEntity
  8
0
100
AcDbBlockEnd
  0
ENDSEC
  0
SECTION
  2
ENTITIES
  0
MTEXT
  5
6E
330
1F
100
AcDbEntity
  8
SLD-0
100
AcDbMText
 10
17.5084710744
 20
1.6865019925
 30
0.0
 40
0.25
 41
0.0
 71
     1
 72
     1
  1
BC9
  7
SLDTEXTSTYLE0
 73
     1
 44
1.0
  0
LINE
  5
6F
330
1F
100
AcDbEntity
  8
0
  6
Continuous
 62
     7
370
    25
100
AcDbLine
 10
3.5500702516
 20
8.7279276111
 30
0.0
 11
3.5500702516
 21
5.2279276111
 31
0.0
  0
LINE
  5
70
330
1F
100
AcDbEntity
  8
0
  6
Continuous
 62
     7
370
    25
100
AcDbLine
 10
3.8750702516
 20
8.7279276111
 30
0.0
 11
3.5500702516
 21
8.7279276111
 31
0.0
  0
LINE
  5
71
330
1F
100
AcDbEntity
  8
0
  6
Continuous
 62
     7
370
    25
100
AcDbLine
 10
3.8750702516
 20
5.2279276111
 30
0.0
 11
3.8750702516
 21
8.7279276111
 31
0.0
  0
LINE
  5
72
330
1F
100
AcDbEntity
  8
0
  6
Continuous
 62
     7
370
    25
100
AcDbLine
 10
3.8750702516
 20
5.2279276111
 30
0.0
 11
3.5500702516
 21
5.2279276111
 31
0.0
  0
LINE
  5
73
330
1F
100
AcDbEntity
  8
0
  6
Continuous
 62
     7
370
    25
100
AcDbLine
 10
3.9250702516
 20
8.6779276111
 30
0.0
 11
3.9250702516
 21
5.2779276111
 31
0.0
  0
LINE
  5
74
330
1F
100
AcDbEntity
  8
0
  6
Continuous
 62
     7
370
    25
100
AcDbLine
 10
3.9250702516
 20
5.2779276111
 30
0.0
 11
3.8750702516
 21
5.2279276111
 31
0.0
  0
LINE
  5
75
330
1F
100
AcDbEntity
  8
0
  6
Continuous
 62
     7
370
    25
100
AcDbLine
 10
3.9250702516
 20
8.6779276111
 30
0.0
 11
3.8750702516
 21
8.7279276111
 31
0.0
  0
DIMENSION
  5
76
330
1F
100
AcDbEntity
  8
SLD-0
100
AcDbDimension
  2
_D
 10
3.9250702516
 20
9.5153291859
 30
0.0
 11
2.3081431958
 21
9.5153291859
 31
0.0
 70
   160
  1
<>
 71
     2
 42
-1.0
  3
SLDDIMSTYLE0
100
AcDbAlignedDimension
 13
3.5500702516
 23
8.7279276111
 33
0.0
 14
3.9250702516
 24
8.6779276111
 34
0.0
100
AcDbRotatedDimension
  0
LINE
  5
8B
330
1F
100
AcDbEntity
  8
0
  6
Continuous
 62
     7
370
    25
100
AcDbLine
 10
8.6366846684
 20
5.2779276111
 30
0.0
 11
12.0366846684
 21
5.2779276111
 31
0.0
  0
LINE
  5
8C
330
1F
100
AcDbEntity
  8
0
  6
Continuous
 62
     7
370
    25
100
AcDbLine
 10
12.0866846684
 20
5.2279276111
 30
0.0
 11
12.0366846684
 21
5.2779276111
 31
0.0
  0
LINE
  5
8D
330
1F
100
AcDbEntity
  8
0
  6
Continuous
 62
     7
370
    25
100
AcDbLine
 10
12.0866846684
 20
5.2279276111
 30
0.0
 11
8.5866846684
 21
5.2279276111
 31
0.0
  0
LINE
  5
8E
330
1F
100
AcDbEntity
  8
0
  6
Continuous
 62
     7
370
    25
100
AcDbLine
 10
8.6366846684
 20
5.2779276111
 30
0.0
 11
8.5866846684
 21
5.2279276111
 31
0.0
  0
LINE
  5
8F
330
1F
100
AcDbEntity
  8
0
  6
Continuous
 62
     7
370
    25
100
AcDbLine
 10
12.0366846684
 20
8.6779276111
 30
0.0
 11
8.6366846684
 21
8.6779276111
 31
0.0
  0
LINE
  5
90
330
1F
100
AcDbEntity
  8
0
  6
Continuous
 62
     7
370
    25
100
AcDbLine
 10
12.0366846684
 20
5.2779276111
 30
0.0
 11
12.0366846684
 21
8.6779276111
 31
0.0
  0
LINE
  5
91
330
1F
100
AcDbEntity
  8
0
  6
Continuous
 62
     7
370
    25
100
AcDbLine
 10
8.6366846684
 20
8.6779276111
 30
0.0
 11
8.6366846684
 21
5.2779276111
 31
0.0
  0
CIRCLE
  5
92
330
1F
100
AcDbEntity
  8
0
  6
Continuous
 62
     7
370
    25
100
AcDbCircle
 10
8.9616846684
 20
6.9779276111
 30
0.0
 40
0.117189999999999
  0
CIRCLE
  5
93
330
1F
100
AcDbEntity
  8
0
  6
Continuous
 62
     7
370
    25
100
AcDbCircle
 10
11.7116846684
 20
6.9779276111
 30
0.0
 40
0.117189999999999
  0
CIRCLE
  5
94
330
1F
100
AcDbEntity
  8
0
  6
Continuous
 62
     7
370
    25
100
AcDbCircle
 10
10.3366846684
 20
6.9779276111
 30
0.0
 40
0.4139999999999997
  0
LINE
  5
95
330
1F
100
AcDbEntity
  8
0
  6
Continuous
 62
     7
370
    25
100
AcDbLine
 10
8.5866846684
 20
5.2279276111
 30
0.0
 11
8.5866846684
 21
8.7279276111
 31
0.0
  0
LINE
  5
96
330
1F
100
AcDbEntity
  8
0
  6
Continuous
 62
     7
370
    25
100
AcDbLine
 10
8.6366846684
 20
8.6779276111
 30
0.0
 11
8.5866846684
 21
8.7279276111
 31
0.0
  0
LINE
  5
97
330
1F
100
AcDbEntity
  8
0
  6
Continuous
 62
     7
370
    25
100
AcDbLine
 10
12.0866846684
 20
8.7279276111
 30
0.0
 11
12.0866846684
 21
5.2279276111
 31
0.0
  0
LINE
  5
98
330
1F
100
AcDbEntity
  8
0
  6
Continuous
 62
     7
370
    25
100
AcDbLine
 10
12.0866846684
 20
8.7279276111
 30
0.0
 11
12.0366846684
 21
8.6779276111
 31
0.0
  0
LINE
  5
99
330
1F
100
AcDbEntity
  8
0
  6
Continuous
 62
     7
370
    25
100
AcDbLine
 10
8.5866846684
 20
8.7279276111
 30
0.0
 11
12.0866846684
 21
8.7279276111
 31
0.0
  0
DIMENSION
  5
9A
330
1F
100
AcDbEntity
  8
SLD-0
100
AcDbDimension
  2
_D_1
 10
12.0866846684
 20
10.4602110756
 30
0.0
 11
10.3366846684
 21
10.4602110756
 31
0.0
 70
   160
  1
<>
 71
     2
 42
-1.0
  3
SLDDIMSTYLE1
100
AcDbAlignedDimension
 13
8.5866846684
 23
8.7279276111
 33
0.0
 14
12.0866846684
 24
8.7279276111
 34
0.0
100
AcDbRotatedDimension
  0
DIMENSION
  5
AF
330
1F
100
AcDbEntity
  8
SLD-0
100
AcDbDimension
  2
_D_2
 10
7.7992830936
 20
8.7279276111
 30
0.0
 11
7.7992830936
 21
6.9779276111
 31
0.0
 70
   160
  1
<>
 71
     2
 42
-1.0
  3
SLDDIMSTYLE1
100
AcDbAlignedDimension
 13
8.5866846684
 23
5.2279276111
 33
0.0
 14
8.5866846684
 24
8.7279276111
 34
0.0
 50
90.0
100
AcDbRotatedDimension
  0
DIMENSION
  5
C3
330
1F
100
AcDbEntity
  8
SLD-0
100
AcDbDimension
  2
_D_3
 10
11.7116846684
 20
9.5153291859
 30
0.0
 11
10.3366846684
 21
9.5153291859
 31
0.0
 70
   160
  1
<>
 71
     2
 42
-1.0
  3
SLDDIMSTYLE1
100
AcDbAlignedDimension
 13
8.9616846684
 23
7.1951176111
 33
0.0
 14
11.7116846684
 24
7.1951176111
 34
0.0
100
AcDbRotatedDimension
  0
DIMENSION
  5
D7
330
1F
100
AcDbEntity
  8
SLD-0
100
AcDbDimension
  2
_D_4
 10
10.1321376856
 20
7.3378672335
 30
0.0
 11
14.4473628234
 21
3.7958383654
 31
0.0
 70
   163
  1
<> THRU\PFIXTURE MOUNTING\PHOLE
 71
     1
 42
-1.0
  3
SLDDIMSTYLE2
100
AcDbDiametricDimension
 15
10.5412316513
 25
6.6179879886
 35
0.0
 40
0.0
  0
MTEXT
  5
EB
330
1F
100
AcDbEntity
  8
SLD-0
100
AcDbMText
 10
16.2458122382
 20
5.3253881994
 30
0.0
 40
0.25
 41
0.0
 71
     2
 72
     1
  1
2X #10-24 CLEARANCE HOLES
  7
SLDTEXTSTYLE0
 73
     1
 44
1.0
  0
MTEXT
  5
EC
330
1F
100
AcDbEntity
  8
SLD-0
100
AcDbMText
 10
16.2542322015
 20
4.9966480504
 30
0.0
 40
0.25
 41
0.0
 71
     2
 72
     1
  1
(HARDWARE INCLUDED)
  7
SLDTEXTSTYLE0
 73
     1
 44
1.0
  0
LEADER
  5
EE
330
1F
100
AcDbEntity
  8
SLD-0
100
AcDbLeader
  3
SLDDIMSTYLE3
 76
     3
 10
11.7993531515
 20
6.9001604381
 30
0.0
 10
13.3681365831
 20
5.2083717131
 30
0.0
 10
13.8681365831
 20
5.2083717131
 30
0.0
  0
INSERT
  5
FA
330
1F
100
AcDbEntity
  8
SLD-0
100
AcDbBlockReference
  2
SW_CENTERMARKSYMBOL_0
 10
8.9616846684
 20
6.9779276111
 30
0.0
  0
INSERT
  5
106
330
1F
100
AcDbEntity
  8
SLD-0
100
AcDbBlockReference
  2
SW_CENTERMARKSYMBOL_1
 10
11.7116846684
 20
6.9779276111
 30
0.0
  0
LINE
  5
107
330
1F
100
AcDbEntity
  8
0
  6
Continuous
 62
     7
370
    25
100
AcDbLine
 10
15.9613516244
 20
13.906764899
 30
0.0
 11
15.9613516244
 21
11.0488720574
 31
0.0
  0
LINE
  5
108
330
1F
100
AcDbEntity
  8
0
  6
Continuous
 62
     7
370
    25
100
AcDbLine
 10
15.9613516244
 20
11.0488720574
 30
0.0
 11
15.8906409463
 21
11.089699098
 31
0.0
  0
LINE
  5
109
330
1F
100
AcDbEntity
  8
0
  6
Continuous
 62
     7
370
    25
100
AcDbLine
 10
15.8906409463
 20
11.089699098
 30
0.0
 11
15.8906409463
 21
13.8659378584
 31
0.0
  0
LINE
  5
10A
330
1F
100
AcDbEntity
  8
0
  6
Continuous
 62
     7
370
    25
100
AcDbLine
 10
15.9613516244
 20
13.906764899
 30
0.0
 11
15.8906409463
 21
13.8659378584
 31
0.0
  0
LINE
  5
10B
330
1F
100
AcDbEntity
  8
0
  6
Continuous
 62
     7
370
    25
100
AcDbLine
 10
15.8906409463
 20
13.8659378584
 30
0.0
 11
13.4864778902
 21
15.2538316485
 31
0.0
  0
LINE
  5
10C
330
1F
100
AcDbEntity
  8
0
  6
Continuous
 62
     7
370
    25
100
AcDbLine
 10
13.4864778902
 20
15.2538316485
 30
0.0
 11
13.4864778902
 21
15.3354790947
 31
0.0
  0
LINE
  5
10D
330
1F
100
AcDbEntity
  8
0
  6
Continuous
 62
     7
370
    25
100
AcDbLine
 10
13.4864778902
 20
15.3354790947
 30
0.0
 11
15.9613516244
 21
13.906764899
 31
0.0
  0
LINE
  5
10E
330
1F
100
AcDbEntity
  8
0
  6
Continuous
 62
     7
370
    25
100
AcDbLine
 10
16.1911613283
 20
11.1815383756
 30
0.0
 11
16.1911613283
 21
14.0394312172
 31
0.0
  0
LINE
  5
10F
330
1F
100
AcDbEntity
  8
0
  6
Continuous
 62
     7
370
    25
100
AcDbLine
 10
15.9613516244
 20
11.0488720574
 30
0.0
 11
16.1911613283
 21
11.1815383756
 31
0.0
  0
LINE
  5
110
330
1F
100
AcDbEntity
  8
0
  6
Continuous
 62
     7
370
    25
100
AcDbLine
 10
15.9613516244
 20
13.906764899
 30
0.0
 11
16.1911613283
 21
14.0394312172
 31
0.0
  0
LINE
  5
111
330
1F
100
AcDbEntity
  8
0
  6
Continuous
 62
     7
370
    25
100
AcDbLine
 10
16.1911613283
 20
14.0394312172
 30
0.0
 11
13.7162875941
 21
15.4681454129
 31
0.0
  0
LINE
  5
112
330
1F
100
AcDbEntity
  8
0
  6
Continuous
 62
     7
370
    25
100
AcDbLine
 10
13.4864778902
 20
15.3354790947
 30
0.0
 11
13.7162875941
 21
15.4681454129
 31
0.0
  0
LWPOLYLINE
  5
113
330
1F
100
AcDbEntity
  8
0
  6
Continuous
 62
     7
370
    25
100
AcDbPolyline
 90
       60
 70
   128
 43
0.0
 10
14.9813016257
 20
13.0027688941
 10
14.9796431826
 20
13.0396585821
 10
14.9746866441
 20
13.0780450929
 10
14.9664881699
 20
13.1174934919
 10
14.9551406518
 20
13.1575568129
 10
14.9407726618
 20
13.1977811227
 10
14.9235469951
 20
13.2377106636
 10
14.9036588251
 20
13.276893018
 10
14.881333493
 20
13.3148842342
 10
14.8568239535
 20
13.3512538565
 10
14.8304079096
 20
13.3855898026
 10
14.8023846657
 20
13.4175030324
 10
14.7730717362
 20
13.4466319564
 10
14.7428012484
 20
13.4726465322
 10
14.7119161789
 20
13.4952520042
 10
14.680766468
 20
13.5141922434
 10
14.6497050544
 20
13.5292526493
 10
14.6190838763
 20
13.5402625816
 10
14.5892498837
 20
13.5470972933
 10
14.5605411079
 20
13.5496793443
 10
14.5332828308
 20
13.547979479
 10
14.5077838993
 20
13.5420169576
 10
14.4843332268
 20
13.5318593378
 10
14.4631965186
 20
13.5176217095
 10
14.4446132621
 20
13.4994653907
 10
14.4287940131
 20
13.4775960998
 10
14.4159180098
 20
13.4522616245
 10
14.4061311427
 20
13.4237490146
 10
14.3995443008
 20
13.3923813294
 10
14.3962321156
 20
13.3585139772
 10
14.3962321156
 20
13.3225306888
 10
14.3995443008
 20
13.284839169
 10
14.4061311427
 20
13.245866478
 10
14.4159180098
 20
13.2060541919
 10
14.4287940131
 20
13.1658533997
 10
14.4446132621
 20
13.1257195926
 10
14.4631965186
 20
13.0861075025
 10
14.4843332268
 20
13.0474659504
 10
14.5077838993
 20
13.0102327604
 10
14.5332828308
 20
12.9748297994
 10
14.5605411079
 20
12.9416581972
 10
14.5892498837
 20
12.9110938012
 10
14.6190838763
 20
12.8834829183
 10
14.6497050544
 20
12.8591383908
 10
14.680766468
 20
12.838336052
 10
14.7119161789
 20
12.8213116006
 10
14.7428012484
 20
12.8082579304
 10
14.7730717362
 20
12.7993229449
 10
14.8023846657
 20
12.7946078808
 10
14.8304079096
 20
12.7941661619
 10
14.8568239535
 20
12.7980027929
 10
14.881333493
 20
12.8060743033
 10
14.9036588251
 20
12.8182892397
 10
14.9235469951
 20
12.8345092018
 10
14.9407726618
 20
12.8545504112
 10
14.9551406518
 20
12.8781857928
 10
14.9664881699
 20
12.9051475484
 10
14.9746866441
 20
12.9351301905
 10
14.9796431826
 20
12.9677940038
 10
14.9813016257
 20
13.0027688941
  0
LWPOLYLINE
  5
114
330
1F
100
AcDbEntity
  8
0
  6
Continuous
 62
     7
370
    25
100
AcDbPolyline
 90
       32
 70
   128
 43
0.0
 10
15.7436970861
 20
12.5626473631
 10
15.7420008174
 20
12.5828889376
 10
15.7369814568
 20
12.6042602899
 10
15.7288444974
 20
12.6258864742
 10
15.7179230674
 20
12.6468821119
 10
15.7046642914
 20
12.6663876394
 10
15.6896109852
 20
12.6836044978
 10
15.6733794329
 20
12.6978278271
 10
15.6566341563
 20
12.7084753224
 10
15.6400607088
 20
12.7151110741
 10
15.6243376095
 20
12.7174634137
 10
15.6101085637
 20
12.7154360361
 10
15.5979561104
 20
12.7091119425
 10
15.5883777724
 20
12.6987500419
 10
15.5817656879
 20
12.6847745517
 10
15.5783905565
 20
12.6677576303
 10
15.5783905565
 20
12.6483959523
 10
15.5817656879
 20
12.6274821872
 10
15.5883777724
 20
12.6058725468
 10
15.5979561104
 20
12.5844517325
 10
15.6101085637
 20
12.5640967149
 10
15.6243376095
 20
12.5456408308
 10
15.6400607088
 20
12.5298396663
 10
15.6566341563
 20
12.5173401229
 10
15.6733794329
 20
12.5086539333
 10
15.6896109852
 20
12.5041367113
 10
15.7046642914
 20
12.5039733923
 10
15.7179230674
 20
12.5081706628
 10
15.7288444974
 20
12.5165566859
 10
15.7369814568
 20
12.5287881369
 10
15.7420008174
 20
12.5443642587
 10
15.7436970861
 20
12.5626473631
  0
LWPOLYLINE
  5
115
330
1F
100
AcDbEntity
  8
0
  6
Continuous
 62
     7
370
    25
100
AcDbPolyline
 90
       32
 70
   128
 43
0.0
 10
13.7991534378
 20
13.6852085168
 10
13.7974571691
 20
13.7054500914
 10
13.7924378085
 20
13.7268214436
 10
13.7843008491
 20
13.7484476279
 10
13.7733794191
 20
13.7694432657
 10
13.7601206431
 20
13.7889487931
 10
13.7450673369
 20
13.8061656516
 10
13.7288357847
 20
13.8203889808
 10
13.712090508
 20
13.8310364762
 10
13.6955170606
 20
13.8376722279
 10
13.6797939612
 20
13.8400245675
 10
13.6655649155
 20
13.8379971899
 10
13.6534124621
 20
13.8316730962
 10
13.6438341241
 20
13.8213111956
 10
13.6372220396
 20
13.8073357055
 10
13.6338469083
 20
13.7903187841
 10
13.6338469083
 20
13.7709571061
 10
13.6372220396
 20
13.7500433409
 10
13.6438341241
 20
13.7284337006
 10
13.6534124621
 20
13.7070128863
 10
13.6655649155
 20
13.6866578687
 10
13.6797939612
 20
13.6682019846
 10
13.6955170606
 20
13.65240082
 10
13.712090508
 20
13.6399012766
 10
13.7288357847
 20
13.6312150871
 10
13.7450673369
 20
13.626697865
 10
13.7601206431
 20
13.6265345461
 10
13.7733794191
 20
13.6307318165
 10
13.7843008491
 20
13.6391178396
 10
13.7924378085
 20
13.6513492906
 10
13.7974571691
 20
13.6669254124
 10
13.7991534378
 20
13.6852085168
  0
LINE
  5
116
330
1F
100
AcDbEntity
  8
0
  6
Continuous
 62
     7
370
    25
100
AcDbLine
 10
13.4864778902
 20
12.4775928881
 30
0.0
 11
15.8906409463
 21
11.089699098
 31
0.0
  0
LINE
  5
117
330
1F
100
AcDbEntity
  8
0
  6
Continuous
 62
     7
370
    25
100
AcDbLine
 10
13.4864778902
 20
15.2538316485
 30
0.0
 11
13.4864778902
 21
12.4775928881
 31
0.0
  0
ARC
  5
118
330
1F
100
AcDbEntity
  8
0
  6
Continuous
 62
     7
370
    25
100
AcDbCircle
 10
14.8614446738
 20
13.4486897234
 30
0.0
 40
0.2889105457301674
100
AcDbArc
 50
160.1036857983
 51
181.1655591513
  0
LWPOLYLINE
  5
119
330
1F
100
AcDbEntity
  8
0
  6
Continuous
 62
     7
370
    25
100
AcDbPolyline
 90
       19
 70
   128
 43
0.0
 10
14.9641163394
 20
12.8985702713
 10
14.9348116555
 20
12.9053191789
 10
14.9041904774
 20
12.9163291112
 10
14.8731290638
 20
12.9313895172
 10
14.8419793529
 20
12.9503297564
 10
14.8110942835
 20
12.9729352284
 10
14.7808237956
 20
12.9989498042
 10
14.7515108661
 20
13.0280787281
 10
14.7234876222
 20
13.059991958
 10
14.6970715783
 20
13.0943279041
 10
14.6725620388
 20
13.1306975264
 10
14.6502367067
 20
13.1686887426
 10
14.6303485367
 20
13.207871097
 10
14.61312287
 20
13.2478006379
 10
14.59875488
 20
13.2880249476
 10
14.5874073619
 20
13.3280882687
 10
14.5792088877
 20
13.3675366677
 10
14.5742523492
 20
13.4059231784
 10
14.5725939061
 20
13.4428128664
  0
LINE
  5
11A
330
1F
100
AcDbEntity
  8
0
  6
Continuous
 62
     7
370
    25
100
AcDbLine
 10
15.9613516244
 20
11.0488720574
 30
0.0
 11
13.4864778902
 21
12.4775862531
 31
0.0
  0
LINE
  5
11B
330
1F
100
AcDbEntity
  8
0
  6
Continuous
 62
     7
370
    25
100
AcDbLine
 10
13.4864778902
 20
12.4775928881
 30
0.0
 11
13.4864778902
 21
12.4775862531
 31
0.0
  0
ENDSEC
  0
SECTION
  2
OBJECTS
  0
DICTIONARY
  5
C
330
0
100
AcDbDictionary
281
     1
  3
ACAD_GROUP
350
D
  3
ACAD_LAYOUT
350
1A
  3
ACAD_MLINESTYLE
350
17
  3
ACAD_PLOTSETTINGS
350
19
  3
ACAD_PLOTSTYLENAME
350
E
  3
ACAD_SCALELIST
350
47
  3
DWGPROPS
350
11C
  0
DICTIONARY
  5
D
102
{ACAD_REACTORS
330
C
102
}
330
C
100
AcDbDictionary
281
     1
  0
DICTIONARY
  5
1A
102
{ACAD_REACTORS
330
C
102
}
330
C
100
AcDbDictionary
281
     1
  3
Layout1
350
1E
  3
Layout2
350
26
  3
Model
350
22
  0
DICTIONARY
  5
17
102
{ACAD_REACTORS
330
C
102
}
330
C
100
AcDbDictionary
281
     1
  3
Standard
350
18
  0
DICTIONARY
  5
19
102
{ACAD_REACTORS
330
C
102
}
330
C
100
AcDbDictionary
281
     1
  0
ACDBDICTIONARYWDFLT
  5
E
102
{ACAD_REACTORS
330
C
102
}
330
C
100
AcDbDictionary
281
     1
  3
Normal
350
F
100
AcDbDictionaryWithDefault
340
F
  0
DICTIONARY
  5
47
102
{ACAD_REACTORS
330
C
102
}
330
C
100
AcDbDictionary
281
     1
  3
A0
350
48
  3
A1
350
49
  3
A2
350
4A
  3
A3
350
4B
  3
A4
350
4C
  3
A5
350
4D
  3
A6
350
4E
  3
A7
350
4F
  3
A8
350
50
  3
A9
350
51
  3
B1
350
52
  3
B2
350
53
  3
B3
350
54
  3
B4
350
55
  3
B5
350
56
  3
B6
350
57
  3
B7
350
58
  0
XRECORD
  5
11C
102
{ACAD_REACTORS
330
C
102
}
330
C
100
AcDbXrecord
280
     1
  1
DWGPROPS COOKIE
  2

  3

  4

  6

  7

  8
shawnd
  9

300
=
301
=
302
=
303
=
304
=
305
=
306
=
307
=
308
=
309
=
 40
0.0
 41
2460889.6700797
 42
2460889.670080058
  1

 90
        0
  0
LAYOUT
  5
1E
102
{ACAD_REACTORS
330
1A
102
}
330
1A
100
AcDbPlotSettings
  1

  2
none_device
  4

  6

 40
0.0
 41
0.0
 42
0.0
 43
0.0
 44
0.0
 45
0.0
 46
0.0
 47
0.0
 48
0.0
 49
0.0
140
0.0
141
0.0
142
1.0
143
1.0
 70
   688
 72
     0
 73
     0
 74
     5
  7

 75
    16
147
1.0
148
0.0
149
0.0
100
AcDbLayout
  1
Layout1
 70
     1
 71
     1
 10
0.0
 20
0.0
 11
12.0
 21
9.0
 12
0.0
 22
0.0
 32
0.0
 14
1.0000000000E+20
 24
1.0000000000E+20
 34
1.0000000000E+20
 15
-1.0000000000E+20
 25
-1.0000000000E+20
 35
-1.0000000000E+20
146
0.0
 13
0.0
 23
0.0
 33
0.0
 16
1.0
 26
0.0
 36
0.0
 17
0.0
 27
1.0
 37
0.0
 76
     0
330
1B
  0
LAYOUT
  5
26
102
{ACAD_REACTORS
330
1A
102
}
330
1A
100
AcDbPlotSettings
  1

  2
none_device
  4

  6

 40
0.0
 41
0.0
 42
0.0
 43
0.0
 44
0.0
 45
0.0
 46
0.0
 47
0.0
 48
0.0
 49
0.0
140
0.0
141
0.0
142
1.0
143
1.0
 70
   688
 72
     0
 73
     0
 74
     5
  7

 75
    16
147
1.0
148
0.0
149
0.0
100
AcDbLayout
  1
Layout2
 70
     1
 71
     2
 10
0.0
 20
0.0
 11
0.0
 21
0.0
 12
0.0
 22
0.0
 32
0.0
 14
0.0
 24
0.0
 34
0.0
 15
0.0
 25
0.0
 35
0.0
146
0.0
 13
0.0
 23
0.0
 33
0.0
 16
1.0
 26
0.0
 36
0.0
 17
0.0
 27
1.0
 37
0.0
 76
     0
330
23
  0
LAYOUT
  5
22
102
{ACAD_REACTORS
330
1A
102
}
330
1A
100
AcDbPlotSettings
  1

  2
none_device
  4
Letter_(8.50_x_11.00_Inches)
  6

 40
6.35
 41
6.35
 42
6.35000508
 43
6.35000508
 44
215.9
 45
279.4
 46
0.0
 47
0.0
 48
0.0
 49
0.0
140
0.0
141
0.0
142
1.0
143
1.0
 70
  1712
 72
     0
 73
     0
 74
     0
  7

 75
     0
147
1.0
148
0.0
149
0.0
100
AcDbLayout
  1
Model
 70
     1
 71
     0
 10
0.0
 20
0.0
 11
22.0
 21
17.0
 12
0.0
 22
0.0
 32
0.0
 14
0.0
 24
0.0
 34
0.0
 15
22.0
 25
17.0
 35
0.0
146
0.0
 13
0.0
 23
0.0
 33
0.0
 16
1.0
 26
0.0
 36
0.0
 17
0.0
 27
1.0
 37
0.0
 76
     0
330
1F
331
29
  0
MLINESTYLE
  5
18
102
{ACAD_REACTORS
330
17
102
}
330
17
100
AcDbMlineStyle
  2
Standard
 70
     0
  3

 62
   256
 51
90.0
 52
90.0
 71
     2
 49
0.5
 62
   256
  6
BYLAYER
 49
-0.5
 62
   256
  6
BYLAYER
  0
ACDBPLACEHOLDER
  5
F
102
{ACAD_REACTORS
330
E
102
}
330
E
  0
SCALE
  5
48
102
{ACAD_REACTORS
330
47
102
}
330
47
100
AcDbScale
 70
     0
300
1:1
140
1.0
141
1.0
290
     1
  0
SCALE
  5
49
102
{ACAD_REACTORS
330
47
102
}
330
47
100
AcDbScale
 70
     0
300
1/128" = 1'-0"
140
0.0078125
141
12.0
290
     0
  0
SCALE
  5
4A
102
{ACAD_REACTORS
330
47
102
}
330
47
100
AcDbScale
 70
     0
300
1/64" = 1'-0"
140
0.015625
141
12.0
290
     0
  0
SCALE
  5
4B
102
{ACAD_REACTORS
330
47
102
}
330
47
100
AcDbScale
 70
     0
300
1/32" = 1'-0"
140
0.03125
141
12.0
290
     0
  0
SCALE
  5
4C
102
{ACAD_REACTORS
330
47
102
}
330
47
100
AcDbScale
 70
     0
300
1/16" = 1'-0"
140
0.0625
141
12.0
290
     0
  0
SCALE
  5
4D
102
{ACAD_REACTORS
330
47
102
}
330
47
100
AcDbScale
 70
     0
300
3/32" = 1'-0"
140
0.09375
141
12.0
290
     0
  0
SCALE
  5
4E
102
{ACAD_REACTORS
330
47
102
}
330
47
100
AcDbScale
 70
     0
300
1/8" = 1'-0"
140
0.125
141
12.0
290
     0
  0
SCALE
  5
4F
102
{ACAD_REACTORS
330
47
102
}
330
47
100
AcDbScale
 70
     0
300
3/16" = 1'-0"
140
0.1875
141
12.0
290
     0
  0
SCALE
  5
50
102
{ACAD_REACTORS
330
47
102
}
330
47
100
AcDbScale
 70
     0
300
1/4" = 1'-0"
140
0.25
141
12.0
290
     0
  0
SCALE
  5
51
102
{ACAD_REACTORS
330
47
102
}
330
47
100
AcDbScale
 70
     0
300
3/8" = 1'-0"
140
0.375
141
12.0
290
     0
  0
SCALE
  5
52
102
{ACAD_REACTORS
330
47
102
}
330
47
100
AcDbScale
 70
     0
300
1/2" = 1'-0"
140
0.5
141
12.0
290
     0
  0
SCALE
  5
53
102
{ACAD_REACTORS
330
47
102
}
330
47
100
AcDbScale
 70
     0
300
3/4" = 1'-0"
140
0.75
141
12.0
290
     0
  0
SCALE
  5
54
102
{ACAD_REACTORS
330
47
102
}
330
47
100
AcDbScale
 70
     0
300
1" = 1'-0"
140
1.0
141
12.0
290
     0
  0
SCALE
  5
55
102
{ACAD_REACTORS
330
47
102
}
330
47
100
AcDbScale
 70
     0
300
1-1/2" = 1'-0"
140
1.5
141
12.0
290
     0
  0
SCALE
  5
56
102
{ACAD_REACTORS
330
47
102
}
330
47
100
AcDbScale
 70
     0
300
3" = 1'-0"
140
3.0
141
12.0
290
     0
  0
SCALE
  5
57
102
{ACAD_REACTORS
330
47
102
}
330
47
100
AcDbScale
 70
     0
300
6" = 1'-0"
140
6.0
141
12.0
290
     0
  0
SCALE
  5
58
102
{ACAD_REACTORS
330
47
102
}
330
47
100
AcDbScale
 70
     0
300
1'-0" = 1'-0"
140
12.0
141
12.0
290
     0
  0
ENDSEC
  0
EOF
