  0
SECTION
  2
HEADER
  9
$ACADVER
  1
AC1015
  9
$ACADMAINTVER
 70
     6
  9
$DWGCODEPAGE
  3
ANSI_1252
  9
$INSBASE
 10
0.0
 20
0.0
 30
0.0
  9
$EXTMIN
 10
0.0
 20
0.0
 30
0.0
  9
$EXTMAX
 10
55.0
 20
42.5
 30
0.0
  9
$LIMMIN
 10
0.0
 20
0.0
  9
$LIMMAX
 10
55.0
 20
42.5
  9
$ORTHOMODE
 70
     0
  9
$REGENMODE
 70
     1
  9
$FILLMODE
 70
     1
  9
$QTEXTMODE
 70
     0
  9
$MIRRTEXT
 70
     1
  9
$LTSCALE
 40
5.0
  9
$ATTMODE
 70
     1
  9
$TEXTSIZE
 40
0.625
  9
$TRACEWID
 40
0.05
  9
$TEXTSTYLE
  7
Standard
  9
$CLAYER
  8
0
  9
$CELTYPE
  6
ByLayer
  9
$CECOLOR
 62
   256
  9
$CELTSCALE
 40
1.0
  9
$DISPSILH
 70
     0
  9
$DIMSCALE
 40
1.0
  9
$DIMASZ
 40
0.65
  9
$DIMEXO
 40
0.75
  9
$DIMDLI
 40
0.38
  9
$DIMRND
 40
0.0
  9
$DIMDLE
 40
0.0
  9
$DIMEXE
 40
0.5
  9
$DIMTP
 40
0.0
  9
$DIMTM
 40
0.0
  9
$DIMTXT
 40
0.625
  9
$DIMCEN
 40
0.09
  9
$DIMTSZ
 40
0.0
  9
$DIMTOL
 70
     0
  9
$DIMLIM
 70
     0
  9
$DIMTIH
 70
     1
  9
$DIMTOH
 70
     1
  9
$DIMSE1
 70
     0
  9
$DIMSE2
 70
     0
  9
$DIMTAD
 70
     0
  9
$DIMZIN
 70
     0
  9
$DIMBLK
  1

  9
$DIMASO
 70
     1
  9
$DIMSHO
 70
     1
  9
$DIMPOST
  1

  9
$DIMAPOST
  1

  9
$DIMALT
 70
     0
  9
$DIMALTD
 70
     2
  9
$DIMALTF
 40
25.4
  9
$DIMLFAC
 40
1.0
  9
$DIMTOFL
 70
     0
  9
$DIMTVP
 40
0.0
  9
$DIMTIX
 70
     0
  9
$DIMSOXD
 70
     0
  9
$DIMSAH
 70
     0
  9
$DIMBLK1
  1

  9
$DIMBLK2
  1

  9
$DIMSTYLE
  2
Standard
  9
$DIMCLRD
 70
     0
  9
$DIMCLRE
 70
     0
  9
$DIMCLRT
 70
     0
  9
$DIMTFAC
 40
1.0
  9
$DIMGAP
 40
0.3
  9
$DIMJUST
 70
     0
  9
$DIMSD1
 70
     0
  9
$DIMSD2
 70
     0
  9
$DIMTOLJ
 70
     1
  9
$DIMTZIN
 70
     0
  9
$DIMALTZ
 70
     0
  9
$DIMALTTZ
 70
     0
  9
$DIMUPT
 70
     0
  9
$DIMDEC
 70
     2
  9
$DIMTDEC
 70
     2
  9
$DIMALTU
 70
     2
  9
$DIMALTTD
 70
     2
  9
$DIMTXSTY
  7
Standard
  9
$DIMAUNIT
 70
     0
  9
$DIMADEC
 70
     0
  9
$DIMALTRND
 40
0.0
  9
$DIMAZIN
 70
     0
  9
$DIMDSEP
 70
    46
  9
$DIMATFIT
 70
     3
  9
$DIMFRAC
 70
     0
  9
$DIMLDRBLK
  1

  9
$DIMLUNIT
 70
     2
  9
$DIMLWD
 70
    -2
  9
$DIMLWE
 70
    -2
  9
$DIMTMOVE
 70
     0
  9
$LUNITS
 70
     2
  9
$LUPREC
 70
     2
  9
$SKETCHINC
 40
0.1
  9
$FILLETRAD
 40
0.0
  9
$AUNITS
 70
     0
  9
$AUPREC
 70
     0
  9
$MENU
  1
.
  9
$ELEVATION
 40
0.0
  9
$PELEVATION
 40
0.0
  9
$THICKNESS
 40
0.0
  9
$LIMCHECK
 70
     0
  9
$CHAMFERA
 40
0.0
  9
$CHAMFERB
 40
0.0
  9
$CHAMFERC
 40
0.0
  9
$CHAMFERD
 40
0.0
  9
$SKPOLY
 70
     0
  9
$TDCREATE
 40
2460892.435034213
  9
$TDUCREATE
 40
2460892.72670088
  9
$TDUPDATE
 40
2460892.435034746
  9
$TDUUPDATE
 40
2460892.726701412
  9
$TDINDWG
 40
0.0000000116
  9
$TDUSRTIMER
 40
0.0000000116
  9
$USRTIMER
 70
     1
  9
$ANGBASE
 50
0.0
  9
$ANGDIR
 70
     0
  9
$PDMODE
 70
     0
  9
$PDSIZE
 40
-1.0
  9
$PLINEWID
 40
0.0
  9
$SPLFRAME
 70
     0
  9
$SPLINETYPE
 70
     6
  9
$SPLINESEGS
 70
     8
  9
$HANDSEED
  5
4F3
  9
$SURFTAB1
 70
     6
  9
$SURFTAB2
 70
     6
  9
$SURFTYPE
 70
     6
  9
$SURFU
 70
     6
  9
$SURFV
 70
     6
  9
$UCSBASE
  2

  9
$UCSNAME
  2

  9
$UCSORG
 10
0.0
 20
0.0
 30
0.0
  9
$UCSXDIR
 10
1.0
 20
0.0
 30
0.0
  9
$UCSYDIR
 10
0.0
 20
1.0
 30
0.0
  9
$UCSORTHOREF
  2

  9
$UCSORTHOVIEW
 70
     0
  9
$UCSORGTOP
 10
0.0
 20
0.0
 30
0.0
  9
$UCSORGBOTTOM
 10
0.0
 20
0.0
 30
0.0
  9
$UCSORGLEFT
 10
0.0
 20
0.0
 30
0.0
  9
$UCSORGRIGHT
 10
0.0
 20
0.0
 30
0.0
  9
$UCSORGFRONT
 10
0.0
 20
0.0
 30
0.0
  9
$UCSORGBACK
 10
0.0
 20
0.0
 30
0.0
  9
$PUCSBASE
  2

  9
$PUCSNAME
  2

  9
$PUCSORG
 10
0.0
 20
0.0
 30
0.0
  9
$PUCSXDIR
 10
1.0
 20
0.0
 30
0.0
  9
$PUCSYDIR
 10
0.0
 20
1.0
 30
0.0
  9
$PUCSORTHOREF
  2

  9
$PUCSORTHOVIEW
 70
     0
  9
$PUCSORGTOP
 10
0.0
 20
0.0
 30
0.0
  9
$PUCSORGBOTTOM
 10
0.0
 20
0.0
 30
0.0
  9
$PUCSORGLEFT
 10
0.0
 20
0.0
 30
0.0
  9
$PUCSORGRIGHT
 10
0.0
 20
0.0
 30
0.0
  9
$PUCSORGFRONT
 10
0.0
 20
0.0
 30
0.0
  9
$PUCSORGBACK
 10
0.0
 20
0.0
 30
0.0
  9
$USERI1
 70
     0
  9
$USERI2
 70
     0
  9
$USERI3
 70
     0
  9
$USERI4
 70
     0
  9
$USERI5
 70
     0
  9
$USERR1
 40
0.0
  9
$USERR2
 40
0.0
  9
$USERR3
 40
0.0
  9
$USERR4
 40
0.0
  9
$USERR5
 40
0.0
  9
$WORLDVIEW
 70
     1
  9
$SHADEDGE
 70
     3
  9
$SHADEDIF
 70
    70
  9
$TILEMODE
 70
     1
  9
$MAXACTVP
 70
    64
  9
$PINSBASE
 10
0.0
 20
0.0
 30
0.0
  9
$PLIMCHECK
 70
     0
  9
$PEXTMIN
 10
1.0000000000E+20
 20
1.0000000000E+20
 30
1.0000000000E+20
  9
$PEXTMAX
 10
-1.0000000000E+20
 20
-1.0000000000E+20
 30
-1.0000000000E+20
  9
$PLIMMIN
 10
0.0
 20
0.0
  9
$PLIMMAX
 10
12.0
 20
9.0
  9
$UNITMODE
 70
     0
  9
$VISRETAIN
 70
     1
  9
$PLINEGEN
 70
     0
  9
$PSLTSCALE
 70
     1
  9
$TREEDEPTH
 70
  3020
  9
$CMLSTYLE
  2
Standard
  9
$CMLJUST
 70
     0
  9
$CMLSCALE
 40
1.0
  9
$PROXYGRAPHICS
 70
     1
  9
$MEASUREMENT
 70
     0
  9
$CELWEIGHT
370
    -1
  9
$ENDCAPS
280
     0
  9
$JOINSTYLE
280
     0
  9
$LWDISPLAY
290
     1
  9
$INSUNITS
 70
     1
  9
$HYPERLINKBASE
  1

  9
$STYLESHEET
  1

  9
$XEDIT
290
     1
  9
$CEPSNTYPE
380
     0
  9
$PSTYLEMODE
290
     1
  9
$FINGERPRINTGUID
  2
{8ed20abd-bc28-4d86-89dd-01979ea138aa}
  9
$VERSIONGUID
  2
{FAEB1C32-E019-11D5-929B-00C0DF256EC4}
  9
$EXTNAMES
290
     1
  9
$PSVPSCALE
 40
0.0
  9
$OLESTARTUP
290
     0
  0
ENDSEC
  0
SECTION
  2
CLASSES
  0
CLASS
  1
ACDBDICTIONARYWDFLT
  2
AcDbDictionaryWithDefault
  3
ObjectDBX Classes
 90
        0
280
     0
281
     0
  0
CLASS
  1
VISUALSTYLE
  2
AcDbVisualStyle
  3
ObjectDBX Classes
 90
     4095
280
     0
281
     0
  0
CLASS
  1
MATERIAL
  2
AcDbMaterial
  3
ObjectDBX Classes
 90
     1153
280
     0
281
     0
  0
CLASS
  1
SCALE
  2
AcDbScale
  3
ObjectDBX Classes
 90
     1153
280
     0
281
     0
  0
CLASS
  1
TABLESTYLE
  2
AcDbTableStyle
  3
ObjectDBX Classes
 90
     4095
280
     0
281
     0
  0
CLASS
  1
MLEADERSTYLE
  2
AcDbMLeaderStyle
  3
ACDB_MLEADERSTYLE_CLASS
 90
     4095
280
     0
281
     0
  0
CLASS
  1
SUN
  2
AcDbSun
  3
SCENEOE
 90
     1153
280
     0
281
     0
  0
CLASS
  1
ACDBPLACEHOLDER
  2
AcDbPlaceHolder
  3
ObjectDBX Classes
 90
        0
280
     0
281
     0
  0
CLASS
  1
LAYOUT
  2
AcDbLayout
  3
ObjectDBX Classes
 90
        0
280
     0
281
     0
  0
ENDSEC
  0
SECTION
  2
TABLES
  0
TABLE
  2
VPORT
  5
8
330
0
100
AcDbSymbolTable
 70
     1
  0
VPORT
  5
29
330
8
100
AcDbSymbolTableRecord
100
AcDbViewportTableRecord
  2
*Active
 70
     0
 10
0.0
 20
0.0
 11
1.0
 21
1.0
 12
27.5
 22
21.25
 13
0.0
 23
0.0
 14
0.5
 24
0.5
 15
0.5
 25
0.5
 16
0.0
 26
0.0
 36
1.0
 17
0.0
 27
0.0
 37
0.0
 40
42.5
 41
1.2941176471
 42
50.0
 43
0.0
 44
0.0
 50
0.0
 51
0.0
 71
     0
 72
  2000
 73
     1
 74
     3
 75
     0
 76
     0
 77
     0
 78
     0
281
     0
 65
     1
110
0.0
120
0.0
130
0.0
111
1.0
121
0.0
131
0.0
112
0.0
122
1.0
132
0.0
 79
     0
146
0.0
  0
ENDTAB
  0
TABLE
  2
LTYPE
  5
5
330
0
100
AcDbSymbolTable
 70
     6
  0
LTYPE
  5
14
330
5
100
AcDbSymbolTableRecord
100
AcDbLinetypeTableRecord
  2
ByBlock
 70
     0
  3

 72
    65
 73
     0
 40
0.0
  0
LTYPE
  5
15
330
5
100
AcDbSymbolTableRecord
100
AcDbLinetypeTableRecord
  2
ByLayer
 70
     0
  3

 72
    65
 73
     0
 40
0.0
  0
LTYPE
  5
16
330
5
100
AcDbSymbolTableRecord
100
AcDbLinetypeTableRecord
  2
Continuous
 70
     0
  3
Solid line
 72
    65
 73
     0
 40
0.0
  0
LTYPE
  5
5E
330
5
100
AcDbSymbolTableRecord
100
AcDbLinetypeTableRecord
  2
HIDDEN
 70
     0
  3
Hidden __ __ __ __ __ __ __ __ __ __ __ __ __ __
 72
    65
 73
     2
 40
0.075
 49
0.05
 74
     0
 49
-0.025
 74
     0
  0
LTYPE
  5
5F
330
5
100
AcDbSymbolTableRecord
100
AcDbLinetypeTableRecord
  2
PHANTOM
 70
     0
  3
Phantom ______  __  __  ______  __  __  ______
 72
    65
 73
     6
 40
0.5
 49
0.25
 74
     0
 49
-0.05
 74
     0
 49
0.05
 74
     0
 49
-0.05
 74
     0
 49
0.05
 74
     0
 49
-0.05
 74
     0
  0
LTYPE
  5
60
330
5
100
AcDbSymbolTableRecord
100
AcDbLinetypeTableRecord
  2
CENTER
 70
     0
  3
Center ____ _ ____ _ ____ _ ____ _ ____ _ ____
 72
    65
 73
     4
 40
0.4
 49
0.25
 74
     0
 49
-0.05
 74
     0
 49
0.05
 74
     0
 49
-0.05
 74
     0
  0
LTYPE
  5
61
330
5
100
AcDbSymbolTableRecord
100
AcDbLinetypeTableRecord
  2
CENTERX2
 70
     0
  3
Center (2x) ________  __  ________  __  _____
 72
    65
 73
     4
 40
0.8
 49
0.5
 74
     0
 49
-0.1
 74
     0
 49
0.1
 74
     0
 49
-0.1
 74
     0
  0
LTYPE
  5
62
330
5
100
AcDbSymbolTableRecord
100
AcDbLinetypeTableRecord
  2
DOT2
 70
     0
  3
Dot (.5x) ........................................
 72
    65
 73
     2
 40
0.025
 49
0.0
 74
     0
 49
-0.025
 74
     0
  0
ENDTAB
  0
TABLE
  2
LAYER
  5
2
330
0
100
AcDbSymbolTable
 70
    11
  0
LAYER
  5
10
330
2
100
AcDbSymbolTableRecord
100
AcDbLayerTableRecord
  2
0
 70
     0
 62
     7
  6
Continuous
370
    -3
390
F
  0
LAYER
  5
63
330
2
100
AcDbSymbolTableRecord
100
AcDbLayerTableRecord
  2
SLD-0
 70
     0
 62
     7
  6
Continuous
370
    -3
390
F
  0
LAYER
  5
64
330
2
100
AcDbSymbolTableRecord
100
AcDbLayerTableRecord
  2
DIM
 70
     0
 62
     7
  6
Continuous
370
    -3
390
F
  0
LAYER
  5
65
330
2
100
AcDbSymbolTableRecord
100
AcDbLayerTableRecord
  2
CEN
 70
     0
 62
     1
  6
CENTER
370
    -3
390
F
  0
LAYER
  5
66
330
2
100
AcDbSymbolTableRecord
100
AcDbLayerTableRecord
  2
HAT
 70
     0
 62
     4
  6
Continuous
370
    -3
390
F
  0
LAYER
  5
67
330
2
100
AcDbSymbolTableRecord
100
AcDbLayerTableRecord
  2
OBJ
 70
     0
 62
     5
  6
Continuous
370
    -3
390
F
  0
LAYER
  5
68
330
2
100
AcDbSymbolTableRecord
100
AcDbLayerTableRecord
  2
SLD-DEFPOINTS
 70
     0
 62
     7
  6
Continuous
370
    -3
390
F
  0
LAYER
  5
69
330
2
100
AcDbSymbolTableRecord
100
AcDbLayerTableRecord
  2
HID
 70
     0
 62
     4
  6
HIDDEN
370
    -3
390
F
  0
LAYER
  5
6A
330
2
100
AcDbSymbolTableRecord
100
AcDbLayerTableRecord
  2
NOTE
 70
     0
 62
     7
  6
Continuous
370
    -3
390
F
  0
LAYER
  5
6B
330
2
100
AcDbSymbolTableRecord
100
AcDbLayerTableRecord
  2
TITLE
 70
     0
 62
     7
  6
Continuous
370
    -3
390
F
  0
LAYER
  5
6C
330
2
100
AcDbSymbolTableRecord
100
AcDbLayerTableRecord
  2
THICK_TITLE
 70
     0
 62
     7
  6
Continuous
370
   100
390
F
  0
ENDTAB
  0
TABLE
  2
STYLE
  5
3
330
0
100
AcDbSymbolTable
 70
     2
  0
STYLE
  5
11
330
3
100
AcDbSymbolTableRecord
100
AcDbTextStyleTableRecord
  2
Standard
 70
     0
 40
0.0
 41
1.0
 50
0.0
 71
     0
 42
0.625
  3
txt
  4

  0
STYLE
  5
6D
330
3
100
AcDbSymbolTableRecord
100
AcDbTextStyleTableRecord
  2
SLDTEXTSTYLE0
 70
     0
 40
0.0
 41
0.75
 50
0.0
 71
     0
 42
0.625
  3
TXT
  4

  0
ENDTAB
  0
TABLE
  2
VIEW
  5
6
330
0
100
AcDbSymbolTable
 70
     0
  0
ENDTAB
  0
TABLE
  2
UCS
  5
7
330
0
100
AcDbSymbolTable
 70
     0
  0
ENDTAB
  0
TABLE
  2
APPID
  5
9
330
0
100
AcDbSymbolTable
 70
     1
  0
APPID
  5
12
330
9
100
AcDbSymbolTableRecord
100
AcDbRegAppTableRecord
  2
ACAD
 70
     0
  0
ENDTAB
  0
TABLE
  2
DIMSTYLE
  5
A
330
0
100
AcDbSymbolTable
 70
     5
100
AcDbDimStyleTable
  0
DIMSTYLE
105
27
330
A
100
AcDbSymbolTableRecord
100
AcDbDimStyleTableRecord
  2
Standard
 70
     0
178
     0
340
11
  0
DIMSTYLE
105
14A
102
{ACAD_REACTORS
330
149
102
}
330
A
100
AcDbSymbolTableRecord
100
AcDbDimStyleTableRecord
  2
SLDDIMSTYLE0
 70
     0
 41
0.65
 44
0.0
 45
0.000000001
 78
    12
 79
     3
140
0.625
144
1.25
147
0.15625
148
0.000000001
170
     1
172
     1
173
     1
178
     0
271
     6
272
     2
276
     2
277
     5
284
    12
289
     0
340
6D
  0
DIMSTYLE
105
15F
102
{ACAD_REACTORS
330
15E
330
4DE
102
}
330
A
100
AcDbSymbolTableRecord
100
AcDbDimStyleTableRecord
  2
SLDDIMSTYLE1
 70
     0
 41
0.65
 44
0.0
 45
0.000000001
 78
    12
 79
     3
140
0.625
144
1.25
147
0.15625
148
0.000000001
170
     1
173
     1
178
     0
271
     6
272
     2
276
     2
277
     5
284
    12
340
6D
  0
DIMSTYLE
105
232
102
{ACAD_REACTORS
330
231
330
23E
102
}
330
A
100
AcDbSymbolTableRecord
100
AcDbDimStyleTableRecord
  2
SLDDIMSTYLE2
 70
     0
 41
0.65
 44
0.0
 78
    12
 79
     3
140
0.625
144
5.0
147
0.15625
148
0.000000001
170
     1
173
     1
178
     0
272
     0
276
     2
277
     5
284
    12
340
6D
  0
DIMSTYLE
105
4C9
102
{ACAD_REACTORS
330
4C8
102
}
330
A
100
AcDbSymbolTableRecord
100
AcDbDimStyleTableRecord
  2
SLDDIMSTYLE3
 70
     0
 41
0.65
 44
0.0
 45
0.000000001
 78
    12
 79
     3
140
0.625
144
1.25
147
0.15625
148
0.000000001
170
     1
173
     1
178
     0
271
     2
272
     2
276
     2
277
     5
284
    12
340
6D
  0
ENDTAB
  0
TABLE
  2
BLOCK_RECORD
  5
1
330
0
100
AcDbSymbolTable
 70
     7
  0
BLOCK_RECORD
  5
1F
330
1
100
AcDbSymbolTableRecord
100
AcDbBlockTableRecord
  2
*Model_Space
340
22
  0
BLOCK_RECORD
  5
1B
330
1
100
AcDbSymbolTableRecord
100
AcDbBlockTableRecord
  2
*Paper_Space
340
1E
  0
BLOCK_RECORD
  5
23
330
1
100
AcDbSymbolTableRecord
100
AcDbBlockTableRecord
  2
*Paper_Space0
340
26
  0
BLOCK_RECORD
  5
14B
330
1
100
AcDbSymbolTableRecord
100
AcDbBlockTableRecord
  2
_D
340
0
  0
BLOCK_RECORD
  5
160
330
1
100
AcDbSymbolTableRecord
100
AcDbBlockTableRecord
  2
_D_1
340
0
  0
BLOCK_RECORD
  5
233
330
1
100
AcDbSymbolTableRecord
100
AcDbBlockTableRecord
  2
_D_2
340
0
  0
BLOCK_RECORD
  5
23F
330
1
100
AcDbSymbolTableRecord
100
AcDbBlockTableRecord
  2
_D_3
340
0
  0
BLOCK_RECORD
  5
4CA
330
1
100
AcDbSymbolTableRecord
100
AcDbBlockTableRecord
  2
_D_4
340
0
  0
BLOCK_RECORD
  5
4DF
330
1
100
AcDbSymbolTableRecord
100
AcDbBlockTableRecord
  2
_D_5
340
0
  0
ENDTAB
  0
ENDSEC
  0
SECTION
  2
BLOCKS
  0
BLOCK
  5
20
330
1F
100
AcDbEntity
  8
0
100
AcDbBlockBegin
  2
*Model_Space
 70
     0
 10
0.0
 20
0.0
 30
0.0
  3
*Model_Space
  1

  0
ENDBLK
  5
21
330
1F
100
AcDbEntity
  8
0
100
AcDbBlockEnd
  0
BLOCK
  5
1C
330
1B
100
AcDbEntity
 67
     1
  8
0
100
AcDbBlockBegin
  2
*Paper_Space
 70
     0
 10
0.0
 20
0.0
 30
0.0
  3
*Paper_Space
  1

  0
ENDBLK
  5
1D
330
1B
100
AcDbEntity
 67
     1
  8
0
100
AcDbBlockEnd
  0
BLOCK
  5
24
330
23
100
AcDbEntity
  8
0
100
AcDbBlockBegin
  2
*Paper_Space0
 70
     0
 10
0.0
 20
0.0
 30
0.0
  3
*Paper_Space0
  1

  0
ENDBLK
  5
25
330
23
100
AcDbEntity
  8
0
100
AcDbBlockEnd
  0
BLOCK
  5
14C
330
14B
100
AcDbEntity
  8
0
100
AcDbBlockBegin
  2
_D
 70
     0
 10
0.0
 20
0.0
 30
0.0
  3
_D
  1

  0
SOLID
  5
14E
330
14B
100
AcDbEntity
  8
DIM
100
AcDbTrace
 10
25.0978915376
 20
12.5953420338
 30
0.0
 11
25.1978915376
 21
13.2453420338
 31
0.0
 12
24.9978915376
 22
13.2453420338
 32
0.0
 13
24.9978915376
 23
13.2453420338
 33
0.0
  0
SOLID
  5
14F
330
14B
100
AcDbEntity
  8
DIM
100
AcDbTrace
 10
25.0978915376
 20
7.9653420338
 30
0.0
 11
24.9978915376
 21
7.3153420338
 31
0.0
 12
25.1978915376
 22
7.3153420338
 32
0.0
 13
25.1978915376
 23
7.3153420338
 33
0.0
  0
LINE
  5
150
330
14B
100
AcDbEntity
  8
DIM
100
AcDbLine
 10
23.6239333149
 20
10.4140857771
 30
0.0
 11
23.4335036293
 21
10.4140857771
 31
0.0
  0
LINE
  5
151
330
14B
100
AcDbEntity
  8
DIM
100
AcDbLine
 10
23.4335036293
 20
10.4140857771
 30
0.0
 11
23.4335036293
 21
9.4218982473
 31
0.0
  0
LINE
  5
152
330
14B
100
AcDbEntity
  8
DIM
100
AcDbLine
 10
23.4335036293
 20
9.4218982473
 30
0.0
 11
23.6239333149
 21
9.4218982473
 31
0.0
  0
LINE
  5
153
330
14B
100
AcDbEntity
  8
DIM
100
AcDbLine
 10
26.5718499436
 20
10.4140857771
 30
0.0
 11
26.7622796292
 21
10.4140857771
 31
0.0
  0
LINE
  5
154
330
14B
100
AcDbEntity
  8
DIM
100
AcDbLine
 10
26.7622796292
 20
10.4140857771
 30
0.0
 11
26.7622796292
 21
9.4218982473
 31
0.0
  0
LINE
  5
155
330
14B
100
AcDbEntity
  8
DIM
100
AcDbLine
 10
26.7622796292
 20
9.4218982473
 30
0.0
 11
26.5718499436
 21
9.4218982473
 31
0.0
  0
LINE
  5
156
330
14B
100
AcDbEntity
  8
DIM
100
AcDbLine
 10
15.7579207448
 20
12.5953420338
 30
0.0
 11
25.5978915376
 21
12.5953420338
 31
0.0
  0
LINE
  5
157
330
14B
100
AcDbEntity
  8
DIM
100
AcDbLine
 10
15.7579207448
 20
7.9653420338
 30
0.0
 11
25.5978915376
 21
7.9653420338
 31
0.0
  0
LINE
  5
158
330
14B
100
AcDbEntity
  8
DIM
100
AcDbLine
 10
25.0978915376
 20
12.5953420338
 30
0.0
 11
25.0978915376
 21
13.8453420338
 31
0.0
  0
LINE
  5
159
330
14B
100
AcDbEntity
  8
DIM
100
AcDbLine
 10
25.0978915376
 20
7.9653420338
 30
0.0
 11
25.0978915376
 21
6.7153420338
 31
0.0
  0
MTEXT
  5
15A
330
14B
100
AcDbEntity
  8
DIM
100
AcDbMText
 10
23.2465461653
 20
11.3562549147
 30
0.0
 40
0.625
 41
0.0
 71
     1
 72
     1
  1

  7
SLDTEXTSTYLE0
 73
     1
 44
1.0
  0
MTEXT
  5
15B
330
14B
100
AcDbEntity
  8
DIM
100
AcDbMText
 10
23.9785339727
 20
11.3467062573
 30
0.0
 40
0.625
 41
0.0
 71
     1
 72
     1
  1
4 5/8"
  7
SLDTEXTSTYLE0
 73
     1
 44
1.0
  0
MTEXT
  5
15C
330
14B
100
AcDbEntity
  8
DIM
100
AcDbMText
 10
23.6239333149
 20
10.2275656534
 30
0.0
 40
0.625
 41
0.0
 71
     1
 72
     1
  1
118mm
  7
SLDTEXTSTYLE0
 73
     1
 44
1.0
  0
MTEXT
  5
15D
330
14B
100
AcDbEntity
  8
DIM
100
AcDbMText
 10
27.1870841772
 20
11.3562549147
 30
0.0
 40
0.625
 41
0.0
 71
     1
 72
     1
  1

  7
SLDTEXTSTYLE0
 73
     1
 44
1.0
  0
ENDBLK
  5
14D
330
14B
100
AcDbEntity
  8
0
100
AcDbBlockEnd
  0
BLOCK
  5
161
330
160
100
AcDbEntity
  8
0
100
AcDbBlockBegin
  2
_D_1
 70
     0
 10
0.0
 20
0.0
 30
0.0
  3
_D_1
  1

  0
SOLID
  5
163
330
160
100
AcDbEntity
  8
DIM
100
AcDbTrace
 10
12.2203826714
 20
15.2244186718
 30
0.0
 11
12.8703826714
 21
15.1244186718
 31
0.0
 12
12.8703826714
 22
15.3244186718
 32
0.0
 13
12.8703826714
 23
15.3244186718
 33
0.0
  0
SOLID
  5
164
330
160
100
AcDbEntity
  8
DIM
100
AcDbTrace
 10
15.0703826714
 20
15.2244186718
 30
0.0
 11
14.4203826714
 21
15.3244186718
 31
0.0
 12
14.4203826714
 22
15.1244186718
 32
0.0
 13
14.4203826714
 23
15.1244186718
 33
0.0
  0
LINE
  5
165
330
160
100
AcDbEntity
  8
DIM
100
AcDbLine
 10
16.7918857789
 20
14.585407357
 30
0.0
 11
16.6014560934
 21
14.585407357
 31
0.0
  0
LINE
  5
166
330
160
100
AcDbEntity
  8
DIM
100
AcDbLine
 10
16.6014560934
 20
14.585407357
 30
0.0
 11
16.6014560934
 21
13.5932198272
 31
0.0
  0
LINE
  5
167
330
160
100
AcDbEntity
  8
DIM
100
AcDbLine
 10
16.6014560934
 20
13.5932198272
 30
0.0
 11
16.7918857789
 21
13.5932198272
 31
0.0
  0
LINE
  5
168
330
160
100
AcDbEntity
  8
DIM
100
AcDbLine
 10
19.2779969425
 20
14.585407357
 30
0.0
 11
19.468426628
 21
14.585407357
 31
0.0
  0
LINE
  5
169
330
160
100
AcDbEntity
  8
DIM
100
AcDbLine
 10
19.468426628
 20
14.585407357
 30
0.0
 11
19.468426628
 21
13.5932198272
 31
0.0
  0
LINE
  5
16A
330
160
100
AcDbEntity
  8
DIM
100
AcDbLine
 10
19.468426628
 20
13.5932198272
 30
0.0
 11
19.2779969425
 21
13.5932198272
 31
0.0
  0
LINE
  5
16B
330
160
100
AcDbEntity
  8
DIM
100
AcDbLine
 10
12.2203826714
 20
13.2828801071
 30
0.0
 11
12.2203826714
 21
15.7244186718
 31
0.0
  0
LINE
  5
16C
330
160
100
AcDbEntity
  8
DIM
100
AcDbLine
 10
15.0703826714
 20
13.2828801071
 30
0.0
 11
15.0703826714
 21
15.7244186718
 31
0.0
  0
LINE
  5
16D
330
160
100
AcDbEntity
  8
DIM
100
AcDbLine
 10
12.2203826714
 20
15.2244186718
 30
0.0
 11
15.0703826714
 21
15.2244186718
 31
0.0
  0
LINE
  5
16E
330
160
100
AcDbEntity
  8
DIM
100
AcDbLine
 10
15.0703826714
 20
15.2244186718
 30
0.0
 11
16.0577041428
 21
15.2244186718
 31
0.0
  0
MTEXT
  5
16F
330
160
100
AcDbEntity
  8
DIM
100
AcDbMText
 10
16.4144986294
 20
15.5275764946
 30
0.0
 40
0.625
 41
0.0
 71
     1
 72
     1
  1

  7
SLDTEXTSTYLE0
 73
     1
 44
1.0
  0
MTEXT
  5
170
330
160
100
AcDbEntity
  8
DIM
100
AcDbMText
 10
16.9155837041
 20
15.5180278372
 30
0.0
 40
0.625
 41
0.0
 71
     1
 72
     1
  1
2 7/8"
  7
SLDTEXTSTYLE0
 73
     1
 44
1.0
  0
MTEXT
  5
171
330
160
100
AcDbEntity
  8
DIM
100
AcDbMText
 10
16.7918857789
 20
14.3988872333
 30
0.0
 40
0.625
 41
0.0
 71
     1
 72
     1
  1
72mm
  7
SLDTEXTSTYLE0
 73
     1
 44
1.0
  0
MTEXT
  5
172
330
160
100
AcDbEntity
  8
DIM
100
AcDbMText
 10
19.8932311761
 20
15.5275764946
 30
0.0
 40
0.625
 41
0.0
 71
     1
 72
     1
  1

  7
SLDTEXTSTYLE0
 73
     1
 44
1.0
  0
ENDBLK
  5
162
330
160
100
AcDbEntity
  8
0
100
AcDbBlockEnd
  0
BLOCK
  5
234
330
233
100
AcDbEntity
  8
0
100
AcDbBlockBegin
  2
_D_2
 70
     0
 10
0.0
 20
0.0
 30
0.0
  3
_D_2
  1

  0
ARC
  5
236
330
233
100
AcDbEntity
  8
SLD-0
100
AcDbCircle
 10
13.6453826714
 20
29.7319367209
 30
0.0
 40
11.69596745244592
100
AcDbArc
 50
36.8326376958
 51
170.4765367802
  0
ARC
  5
237
330
233
100
AcDbEntity
  8
SLD-0
100
AcDbCircle
 10
13.6453826714
 20
29.7319367209
 30
0.0
 40
11.69596745244592
100
AcDbArc
 50
279.0057537481
 51
25.4559117633
  0
SOLID
  5
238
330
233
100
AcDbEntity
  8
SLD-0
100
AcDbTrace
 10
2.1106098597
 20
31.6670519191
 30
0.0
 11
2.3340287411
 21
32.285585672
 31
0.0
 12
2.1377795723
 22
32.3241377634
 32
0.0
 13
2.1377795723
 23
32.3241377634
 33
0.0
  0
SOLID
  5
239
330
233
100
AcDbEntity
  8
SLD-0
100
AcDbTrace
 10
15.476195144
 20
18.1801498315
 30
0.0
 11
16.1334996597
 21
18.2013812623
 31
0.0
 12
16.0967223734
 22
18.3979707615
 32
0.0
 13
16.0967223734
 23
18.3979707615
 33
0.0
  0
LINE
  5
23A
330
233
100
AcDbEntity
  8
SLD-0
100
AcDbLine
 10
3.3338188844
 20
31.4618419499
 30
0.0
 11
1.6175008947
 21
31.7497776623
 31
0.0
  0
LINE
  5
23B
330
233
100
AcDbEntity
  8
SLD-0
100
AcDbLine
 10
15.3357911062
 20
19.066050243
 30
0.0
 11
15.5544619689
 21
17.6863135184
 31
0.0
  0
MTEXT
  5
23C
330
233
100
AcDbEntity
  8
SLD-0
100
AcDbMText
 10
22.7839992042
 20
36.526305921
 30
0.0
 40
0.625
 41
0.0
 71
     1
 72
     1
  1
48"
  7
SLDTEXTSTYLE0
 73
     1
 44
1.0
  0
MTEXT
  5
23D
330
233
100
AcDbEntity
  8
SLD-0
100
AcDbMText
 10
21.377315196
 20
35.5341183912
 30
0.0
 40
0.625
 41
0.0
 71
     1
 72
     1
  1
[1219mm]
  7
SLDTEXTSTYLE0
 73
     1
 44
1.0
  0
ENDBLK
  5
235
330
233
100
AcDbEntity
  8
0
100
AcDbBlockEnd
  0
BLOCK
  5
240
330
23F
100
AcDbEntity
  8
0
100
AcDbBlockBegin
  2
_D_3
 70
     0
 10
0.0
 20
0.0
 30
0.0
  3
_D_3
  1

  0
ARC
  5
242
330
23F
100
AcDbEntity
  8
SLD-0
100
AcDbCircle
 10
13.6453826714
 20
29.7319367209
 30
0.0
 40
11.59252711897491
100
AcDbArc
 50
189.5913332042
 51
224.2600659703
  0
ARC
  5
243
330
23F
100
AcDbEntity
  8
SLD-0
100
AcDbCircle
 10
13.6453826714
 20
29.7319367209
 30
0.0
 40
11.59252711897491
100
AcDbArc
 50
238.8597675952
 51
260.9942462519
  0
SOLID
  5
244
330
23F
100
AcDbEntity
  8
SLD-0
100
AcDbTrace
 10
2.2149045687
 20
27.8003945011
 30
0.0
 11
2.2430150237
 21
27.1433482301
 31
0.0
 12
2.4392087951
 22
27.182181258
 32
0.0
 13
2.4392087951
 23
27.182181258
 33
0.0
  0
SOLID
  5
245
330
23F
100
AcDbEntity
  8
SLD-0
100
AcDbTrace
 10
11.8307620918
 20
18.2823150173
 30
0.0
 11
11.2102887217
 21
18.5002893207
 31
0.0
 12
11.1734628441
 22
18.3037089179
 32
0.0
 13
11.1734628441
 23
18.3037089179
 33
0.0
  0
LINE
  5
246
330
23F
100
AcDbEntity
  8
SLD-0
100
AcDbLine
 10
3.26411366
 20
27.9776916919
 30
0.0
 11
1.7218939427
 21
27.7170847016
 31
0.0
  0
LINE
  5
247
330
23F
100
AcDbEntity
  8
SLD-0
100
AcDbLine
 10
11.9549779914
 20
19.0660739339
 30
0.0
 11
11.7524952669
 21
17.7884787042
 31
0.0
  0
MTEXT
  5
248
330
23F
100
AcDbEntity
  8
SLD-0
100
AcDbMText
 10
5.524185309
 20
21.4241981826
 30
0.0
 40
0.625
 41
0.0
 71
     1
 72
     1
  1
9"
  7
SLDTEXTSTYLE0
 73
     1
 44
1.0
  0
MTEXT
  5
249
330
23F
100
AcDbEntity
  8
SLD-0
100
AcDbMText
 10
4.1175012779
 20
20.4320106528
 30
0.0
 40
0.625
 41
0.0
 71
     1
 72
     1
  1
[229mm]
  7
SLDTEXTSTYLE0
 73
     1
 44
1.0
  0
ENDBLK
  5
241
330
23F
100
AcDbEntity
  8
0
100
AcDbBlockEnd
  0
BLOCK
  5
4CB
330
4CA
100
AcDbEntity
  8
0
100
AcDbBlockBegin
  2
_D_4
 70
     0
 10
0.0
 20
0.0
 30
0.0
  3
_D_4
  1

  0
SOLID
  5
4CD
330
4CA
100
AcDbEntity
  8
DIM
100
AcDbTrace
 10
50.489689098
 20
9.2803420338
 30
0.0
 11
50.589689098
 21
9.9303420338
 31
0.0
 12
50.389689098
 22
9.9303420338
 32
0.0
 13
50.389689098
 23
9.9303420338
 33
0.0
  0
SOLID
  5
4CE
330
4CA
100
AcDbEntity
  8
DIM
100
AcDbTrace
 10
50.489689098
 20
11.2803420338
 30
0.0
 11
50.389689098
 21
10.6303420338
 31
0.0
 12
50.589689098
 22
10.6303420338
 32
0.0
 13
50.589689098
 23
10.6303420338
 33
0.0
  0
LINE
  5
4CF
330
4CA
100
AcDbEntity
  8
DIM
100
AcDbLine
 10
46.3995575084
 20
13.5810010732
 30
0.0
 11
46.2091278228
 21
13.5810010732
 31
0.0
  0
LINE
  5
4D0
330
4CA
100
AcDbEntity
  8
DIM
100
AcDbLine
 10
46.2091278228
 20
13.5810010732
 30
0.0
 11
46.2091278228
 21
12.5888135434
 31
0.0
  0
LINE
  5
4D1
330
4CA
100
AcDbEntity
  8
DIM
100
AcDbLine
 10
46.2091278228
 20
12.5888135434
 30
0.0
 11
46.3995575084
 21
12.5888135434
 31
0.0
  0
LINE
  5
4D2
330
4CA
100
AcDbEntity
  8
DIM
100
AcDbLine
 10
48.8856686719
 20
13.5810010732
 30
0.0
 11
49.0760983575
 21
13.5810010732
 31
0.0
  0
LINE
  5
4D3
330
4CA
100
AcDbEntity
  8
DIM
100
AcDbLine
 10
49.0760983575
 20
13.5810010732
 30
0.0
 11
49.0760983575
 21
12.5888135434
 31
0.0
  0
LINE
  5
4D4
330
4CA
100
AcDbEntity
  8
DIM
100
AcDbLine
 10
49.0760983575
 20
12.5888135434
 30
0.0
 11
48.8856686719
 21
12.5888135434
 31
0.0
  0
LINE
  5
4D5
330
4CA
100
AcDbEntity
  8
DIM
100
AcDbLine
 10
50.1421079705
 20
9.2803420338
 30
0.0
 11
50.989689098
 21
9.2803420338
 31
0.0
  0
LINE
  5
4D6
330
4CA
100
AcDbEntity
  8
DIM
100
AcDbLine
 10
50.1421079705
 20
11.2803420338
 30
0.0
 11
50.989689098
 21
11.2803420338
 31
0.0
  0
LINE
  5
4D7
330
4CA
100
AcDbEntity
  8
DIM
100
AcDbLine
 10
49.864689098
 20
14.2200123881
 30
0.0
 11
50.489689098
 21
14.2200123881
 31
0.0
  0
LINE
  5
4D8
330
4CA
100
AcDbEntity
  8
DIM
100
AcDbLine
 10
50.489689098
 20
14.2200123881
 30
0.0
 11
50.489689098
 21
11.2803420338
 31
0.0
  0
LINE
  5
4D9
330
4CA
100
AcDbEntity
  8
DIM
100
AcDbLine
 10
50.489689098
 20
9.2803420338
 30
0.0
 11
50.489689098
 21
11.2803420338
 31
0.0
  0
MTEXT
  5
4DA
330
4CA
100
AcDbEntity
  8
DIM
100
AcDbMText
 10
46.0221703588
 20
14.5231702108
 30
0.0
 40
0.625
 41
0.0
 71
     1
 72
     1
  1

  7
SLDTEXTSTYLE0
 73
     1
 44
1.0
  0
MTEXT
  5
4DB
330
4CA
100
AcDbEntity
  8
DIM
100
AcDbMText
 10
47.2828040155
 20
14.5136215534
 30
0.0
 40
0.625
 41
0.0
 71
     1
 72
     1
  1
2"
  7
SLDTEXTSTYLE0
 73
     1
 44
1.0
  0
MTEXT
  5
4DC
330
4CA
100
AcDbEntity
  8
DIM
100
AcDbMText
 10
46.3995575084
 20
13.3944809495
 30
0.0
 40
0.625
 41
0.0
 71
     1
 72
     1
  1
51mm
  7
SLDTEXTSTYLE0
 73
     1
 44
1.0
  0
MTEXT
  5
4DD
330
4CA
100
AcDbEntity
  8
DIM
100
AcDbMText
 10
49.5009029056
 20
14.5231702108
 30
0.0
 40
0.625
 41
0.0
 71
     1
 72
     1
  1

  7
SLDTEXTSTYLE0
 73
     1
 44
1.0
  0
ENDBLK
  5
4CC
330
4CA
100
AcDbEntity
  8
0
100
AcDbBlockEnd
  0
BLOCK
  5
4E0
330
4DF
100
AcDbEntity
  8
0
100
AcDbBlockBegin
  2
_D_5
 70
     0
 10
0.0
 20
0.0
 30
0.0
  3
_D_5
  1

  0
SOLID
  5
4E2
330
4DF
100
AcDbEntity
  8
DIM
100
AcDbTrace
 10
32.5621079705
 20
14.2200123881
 30
0.0
 11
31.9121079705
 21
14.3200123881
 31
0.0
 12
31.9121079705
 22
14.1200123881
 32
0.0
 13
31.9121079705
 23
14.1200123881
 33
0.0
  0
SOLID
  5
4E3
330
4DF
100
AcDbEntity
  8
DIM
100
AcDbTrace
 10
29.9371079705
 20
14.2200123881
 30
0.0
 11
30.5871079705
 21
14.1200123881
 31
0.0
 12
30.5871079705
 22
14.3200123881
 32
0.0
 13
30.5871079705
 23
14.3200123881
 33
0.0
  0
LINE
  5
4E4
330
4DF
100
AcDbEntity
  8
DIM
100
AcDbLine
 10
34.1082867793
 20
13.5810010732
 30
0.0
 11
33.9178570937
 21
13.5810010732
 31
0.0
  0
LINE
  5
4E5
330
4DF
100
AcDbEntity
  8
DIM
100
AcDbLine
 10
33.9178570937
 20
13.5810010732
 30
0.0
 11
33.9178570937
 21
12.5888135434
 31
0.0
  0
LINE
  5
4E6
330
4DF
100
AcDbEntity
  8
DIM
100
AcDbLine
 10
33.9178570937
 20
12.5888135434
 30
0.0
 11
34.1082867793
 21
12.5888135434
 31
0.0
  0
LINE
  5
4E7
330
4DF
100
AcDbEntity
  8
DIM
100
AcDbLine
 10
36.5943979428
 20
13.5810010732
 30
0.0
 11
36.7848276284
 21
13.5810010732
 31
0.0
  0
LINE
  5
4E8
330
4DF
100
AcDbEntity
  8
DIM
100
AcDbLine
 10
36.7848276284
 20
13.5810010732
 30
0.0
 11
36.7848276284
 21
12.5888135434
 31
0.0
  0
LINE
  5
4E9
330
4DF
100
AcDbEntity
  8
DIM
100
AcDbLine
 10
36.7848276284
 20
12.5888135434
 30
0.0
 11
36.5943979428
 21
12.5888135434
 31
0.0
  0
LINE
  5
4EA
330
4DF
100
AcDbEntity
  8
DIM
100
AcDbLine
 10
32.5621079705
 20
13.1933194655
 30
0.0
 11
32.5621079705
 21
14.7200123881
 31
0.0
  0
LINE
  5
4EB
330
4DF
100
AcDbEntity
  8
DIM
100
AcDbLine
 10
29.9371079705
 20
13.2828801071
 30
0.0
 11
29.9371079705
 21
14.7200123881
 31
0.0
  0
LINE
  5
4EC
330
4DF
100
AcDbEntity
  8
DIM
100
AcDbLine
 10
32.5621079705
 20
14.2200123881
 30
0.0
 11
33.3741051431
 21
14.2200123881
 31
0.0
  0
LINE
  5
4ED
330
4DF
100
AcDbEntity
  8
DIM
100
AcDbLine
 10
29.9371079705
 20
14.2200123881
 30
0.0
 11
32.5621079705
 21
14.2200123881
 31
0.0
  0
MTEXT
  5
4EE
330
4DF
100
AcDbEntity
  8
DIM
100
AcDbMText
 10
33.7308996297
 20
14.5231702108
 30
0.0
 40
0.625
 41
0.0
 71
     1
 72
     1
  1

  7
SLDTEXTSTYLE0
 73
     1
 44
1.0
  0
MTEXT
  5
4EF
330
4DF
100
AcDbEntity
  8
DIM
100
AcDbMText
 10
34.2319847045
 20
14.5136215534
 30
0.0
 40
0.625
 41
0.0
 71
     1
 72
     1
  1
2 5/8"
  7
SLDTEXTSTYLE0
 73
     1
 44
1.0
  0
MTEXT
  5
4F0
330
4DF
100
AcDbEntity
  8
DIM
100
AcDbMText
 10
34.1082867793
 20
13.3944809495
 30
0.0
 40
0.625
 41
0.0
 71
     1
 72
     1
  1
67mm
  7
SLDTEXTSTYLE0
 73
     1
 44
1.0
  0
MTEXT
  5
4F1
330
4DF
100
AcDbEntity
  8
DIM
100
AcDbMText
 10
37.2096321764
 20
14.5231702108
 30
0.0
 40
0.625
 41
0.0
 71
     1
 72
     1
  1

  7
SLDTEXTSTYLE0
 73
     1
 44
1.0
  0
ENDBLK
  5
4E1
330
4DF
100
AcDbEntity
  8
0
100
AcDbBlockEnd
  0
ENDSEC
  0
SECTION
  2
ENTITIES
  0
MTEXT
  5
6E
330
1F
100
AcDbEntity
  8
SLD-0
100
AcDbMText
 10
43.771177686
 20
4.2162549813
 30
0.0
 40
0.625
 41
0.0
 71
     1
 72
     1
  1
MB2-48
  7
SLDTEXTSTYLE0
 73
     1
 44
1.0
  0
LINE
  5
6F
330
1F
100
AcDbEntity
  8
0
  6
Continuous
 62
     7
370
    25
100
AcDbLine
 10
22.5603826714
 20
9.2803420338
 30
0.0
 11
22.5603826714
 21
11.2803420338
 31
0.0
  0
ARC
  5
70
330
1F
100
AcDbEntity
  8
0
  6
Continuous
 62
     7
370
    25
100
AcDbCircle
 10
12.1796685371
 20
10.7553420338
 30
0.0
 40
0.0500000000000007
100
AcDbArc
 50
90.0
 51
180.0
  0
ARC
  5
71
330
1F
100
AcDbEntity
  8
0
  6
Continuous
 62
     7
370
    25
100
AcDbCircle
 10
12.1796685371
 20
10.4303420338
 30
0.0
 40
0.0500000000000007
100
AcDbArc
 50
180.0
 51
270.0
  0
ARC
  5
72
330
1F
100
AcDbEntity
  8
0
  6
Continuous
 62
     7
370
    25
100
AcDbCircle
 10
12.1796685371
 20
10.1303420338
 30
0.0
 40
0.0499999999999989
100
AcDbArc
 50
90.0
 51
180.0
  0
ARC
  5
73
330
1F
100
AcDbEntity
  8
0
  6
Continuous
 62
     7
370
    25
100
AcDbCircle
 10
12.1796685371
 20
9.8053420338
 30
0.0
 40
0.0500000000000007
100
AcDbArc
 50
180.0
 51
270.0
  0
LINE
  5
74
330
1F
100
AcDbEntity
  8
0
  6
Continuous
 62
     7
370
    25
100
AcDbLine
 10
15.3810968058
 20
9.8328420338
 30
0.0
 11
15.3970968058
 21
9.8488420338
 31
0.0
  0
LINE
  5
75
330
1F
100
AcDbEntity
  8
0
  6
Continuous
 62
     7
370
    25
100
AcDbLine
 10
15.3970968058
 20
10.0868420338
 30
0.0
 11
15.3810968058
 21
10.1028420338
 31
0.0
  0
LINE
  5
76
330
1F
100
AcDbEntity
  8
0
  6
Continuous
 62
     7
370
    25
100
AcDbLine
 10
15.3810968058
 20
10.1028420338
 30
0.0
 11
15.2330968058
 21
10.1028420338
 31
0.0
  0
LINE
  5
77
330
1F
100
AcDbEntity
  8
0
  6
Continuous
 62
     7
370
    25
100
AcDbLine
 10
15.2330968058
 20
9.8328420338
 30
0.0
 11
15.3810968058
 21
9.8328420338
 31
0.0
  0
LINE
  5
78
330
1F
100
AcDbEntity
  8
0
  6
Continuous
 62
     7
370
    25
100
AcDbLine
 10
15.1326129456
 20
9.8858420338
 30
0.0
 11
15.1456368058
 21
9.9044420338
 31
0.0
  0
LINE
  5
79
330
1F
100
AcDbEntity
  8
0
  6
Continuous
 62
     7
370
    25
100
AcDbLine
 10
15.1456368058
 20
10.0312420338
 30
0.0
 11
15.1326129456
 21
10.0498420338
 31
0.0
  0
LINE
  5
7A
330
1F
100
AcDbEntity
  8
0
  6
Continuous
 62
     7
370
    25
100
AcDbLine
 10
15.1607429456
 20
10.0498420338
 30
0.0
 11
15.158660666
 21
10.0498420338
 31
0.0
  0
LINE
  5
7B
330
1F
100
AcDbEntity
  8
0
  6
Continuous
 62
     7
370
    25
100
AcDbLine
 10
15.158660666
 20
9.8858420338
 30
0.0
 11
15.1607429456
 21
9.8858420338
 31
0.0
  0
LINE
  5
7C
330
1F
100
AcDbEntity
  8
0
  6
Continuous
 62
     7
370
    25
100
AcDbLine
 10
15.158660666
 20
10.0498420338
 30
0.0
 11
15.1456368058
 21
10.0312420338
 31
0.0
  0
LINE
  5
7D
330
1F
100
AcDbEntity
  8
0
  6
Continuous
 62
     7
370
    25
100
AcDbLine
 10
15.1456368058
 20
9.9044420338
 30
0.0
 11
15.158660666
 21
9.8858420338
 31
0.0
  0
LINE
  5
7E
330
1F
100
AcDbEntity
  8
0
  6
Continuous
 62
     7
370
    25
100
AcDbLine
 10
15.130530666
 20
10.0498420338
 30
0.0
 11
15.1175068058
 21
10.0312420338
 31
0.0
  0
LINE
  5
7F
330
1F
100
AcDbEntity
  8
0
  6
Continuous
 62
     7
370
    25
100
AcDbLine
 10
15.1175068058
 20
9.9044420338
 30
0.0
 11
15.130530666
 21
9.8858420338
 31
0.0
  0
LINE
  5
80
330
1F
100
AcDbEntity
  8
0
  6
Continuous
 62
     7
370
    25
100
AcDbLine
 10
15.1607429456
 20
9.8858420338
 30
0.0
 11
15.1610968058
 21
9.8863473985
 31
0.0
  0
LINE
  5
81
330
1F
100
AcDbEntity
  8
0
  6
Continuous
 62
     7
370
    25
100
AcDbLine
 10
15.1610968058
 20
10.049336669
 30
0.0
 11
15.1607429456
 21
10.0498420338
 31
0.0
  0
LINE
  5
82
330
1F
100
AcDbEntity
  8
0
  6
Continuous
 62
     7
370
    25
100
AcDbLine
 10
15.1326129456
 20
10.0498420338
 30
0.0
 11
15.130530666
 21
10.0498420338
 31
0.0
  0
LINE
  5
83
330
1F
100
AcDbEntity
  8
0
  6
Continuous
 62
     7
370
    25
100
AcDbLine
 10
15.130530666
 20
9.8858420338
 30
0.0
 11
15.1326129456
 21
9.8858420338
 31
0.0
  0
LINE
  5
84
330
1F
100
AcDbEntity
  8
0
  6
Continuous
 62
     7
370
    25
100
AcDbLine
 10
15.1110968058
 20
9.8952876051
 30
0.0
 11
15.1175068058
 21
9.9044420338
 31
0.0
  0
LINE
  5
85
330
1F
100
AcDbEntity
  8
0
  6
Continuous
 62
     7
370
    25
100
AcDbLine
 10
15.1175068058
 20
10.0312420338
 30
0.0
 11
15.1110968058
 21
10.0403964625
 31
0.0
  0
LINE
  5
86
330
1F
100
AcDbEntity
  8
0
  6
Continuous
 62
     7
370
    25
100
AcDbLine
 10
11.9096685371
 20
10.1028420338
 30
0.0
 11
11.8936685371
 21
10.0868420338
 31
0.0
  0
LINE
  5
87
330
1F
100
AcDbEntity
  8
0
  6
Continuous
 62
     7
370
    25
100
AcDbLine
 10
11.8936685371
 20
9.8488420338
 30
0.0
 11
11.9096685371
 21
9.8328420338
 31
0.0
  0
LINE
  5
88
330
1F
100
AcDbEntity
  8
0
  6
Continuous
 62
     7
370
    25
100
AcDbLine
 10
11.9096685371
 20
9.8328420338
 30
0.0
 11
12.0576685371
 21
9.8328420338
 31
0.0
  0
LINE
  5
89
330
1F
100
AcDbEntity
  8
0
  6
Continuous
 62
     7
370
    25
100
AcDbLine
 10
12.0576685371
 20
10.1028420338
 30
0.0
 11
11.9096685371
 21
10.1028420338
 31
0.0
  0
LINE
  5
8A
330
1F
100
AcDbEntity
  8
0
  6
Continuous
 62
     7
370
    25
100
AcDbLine
 10
11.9096685371
 20
10.4578420338
 30
0.0
 11
12.0576685371
 21
10.4578420338
 31
0.0
  0
LINE
  5
8B
330
1F
100
AcDbEntity
  8
0
  6
Continuous
 62
     7
370
    25
100
AcDbLine
 10
12.0576685371
 20
10.7278420338
 30
0.0
 11
11.9096685371
 21
10.7278420338
 31
0.0
  0
LINE
  5
8C
330
1F
100
AcDbEntity
  8
0
  6
Continuous
 62
     7
370
    25
100
AcDbLine
 10
11.9096685371
 20
10.7278420338
 30
0.0
 11
11.8936685371
 21
10.7118420338
 31
0.0
  0
LINE
  5
8D
330
1F
100
AcDbEntity
  8
0
  6
Continuous
 62
     7
370
    25
100
AcDbLine
 10
11.8936685371
 20
10.4738420338
 30
0.0
 11
11.9096685371
 21
10.4578420338
 31
0.0
  0
LINE
  5
8E
330
1F
100
AcDbEntity
  8
0
  6
Continuous
 62
     7
370
    25
100
AcDbLine
 10
15.3810968058
 20
10.7278420338
 30
0.0
 11
15.2330968058
 21
10.7278420338
 31
0.0
  0
LINE
  5
8F
330
1F
100
AcDbEntity
  8
0
  6
Continuous
 62
     7
370
    25
100
AcDbLine
 10
15.2330968058
 20
10.4578420338
 30
0.0
 11
15.3810968058
 21
10.4578420338
 31
0.0
  0
LINE
  5
90
330
1F
100
AcDbEntity
  8
0
  6
Continuous
 62
     7
370
    25
100
AcDbLine
 10
15.3810968058
 20
10.4578420338
 30
0.0
 11
15.3970968058
 21
10.4738420338
 31
0.0
  0
LINE
  5
91
330
1F
100
AcDbEntity
  8
0
  6
Continuous
 62
     7
370
    25
100
AcDbLine
 10
15.3970968058
 20
10.7118420338
 30
0.0
 11
15.3810968058
 21
10.7278420338
 31
0.0
  0
LINE
  5
92
330
1F
100
AcDbEntity
  8
0
  6
Continuous
 62
     7
370
    25
100
AcDbLine
 10
15.1607429456
 20
10.5108420338
 30
0.0
 11
15.1610968058
 21
10.5113473985
 31
0.0
  0
LINE
  5
93
330
1F
100
AcDbEntity
  8
0
  6
Continuous
 62
     7
370
    25
100
AcDbLine
 10
15.1610968058
 20
10.674336669
 30
0.0
 11
15.1607429456
 21
10.6748420338
 31
0.0
  0
LINE
  5
94
330
1F
100
AcDbEntity
  8
0
  6
Continuous
 62
     7
370
    25
100
AcDbLine
 10
15.1110968058
 20
10.5202876051
 30
0.0
 11
15.1175068058
 21
10.5294420338
 31
0.0
  0
LINE
  5
95
330
1F
100
AcDbEntity
  8
0
  6
Continuous
 62
     7
370
    25
100
AcDbLine
 10
15.1175068058
 20
10.6562420338
 30
0.0
 11
15.1110968058
 21
10.6653964625
 31
0.0
  0
LINE
  5
96
330
1F
100
AcDbEntity
  8
0
  6
Continuous
 62
     7
370
    25
100
AcDbLine
 10
15.1326129456
 20
10.6748420338
 30
0.0
 11
15.130530666
 21
10.6748420338
 31
0.0
  0
LINE
  5
97
330
1F
100
AcDbEntity
  8
0
  6
Continuous
 62
     7
370
    25
100
AcDbLine
 10
15.130530666
 20
10.5108420338
 30
0.0
 11
15.1326129456
 21
10.5108420338
 31
0.0
  0
LINE
  5
98
330
1F
100
AcDbEntity
  8
0
  6
Continuous
 62
     7
370
    25
100
AcDbLine
 10
15.1326129456
 20
10.5108420338
 30
0.0
 11
15.1456368058
 21
10.5294420338
 31
0.0
  0
LINE
  5
99
330
1F
100
AcDbEntity
  8
0
  6
Continuous
 62
     7
370
    25
100
AcDbLine
 10
15.1456368058
 20
10.6562420338
 30
0.0
 11
15.1326129456
 21
10.6748420338
 31
0.0
  0
LINE
  5
9A
330
1F
100
AcDbEntity
  8
0
  6
Continuous
 62
     7
370
    25
100
AcDbLine
 10
15.158660666
 20
10.6748420338
 30
0.0
 11
15.1456368058
 21
10.6562420338
 31
0.0
  0
LINE
  5
9B
330
1F
100
AcDbEntity
  8
0
  6
Continuous
 62
     7
370
    25
100
AcDbLine
 10
15.1456368058
 20
10.5294420338
 30
0.0
 11
15.158660666
 21
10.5108420338
 31
0.0
  0
LINE
  5
9C
330
1F
100
AcDbEntity
  8
0
  6
Continuous
 62
     7
370
    25
100
AcDbLine
 10
15.1607429456
 20
10.6748420338
 30
0.0
 11
15.158660666
 21
10.6748420338
 31
0.0
  0
LINE
  5
9D
330
1F
100
AcDbEntity
  8
0
  6
Continuous
 62
     7
370
    25
100
AcDbLine
 10
15.158660666
 20
10.5108420338
 30
0.0
 11
15.1607429456
 21
10.5108420338
 31
0.0
  0
LINE
  5
9E
330
1F
100
AcDbEntity
  8
0
  6
Continuous
 62
     7
370
    25
100
AcDbLine
 10
15.130530666
 20
10.6748420338
 30
0.0
 11
15.1175068058
 21
10.6562420338
 31
0.0
  0
LINE
  5
9F
330
1F
100
AcDbEntity
  8
0
  6
Continuous
 62
     7
370
    25
100
AcDbLine
 10
15.1175068058
 20
10.5294420338
 30
0.0
 11
15.130530666
 21
10.5108420338
 31
0.0
  0
LINE
  5
A0
330
1F
100
AcDbEntity
  8
0
  6
Continuous
 62
     7
370
    25
100
AcDbLine
 10
15.2330968058
 20
10.1143420338
 30
0.0
 11
15.1930968058
 21
10.1143420338
 31
0.0
  0
LINE
  5
A1
330
1F
100
AcDbEntity
  8
0
  6
Continuous
 62
     7
370
    25
100
AcDbLine
 10
12.0976685371
 20
10.7393420338
 30
0.0
 11
12.0576685371
 21
10.7393420338
 31
0.0
  0
LINE
  5
A2
330
1F
100
AcDbEntity
  8
0
  6
Continuous
 62
     7
370
    25
100
AcDbLine
 10
15.2330968058
 20
10.7393420338
 30
0.0
 11
15.1930968058
 21
10.7393420338
 31
0.0
  0
LINE
  5
A3
330
1F
100
AcDbEntity
  8
0
  6
Continuous
 62
     7
370
    25
100
AcDbLine
 10
12.0976685371
 20
10.1143420338
 30
0.0
 11
12.0576685371
 21
10.1143420338
 31
0.0
  0
LINE
  5
A4
330
1F
100
AcDbEntity
  8
0
  6
Continuous
 62
     7
370
    25
100
AcDbLine
 10
12.0976685371
 20
10.4053420338
 30
0.0
 11
12.1296685371
 21
10.4053420338
 31
0.0
  0
LINE
  5
A5
330
1F
100
AcDbEntity
  8
0
  6
Continuous
 62
     7
370
    25
100
AcDbLine
 10
12.1296685371
 20
10.7803420338
 30
0.0
 11
12.0976685371
 21
10.7803420338
 31
0.0
  0
LINE
  5
A6
330
1F
100
AcDbEntity
  8
0
  6
Continuous
 62
     7
370
    25
100
AcDbLine
 10
15.1610968058
 20
9.7803420338
 30
0.0
 11
15.1930968058
 21
9.7803420338
 31
0.0
  0
LINE
  5
A7
330
1F
100
AcDbEntity
  8
0
  6
Continuous
 62
     7
370
    25
100
AcDbLine
 10
15.1930968058
 20
10.1553420338
 30
0.0
 11
15.1610968058
 21
10.1553420338
 31
0.0
  0
LINE
  5
A8
330
1F
100
AcDbEntity
  8
0
  6
Continuous
 62
     7
370
    25
100
AcDbLine
 10
12.0976685371
 20
9.7803420338
 30
0.0
 11
12.1296685371
 21
9.7803420338
 31
0.0
  0
LINE
  5
A9
330
1F
100
AcDbEntity
  8
0
  6
Continuous
 62
     7
370
    25
100
AcDbLine
 10
12.1296685371
 20
10.1553420338
 30
0.0
 11
12.0976685371
 21
10.1553420338
 31
0.0
  0
LINE
  5
AA
330
1F
100
AcDbEntity
  8
0
  6
Continuous
 62
     7
370
    25
100
AcDbLine
 10
15.1610968058
 20
10.4053420338
 30
0.0
 11
15.1930968058
 21
10.4053420338
 31
0.0
  0
LINE
  5
AB
330
1F
100
AcDbEntity
  8
0
  6
Continuous
 62
     7
370
    25
100
AcDbLine
 10
15.1930968058
 20
10.7803420338
 30
0.0
 11
15.1610968058
 21
10.7803420338
 31
0.0
  0
LINE
  5
AC
330
1F
100
AcDbEntity
  8
0
  6
Continuous
 62
     7
370
    25
100
AcDbLine
 10
12.1796685371
 20
9.2803420338
 30
0.0
 11
12.1796685371
 21
11.2803420338
 31
0.0
  0
LINE
  5
AD
330
1F
100
AcDbEntity
  8
0
  6
Continuous
 62
     7
370
    25
100
AcDbLine
 10
12.2203826714
 20
9.2803420338
 30
0.0
 11
12.1796685371
 21
9.2803420338
 31
0.0
  0
LINE
  5
AE
330
1F
100
AcDbEntity
  8
0
  6
Continuous
 62
     7
370
    25
100
AcDbLine
 10
12.2203826714
 20
11.2803420338
 30
0.0
 11
12.1796685371
 21
11.2803420338
 31
0.0
  0
LINE
  5
AF
330
1F
100
AcDbEntity
  8
0
  6
Continuous
 62
     7
370
    25
100
AcDbLine
 10
12.1796685371
 20
9.2803420338
 30
0.0
 11
12.1278077333
 21
9.2803420338
 31
0.0
  0
LINE
  5
B0
330
1F
100
AcDbEntity
  8
0
  6
Continuous
 62
     7
370
    25
100
AcDbLine
 10
12.1278077333
 20
11.2803420338
 30
0.0
 11
12.1796685371
 21
11.2803420338
 31
0.0
  0
LINE
  5
B1
330
1F
100
AcDbEntity
  8
0
  6
Continuous
 62
     7
370
    25
100
AcDbLine
 10
4.8532498244
 20
9.2803420338
 30
0.0
 11
4.8532498244
 21
11.2803420338
 31
0.0
  0
LINE
  5
B2
330
1F
100
AcDbEntity
  8
0
  6
Continuous
 62
     7
370
    25
100
AcDbLine
 10
12.1278077333
 20
9.2803420338
 30
0.0
 11
4.8532498244
 21
9.2803420338
 31
0.0
  0
LINE
  5
B3
330
1F
100
AcDbEntity
  8
0
  6
Continuous
 62
     7
370
    25
100
AcDbLine
 10
12.1278077333
 20
11.2803420338
 30
0.0
 11
4.8532498244
 21
11.2803420338
 31
0.0
  0
LINE
  5
B4
330
1F
100
AcDbEntity
  8
0
  6
Continuous
 62
     7
370
    25
100
AcDbLine
 10
15.1110968058
 20
9.2803420338
 30
0.0
 11
15.1110968058
 21
11.2803420338
 31
0.0
  0
LINE
  5
B5
330
1F
100
AcDbEntity
  8
0
  6
Continuous
 62
     7
370
    25
100
AcDbLine
 10
15.1110968058
 20
9.2803420338
 30
0.0
 11
15.0703826714
 21
9.2803420338
 31
0.0
  0
LINE
  5
B6
330
1F
100
AcDbEntity
  8
0
  6
Continuous
 62
     7
370
    25
100
AcDbLine
 10
15.1110968058
 20
11.2803420338
 30
0.0
 11
15.0703826714
 21
11.2803420338
 31
0.0
  0
LINE
  5
B7
330
1F
100
AcDbEntity
  8
0
  6
Continuous
 62
     7
370
    25
100
AcDbLine
 10
15.1110968058
 20
11.2803420338
 30
0.0
 11
15.1629576096
 21
11.2803420338
 31
0.0
  0
LINE
  5
B8
330
1F
100
AcDbEntity
  8
0
  6
Continuous
 62
     7
370
    25
100
AcDbLine
 10
15.1629576096
 20
9.2803420338
 30
0.0
 11
15.1110968058
 21
9.2803420338
 31
0.0
  0
LINE
  5
B9
330
1F
100
AcDbEntity
  8
0
  6
Continuous
 62
     7
370
    25
100
AcDbLine
 10
22.5603826714
 20
11.2803420338
 30
0.0
 11
15.1629576096
 21
11.2803420338
 31
0.0
  0
LINE
  5
BA
330
1F
100
AcDbEntity
  8
0
  6
Continuous
 62
     7
370
    25
100
AcDbLine
 10
22.5603826714
 20
9.2803420338
 30
0.0
 11
15.1629576096
 21
9.2803420338
 31
0.0
  0
LINE
  5
BB
330
1F
100
AcDbEntity
  8
0
  6
Continuous
 62
     7
370
    25
100
AcDbLine
 10
4.6178826714
 20
9.2053420338
 30
0.0
 11
4.6178826714
 21
11.3553420338
 31
0.0
  0
LINE
  5
BC
330
1F
100
AcDbEntity
  8
0
  6
Continuous
 62
     7
370
    25
100
AcDbLine
 10
4.6178826714
 20
11.3553420338
 30
0.0
 11
4.6678826714
 21
11.3553420338
 31
0.0
  0
LINE
  5
BD
330
1F
100
AcDbEntity
  8
0
  6
Continuous
 62
     7
370
    25
100
AcDbLine
 10
4.6678826714
 20
11.3553420338
 30
0.0
 11
4.6678826714
 21
9.2053420338
 31
0.0
  0
LINE
  5
BE
330
1F
100
AcDbEntity
  8
0
  6
Continuous
 62
     7
370
    25
100
AcDbLine
 10
4.6178826714
 20
9.2053420338
 30
0.0
 11
4.6678826714
 21
9.2053420338
 31
0.0
  0
LINE
  5
BF
330
1F
100
AcDbEntity
  8
0
  6
Continuous
 62
     7
370
    25
100
AcDbLine
 10
5.1928826714
 20
9.1053420338
 30
0.0
 11
5.1928826714
 21
9.2053420338
 31
0.0
  0
LINE
  5
C0
330
1F
100
AcDbEntity
  8
0
  6
Continuous
 62
     7
370
    25
100
AcDbLine
 10
4.6678826714
 20
9.1053420338
 30
0.0
 11
5.1928826714
 21
9.1053420338
 31
0.0
  0
LINE
  5
C1
330
1F
100
AcDbEntity
  8
0
  6
Continuous
 62
     7
370
    25
100
AcDbLine
 10
4.6678826714
 20
9.2053420338
 30
0.0
 11
4.6678826714
 21
9.1053420338
 31
0.0
  0
LINE
  5
C2
330
1F
100
AcDbEntity
  8
0
  6
Continuous
 62
     7
370
    25
100
AcDbLine
 10
4.6678826714
 20
9.2053420338
 30
0.0
 11
5.1928826714
 21
9.2053420338
 31
0.0
  0
LINE
  5
C3
330
1F
100
AcDbEntity
  8
0
  6
Continuous
 62
     7
370
    25
100
AcDbLine
 10
4.6678826714
 20
11.3553420338
 30
0.0
 11
5.1928826714
 21
11.3553420338
 31
0.0
  0
LINE
  5
C4
330
1F
100
AcDbEntity
  8
0
  6
Continuous
 62
     7
370
    25
100
AcDbLine
 10
5.1928826714
 20
11.3553420338
 30
0.0
 11
5.1928826714
 21
11.4553420338
 31
0.0
  0
LINE
  5
C5
330
1F
100
AcDbEntity
  8
0
  6
Continuous
 62
     7
370
    25
100
AcDbLine
 10
4.6678826714
 20
11.4553420338
 30
0.0
 11
4.6678826714
 21
11.3553420338
 31
0.0
  0
LINE
  5
C6
330
1F
100
AcDbEntity
  8
0
  6
Continuous
 62
     7
370
    25
100
AcDbLine
 10
4.6678826714
 20
11.4553420338
 30
0.0
 11
5.1928826714
 21
11.4553420338
 31
0.0
  0
LINE
  5
C7
330
1F
100
AcDbEntity
  8
0
  6
Continuous
 62
     7
370
    25
100
AcDbLine
 10
5.2428826714
 20
9.2053420338
 30
0.0
 11
5.2428826714
 21
9.1553420338
 31
0.0
  0
ARC
  5
C8
330
1F
100
AcDbEntity
  8
0
  6
Continuous
 62
     7
370
    25
100
AcDbCircle
 10
5.1928826714
 20
9.1553420338
 30
0.0
 40
0.0500000000000007
100
AcDbArc
 50
270.0
 51
0.0
  0
LINE
  5
C9
330
1F
100
AcDbEntity
  8
0
  6
Continuous
 62
     7
370
    25
100
AcDbLine
 10
5.1928826714
 20
9.2053420338
 30
0.0
 11
5.2428826714
 21
9.2053420338
 31
0.0
  0
LINE
  5
CA
330
1F
100
AcDbEntity
  8
0
  6
Continuous
 62
     7
370
    25
100
AcDbLine
 10
4.6178826714
 20
11.3553420338
 30
0.0
 11
4.6178826714
 21
11.4053420338
 31
0.0
  0
ARC
  5
CB
330
1F
100
AcDbEntity
  8
0
  6
Continuous
 62
     7
370
    25
100
AcDbCircle
 10
4.6678826714
 20
11.4053420338
 30
0.0
 40
0.0500000000000016
100
AcDbArc
 50
90.0
 51
180.0
  0
LINE
  5
CC
330
1F
100
AcDbEntity
  8
0
  6
Continuous
 62
     7
370
    25
100
AcDbLine
 10
5.1928826714
 20
11.3553420338
 30
0.0
 11
5.2428826714
 21
11.3553420338
 31
0.0
  0
LINE
  5
CD
330
1F
100
AcDbEntity
  8
0
  6
Continuous
 62
     7
370
    25
100
AcDbLine
 10
5.2428826714
 20
11.3553420338
 30
0.0
 11
5.2428826714
 21
11.2803420338
 31
0.0
  0
LINE
  5
CE
330
1F
100
AcDbEntity
  8
0
  6
Continuous
 62
     7
370
    25
100
AcDbLine
 10
5.2428826714
 20
9.2803420338
 30
0.0
 11
5.2428826714
 21
9.2053420338
 31
0.0
  0
ARC
  5
CF
330
1F
100
AcDbEntity
  8
0
  6
Continuous
 62
     7
370
    25
100
AcDbCircle
 10
5.1928826714
 20
11.4053420338
 30
0.0
 40
0.0500000000000007
100
AcDbArc
 50
0.0
 51
90.0
  0
LINE
  5
D0
330
1F
100
AcDbEntity
  8
0
  6
Continuous
 62
     7
370
    25
100
AcDbLine
 10
5.2428826714
 20
11.4053420338
 30
0.0
 11
5.2428826714
 21
11.3553420338
 31
0.0
  0
LINE
  5
D1
330
1F
100
AcDbEntity
  8
0
  6
Continuous
 62
     7
370
    25
100
AcDbLine
 10
4.6178826714
 20
9.1553420338
 30
0.0
 11
4.6178826714
 21
9.2053420338
 31
0.0
  0
ARC
  5
D2
330
1F
100
AcDbEntity
  8
0
  6
Continuous
 62
     7
370
    25
100
AcDbCircle
 10
4.6678826714
 20
9.1553420338
 30
0.0
 40
0.0500000000000016
100
AcDbArc
 50
180.0
 51
270.0
  0
ARC
  5
D3
330
1F
100
AcDbEntity
  8
0
  6
Continuous
 62
     7
370
    25
100
AcDbCircle
 10
12.5919211065
 20
10.8468950184
 30
0.0
 40
0.2248105117627427
100
AcDbArc
 50
174.0133466758
 51
181.989088039
  0
LINE
  5
D4
330
1F
100
AcDbEntity
  8
0
  6
Continuous
 62
     7
370
    25
100
AcDbLine
 10
12.3771487853
 20
10.8703420338
 30
0.0
 11
12.3683366624
 21
10.8703420338
 31
0.0
  0
ARC
  5
D5
330
1F
100
AcDbEntity
  8
0
  6
Continuous
 62
     7
370
    25
100
AcDbCircle
 10
12.1535643411
 20
10.8468950184
 30
0.0
 40
0.2248105117662104
100
AcDbArc
 50
358.010911961
 51
5.9866533241
  0
LINE
  5
D6
330
1F
100
AcDbEntity
  8
0
  6
Continuous
 62
     7
370
    25
100
AcDbLine
 10
12.3782393946
 20
9.7215920338
 30
0.0
 11
12.3782393946
 21
10.8390920338
 31
0.0
  0
ARC
  5
D7
330
1F
100
AcDbEntity
  8
0
  6
Continuous
 62
     7
370
    25
100
AcDbCircle
 10
12.1535643412
 20
9.7137890492
 30
0.0
 40
0.2248105117408666
100
AcDbArc
 50
354.0133466754
 51
1.9890880395
  0
LINE
  5
D8
330
1F
100
AcDbEntity
  8
0
  6
Continuous
 62
     7
370
    25
100
AcDbLine
 10
12.3683366624
 20
9.6903420338
 30
0.0
 11
12.3771487853
 21
9.6903420338
 31
0.0
  0
ARC
  5
D9
330
1F
100
AcDbEntity
  8
0
  6
Continuous
 62
     7
370
    25
100
AcDbCircle
 10
12.5919211065
 20
9.7137890492
 30
0.0
 40
0.224810511747413
100
AcDbArc
 50
178.0109119607
 51
185.9866533245
  0
LINE
  5
DA
330
1F
100
AcDbEntity
  8
0
  6
Continuous
 62
     7
370
    25
100
AcDbLine
 10
12.3672460531
 20
10.8390920338
 30
0.0
 11
12.3672460531
 21
9.7215920338
 31
0.0
  0
LINE
  5
DB
330
1F
100
AcDbEntity
  8
0
  6
Continuous
 62
     7
370
    25
100
AcDbLine
 10
12.3672460531
 20
10.8390920338
 30
0.0
 11
12.3572521448
 21
10.8390920338
 31
0.0
  0
LINE
  5
DC
330
1F
100
AcDbEntity
  8
0
  6
Continuous
 62
     7
370
    25
100
AcDbLine
 10
12.3572521448
 20
9.7215920338
 30
0.0
 11
12.3672460531
 21
9.7215920338
 31
0.0
  0
LINE
  5
DD
330
1F
100
AcDbEntity
  8
0
  6
Continuous
 62
     7
370
    25
100
AcDbLine
 10
12.3572521448
 20
10.8390920338
 30
0.0
 11
12.3572521448
 21
9.7215920338
 31
0.0
  0
LINE
  5
DE
330
1F
100
AcDbEntity
  8
0
  6
Continuous
 62
     7
370
    25
100
AcDbLine
 10
12.3683366624
 20
9.6903420338
 30
0.0
 11
12.3583427541
 21
9.6903420338
 31
0.0
  0
ARC
  5
DF
330
1F
100
AcDbEntity
  8
0
  6
Continuous
 62
     7
370
    25
100
AcDbCircle
 10
12.5819271983
 20
9.7137890492
 30
0.0
 40
0.224810511764961
100
AcDbArc
 50
178.010911961
 51
185.9866533241
  0
ARC
  5
E0
330
1F
100
AcDbEntity
  8
0
  6
Continuous
 62
     7
370
    25
100
AcDbCircle
 10
12.5819271982
 20
10.8468950184
 30
0.0
 40
0.2248105117596282
100
AcDbArc
 50
174.0133466757
 51
181.9890880391
  0
LINE
  5
E1
330
1F
100
AcDbEntity
  8
0
  6
Continuous
 62
     7
370
    25
100
AcDbLine
 10
12.3583427541
 20
10.8703420338
 30
0.0
 11
12.3683366624
 21
10.8703420338
 31
0.0
  0
LINE
  5
E2
330
1F
100
AcDbEntity
  8
0
  6
Continuous
 62
     7
370
    25
100
AcDbLine
 10
15.3970968058
 20
10.0868420338
 30
0.0
 11
15.3970968058
 21
9.8488420338
 31
0.0
  0
LINE
  5
E3
330
1F
100
AcDbEntity
  8
0
  6
Continuous
 62
     7
370
    25
100
AcDbLine
 10
15.3810968058
 20
10.1028420338
 30
0.0
 11
15.3810968058
 21
9.8328420338
 31
0.0
  0
LINE
  5
E4
330
1F
100
AcDbEntity
  8
0
  6
Continuous
 62
     7
370
    25
100
AcDbLine
 10
15.1326129456
 20
9.9678420338
 30
0.0
 11
15.1326129456
 21
9.8858420338
 31
0.0
  0
LINE
  5
E5
330
1F
100
AcDbEntity
  8
0
  6
Continuous
 62
     7
370
    25
100
AcDbLine
 10
15.1326129456
 20
10.0498420338
 30
0.0
 11
15.1326129456
 21
9.9678420338
 31
0.0
  0
LINE
  5
E6
330
1F
100
AcDbEntity
  8
0
  6
Continuous
 62
     7
370
    25
100
AcDbLine
 10
15.1456368058
 20
9.9678420338
 30
0.0
 11
15.1456368058
 21
9.9044420338
 31
0.0
  0
LINE
  5
E7
330
1F
100
AcDbEntity
  8
0
  6
Continuous
 62
     7
370
    25
100
AcDbLine
 10
15.1456368058
 20
10.0312420338
 30
0.0
 11
15.1456368058
 21
9.9678420338
 31
0.0
  0
LINE
  5
E8
330
1F
100
AcDbEntity
  8
0
  6
Continuous
 62
     7
370
    25
100
AcDbLine
 10
15.1607429456
 20
9.9678420338
 30
0.0
 11
15.1607429456
 21
9.8858420338
 31
0.0
  0
LINE
  5
E9
330
1F
100
AcDbEntity
  8
0
  6
Continuous
 62
     7
370
    25
100
AcDbLine
 10
15.1607429456
 20
10.0498420338
 30
0.0
 11
15.1607429456
 21
9.9678420338
 31
0.0
  0
LINE
  5
EA
330
1F
100
AcDbEntity
  8
0
  6
Continuous
 62
     7
370
    25
100
AcDbLine
 10
15.158660666
 20
9.9678420338
 30
0.0
 11
15.158660666
 21
9.8858420338
 31
0.0
  0
LINE
  5
EB
330
1F
100
AcDbEntity
  8
0
  6
Continuous
 62
     7
370
    25
100
AcDbLine
 10
15.158660666
 20
10.0498420338
 30
0.0
 11
15.158660666
 21
9.9678420338
 31
0.0
  0
LINE
  5
EC
330
1F
100
AcDbEntity
  8
0
  6
Continuous
 62
     7
370
    25
100
AcDbLine
 10
15.1175068058
 20
9.9678420338
 30
0.0
 11
15.1175068058
 21
9.9044420338
 31
0.0
  0
LINE
  5
ED
330
1F
100
AcDbEntity
  8
0
  6
Continuous
 62
     7
370
    25
100
AcDbLine
 10
15.1175068058
 20
10.0312420338
 30
0.0
 11
15.1175068058
 21
9.9678420338
 31
0.0
  0
LINE
  5
EE
330
1F
100
AcDbEntity
  8
0
  6
Continuous
 62
     7
370
    25
100
AcDbLine
 10
15.130530666
 20
9.9678420338
 30
0.0
 11
15.130530666
 21
9.8858420338
 31
0.0
  0
LINE
  5
EF
330
1F
100
AcDbEntity
  8
0
  6
Continuous
 62
     7
370
    25
100
AcDbLine
 10
15.130530666
 20
10.0498420338
 30
0.0
 11
15.130530666
 21
9.9678420338
 31
0.0
  0
LINE
  5
F0
330
1F
100
AcDbEntity
  8
0
  6
Continuous
 62
     7
370
    25
100
AcDbLine
 10
11.8936685371
 20
9.8488420338
 30
0.0
 11
11.8936685371
 21
10.0868420338
 31
0.0
  0
LINE
  5
F1
330
1F
100
AcDbEntity
  8
0
  6
Continuous
 62
     7
370
    25
100
AcDbLine
 10
11.9096685371
 20
9.8328420338
 30
0.0
 11
11.9096685371
 21
10.1028420338
 31
0.0
  0
LINE
  5
F2
330
1F
100
AcDbEntity
  8
0
  6
Continuous
 62
     7
370
    25
100
AcDbLine
 10
11.9096685371
 20
10.4578420338
 30
0.0
 11
11.9096685371
 21
10.7278420338
 31
0.0
  0
LINE
  5
F3
330
1F
100
AcDbEntity
  8
0
  6
Continuous
 62
     7
370
    25
100
AcDbLine
 10
11.8936685371
 20
10.4738420338
 30
0.0
 11
11.8936685371
 21
10.7118420338
 31
0.0
  0
LINE
  5
F4
330
1F
100
AcDbEntity
  8
0
  6
Continuous
 62
     7
370
    25
100
AcDbLine
 10
15.3810968058
 20
10.7278420338
 30
0.0
 11
15.3810968058
 21
10.4578420338
 31
0.0
  0
LINE
  5
F5
330
1F
100
AcDbEntity
  8
0
  6
Continuous
 62
     7
370
    25
100
AcDbLine
 10
15.3970968058
 20
10.7118420338
 30
0.0
 11
15.3970968058
 21
10.4738420338
 31
0.0
  0
LINE
  5
F6
330
1F
100
AcDbEntity
  8
0
  6
Continuous
 62
     7
370
    25
100
AcDbLine
 10
15.1607429456
 20
10.5928420338
 30
0.0
 11
15.1607429456
 21
10.5108420338
 31
0.0
  0
LINE
  5
F7
330
1F
100
AcDbEntity
  8
0
  6
Continuous
 62
     7
370
    25
100
AcDbLine
 10
15.1607429456
 20
10.6748420338
 30
0.0
 11
15.1607429456
 21
10.5928420338
 31
0.0
  0
LINE
  5
F8
330
1F
100
AcDbEntity
  8
0
  6
Continuous
 62
     7
370
    25
100
AcDbLine
 10
15.1175068058
 20
10.5928420338
 30
0.0
 11
15.1175068058
 21
10.5294420338
 31
0.0
  0
LINE
  5
F9
330
1F
100
AcDbEntity
  8
0
  6
Continuous
 62
     7
370
    25
100
AcDbLine
 10
15.1175068058
 20
10.6562420338
 30
0.0
 11
15.1175068058
 21
10.5928420338
 31
0.0
  0
LINE
  5
FA
330
1F
100
AcDbEntity
  8
0
  6
Continuous
 62
     7
370
    25
100
AcDbLine
 10
15.1326129456
 20
10.5928420338
 30
0.0
 11
15.1326129456
 21
10.5108420338
 31
0.0
  0
LINE
  5
FB
330
1F
100
AcDbEntity
  8
0
  6
Continuous
 62
     7
370
    25
100
AcDbLine
 10
15.1326129456
 20
10.6748420338
 30
0.0
 11
15.1326129456
 21
10.5928420338
 31
0.0
  0
LINE
  5
FC
330
1F
100
AcDbEntity
  8
0
  6
Continuous
 62
     7
370
    25
100
AcDbLine
 10
15.130530666
 20
10.5928420338
 30
0.0
 11
15.130530666
 21
10.5108420338
 31
0.0
  0
LINE
  5
FD
330
1F
100
AcDbEntity
  8
0
  6
Continuous
 62
     7
370
    25
100
AcDbLine
 10
15.130530666
 20
10.6748420338
 30
0.0
 11
15.130530666
 21
10.5928420338
 31
0.0
  0
LINE
  5
FE
330
1F
100
AcDbEntity
  8
0
  6
Continuous
 62
     7
370
    25
100
AcDbLine
 10
15.1456368058
 20
10.5928420338
 30
0.0
 11
15.1456368058
 21
10.5294420338
 31
0.0
  0
LINE
  5
FF
330
1F
100
AcDbEntity
  8
0
  6
Continuous
 62
     7
370
    25
100
AcDbLine
 10
15.1456368058
 20
10.6562420338
 30
0.0
 11
15.1456368058
 21
10.5928420338
 31
0.0
  0
LINE
  5
100
330
1F
100
AcDbEntity
  8
0
  6
Continuous
 62
     7
370
    25
100
AcDbLine
 10
15.158660666
 20
10.5928420338
 30
0.0
 11
15.158660666
 21
10.5108420338
 31
0.0
  0
LINE
  5
101
330
1F
100
AcDbEntity
  8
0
  6
Continuous
 62
     7
370
    25
100
AcDbLine
 10
15.158660666
 20
10.6748420338
 30
0.0
 11
15.158660666
 21
10.5928420338
 31
0.0
  0
LINE
  5
102
330
1F
100
AcDbEntity
  8
0
  6
Continuous
 62
     7
370
    25
100
AcDbLine
 10
15.2330968058
 20
9.8217936444
 30
0.0
 11
15.1930968058
 21
9.8217936444
 31
0.0
  0
LINE
  5
103
330
1F
100
AcDbEntity
  8
0
  6
Continuous
 62
     7
370
    25
100
AcDbLine
 10
15.2330968058
 20
10.1143420338
 30
0.0
 11
15.2330968058
 21
9.8217936444
 31
0.0
  0
LINE
  5
104
330
1F
100
AcDbEntity
  8
0
  6
Continuous
 62
     7
370
    25
100
AcDbLine
 10
12.0576685371
 20
10.4467936444
 30
0.0
 11
12.0976685371
 21
10.4467936444
 31
0.0
  0
LINE
  5
105
330
1F
100
AcDbEntity
  8
0
  6
Continuous
 62
     7
370
    25
100
AcDbLine
 10
12.0576685371
 20
10.4467936444
 30
0.0
 11
12.0576685371
 21
10.7393420338
 31
0.0
  0
LINE
  5
106
330
1F
100
AcDbEntity
  8
0
  6
Continuous
 62
     7
370
    25
100
AcDbLine
 10
15.2330968058
 20
10.4467936444
 30
0.0
 11
15.1930968058
 21
10.4467936444
 31
0.0
  0
LINE
  5
107
330
1F
100
AcDbEntity
  8
0
  6
Continuous
 62
     7
370
    25
100
AcDbLine
 10
15.2330968058
 20
10.7393420338
 30
0.0
 11
15.2330968058
 21
10.4467936444
 31
0.0
  0
LINE
  5
108
330
1F
100
AcDbEntity
  8
0
  6
Continuous
 62
     7
370
    25
100
AcDbLine
 10
12.0576685371
 20
9.8217936444
 30
0.0
 11
12.0976685371
 21
9.8217936444
 31
0.0
  0
LINE
  5
109
330
1F
100
AcDbEntity
  8
0
  6
Continuous
 62
     7
370
    25
100
AcDbLine
 10
12.0576685371
 20
9.8217936444
 30
0.0
 11
12.0576685371
 21
10.1143420338
 31
0.0
  0
LINE
  5
10A
330
1F
100
AcDbEntity
  8
0
  6
Continuous
 62
     7
370
    25
100
AcDbLine
 10
12.0976685371
 20
10.4053420338
 30
0.0
 11
12.0976685371
 21
10.7803420338
 31
0.0
  0
LINE
  5
10B
330
1F
100
AcDbEntity
  8
0
  6
Continuous
 62
     7
370
    25
100
AcDbLine
 10
12.1296685371
 20
10.4053420338
 30
0.0
 11
12.1296685371
 21
10.7803420338
 31
0.0
  0
LINE
  5
10C
330
1F
100
AcDbEntity
  8
0
  6
Continuous
 62
     7
370
    25
100
AcDbLine
 10
15.1930968058
 20
9.7803420338
 30
0.0
 11
15.1930968058
 21
10.1553420338
 31
0.0
  0
LINE
  5
10D
330
1F
100
AcDbEntity
  8
0
  6
Continuous
 62
     7
370
    25
100
AcDbLine
 10
15.1610968058
 20
9.7803420338
 30
0.0
 11
15.1610968058
 21
10.1553420338
 31
0.0
  0
LINE
  5
10E
330
1F
100
AcDbEntity
  8
0
  6
Continuous
 62
     7
370
    25
100
AcDbLine
 10
12.1296685371
 20
9.7803420338
 30
0.0
 11
12.1296685371
 21
10.1553420338
 31
0.0
  0
LINE
  5
10F
330
1F
100
AcDbEntity
  8
0
  6
Continuous
 62
     7
370
    25
100
AcDbLine
 10
12.0976685371
 20
9.7803420338
 30
0.0
 11
12.0976685371
 21
10.1553420338
 31
0.0
  0
LINE
  5
110
330
1F
100
AcDbEntity
  8
0
  6
Continuous
 62
     7
370
    25
100
AcDbLine
 10
15.1930968058
 20
10.4053420338
 30
0.0
 11
15.1930968058
 21
10.7803420338
 31
0.0
  0
LINE
  5
111
330
1F
100
AcDbEntity
  8
0
  6
Continuous
 62
     7
370
    25
100
AcDbLine
 10
15.1610968058
 20
10.4053420338
 30
0.0
 11
15.1610968058
 21
10.7803420338
 31
0.0
  0
LINE
  5
112
330
1F
100
AcDbEntity
  8
0
  6
Continuous
 62
     7
370
    25
100
AcDbLine
 10
14.935300383
 20
8.9153420338
 30
0.0
 11
14.935300383
 21
11.6453420338
 31
0.0
  0
LINE
  5
113
330
1F
100
AcDbEntity
  8
0
  6
Continuous
 62
     7
370
    25
100
AcDbLine
 10
14.8483476669
 20
8.9153420338
 30
0.0
 11
14.8483476669
 21
11.6453420338
 31
0.0
  0
ELLIPSE
  5
114
330
1F
100
AcDbEntity
  8
0
  6
Continuous
 62
     7
370
    25
100
AcDbEllipse
 10
14.8785541325
 20
10.5928420338
 30
0.0
 11
0.0
 21
0.06799999999999784
 31
0.0
210
0.0
220
0.0
230
1.0
 40
0.0349207695
 41
0.0
 42
6.283185307179586
  0
ELLIPSE
  5
115
330
1F
100
AcDbEntity
  8
0
  6
Continuous
 62
     7
370
    25
100
AcDbEllipse
 10
14.8785541325
 20
9.9678420338
 30
0.0
 11
0.0
 21
0.06800000000000139
 31
0.0
210
0.0
220
0.0
230
1.0
 40
0.0349207695
 41
0.0
 42
6.283185307179586
  0
LINE
  5
116
330
1F
100
AcDbEntity
  8
0
  6
Continuous
 62
     7
370
    25
100
AcDbLine
 10
12.3554649599
 20
11.6453420338
 30
0.0
 11
12.3554649599
 21
8.9153420338
 31
0.0
  0
LINE
  5
117
330
1F
100
AcDbEntity
  8
0
  6
Continuous
 62
     7
370
    25
100
AcDbLine
 10
12.442417676
 20
11.6453420338
 30
0.0
 11
12.442417676
 21
8.9153420338
 31
0.0
  0
ELLIPSE
  5
118
330
1F
100
AcDbEntity
  8
0
  6
Continuous
 62
     7
370
    25
100
AcDbEllipse
 10
12.4122112104
 20
9.9678420338
 30
0.0
 11
0.0
 21
0.06799999999999962
 31
0.0
210
0.0
220
0.0
230
1.0
 40
0.0349207695
 41
0.0
 42
6.283185307179586
  0
ELLIPSE
  5
119
330
1F
100
AcDbEntity
  8
0
  6
Continuous
 62
     7
370
    25
100
AcDbEllipse
 10
12.4122112104
 20
10.5928420338
 30
0.0
 11
3.552713678800501E-15
 21
0.06799999999999962
 31
0.0
210
0.0
220
0.0
230
1.0
 40
0.0349207695
 41
0.0
 42
6.283185307179586
  0
ELLIPSE
  5
11A
330
1F
100
AcDbEntity
  8
0
  6
Continuous
 62
     7
370
    25
100
AcDbEllipse
 10
12.282920768
 20
12.5328039373
 30
0.0
 11
-0.04424803403744981
 21
0.04424803403745159
 31
0.0
210
0.0
220
0.0
230
1.0
 40
0.998782766
 41
5.498396131367764
 42
7.067974482991461
  0
ELLIPSE
  5
11B
330
1F
100
AcDbEntity
  8
0
  6
Continuous
 62
     7
370
    25
100
AcDbEllipse
 10
15.0078445749
 20
12.5328039373
 30
0.0
 11
0.04424803403744981
 21
0.04424803403744804
 31
0.0
210
0.0
220
0.0
230
1.0
 40
0.998782766
 41
5.498396131367746
 42
7.06797448299148
  0
ELLIPSE
  5
11C
330
1F
100
AcDbEntity
  8
0
  6
Continuous
 62
     7
370
    25
100
AcDbEllipse
 10
15.0078445749
 20
8.0278801303
 30
0.0
 11
0.04424803403744804
 21
-0.04424803403744892
 31
0.0
210
0.0
220
0.0
230
1.0
 40
0.998782766
 41
5.498396131367723
 42
7.067974482991427
  0
ELLIPSE
  5
11D
330
1F
100
AcDbEntity
  8
0
  6
Continuous
 62
     7
370
    25
100
AcDbEllipse
 10
12.282920768
 20
8.0278801303
 30
0.0
 11
-0.04424803403744982
 21
-0.04424803403744982
 31
0.0
210
0.0
220
0.0
230
1.0
 40
0.998782766
 41
5.498396131367755
 42
7.067974482991431
  0
LINE
  5
11E
330
1F
100
AcDbEntity
  8
0
  6
Continuous
 62
     7
370
    25
100
AcDbLine
 10
14.935300383
 20
8.9153420338
 30
0.0
 11
12.3554649599
 21
8.9153420338
 31
0.0
  0
CIRCLE
  5
11F
330
1F
100
AcDbEntity
  8
0
  6
Continuous
 62
     7
370
    25
100
AcDbCircle
 10
13.6453826714
 20
8.6240920338
 30
0.0
 40
0.0625
  0
CIRCLE
  5
120
330
1F
100
AcDbEntity
  8
0
  6
Continuous
 62
     7
370
    25
100
AcDbCircle
 10
14.5828826714
 20
11.9365920338
 30
0.0
 40
0.0700000000000021
  0
CIRCLE
  5
121
330
1F
100
AcDbEntity
  8
0
  6
Continuous
 62
     7
370
    25
100
AcDbCircle
 10
12.6453826714
 20
12.1865920338
 30
0.0
 40
0.0700000000000003
  0
CIRCLE
  5
122
330
1F
100
AcDbEntity
  8
0
  6
Continuous
 62
     7
370
    25
100
AcDbCircle
 10
14.6453826714
 20
12.1865920338
 30
0.0
 40
0.0700000000000003
  0
CIRCLE
  5
123
330
1F
100
AcDbEntity
  8
0
  6
Continuous
 62
     7
370
    25
100
AcDbCircle
 10
14.5828826714
 20
8.6240920338
 30
0.0
 40
0.0699999999999985
  0
CIRCLE
  5
124
330
1F
100
AcDbEntity
  8
0
  6
Continuous
 62
     7
370
    25
100
AcDbCircle
 10
12.7078826714
 20
8.6240920338
 30
0.0
 40
0.0699999999999985
  0
CIRCLE
  5
125
330
1F
100
AcDbEntity
  8
0
  6
Continuous
 62
     7
370
    25
100
AcDbCircle
 10
14.6453826714
 20
8.3740920338
 30
0.0
 40
0.0700000000000003
  0
CIRCLE
  5
126
330
1F
100
AcDbEntity
  8
0
  6
Continuous
 62
     7
370
    25
100
AcDbCircle
 10
12.6453826714
 20
8.3740920338
 30
0.0
 40
0.0699999999999985
  0
CIRCLE
  5
127
330
1F
100
AcDbEntity
  8
0
  6
Continuous
 62
     7
370
    25
100
AcDbCircle
 10
12.7078826714
 20
11.9365920338
 30
0.0
 40
0.0699999999999985
  0
LINE
  5
128
330
1F
100
AcDbEntity
  8
0
  6
Continuous
 62
     7
370
    25
100
AcDbLine
 10
12.2828445981
 20
7.9653420338
 30
0.0
 11
15.0079207448
 21
7.9653420338
 31
0.0
  0
LINE
  5
129
330
1F
100
AcDbEntity
  8
0
  6
Continuous
 62
     7
370
    25
100
AcDbLine
 10
15.0703826714
 20
8.0278039605
 30
0.0
 11
15.0703826714
 21
12.5328801071
 31
0.0
  0
LINE
  5
12A
330
1F
100
AcDbEntity
  8
0
  6
Continuous
 62
     7
370
    25
100
AcDbLine
 10
15.0079207448
 20
12.5953420338
 30
0.0
 11
12.2828445981
 21
12.5953420338
 31
0.0
  0
LINE
  5
12B
330
1F
100
AcDbEntity
  8
0
  6
Continuous
 62
     7
370
    25
100
AcDbLine
 10
12.2203826714
 20
12.5328801071
 30
0.0
 11
12.2203826714
 21
8.0278039605
 31
0.0
  0
LINE
  5
12C
330
1F
100
AcDbEntity
  8
0
  6
Continuous
 62
     7
370
    25
100
AcDbLine
 10
12.3554649599
 20
11.6453420338
 30
0.0
 11
14.935300383
 21
11.6453420338
 31
0.0
  0
CIRCLE
  5
12D
330
1F
100
AcDbEntity
  8
0
  6
Continuous
 62
     7
370
    25
100
AcDbCircle
 10
13.6453826714
 20
11.9365920338
 30
0.0
 40
0.0625
  0
LINE
  5
12E
330
1F
100
AcDbEntity
  8
0
  6
Continuous
 62
     7
370
    25
100
AcDbLine
 10
14.6506984329
 20
11.9192420338
 30
0.0
 11
14.51506691
 21
11.9192420338
 31
0.0
  0
LINE
  5
12F
330
1F
100
AcDbEntity
  8
0
  6
Continuous
 62
     7
370
    25
100
AcDbLine
 10
12.7756984329
 20
11.9192420338
 30
0.0
 11
12.64006691
 21
11.9192420338
 31
0.0
  0
CIRCLE
  5
130
330
1F
100
AcDbEntity
  8
0
  6
Continuous
 62
     7
370
    25
100
AcDbCircle
 10
12.767517676
 20
9.5002420338
 30
0.0
 40
0.1109316922032999
  0
CIRCLE
  5
131
330
1F
100
AcDbEntity
  8
0
  6
Continuous
 62
     7
370
    25
100
AcDbCircle
 10
12.767417676
 20
9.5002420338
 30
0.0
 40
0.0754999999999999
  0
CIRCLE
  5
132
330
1F
100
AcDbEntity
  8
0
  6
Continuous
 62
     7
370
    25
100
AcDbCircle
 10
12.767517676
 20
9.5002420338
 30
0.0
 40
0.1249000000000002
  0
LINE
  5
133
330
1F
100
AcDbEntity
  8
0
  6
Continuous
 62
     7
370
    25
100
AcDbLine
 10
12.6054649599
 20
8.3165891964
 30
0.0
 11
12.6054649599
 21
8.4315948712
 31
0.0
  0
LINE
  5
134
330
1F
100
AcDbEntity
  8
0
  6
Continuous
 62
     7
370
    25
100
AcDbLine
 10
14.685300383
 20
8.4315948712
 30
0.0
 11
14.685300383
 21
8.3165891964
 31
0.0
  0
CIRCLE
  5
135
330
1F
100
AcDbEntity
  8
0
  6
Continuous
 62
     7
370
    25
100
AcDbCircle
 10
13.6453826714
 20
10.2803420338
 30
0.0
 40
0.3802381154237615
  0
CIRCLE
  5
136
330
1F
100
AcDbEntity
  8
0
  6
Continuous
 62
     7
370
    25
100
AcDbCircle
 10
13.6453826714
 20
10.2803420338
 30
0.0
 40
0.3779999999999983
  0
CIRCLE
  5
137
330
1F
100
AcDbEntity
  8
0
  6
Continuous
 62
     7
370
    25
100
AcDbCircle
 10
13.6453826714
 20
10.2803420338
 30
0.0
 40
0.4594063361507938
  0
CIRCLE
  5
138
330
1F
100
AcDbEntity
  8
0
  6
Continuous
 62
     7
370
    25
100
AcDbCircle
 10
13.6453826714
 20
10.2803420338
 30
0.0
 40
0.5218682628394902
  0
CIRCLE
  5
139
330
1F
100
AcDbEntity
  8
0
  6
Continuous
 62
     7
370
    25
100
AcDbCircle
 10
13.6453826714
 20
10.2803420338
 30
0.0
 40
0.5249999999999986
  0
LINE
  5
13A
330
1F
100
AcDbEntity
  8
0
  6
Continuous
 62
     7
370
    25
100
AcDbLine
 10
12.3896103001
 20
10.6553420338
 30
0.0
 11
12.3782393946
 21
10.6553420338
 31
0.0
  0
ARC
  5
13B
330
1F
100
AcDbEntity
  8
0
  6
Continuous
 62
     7
370
    25
100
AcDbCircle
 10
11.9424414118
 20
10.6084480029
 30
0.0
 40
0.4496210235203404
100
AcDbArc
 50
358.0109119609
 51
5.9866533243
  0
LINE
  5
13C
330
1F
100
AcDbEntity
  8
0
  6
Continuous
 62
     7
370
    25
100
AcDbLine
 10
12.3917915187
 20
9.9678420338
 30
0.0
 11
12.3917915187
 21
10.5928420338
 31
0.0
  0
ARC
  5
13D
330
1F
100
AcDbEntity
  8
0
  6
Continuous
 62
     7
370
    25
100
AcDbCircle
 10
11.9424414118
 20
9.9522360647
 30
0.0
 40
0.4496210235221489
100
AcDbArc
 50
354.0133466758
 51
1.9890880391
  0
LINE
  5
13E
330
1F
100
AcDbEntity
  8
0
  6
Continuous
 62
     7
370
    25
100
AcDbLine
 10
12.3782393946
 20
9.9053420338
 30
0.0
 11
12.3896103001
 21
9.9053420338
 31
0.0
  0
LINE
  5
13F
330
1F
100
AcDbEntity
  8
0
  6
Continuous
 62
     7
370
    25
100
AcDbLine
 10
12.1278077333
 20
9.2803420338
 30
0.0
 11
12.1278077333
 21
9.7803420338
 31
0.0
  0
LINE
  5
140
330
1F
100
AcDbEntity
  8
0
  6
Continuous
 62
     7
370
    25
100
AcDbLine
 10
12.1278077333
 20
10.1553420338
 30
0.0
 11
12.1278077333
 21
10.4053420338
 31
0.0
  0
LINE
  5
141
330
1F
100
AcDbEntity
  8
0
  6
Continuous
 62
     7
370
    25
100
AcDbLine
 10
12.1278077333
 20
10.7803420338
 30
0.0
 11
12.1278077333
 21
11.2803420338
 31
0.0
  0
LINE
  5
142
330
1F
100
AcDbEntity
  8
0
  6
Continuous
 62
     7
370
    25
100
AcDbLine
 10
15.1629576096
 20
11.2803420338
 30
0.0
 11
15.1629576096
 21
10.7803420338
 31
0.0
  0
LINE
  5
143
330
1F
100
AcDbEntity
  8
0
  6
Continuous
 62
     7
370
    25
100
AcDbLine
 10
15.1629576096
 20
10.4053420338
 30
0.0
 11
15.1629576096
 21
10.1553420338
 31
0.0
  0
LINE
  5
144
330
1F
100
AcDbEntity
  8
0
  6
Continuous
 62
     7
370
    25
100
AcDbLine
 10
15.1629576096
 20
9.7803420338
 30
0.0
 11
15.1629576096
 21
9.2803420338
 31
0.0
  0
LINE
  5
145
330
1F
100
AcDbEntity
  8
0
  6
Continuous
 62
     7
370
    25
100
AcDbLine
 10
5.1928826714
 20
9.2053420338
 30
0.0
 11
5.1928826714
 21
9.2803420338
 31
0.0
  0
LINE
  5
146
330
1F
100
AcDbEntity
  8
0
  6
Continuous
 62
     7
370
    25
100
AcDbLine
 10
5.1928826714
 20
11.2803420338
 30
0.0
 11
5.1928826714
 21
11.3553420338
 31
0.0
  0
LINE
  5
147
330
1F
100
AcDbEntity
  8
0
  6
Continuous
 62
     7
370
    25
100
AcDbLine
 10
12.6526225247
 20
11.9795608152
 30
0.0
 11
12.7631428182
 21
11.9795608152
 31
0.0
  0
LINE
  5
148
330
1F
100
AcDbEntity
  8
0
  6
Continuous
 62
     7
370
    25
100
AcDbLine
 10
14.5276225247
 20
11.9795608152
 30
0.0
 11
14.6381428182
 21
11.9795608152
 31
0.0
  0
DIMENSION
  5
149
330
1F
100
AcDbEntity
  8
DIM
100
AcDbDimension
  2
_D
 10
25.0978915376
 20
7.9653420338
 30
0.0
 11
25.0978915376
 21
11.0530970919
 31
0.0
 70
   160
  1
<>
 71
     2
 42
-1.0
  3
SLDDIMSTYLE0
100
AcDbAlignedDimension
 13
15.0079207448
 23
12.5953420338
 33
0.0
 14
15.0079207448
 24
7.9653420338
 34
0.0
 50
90.0
100
AcDbRotatedDimension
  0
DIMENSION
  5
15E
330
1F
100
AcDbEntity
  8
DIM
100
AcDbDimension
  2
_D_1
 10
15.0703826714
 20
15.2244186718
 30
0.0
 11
18.034941269
 21
15.2244186718
 31
0.0
 70
   160
  1
<>
 71
     2
 42
-1.0
  3
SLDDIMSTYLE1
100
AcDbAlignedDimension
 13
12.2203826714
 23
12.5328801071
 33
0.0
 14
15.0703826714
 24
12.5328801071
 34
0.0
 50
0.0
100
AcDbRotatedDimension
  0
SPLINE
  5
173
330
1F
100
AcDbEntity
  8
0
  6
Continuous
 62
     7
370
    25
100
AcDbSpline
210
0.0
220
0.0
230
1.0
 70
     8
 71
     3
 72
    12
 73
     8
 74
     0
 42
0.00000001
 43
0.00000001
 40
0.0
 40
0.0
 40
0.0
 40
0.0
 40
0.2035564468511925
 40
0.481946986768272
 40
0.6770939324117355
 40
0.8359156493447922
 40
1.0
 40
1.0
 40
1.0
 40
1.0
 10
5.225280817866157
 20
31.14097784821926
 30
0.0
 10
5.223590426167336
 20
31.14292199349291
 30
0.0
 10
5.219588198783692
 20
31.14752501624641
 30
0.0
 10
5.213719782052049
 20
31.15340847759431
 30
0.0
 10
5.209620917934122
 20
31.1584036704616
 30
0.0
 10
5.207917240094594
 20
31.16173239140389
 30
0.0
 10
5.207897494978432
 20
31.16213278022452
 30
0.0
 10
5.207887461520133
 20
31.16233623734792
 30
0.0
  0
ARC
  5
174
330
1F
100
AcDbEntity
  8
0
  6
Continuous
 62
     7
370
    25
100
AcDbCircle
 10
12.1796685371
 20
20.9794367209
 30
0.0
 40
0.0500000000000021
100
AcDbArc
 50
90.0
 51
144.4005663698
  0
ARC
  5
175
330
1F
100
AcDbEntity
  8
0
  6
Continuous
 62
     7
370
    25
100
AcDbCircle
 10
12.1796685371
 20
20.6544367209
 30
0.0
 40
0.0500000000000007
100
AcDbArc
 50
180.0
 51
270.0
  0
LINE
  5
176
330
1F
100
AcDbEntity
  8
0
  6
Continuous
 62
     7
370
    25
100
AcDbLine
 10
12.2196685371
 20
21.0469367209
 30
0.0
 11
12.2146685371
 21
21.0469367209
 31
0.0
  0
ARC
  5
177
330
1F
100
AcDbEntity
  8
0
  6
Continuous
 62
     7
370
    25
100
AcDbCircle
 10
12.2196685371
 20
21.0369367209
 30
0.0
 40
0.0100000000000051
100
AcDbArc
 50
0.0
 51
90.0
  0
LINE
  5
178
330
1F
100
AcDbEntity
  8
0
  6
Continuous
 62
     7
370
    25
100
AcDbLine
 10
11.9096685371
 20
20.9519367209
 30
0.0
 11
11.8936685371
 21
20.9359367209
 31
0.0
  0
LINE
  5
179
330
1F
100
AcDbEntity
  8
0
  6
Continuous
 62
     7
370
    25
100
AcDbLine
 10
11.8936685371
 20
20.6979367209
 30
0.0
 11
11.9096685371
 21
20.6819367209
 31
0.0
  0
LINE
  5
17A
330
1F
100
AcDbEntity
  8
0
  6
Continuous
 62
     7
370
    25
100
AcDbLine
 10
11.9096685371
 20
20.6819367209
 30
0.0
 11
12.0576685371
 21
20.6819367209
 31
0.0
  0
LINE
  5
17B
330
1F
100
AcDbEntity
  8
0
  6
Continuous
 62
     7
370
    25
100
AcDbLine
 10
12.0576685371
 20
20.9519367209
 30
0.0
 11
11.9096685371
 21
20.9519367209
 31
0.0
  0
LINE
  5
17C
330
1F
100
AcDbEntity
  8
0
  6
Continuous
 62
     7
370
    25
100
AcDbLine
 10
12.2706723973
 20
20.7349367209
 30
0.0
 11
12.2727546769
 21
20.7349367209
 31
0.0
  0
LINE
  5
17D
330
1F
100
AcDbEntity
  8
0
  6
Continuous
 62
     7
370
    25
100
AcDbLine
 10
12.2727546769
 20
20.8989367209
 30
0.0
 11
12.2706723973
 21
20.8989367209
 31
0.0
  0
LINE
  5
17E
330
1F
100
AcDbEntity
  8
0
  6
Continuous
 62
     7
370
    25
100
AcDbLine
 10
12.2706723973
 20
20.8989367209
 30
0.0
 11
12.2596685371
 21
20.8832215799
 31
0.0
  0
LINE
  5
17F
330
1F
100
AcDbEntity
  8
0
  6
Continuous
 62
     7
370
    25
100
AcDbLine
 10
12.2596685371
 20
20.7506518619
 30
0.0
 11
12.2706723973
 21
20.7349367209
 31
0.0
  0
LINE
  5
180
330
1F
100
AcDbEntity
  8
0
  6
Continuous
 62
     7
370
    25
100
AcDbLine
 10
12.2727546769
 20
20.7349367209
 30
0.0
 11
12.2743447173
 21
20.7372075339
 31
0.0
  0
LINE
  5
181
330
1F
100
AcDbEntity
  8
0
  6
Continuous
 62
     7
370
    25
100
AcDbLine
 10
12.2796486105
 20
20.8890911634
 30
0.0
 11
12.2727546769
 21
20.8989367209
 31
0.0
  0
LINE
  5
182
330
1F
100
AcDbEntity
  8
0
  6
Continuous
 62
     7
370
    25
100
AcDbLine
 10
15.3810968058
 20
20.9519367209
 30
0.0
 11
15.2330968058
 21
20.9519367209
 31
0.0
  0
LINE
  5
183
330
1F
100
AcDbEntity
  8
0
  6
Continuous
 62
     7
370
    25
100
AcDbLine
 10
15.2330968058
 20
20.6819367209
 30
0.0
 11
15.3810968058
 21
20.6819367209
 31
0.0
  0
LINE
  5
184
330
1F
100
AcDbEntity
  8
0
  6
Continuous
 62
     7
370
    25
100
AcDbLine
 10
15.3810968058
 20
20.6819367209
 30
0.0
 11
15.3970968058
 21
20.6979367209
 31
0.0
  0
LINE
  5
185
330
1F
100
AcDbEntity
  8
0
  6
Continuous
 62
     7
370
    25
100
AcDbLine
 10
15.3970968058
 20
20.9359367209
 30
0.0
 11
15.3810968058
 21
20.9519367209
 31
0.0
  0
LINE
  5
186
330
1F
100
AcDbEntity
  8
0
  6
Continuous
 62
     7
370
    25
100
AcDbLine
 10
15.0200929456
 20
20.7349367209
 30
0.0
 11
15.0310968058
 21
20.7506518619
 31
0.0
  0
LINE
  5
187
330
1F
100
AcDbEntity
  8
0
  6
Continuous
 62
     7
370
    25
100
AcDbLine
 10
15.0310968058
 20
20.8832215799
 30
0.0
 11
15.0200929456
 21
20.8989367209
 31
0.0
  0
LINE
  5
188
330
1F
100
AcDbEntity
  8
0
  6
Continuous
 62
     7
370
    25
100
AcDbLine
 10
15.0200929456
 20
20.8989367209
 30
0.0
 11
15.018010666
 21
20.8989367209
 31
0.0
  0
LINE
  5
189
330
1F
100
AcDbEntity
  8
0
  6
Continuous
 62
     7
370
    25
100
AcDbLine
 10
15.018010666
 20
20.7349367209
 30
0.0
 11
15.0200929456
 21
20.7349367209
 31
0.0
  0
LINE
  5
18A
330
1F
100
AcDbEntity
  8
0
  6
Continuous
 62
     7
370
    25
100
AcDbLine
 10
15.1110968058
 20
20.7443822922
 30
0.0
 11
15.1175068058
 21
20.7535367209
 31
0.0
  0
LINE
  5
18B
330
1F
100
AcDbEntity
  8
0
  6
Continuous
 62
     7
370
    25
100
AcDbLine
 10
15.1175068058
 20
20.8803367209
 30
0.0
 11
15.1112158942
 21
20.8893210737
 31
0.0
  0
LINE
  5
18C
330
1F
100
AcDbEntity
  8
0
  6
Continuous
 62
     7
370
    25
100
AcDbLine
 10
15.158660666
 20
20.8989367209
 30
0.0
 11
15.1456368058
 21
20.8803367209
 31
0.0
  0
LINE
  5
18D
330
1F
100
AcDbEntity
  8
0
  6
Continuous
 62
     7
370
    25
100
AcDbLine
 10
15.1456368058
 20
20.7535367209
 30
0.0
 11
15.158660666
 21
20.7349367209
 31
0.0
  0
LINE
  5
18E
330
1F
100
AcDbEntity
  8
0
  6
Continuous
 62
     7
370
    25
100
AcDbLine
 10
15.1607429456
 20
20.7349367209
 30
0.0
 11
15.1610968058
 21
20.7354420857
 31
0.0
  0
LINE
  5
18F
330
1F
100
AcDbEntity
  8
0
  6
Continuous
 62
     7
370
    25
100
AcDbLine
 10
15.1610968058
 20
20.8984313561
 30
0.0
 11
15.1607429456
 21
20.8989367209
 31
0.0
  0
LINE
  5
190
330
1F
100
AcDbEntity
  8
0
  6
Continuous
 62
     7
370
    25
100
AcDbLine
 10
15.1607429456
 20
20.8989367209
 30
0.0
 11
15.158660666
 21
20.8989367209
 31
0.0
  0
LINE
  5
191
330
1F
100
AcDbEntity
  8
0
  6
Continuous
 62
     7
370
    25
100
AcDbLine
 10
15.158660666
 20
20.7349367209
 30
0.0
 11
15.1607429456
 21
20.7349367209
 31
0.0
  0
LINE
  5
192
330
1F
100
AcDbEntity
  8
0
  6
Continuous
 62
     7
370
    25
100
AcDbLine
 10
15.1326129456
 20
20.8989367209
 30
0.0
 11
15.130530666
 21
20.8989367209
 31
0.0
  0
LINE
  5
193
330
1F
100
AcDbEntity
  8
0
  6
Continuous
 62
     7
370
    25
100
AcDbLine
 10
15.130530666
 20
20.7349367209
 30
0.0
 11
15.1326129456
 21
20.7349367209
 31
0.0
  0
LINE
  5
194
330
1F
100
AcDbEntity
  8
0
  6
Continuous
 62
     7
370
    25
100
AcDbLine
 10
15.130530666
 20
20.8989367209
 30
0.0
 11
15.1175068058
 21
20.8803367209
 31
0.0
  0
LINE
  5
195
330
1F
100
AcDbEntity
  8
0
  6
Continuous
 62
     7
370
    25
100
AcDbLine
 10
15.1175068058
 20
20.7535367209
 30
0.0
 11
15.130530666
 21
20.7349367209
 31
0.0
  0
LINE
  5
196
330
1F
100
AcDbEntity
  8
0
  6
Continuous
 62
     7
370
    25
100
AcDbLine
 10
15.1326129456
 20
20.7349367209
 30
0.0
 11
15.1456368058
 21
20.7535367209
 31
0.0
  0
LINE
  5
197
330
1F
100
AcDbEntity
  8
0
  6
Continuous
 62
     7
370
    25
100
AcDbLine
 10
15.1456368058
 20
20.8803367209
 30
0.0
 11
15.1326129456
 21
20.8989367209
 31
0.0
  0
LINE
  5
198
330
1F
100
AcDbEntity
  8
0
  6
Continuous
 62
     7
370
    25
100
AcDbLine
 10
15.018010666
 20
20.8989367209
 30
0.0
 11
15.0111167324
 21
20.8890911634
 31
0.0
  0
LINE
  5
199
330
1F
100
AcDbEntity
  8
0
  6
Continuous
 62
     7
370
    25
100
AcDbLine
 10
15.0164206256
 20
20.7372075339
 30
0.0
 11
15.018010666
 21
20.7349367209
 31
0.0
  0
LINE
  5
19A
330
1F
100
AcDbEntity
  8
0
  6
Continuous
 62
     7
370
    25
100
AcDbLine
 10
12.0576685371
 20
20.6704367209
 30
0.0
 11
12.0976685371
 21
20.6704367209
 31
0.0
  0
LINE
  5
19B
330
1F
100
AcDbEntity
  8
0
  6
Continuous
 62
     7
370
    25
100
AcDbLine
 10
15.1930968058
 20
20.6704367209
 30
0.0
 11
15.2330968058
 21
20.6704367209
 31
0.0
  0
LINE
  5
19C
330
1F
100
AcDbEntity
  8
0
  6
Continuous
 62
     7
370
    25
100
AcDbLine
 10
12.0976685371
 20
20.6294367209
 30
0.0
 11
12.1296685371
 21
20.6294367209
 31
0.0
  0
LINE
  5
19D
330
1F
100
AcDbEntity
  8
0
  6
Continuous
 62
     7
370
    25
100
AcDbLine
 10
15.1610968058
 20
20.6294367209
 30
0.0
 11
15.1930968058
 21
20.6294367209
 31
0.0
  0
LINE
  5
19E
330
1F
100
AcDbEntity
  8
0
  6
Continuous
 62
     7
370
    25
100
AcDbLine
 10
12.2596685371
 20
20.9885647977
 30
0.0
 11
12.2596685371
 21
20.3169367209
 31
0.0
  0
LINE
  5
19F
330
1F
100
AcDbEntity
  8
0
  6
Continuous
 62
     7
370
    25
100
AcDbLine
 10
12.2596685371
 20
20.3169367209
 30
0.0
 11
12.1796685371
 21
20.3169367209
 31
0.0
  0
LINE
  5
1A0
330
1F
100
AcDbEntity
  8
0
  6
Continuous
 62
     7
370
    25
100
AcDbLine
 10
12.1796685371
 20
20.3169367209
 30
0.0
 11
12.1796685371
 21
20.8854646665
 31
0.0
  0
ARC
  5
1A1
330
1F
100
AcDbEntity
  8
0
  6
Continuous
 62
     7
370
    25
100
AcDbCircle
 10
12.1171685371
 20
20.8854646665
 30
0.0
 40
0.0625000000000018
100
AcDbArc
 50
0.0
 51
80.1989743831
  0
ARC
  5
1A2
330
1F
100
AcDbEntity
  8
0
  6
Continuous
 62
     7
370
    25
100
AcDbCircle
 10
13.6453826714
 20
29.7319367209
 30
0.0
 40
8.852500000000004
100
AcDbArc
 50
189.5913332042
 51
260.9942462519
  0
ARC
  5
1A3
330
1F
100
AcDbEntity
  8
0
  6
Continuous
 62
     7
370
    25
100
AcDbCircle
 10
13.6453826714
 20
29.7319367209
 30
0.0
 40
8.915000000000003
100
AcDbArc
 50
189.5234632198
 51
260.1989743831
  0
ARC
  5
1A4
330
1F
100
AcDbEntity
  8
0
  6
Continuous
 62
     7
370
    25
100
AcDbCircle
 10
15.1735968058
 20
20.8854646665
 30
0.0
 40
0.0625000000000036
100
AcDbArc
 50
99.8010256169
 51
180.0
  0
LINE
  5
1A5
330
1F
100
AcDbEntity
  8
0
  6
Continuous
 62
     7
370
    25
100
AcDbLine
 10
15.1110968058
 20
20.8854646665
 30
0.0
 11
15.1110968058
 21
20.3169367209
 31
0.0
  0
LINE
  5
1A6
330
1F
100
AcDbEntity
  8
0
  6
Continuous
 62
     7
370
    25
100
AcDbLine
 10
15.1110968058
 20
20.3169367209
 30
0.0
 11
15.0310968058
 21
20.3169367209
 31
0.0
  0
LINE
  5
1A7
330
1F
100
AcDbEntity
  8
0
  6
Continuous
 62
     7
370
    25
100
AcDbLine
 10
15.0310968058
 20
20.3169367209
 30
0.0
 11
15.0310968058
 21
20.9885647977
 31
0.0
  0
ARC
  5
1A8
330
1F
100
AcDbEntity
  8
0
  6
Continuous
 62
     7
370
    25
100
AcDbCircle
 10
13.6453826714
 20
29.7319367209
 30
0.0
 40
8.852500000000004
100
AcDbArc
 50
279.0057537481
 51
170.4086667958
  0
LINE
  5
1A9
330
1F
100
AcDbEntity
  8
0
  6
Continuous
 62
     7
370
    25
100
AcDbLine
 10
4.9166295388
 20
31.2069367209
 30
0.0
 11
4.8532498244
 21
31.2069367209
 31
0.0
  0
ARC
  5
1AA
330
1F
100
AcDbEntity
  8
0
  6
Continuous
 62
     7
370
    25
100
AcDbCircle
 10
13.6453826714
 20
29.7319367209
 30
0.0
 40
8.915000000000001
100
AcDbArc
 50
279.8010256169
 51
170.4765367802
  0
SPLINE
  5
1AB
330
1F
100
AcDbEntity
  8
0
  6
Continuous
 62
     7
370
    25
100
AcDbSpline
210
0.0
220
0.0
230
1.0
 70
    24
 71
     3
 72
    21
 73
    17
 74
     0
 42
0.00000001
 43
0.00000001
 40
0.0
 40
0.0
 40
0.0
 40
0.0
 40
0.1526624103388148
 40
0.2292255034351719
 40
0.3061108545366938
 40
0.3651883143874542
 40
0.425367777834581
 40
0.4621474138247387
 40
0.5000092195503012
 40
0.5386484158578061
 40
0.5797722708533777
 40
0.6219344581160465
 40
0.694341776440137
 40
0.7679231093905251
 40
0.9183653333941056
 40
1.0
 40
1.0
 40
1.0
 40
1.0
 10
4.667882671445756
 20
30.25693672089918
 30
0.0
 10
4.667882671445759
 20
30.19705432344173
 30
0.0
 10
4.66788267144576
 20
30.10713976835495
 30
0.0
 10
4.667882671445755
 20
29.97993886037574
 30
0.0
 10
4.667882671445755
 20
29.88588437568999
 30
0.0
 10
4.667882671445755
 20
29.79191086486303
 30
0.0
 10
4.667882671445759
 20
29.71031584042738
 30
0.0
 10
4.667882671445756
 20
29.63485328217677
 30
0.0
 10
4.667882671445756
 20
29.56898423337359
 30
0.0
 10
4.667882671445757
 20
29.50059204774347
 30
0.0
 10
4.667882671445757
 20
29.43255013260453
 30
0.0
 10
4.667882671445755
 20
29.35075449233559
 30
0.0
 10
4.667882671445754
 20
29.25984764140821
 30
0.0
 10
4.667882671445754
 20
29.12855714763802
 30
0.0
 10
4.667882671445757
 20
29.00505070851017
 30
0.0
 10
4.667882671445755
 20
28.91397369595472
 30
0.0
 10
4.667882671445756
 20
28.88193672089918
 30
0.0
  0
SPLINE
  5
1AC
330
1F
100
AcDbEntity
  8
0
  6
Continuous
 62
     7
370
    25
100
AcDbSpline
210
0.0
220
0.0
230
1.0
 70
     8
 71
     3
 72
    13
 73
     9
 74
     0
 42
0.00000001
 43
0.00000001
 40
0.0
 40
0.0
 40
0.0
 40
0.0
 40
0.1922889284723053
 40
0.3843300401582796
 40
0.5831191549537517
 40
0.7979401069482204
 40
0.9960078014241908
 40
1.0
 40
1.0
 40
1.0
 40
1.0
 10
4.667882671445756
 20
28.88193672089918
 30
0.0
 10
4.662609904156313
 20
28.88172149250422
 30
0.0
 10
4.652071164977738
 20
28.88129131309486
 30
0.0
 10
4.63794159101931
 20
28.87797474240849
 30
0.0
 10
4.626602351999313
 20
28.87302050365034
 30
0.0
 10
4.619519779034523
 20
28.86680554306155
 30
0.0
 10
4.617892845108448
 20
28.86220768454985
 30
0.0
 10
4.617882868557472
 20
28.85998780888798
 30
0.0
 10
4.617882671445755
 20
28.85994394969196
 30
0.0
  0
SPLINE
  5
1AD
330
1F
100
AcDbEntity
  8
0
  6
Continuous
 62
     7
370
    25
100
AcDbSpline
210
0.0
220
0.0
230
1.0
 70
    24
 71
     3
 72
    20
 73
    16
 74
     0
 42
0.00000001
 43
0.00000001
 40
0.0
 40
0.0
 40
0.0
 40
0.0
 40
0.0677810137449287
 40
0.1677352191651994
 40
0.2676548275820834
 40
0.3667540497844538
 40
0.4117555853292668
 40
0.4566686519872358
 40
0.5000554007146862
 40
0.5414464970345508
 40
0.5829111040712273
 40
0.6453066940580189
 40
0.7078870366393948
 40
0.8537202385865111
 40
1.0
 40
1.0
 40
1.0
 40
1.0
 10
4.617882671445755
 20
28.85994394969196
 30
0.0
 10
4.617882671445754
 20
28.88720162643383
 30
0.0
 10
4.617882671445757
 20
28.95465521158433
 30
0.0
 10
4.617882671445754
 20
29.06369120741365
 30
0.0
 10
4.617882671445759
 20
29.1940652327834
 30
0.0
 10
4.617882671445754
 20
29.31359548369351
 30
0.0
 10
4.617882671445754
 20
29.41506553756064
 30
0.0
 10
4.617882671445759
 20
29.49115420665713
 30
0.0
 10
4.617882671445752
 20
29.56825554479069
 30
0.0
 10
4.617882671445759
 20
29.64327697520333
 30
0.0
 10
4.617882671445751
 20
29.72652458143093
 30
0.0
 10
4.617882671445759
 20
29.8157096725097
 30
0.0
 10
4.617882671445751
 20
29.94833335063822
 30
0.0
 10
4.617882671445759
 20
30.10360136489977
 30
0.0
 10
4.617882671445757
 20
30.22042725160942
 30
0.0
 10
4.617882671445755
 20
30.2789294921064
 30
0.0
  0
SPLINE
  5
1AE
330
1F
100
AcDbEntity
  8
0
  6
Continuous
 62
     7
370
    25
100
AcDbSpline
210
0.0
220
0.0
230
1.0
 70
     8
 71
     3
 72
    13
 73
     9
 74
     0
 42
0.00000001
 43
0.00000001
 40
0.0
 40
0.0
 40
0.0
 40
0.0
 40
0.1922889284723054
 40
0.3843300401582736
 40
0.5831191549537534
 40
0.7979401069482233
 40
0.9960078014241885
 40
1.0
 40
1.0
 40
1.0
 40
1.0
 10
4.667882671445756
 20
30.25693672089918
 30
0.0
 10
4.66260990415631
 20
30.25715194929414
 30
0.0
 10
4.652071164977736
 20
30.2575821287035
 30
0.0
 10
4.637941591019311
 20
30.26089869938988
 30
0.0
 10
4.626602351999314
 20
30.26585293814797
 30
0.0
 10
4.619519779034522
 20
30.27206789873703
 30
0.0
 10
4.617892845108447
 20
30.27666575724808
 30
0.0
 10
4.617882868557472
 20
30.27888563291037
 30
0.0
 10
4.617882671445755
 20
30.2789294921064
 30
0.0
  0
SPLINE
  5
1AF
330
1F
100
AcDbEntity
  8
0
  6
Continuous
 62
     7
370
    25
100
AcDbSpline
210
0.0
220
0.0
230
1.0
 70
    24
 71
     3
 72
    21
 73
    17
 74
     0
 42
0.00000001
 43
0.00000001
 40
0.0
 40
0.0
 40
0.0
 40
0.0
 40
0.1526601464615984
 40
0.2292221041806104
 40
0.3061063151259257
 40
0.3651828988991038
 40
0.4253614699267025
 40
0.4621405605004754
 40
0.5000018047618298
 40
0.5383087177359704
 40
0.5780128597078008
 40
0.6371564210834172
 40
0.6977279164519896
 40
0.7793924402545703
 40
0.8615641824047395
 40
1.0
 40
1.0
 40
1.0
 40
1.0
 10
5.192882671445764
 20
28.88193672089918
 30
0.0
 10
5.192882671445762
 20
28.94181911805311
 30
0.0
 10
5.192882671445762
 20
29.03173367268414
 30
0.0
 10
5.192882671445765
 20
29.15893458279626
 30
0.0
 10
5.192882671445767
 20
29.25298906133331
 30
0.0
 10
5.192882671445762
 20
29.34696259035172
 30
0.0
 10
5.192882671445767
 20
29.42855755827182
 30
0.0
 10
5.19288267144576
 20
29.50402025384994
 30
0.0
 10
5.192882671445764
 20
29.56969595555552
 30
0.0
 10
5.19288267144576
 20
29.63707193582042
 30
0.0
 10
5.192882671445767
 20
29.71369044610007
 30
0.0
 10
5.19288267144576
 20
29.79666911631649
 30
0.0
 10
5.192882671445767
 20
29.89276243613162
 30
0.0
 10
5.19288267144576
 20
29.99142389534844
 30
0.0
 10
5.192882671445764
 20
30.1160798598413
 30
0.0
 10
5.192882671445762
 20
30.20262675181167
 30
0.0
 10
5.192882671445762
 20
30.25693672089919
 30
0.0
  0
LINE
  5
1B0
330
1F
100
AcDbEntity
  8
0
  6
Continuous
 62
     7
370
    25
100
AcDbLine
 10
4.6678826714
 20
28.8819367209
 30
0.0
 11
5.1928826714
 21
28.8819367209
 31
0.0
  0
LINE
  5
1B1
330
1F
100
AcDbEntity
  8
0
  6
Continuous
 62
     7
370
    25
100
AcDbLine
 10
4.6678826714
 20
30.2569367209
 30
0.0
 11
5.1928826714
 21
30.2569367209
 31
0.0
  0
SPLINE
  5
1B2
330
1F
100
AcDbEntity
  8
0
  6
Continuous
 62
     7
370
    25
100
AcDbSpline
210
0.0
220
0.0
230
1.0
 70
     8
 71
     3
 72
    13
 73
     9
 74
     0
 42
0.00000001
 43
0.00000001
 40
0.0
 40
0.0
 40
0.0
 40
0.0
 40
0.1922889284723053
 40
0.3843300401582734
 40
0.583119154953752
 40
0.7979401069482218
 40
0.9960078014241781
 40
1.0
 40
1.0
 40
1.0
 40
1.0
 10
5.192882671445764
 20
30.25693672089918
 30
0.0
 10
5.198155438735206
 20
30.25715194929414
 30
0.0
 10
5.208694177913784
 20
30.2575821287035
 30
0.0
 10
5.222823751872206
 20
30.26089869938987
 30
0.0
 10
5.23416299089221
 20
30.265852938148
 30
0.0
 10
5.241245563856975
 20
30.2720678987369
 30
0.0
 10
5.242872497783115
 20
30.27666575724833
 30
0.0
 10
5.242882474334047
 20
30.27888563291038
 30
0.0
 10
5.242882671445765
 20
30.2789294921064
 30
0.0
  0
SPLINE
  5
1B3
330
1F
100
AcDbEntity
  8
0
  6
Continuous
 62
     7
370
    25
100
AcDbSpline
210
0.0
220
0.0
230
1.0
 70
    24
 71
     3
 72
    20
 73
    16
 74
     0
 42
0.00000001
 43
0.00000001
 40
0.0
 40
0.0
 40
0.0
 40
0.0
 40
0.1239029896577534
 40
0.2061282877615548
 40
0.2882714449488378
 40
0.3509842751128583
 40
0.4135190765922711
 40
0.4568148359676295
 40
0.500023265242592
 40
0.5414170221020898
 40
0.582884294403526
 40
0.6452838950581871
 40
0.7078682601829721
 40
0.8537108360063099
 40
1.0
 40
1.0
 40
1.0
 40
1.0
 10
5.242882671445765
 20
30.2789294921064
 30
0.0
 10
5.242882671445762
 20
30.22913191384615
 30
0.0
 10
5.242882671445763
 20
30.14628734673919
 30
0.0
 10
5.242882671445767
 20
30.02489672635453
 30
0.0
 10
5.242882671445765
 20
29.92261882736821
 30
0.0
 10
5.242882671445763
 20
29.82149194970436
 30
0.0
 10
5.242882671445767
 20
29.73169065373084
 30
0.0
 10
5.242882671445765
 20
29.64652560234078
 30
0.0
 10
5.242882671445763
 20
29.57051413834018
 30
0.0
 10
5.242882671445763
 20
29.495595462695
 30
0.0
 10
5.242882671445763
 20
29.41234928356956
 30
0.0
 10
5.242882671445765
 20
29.32316364041825
 30
0.0
 10
5.242882671445762
 20
29.19054017900789
 30
0.0
 10
5.242882671445765
 20
29.03527204798202
 30
0.0
 10
5.242882671445765
 20
28.91844618054027
 30
0.0
 10
5.242882671445765
 20
28.85994394969196
 30
0.0
  0
SPLINE
  5
1B4
330
1F
100
AcDbEntity
  8
0
  6
Continuous
 62
     7
370
    25
100
AcDbSpline
210
0.0
220
0.0
230
1.0
 70
     8
 71
     3
 72
    13
 73
     9
 74
     0
 42
0.00000001
 43
0.00000001
 40
0.0
 40
0.0
 40
0.0
 40
0.0
 40
0.1922889284723052
 40
0.3843300401582794
 40
0.5831191549537502
 40
0.7979401069482173
 40
0.9960078014241843
 40
1.0
 40
1.0
 40
1.0
 40
1.0
 10
5.192882671445762
 20
28.88193672089918
 30
0.0
 10
5.19815543873521
 20
28.88172149250422
 30
0.0
 10
5.208694177913784
 20
28.88129131309486
 30
0.0
 10
5.222823751872204
 20
28.87797474240848
 30
0.0
 10
5.234162990892208
 20
28.87302050365036
 30
0.0
 10
5.241245563856972
 20
28.86680554306147
 30
0.0
 10
5.242872497783126
 20
28.86220768455001
 30
0.0
 10
5.242882474334047
 20
28.85998780888798
 30
0.0
 10
5.242882671445765
 20
28.85994394969196
 30
0.0
  0
SPLINE
  5
1B5
330
1F
100
AcDbEntity
  8
0
  6
Continuous
 62
     7
370
    25
100
AcDbSpline
210
0.0
220
0.0
230
1.0
 70
     8
 71
     3
 72
    10
 73
     6
 74
     0
 42
0.00000001
 43
0.00000001
 40
0.0
 40
0.0
 40
0.0
 40
0.0
 40
0.5054468997193028
 40
0.8769707977916192
 40
0.9999999999999999
 40
0.9999999999999999
 40
0.9999999999999999
 40
0.9999999999999999
 10
5.242882671445765
 20
31.08390059229349
 30
0.0
 10
5.242231049516048
 20
31.09410152943273
 30
0.0
 10
5.241100459133795
 20
31.11180056762286
 30
0.0
 10
5.232344637608148
 20
31.13060081564551
 30
0.0
 10
5.225768585625054
 20
31.13810225672976
 30
0.0
 10
5.224132671445763
 20
31.13996837851018
 30
0.0
  0
LINE
  5
1B6
330
1F
100
AcDbEntity
  8
0
  6
Continuous
 62
     7
370
    25
100
AcDbLine
 10
5.1928826714
 20
31.0069367209
 30
0.0
 11
5.2428826714
 21
31.0069367209
 31
0.0
  0
LINE
  5
1B7
330
1F
100
AcDbEntity
  8
0
  6
Continuous
 62
     7
370
    25
100
AcDbLine
 10
5.1928826714
 20
31.0069367209
 30
0.0
 11
5.1928826714
 21
31.2069367209
 31
0.0
  0
ARC
  5
1B8
330
1F
100
AcDbEntity
  8
0
  6
Continuous
 62
     7
370
    25
100
AcDbCircle
 10
5.1928826714
 20
31.1569367209
 30
0.0
 40
0.0499999999999939
100
AcDbArc
 50
82.8192442185
 51
90.0
  0
LINE
  5
1B9
330
1F
100
AcDbEntity
  8
0
  6
Continuous
 62
     7
370
    25
100
AcDbLine
 10
5.1991326714
 20
31.1704824044
 30
0.0
 11
5.1991326714
 21
31.206544558
 31
0.0
  0
SPLINE
  5
1BA
330
1F
100
AcDbEntity
  8
0
  6
Continuous
 62
     7
370
    25
100
AcDbSpline
210
0.0
220
0.0
230
1.0
 70
     8
 71
     3
 72
    13
 73
     9
 74
     0
 42
0.00000001
 43
0.00000001
 40
0.0
 40
0.0
 40
0.0
 40
0.0
 40
0.0654698464322346
 40
0.2804496420115829
 40
0.3375453747145341
 40
0.6418899413913994
 40
0.6592589443605027
 40
1.0
 40
1.0
 40
1.0
 40
1.0
 10
5.199132671445764
 20
31.17048240443831
 30
0.0
 10
5.199169323982249
 20
31.16988748396706
 30
0.0
 10
5.199326330471436
 20
31.1673390553044
 30
0.0
 10
5.20096118496266
 20
31.16401899121375
 30
0.0
 10
5.20507443039449
 20
31.15836834417247
 30
0.0
 10
5.208971810717117
 20
31.15451258301443
 30
0.0
 10
5.21621233197587
 20
31.14769084088875
 30
0.0
 10
5.220270926394532
 20
31.14373364400002
 30
0.0
 10
5.224132671445763
 20
31.13996837851018
 30
0.0
  0
LINE
  5
1BB
330
1F
100
AcDbEntity
  8
0
  6
Continuous
 62
     7
370
    25
100
AcDbLine
 10
5.2428826714
 20
31.0839005923
 30
0.0
 11
5.2428826714
 21
31.0069367209
 31
0.0
  0
LINE
  5
1BC
330
1F
100
AcDbEntity
  8
0
  6
Continuous
 62
     7
370
    25
100
AcDbLine
 10
4.6678826714
 20
31.2069367209
 30
0.0
 11
4.6678826714
 21
31.0069367209
 31
0.0
  0
LINE
  5
1BD
330
1F
100
AcDbEntity
  8
0
  6
Continuous
 62
     7
370
    25
100
AcDbLine
 10
4.6678826714
 20
31.0069367209
 30
0.0
 11
4.6178826714
 21
31.0069367209
 31
0.0
  0
ARC
  5
1BE
330
1F
100
AcDbEntity
  8
0
  6
Continuous
 62
     7
370
    25
100
AcDbCircle
 10
4.6678826714
 20
31.1569367209
 30
0.0
 40
0.0500000000000016
100
AcDbArc
 50
90.0
 51
180.0
  0
LINE
  5
1BF
330
1F
100
AcDbEntity
  8
0
  6
Continuous
 62
     7
370
    25
100
AcDbLine
 10
4.6178826714
 20
31.0069367209
 30
0.0
 11
4.6178826714
 21
31.1569367209
 31
0.0
  0
LINE
  5
1C0
330
1F
100
AcDbEntity
  8
0
  6
Continuous
 62
     7
370
    25
100
AcDbLine
 10
4.6678826714
 20
31.0069367209
 30
0.0
 11
5.1928826714
 21
31.0069367209
 31
0.0
  0
LINE
  5
1C1
330
1F
100
AcDbEntity
  8
0
  6
Continuous
 62
     7
370
    25
100
AcDbLine
 10
4.6678826714
 20
31.2069367209
 30
0.0
 11
4.8532498244
 21
31.2069367209
 31
0.0
  0
LINE
  5
1C2
330
1F
100
AcDbEntity
  8
0
  6
Continuous
 62
     7
370
    25
100
AcDbLine
 10
4.9166295388
 20
31.2069367209
 30
0.0
 11
5.1928826714
 21
31.2069367209
 31
0.0
  0
LINE
  5
1C3
330
1F
100
AcDbEntity
  8
0
  6
Continuous
 62
     7
370
    25
100
AcDbLine
 10
5.1928826714
 20
30.2569367209
 30
0.0
 11
5.1928826714
 21
31.0069367209
 31
0.0
  0
LINE
  5
1C4
330
1F
100
AcDbEntity
  8
0
  6
Continuous
 62
     7
370
    25
100
AcDbLine
 10
5.2428826714
 20
31.0069367209
 30
0.0
 11
5.2428826714
 21
30.2789294921
 31
0.0
  0
LINE
  5
1C5
330
1F
100
AcDbEntity
  8
0
  6
Continuous
 62
     7
370
    25
100
AcDbLine
 10
4.6678826714
 20
31.0069367209
 30
0.0
 11
4.6678826714
 21
30.2569367209
 31
0.0
  0
LINE
  5
1C6
330
1F
100
AcDbEntity
  8
0
  6
Continuous
 62
     7
370
    25
100
AcDbLine
 10
4.6178826714
 20
30.2789294921
 30
0.0
 11
4.6178826714
 21
31.0069367209
 31
0.0
  0
LINE
  5
1C7
330
1F
100
AcDbEntity
  8
0
  6
Continuous
 62
     7
370
    25
100
AcDbLine
 10
4.6678826714
 20
28.8819367209
 30
0.0
 11
4.6678826714
 21
28.3569367209
 31
0.0
  0
LINE
  5
1C8
330
1F
100
AcDbEntity
  8
0
  6
Continuous
 62
     7
370
    25
100
AcDbLine
 10
4.6178826714
 20
28.3569367209
 30
0.0
 11
4.6678826714
 21
28.3569367209
 31
0.0
  0
LINE
  5
1C9
330
1F
100
AcDbEntity
  8
0
  6
Continuous
 62
     7
370
    25
100
AcDbLine
 10
4.6178826714
 20
28.3569367209
 30
0.0
 11
4.6178826714
 21
28.8599439497
 31
0.0
  0
LINE
  5
1CA
330
1F
100
AcDbEntity
  8
0
  6
Continuous
 62
     7
370
    25
100
AcDbLine
 10
5.1928826714
 20
28.3569367209
 30
0.0
 11
5.1928826714
 21
28.8819367209
 31
0.0
  0
LINE
  5
1CB
330
1F
100
AcDbEntity
  8
0
  6
Continuous
 62
     7
370
    25
100
AcDbLine
 10
5.1928826714
 20
28.3569367209
 30
0.0
 11
5.2428826714
 21
28.3569367209
 31
0.0
  0
LINE
  5
1CC
330
1F
100
AcDbEntity
  8
0
  6
Continuous
 62
     7
370
    25
100
AcDbLine
 10
5.2428826714
 20
28.8599439497
 30
0.0
 11
5.2428826714
 21
28.3569367209
 31
0.0
  0
LINE
  5
1CD
330
1F
100
AcDbEntity
  8
0
  6
Continuous
 62
     7
370
    25
100
AcDbLine
 10
4.6678826714
 20
28.3569367209
 30
0.0
 11
5.1928826714
 21
28.3569367209
 31
0.0
  0
LINE
  5
1CE
330
1F
100
AcDbEntity
  8
0
  6
Continuous
 62
     7
370
    25
100
AcDbLine
 10
4.6678826714
 20
28.3569367209
 30
0.0
 11
4.6678826714
 21
28.2569367209
 31
0.0
  0
ARC
  5
1CF
330
1F
100
AcDbEntity
  8
0
  6
Continuous
 62
     7
370
    25
100
AcDbCircle
 10
4.6678826714
 20
28.3069367209
 30
0.0
 40
0.0500000000000016
100
AcDbArc
 50
180.0
 51
270.0
  0
LINE
  5
1D0
330
1F
100
AcDbEntity
  8
0
  6
Continuous
 62
     7
370
    25
100
AcDbLine
 10
4.6178826714
 20
28.3069367209
 30
0.0
 11
4.6178826714
 21
28.3569367209
 31
0.0
  0
LINE
  5
1D1
330
1F
100
AcDbEntity
  8
0
  6
Continuous
 62
     7
370
    25
100
AcDbLine
 10
5.1928826714
 20
28.2569367209
 30
0.0
 11
5.1928826714
 21
28.3569367209
 31
0.0
  0
LINE
  5
1D2
330
1F
100
AcDbEntity
  8
0
  6
Continuous
 62
     7
370
    25
100
AcDbLine
 10
4.6678826714
 20
28.2569367209
 30
0.0
 11
5.1928826714
 21
28.2569367209
 31
0.0
  0
ARC
  5
1D3
330
1F
100
AcDbEntity
  8
0
  6
Continuous
 62
     7
370
    25
100
AcDbCircle
 10
5.1928826714
 20
28.3069367209
 30
0.0
 40
0.0500000000000007
100
AcDbArc
 50
270.0
 51
0.0
  0
LINE
  5
1D4
330
1F
100
AcDbEntity
  8
0
  6
Continuous
 62
     7
370
    25
100
AcDbLine
 10
5.2428826714
 20
28.3569367209
 30
0.0
 11
5.2428826714
 21
28.3069367209
 31
0.0
  0
LINE
  5
1D5
330
1F
100
AcDbEntity
  8
0
  6
Continuous
 62
     7
370
    25
100
AcDbLine
 10
5.2241326714
 20
31.1399683785
 30
0.0
 11
5.2253873751
 21
31.14107125
 31
0.0
  0
ARC
  5
1D6
330
1F
100
AcDbEntity
  8
0
  6
Continuous
 62
     7
370
    25
100
AcDbCircle
 10
5.1989545522
 20
31.161516967
 30
0.0
 40
0.0089672066764104
100
AcDbArc
 50
5.3516202517
 51
88.8618357273
  0
ARC
  5
1D7
330
1F
100
AcDbEntity
  8
0
  6
Continuous
 62
     7
370
    25
100
AcDbCircle
 10
5.1978826714
 20
31.1966229906
 30
0.0
 40
0.0100000000000007
100
AcDbArc
 50
0.0
 51
82.8192442185
  0
LINE
  5
1D8
330
1F
100
AcDbEntity
  8
0
  6
Continuous
 62
     7
370
    25
100
AcDbLine
 10
5.2078826714
 20
31.1966229906
 30
0.0
 11
5.2078826714
 21
31.1623533172
 31
0.0
  0
LINE
  5
1D9
330
1F
100
AcDbEntity
  8
0
  6
Continuous
 62
     7
370
    25
100
AcDbLine
 10
12.1796685371
 20
21.0294367209
 30
0.0
 11
12.1796685371
 21
21.0016195258
 31
0.0
  0
LINE
  5
1DA
330
1F
100
AcDbEntity
  8
0
  6
Continuous
 62
     7
370
    25
100
AcDbLine
 10
12.2146685371
 20
20.9958155384
 30
0.0
 11
12.2146685371
 21
21.0469367209
 31
0.0
  0
LINE
  5
1DB
330
1F
100
AcDbEntity
  8
0
  6
Continuous
 62
     7
370
    25
100
AcDbLine
 10
12.2296685371
 20
21.0369367209
 30
0.0
 11
12.2296685371
 21
20.9933722084
 31
0.0
  0
LINE
  5
1DC
330
1F
100
AcDbEntity
  8
0
  6
Continuous
 62
     7
370
    25
100
AcDbLine
 10
11.8936685371
 20
20.6979367209
 30
0.0
 11
11.8936685371
 21
20.9359367209
 31
0.0
  0
LINE
  5
1DD
330
1F
100
AcDbEntity
  8
0
  6
Continuous
 62
     7
370
    25
100
AcDbLine
 10
11.9096685371
 20
20.6819367209
 30
0.0
 11
11.9096685371
 21
20.9519367209
 31
0.0
  0
LINE
  5
1DE
330
1F
100
AcDbEntity
  8
0
  6
Continuous
 62
     7
370
    25
100
AcDbLine
 10
12.2706723973
 20
20.7349367209
 30
0.0
 11
12.2706723973
 21
20.8989367209
 31
0.0
  0
LINE
  5
1DF
330
1F
100
AcDbEntity
  8
0
  6
Continuous
 62
     7
370
    25
100
AcDbLine
 10
12.2727546769
 20
20.7349367209
 30
0.0
 11
12.2727546769
 21
20.8989367209
 31
0.0
  0
LINE
  5
1E0
330
1F
100
AcDbEntity
  8
0
  6
Continuous
 62
     7
370
    25
100
AcDbLine
 10
15.3810968058
 20
20.9519367209
 30
0.0
 11
15.3810968058
 21
20.6819367209
 31
0.0
  0
LINE
  5
1E1
330
1F
100
AcDbEntity
  8
0
  6
Continuous
 62
     7
370
    25
100
AcDbLine
 10
15.3970968058
 20
20.9359367209
 30
0.0
 11
15.3970968058
 21
20.6979367209
 31
0.0
  0
LINE
  5
1E2
330
1F
100
AcDbEntity
  8
0
  6
Continuous
 62
     7
370
    25
100
AcDbLine
 10
15.0200929456
 20
20.8989367209
 30
0.0
 11
15.0200929456
 21
20.7349367209
 31
0.0
  0
LINE
  5
1E3
330
1F
100
AcDbEntity
  8
0
  6
Continuous
 62
     7
370
    25
100
AcDbLine
 10
15.018010666
 20
20.8989367209
 30
0.0
 11
15.018010666
 21
20.7349367209
 31
0.0
  0
LINE
  5
1E4
330
1F
100
AcDbEntity
  8
0
  6
Continuous
 62
     7
370
    25
100
AcDbLine
 10
15.1175068058
 20
20.8803367209
 30
0.0
 11
15.1175068058
 21
20.7535367209
 31
0.0
  0
LINE
  5
1E5
330
1F
100
AcDbEntity
  8
0
  6
Continuous
 62
     7
370
    25
100
AcDbLine
 10
15.1456368058
 20
20.8803367209
 30
0.0
 11
15.1456368058
 21
20.7535367209
 31
0.0
  0
LINE
  5
1E6
330
1F
100
AcDbEntity
  8
0
  6
Continuous
 62
     7
370
    25
100
AcDbLine
 10
15.158660666
 20
20.8989367209
 30
0.0
 11
15.158660666
 21
20.7349367209
 31
0.0
  0
LINE
  5
1E7
330
1F
100
AcDbEntity
  8
0
  6
Continuous
 62
     7
370
    25
100
AcDbLine
 10
15.1607429456
 20
20.8989367209
 30
0.0
 11
15.1607429456
 21
20.7349367209
 31
0.0
  0
LINE
  5
1E8
330
1F
100
AcDbEntity
  8
0
  6
Continuous
 62
     7
370
    25
100
AcDbLine
 10
15.1326129456
 20
20.8989367209
 30
0.0
 11
15.1326129456
 21
20.7349367209
 31
0.0
  0
LINE
  5
1E9
330
1F
100
AcDbEntity
  8
0
  6
Continuous
 62
     7
370
    25
100
AcDbLine
 10
15.130530666
 20
20.8989367209
 30
0.0
 11
15.130530666
 21
20.7349367209
 31
0.0
  0
LINE
  5
1EA
330
1F
100
AcDbEntity
  8
0
  6
Continuous
 62
     7
370
    25
100
AcDbLine
 10
12.0576685371
 20
20.6704367209
 30
0.0
 11
12.0576685371
 21
20.9594576626
 31
0.0
  0
LINE
  5
1EB
330
1F
100
AcDbEntity
  8
0
  6
Continuous
 62
     7
370
    25
100
AcDbLine
 10
15.2330968058
 20
20.9594576626
 30
0.0
 11
15.2330968058
 21
20.6704367209
 31
0.0
  0
LINE
  5
1EC
330
1F
100
AcDbEntity
  8
0
  6
Continuous
 62
     7
370
    25
100
AcDbLine
 10
12.1296685371
 20
20.6294367209
 30
0.0
 11
12.1296685371
 21
20.94670191
 31
0.0
  0
LINE
  5
1ED
330
1F
100
AcDbEntity
  8
0
  6
Continuous
 62
     7
370
    25
100
AcDbLine
 10
12.0976685371
 20
20.6294367209
 30
0.0
 11
12.0976685371
 21
20.9523122438
 31
0.0
  0
LINE
  5
1EE
330
1F
100
AcDbEntity
  8
0
  6
Continuous
 62
     7
370
    25
100
AcDbLine
 10
15.1930968058
 20
20.6294367209
 30
0.0
 11
15.1930968058
 21
20.9523122438
 31
0.0
  0
LINE
  5
1EF
330
1F
100
AcDbEntity
  8
0
  6
Continuous
 62
     7
370
    25
100
AcDbLine
 10
15.1610968058
 20
20.6294367209
 30
0.0
 11
15.1610968058
 21
20.94670191
 31
0.0
  0
LINE
  5
1F0
330
1F
100
AcDbEntity
  8
0
  6
Continuous
 62
     7
370
    25
100
AcDbLine
 10
12.6842518554
 20
21.431086745
 30
0.0
 11
12.8722269313
 21
21.1258833225
 31
0.0
  0
LINE
  5
1F1
330
1F
100
AcDbEntity
  8
0
  6
Continuous
 62
     7
370
    25
100
AcDbLine
 10
12.8722269313
 20
21.1258833225
 30
0.0
 11
12.5670235088
 21
20.9379082467
 31
0.0
  0
ARC
  5
1F2
330
1F
100
AcDbEntity
  8
0
  6
Continuous
 62
     7
370
    25
100
AcDbCircle
 10
12.9203826714
 20
21.1144367209
 30
0.0
 40
0.3950000000000007
100
AcDbArc
 50
126.7124629142
 51
206.5454466944
  0
LINE
  5
1F3
330
1F
100
AcDbEntity
  8
0
  6
Continuous
 62
     7
370
    25
100
AcDbLine
 10
13.2370326955
 20
21.3505675369
 30
0.0
 11
12.9318292731
 21
21.1625924611
 31
0.0
  0
LINE
  5
1F4
330
1F
100
AcDbEntity
  8
0
  6
Continuous
 62
     7
370
    25
100
AcDbLine
 10
12.9318292731
 20
21.1625924611
 30
0.0
 11
12.7438541972
 21
21.4677958835
 31
0.0
  0
ARC
  5
1F5
330
1F
100
AcDbEntity
  8
0
  6
Continuous
 62
     7
370
    25
100
AcDbCircle
 10
12.9203826714
 20
21.1144367209
 30
0.0
 40
0.3949999999999999
100
AcDbArc
 50
36.7124629142
 51
116.5454466944
  0
LINE
  5
1F6
330
1F
100
AcDbEntity
  8
0
  6
Continuous
 62
     7
370
    25
100
AcDbLine
 10
12.6037326474
 20
20.8783059049
 30
0.0
 11
12.9089360698
 21
21.0662809807
 31
0.0
  0
LINE
  5
1F7
330
1F
100
AcDbEntity
  8
0
  6
Continuous
 62
     7
370
    25
100
AcDbLine
 10
12.9089360698
 20
21.0662809807
 30
0.0
 11
13.0969111457
 21
20.7610775583
 31
0.0
  0
ARC
  5
1F8
330
1F
100
AcDbEntity
  8
0
  6
Continuous
 62
     7
370
    25
100
AcDbCircle
 10
12.9203826714
 20
21.1144367209
 30
0.0
 40
0.3950000000000015
100
AcDbArc
 50
216.7124629142
 51
296.5454466944
  0
LINE
  5
1F9
330
1F
100
AcDbEntity
  8
0
  6
Continuous
 62
     7
370
    25
100
AcDbLine
 10
13.1565134874
 20
20.7977866968
 30
0.0
 11
12.9685384116
 21
21.1029901193
 31
0.0
  0
LINE
  5
1FA
330
1F
100
AcDbEntity
  8
0
  6
Continuous
 62
     7
370
    25
100
AcDbLine
 10
12.9685384116
 20
21.1029901193
 30
0.0
 11
13.273741834
 21
21.2909651951
 31
0.0
  0
ARC
  5
1FB
330
1F
100
AcDbEntity
  8
0
  6
Continuous
 62
     7
370
    25
100
AcDbCircle
 10
12.9203826714
 20
21.1144367209
 30
0.0
 40
0.3950000000000017
100
AcDbArc
 50
306.7124629142
 51
26.5454466944
  0
ARC
  5
1FC
330
1F
100
AcDbEntity
  8
0
  6
Continuous
 62
     7
370
    25
100
AcDbCircle
 10
12.9203826714
 20
21.1144367209
 30
0.0
 40
0.3950000000000017
100
AcDbArc
 50
296.5454466944
 51
306.7124629142
  0
ARC
  5
1FD
330
1F
100
AcDbEntity
  8
0
  6
Continuous
 62
     7
370
    25
100
AcDbCircle
 10
12.9203826714
 20
21.1144367209
 30
0.0
 40
0.3949999999999993
100
AcDbArc
 50
26.5454466944
 51
36.7124629142
  0
ARC
  5
1FE
330
1F
100
AcDbEntity
  8
0
  6
Continuous
 62
     7
370
    25
100
AcDbCircle
 10
12.9203826714
 20
21.1144367209
 30
0.0
 40
0.3949999999999999
100
AcDbArc
 50
116.5454466944
 51
126.7124629142
  0
ARC
  5
1FF
330
1F
100
AcDbEntity
  8
0
  6
Continuous
 62
     7
370
    25
100
AcDbCircle
 10
12.9203826714
 20
21.1144367209
 30
0.0
 40
0.3950000000000007
100
AcDbArc
 50
206.5454466944
 51
216.7124629142
  0
LINE
  5
200
330
1F
100
AcDbEntity
  8
0
  6
Continuous
 62
     7
370
    25
100
AcDbLine
 10
14.5469111457
 20
21.4677958835
 30
0.0
 11
14.3589360698
 21
21.1625924611
 31
0.0
  0
LINE
  5
201
330
1F
100
AcDbEntity
  8
0
  6
Continuous
 62
     7
370
    25
100
AcDbLine
 10
14.3589360698
 20
21.1625924611
 30
0.0
 11
14.0537326474
 21
21.3505675369
 31
0.0
  0
ARC
  5
202
330
1F
100
AcDbEntity
  8
0
  6
Continuous
 62
     7
370
    25
100
AcDbCircle
 10
14.3703826714
 20
21.1144367209
 30
0.0
 40
0.3949999999999993
100
AcDbArc
 50
63.4545533056
 51
143.2875370858
  0
LINE
  5
203
330
1F
100
AcDbEntity
  8
0
  6
Continuous
 62
     7
370
    25
100
AcDbLine
 10
14.0170235088
 20
21.2909651951
 30
0.0
 11
14.3222269313
 21
21.1029901193
 31
0.0
  0
LINE
  5
204
330
1F
100
AcDbEntity
  8
0
  6
Continuous
 62
     7
370
    25
100
AcDbLine
 10
14.3222269313
 20
21.1029901193
 30
0.0
 11
14.1342518554
 21
20.7977866968
 31
0.0
  0
ARC
  5
205
330
1F
100
AcDbEntity
  8
0
  6
Continuous
 62
     7
370
    25
100
AcDbCircle
 10
14.3703826714
 20
21.1144367209
 30
0.0
 40
0.3950000000000017
100
AcDbArc
 50
153.4545533056
 51
233.2875370858
  0
LINE
  5
206
330
1F
100
AcDbEntity
  8
0
  6
Continuous
 62
     7
370
    25
100
AcDbLine
 10
14.723741834
 20
20.9379082467
 30
0.0
 11
14.4185384116
 21
21.1258833225
 31
0.0
  0
LINE
  5
207
330
1F
100
AcDbEntity
  8
0
  6
Continuous
 62
     7
370
    25
100
AcDbLine
 10
14.4185384116
 20
21.1258833225
 30
0.0
 11
14.6065134874
 21
21.431086745
 31
0.0
  0
ARC
  5
208
330
1F
100
AcDbEntity
  8
0
  6
Continuous
 62
     7
370
    25
100
AcDbCircle
 10
14.3703826714
 20
21.1144367209
 30
0.0
 40
0.3950000000000007
100
AcDbArc
 50
333.4545533056
 51
53.2875370858
  0
LINE
  5
209
330
1F
100
AcDbEntity
  8
0
  6
Continuous
 62
     7
370
    25
100
AcDbLine
 10
14.1938541972
 20
20.7610775583
 30
0.0
 11
14.3818292731
 21
21.0662809807
 31
0.0
  0
LINE
  5
20A
330
1F
100
AcDbEntity
  8
0
  6
Continuous
 62
     7
370
    25
100
AcDbLine
 10
14.3818292731
 20
21.0662809807
 30
0.0
 11
14.6870326955
 21
20.8783059049
 31
0.0
  0
ARC
  5
20B
330
1F
100
AcDbEntity
  8
0
  6
Continuous
 62
     7
370
    25
100
AcDbCircle
 10
14.3703826714
 20
21.1144367209
 30
0.0
 40
0.3950000000000015
100
AcDbArc
 50
243.4545533056
 51
323.2875370858
  0
ARC
  5
20C
330
1F
100
AcDbEntity
  8
0
  6
Continuous
 62
     7
370
    25
100
AcDbCircle
 10
14.3703826714
 20
21.1144367209
 30
0.0
 40
0.3950000000000007
100
AcDbArc
 50
323.2875370858
 51
333.4545533056
  0
ARC
  5
20D
330
1F
100
AcDbEntity
  8
0
  6
Continuous
 62
     7
370
    25
100
AcDbCircle
 10
14.3703826714
 20
21.1144367209
 30
0.0
 40
0.3949999999999991
100
AcDbArc
 50
53.2875370858
 51
63.4545533056
  0
ARC
  5
20E
330
1F
100
AcDbEntity
  8
0
  6
Continuous
 62
     7
370
    25
100
AcDbCircle
 10
14.3703826714
 20
21.1144367209
 30
0.0
 40
0.3950000000000007
100
AcDbArc
 50
143.2875370858
 51
153.4545533056
  0
ARC
  5
20F
330
1F
100
AcDbEntity
  8
0
  6
Continuous
 62
     7
370
    25
100
AcDbCircle
 10
14.3703826714
 20
21.1144367209
 30
0.0
 40
0.3950000000000017
100
AcDbArc
 50
233.2875370858
 51
243.4545533056
  0
LINE
  5
210
330
1F
100
AcDbEntity
  8
0
  6
Continuous
 62
     7
370
    25
100
AcDbLine
 10
12.2203826714
 20
19.1919367209
 30
0.0
 11
12.3099433131
 21
21.7566179394
 31
0.0
  0
ARC
  5
211
330
1F
100
AcDbEntity
  8
0
  6
Continuous
 62
     7
370
    25
100
AcDbCircle
 10
12.3411742764
 20
21.308544794
 30
0.0
 40
0.4491602350518347
100
AcDbArc
 50
86.0128986004
 51
93.9871013996
  0
LINE
  5
212
330
1F
100
AcDbEntity
  8
0
  6
Continuous
 62
     7
370
    25
100
AcDbLine
 10
12.3724052398
 20
21.7566179394
 30
0.0
 11
12.2828445981
 21
19.1919367209
 31
0.0
  0
LINE
  5
213
330
1F
100
AcDbEntity
  8
0
  6
Continuous
 62
     7
370
    25
100
AcDbLine
 10
12.2828445981
 20
19.1919367209
 30
0.0
 11
12.2203826714
 21
19.1919367209
 31
0.0
  0
LINE
  5
214
330
1F
100
AcDbEntity
  8
0
  6
Continuous
 62
     7
370
    25
100
AcDbLine
 10
14.9183601031
 20
21.7566179394
 30
0.0
 11
12.3724052398
 21
21.7566179394
 31
0.0
  0
LINE
  5
215
330
1F
100
AcDbEntity
  8
0
  6
Continuous
 62
     7
370
    25
100
AcDbLine
 10
15.0079207448
 20
19.1919367209
 30
0.0
 11
14.9183601031
 21
21.7566179394
 31
0.0
  0
LINE
  5
216
330
1F
100
AcDbEntity
  8
0
  6
Continuous
 62
     7
370
    25
100
AcDbLine
 10
15.0079207448
 20
19.1919367209
 30
0.0
 11
12.2828445981
 21
19.1919367209
 31
0.0
  0
CIRCLE
  5
217
330
1F
100
AcDbEntity
  8
0
  6
Continuous
 62
     7
370
    25
100
AcDbCircle
 10
14.3703826714
 20
21.1139458928
 30
0.0
 40
0.4024962050740406
  0
CIRCLE
  5
218
330
1F
100
AcDbEntity
  8
0
  6
Continuous
 62
     7
370
    25
100
AcDbCircle
 10
12.9203826714
 20
21.1139458928
 30
0.0
 40
0.4024962050740406
  0
ARC
  5
219
330
1F
100
AcDbEntity
  8
0
  6
Continuous
 62
     7
370
    25
100
AcDbCircle
 10
14.9495910664
 20
21.308544794
 30
0.0
 40
0.4491602350517531
100
AcDbArc
 50
86.0128986004
 51
93.9871013996
  0
LINE
  5
21A
330
1F
100
AcDbEntity
  8
0
  6
Continuous
 62
     7
370
    25
100
AcDbLine
 10
14.9808220298
 20
21.7566179394
 30
0.0
 11
15.0703826714
 21
19.1919367209
 31
0.0
  0
LINE
  5
21B
330
1F
100
AcDbEntity
  8
0
  6
Continuous
 62
     7
370
    25
100
AcDbLine
 10
15.0703826714
 20
19.1919367209
 30
0.0
 11
15.0079207448
 21
19.1919367209
 31
0.0
  0
LINE
  5
21C
330
1F
100
AcDbEntity
  8
0
  6
Continuous
 62
     7
370
    25
100
AcDbLine
 10
12.3724052398
 20
21.8169367209
 30
0.0
 11
12.3724052398
 21
21.7566179394
 31
0.0
  0
ARC
  5
21D
330
1F
100
AcDbEntity
  8
0
  6
Continuous
 62
     7
370
    25
100
AcDbCircle
 10
12.3724052398
 20
21.7544367209
 30
0.0
 40
0.0625000000000011
100
AcDbArc
 50
90.0
 51
178.0
  0
LINE
  5
21E
330
1F
100
AcDbEntity
  8
0
  6
Continuous
 62
     7
370
    25
100
AcDbLine
 10
12.3724052398
 20
21.8169367209
 30
0.0
 11
14.9183601031
 21
21.8169367209
 31
0.0
  0
LINE
  5
21F
330
1F
100
AcDbEntity
  8
0
  6
Continuous
 62
     7
370
    25
100
AcDbLine
 10
14.9183601031
 20
21.7566179394
 30
0.0
 11
14.9183601031
 21
21.8169367209
 31
0.0
  0
ARC
  5
220
330
1F
100
AcDbEntity
  8
0
  6
Continuous
 62
     7
370
    25
100
AcDbCircle
 10
14.9183601031
 20
21.7544367209
 30
0.0
 40
0.0625
100
AcDbArc
 50
2.0
 51
90.0
  0
LINE
  5
221
330
1F
100
AcDbEntity
  8
0
  6
Continuous
 62
     7
370
    25
100
AcDbLine
 10
12.3411742764
 20
21.808574295
 30
0.0
 11
12.3411742764
 21
21.8544367209
 31
0.0
  0
ARC
  5
222
330
1F
100
AcDbEntity
  8
0
  6
Continuous
 62
     7
370
    25
100
AcDbCircle
 10
12.4036742764
 20
21.8544367209
 30
0.0
 40
0.0625
100
AcDbArc
 50
90.0
 51
179.9999999995
  0
LINE
  5
223
330
1F
100
AcDbEntity
  8
0
  6
Continuous
 62
     7
370
    25
100
AcDbLine
 10
12.4036742764
 20
21.9169367209
 30
0.0
 11
12.7161742764
 21
21.9169367209
 31
0.0
  0
ARC
  5
224
330
1F
100
AcDbEntity
  8
0
  6
Continuous
 62
     7
370
    25
100
AcDbCircle
 10
12.7161742764
 20
21.8544367209
 30
0.0
 40
0.0625000000000036
100
AcDbArc
 50
0.0
 51
90.0
  0
LINE
  5
225
330
1F
100
AcDbEntity
  8
0
  6
Continuous
 62
     7
370
    25
100
AcDbLine
 10
12.7786742764
 20
21.8544367209
 30
0.0
 11
12.7786742764
 21
21.8169367209
 31
0.0
  0
ARC
  5
226
330
1F
100
AcDbEntity
  8
0
  6
Continuous
 62
     7
370
    25
100
AcDbCircle
 10
14.5745910664
 20
21.8544367209
 30
0.0
 40
0.0625
100
AcDbArc
 50
90.0
 51
180.0
  0
LINE
  5
227
330
1F
100
AcDbEntity
  8
0
  6
Continuous
 62
     7
370
    25
100
AcDbLine
 10
14.5745910664
 20
21.9169367209
 30
0.0
 11
14.8870910664
 21
21.9169367209
 31
0.0
  0
ARC
  5
228
330
1F
100
AcDbEntity
  8
0
  6
Continuous
 62
     7
370
    25
100
AcDbCircle
 10
14.8870910664
 20
21.8544367209
 30
0.0
 40
0.0625
100
AcDbArc
 50
0.0000000005
 51
90.0
  0
LINE
  5
229
330
1F
100
AcDbEntity
  8
0
  6
Continuous
 62
     7
370
    25
100
AcDbLine
 10
14.9495910664
 20
21.808574295
 30
0.0
 11
14.9495910664
 21
21.8544367209
 31
0.0
  0
LINE
  5
22A
330
1F
100
AcDbEntity
  8
0
  6
Continuous
 62
     7
370
    25
100
AcDbLine
 10
14.5120910664
 20
21.8544367209
 30
0.0
 11
14.5120910664
 21
21.8169367209
 31
0.0
  0
LINE
  5
22B
330
1F
100
AcDbEntity
  8
0
  6
Continuous
 62
     7
370
    25
100
AcDbLine
 10
12.2196685371
 20
20.9949981577
 30
0.0
 11
12.2196685371
 21
21.0469367209
 31
0.0
  0
LINE
  5
22C
330
1F
100
AcDbEntity
  8
SLD-0
100
AcDbLine
 10
15.0310968058
 20
20.9885647977
 30
0.0
 11
15.2183908689
 21
19.8068047126
 31
0.0
  0
LINE
  5
22D
330
1F
100
AcDbEntity
  8
SLD-0
100
AcDbLine
 10
4.8532498244
 20
31.2069367209
 30
0.0
 11
4.073482332
 21
31.3377533352
 31
0.0
  0
LINE
  5
22E
330
1F
100
AcDbEntity
  8
SLD-0
100
AcDbLine
 10
4.9166295388
 20
28.2569367209
 30
0.0
 11
4.0036295989
 21
28.1026563912
 31
0.0
  0
LINE
  5
22F
330
1F
100
AcDbEntity
  8
SLD-0
100
AcDbLine
 10
12.2596685371
 20
20.9885647977
 30
0.0
 11
12.0723782287
 21
19.8068284036
 31
0.0
  0
ARC
  5
230
330
1F
100
AcDbEntity
  8
SLD-0
100
AcDbCircle
 10
13.6453826714
 20
29.7319367209
 30
0.0
 40
8.852500000000003
100
AcDbArc
 50
279.0057537481
 51
170.4086667958
  0
DIMENSION
  5
231
330
1F
100
AcDbEntity
  8
SLD-0
100
AcDbDimension
  2
_D_2
 10
15.2183908689
 20
19.8068047126
 30
0.0
 11
23.3747109886
 21
36.2231480983
 31
0.0
 70
   162
  1
48"\P[1219mm]
 71
     1
 42
-1.0
  3
SLDDIMSTYLE2
100
AcDb2LineAngularDimension
 13
4.8532498244
 23
31.2069367209
 33
0.0
 14
4.073482332
 24
31.3377533352
 34
0.0
 15
15.0310968058
 25
20.9885647977
 35
0.0
 16
10.8843387957
 26
41.0973355861
 36
0.0
  0
DIMENSION
  5
23E
330
1F
100
AcDbEntity
  8
SLD-0
100
AcDbDimension
  2
_D_3
 10
12.2596685371
 20
20.9885647977
 30
0.0
 11
5.8839943379
 21
21.1210403599
 31
0.0
 70
   162
  1
9"\P[229mm]
 71
     1
 42
-1.0
  3
SLDDIMSTYLE2
100
AcDb2LineAngularDimension
 13
4.9166295388
 23
28.2569367209
 33
0.0
 14
4.0036295989
 24
28.1026563912
 34
0.0
 15
12.0723782287
 25
19.8068284036
 35
0.0
 16
3.3095492077
 26
24.482438496
 36
0.0
  0
LINE
  5
24A
330
1F
100
AcDbEntity
  8
0
  6
Continuous
 62
     7
370
    25
100
AcDbLine
 10
32.2715326656
 20
34.2949220397
 30
0.0
 11
32.2715326656
 21
32.6618404159
 31
0.0
  0
LINE
  5
24B
330
1F
100
AcDbEntity
  8
0
  6
Continuous
 62
     7
370
    25
100
AcDbLine
 10
50.1015326656
 20
32.6618404159
 30
0.0
 11
50.1015326656
 21
34.2949220397
 31
0.0
  0
LINE
  5
24C
330
1F
100
AcDbEntity
  8
0
  6
Continuous
 62
     7
370
    25
100
AcDbLine
 10
34.3758291212
 20
35.5899721653
 30
0.0
 11
34.3758291212
 21
37.2469697157
 31
0.0
  0
LINE
  5
24D
330
1F
100
AcDbEntity
  8
0
  6
Continuous
 62
     7
370
    25
100
AcDbLine
 10
34.375829121
 20
37.2469697154
 30
0.0
 11
34.5379570923
 21
37.340564201
 31
0.0
  0
SPLINE
  5
24E
330
1F
100
AcDbEntity
  8
0
  6
Continuous
 62
     7
370
    25
100
AcDbSpline
210
0.0
220
0.0
230
1.0
 70
     8
 71
     3
 72
    11
 73
     7
 74
     0
 42
0.00000001
 43
0.00000001
 40
0.0
 40
0.0
 40
0.0
 40
0.0
 40
0.168996620194291
 40
0.4348997929888511
 40
0.7103190388103447
 40
1.0
 40
1.0
 40
1.0
 40
1.0
 10
33.84121174508281
 20
37.54366341933746
 30
0.0
 10
33.83546726370345
 20
37.53985542412774
 30
0.0
 10
33.82068428307436
 20
37.53005584158871
 30
0.0
 10
33.80109939710745
 20
37.50660117832574
 30
0.0
 10
33.78444710317733
 20
37.47420154406012
 30
0.0
 10
33.78207193174681
 20
37.45101142344694
 30
0.0
 10
33.78085437433938
 20
37.43912373282857
 30
0.0
  0
LINE
  5
24F
330
1F
100
AcDbEntity
  8
0
  6
Continuous
 62
     7
370
    25
100
AcDbLine
 10
34.2077542327
 20
37.7552638934
 30
0.0
 11
33.8412117451
 21
37.5436634193
 31
0.0
  0
LINE
  5
250
330
1F
100
AcDbEntity
  8
0
  6
Continuous
 62
     7
370
    25
100
AcDbLine
 10
33.7808543743
 20
37.4391237328
 30
0.0
 11
33.7808543743
 21
37.1601047696
 31
0.0
  0
SPLINE
  5
251
330
1F
100
AcDbEntity
  8
0
  6
Continuous
 62
     7
370
    25
100
AcDbSpline
210
0.0
220
0.0
230
1.0
 70
     8
 71
     3
 72
    20
 73
    16
 74
     0
 42
0.00000001
 43
0.00000001
 40
0.0
 40
0.0
 40
0.0
 40
0.0
 40
0.1075449385717616
 40
0.2659886948524534
 40
0.3731333332488126
 40
0.4682798976862942
 40
0.5459867462869631
 40
0.6120338828622607
 40
0.6698198127527595
 40
0.7220645672194476
 40
0.7773716665610316
 40
0.8303978420790755
 40
0.8884038870544335
 40
0.9556474435779302
 40
1.0
 40
1.0
 40
1.0
 40
1.0
 10
35.18759501884103
 20
38.31966665220227
 30
0.0
 10
35.16765910463845
 20
38.28299038224591
 30
0.0
 10
35.11835201617982
 20
38.19227971461894
 30
0.0
 10
35.04706464103749
 20
38.06606760854179
 30
0.0
 10
34.97500268250601
 20
37.94585784015464
 30
0.0
 10
34.91509652989891
 20
37.8554362792209
 30
0.0
 10
34.86053425521376
 20
37.78172762630453
 30
0.0
 10
34.81138422744915
 20
37.723971876032
 30
0.0
 10
34.76609307042209
 20
37.67907634216731
 30
0.0
 10
34.72225881073159
 20
37.64393104335445
 30
0.0
 10
34.68019275766085
 20
37.61911278192385
 30
0.0
 10
34.63905278198693
 20
37.60380513672339
 30
0.0
 10
34.59797016597701
 20
37.59670465055537
 30
0.0
 10
34.56115629512949
 20
37.59633784129317
 30
0.0
 10
34.53829758768972
 20
37.60125008915336
 30
0.0
 10
34.52921266452619
 20
37.60320240402014
 30
0.0
  0
LINE
  5
252
330
1F
100
AcDbEntity
  8
0
  6
Continuous
 62
     7
370
    25
100
AcDbLine
 10
35.6757964715
 20
36.3070968296
 30
0.0
 11
35.6757964715
 21
38.0116257744
 31
0.0
  0
LINE
  5
253
330
1F
100
AcDbEntity
  8
0
  6
Continuous
 62
     7
370
    25
100
AcDbLine
 10
35.7132224721
 20
38.0764499778
 30
0.0
 11
36.1989792839
 21
38.3568714164
 31
0.0
  0
SPLINE
  5
254
330
1F
100
AcDbEntity
  8
0
  6
Continuous
 62
     7
370
    25
100
AcDbSpline
210
0.0
220
0.0
230
1.0
 70
     8
 71
     3
 72
    10
 73
     6
 74
     0
 42
0.00000001
 43
0.00000001
 40
0.0
 40
0.0
 40
0.0
 40
0.0
 40
0.3130034835643037
 40
0.6268422618756369
 40
1.0
 40
1.0
 40
1.0
 40
1.0
 10
34.1877271105243
 20
35.40349473516793
 30
0.0
 10
34.19522537312356
 20
35.39998735801458
 30
0.0
 10
34.21024190851268
 20
35.39296324376826
 30
0.0
 10
34.23722534080194
 20
35.39388895408901
 30
0.0
 10
34.25356401850328
 20
35.40143549964048
 30
0.0
 10
34.26243874183756
 20
35.40553457700298
 30
0.0
  0
LINE
  5
255
330
1F
100
AcDbEntity
  8
0
  6
Continuous
 62
     7
370
    25
100
AcDbLine
 10
33.903530559
 20
35.5669593984
 30
0.0
 11
34.1874448369
 21
35.4030591745
 31
0.0
  0
SPLINE
  5
256
330
1F
100
AcDbEntity
  8
0
  6
Continuous
 62
     7
370
    25
100
AcDbSpline
210
0.0
220
0.0
230
1.0
 70
     8
 71
     3
 72
    20
 73
    16
 74
     0
 42
0.00000001
 43
0.00000001
 40
0.0
 40
0.0
 40
0.0
 40
0.0
 40
0.1031050488006714
 40
0.2624734663503549
 40
0.370436361215548
 40
0.4663889947651377
 40
0.5448233878747023
 40
0.6114546920297029
 40
0.6696826055644246
 40
0.722149413834101
 40
0.7776617820699105
 40
0.8307376894598595
 40
0.8883483721787191
 40
0.9550871714756617
 40
1.0
 40
1.0
 40
1.0
 40
1.0
 10
34.63076876777702
 20
35.61945873481464
 30
0.0
 10
34.64983099914243
 20
35.65453836495752
 30
0.0
 10
34.69835752622381
 20
35.74384021999754
 30
0.0
 10
34.76893926026006
 20
35.86884652636021
 30
0.0
 10
34.8411772798308
 20
35.98971027910411
 30
0.0
 10
34.90128622158986
 20
36.08080308756607
 30
0.0
 10
34.95608463683482
 20
36.15512045495988
 30
0.0
 10
35.00544885643879
 20
36.21340183763805
 30
0.0
 10
35.05088748165401
 20
36.25871978615762
 30
0.0
 10
35.09482102641593
 20
36.29424705788571
 30
0.0
 10
35.13697360293035
 20
36.31939243856625
 30
0.0
 10
35.17811960916224
 20
36.33506135315449
 30
0.0
 10
35.218937853987
 20
36.34240186529705
 30
0.0
 10
35.25556555806558
 20
36.34293650199564
 30
0.0
 10
35.27843939873549
 20
36.33813182074035
 30
0.0
 10
35.28764059807085
 20
36.33619909634086
 30
0.0
  0
LINE
  5
257
330
1F
100
AcDbEntity
  8
0
  6
Continuous
 62
     7
370
    25
100
AcDbLine
 10
34.2624387418
 20
35.405534577
 30
0.0
 11
34.6289812294
 21
35.617135051
 31
0.0
  0
LINE
  5
258
330
1F
100
AcDbEntity
  8
0
  6
Continuous
 62
     7
370
    25
100
AcDbLine
 10
35.7150447152
 20
38.6254041675
 30
0.0
 11
35.1894032019
 21
38.3219577809
 31
0.0
  0
LINE
  5
259
330
1F
100
AcDbEntity
  8
0
  6
Continuous
 62
     7
370
    25
100
AcDbLine
 10
36.2276651597
 20
38.4049962997
 30
0.0
 11
36.2117948283
 21
38.4180278705
 31
0.0
  0
LINE
  5
25A
330
1F
100
AcDbEntity
  8
0
  6
Continuous
 62
     7
370
    25
100
AcDbLine
 10
36.2112656169
 20
38.4185232457
 30
0.0
 11
35.8400345568
 21
38.6328303751
 31
0.0
  0
SPLINE
  5
25B
330
1F
100
AcDbEntity
  8
0
  6
Continuous
 62
     7
370
    25
100
AcDbSpline
210
0.0
220
0.0
230
1.0
 70
     8
 71
     3
 72
    10
 73
     6
 74
     0
 42
0.00000001
 43
0.00000001
 40
0.0
 40
0.0
 40
0.0
 40
0.0
 40
0.5409854563735524
 40
0.9316991114929117
 40
1.0
 40
1.0
 40
1.0
 40
1.0
 10
36.22890511480997
 20
38.39076703685978
 30
0.0
 10
36.22910421926134
 20
38.39243965754142
 30
0.0
 10
36.22944712208479
 20
38.39532028803637
 30
0.0
 10
36.22953539350797
 20
38.39726020422889
 30
0.0
 10
36.22951610221365
 20
38.39711851380903
 30
0.0
 10
36.22951323168905
 20
38.39709743042136
 30
0.0
  0
LINE
  5
25C
330
1F
100
AcDbEntity
  8
0
  6
Continuous
 62
     7
370
    25
100
AcDbLine
 10
36.2589377252
 20
36.7284485744
 30
0.0
 11
36.2589377252
 21
38.3207031576
 31
0.0
  0
SPLINE
  5
25D
330
1F
100
AcDbEntity
  8
0
  6
Continuous
 62
     7
370
    25
100
AcDbSpline
210
0.0
220
0.0
230
1.0
 70
     8
 71
     3
 72
    12
 73
     8
 74
     0
 42
0.00000001
 43
0.00000001
 40
0.0
 40
0.0
 40
0.0
 40
0.0
 40
0.0009158729242133
 40
0.2773597696825356
 40
0.5456380841221179
 40
0.8233358740252157
 40
1.0
 40
1.0
 40
1.0
 40
1.0
 10
35.83987754365948
 20
38.63289847787608
 30
0.0
 10
35.83984738731882
 20
38.63292326612882
 30
0.0
 10
35.83071494604039
 20
38.6404300543385
 30
0.0
 10
35.80667258251059
 20
38.64609206095908
 30
0.0
 10
35.7716901436205
 20
38.64728852689611
 30
0.0
 10
35.7406444131137
 20
38.63887650477873
 30
0.0
 10
35.72221169083893
 20
38.62917592735377
 30
0.0
 10
35.71504471522717
 20
38.62540416750255
 30
0.0
  0
LINE
  5
25E
330
1F
100
AcDbEntity
  8
0
  6
Continuous
 62
     7
370
    25
100
AcDbLine
 10
35.6106301986
 20
36.1838289385
 30
0.0
 11
36.136271712
 21
36.4872753252
 31
0.0
  0
SPLINE
  5
25F
330
1F
100
AcDbEntity
  8
0
  6
Continuous
 62
     7
370
    25
100
AcDbSpline
210
0.0
220
0.0
230
1.0
 70
     8
 71
     3
 72
    11
 73
     7
 74
     0
 42
0.00000001
 43
0.00000001
 40
0.0
 40
0.0
 40
0.0
 40
0.0
 40
0.2101402761622606
 40
0.588845417884829
 40
0.9663180053268019
 40
1.0
 40
1.0
 40
1.0
 40
1.0
 10
36.13627171198192
 20
36.48727532516808
 30
0.0
 10
36.14330787621403
 20
36.49168463816002
 30
0.0
 10
36.1630242920446
 20
36.50404021224959
 30
0.0
 10
36.19231905468035
 20
36.53222777508974
 30
0.0
 10
36.21496491452347
 20
36.5588812784389
 30
0.0
 10
36.22338521699841
 20
36.57489601296793
 30
0.0
 10
36.22407501250463
 20
36.57620794825107
 30
0.0
  0
SPLINE
  5
260
330
1F
100
AcDbEntity
  8
0
  6
Continuous
 62
     7
370
    25
100
AcDbSpline
210
0.0
220
0.0
230
1.0
 70
     8
 71
     3
 72
    11
 73
     7
 74
     0
 42
0.00000001
 43
0.00000001
 40
0.0
 40
0.0
 40
0.0
 40
0.0
 40
0.3013004841566906
 40
0.636065768991865
 40
0.8579992494986219
 40
1.0
 40
1.0
 40
1.0
 40
1.0
 10
36.22886000541631
 20
36.58707310457815
 30
0.0
 10
36.22909538464597
 20
36.5898585720879
 30
0.0
 10
36.22959228617318
 20
36.59573888302914
 30
0.0
 10
36.22972123400061
 20
36.60565867380257
 30
0.0
 10
36.23126742306739
 20
36.61512755959305
 30
0.0
 10
36.2331677806654
 20
36.61972928525105
 30
0.0
 10
36.23390926685204
 20
36.62152479785021
 30
0.0
  0
LINE
  5
261
330
1F
100
AcDbEntity
  8
0
  6
Continuous
 62
     7
370
    25
100
AcDbLine
 10
33.0897603874
 20
30.3129275109
 30
0.0
 11
33.0829404038
 21
30.3171495259
 31
0.0
  0
LINE
  5
262
330
1F
100
AcDbEntity
  8
0
  6
Continuous
 62
     7
370
    25
100
AcDbLine
 10
32.8653757523
 20
29.2521124256
 30
0.0
 11
32.8721957359
 21
29.2478904105
 31
0.0
  0
LINE
  5
263
330
1F
100
AcDbEntity
  8
0
  6
Continuous
 62
     7
370
    25
100
AcDbLine
 10
36.1100264608
 20
28.7653234645
 30
0.0
 11
36.1213383305
 21
28.7718557909
 31
0.0
  0
LINE
  5
264
330
1F
100
AcDbEntity
  8
0
  6
Continuous
 62
     7
370
    25
100
AcDbLine
 10
36.2054703614
 20
28.9175925338
 30
0.0
 11
36.2054703614
 21
28.9306550636
 31
0.0
  0
LINE
  5
265
330
1F
100
AcDbEntity
  8
0
  6
Continuous
 62
     7
370
    25
100
AcDbLine
 10
36.1775054604
 20
28.9924641125
 30
0.0
 11
36.0728536568
 21
29.0528783128
 31
0.0
  0
LINE
  5
266
330
1F
100
AcDbEntity
  8
0
  6
Continuous
 62
     7
370
    25
100
AcDbLine
 10
35.9378646279
 20
28.8190451199
 30
0.0
 11
36.0425164315
 21
28.7586309197
 31
0.0
  0
LINE
  5
267
330
1F
100
AcDbEntity
  8
0
  6
Continuous
 62
     7
370
    25
100
AcDbLine
 10
33.9777182732
 20
30.050978123
 30
0.0
 11
33.9809704357
 21
30.0528561669
 31
0.0
  0
LINE
  5
268
330
1F
100
AcDbEntity
  8
0
  6
Continuous
 62
     7
370
    25
100
AcDbLine
 10
36.1100264608
 20
29.2756614719
 30
0.0
 11
36.1213383305
 21
29.2821937983
 31
0.0
  0
LINE
  5
269
330
1F
100
AcDbEntity
  8
0
  6
Continuous
 62
     7
370
    25
100
AcDbLine
 10
36.2054703614
 20
29.4279305413
 30
0.0
 11
36.2054703614
 21
29.4409930711
 31
0.0
  0
LINE
  5
26A
330
1F
100
AcDbEntity
  8
0
  6
Continuous
 62
     7
370
    25
100
AcDbLine
 10
36.1775054604
 20
29.5028021199
 30
0.0
 11
36.0728536568
 21
29.5632163202
 31
0.0
  0
LINE
  5
26B
330
1F
100
AcDbEntity
  8
0
  6
Continuous
 62
     7
370
    25
100
AcDbLine
 10
35.9378646279
 20
29.3293831274
 30
0.0
 11
36.0425164315
 21
29.2689689271
 31
0.0
  0
LINE
  5
26C
330
1F
100
AcDbEntity
  8
0
  6
Continuous
 62
     7
370
    25
100
AcDbLine
 10
36.0786031895
 20
29.0628378747
 30
0.0
 11
36.0503189182
 21
29.0791660369
 31
0.0
  0
LINE
  5
26D
330
1F
100
AcDbEntity
  8
0
  6
Continuous
 62
     7
370
    25
100
AcDbLine
 10
35.9038308239
 20
28.8254137203
 30
0.0
 11
35.9321150952
 21
28.809085558
 31
0.0
  0
LINE
  5
26E
330
1F
100
AcDbEntity
  8
0
  6
Continuous
 62
     7
370
    25
100
AcDbLine
 10
36.0786031895
 20
29.5731758821
 30
0.0
 11
36.0503189182
 21
29.5895040444
 31
0.0
  0
LINE
  5
26F
330
1F
100
AcDbEntity
  8
0
  6
Continuous
 62
     7
370
    25
100
AcDbLine
 10
35.9038308239
 20
29.3357517277
 30
0.0
 11
35.9321150952
 21
29.3194235654
 31
0.0
  0
LINE
  5
270
330
1F
100
AcDbEntity
  8
0
  6
Continuous
 62
     7
370
    25
100
AcDbLine
 10
35.8607050729
 20
28.8029682467
 30
0.0
 11
35.8833324899
 21
28.7899057169
 31
0.0
  0
LINE
  5
271
330
1F
100
AcDbEntity
  8
0
  6
Continuous
 62
     7
370
    25
100
AcDbLine
 10
36.0708172523
 20
29.1146740403
 30
0.0
 11
36.0595106505
 21
29.1212012026
 31
0.0
  0
LINE
  5
272
330
1F
100
AcDbEntity
  8
0
  6
Continuous
 62
     7
370
    25
100
AcDbLine
 10
35.8607050729
 20
29.3133062541
 30
0.0
 11
35.8833324899
 21
29.3002437243
 31
0.0
  0
LINE
  5
273
330
1F
100
AcDbEntity
  8
0
  6
Continuous
 62
     7
370
    25
100
AcDbLine
 10
36.0708172523
 20
29.6250120477
 30
0.0
 11
36.0595106505
 21
29.63153921
 31
0.0
  0
LINE
  5
274
330
1F
100
AcDbEntity
  8
0
  6
Continuous
 62
     7
370
    25
100
AcDbLine
 10
34.9753875624
 20
32.0418707228
 30
0.0
 11
34.9753875624
 21
32.0990734044
 31
0.0
  0
LINE
  5
275
330
1F
100
AcDbEntity
  8
0
  6
Continuous
 62
     7
370
    25
100
AcDbLine
 10
34.1853875624
 20
32.0990734044
 30
0.0
 11
34.1853875624
 21
32.0558226497
 31
0.0
  0
LINE
  5
276
330
1F
100
AcDbEntity
  8
0
  6
Continuous
 62
     7
370
    25
100
AcDbLine
 10
36.0006923951
 20
31.4499748418
 30
0.0
 11
36.0006923951
 21
31.5071775234
 31
0.0
  0
LINE
  5
277
330
1F
100
AcDbEntity
  8
0
  6
Continuous
 62
     7
370
    25
100
AcDbLine
 10
35.2106923951
 20
31.5071775234
 30
0.0
 11
35.2106923951
 21
31.4639267687
 31
0.0
  0
LINE
  5
278
330
1F
100
AcDbEntity
  8
0
  6
Continuous
 62
     7
370
    25
100
AcDbLine
 10
34.6175349056
 20
32.5636431664
 30
0.0
 11
32.7400440646
 21
31.6260900339
 31
0.0
  0
ARC
  5
279
330
1F
100
AcDbEntity
  8
0
  6
Continuous
 62
     7
370
    25
100
AcDbCircle
 10
36.4457192929
 20
31.4684581692
 30
0.0
 40
0.0625
100
AcDbArc
 50
0.0
 51
60.0026882663
  0
LINE
  5
27A
330
1F
100
AcDbEntity
  8
0
  6
Continuous
 62
     7
370
    25
100
AcDbLine
 10
36.5082192929
 20
27.9361394729
 30
0.0
 11
36.5082192929
 21
28.280891906
 31
0.0
  0
LINE
  5
27B
330
1F
100
AcDbEntity
  8
0
  6
Continuous
 62
     7
370
    25
100
AcDbLine
 10
36.5082192929
 20
29.956416098
 30
0.0
 11
36.5082192929
 21
31.4684581692
 31
0.0
  0
LINE
  5
27C
330
1F
100
AcDbEntity
  8
0
  6
Continuous
 62
     7
370
    25
100
AcDbLine
 10
36.4769667533
 20
31.5225862231
 30
0.0
 11
34.6767048049
 21
32.5618553245
 31
0.0
  0
LINE
  5
27D
330
1F
100
AcDbEntity
  8
0
  6
Continuous
 62
     7
370
    25
100
AcDbLine
 10
36.5568194232
 20
31.0443663474
 30
0.0
 11
36.5568194232
 21
31.1137723164
 31
0.0
  0
LINE
  5
27E
330
1F
100
AcDbEntity
  8
0
  6
Continuous
 62
     7
370
    25
100
AcDbLine
 10
34.7293892396
 20
26.7269887875
 30
0.0
 11
36.4801777848
 21
27.8839967616
 31
0.0
  0
ARC
  5
27F
330
1F
100
AcDbEntity
  8
0
  6
Continuous
 62
     7
370
    25
100
AcDbCircle
 10
34.6454573445
 20
32.5077272706
 30
0.0
 40
0.062500000000002
100
AcDbArc
 50
60.0026882664
 51
116.5359355438
  0
SPLINE
  5
280
330
1F
100
AcDbEntity
  8
0
  6
Continuous
 62
     7
370
    25
100
AcDbSpline
210
0.0
220
0.0
230
1.0
 70
     8
 71
     3
 72
    12
 73
     8
 74
     0
 42
0.00000001
 43
0.00000001
 40
0.0
 40
0.0
 40
0.0
 40
0.0
 40
0.2028754601709774
 40
0.4310185710236937
 40
0.6556140818637144
 40
0.8736609259411853
 40
1.0
 40
1.0
 40
1.0
 40
1.0
 10
34.6457367529144
 20
28.81791847127772
 30
0.0
 10
34.62893665596788
 20
28.80542280475479
 30
0.0
 10
34.59324405040163
 20
28.77887516649356
 30
0.0
 10
34.55122991603198
 20
28.73144246663492
 30
0.0
 10
34.51950230288553
 20
28.67834059140617
 30
0.0
 10
34.50167757885954
 20
28.62985652087536
 30
0.0
 10
34.49995010477975
 20
28.59943306833232
 30
0.0
 10
34.49931637539591
 20
28.58827212759247
 30
0.0
  0
LINE
  5
281
330
1F
100
AcDbEntity
  8
0
  6
Continuous
 62
     7
370
    25
100
AcDbLine
 10
34.4973851324
 20
28.5816934417
 30
0.0
 11
34.4904149766
 21
28.4187622706
 31
0.0
  0
LINE
  5
282
330
1F
100
AcDbEntity
  8
0
  6
Continuous
 62
     7
370
    25
100
AcDbLine
 10
33.3875807421
 20
28.3427414447
 30
0.0
 11
34.4653423989
 21
28.9649200058
 31
0.0
  0
ARC
  5
283
330
1F
100
AcDbEntity
  8
0
  6
Continuous
 62
     7
370
    25
100
AcDbCircle
 10
36.4457192929
 20
27.9361394729
 30
0.0
 40
0.062500000000003
100
AcDbArc
 50
303.4587075228
 51
0.0
  0
LINE
  5
284
330
1F
100
AcDbEntity
  8
0
  6
Continuous
 62
     7
370
    25
100
AcDbLine
 10
34.6448106735
 20
29.6535877691
 30
0.0
 11
34.6457367529
 21
29.6540708319
 31
0.0
  0
LINE
  5
285
330
1F
100
AcDbEntity
  8
0
  6
Continuous
 62
     7
370
    25
100
AcDbLine
 10
33.4463715624
 20
30.3246227193
 30
0.0
 11
33.4422113724
 21
30.3271981485
 31
0.0
  0
LINE
  5
286
330
1F
100
AcDbEntity
  8
0
  6
Continuous
 62
     7
370
    25
100
AcDbLine
 10
33.1021580505
 20
29.5629368604
 30
0.0
 11
33.1063182405
 21
29.5603614312
 31
0.0
  0
LWPOLYLINE
  5
287
330
1F
100
AcDbEntity
  8
0
  6
Continuous
 62
     7
370
    25
100
AcDbPolyline
 90
       29
 70
   128
 43
0.0
 10
33.2934125049
 20
31.9024228411
 10
33.1792177229
 20
32.0324157609
 10
33.0296482887
 20
32.2180929079
 10
32.8929921255
 20
32.4070579104
 10
32.7694655755
 20
32.5990116155
 10
32.6592641953
 20
32.7936501388
 10
32.562562446
 20
32.9906653453
 10
32.4795134176
 20
33.1897453378
 10
32.4102485859
 20
33.39057495
 10
32.3548776052
 20
33.5928362461
 10
32.3134881338
 20
33.7962090234
 10
32.2861456961
 20
34.0003713198
 10
32.2728935782
 20
34.2049999234
 10
32.2737527597
 20
34.4097708839
 10
32.2887218803
 20
34.6143600256
 10
32.3177772425
 20
34.8184434609
 10
32.360872848
 20
35.0216981025
 10
32.4179404719
 20
35.2238021754
 10
32.4888897695
 20
35.4244357258
 10
32.5736084201
 20
35.6232811283
 10
32.6719623044
 20
35.8200235881
 10
32.7837957172
 20
36.0143516395
 10
32.9089316135
 20
36.2059576392
 10
33.047171889
 20
36.3945382533
 10
33.1982976938
 20
36.5797949374
 10
33.3620697784
 20
36.7614344091
 10
33.5382288734
 20
36.9391691126
 10
33.7264960987
 20
37.1127176737
 10
33.9265734061
 20
37.2818053455
  0
LINE
  5
288
330
1F
100
AcDbEntity
  8
0
  6
Continuous
 62
     7
370
    25
100
AcDbLine
 10
33.9265734061
 20
37.2818053455
 30
0.0
 11
33.971389632
 21
37.255933489
 31
0.0
  0
LWPOLYLINE
  5
289
330
1F
100
AcDbEntity
  8
0
  6
Continuous
 62
     7
370
    25
100
AcDbPolyline
 90
       29
 70
   128
 43
0.0
 10
33.971389632
 20
37.255933489
 10
33.7710789172
 20
37.086142571
 10
33.5827505648
 20
36.9118414211
 10
33.4067088878
 20
36.7333116862
 10
33.2432383454
 20
36.550841846
 10
33.0926030838
 20
36.364726747
 10
32.955046509
 20
36.1752671257
 10
32.8307908937
 20
35.9827691231
 10
32.7200370181
 20
35.7875437897
 10
32.6229638453
 20
35.5899065831
 10
32.5397282323
 20
35.3901768579
 10
32.4704646765
 20
35.1886773503
 10
32.4152850984
 20
34.9857336559
 10
32.3742786607
 20
34.7816737041
 10
32.3475116242
 20
34.576827228
 10
32.3350272407
 20
34.3715252315
 10
32.3368456834
 20
34.1660994547
 10
32.3529640138
 20
33.9608818376
 10
32.3833561869
 20
33.756203984
 10
32.4279730932
 20
33.5523966253
 10
32.4867426378
 20
33.3497890865
 10
32.5595698571
 20
33.1487087537
 10
32.6463370723
 20
32.9494805453
 10
32.7469040794
 20
32.7524263869
 10
32.8611083757
 20
32.5578646912
 10
32.9887654228
 20
32.3661098434
 10
33.1296689442
 20
32.1774716932
 10
33.2835912591
 20
31.9922550541
 10
33.3419654563
 20
31.9266684836
  0
LINE
  5
28A
330
1F
100
AcDbEntity
  8
0
  6
Continuous
 62
     7
370
    25
100
AcDbLine
 10
33.971389632
 20
37.255933489
 30
0.0
 11
33.971389632
 21
35.6228518652
 31
0.0
  0
LWPOLYLINE
  5
28B
330
1F
100
AcDbEntity
  8
0
  6
Continuous
 62
     7
370
    25
100
AcDbPolyline
 90
       13
 70
   128
 43
0.0
 10
33.971389632
 20
35.6228518652
 10
33.7710789172
 20
35.4530609472
 10
33.5827505648
 20
35.2787597973
 10
33.4067088878
 20
35.1002300624
 10
33.2432383454
 20
34.9177602223
 10
33.0926030838
 20
34.7316451232
 10
32.955046509
 20
34.542185502
 10
32.8307908937
 20
34.3496874994
 10
32.7200370181
 20
34.154462166
 10
32.6229638453
 20
33.9568249593
 10
32.5397282323
 20
33.7570952341
 10
32.4704646765
 20
33.5555957265
 10
32.4477623842
 20
33.4783812278
  0
ARC
  5
28C
330
1F
100
AcDbEntity
  8
0
  6
Continuous
 62
     7
370
    25
100
AcDbCircle
 10
35.505988291
 20
32.6931968192
 30
0.0
 40
3.234607614032162
100
AcDbArc
 50
180.5554360608
 51
210.7449505697
  0
ARC
  5
28D
330
1F
100
AcDbEntity
  8
0
  6
Continuous
 62
     7
370
    25
100
AcDbCircle
 10
36.0120644278
 20
29.9984223342
 30
0.0
 40
0.0977483330244606
100
AcDbArc
 50
68.5757950419
 51
117.0914289893
  0
LINE
  5
28E
330
1F
100
AcDbEntity
  8
0
  6
Continuous
 62
     7
370
    25
100
AcDbLine
 10
35.96754869
 20
30.0854458121
 30
0.0
 11
35.5655387244
 21
29.8533703988
 31
0.0
  0
LINE
  5
28F
330
1F
100
AcDbEntity
  8
0
  6
Continuous
 62
     7
370
    25
100
AcDbLine
 10
35.5655387244
 20
29.8533703988
 30
0.0
 11
35.5089701819
 21
29.8860267233
 31
0.0
  0
LINE
  5
290
330
1F
100
AcDbEntity
  8
0
  6
Continuous
 62
     7
370
    25
100
AcDbLine
 10
35.5089701819
 20
29.8860267233
 30
0.0
 11
35.9838829494
 21
30.1601880283
 31
0.0
  0
LWPOLYLINE
  5
291
330
1F
100
AcDbEntity
  8
0
  6
Continuous
 62
     7
370
    25
100
AcDbPolyline
 90
      112
 70
   128
 43
0.0
 10
35.9838829494
 20
30.1601880283
 10
36.2709996682
 20
30.0447241642
 10
36.5657964265
 20
29.9359008185
 10
36.8678126331
 20
29.833888017
 10
37.1765764173
 20
29.7388451449
 10
37.4916053659
 20
29.6509206972
 10
37.8124072769
 20
29.5702520472
 10
38.1384809288
 20
29.496965232
 10
38.4693168633
 20
29.431174755
 10
38.8043981818
 20
29.3729834073
 10
39.1432013523
 20
29.3224821072
 10
39.4851970282
 20
29.2797497581
 10
39.8298508745
 20
29.2448531251
 10
40.1766244034
 20
29.2178467307
 10
40.5249758152
 20
29.1987727699
 10
40.8743608449
 20
29.1876610438
 10
41.2242336125
 20
29.1845289134
 10
41.574047476
 20
29.1893812724
 10
41.9232558856
 20
29.2022105393
 10
42.2713132372
 20
29.2229966698
 10
42.6176757253
 20
29.2517071876
 10
42.9618021923
 20
29.2882972352
 10
43.3031549744
 20
29.3327096443
 10
43.6412007412
 20
29.3848750248
 10
43.9754113292
 20
29.4447118735
 10
44.3052645671
 20
29.5121267011
 10
44.6302450915
 20
29.5870141786
 10
44.9498451521
 20
29.6692573016
 10
45.2635654051
 20
29.7587275732
 10
45.5709156933
 20
29.8552852049
 10
45.8714158119
 20
29.9587793349
 10
46.1645962588
 20
30.0690482637
 10
46.4499989684
 20
30.1859197069
 10
46.7271780267
 20
30.3092110643
 10
46.9957003686
 20
30.4387297052
 10
47.2551464543
 20
30.5742732694
 10
47.5051109246
 20
30.7156299833
 10
47.7452032345
 20
30.8625789909
 10
47.9750482632
 20
31.0148906988
 10
48.1942869003
 20
31.1723271348
 10
48.402576607
 20
31.3346423199
 10
48.5995919509
 20
31.5015826524
 10
48.7850251148
 20
31.6728873045
 10
48.9585863776
 20
31.8482886294
 10
49.1200045667
 20
32.0275125796
 10
49.2690274821
 20
32.2102791353
 10
49.4054222899
 20
32.3963027417
 10
49.5289758867
 20
32.5852927549
 10
49.6394952321
 20
32.7769538967
 10
49.7368076504
 20
32.9709867152
 10
49.8207611003
 20
33.1670880531
 10
49.891224413
 20
33.3649515213
 10
49.9480874964
 20
33.5642679775
 10
49.9912615074
 20
33.7647260092
 10
50.0206789908
 20
33.9660124203
 10
50.0362939849
 20
34.1678127205
 10
50.0380820925
 20
34.3698116166
 10
50.0260405201
 20
34.571693505
 10
50.0001880814
 20
34.7731429651
 10
49.9605651682
 20
34.9738452518
 10
49.9072336876
 20
35.1734867874
 10
49.8402769647
 20
35.3717556515
 10
49.7597996128
 20
35.5683420685
 10
49.66592737
 20
35.7629388912
 10
49.5588069025
 20
35.9552420812
 10
49.4386055755
 20
36.1449511835
 10
49.3055111917
 20
36.3317697963
 10
49.1597316983
 20
36.5154060337
 10
49.0014948613
 20
36.6955729821
 10
48.8310479104
 20
36.8719891482
 10
48.6486571522
 20
37.044378899
 10
48.4546075544
 20
37.2124728925
 10
48.2492023007
 20
37.3760084982
 10
48.0327623165
 20
37.5347302076
 10
47.8056257682
 20
37.6883900338
 10
47.5681475344
 20
37.8367478981
 10
47.3206986517
 20
37.979572006
 10
47.0636657346
 20
38.1166392088
 10
46.7974503721
 20
38.2477353524
 10
46.5224684995
 20
38.3726556118
 10
46.2391497492
 20
38.4912048115
 10
45.9479367789
 20
38.6031977297
 10
45.6492845804
 20
38.7084593887
 10
45.3436597687
 20
38.8068253273
 10
45.0315398525
 20
38.8981418584
 10
44.7134124887
 20
38.9822663088
 10
44.3897747202
 20
39.0590672423
 10
44.0611321994
 20
39.128424665
 10
43.7279983979
 20
39.1902302127
 10
43.3908938049
 20
39.2443873202
 10
43.0503451132
 20
39.2908113723
 10
42.706884397
 20
39.3294298361
 10
42.3610482798
 20
39.360182374
 10
42.0133770969
 20
39.3830209381
 10
41.6644140505
 20
39.3979098454
 10
41.3147043611
 20
39.4048258334
 10
40.964794416
 20
39.4037580966
 10
40.6152309152
 20
39.3947083033
 10
40.2665600176
 20
39.3776905927
 10
39.9193264872
 20
39.3527315535
 10
39.5740728424
 20
39.3198701818
 10
39.2313385085
 20
39.2791578201
 10
38.8916589741
 20
39.2306580775
 10
38.5555649554
 20
39.1744467303
 10
38.2235815664
 20
39.110611603
 10
37.8962274986
 20
39.0392524319
 10
37.5740142108
 20
38.9604807086
 10
37.2574451296
 20
38.8744195063
 10
36.9470148634
 20
38.7812032872
 10
36.6432084291
 20
38.6809776925
 10
36.3465004944
 20
38.5738993149
 10
36.1053224096
 20
38.4796829575
  0
LWPOLYLINE
  5
292
330
1F
100
AcDbEntity
  8
0
  6
Continuous
 62
     7
370
    25
100
AcDbPolyline
 90
      113
 70
   128
 43
0.0
 10
36.0604552803
 20
38.5055841999
 10
36.302637335
 20
38.600450963
 10
36.6003227813
 20
38.7082065137
 10
36.9051323324
 20
38.8091065777
 10
37.2165925045
 20
38.9029944194
 10
37.5342194833
 20
38.9897241956
 10
37.8575198749
 20
39.0691611826
 10
38.1859914724
 20
39.1411819849
 10
38.5191240362
 20
39.2056747271
 10
38.8564000864
 20
39.2625392279
 10
39.1972957068
 20
39.3116871552
 10
39.5412813585
 20
39.3530421641
 10
39.8878227029
 20
39.3865400145
 10
40.2363814311
 20
39.4121286717
 10
40.5864161007
 20
39.4297683871
 10
40.9373829765
 20
39.4394317595
 10
41.2887368752
 20
39.441103778
 10
41.6399320125
 20
39.4347818453
 10
41.9904228504
 20
39.4204757819
 10
42.3396649453
 20
39.3982078104
 10
42.6871157931
 20
39.3680125212
 10
43.0322356722
 20
39.3299368191
 10
43.374488482
 20
39.2840398499
 10
43.7133425756
 20
39.2303929087
 10
44.0482715852
 20
39.1690793295
 10
44.3787552406
 20
39.1001943551
 10
44.7042801766
 20
39.0238449899
 10
45.0243407308
 20
38.940149833
 10
45.338439729
 20
38.8492388944
 10
45.6460892578
 20
38.7512533929
 10
45.946811422
 20
38.6463455368
 10
46.2401390871
 20
38.5346782873
 10
46.5256166053
 20
38.4164251056
 10
46.8028005229
 20
38.2917696832
 10
47.0712602693
 20
38.1609056567
 10
47.3305788256
 20
38.0240363071
 10
47.580353373
 20
37.8813742439
 10
47.8201959178
 20
37.7331410747
 10
48.0497338946
 20
37.5795670614
 10
48.2686107448
 20
37.4208907619
 10
48.4764864704
 20
37.2573586601
 10
48.6730381626
 20
37.0892247826
 10
48.8579605027
 20
36.9167503046
 10
49.0309662369
 20
36.7402031435
 10
49.1917866226
 20
36.5598575434
 10
49.3401718452
 20
36.3759936487
 10
49.4758914069
 20
36.1888970689
 10
49.5987344842
 20
35.9988584352
 10
49.7085102558
 20
35.806172949
 10
49.8050481986
 20
35.6111399231
 10
49.8881983531
 20
35.414062317
 10
49.9578315559
 20
35.2152462661
 10
50.0138396404
 20
35.0150006064
 10
50.0561356051
 20
34.8136363944
 10
50.0846537485
 20
34.6114664245
 10
50.0993497712
 20
34.4088047424
 10
50.1002008448
 20
34.2059661576
 10
50.0872056472
 20
34.0032657548
 10
50.0603843649
 20
33.8010184036
 10
50.0197786613
 20
33.5995382701
 10
49.9654516124
 20
33.3991383284
 10
49.8974876085
 20
33.200129875
 10
49.8159922231
 20
33.0028220446
 10
49.7210920492
 20
32.8075213303
 10
49.6129345023
 20
32.6145311073
 10
49.4916875918
 20
32.424151162
 10
49.3575396594
 20
32.2366772258
 10
49.2106990874
 20
32.052400516
 10
49.0513939742
 20
31.8716072836
 10
48.8798717804
 20
31.6945783683
 10
48.6963989444
 20
31.5215887623
 10
48.5012604683
 20
31.3529071835
 10
48.2947594753
 20
31.1887956576
 10
48.0772167391
 20
31.0295091115
 10
47.848970185
 20
30.8752949768
 10
47.6103743657
 20
30.7263928061
 10
47.36179991
 20
30.5830339001
 10
47.1036329472
 20
30.4454409492
 10
46.8362745075
 20
30.3138276868
 10
46.5601398989
 20
30.1883985576
 10
46.2756580621
 20
30.0693484003
 10
45.983270904
 20
29.9568621442
 10
45.6834326117
 20
29.8511145228
 10
45.3766089465
 20
29.7522698019
 10
45.0632765207
 20
29.6604815243
 10
44.7439220571
 20
29.5758922717
 10
44.419041633
 20
29.498633443
 10
44.0891399096
 20
29.4288250501
 10
43.7547293481
 20
29.3665755316
 10
43.4163294136
 20
29.3119815844
 10
43.074465768
 20
29.2651280133
 10
42.729669454
 20
29.2260875996
 10
42.3824760695
 20
29.1949209876
 10
42.0334249362
 20
29.1716765908
 10
41.6830582615
 20
29.1563905165
 10
41.3319202962
 20
29.1490865097
 10
40.9805564893
 20
29.1497759162
 10
40.6295126408
 20
29.1584576651
 10
40.2793340533
 20
29.1751182705
 10
39.9305646857
 20
29.1997318521
 10
39.5837463076
 20
29.2322601758
 10
39.2394176581
 20
29.2726527129
 10
38.8981136087
 20
29.3208467187
 10
38.5603643328
 20
29.3767673298
 10
38.2266944817
 20
29.4403276805
 10
37.8976223698
 20
29.5114290377
 10
37.5736591697
 20
29.5899609543
 10
37.2553081176
 20
29.6758014408
 10
36.9430637324
 20
29.7688171548
 10
36.6374110465
 20
29.8688636079
 10
36.3388248534
 20
29.9757853904
 10
36.0477689694
 20
30.0894164127
 10
36.0477689694
 20
30.0894164127
  0
LWPOLYLINE
  5
293
330
1F
100
AcDbEntity
  8
0
  6
Continuous
 62
     7
370
    25
100
AcDbPolyline
 90
       57
 70
   128
 43
0.0
 10
50.1015326656
 20
32.6618404159
 10
50.1002008448
 20
32.5728845339
 10
50.0872056472
 20
32.370184131
 10
50.0603843649
 20
32.1679367798
 10
50.0197786613
 20
31.9664566463
 10
49.9654516124
 20
31.7660567046
 10
49.8974876085
 20
31.5670482512
 10
49.8159922231
 20
31.3697404208
 10
49.7210920492
 20
31.1744397065
 10
49.6129345023
 20
30.9814494835
 10
49.4916875918
 20
30.7910695382
 10
49.3575396594
 20
30.603595602
 10
49.2106990874
 20
30.4193188923
 10
49.0513939742
 20
30.2385256598
 10
48.8798717804
 20
30.0614967445
 10
48.6963989444
 20
29.8885071385
 10
48.5012604683
 20
29.7198255597
 10
48.2947594753
 20
29.5557140339
 10
48.0772167391
 20
29.3964274877
 10
47.848970185
 20
29.242213353
 10
47.6103743657
 20
29.0933111823
 10
47.36179991
 20
28.9499522764
 10
47.1036329472
 20
28.8123593254
 10
46.8362745075
 20
28.680746063
 10
46.5601398989
 20
28.5553169339
 10
46.2756580621
 20
28.4362667765
 10
45.983270904
 20
28.3237805204
 10
45.6834326117
 20
28.2180328991
 10
45.3766089465
 20
28.1191881781
 10
45.0632765207
 20
28.0273999005
 10
44.7439220571
 20
27.942810648
 10
44.419041633
 20
27.8655518192
 10
44.0891399096
 20
27.7957434263
 10
43.7547293481
 20
27.7334939078
 10
43.4163294136
 20
27.6788999606
 10
43.074465768
 20
27.6320463895
 10
42.729669454
 20
27.5930059758
 10
42.3824760695
 20
27.5618393638
 10
42.0334249362
 20
27.5385949671
 10
41.6830582615
 20
27.5233088928
 10
41.3319202962
 20
27.5160048859
 10
40.9805564893
 20
27.5166942924
 10
40.6295126408
 20
27.5253760414
 10
40.2793340533
 20
27.5420366467
 10
39.9305646857
 20
27.5666502283
 10
39.5837463076
 20
27.599178552
 10
39.2394176581
 20
27.6395710891
 10
38.8981136087
 20
27.6877650949
 10
38.5603643328
 20
27.743685706
 10
38.2266944817
 20
27.8072460567
 10
37.8976223698
 20
27.8783474139
 10
37.5736591697
 20
27.9568793305
 10
37.2553081176
 20
28.0427198171
 10
36.9430637324
 20
28.135735531
 10
36.6374110465
 20
28.2357819841
 10
36.3388248534
 20
28.3427037666
 10
36.0477689694
 20
28.4563347889
  0
LWPOLYLINE
  5
294
330
1F
100
AcDbEntity
  8
0
  6
Continuous
 62
     7
370
    25
100
AcDbPolyline
 90
       53
 70
   128
 43
0.0
 10
49.9253029471
 20
33.4783812278
 10
49.9072336876
 20
33.5404051637
 10
49.8402769647
 20
33.7386740278
 10
49.7597996128
 20
33.9352604447
 10
49.66592737
 20
34.1298572674
 10
49.5588069025
 20
34.3221604574
 10
49.4386055755
 20
34.5118695597
 10
49.3055111917
 20
34.6986881725
 10
49.1597316983
 20
34.8823244099
 10
49.0014948613
 20
35.0624913583
 10
48.8310479104
 20
35.2389075244
 10
48.6486571522
 20
35.4112972753
 10
48.4546075544
 20
35.5793912687
 10
48.2492023007
 20
35.7429268744
 10
48.0327623165
 20
35.9016485839
 10
47.8056257682
 20
36.05530841
 10
47.5681475344
 20
36.2036662744
 10
47.3206986517
 20
36.3464903823
 10
47.0636657346
 20
36.4835575851
 10
46.7974503721
 20
36.6146537286
 10
46.5224684995
 20
36.7395739881
 10
46.2391497492
 20
36.8581231877
 10
45.9479367789
 20
36.970116106
 10
45.6492845804
 20
37.0753777649
 10
45.3436597687
 20
37.1737437035
 10
45.0315398525
 20
37.2650602346
 10
44.7134124887
 20
37.349184685
 10
44.3897747202
 20
37.4259856186
 10
44.0611321994
 20
37.4953430412
 10
43.7279983979
 20
37.5571485889
 10
43.3908938049
 20
37.6113056964
 10
43.0503451132
 20
37.6577297486
 10
42.706884397
 20
37.6963482124
 10
42.3610482798
 20
37.7271007502
 10
42.0133770969
 20
37.7499393143
 10
41.6644140505
 20
37.7648282216
 10
41.3147043611
 20
37.7717442096
 10
40.964794416
 20
37.7706764728
 10
40.6152309152
 20
37.7616266795
 10
40.2665600176
 20
37.744608969
 10
39.9193264872
 20
37.7196499298
 10
39.5740728424
 20
37.686788558
 10
39.2313385085
 20
37.6460761963
 10
38.8916589741
 20
37.5975764538
 10
38.5555649554
 20
37.5413651065
 10
38.2235815664
 20
37.4775299792
 10
37.8962274986
 20
37.4061708081
 10
37.5740142108
 20
37.3273990848
 10
37.2574451296
 20
37.2413378825
 10
36.9470148634
 20
37.1481216634
 10
36.6432084291
 20
37.0478960687
 10
36.3465004944
 20
36.9408176911
 10
36.2589377252
 20
36.9073809948
  0
LINE
  5
295
330
1F
100
AcDbEntity
  8
0
  6
Continuous
 62
     7
370
    25
100
AcDbLine
 10
35.5655387244
 20
28.2202887751
 30
0.0
 11
35.5655387244
 21
29.8533703988
 31
0.0
  0
LINE
  5
296
330
1F
100
AcDbEntity
  8
0
  6
Continuous
 62
     7
370
    25
100
AcDbLine
 10
35.96754869
 20
28.4523641883
 30
0.0
 11
35.5655387244
 21
28.2202887751
 31
0.0
  0
LINE
  5
297
330
1F
100
AcDbEntity
  8
0
  6
Continuous
 62
     7
370
    25
100
AcDbLine
 10
35.5089701819
 20
28.2529450995
 30
0.0
 11
35.5089701819
 21
29.8860267233
 31
0.0
  0
LINE
  5
298
330
1F
100
AcDbEntity
  8
0
  6
Continuous
 62
     7
370
    25
100
AcDbLine
 10
35.5655387244
 20
28.2202887751
 30
0.0
 11
35.5089701819
 21
28.2529450995
 31
0.0
  0
ARC
  5
299
330
1F
100
AcDbEntity
  8
0
  6
Continuous
 62
     7
370
    25
100
AcDbCircle
 10
36.0120644278
 20
28.3653407105
 30
0.0
 40
0.0977483330244248
100
AcDbArc
 50
68.5757950418
 51
117.0914289894
  0
ARC
  5
29A
330
1F
100
AcDbEntity
  8
0
  6
Continuous
 62
     7
370
    25
100
AcDbCircle
 10
34.3202517055
 20
37.1974203155
 30
0.0
 40
0.1536804807572345
100
AcDbArc
 50
122.60547834
 51
177.3945215143
  0
ARC
  5
29B
330
1F
100
AcDbEntity
  8
0
  6
Continuous
 62
     7
370
    25
100
AcDbCircle
 10
34.1960353075
 20
37.2621506015
 30
0.0
 40
0.0768402403786011
100
AcDbArc
 50
2.6054784857
 51
57.39452166
  0
ARC
  5
29C
330
1F
100
AcDbEntity
  8
0
  6
Continuous
 62
     7
370
    25
100
AcDbCircle
 10
34.3142015786
 20
37.2009133581
 30
0.0
 40
0.0768402403786148
100
AcDbArc
 50
122.60547834
 51
177.3945215143
  0
ARC
  5
29D
330
1F
100
AcDbEntity
  8
0
  6
Continuous
 62
     7
370
    25
100
AcDbCircle
 10
34.2020854345
 20
37.2726419549
 30
0.0
 40
0.0768510953955647
100
AcDbArc
 50
242.6096722366
 51
297.3903277634
  0
LINE
  5
29E
330
1F
100
AcDbEntity
  8
0
  6
Continuous
 62
     7
370
    25
100
AcDbLine
 10
34.3611844602
 20
35.5406928852
 30
0.0
 11
34.3611844602
 21
37.2554285902
 31
0.0
  0
LINE
  5
29F
330
1F
100
AcDbEntity
  8
0
  6
Continuous
 62
     7
370
    25
100
AcDbLine
 10
34.5733164946
 20
35.663154102
 30
0.0
 11
34.3611844602
 21
35.5406928852
 31
0.0
  0
LINE
  5
2A0
330
1F
100
AcDbEntity
  8
0
  6
Continuous
 62
     7
370
    25
100
AcDbLine
 10
34.5733164946
 20
37.3778898069
 30
0.0
 11
34.5733164946
 21
35.663154102
 31
0.0
  0
LINE
  5
2A1
330
1F
100
AcDbEntity
  8
0
  6
Continuous
 62
     7
370
    25
100
AcDbLine
 10
34.3611844602
 20
37.2554285902
 30
0.0
 11
34.5733164946
 21
37.3778898069
 31
0.0
  0
LINE
  5
2A2
330
1F
100
AcDbEntity
  8
0
  6
Continuous
 62
     7
370
    25
100
AcDbLine
 10
35.6728675393
 20
36.303014789
 30
0.0
 11
35.6728675393
 21
38.0075437338
 31
0.0
  0
ARC
  5
2A3
330
1F
100
AcDbEntity
  8
0
  6
Continuous
 62
     7
370
    25
100
AcDbCircle
 10
35.6987320014
 20
36.2988191572
 30
0.0
 40
0.0262025518457041
100
AcDbArc
 50
170.7859630095
 51
309.2032852357
  0
LINE
  5
2A4
330
1F
100
AcDbEntity
  8
0
  6
Continuous
 62
     7
370
    25
100
AcDbLine
 10
36.2010507581
 20
36.5589360222
 30
0.0
 11
35.7152939462
 21
36.2785145836
 31
0.0
  0
ARC
  5
2A5
330
1F
100
AcDbEntity
  8
0
  6
Continuous
 62
     7
370
    25
100
AcDbCircle
 10
36.0448979029
 20
36.6784407149
 30
0.0
 40
0.1966343962374568
100
AcDbArc
 50
301.155470671
 51
322.5729586838
  0
LINE
  5
2A6
330
1F
100
AcDbEntity
  8
0
  6
Continuous
 62
     7
370
    25
100
AcDbLine
 10
35.6318502345
 20
36.212992062
 30
0.0
 11
36.1466290827
 21
36.5101675655
 31
0.0
  0
SPLINE
  5
2A7
330
1F
100
AcDbEntity
  8
0
  6
Continuous
 62
     7
370
    25
100
AcDbSpline
210
0.0
220
0.0
230
1.0
 70
     8
 71
     3
 72
    20
 73
    16
 74
     0
 42
0.00000001
 43
0.00000001
 40
0.0
 40
0.0
 40
0.0
 40
0.0
 40
0.1239029896577535
 40
0.2061282877615549
 40
0.2882714449488387
 40
0.3509842751128591
 40
0.4135190765922707
 40
0.4568148359676292
 40
0.5000232652425916
 40
0.5414170221020893
 40
0.5828842944035253
 40
0.6452838950581864
 40
0.7078682601829712
 40
0.8537108360063099
 40
1.0
 40
1.0
 40
1.0
 40
1.0
 10
34.62847593504622
 20
35.6337564082724
 30
0.0
 10
34.66368814032071
 20
35.69829284720392
 30
0.0
 10
34.7222680955065
 20
35.80565737240164
 30
0.0
 10
34.80810422635293
 20
35.95377631701913
 30
0.0
 10
34.88042562229167
 20
36.0674864781509
 30
0.0
 10
34.95193312324801
 20
36.16640862857265
 30
0.0
 10
35.01543222859022
 20
36.24014101588716
 30
0.0
 10
35.07565301394824
 20
36.29556037922703
 30
0.0
 10
35.12940123559098
 20
36.33341124560985
 30
0.0
 10
35.1823767391772
 20
36.35756052448595
 30
0.0
 10
35.24124067694466
 20
36.37214388222978
 30
0.0
 10
35.30430445000144
 20
36.37269255398429
 30
0.0
 10
35.39808339890914
 20
36.35220317048226
 30
0.0
 10
35.50787454725969
 20
36.29842320892697
 30
0.0
 10
35.59048291034576
 20
36.24149811849566
 30
0.0
 10
35.63185023449314
 20
36.21299206196554
 30
0.0
  0
LINE
  5
2A8
330
1F
100
AcDbEntity
  8
0
  6
Continuous
 62
     7
370
    25
100
AcDbLine
 10
34.2727961126
 20
35.4284268173
 30
0.0
 11
34.628475935
 21
35.6337564083
 31
0.0
  0
ARC
  5
2A9
330
1F
100
AcDbEntity
  8
0
  6
Continuous
 62
     7
370
    25
100
AcDbCircle
 10
34.2589944919
 20
35.4453472953
 30
0.0
 40
0.021835459871443
100
AcDbArc
 50
170.7859630096
 51
309.2032852357
  0
LINE
  5
2AA
330
1F
100
AcDbEntity
  8
0
  6
Continuous
 62
     7
370
    25
100
AcDbLine
 10
34.2374407735
 20
37.2044064007
 30
0.0
 11
34.2374407735
 21
35.4488436551
 31
0.0
  0
LINE
  5
2AB
330
1F
100
AcDbEntity
  8
0
  6
Continuous
 62
     7
370
    25
100
AcDbLine
 10
34.628475935
 20
37.470973235
 30
0.0
 11
34.2727961126
 21
37.2656436441
 31
0.0
  0
SPLINE
  5
2AC
330
1F
100
AcDbEntity
  8
0
  6
Continuous
 62
     7
370
    25
100
AcDbSpline
210
0.0
220
0.0
230
1.0
 70
     8
 71
     3
 72
    20
 73
    16
 74
     0
 42
0.00000001
 43
0.00000001
 40
0.0
 40
0.0
 40
0.0
 40
0.0
 40
0.1239029896577534
 40
0.2061282877615548
 40
0.2882714449488378
 40
0.3509842751128583
 40
0.4135190765922711
 40
0.4568148359676295
 40
0.500023265242592
 40
0.5414170221020898
 40
0.582884294403526
 40
0.6452838950581871
 40
0.7078682601829721
 40
0.8537108360063099
 40
1.0
 40
1.0
 40
1.0
 40
1.0
 10
35.63185023449314
 20
38.05020888870848
 30
0.0
 10
35.59663802921865
 20
37.98567244977696
 30
0.0
 10
35.53805807403285
 20
37.87830792457924
 30
0.0
 10
35.45222194318642
 20
37.73018897996176
 30
0.0
 10
35.37990054724768
 20
37.61647881882998
 30
0.0
 10
35.30839304629135
 20
37.51755666840823
 30
0.0
 10
35.24489394094913
 20
37.44382428109372
 30
0.0
 10
35.18467315559112
 20
37.38840491775385
 30
0.0
 10
35.13092493394838
 20
37.35055405137104
 30
0.0
 10
35.07794943036215
 20
37.32640477249493
 30
0.0
 10
35.01908549259468
 20
37.31182141475112
 30
0.0
 10
34.95602171953791
 20
37.31127274299659
 30
0.0
 10
34.86224277063021
 20
37.33176212649862
 30
0.0
 10
34.75245162227966
 20
37.38554208805391
 30
0.0
 10
34.66984325919359
 20
37.44246717848523
 30
0.0
 10
34.62847593504622
 20
37.47097323501534
 30
0.0
  0
LINE
  5
2AD
330
1F
100
AcDbEntity
  8
0
  6
Continuous
 62
     7
370
    25
100
AcDbLine
 10
36.1466290827
 20
38.3473843922
 30
0.0
 11
35.6318502345
 21
38.0502088887
 31
0.0
  0
ARC
  5
2AE
330
1F
100
AcDbEntity
  8
0
  6
Continuous
 62
     7
370
    25
100
AcDbCircle
 10
36.1954691099
 20
38.2707301598
 30
0.0
 40
0.0908912515057703
100
AcDbArc
 50
86.4792405365
 51
122.5031342987
  0
LINE
  5
2AF
330
1F
100
AcDbEntity
  8
0
  6
Continuous
 62
     7
370
    25
100
AcDbLine
 10
35.7152939462
 20
38.0810284259
 30
0.0
 11
36.2010507581
 21
38.3614498644
 31
0.0
  0
ARC
  5
2B0
330
1F
100
AcDbEntity
  8
0
  6
Continuous
 62
     7
370
    25
100
AcDbCircle
 10
35.7649805054
 20
38.0033520827
 30
0.0
 40
0.0922082884543159
100
AcDbArc
 50
122.60547834
 51
177.3945215143
  0
LINE
  5
2B1
330
1F
100
AcDbEntity
  8
0
  6
Continuous
 62
     7
370
    25
100
AcDbLine
 10
33.7954990353
 20
37.41871353
 30
0.0
 11
34.1667300954
 21
37.2044064007
 31
0.0
  0
ARC
  5
2B2
330
1F
100
AcDbEntity
  8
0
  6
Continuous
 62
     7
370
    25
100
AcDbCircle
 10
33.9490206454
 20
37.4117274448
 30
0.0
 40
0.1536804807572525
100
AcDbArc
 50
122.60547834
 51
177.3945215143
  0
LINE
  5
2B3
330
1F
100
AcDbEntity
  8
0
  6
Continuous
 62
     7
370
    25
100
AcDbLine
 10
33.8662097134
 20
37.5411880168
 30
0.0
 11
34.2374407735
 21
37.3268808875
 31
0.0
  0
LINE
  5
2B4
330
1F
100
AcDbEntity
  8
0
  6
Continuous
 62
     7
370
    25
100
AcDbLine
 10
34.1667300954
 20
35.4488436551
 30
0.0
 11
34.1667300954
 21
37.2044064007
 31
0.0
  0
ARC
  5
2B5
330
1F
100
AcDbEntity
  8
0
  6
Continuous
 62
     7
370
    25
100
AcDbCircle
 10
34.2020854345
 20
35.5170792094
 30
0.0
 40
0.076851095395571
100
AcDbArc
 50
242.6096722366
 51
297.3903277634
  0
LINE
  5
2B6
330
1F
100
AcDbEntity
  8
0
  6
Continuous
 62
     7
370
    25
100
AcDbLine
 10
34.2374407735
 20
37.3268808875
 30
0.0
 11
34.6086718336
 21
37.5411880168
 31
0.0
  0
SPLINE
  5
2B7
330
1F
100
AcDbEntity
  8
0
  6
Continuous
 62
     7
370
    25
100
AcDbSpline
210
0.0
220
0.0
230
1.0
 70
     8
 71
     3
 72
    13
 73
     9
 74
     0
 42
0.00000001
 43
0.00000001
 40
0.0
 40
0.0
 40
0.0
 40
0.0
 40
0.1922889284723052
 40
0.3843300401582794
 40
0.5831191549537502
 40
0.7979401069482173
 40
0.9960078014241843
 40
1.0
 40
1.0
 40
1.0
 40
1.0
 10
34.6086718336446
 20
37.54118801681271
 30
0.0
 10
34.612248053693
 20
37.53854829005582
 30
0.0
 10
34.61939588485384
 20
37.53327223855072
 30
0.0
 10
34.6270418327925
 20
37.51999446634193
 30
0.0
 10
34.63155670977555
 20
37.50414722594282
 30
0.0
 10
34.63217020436997
 20
37.48718202378164
 30
0.0
 10
34.63006944344932
 20
37.4761046953501
 30
0.0
 10
34.62850680880211
 20
37.47107265554768
 30
0.0
 10
34.62847593504622
 20
37.47097323501534
 30
0.0
  0
LINE
  5
2B8
330
1F
100
AcDbEntity
  8
0
  6
Continuous
 62
     7
370
    25
100
AcDbLine
 10
34.2374407735
 20
37.7554951462
 30
0.0
 11
33.8662097134
 21
37.5411880168
 31
0.0
  0
LINE
  5
2B9
330
1F
100
AcDbEntity
  8
0
  6
Continuous
 62
     7
370
    25
100
AcDbLine
 10
34.2374407735
 20
37.7554951462
 30
0.0
 11
34.6086718336
 21
37.5411880168
 31
0.0
  0
ELLIPSE
  5
2BA
330
1F
100
AcDbEntity
  8
0
  6
Continuous
 62
     7
370
    25
100
AcDbEllipse
 10
34.3258291212
 20
37.275838793
 30
0.0
 11
0.05000000005941985
 21
-0.02886907748494849
 31
0.0
210
0.0
220
0.0
230
1.0
 40
0.0000703729
 41
0.000040632575137
 42
0.7854387949670514
  0
ELLIPSE
  5
2BB
330
1F
100
AcDbEntity
  8
0
  6
Continuous
 62
     7
370
    25
100
AcDbEllipse
 10
34.3258291212
 20
35.561103088
 30
0.0
 11
0.03535677558937778
 21
0.0612364140313133
 31
0.0
210
0.0
220
0.0
230
1.0
 40
0.5773346305
 41
4.712429612415723
 42
5.497827775813256
  0
ELLIPSE
  5
2BC
330
1F
100
AcDbEntity
  8
0
  6
Continuous
 62
     7
370
    25
100
AcDbEllipse
 10
34.5379611555
 20
37.3983000097
 30
0.0
 11
0.03535677558937778
 21
0.0612364140313133
 31
0.0
210
0.0
220
0.0
230
1.0
 40
0.5773346305
 41
3.926950184956229
 42
4.712429612415723
  0
SPLINE
  5
2BD
330
1F
100
AcDbEntity
  8
0
  6
Continuous
 62
     7
370
    25
100
AcDbSpline
210
0.0
220
0.0
230
1.0
 70
     8
 71
     3
 72
    11
 73
     7
 74
     0
 42
0.00000001
 43
0.00000001
 40
0.0
 40
0.0
 40
0.0
 40
0.0
 40
0.4487974481526964
 40
0.6738778771074181
 40
0.8999056811890219
 40
1.0
 40
1.0
 40
1.0
 40
1.0
 10
34.60867183364459
 20
37.5411880168127
 30
0.0
 10
34.65097328854895
 20
37.51213411089279
 30
0.0
 10
34.71448972507692
 20
37.46850912032391
 30
0.0
 10
34.8047280456214
 20
37.41963148870546
 30
0.0
 10
34.86265508522057
 20
37.39402816765578
 30
0.0
 10
34.90078391089391
 20
37.38719589119861
 30
0.0
 10
34.91248651726415
 20
37.38509890970026
 30
0.0
  0
SPLINE
  5
2BE
330
1F
100
AcDbEntity
  8
0
  6
Continuous
 62
     7
370
    25
100
AcDbSpline
210
0.0
220
0.0
230
1.0
 70
     8
 71
     3
 72
     9
 73
     5
 74
     0
 42
0.00000001
 43
0.00000001
 40
0.0
 40
0.0
 40
0.0
 40
0.0
 40
0.4856054390179873
 40
0.9999999999999999
 40
0.9999999999999999
 40
0.9999999999999999
 40
0.9999999999999999
 10
34.53989894165901
 20
37.60048274419236
 30
0.0
 10
34.52840306222796
 20
37.60204336650887
 30
0.0
 10
34.50472977007065
 20
37.60525713264721
 30
0.0
 10
34.48392392647983
 20
37.61458408734677
 30
0.0
 10
34.47322151370006
 20
37.61938182211475
 30
0.0
  0
LINE
  5
2BF
330
1F
100
AcDbEntity
  8
0
  6
Continuous
 62
     7
370
    25
100
AcDbLine
 10
35.2097125977
 20
38.316775723
 30
0.0
 11
35.5809436578
 21
38.1024685937
 31
0.0
  0
SPLINE
  5
2C0
330
1F
100
AcDbEntity
  8
0
  6
Continuous
 62
     7
370
    25
100
AcDbSpline
210
0.0
220
0.0
230
1.0
 70
     8
 71
     3
 72
    13
 73
     9
 74
     0
 42
0.00000001
 43
0.00000001
 40
0.0
 40
0.0
 40
0.0
 40
0.0
 40
0.1922889284723053
 40
0.3843300401582734
 40
0.583119154953752
 40
0.7979401069482218
 40
0.9960078014241781
 40
1.0
 40
1.0
 40
1.0
 40
1.0
 10
35.5809436577761
 20
38.10246859369082
 30
0.0
 10
35.58482425673967
 20
38.10000458114148
 30
0.0
 10
35.59258045345548
 20
38.09507973159571
 30
0.0
 10
35.60491674063937
 20
38.0845096345987
 30
0.0
 10
35.61643796926541
 20
38.07270707490964
 30
0.0
 10
35.62584074541426
 20
38.0608158169879
 30
0.0
 10
35.63024233835834
 20
38.05349221754212
 30
0.0
 10
35.63181908197918
 20
38.05027250223742
 30
0.0
 10
35.63185023449314
 20
38.05020888870848
 30
0.0
  0
ELLIPSE
  5
2C1
330
1F
100
AcDbEntity
  8
0
  6
Continuous
 62
     7
370
    25
100
AcDbEllipse
 10
34.5379611555
 20
35.6835643048
 30
0.0
 11
0.05000000005941985
 21
-0.02886907748494139
 31
0.0
210
0.0
220
0.0
230
1.0
 40
0.0000703729
 41
0.7854387957182453
 42
2.356235123327131
  0
SPLINE
  5
2C2
330
1F
100
AcDbEntity
  8
0
  6
Continuous
 62
     7
370
    25
100
AcDbSpline
210
0.0
220
0.0
230
1.0
 70
     8
 71
     3
 72
    10
 73
     6
 74
     0
 42
0.00000001
 43
0.00000001
 40
0.0
 40
0.0
 40
0.0
 40
0.0
 40
0.3953546167931486
 40
0.7901997112161161
 40
1.0
 40
1.0
 40
1.0
 40
1.0
 10
34.23744077352166
 20
37.75549514616618
 30
0.0
 10
34.23357619591836
 20
37.75711759547664
 30
0.0
 10
34.22585202127519
 20
37.76036040312864
 30
0.0
 10
34.21536004938788
 20
37.75944495743042
 30
0.0
 10
34.20993805713877
 20
37.75594975784623
 30
0.0
 10
34.20805673037892
 20
37.75473699098737
 30
0.0
  0
LINE
  5
2C3
330
1F
100
AcDbEntity
  8
0
  6
Continuous
 62
     7
370
    25
100
AcDbLine
 10
34.4212885366
 20
37.2732128775
 30
0.0
 11
34.4212885366
 21
35.750924609
 31
0.0
  0
LINE
  5
2C4
330
1F
100
AcDbEntity
  8
0
  6
Continuous
 62
     7
370
    25
100
AcDbLine
 10
34.4212885366
 20
35.750924609
 30
0.0
 11
34.5026058165
 21
35.7039811426
 31
0.0
  0
SPLINE
  5
2C5
330
1F
100
AcDbEntity
  8
0
  6
Continuous
 62
     7
370
    25
100
AcDbSpline
210
0.0
220
0.0
230
1.0
 70
     8
 71
     3
 72
    10
 73
     6
 74
     0
 42
0.00000001
 43
0.00000001
 40
0.0
 40
0.0
 40
0.0
 40
0.0
 40
0.3953546167931455
 40
0.7901997112160972
 40
1.0
 40
1.0
 40
1.0
 40
1.0
 10
35.20971259765317
 20
38.31677572304429
 30
0.0
 10
35.20617002014321
 20
38.31858405905193
 30
0.0
 10
35.19908943070169
 20
38.32219840053251
 30
0.0
 10
35.19228691853954
 20
38.32341283459787
 30
0.0
 10
35.19037061867027
 20
38.32194142814692
 30
0.0
 10
35.18970569956705
 20
38.32143087848111
 30
0.0
  0
LINE
  5
2C6
330
1F
100
AcDbEntity
  8
0
  6
Continuous
 62
     7
370
    25
100
AcDbLine
 10
35.5809436578
 20
38.1024685937
 30
0.0
 11
36.1112737437
 21
38.4086216356
 31
0.0
  0
ARC
  5
2C7
330
1F
100
AcDbEntity
  8
0
  6
Continuous
 62
     7
370
    25
100
AcDbCircle
 10
36.0698682777
 20
38.3438913496
 30
0.0
 40
0.0768402403785891
100
AcDbArc
 50
2.6054784857
 51
57.39452166
  0
LINE
  5
2C8
330
1F
100
AcDbEntity
  8
0
  6
Continuous
 62
     7
370
    25
100
AcDbLine
 10
35.7400426835
 20
38.622928765
 30
0.0
 11
35.2097125977
 21
38.316775723
 31
0.0
  0
LINE
  5
2C9
330
1F
100
AcDbEntity
  8
0
  6
Continuous
 62
     7
370
    25
100
AcDbLine
 10
35.7400426835
 20
38.622928765
 30
0.0
 11
36.1112737437
 21
38.4086216356
 31
0.0
  0
ARC
  5
2CA
330
1F
100
AcDbEntity
  8
0
  6
Continuous
 62
     7
370
    25
100
AcDbCircle
 10
35.7105370906
 20
38.0804227856
 30
0.0
 40
0.0047952554640796
100
AcDbArc
 50
304.0563508311
 51
7.2558295624
  0
ARC
  5
2CB
330
1F
100
AcDbEntity
  8
0
  6
Continuous
 62
     7
370
    25
100
AcDbCircle
 10
35.6707919009
 20
38.0121248381
 30
0.0
 40
0.005029392784937
100
AcDbArc
 50
294.3746582936
 51
354.3052007489
  0
ARC
  5
2CC
330
1F
100
AcDbEntity
  8
0
  6
Continuous
 62
     7
370
    25
100
AcDbCircle
 10
36.1962939026
 20
38.3608442242
 30
0.0
 40
0.0047952554481748
100
AcDbArc
 50
304.0563507141
 51
7.2558296793
  0
ARC
  5
2CD
330
1F
100
AcDbEntity
  8
0
  6
Continuous
 62
     7
370
    25
100
AcDbCircle
 10
36.1086244377
 20
38.1611163197
 30
0.0
 40
0.0803795632137228
100
AcDbArc
 50
122.60547834
 51
177.3945215144
  0
LINE
  5
2CE
330
1F
100
AcDbEntity
  8
0
  6
Continuous
 62
     7
370
    25
100
AcDbLine
 10
36.0283279687
 20
38.1647702546
 30
0.0
 11
36.0283279687
 21
36.613342712
 31
0.0
  0
ARC
  5
2CF
330
1F
100
AcDbEntity
  8
0
  6
Continuous
 62
     7
370
    25
100
AcDbCircle
 10
36.0508744685
 20
36.609685307
 30
0.0
 40
0.0228412185905282
100
AcDbArc
 50
170.7859630095
 51
309.2032852358
  0
LINE
  5
2D0
330
1F
100
AcDbEntity
  8
0
  6
Continuous
 62
     7
370
    25
100
AcDbLine
 10
36.0653118029
 20
36.5919854584
 30
0.0
 11
36.136022481
 21
36.632805864
 31
0.0
  0
ARC
  5
2D1
330
1F
100
AcDbEntity
  8
0
  6
Continuous
 62
     7
370
    25
100
AcDbCircle
 10
36.0927098462
 20
36.7005176786
 30
0.0
 40
0.0803795632137425
100
AcDbArc
 50
302.60547834
 51
357.3945215144
  0
LINE
  5
2D2
330
1F
100
AcDbEntity
  8
0
  6
Continuous
 62
     7
370
    25
100
AcDbLine
 10
36.1730063152
 20
36.6968637437
 30
0.0
 11
36.1730063152
 21
38.2482912863
 31
0.0
  0
ARC
  5
2D3
330
1F
100
AcDbEntity
  8
0
  6
Continuous
 62
     7
370
    25
100
AcDbCircle
 10
36.1504598154
 20
38.2519486912
 30
0.0
 40
0.0228412185905315
100
AcDbArc
 50
350.7859630095
 51
129.2032852357
  0
LINE
  5
2D4
330
1F
100
AcDbEntity
  8
0
  6
Continuous
 62
     7
370
    25
100
AcDbLine
 10
36.136022481
 20
38.2696485399
 30
0.0
 11
36.0653118029
 21
38.2288281343
 31
0.0
  0
ARC
  5
2D5
330
1F
100
AcDbEntity
  8
0
  6
Continuous
 62
     7
370
    25
100
AcDbCircle
 10
35.7745117946
 20
36.5168258535
 30
0.0
 40
0.0803795632137373
100
AcDbArc
 50
302.60547834
 51
357.3945215144
  0
LINE
  5
2D6
330
1F
100
AcDbEntity
  8
0
  6
Continuous
 62
     7
370
    25
100
AcDbLine
 10
35.8548082637
 20
36.5131719185
 30
0.0
 11
35.8548082637
 21
38.0645994611
 31
0.0
  0
ARC
  5
2D7
330
1F
100
AcDbEntity
  8
0
  6
Continuous
 62
     7
370
    25
100
AcDbCircle
 10
35.8322617638
 20
38.0682568661
 30
0.0
 40
0.0228412185905393
100
AcDbArc
 50
350.7859630095
 51
129.2032852357
  0
LINE
  5
2D8
330
1F
100
AcDbEntity
  8
0
  6
Continuous
 62
     7
370
    25
100
AcDbLine
 10
35.8178244295
 20
38.0859567148
 30
0.0
 11
35.7471137514
 21
38.0451363092
 31
0.0
  0
ARC
  5
2D9
330
1F
100
AcDbEntity
  8
0
  6
Continuous
 62
     7
370
    25
100
AcDbCircle
 10
35.7904263862
 20
37.9774244945
 30
0.0
 40
0.0803795632137855
100
AcDbArc
 50
122.60547834
 51
177.3945215143
  0
LINE
  5
2DA
330
1F
100
AcDbEntity
  8
0
  6
Continuous
 62
     7
370
    25
100
AcDbLine
 10
35.7101299171
 20
37.9810784294
 30
0.0
 11
35.7101299171
 21
36.4296508869
 31
0.0
  0
ARC
  5
2DB
330
1F
100
AcDbEntity
  8
0
  6
Continuous
 62
     7
370
    25
100
AcDbCircle
 10
35.732676417
 20
36.4259934819
 30
0.0
 40
0.0228412185905256
100
AcDbArc
 50
170.7859630095
 51
309.2032852357
  0
LINE
  5
2DC
330
1F
100
AcDbEntity
  8
0
  6
Continuous
 62
     7
370
    25
100
AcDbLine
 10
35.7471137514
 20
36.4082936332
 30
0.0
 11
35.8178244295
 21
36.4491140388
 31
0.0
  0
LINE
  5
2DD
330
1F
100
AcDbEntity
  8
0
  6
Continuous
 62
     7
370
    25
100
AcDbLine
 10
35.6905452089
 20
36.3091325418
 30
0.0
 11
36.2317764745
 21
36.6215787009
 31
0.0
  0
ARC
  5
2DE
330
1F
100
AcDbEntity
  8
0
  6
Continuous
 62
     7
370
    25
100
AcDbCircle
 10
36.1476956021
 20
38.3228659613
 30
0.0
 40
0.1084930661278377
100
AcDbArc
 50
356.7002399305
 51
39.1960151731
  0
LINE
  5
2DF
330
1F
100
AcDbEntity
  8
0
  6
Continuous
 62
     7
370
    25
100
AcDbLine
 10
36.256008793
 20
36.7243665339
 30
0.0
 11
36.256008793
 21
38.316621117
 31
0.0
  0
ARC
  5
2E0
330
1F
100
AcDbEntity
  8
0
  6
Continuous
 62
     7
370
    25
100
AcDbCircle
 10
35.9994069955
 20
36.7306103131
 30
0.0
 40
0.2566777498425127
100
AcDbArc
 50
334.8632517952
 51
358.6061219199
  0
SPLINE
  5
2E1
330
1F
100
AcDbEntity
  8
0
  6
Continuous
 62
     7
370
    25
100
AcDbSpline
210
0.0
220
0.0
230
1.0
 70
     8
 71
     3
 72
    13
 73
     9
 74
     0
 42
0.00000001
 43
0.00000001
 40
0.0
 40
0.0
 40
0.0
 40
0.0
 40
0.0039921985758096
 40
0.2020598930517654
 40
0.4168808450462459
 40
0.6156699598417187
 40
0.8077110715276937
 40
1.0
 40
1.0
 40
1.0
 40
1.0
 10
35.63185023449314
 20
36.21299206196554
 30
0.0
 10
35.63181908197918
 20
36.21289280235681
 30
0.0
 10
35.63024233835831
 20
36.20786890749147
 30
0.0
 10
35.62584074541427
 20
36.19811982111467
 30
0.0
 10
35.61643796926541
 20
36.18693688897449
 30
0.0
 10
35.60491674063937
 20
36.18034709529322
 30
0.0
 10
35.59258045345548
 20
36.17860482188067
 30
0.0
 10
35.58482425673967
 20
36.18193268252934
 30
0.0
 10
35.5809436577761
 20
36.18359768575931
 30
0.0
  0
SPLINE
  5
2E2
330
1F
100
AcDbEntity
  8
0
  6
Continuous
 62
     7
370
    25
100
AcDbSpline
210
0.0
220
0.0
230
1.0
 70
     8
 71
     3
 72
    11
 73
     7
 74
     0
 42
0.00000001
 43
0.00000001
 40
0.0
 40
0.0
 40
0.0
 40
0.0
 40
0.4487974481526829
 40
0.6738778771074001
 40
0.8999056811889977
 40
1.0
 40
1.0
 40
1.0
 40
1.0
 10
35.5809436577761
 20
36.18359768575931
 30
0.0
 10
35.53864220287174
 20
36.21265159167923
 30
0.0
 10
35.47512576634378
 20
36.25627658224812
 30
0.0
 10
35.38488744579929
 20
36.30515421386657
 30
0.0
 10
35.32696040620012
 20
36.33075753491626
 30
0.0
 10
35.28883158052678
 20
36.33758981137341
 30
0.0
 10
35.27712897415654
 20
36.33968679287176
 30
0.0
  0
SPLINE
  5
2E3
330
1F
100
AcDbEntity
  8
0
  6
Continuous
 62
     7
370
    25
100
AcDbSpline
210
0.0
220
0.0
230
1.0
 70
     8
 71
     3
 72
    11
 73
     7
 74
     0
 42
0.00000001
 43
0.00000001
 40
0.0
 40
0.0
 40
0.0
 40
0.0
 40
0.0077725299352327
 40
0.3933964041258836
 40
0.811637692731518
 40
1.0
 40
1.0
 40
1.0
 40
1.0
 10
34.62847593504622
 20
35.6337564082724
 30
0.0
 10
34.62850681711282
 20
35.63369294766762
 30
0.0
 10
34.63006987239267
 20
35.63048097242503
 30
0.0
 10
34.63203972891678
 20
35.62461161561927
 30
0.0
 10
34.63204016527074
 20
35.61902931294115
 30
0.0
 10
34.62947520284327
 20
35.61798594091184
 30
0.0
 10
34.62867873173071
 20
35.61766195344438
 30
0.0
  0
LINE
  5
2E4
330
1F
100
AcDbEntity
  8
0
  6
Continuous
 62
     7
370
    25
100
AcDbLine
 10
35.3458258473
 20
36.3193283086
 30
0.0
 11
35.5809436578
 21
36.1835976858
 31
0.0
  0
ARC
  5
2E5
330
1F
100
AcDbEntity
  8
0
  6
Continuous
 62
     7
370
    25
100
AcDbCircle
 10
35.8711341611
 20
38.1201719032
 30
0.0
 40
0.0579209050983852
100
AcDbArc
 50
240.4552371535
 51
253.6284325474
  0
LINE
  5
2E6
330
1F
100
AcDbEntity
  8
0
  6
Continuous
 62
     7
370
    25
100
AcDbLine
 10
35.8425731668
 20
36.5183548691
 30
0.0
 11
35.8425731668
 21
38.0697824117
 31
0.0
  0
ARC
  5
2E7
330
1F
100
AcDbEntity
  8
0
  6
Continuous
 62
     7
370
    25
100
AcDbCircle
 10
35.8711341611
 20
36.5687443606
 30
0.0
 40
0.0579209050978002
100
AcDbArc
 50
240.4552371534
 51
253.6284325475
  0
SPLINE
  5
2E8
330
1F
100
AcDbEntity
  8
0
  6
Continuous
 62
     7
370
    25
100
AcDbSpline
210
0.0
220
0.0
230
1.0
 70
     8
 71
     3
 72
    10
 73
     6
 74
     0
 42
0.00000001
 43
0.00000001
 40
0.0
 40
0.0
 40
0.0
 40
0.0
 40
0.5054468997193028
 40
0.8769707977916192
 40
0.9999999999999999
 40
0.9999999999999999
 40
0.9999999999999999
 40
0.9999999999999999
 10
36.20105075809462
 20
38.36144986444371
 30
0.0
 10
36.20780314363497
 20
38.36674350771517
 30
0.0
 10
36.21951880543366
 20
38.37592819272476
 30
0.0
 10
36.22662128752282
 20
38.38864788543096
 30
0.0
 10
36.22727563643147
 20
38.39495117622795
 30
0.0
 10
36.22743841778732
 20
38.39651923603306
 30
0.0
  0
ARC
  5
2E9
330
1F
100
AcDbEntity
  8
0
  6
Continuous
 62
     7
370
    25
100
AcDbCircle
 10
36.1428586884
 20
38.3308144083
 30
0.0
 40
0.1141678114413429
100
AcDbArc
 50
356.7002399306
 51
39.1960151731
  0
SPLINE
  5
2EA
330
1F
100
AcDbEntity
  8
0
  6
Continuous
 62
     7
370
    25
100
AcDbSpline
210
0.0
220
0.0
230
1.0
 70
     8
 71
     3
 72
     9
 73
     5
 74
     0
 42
0.00000001
 43
0.00000001
 40
0.0
 40
0.0
 40
0.0
 40
0.0
 40
0.2914039242903695
 40
1.0
 40
1.0
 40
1.0
 40
1.0
 10
36.23133742291274
 20
38.40296565714491
 30
0.0
 10
36.23093537548415
 20
38.40339842479683
 30
0.0
 10
36.22955568428895
 20
38.40488353743892
 30
0.0
 10
36.22888346421502
 20
38.40551398967808
 30
0.0
 10
36.22840713170861
 20
38.40596072566068
 30
0.0
  0
ARC
  5
2EB
330
1F
100
AcDbEntity
  8
0
  6
Continuous
 62
     7
370
    25
100
AcDbCircle
 10
36.2219219583
 20
38.3919195096
 30
0.0
 40
0.0071825349846596
100
AcDbArc
 50
350.6931920457
 51
39.8219752311
  0
ARC
  5
2EC
330
1F
100
AcDbEntity
  8
0
  6
Continuous
 62
     7
370
    25
100
AcDbCircle
 10
36.2255028159
 20
38.3969678431
 30
0.0
 40
0.0083675810350424
100
AcDbArc
 50
318.5693962899
 51
45.7902428418
  0
ARC
  5
2ED
330
1F
100
AcDbEntity
  8
0
  6
Continuous
 62
     7
370
    25
100
AcDbCircle
 10
36.1893322126
 20
38.3038637284
 30
0.0
 40
0.057920905097645
100
AcDbArc
 50
240.4552371534
 51
253.6284325475
  0
ARC
  5
2EE
330
1F
100
AcDbEntity
  8
0
  6
Continuous
 62
     7
370
    25
100
AcDbCircle
 10
36.254444297
 20
38.3204298531
 30
0.0
 40
0.0045017321506487
100
AcDbArc
 50
3.4806228351
 51
57.889404083
  0
LINE
  5
2EF
330
1F
100
AcDbEntity
  8
0
  6
Continuous
 62
     7
370
    25
100
AcDbLine
 10
36.1607712183
 20
36.7020466943
 30
0.0
 11
36.1607712183
 21
38.2534742369
 31
0.0
  0
ARC
  5
2F0
330
1F
100
AcDbEntity
  8
0
  6
Continuous
 62
     7
370
    25
100
AcDbCircle
 10
36.1893322126
 20
36.7524361858
 30
0.0
 40
0.0579209050971993
100
AcDbArc
 50
240.4552371534
 51
253.6284325475
  0
ARC
  5
2F1
330
1F
100
AcDbEntity
  8
0
  6
Continuous
 62
     7
370
    25
100
AcDbCircle
 10
35.6944212577
 20
36.3076825103
 30
0.0
 40
0.021835459871423
100
AcDbArc
 50
170.7859630095
 51
309.2032852357
  0
ARC
  5
2F2
330
1F
100
AcDbEntity
  8
0
  6
Continuous
 62
     7
370
    25
100
AcDbCircle
 10
35.6999417852
 20
36.2778159751
 30
0.0
 40
0.015368048075682
100
AcDbArc
 50
2.6054784856
 51
57.3945216601
  0
LINE
  5
2F3
330
1F
100
AcDbEntity
  8
0
  6
Continuous
 62
     7
370
    25
100
AcDbLine
 10
35.6976162767
 20
36.2968850932
 30
0.0
 11
35.7082228784
 21
36.2907620323
 31
0.0
  0
ARC
  5
2F4
330
1F
100
AcDbEntity
  8
0
  6
Continuous
 62
     7
370
    25
100
AcDbCircle
 10
35.7071592417
 20
36.3663745697
 30
0.0
 40
0.0579100226578307
100
AcDbArc
 50
46.3745466866
 51
59.5501098024
  0
ARC
  5
2F5
330
1F
100
AcDbEntity
  8
0
  6
Continuous
 62
     7
370
    25
100
AcDbCircle
 10
35.7058973699
 20
36.3098311504
 30
0.0
 40
0.015368048075723
100
AcDbArc
 50
182.6054784857
 51
237.39452166
  0
LINE
  5
2F6
330
1F
100
AcDbEntity
  8
0
  6
Continuous
 62
     7
370
    25
100
AcDbLine
 10
35.7082228784
 20
36.2907620323
 30
0.0
 11
36.1939796903
 21
36.5711834709
 31
0.0
  0
ARC
  5
2F7
330
1F
100
AcDbEntity
  8
0
  6
Continuous
 62
     7
370
    25
100
AcDbCircle
 10
36.1856985971
 20
36.5582374137
 30
0.0
 40
0.0153680480756858
100
AcDbArc
 50
2.6054784856
 51
57.3945216601
  0
LINE
  5
2F8
330
1F
100
AcDbEntity
  8
0
  6
Continuous
 62
     7
370
    25
100
AcDbLine
 10
36.2191343786
 20
36.597951085
 30
0.0
 11
35.6976162767
 21
36.2968850932
 31
0.0
  0
SPLINE
  5
2F9
330
1F
100
AcDbEntity
  8
0
  6
Continuous
 62
     7
370
    25
100
AcDbSpline
210
0.0
220
0.0
230
1.0
 70
     8
 71
     3
 72
    10
 73
     6
 74
     0
 42
0.00000001
 43
0.00000001
 40
0.0
 40
0.0
 40
0.0
 40
0.0
 40
0.5191132368695242
 40
0.8829607080311057
 40
1.0
 40
1.0
 40
1.0
 40
1.0
 10
36.19397969028276
 20
36.57118347088388
 30
0.0
 10
36.20023062112386
 20
36.57518864846864
 30
0.0
 10
36.21086284147447
 20
36.5820010627645
 30
0.0
 10
36.21795929325314
 20
36.59180163039915
 30
0.0
 10
36.21890436494417
 20
36.59674737796414
 30
0.0
 10
36.21913437859823
 20
36.59795108502709
 30
0.0
  0
SPLINE
  5
2FA
330
1F
100
AcDbEntity
  8
0
  6
Continuous
 62
     7
370
    25
100
AcDbSpline
210
0.0
220
0.0
230
1.0
 70
     8
 71
     3
 72
    11
 73
     7
 74
     0
 42
0.00000001
 43
0.00000001
 40
0.0
 40
0.0
 40
0.0
 40
0.0
 40
0.2298180874433328
 40
0.4715205618383748
 40
0.7451162148964573
 40
1.0
 40
1.0
 40
1.0
 40
1.0
 10
36.23177647452354
 20
36.62157870089686
 30
0.0
 10
36.23046039753588
 20
36.61955555972636
 30
0.0
 10
36.22776018639259
 20
36.61540465640974
 30
0.0
 10
36.22467969030379
 20
36.60885272442145
 30
0.0
 10
36.22201806876112
 20
36.60275000093366
 30
0.0
 10
36.22007264815437
 20
36.59951251376709
 30
0.0
 10
36.21913437859823
 20
36.59795108502709
 30
0.0
  0
LINE
  5
2FB
330
1F
100
AcDbEntity
  8
0
  6
Continuous
 62
     7
370
    25
100
AcDbLine
 10
35.7365071496
 20
36.4162972201
 30
0.0
 11
35.8072178278
 21
36.4571176257
 31
0.0
  0
ARC
  5
2FC
330
1F
100
AcDbEntity
  8
0
  6
Continuous
 62
     7
370
    25
100
AcDbCircle
 10
35.7778699198
 20
36.4071949753
 30
0.0
 40
0.0579100226579939
100
AcDbArc
 50
46.3745466866
 51
59.5501098024
  0
ARC
  5
2FD
330
1F
100
AcDbEntity
  8
0
  6
Continuous
 62
     7
370
    25
100
AcDbCircle
 10
35.7658123617
 20
36.5218479117
 30
0.0
 40
0.0768402403786319
100
AcDbArc
 50
302.60547834
 51
357.3945215143
  0
ARC
  5
2FE
330
1F
100
AcDbEntity
  8
0
  6
Continuous
 62
     7
370
    25
100
AcDbCircle
 10
36.0253572932
 20
36.5500663949
 30
0.0
 40
0.0579100226574795
100
AcDbArc
 50
46.3745466866
 51
59.5501098025
  0
LINE
  5
2FF
330
1F
100
AcDbEntity
  8
0
  6
Continuous
 62
     7
370
    25
100
AcDbLine
 10
36.0547052012
 20
36.5999890453
 30
0.0
 11
36.1254158793
 21
36.6408094509
 31
0.0
  0
ARC
  5
300
330
1F
100
AcDbEntity
  8
0
  6
Continuous
 62
     7
370
    25
100
AcDbCircle
 10
36.0960679714
 20
36.5908868005
 30
0.0
 40
0.0579100226580084
100
AcDbArc
 50
46.3745466866
 51
59.5501098024
  0
SPLINE
  5
301
330
1F
100
AcDbEntity
  8
0
  6
Continuous
 62
     7
370
    25
100
AcDbSpline
210
0.0
220
0.0
230
1.0
 70
     8
 71
     3
 72
    10
 73
     6
 74
     0
 42
0.00000001
 43
0.00000001
 40
0.0
 40
0.0
 40
0.0
 40
0.0
 40
0.1230292022083805
 40
0.494553100280664
 40
1.0
 40
1.0
 40
1.0
 40
1.0
 10
36.22743841778732
 20
36.58494849819248
 30
0.0
 10
36.22727563643147
 20
36.58365746743219
 30
0.0
 10
36.22662128752282
 20
36.57846777869487
 30
0.0
 10
36.21951880543366
 20
36.5686904726919
 30
0.0
 10
36.20780314363496
 20
36.56250249619238
 30
0.0
 10
36.20105075809462
 20
36.55893602220591
 30
0.0
  0
ARC
  5
302
330
1F
100
AcDbEntity
  8
0
  6
Continuous
 62
     7
370
    25
100
AcDbCircle
 10
36.0422473418
 20
36.7327420417
 30
0.0
 40
0.2145911980532091
100
AcDbArc
 50
352.3953845131
 51
359.7987623916
  0
ARC
  5
303
330
1F
100
AcDbEntity
  8
0
  6
Continuous
 62
     7
370
    25
100
AcDbCircle
 10
36.0840104133
 20
36.7055397369
 30
0.0
 40
0.0768402403786255
100
AcDbArc
 50
302.60547834
 51
357.3945215143
  0
ARC
  5
304
330
1F
100
AcDbEntity
  8
0
  6
Continuous
 62
     7
370
    25
100
AcDbCircle
 10
36.2328284425
 20
36.6235190229
 30
0.0
 40
0.0022071443175295
100
AcDbArc
 50
241.5351536831
 51
296.6558410353
  0
LWPOLYLINE
  5
305
330
1F
100
AcDbEntity
  8
0
  6
Continuous
 62
     7
370
    25
100
AcDbPolyline
 90
        9
 70
   128
 43
0.0
 10
36.2191343786
 20
36.597951085
 10
36.2217945744
 20
36.5975567209
 10
36.2242622538
 20
36.5965999722
 10
36.2263588327
 20
36.595150078
 10
36.2279325832
 20
36.5933119661
 10
36.2288696143
 20
36.5912186592
 10
36.2291021136
 20
36.5890216485
 10
36.2286132553
 20
36.58687993
 10
36.2274384178
 20
36.5849484982
  0
ARC
  5
306
330
1F
100
AcDbEntity
  8
0
  6
Continuous
 62
     7
370
    25
100
AcDbCircle
 10
32.9123624812
 20
30.1723138387
 30
0.0
 40
0.0466307799612141
100
AcDbArc
 50
120.5726330937
 51
177.1382589717
  0
LINE
  5
307
330
1F
100
AcDbEntity
  8
0
  6
Continuous
 62
     7
370
    25
100
AcDbLine
 10
33.0733114665
 20
30.3118738354
 30
0.0
 11
32.8886446568
 21
30.212462244
 31
0.0
  0
ARC
  5
308
330
1F
100
AcDbEntity
  8
0
  6
Continuous
 62
     7
370
    25
100
AcDbCircle
 10
33.0820090953
 20
30.300545521
 30
0.0
 40
0.0142821376335401
100
AcDbArc
 50
352.4151073902
 51
127.5162554961
  0
LINE
  5
309
330
1F
100
AcDbEntity
  8
0
  6
Continuous
 62
     7
370
    25
100
AcDbLine
 10
33.0961662696
 20
29.3861759926
 30
0.0
 11
33.0961662696
 21
30.2986603498
 31
0.0
  0
ARC
  5
30A
330
1F
100
AcDbEntity
  8
0
  6
Continuous
 62
     7
370
    25
100
AcDbCircle
 10
33.0495936421
 20
29.3885040827
 30
0.0
 40
0.046630779960636
100
AcDbArc
 50
300.5726330934
 51
357.1382589722
  0
LINE
  5
30B
330
1F
100
AcDbEntity
  8
0
  6
Continuous
 62
     7
370
    25
100
AcDbLine
 10
32.8886446568
 20
29.248944086
 30
0.0
 11
33.0733114665
 21
29.3483556774
 31
0.0
  0
ARC
  5
30C
330
1F
100
AcDbEntity
  8
0
  6
Continuous
 62
     7
370
    25
100
AcDbCircle
 10
32.879947028
 20
29.2602724004
 30
0.0
 40
0.0142821376333481
100
AcDbArc
 50
172.4151073889
 51
307.5162554981
  0
LINE
  5
30D
330
1F
100
AcDbEntity
  8
0
  6
Continuous
 62
     7
370
    25
100
AcDbLine
 10
32.8657898536
 20
30.1746419289
 30
0.0
 11
32.8657898536
 21
29.2621575716
 31
0.0
  0
LINE
  5
30E
330
1F
100
AcDbEntity
  8
0
  6
Continuous
 62
     7
370
    25
100
AcDbLine
 10
32.8657898536
 20
30.1746419289
 30
0.0
 11
32.85896987
 21
30.1788639439
 31
0.0
  0
ARC
  5
30F
330
1F
100
AcDbEntity
  8
0
  6
Continuous
 62
     7
370
    25
100
AcDbCircle
 10
32.9055424976
 20
30.1765358538
 30
0.0
 40
0.0466307799609641
100
AcDbArc
 50
120.5726330935
 51
177.1382589718
  0
LINE
  5
310
330
1F
100
AcDbEntity
  8
0
  6
Continuous
 62
     7
370
    25
100
AcDbLine
 10
32.8818246732
 20
30.2166842591
 30
0.0
 11
32.8886446568
 21
30.212462244
 31
0.0
  0
LINE
  5
311
330
1F
100
AcDbEntity
  8
0
  6
Continuous
 62
     7
370
    25
100
AcDbLine
 10
33.0733114665
 20
30.3118738354
 30
0.0
 11
33.0664914829
 21
30.3160958505
 31
0.0
  0
LINE
  5
312
330
1F
100
AcDbEntity
  8
0
  6
Continuous
 62
     7
370
    25
100
AcDbLine
 10
33.0664914829
 20
30.3160958505
 30
0.0
 11
32.8818246732
 21
30.2166842591
 31
0.0
  0
LINE
  5
313
330
1F
100
AcDbEntity
  8
0
  6
Continuous
 62
     7
370
    25
100
AcDbLine
 10
32.85896987
 20
29.2663795866
 30
0.0
 11
32.8657898536
 21
29.2621575716
 31
0.0
  0
LINE
  5
314
330
1F
100
AcDbEntity
  8
0
  6
Continuous
 62
     7
370
    25
100
AcDbLine
 10
32.85896987
 20
30.1788639439
 30
0.0
 11
32.85896987
 21
29.2663795866
 31
0.0
  0
ARC
  5
315
330
1F
100
AcDbEntity
  8
0
  6
Continuous
 62
     7
370
    25
100
AcDbCircle
 10
33.0755772846
 20
30.3031762947
 30
0.0
 40
0.0157945153602587
100
AcDbArc
 50
62.2132523724
 51
125.1171718973
  0
ARC
  5
316
330
1F
100
AcDbEntity
  8
0
  6
Continuous
 62
     7
370
    25
100
AcDbCircle
 10
32.8748872634
 20
29.26495473
 30
0.0
 40
0.0159810396286454
100
AcDbArc
 50
174.8847620757
 51
233.474910001
  0
LWPOLYLINE
  5
317
330
1F
100
AcDbEntity
  8
0
  6
Continuous
 62
     7
370
    25
100
AcDbPolyline
 90
       19
 70
   128
 43
0.0
 10
36.1213246544
 20
28.7718478946
 10
36.1501041812
 20
28.7943219307
 10
36.1754124723
 20
28.8258052042
 10
36.1941969743
 20
28.8625003677
 10
36.204191999
 20
28.8999814429
 10
36.204191999
 20
28.933727659
 10
36.1941969743
 20
28.9596687243
 10
36.1754124723
 20
28.9746757634
 10
36.1501041812
 20
28.976938706
 10
36.1213246544
 20
28.9661846078
 10
36.0925451277
 20
28.9437105717
 10
36.0672368366
 20
28.9122272982
 10
36.0484523346
 20
28.8755321347
 10
36.0384573098
 20
28.8380510595
 10
36.0384573098
 20
28.8043048434
 10
36.0484523346
 20
28.7783637781
 10
36.0672368366
 20
28.7633567389
 10
36.0925451277
 20
28.7610937963
 10
36.1213246544
 20
28.7718478946
  0
LWPOLYLINE
  5
318
330
1F
100
AcDbEntity
  8
0
  6
Continuous
 62
     7
370
    25
100
AcDbPolyline
 90
       17
 70
   128
 43
0.0
 10
36.2054703614
 20
28.9306550636
 10
36.2051443191
 20
28.9395698132
 10
36.1974301324
 20
28.9702936338
 10
36.1802427204
 20
28.9907502425
 10
36.1554446059
 20
28.9987228481
 10
36.1257230493
 20
28.9933474953
 10
36.0942988426
 20
28.9752066869
 10
36.064577286
 20
28.946266261
 10
36.0397791715
 20
28.9096623617
 10
36.0225917595
 20
28.8693615895
 10
36.0148775728
 20
28.8297311585
 10
36.0174725632
 20
28.7950656408
 10
36.0300955233
 20
28.769121583
 10
36.0513785594
 20
28.7547104265
 10
36.0790153244
 20
28.7533938436
 10
36.1100109459
 20
28.7653145065
 10
36.1100109459
 20
28.7653145065
  0
LWPOLYLINE
  5
319
330
1F
100
AcDbEntity
  8
0
  6
Continuous
 62
     7
370
    25
100
AcDbPolyline
 90
       11
 70
   128
 43
0.0
 10
36.0728536568
 20
29.0528783128
 10
36.0507928022
 20
29.0591370484
 10
36.0210712457
 20
29.0537616956
 10
35.9896470389
 20
29.0356208872
 10
35.9599254824
 20
29.0066804612
 10
35.9351273679
 20
28.970076562
 10
35.9179399559
 20
28.9297757898
 10
35.9102257692
 20
28.8901453588
 10
35.9128207596
 20
28.855479841
 10
35.9254437197
 20
28.8295357833
 10
35.9378646279
 20
28.8190451199
  0
LINE
  5
31A
330
1F
100
AcDbEntity
  8
0
  6
Continuous
 62
     7
370
    25
100
AcDbLine
 10
36.1784794151
 20
28.9020109922
 30
0.0
 11
36.1499020348
 21
28.9426714785
 31
0.0
  0
LINE
  5
31B
330
1F
100
AcDbEntity
  8
0
  6
Continuous
 62
     7
370
    25
100
AcDbLine
 10
36.1499020348
 20
28.9426714785
 30
0.0
 11
36.0927472741
 21
28.9096767375
 31
0.0
  0
LINE
  5
31C
330
1F
100
AcDbEntity
  8
0
  6
Continuous
 62
     7
370
    25
100
AcDbLine
 10
36.0641698938
 20
28.8360215102
 30
0.0
 11
36.0927472741
 21
28.9096767375
 31
0.0
  0
LINE
  5
31D
330
1F
100
AcDbEntity
  8
0
  6
Continuous
 62
     7
370
    25
100
AcDbLine
 10
36.0927472741
 20
28.7953610238
 30
0.0
 11
36.0641698938
 21
28.8360215102
 31
0.0
  0
LINE
  5
31E
330
1F
100
AcDbEntity
  8
0
  6
Continuous
 62
     7
370
    25
100
AcDbLine
 10
36.0927472741
 20
28.7953610238
 30
0.0
 11
36.1499020348
 21
28.8283557649
 31
0.0
  0
LINE
  5
31F
330
1F
100
AcDbEntity
  8
0
  6
Continuous
 62
     7
370
    25
100
AcDbLine
 10
36.1784794151
 20
28.9020109922
 30
0.0
 11
36.1499020348
 21
28.8283557649
 31
0.0
  0
ARC
  5
320
330
1F
100
AcDbEntity
  8
0
  6
Continuous
 62
     7
370
    25
100
AcDbCircle
 10
36.0219474256
 20
28.9317661324
 30
0.0
 40
0.0945713851894952
100
AcDbArc
 50
338.1802465566
 51
354.7872722329
  0
ARC
  5
321
330
1F
100
AcDbEntity
  8
0
  6
Continuous
 62
     7
370
    25
100
AcDbCircle
 10
36.0089353719
 20
28.9337594334
 30
0.0
 40
0.1074336141183054
100
AcDbArc
 50
302.6379705891
 51
339.7728862144
  0
LINE
  5
322
330
1F
100
AcDbEntity
  8
0
  6
Continuous
 62
     7
370
    25
100
AcDbLine
 10
36.128973895
 20
28.9305899206
 30
0.0
 11
36.1784794151
 21
28.9020109922
 31
0.0
  0
LINE
  5
323
330
1F
100
AcDbEntity
  8
0
  6
Continuous
 62
     7
370
    25
100
AcDbLine
 10
36.0670225231
 20
28.8433738658
 30
0.0
 11
36.0954548126
 21
28.8597874772
 31
0.0
  0
LINE
  5
324
330
1F
100
AcDbEntity
  8
0
  6
Continuous
 62
     7
370
    25
100
AcDbLine
 10
36.0954548126
 20
28.8597874772
 30
0.0
 11
36.1499020348
 21
28.8283557649
 31
0.0
  0
LINE
  5
325
330
1F
100
AcDbEntity
  8
0
  6
Continuous
 62
     7
370
    25
100
AcDbLine
 10
36.1097435028
 20
28.8966150908
 30
0.0
 11
36.0954548126
 21
28.8597874772
 31
0.0
  0
LINE
  5
326
330
1F
100
AcDbEntity
  8
0
  6
Continuous
 62
     7
370
    25
100
AcDbLine
 10
36.1211795636
 20
28.9260903489
 30
0.0
 11
36.1097435028
 21
28.8966150908
 31
0.0
  0
LWPOLYLINE
  5
327
330
1F
100
AcDbEntity
  8
0
  6
Continuous
 62
     7
370
    25
100
AcDbPolyline
 90
        3
 70
   128
 43
0.0
 10
33.9809631495
 20
30.0528519599
 10
33.9638072331
 20
30.0468887169
 10
33.9627404591
 20
30.0468019294
  0
ARC
  5
328
330
1F
100
AcDbEntity
  8
0
  6
Continuous
 62
     7
370
    25
100
AcDbCircle
 10
33.9271921938
 20
30.1360166635
 30
0.0
 40
0.0990337497995018
100
AcDbArc
 50
302.8850852788
 51
351.9446625084
  0
LWPOLYLINE
  5
329
330
1F
100
AcDbEntity
  8
0
  6
Continuous
 62
     7
370
    25
100
AcDbPolyline
 90
       19
 70
   128
 43
0.0
 10
36.1213246544
 20
29.282185902
 10
36.1501041812
 20
29.3046599381
 10
36.1754124723
 20
29.3361432116
 10
36.1941969743
 20
29.3728383751
 10
36.204191999
 20
29.4103194503
 10
36.204191999
 20
29.4440656664
 10
36.1941969743
 20
29.4700067317
 10
36.1754124723
 20
29.4850137709
 10
36.1501041812
 20
29.4872767135
 10
36.1213246544
 20
29.4765226152
 10
36.0925451277
 20
29.4540485791
 10
36.0672368366
 20
29.4225653056
 10
36.0484523346
 20
29.3858701421
 10
36.0384573098
 20
29.3483890669
 10
36.0384573098
 20
29.3146428508
 10
36.0484523346
 20
29.2887017855
 10
36.0672368366
 20
29.2736947464
 10
36.0925451277
 20
29.2714318038
 10
36.1213246544
 20
29.282185902
  0
LWPOLYLINE
  5
32A
330
1F
100
AcDbEntity
  8
0
  6
Continuous
 62
     7
370
    25
100
AcDbPolyline
 90
       17
 70
   128
 43
0.0
 10
36.2054703614
 20
29.4409930711
 10
36.2051443191
 20
29.4499078206
 10
36.1974301324
 20
29.4806316413
 10
36.1802427204
 20
29.5010882499
 10
36.1554446059
 20
29.5090608556
 10
36.1257230493
 20
29.5036855028
 10
36.0942988426
 20
29.4855446943
 10
36.064577286
 20
29.4566042684
 10
36.0397791715
 20
29.4200003691
 10
36.0225917595
 20
29.379699597
 10
36.0148775728
 20
29.340069166
 10
36.0174725632
 20
29.3054036482
 10
36.0300955233
 20
29.2794595904
 10
36.0513785594
 20
29.2650484339
 10
36.0790153244
 20
29.263731851
 10
36.1100109459
 20
29.2756525139
 10
36.1100109459
 20
29.2756525139
  0
LWPOLYLINE
  5
32B
330
1F
100
AcDbEntity
  8
0
  6
Continuous
 62
     7
370
    25
100
AcDbPolyline
 90
       11
 70
   128
 43
0.0
 10
36.0728536568
 20
29.5632163202
 10
36.0507928022
 20
29.5694750558
 10
36.0210712457
 20
29.564099703
 10
35.9896470389
 20
29.5459588946
 10
35.9599254824
 20
29.5170184687
 10
35.9351273679
 20
29.4804145694
 10
35.9179399559
 20
29.4401137972
 10
35.9102257692
 20
29.4004833662
 10
35.9128207596
 20
29.3658178485
 10
35.9254437197
 20
29.3398737907
 10
35.9378646279
 20
29.3293831274
  0
LINE
  5
32C
330
1F
100
AcDbEntity
  8
0
  6
Continuous
 62
     7
370
    25
100
AcDbLine
 10
36.1784794151
 20
29.4123489996
 30
0.0
 11
36.1499020348
 21
29.453009486
 31
0.0
  0
LINE
  5
32D
330
1F
100
AcDbEntity
  8
0
  6
Continuous
 62
     7
370
    25
100
AcDbLine
 10
36.1499020348
 20
29.453009486
 30
0.0
 11
36.0927472741
 21
29.4200147449
 31
0.0
  0
LINE
  5
32E
330
1F
100
AcDbEntity
  8
0
  6
Continuous
 62
     7
370
    25
100
AcDbLine
 10
36.0641698938
 20
29.3463595176
 30
0.0
 11
36.0927472741
 21
29.4200147449
 31
0.0
  0
LINE
  5
32F
330
1F
100
AcDbEntity
  8
0
  6
Continuous
 62
     7
370
    25
100
AcDbLine
 10
36.0927472741
 20
29.3056990313
 30
0.0
 11
36.0641698938
 21
29.3463595176
 31
0.0
  0
LINE
  5
330
330
1F
100
AcDbEntity
  8
0
  6
Continuous
 62
     7
370
    25
100
AcDbLine
 10
36.0927472741
 20
29.3056990313
 30
0.0
 11
36.1499020348
 21
29.3386937723
 31
0.0
  0
LINE
  5
331
330
1F
100
AcDbEntity
  8
0
  6
Continuous
 62
     7
370
    25
100
AcDbLine
 10
36.1784794151
 20
29.4123489996
 30
0.0
 11
36.1499020348
 21
29.3386937723
 31
0.0
  0
ARC
  5
332
330
1F
100
AcDbEntity
  8
0
  6
Continuous
 62
     7
370
    25
100
AcDbCircle
 10
36.0219474256
 20
29.4421041398
 30
0.0
 40
0.0945713851881063
100
AcDbArc
 50
338.1802465565
 51
354.787272233
  0
ARC
  5
333
330
1F
100
AcDbEntity
  8
0
  6
Continuous
 62
     7
370
    25
100
AcDbCircle
 10
36.0089353719
 20
29.4440974408
 30
0.0
 40
0.1074336141183054
100
AcDbArc
 50
302.6379705891
 51
339.7728862144
  0
LINE
  5
334
330
1F
100
AcDbEntity
  8
0
  6
Continuous
 62
     7
370
    25
100
AcDbLine
 10
36.128973895
 20
29.4409279281
 30
0.0
 11
36.1784794151
 21
29.4123489996
 31
0.0
  0
LINE
  5
335
330
1F
100
AcDbEntity
  8
0
  6
Continuous
 62
     7
370
    25
100
AcDbLine
 10
36.0670225231
 20
29.3537118733
 30
0.0
 11
36.0954548126
 21
29.3701254846
 31
0.0
  0
LINE
  5
336
330
1F
100
AcDbEntity
  8
0
  6
Continuous
 62
     7
370
    25
100
AcDbLine
 10
36.0954548126
 20
29.3701254846
 30
0.0
 11
36.1499020348
 21
29.3386937723
 31
0.0
  0
LINE
  5
337
330
1F
100
AcDbEntity
  8
0
  6
Continuous
 62
     7
370
    25
100
AcDbLine
 10
36.1097435028
 20
29.4069530983
 30
0.0
 11
36.0954548126
 21
29.3701254846
 31
0.0
  0
LINE
  5
338
330
1F
100
AcDbEntity
  8
0
  6
Continuous
 62
     7
370
    25
100
AcDbLine
 10
36.1211795636
 20
29.4364283563
 30
0.0
 11
36.1097435028
 21
29.4069530983
 31
0.0
  0
LWPOLYLINE
  5
339
330
1F
100
AcDbEntity
  8
0
  6
Continuous
 62
     7
370
    25
100
AcDbPolyline
 90
       15
 70
   128
 43
0.0
 10
36.1013043867
 20
29.036454056
 10
36.0989815288
 20
29.0412101596
 10
36.0801073479
 20
29.0619331284
 10
36.053529511
 20
29.0696733051
 10
36.0219871678
 20
29.0636329762
 10
35.9887311168
 20
29.0444346666
 10
35.9571887736
 20
29.0140569812
 10
35.9306109368
 20
28.9756306872
 10
35.9117367558
 20
28.933116053
 10
35.9025114305
 20
28.8908946969
 10
35.903885736
 20
28.8533180116
 10
35.9157180343
 20
28.8242587035
 10
35.9367888721
 20
28.806711666
 10
35.964926659
 20
28.8024853216
 10
35.9663153578
 20
28.8026208631
  0
LWPOLYLINE
  5
33A
330
1F
100
AcDbEntity
  8
0
  6
Continuous
 62
     7
370
    25
100
AcDbPolyline
 90
       11
 70
   128
 43
0.0
 10
36.0503189182
 20
29.0791660369
 10
36.0252452398
 20
29.0860014673
 10
35.9937028966
 20
29.0799611384
 10
35.9604468455
 20
29.0607628288
 10
35.9289045023
 20
29.0303851434
 10
35.9023266655
 20
28.9919588495
 10
35.8834524846
 20
28.9494442153
 10
35.8742271593
 20
28.9072228591
 10
35.8756014647
 20
28.8696461738
 10
35.8874337631
 20
28.8405868657
 10
35.9038308239
 20
28.8254137203
  0
LWPOLYLINE
  5
33B
330
1F
100
AcDbEntity
  8
0
  6
Continuous
 62
     7
370
    25
100
AcDbPolyline
 90
       15
 70
   128
 43
0.0
 10
36.1013043867
 20
29.5467920634
 10
36.0989815288
 20
29.5515481671
 10
36.0801073479
 20
29.5722711358
 10
36.053529511
 20
29.5800113125
 10
36.0219871678
 20
29.5739709836
 10
35.9887311168
 20
29.554772674
 10
35.9571887736
 20
29.5243949886
 10
35.9306109368
 20
29.4859686947
 10
35.9117367558
 20
29.4434540605
 10
35.9025114305
 20
29.4012327043
 10
35.903885736
 20
29.363656019
 10
35.9157180343
 20
29.3345967109
 10
35.9367888721
 20
29.3170496734
 10
35.964926659
 20
29.312823329
 10
35.9663153578
 20
29.3129588706
  0
LWPOLYLINE
  5
33C
330
1F
100
AcDbEntity
  8
0
  6
Continuous
 62
     7
370
    25
100
AcDbPolyline
 90
       11
 70
   128
 43
0.0
 10
36.0503189182
 20
29.5895040444
 10
36.0252452398
 20
29.5963394747
 10
35.9937028966
 20
29.5902991459
 10
35.9604468455
 20
29.5711008362
 10
35.9289045023
 20
29.5407231508
 10
35.9023266655
 20
29.5022968569
 10
35.8834524846
 20
29.4597822227
 10
35.8742271593
 20
29.4175608666
 10
35.8756014647
 20
29.3799841813
 10
35.8874337631
 20
29.3509248731
 10
35.9038308239
 20
29.3357517277
  0
LWPOLYLINE
  5
33D
330
1F
100
AcDbEntity
  8
0
  6
Continuous
 62
     7
370
    25
100
AcDbPolyline
 90
       16
 70
   128
 43
0.0
 10
35.9746457118
 20
28.7978118521
 10
35.9524379175
 20
28.7876324127
 10
35.9182041935
 20
28.7811239133
 10
35.8883366385
 20
28.7873100105
 10
35.8650503921
 20
28.8057319098
 10
35.850072489
 20
28.8350233432
 10
35.8445137714
 20
28.873011899
 10
35.8487865043
 20
28.91688014
 10
35.8625737984
 20
28.9633745592
 10
35.8848531132
 20
29.0090468784
 10
35.913972094
 20
29.0505097906
 10
35.9477711191
 20
29.0846881812
 10
35.9837434693
 20
29.1090471954
 10
36.0192212402
 20
29.1217802366
 10
36.0515732077
 20
29.1219429532
 10
36.0727998213
 20
29.1134800675
  0
LWPOLYLINE
  5
33E
330
1F
100
AcDbEntity
  8
0
  6
Continuous
 62
     7
370
    25
100
AcDbPolyline
 90
       13
 70
   128
 43
0.0
 10
35.8607050729
 20
28.8029682467
 10
35.8424229751
 20
28.8187944396
 10
35.827445072
 20
28.848085873
 10
35.8218863544
 20
28.8860744288
 10
35.8261590873
 20
28.9299426698
 10
35.8399463814
 20
28.976437089
 10
35.8622256962
 20
29.0221094082
 10
35.891344677
 20
29.0635723204
 10
35.9251437021
 20
29.097750711
 10
35.9611160523
 20
29.1221097252
 10
35.9965938232
 20
29.1348427664
 10
36.0289457907
 20
29.135005483
 10
36.0481898353
 20
29.1277365701
  0
LWPOLYLINE
  5
33F
330
1F
100
AcDbEntity
  8
0
  6
Continuous
 62
     7
370
    25
100
AcDbPolyline
 90
       16
 70
   128
 43
0.0
 10
35.9746457118
 20
29.3081498595
 10
35.9524379175
 20
29.2979704201
 10
35.9182041935
 20
29.2914619207
 10
35.8883366385
 20
29.2976480179
 10
35.8650503921
 20
29.3160699172
 10
35.850072489
 20
29.3453613506
 10
35.8445137714
 20
29.3833499065
 10
35.8487865043
 20
29.4272181474
 10
35.8625737984
 20
29.4737125667
 10
35.8848531132
 20
29.5193848859
 10
35.913972094
 20
29.560847798
 10
35.9477711191
 20
29.5950261887
 10
35.9837434693
 20
29.6193852029
 10
36.0192212402
 20
29.632118244
 10
36.0515732077
 20
29.6322809606
 10
36.0727998213
 20
29.6238180749
  0
LWPOLYLINE
  5
340
330
1F
100
AcDbEntity
  8
0
  6
Continuous
 62
     7
370
    25
100
AcDbPolyline
 90
       13
 70
   128
 43
0.0
 10
35.8607050729
 20
29.3133062541
 10
35.8424229751
 20
29.329132447
 10
35.827445072
 20
29.3584238804
 10
35.8218863544
 20
29.3964124362
 10
35.8261590873
 20
29.4402806772
 10
35.8399463814
 20
29.4867750964
 10
35.8622256962
 20
29.5324474156
 10
35.891344677
 20
29.5739103278
 10
35.9251437021
 20
29.6080887184
 10
35.9611160523
 20
29.6324477327
 10
35.9965938232
 20
29.6451807738
 10
36.0289457907
 20
29.6453434904
 10
36.0481898353
 20
29.6380745775
  0
LINE
  5
341
330
1F
100
AcDbEntity
  8
0
  6
Continuous
 62
     7
370
    25
100
AcDbLine
 10
34.4553493835
 20
31.8812229647
 30
0.0
 11
34.4553493835
 21
31.8827711219
 31
0.0
  0
LINE
  5
342
330
1F
100
AcDbEntity
  8
0
  6
Continuous
 62
     7
370
    25
100
AcDbLine
 10
34.5234518844
 20
31.8710453271
 30
0.0
 11
34.5234518844
 21
31.8734260235
 31
0.0
  0
LWPOLYLINE
  5
343
330
1F
100
AcDbEntity
  8
0
  6
Continuous
 62
     7
370
    25
100
AcDbPolyline
 90
        9
 70
   128
 43
0.0
 10
34.5234518844
 20
31.8734260235
 10
34.5920477469
 20
31.8711441317
 10
34.6602907946
 20
31.8757589419
 10
34.726116124
 20
31.8871308189
 10
34.787531987
 20
31.9049156714
 10
34.8426800576
 20
31.928575364
 10
34.8898916611
 20
31.9573939999
 10
34.9277382649
 20
31.9904995824
 10
34.9550747037
 20
32.0268904002
  0
LINE
  5
344
330
1F
100
AcDbEntity
  8
0
  6
Continuous
 62
     7
370
    25
100
AcDbLine
 10
34.9550747037
 20
32.0029464903
 30
0.0
 11
34.9550747037
 21
32.0268904002
 31
0.0
  0
LINE
  5
345
330
1F
100
AcDbEntity
  8
0
  6
Continuous
 62
     7
370
    25
100
AcDbLine
 10
34.9712626429
 20
32.0313283051
 30
0.0
 11
34.9712626429
 21
32.0662051371
 31
0.0
  0
LWPOLYLINE
  5
346
330
1F
100
AcDbEntity
  8
0
  6
Continuous
 62
     7
370
    25
100
AcDbPolyline
 90
        9
 70
   128
 43
0.0
 10
34.9712626429
 20
32.0662051371
 10
34.9752154237
 20
32.1058046857
 10
34.9672214718
 20
32.1452005586
 10
34.9475226688
 20
32.1832007124
 10
34.9167150625
 20
32.2186553354
 10
34.8757308321
 20
32.2504916389
 10
34.8258100816
 20
32.2777463174
 10
34.768463317
 20
32.2995946968
 10
34.7054257413
 20
32.315375687
  0
ARC
  5
347
330
1F
100
AcDbEntity
  8
0
  6
Continuous
 62
     7
370
    25
100
AcDbCircle
 10
34.5827983096
 20
31.6326874221
 30
0.0
 40
0.6534849980926608
100
AcDbArc
 50
80.5784717689
 51
85.2138386628
  0
LINE
  5
348
330
1F
100
AcDbEntity
  8
0
  6
Continuous
 62
     7
370
    25
100
AcDbLine
 10
34.6373232404
 20
32.2838937448
 30
0.0
 11
34.6373232404
 21
32.3247207854
 31
0.0
  0
LWPOLYLINE
  5
349
330
1F
100
AcDbEntity
  8
0
  6
Continuous
 62
     7
370
    25
100
AcDbPolyline
 90
        9
 70
   128
 43
0.0
 10
34.6373232404
 20
32.3247207854
 10
34.5687273779
 20
32.3270026772
 10
34.5004843302
 20
32.322387867
 10
34.4346590008
 20
32.31101599
 10
34.3732431378
 20
32.2932311375
 10
34.3180950672
 20
32.2695714449
 10
34.2708834637
 20
32.240752809
 10
34.2330368599
 20
32.2076472265
 10
34.2057004211
 20
32.1712564087
  0
LINE
  5
34A
330
1F
100
AcDbEntity
  8
0
  6
Continuous
 62
     7
370
    25
100
AcDbLine
 10
34.2057004211
 20
32.1304293681
 30
0.0
 11
34.2057004211
 21
32.1712564087
 31
0.0
  0
LWPOLYLINE
  5
34B
330
1F
100
AcDbEntity
  8
0
  6
Continuous
 62
     7
370
    25
100
AcDbPolyline
 90
        9
 70
   128
 43
0.0
 10
34.1895124819
 20
32.1319416717
 10
34.185559701
 20
32.0923421232
 10
34.193553653
 20
32.0529462503
 10
34.213252456
 20
32.0149460965
 10
34.2440600623
 20
31.9794914735
 10
34.2850442927
 20
31.94765517
 10
34.3349650432
 20
31.9204004914
 10
34.3923118078
 20
31.8985521121
 10
34.4553493835
 20
31.8827711219
  0
LINE
  5
34C
330
1F
100
AcDbEntity
  8
0
  6
Continuous
 62
     7
370
    25
100
AcDbLine
 10
34.5234518844
 20
31.8734260235
 30
0.0
 11
34.6063448432
 21
32.0747434868
 31
0.0
  0
LINE
  5
34D
330
1F
100
AcDbEntity
  8
0
  6
Continuous
 62
     7
370
    25
100
AcDbLine
 10
34.6063448432
 20
32.0747434868
 30
0.0
 11
34.9550747037
 21
32.0268904002
 31
0.0
  0
LINE
  5
34E
330
1F
100
AcDbEntity
  8
0
  6
Continuous
 62
     7
370
    25
100
AcDbLine
 10
34.5382423423
 20
32.0432615446
 30
0.0
 11
34.4703504873
 21
31.8783764177
 31
0.0
  0
LINE
  5
34F
330
1F
100
AcDbEntity
  8
0
  6
Continuous
 62
     7
370
    25
100
AcDbLine
 10
34.5544302816
 20
32.0825762815
 30
0.0
 11
34.2057004211
 21
32.1304293681
 31
0.0
  0
LINE
  5
350
330
1F
100
AcDbEntity
  8
0
  6
Continuous
 62
     7
370
    25
100
AcDbLine
 10
34.6373232404
 20
32.2838937448
 30
0.0
 11
34.5544302816
 21
32.0825762815
 31
0.0
  0
LINE
  5
351
330
1F
100
AcDbEntity
  8
0
  6
Continuous
 62
     7
370
    25
100
AcDbLine
 10
34.9686719638
 20
32.0257335923
 30
0.0
 11
34.6225327825
 21
32.0732311831
 31
0.0
  0
LINE
  5
352
330
1F
100
AcDbEntity
  8
0
  6
Continuous
 62
     7
370
    25
100
AcDbLine
 10
34.1895124819
 20
32.1319416717
 30
0.0
 11
34.5382423423
 21
32.0840885852
 31
0.0
  0
LINE
  5
353
330
1F
100
AcDbEntity
  8
0
  6
Continuous
 62
     7
370
    25
100
AcDbLine
 10
34.5382423423
 20
32.0840885852
 30
0.0
 11
34.4553493835
 21
31.8827711219
 31
0.0
  0
LINE
  5
354
330
1F
100
AcDbEntity
  8
0
  6
Continuous
 62
     7
370
    25
100
AcDbLine
 10
34.5382423423
 20
32.0432615446
 30
0.0
 11
34.5382423423
 21
32.0840885852
 31
0.0
  0
LINE
  5
355
330
1F
100
AcDbEntity
  8
0
  6
Continuous
 62
     7
370
    25
100
AcDbLine
 10
34.9712626429
 20
32.0662051371
 30
0.0
 11
34.6225327825
 21
32.1140582237
 31
0.0
  0
LINE
  5
356
330
1F
100
AcDbEntity
  8
0
  6
Continuous
 62
     7
370
    25
100
AcDbLine
 10
34.6225327825
 20
32.1140582237
 30
0.0
 11
34.7054257413
 21
32.315375687
 31
0.0
  0
LINE
  5
357
330
1F
100
AcDbEntity
  8
0
  6
Continuous
 62
     7
370
    25
100
AcDbLine
 10
34.6225327825
 20
32.0732311831
 30
0.0
 11
34.6225327825
 21
32.1140582237
 31
0.0
  0
LINE
  5
358
330
1F
100
AcDbEntity
  8
0
  6
Continuous
 62
     7
370
    25
100
AcDbLine
 10
34.5544302816
 20
32.0825762815
 30
0.0
 11
34.5544302816
 21
32.1234033221
 31
0.0
  0
LINE
  5
359
330
1F
100
AcDbEntity
  8
0
  6
Continuous
 62
     7
370
    25
100
AcDbLine
 10
34.5544302816
 20
32.1234033221
 30
0.0
 11
34.2057004211
 21
32.1712564087
 31
0.0
  0
LINE
  5
35A
330
1F
100
AcDbEntity
  8
0
  6
Continuous
 62
     7
370
    25
100
AcDbLine
 10
34.6373232404
 20
32.3247207854
 30
0.0
 11
34.5544302816
 21
32.1234033221
 31
0.0
  0
LINE
  5
35B
330
1F
100
AcDbEntity
  8
0
  6
Continuous
 62
     7
370
    25
100
AcDbLine
 10
35.6626280731
 20
31.2769088095
 30
0.0
 11
35.6626280731
 21
31.2815301424
 31
0.0
  0
LINE
  5
35C
330
1F
100
AcDbEntity
  8
0
  6
Continuous
 62
     7
370
    25
100
AcDbLine
 10
35.730730574
 20
31.2844113867
 30
0.0
 11
35.730730574
 21
31.2908752408
 31
0.0
  0
LWPOLYLINE
  5
35D
330
1F
100
AcDbEntity
  8
0
  6
Continuous
 62
     7
370
    25
100
AcDbPolyline
 90
        9
 70
   128
 43
0.0
 10
35.730730574
 20
31.2908752408
 10
35.7937681497
 20
31.306656231
 10
35.8511149143
 20
31.3285046104
 10
35.9010356648
 20
31.3557592889
 10
35.9420198952
 20
31.3875955924
 10
35.9728275015
 20
31.4230502154
 10
35.9925263045
 20
31.4610503692
 10
36.0005202565
 20
31.5004462421
 10
35.9965674756
 20
31.5400457907
  0
LINE
  5
35E
330
1F
100
AcDbEntity
  8
0
  6
Continuous
 62
     7
370
    25
100
AcDbLine
 10
35.9803795364
 20
31.538533487
 30
0.0
 11
35.9803795364
 21
31.5793605276
 31
0.0
  0
LWPOLYLINE
  5
35F
330
1F
100
AcDbEntity
  8
0
  6
Continuous
 62
     7
370
    25
100
AcDbPolyline
 90
        9
 70
   128
 43
0.0
 10
35.9803795364
 20
31.5793605276
 10
35.9530430976
 20
31.6157513454
 10
35.9151964938
 20
31.648856928
 10
35.8679848903
 20
31.6776755638
 10
35.8128368198
 20
31.7013352564
 10
35.7514209568
 20
31.7191201089
 10
35.6855956274
 20
31.7304919859
 10
35.6173525796
 20
31.7351067961
 10
35.5487567171
 20
31.7328249043
  0
LINE
  5
360
330
1F
100
AcDbEntity
  8
0
  6
Continuous
 62
     7
370
    25
100
AcDbLine
 10
35.5487567171
 20
31.6919978637
 30
0.0
 11
35.5487567171
 21
31.7328249043
 31
0.0
  0
ARC
  5
361
330
1F
100
AcDbEntity
  8
0
  6
Continuous
 62
     7
370
    25
100
AcDbCircle
 10
35.6030221476
 20
31.0428737949
 30
0.0
 40
0.6513883585228465
100
AcDbArc
 50
94.7786972617
 51
99.4289923066
  0
LWPOLYLINE
  5
362
330
1F
100
AcDbEntity
  8
0
  6
Continuous
 62
     7
370
    25
100
AcDbPolyline
 90
        9
 70
   128
 43
0.0
 10
35.4806542162
 20
31.7234798059
 10
35.4176166405
 20
31.7076988157
 10
35.360269876
 20
31.6858504364
 10
35.3103491254
 20
31.6585957578
 10
35.269364895
 20
31.6267594543
 10
35.2385572888
 20
31.5913048313
 10
35.2188584857
 20
31.5533046775
 10
35.2108645338
 20
31.5139088046
 10
35.2148173146
 20
31.4743092561
  0
LINE
  5
363
330
1F
100
AcDbEntity
  8
0
  6
Continuous
 62
     7
370
    25
100
AcDbLine
 10
35.2148173146
 20
31.4536197844
 30
0.0
 11
35.2148173146
 21
31.4743092561
 31
0.0
  0
LINE
  5
364
330
1F
100
AcDbEntity
  8
0
  6
Continuous
 62
     7
370
    25
100
AcDbLine
 10
35.2310052539
 20
31.4251739919
 30
0.0
 11
35.2310052539
 21
31.4349945192
 31
0.0
  0
LWPOLYLINE
  5
365
330
1F
100
AcDbEntity
  8
0
  6
Continuous
 62
     7
370
    25
100
AcDbPolyline
 90
        9
 70
   128
 43
0.0
 10
35.2310052539
 20
31.4349945192
 10
35.2583416926
 20
31.3986037013
 10
35.2961882965
 20
31.3654981188
 10
35.3433998999
 20
31.3366794829
 10
35.3985479705
 20
31.3130197903
 10
35.4599638335
 20
31.2952349378
 10
35.5257891629
 20
31.2838630608
 10
35.5940322106
 20
31.2792482506
 10
35.6626280731
 20
31.2815301424
  0
LINE
  5
366
330
1F
100
AcDbEntity
  8
0
  6
Continuous
 62
     7
370
    25
100
AcDbLine
 10
35.2310052539
 20
31.4349945192
 30
0.0
 11
35.5797351143
 21
31.4828476057
 31
0.0
  0
LINE
  5
367
330
1F
100
AcDbEntity
  8
0
  6
Continuous
 62
     7
370
    25
100
AcDbLine
 10
35.5797351143
 20
31.4828476057
 30
0.0
 11
35.6626280731
 21
31.2815301424
 31
0.0
  0
LINE
  5
368
330
1F
100
AcDbEntity
  8
0
  6
Continuous
 62
     7
370
    25
100
AcDbLine
 10
35.6316496759
 20
31.4906804004
 30
0.0
 11
35.5487567171
 21
31.6919978637
 31
0.0
  0
LINE
  5
369
330
1F
100
AcDbEntity
  8
0
  6
Continuous
 62
     7
370
    25
100
AcDbLine
 10
35.9803795364
 20
31.538533487
 30
0.0
 11
35.6316496759
 21
31.4906804004
 31
0.0
  0
LINE
  5
36A
330
1F
100
AcDbEntity
  8
0
  6
Continuous
 62
     7
370
    25
100
AcDbLine
 10
35.7174140987
 20
31.2823891744
 30
0.0
 11
35.6478376152
 21
31.4513656635
 31
0.0
  0
LINE
  5
36B
330
1F
100
AcDbEntity
  8
0
  6
Continuous
 62
     7
370
    25
100
AcDbLine
 10
35.5635471751
 20
31.481335302
 30
0.0
 11
35.2246879636
 21
31.4348366765
 31
0.0
  0
LINE
  5
36C
330
1F
100
AcDbEntity
  8
0
  6
Continuous
 62
     7
370
    25
100
AcDbLine
 10
35.730730574
 20
31.2908752408
 30
0.0
 11
35.6478376152
 21
31.4921927041
 31
0.0
  0
LINE
  5
36D
330
1F
100
AcDbEntity
  8
0
  6
Continuous
 62
     7
370
    25
100
AcDbLine
 10
35.6478376152
 20
31.4921927041
 30
0.0
 11
35.9965674756
 21
31.5400457907
 31
0.0
  0
LINE
  5
36E
330
1F
100
AcDbEntity
  8
0
  6
Continuous
 62
     7
370
    25
100
AcDbLine
 10
35.6478376152
 20
31.4513656635
 30
0.0
 11
35.6478376152
 21
31.4921927041
 31
0.0
  0
LINE
  5
36F
330
1F
100
AcDbEntity
  8
0
  6
Continuous
 62
     7
370
    25
100
AcDbLine
 10
35.5635471751
 20
31.481335302
 30
0.0
 11
35.5635471751
 21
31.5221623426
 31
0.0
  0
LINE
  5
370
330
1F
100
AcDbEntity
  8
0
  6
Continuous
 62
     7
370
    25
100
AcDbLine
 10
35.5635471751
 20
31.5221623426
 30
0.0
 11
35.2148173146
 21
31.4743092561
 31
0.0
  0
LINE
  5
371
330
1F
100
AcDbEntity
  8
0
  6
Continuous
 62
     7
370
    25
100
AcDbLine
 10
35.4806542162
 20
31.7234798059
 30
0.0
 11
35.5635471751
 21
31.5221623426
 31
0.0
  0
LINE
  5
372
330
1F
100
AcDbEntity
  8
0
  6
Continuous
 62
     7
370
    25
100
AcDbLine
 10
35.6316496759
 20
31.4906804004
 30
0.0
 11
35.6316496759
 21
31.531507441
 31
0.0
  0
LINE
  5
373
330
1F
100
AcDbEntity
  8
0
  6
Continuous
 62
     7
370
    25
100
AcDbLine
 10
35.9803795364
 20
31.5793605276
 30
0.0
 11
35.6316496759
 21
31.531507441
 31
0.0
  0
LINE
  5
374
330
1F
100
AcDbEntity
  8
0
  6
Continuous
 62
     7
370
    25
100
AcDbLine
 10
35.6316496759
 20
31.531507441
 30
0.0
 11
35.5487567171
 21
31.7328249043
 31
0.0
  0
ELLIPSE
  5
375
330
1F
100
AcDbEntity
  8
0
  6
Continuous
 62
     7
370
    25
100
AcDbEllipse
 10
32.7702211409
 20
31.5713000249
 30
0.0
 11
-0.03128555149074685
 21
0.05419401535423418
 31
0.0
210
0.0
220
0.0
230
1.0
 40
0.5766787367
 41
5.498477197879696
 42
7.068055549503327
  0
LINE
  5
376
330
1F
100
AcDbEntity
  8
0
  6
Continuous
 62
     7
370
    25
100
AcDbLine
 10
34.6970871032
 20
30.5100088901
 30
0.0
 11
32.7701672807
 21
31.6223960259
 31
0.0
  0
ELLIPSE
  5
377
330
1F
100
AcDbEntity
  8
0
  6
Continuous
 62
     7
370
    25
100
AcDbEllipse
 10
34.697033243
 20
30.4589750749
 30
0.0
 11
-0.03124745109206373
 21
0.05412805926977882
 31
0.0
210
0.0
220
0.0
230
1.0
 40
0.5780852102
 41
3.927681267029261
 42
5.497259618652853
  0
LINE
  5
378
330
1F
100
AcDbEntity
  8
0
  6
Continuous
 62
     7
370
    25
100
AcDbLine
 10
34.7412543551
 20
26.7549304316
 30
0.0
 11
34.7412543551
 21
30.433508966
 31
0.0
  0
ELLIPSE
  5
379
330
1F
100
AcDbEntity
  8
0
  6
Continuous
 62
     7
370
    25
100
AcDbEllipse
 10
34.697033243
 20
26.780520932
 30
0.0
 11
-0.03128555149074686
 21
0.05419401535423775
 31
0.0
210
0.0
220
0.0
230
1.0
 40
0.5766787367
 41
2.35688454428987
 42
3.926462895913503
  0
LINE
  5
37A
330
1F
100
AcDbEntity
  8
0
  6
Continuous
 62
     7
370
    25
100
AcDbLine
 10
32.7701672807
 20
27.8418120668
 30
0.0
 11
34.6970871032
 21
26.7294249311
 31
0.0
  0
ELLIPSE
  5
37B
330
1F
100
AcDbEntity
  8
0
  6
Continuous
 62
     7
370
    25
100
AcDbEllipse
 10
32.7702211409
 20
27.8928458821
 30
0.0
 11
-0.03124745109205661
 21
0.0541280592697788
 31
0.0
210
0.0
220
0.0
230
0.9999999999999998
 40
0.5780852102
 41
0.7860886134394983
 42
2.355666965063235
  0
LINE
  5
37C
330
1F
100
AcDbEntity
  8
0
  6
Continuous
 62
     7
370
    25
100
AcDbLine
 10
32.7260000287
 20
31.5968905253
 30
0.0
 11
32.7260000287
 21
27.918311991
 31
0.0
  0
LINE
  5
37D
330
1F
100
AcDbEntity
  8
0
  6
Continuous
 62
     7
370
    25
100
AcDbLine
 10
32.8215176309
 20
30.8170383283
 30
0.0
 11
34.6457367529
 21
29.7639390451
 31
0.0
  0
LINE
  5
37E
330
1F
100
AcDbEntity
  8
0
  6
Continuous
 62
     7
370
    25
100
AcDbLine
 10
32.8215176309
 20
30.8170383283
 30
0.0
 11
32.8215176309
 21
28.5878819119
 31
0.0
  0
LINE
  5
37F
330
1F
100
AcDbEntity
  8
0
  6
Continuous
 62
     7
370
    25
100
AcDbLine
 10
34.6457367529
 20
27.5347826286
 30
0.0
 11
32.8215176309
 21
28.5878819119
 31
0.0
  0
LINE
  5
380
330
1F
100
AcDbEntity
  8
0
  6
Continuous
 62
     7
370
    25
100
AcDbLine
 10
34.6457367529
 20
27.5347826286
 30
0.0
 11
34.6457367529
 21
29.7639390451
 31
0.0
  0
LWPOLYLINE
  5
381
330
1F
100
AcDbEntity
  8
0
  6
Continuous
 62
     7
370
    25
100
AcDbPolyline
 90
       17
 70
   128
 43
0.0
 10
33.7778213658
 20
30.5027934447
 10
33.7744572846
 20
30.5242652774
 10
33.7648771919
 20
30.5463523037
 10
33.7505395701
 20
30.5656919741
 10
33.7336271919
 20
30.5793399989
 10
33.7167148138
 20
30.5852185902
 10
33.7023771919
 20
30.5824327857
 10
33.6927970993
 20
30.571406699
 10
33.6894330181
 20
30.5538189517
 10
33.6927970993
 20
30.5323471189
 10
33.7023771919
 20
30.5102600926
 10
33.7167148138
 20
30.4909204223
 10
33.7336271919
 20
30.4772723974
 10
33.7505395701
 20
30.4713938061
 10
33.7648771919
 20
30.4741796106
 10
33.7744572846
 20
30.4852056974
 10
33.7778213658
 20
30.5027934447
  0
LWPOLYLINE
  5
382
330
1F
100
AcDbEntity
  8
0
  6
Continuous
 62
     7
370
    25
100
AcDbPolyline
 90
       17
 70
   128
 43
0.0
 10
33.7778213658
 20
27.7980020053
 10
33.7744572846
 20
27.8194738381
 10
33.7648771919
 20
27.8415608644
 10
33.7505395701
 20
27.8609005347
 10
33.7336271919
 20
27.8745485595
 10
33.7167148138
 20
27.8804271508
 10
33.7023771919
 20
27.8776413464
 10
33.6927970993
 20
27.8666152596
 10
33.6894330181
 20
27.8490275123
 10
33.6927970993
 20
27.8275556795
 10
33.7023771919
 20
27.8054686532
 10
33.7167148138
 20
27.7861289829
 10
33.7336271919
 20
27.772480958
 10
33.7505395701
 20
27.7666023667
 10
33.7648771919
 20
27.7693881712
 10
33.7744572846
 20
27.780414258
 10
33.7778213658
 20
27.7980020053
  0
LWPOLYLINE
  5
383
330
1F
100
AcDbEntity
  8
0
  6
Continuous
 62
     7
370
    25
100
AcDbPolyline
 90
       17
 70
   128
 43
0.0
 10
34.446037274
 20
30.1170406118
 10
34.4422695031
 20
30.1410890645
 10
34.4315397993
 20
30.165826534
 10
34.4154816628
 20
30.1874869647
 10
34.3965397993
 20
30.2027727526
 10
34.3775979358
 20
30.2093567748
 10
34.3615397993
 20
30.2062366738
 10
34.3508100955
 20
30.1938874566
 10
34.3470423246
 20
30.1741891797
 10
34.3508100955
 20
30.150140727
 10
34.3615397993
 20
30.1254032575
 10
34.3775979358
 20
30.1037428267
 10
34.3965397993
 20
30.0884570389
 10
34.4154816628
 20
30.0818730166
 10
34.4315397993
 20
30.0849931177
 10
34.4422695031
 20
30.0973423348
 10
34.446037274
 20
30.1170406118
  0
LWPOLYLINE
  5
384
330
1F
100
AcDbEntity
  8
0
  6
Continuous
 62
     7
370
    25
100
AcDbPolyline
 90
       17
 70
   128
 43
0.0
 10
33.1202120592
 20
30.8824232167
 10
33.1164442883
 20
30.9064716694
 10
33.1057145846
 20
30.9312091388
 10
33.0896564481
 20
30.9528695696
 10
33.0707145846
 20
30.9681553574
 10
33.0517727211
 20
30.9747393797
 10
33.0357145846
 20
30.9716192787
 10
33.0249848808
 20
30.9592700615
 10
33.0212171099
 20
30.9395717845
 10
33.0249848808
 20
30.9155233318
 10
33.0357145846
 20
30.8907858623
 10
33.0517727211
 20
30.8691254316
 10
33.0707145846
 20
30.8538396437
 10
33.0896564481
 20
30.8472556215
 10
33.1057145846
 20
30.8503757225
 10
33.1164442883
 20
30.8627249397
 10
33.1202120592
 20
30.8824232167
  0
LWPOLYLINE
  5
385
330
1F
100
AcDbEntity
  8
0
  6
Continuous
 62
     7
370
    25
100
AcDbPolyline
 90
       17
 70
   128
 43
0.0
 10
33.0760178854
 20
31.1120711731
 10
33.0722501145
 20
31.1361196258
 10
33.0615204107
 20
31.1608570953
 10
33.0454622742
 20
31.182517526
 10
33.0265204107
 20
31.1978033139
 10
33.0075785472
 20
31.2043873361
 10
32.9915204107
 20
31.2012672351
 10
32.980790707
 20
31.1889180179
 10
32.9770229361
 20
31.169219741
 10
32.980790707
 20
31.1451712883
 10
32.9915204107
 20
31.1204338188
 10
33.0075785472
 20
31.098773388
 10
33.0265204107
 20
31.0834876002
 10
33.0454622742
 20
31.0769035779
 10
33.0615204107
 20
31.080023679
 10
33.0722501145
 20
31.0923728961
 10
33.0760178854
 20
31.1120711731
  0
LWPOLYLINE
  5
386
330
1F
100
AcDbEntity
  8
0
  6
Continuous
 62
     7
370
    25
100
AcDbPolyline
 90
       17
 70
   128
 43
0.0
 10
34.4902314478
 20
30.2956630613
 10
34.4864636769
 20
30.319711514
 10
34.4757339731
 20
30.3444489835
 10
34.4596758366
 20
30.3661094142
 10
34.4407339731
 20
30.3813952021
 10
34.4217921096
 20
30.3879792243
 10
34.4057339731
 20
30.3848591233
 10
34.3950042693
 20
30.3725099061
 10
34.3912364984
 20
30.3528116291
 10
34.3950042693
 20
30.3287631764
 10
34.4057339731
 20
30.304025707
 10
34.4217921096
 20
30.2823652762
 10
34.4407339731
 20
30.2670794884
 10
34.4596758366
 20
30.2604954661
 10
34.4757339731
 20
30.2636155671
 10
34.4864636769
 20
30.2759647843
 10
34.4902314478
 20
30.2956630613
  0
LWPOLYLINE
  5
387
330
1F
100
AcDbEntity
  8
0
  6
Continuous
 62
     7
370
    25
100
AcDbPolyline
 90
       17
 70
   128
 43
0.0
 10
34.446037274
 20
27.4122491725
 10
34.4422695031
 20
27.4362976251
 10
34.4315397993
 20
27.4610350946
 10
34.4154816628
 20
27.4826955254
 10
34.3965397993
 20
27.4979813132
 10
34.3775979358
 20
27.5045653355
 10
34.3615397993
 20
27.5014452345
 10
34.3508100955
 20
27.4890960173
 10
34.3470423246
 20
27.4693977403
 10
34.3508100955
 20
27.4453492876
 10
34.3615397993
 20
27.4206118181
 10
34.3775979358
 20
27.3989513874
 10
34.3965397993
 20
27.3836655995
 10
34.4154816628
 20
27.3770815773
 10
34.4315397993
 20
27.3802016783
 10
34.4422695031
 20
27.3925508955
 10
34.446037274
 20
27.4122491725
  0
LWPOLYLINE
  5
388
330
1F
100
AcDbEntity
  8
0
  6
Continuous
 62
     7
370
    25
100
AcDbPolyline
 90
       17
 70
   128
 43
0.0
 10
33.1202120592
 20
28.1776317773
 10
33.1164442883
 20
28.20168023
 10
33.1057145846
 20
28.2264176994
 10
33.0896564481
 20
28.2480781302
 10
33.0707145846
 20
28.263363918
 10
33.0517727211
 20
28.2699479403
 10
33.0357145846
 20
28.2668278393
 10
33.0249848808
 20
28.2544786221
 10
33.0212171099
 20
28.2347803451
 10
33.0249848808
 20
28.2107318924
 10
33.0357145846
 20
28.185994423
 10
33.0517727211
 20
28.1643339922
 10
33.0707145846
 20
28.1490482044
 10
33.0896564481
 20
28.1424641821
 10
33.1057145846
 20
28.1455842831
 10
33.1164442883
 20
28.1579335003
 10
33.1202120592
 20
28.1776317773
  0
LWPOLYLINE
  5
389
330
1F
100
AcDbEntity
  8
0
  6
Continuous
 62
     7
370
    25
100
AcDbPolyline
 90
       17
 70
   128
 43
0.0
 10
34.3912364984
 20
27.2397497838
 10
34.3950042693
 20
27.2157013311
 10
34.4057339731
 20
27.1909638617
 10
34.4217921096
 20
27.1693034309
 10
34.4407339731
 20
27.1540176431
 10
34.4596758366
 20
27.1474336208
 10
34.4757339731
 20
27.1505537218
 10
34.4864636769
 20
27.162902939
 10
34.4902314478
 20
27.182601216
 10
34.4864636769
 20
27.2066496687
 10
34.4757339731
 20
27.2313871381
 10
34.4596758366
 20
27.2530475689
 10
34.4407339731
 20
27.2683333567
 10
34.4217921096
 20
27.274917379
 10
34.4057339731
 20
27.271797278
 10
34.3950042693
 20
27.2594480608
 10
34.3912364984
 20
27.2397497838
  0
LWPOLYLINE
  5
38A
330
1F
100
AcDbEntity
  8
0
  6
Continuous
 62
     7
370
    25
100
AcDbPolyline
 90
       17
 70
   128
 43
0.0
 10
32.9770229361
 20
28.0561578956
 10
32.980790707
 20
28.032109443
 10
32.9915204107
 20
28.0073719735
 10
33.0075785472
 20
27.9857115427
 10
33.0265204107
 20
27.9704257549
 10
33.0454622742
 20
27.9638417326
 10
33.0615204107
 20
27.9669618336
 10
33.0722501145
 20
27.9793110508
 10
33.0760178854
 20
27.9990093278
 10
33.0722501145
 20
28.0230577805
 10
33.0615204107
 20
28.04779525
 10
33.0454622742
 20
28.0694556807
 10
33.0265204107
 20
28.0847414686
 10
33.0075785472
 20
28.0913254908
 10
32.9915204107
 20
28.0882053898
 10
32.980790707
 20
28.0758561726
 10
32.9770229361
 20
28.0561578956
  0
LINE
  5
38B
330
1F
100
AcDbEntity
  8
0
  6
Continuous
 62
     7
370
    25
100
AcDbLine
 10
34.6970871032
 20
30.5100088901
 30
0.0
 11
36.4472616474
 21
31.5203512638
 31
0.0
  0
ARC
  5
38C
330
1F
100
AcDbEntity
  8
0
  6
Continuous
 62
     7
370
    25
100
AcDbCircle
 10
36.4007020111
 20
31.4424700957
 30
0.0
 40
0.0907374017794822
100
AcDbArc
 50
0.8722148325
 51
59.1277853132
  0
LINE
  5
38D
330
1F
100
AcDbEntity
  8
0
  6
Continuous
 62
     7
370
    25
100
AcDbLine
 10
36.4914288993
 20
31.4438513396
 30
0.0
 11
34.7412543551
 21
30.433508966
 31
0.0
  0
LINE
  5
38E
330
1F
100
AcDbEntity
  8
0
  6
Continuous
 62
     7
370
    25
100
AcDbLine
 10
34.7412543551
 20
26.7549304316
 30
0.0
 11
36.4914288993
 21
27.9115326434
 31
0.0
  0
LINE
  5
38F
330
1F
100
AcDbEntity
  8
0
  6
Continuous
 62
     7
370
    25
100
AcDbLine
 10
34.6469996989
 20
32.5596203652
 30
0.0
 11
32.7701672807
 21
31.6223960259
 31
0.0
  0
LINE
  5
390
330
1F
100
AcDbEntity
  8
0
  6
Continuous
 62
     7
370
    25
100
AcDbLine
 10
36.4472616474
 20
31.5203512638
 30
0.0
 11
34.6469996989
 21
32.5596203652
 31
0.0
  0
ELLIPSE
  5
391
330
1F
100
AcDbEntity
  8
0
  6
Continuous
 62
     7
370
    25
100
AcDbEllipse
 10
35.6053453273
 20
31.5000218387
 30
0.0
 11
0.4024427618092759
 21
-0.01176311161447074
 31
0.0
210
0.0
220
0.0
230
1.0
 40
0.5567969691
 41
3.943263782300062
 42
6.670993715929823
  0
ELLIPSE
  5
392
330
1F
100
AcDbEntity
  8
0
  6
Continuous
 62
     7
370
    25
100
AcDbEllipse
 10
35.6053453273
 20
31.5000218387
 30
0.0
 11
0.4024427618092759
 21
-0.01176311161447074
 31
0.0
210
0.0
220
0.0
230
1.0
 40
0.5567969691
 41
1.728131212387677
 42
1.894245335035019
  0
ELLIPSE
  5
393
330
1F
100
AcDbEntity
  8
0
  6
Continuous
 62
     7
370
    25
100
AcDbEllipse
 10
35.6053453273
 20
31.5000218387
 30
0.0
 11
0.4024427618092759
 21
-0.01176311161447074
 31
0.0
210
0.0
220
0.0
230
1.0
 40
0.5567969691
 41
2.413374667672104
 42
3.943263782300062
  0
ELLIPSE
  5
394
330
1F
100
AcDbEntity
  8
0
  6
Continuous
 62
     7
370
    25
100
AcDbEllipse
 10
34.5800404945
 20
32.0919177197
 30
0.0
 11
0.4024427618092759
 21
-0.01176311161446364
 31
0.0
210
0.0
220
0.0
230
1.0
 40
0.5567969691
 41
3.943263782300027
 42
6.578230915154025
  0
ELLIPSE
  5
395
330
1F
100
AcDbEntity
  8
0
  6
Continuous
 62
     7
370
    25
100
AcDbEllipse
 10
34.5800404945
 20
32.0919177197
 30
0.0
 11
0.4024427618092759
 21
-0.01176311161446364
 31
0.0
210
0.0
220
0.0
230
1.0
 40
0.5567969691
 41
1.283091959608153
 42
1.444266019738399
  0
ELLIPSE
  5
396
330
1F
100
AcDbEntity
  8
0
  6
Continuous
 62
     7
370
    25
100
AcDbEllipse
 10
34.5800404945
 20
32.0919177197
 30
0.0
 11
0.4024427618092759
 21
-0.01176311161446364
 31
0.0
210
0.0
220
0.0
230
1.0
 40
0.5567969691
 41
2.413374668027874
 42
3.943263782300051
  0
LINE
  5
397
330
1F
100
AcDbEntity
  8
0
  6
Continuous
 62
     7
370
    25
100
AcDbLine
 10
34.6436983712
 20
29.3597811119
 30
0.0
 11
34.6457367529
 21
29.3586043792
 31
0.0
  0
LINE
  5
398
330
1F
100
AcDbEntity
  8
0
  6
Continuous
 62
     7
370
    25
100
AcDbLine
 10
34.6436983712
 20
29.6530310907
 30
0.0
 11
34.6436983712
 21
29.3597811119
 31
0.0
  0
LINE
  5
399
330
1F
100
AcDbEntity
  8
0
  6
Continuous
 62
     7
370
    25
100
AcDbLine
 10
32.8215176309
 20
28.5878819119
 30
0.0
 11
32.8946975803
 21
28.6272768375
 31
0.0
  0
LINE
  5
39A
330
1F
100
AcDbEntity
  8
0
  6
Continuous
 62
     7
370
    25
100
AcDbLine
 10
33.0820687014
 20
28.5191097917
 30
0.0
 11
34.6436983712
 21
29.3597811119
 31
0.0
  0
ELLIPSE
  5
39B
330
1F
100
AcDbEntity
  8
0
  6
Continuous
 62
     7
370
    25
100
AcDbEllipse
 10
34.0106918088
 20
30.0874586577
 30
0.0
 11
0.03583684226115481
 21
0.05781559055408183
 31
0.0
210
0.0
220
0.0
230
1.0
 40
0.5971668203
 41
1.008680776220712
 42
2.374828564799513
  0
ELLIPSE
  5
39C
330
1F
100
AcDbEntity
  8
0
  6
Continuous
 62
     7
370
    25
100
AcDbEllipse
 10
34.0106918088
 20
30.0874586577
 30
0.0
 11
0.03583684226115481
 21
0.05781559055408183
 31
0.0
210
0.0
220
0.0
230
1.0
 40
0.5971668203
 41
2.374828564799513
 42
5.311935208297172
  0
LINE
  5
39D
330
1F
100
AcDbEntity
  8
0
  6
Continuous
 62
     7
370
    25
100
AcDbLine
 10
36.5082192929
 20
31.0707710334
 30
0.0
 11
36.538513597
 21
31.0882595629
 31
0.0
  0
LINE
  5
39E
330
1F
100
AcDbEntity
  8
0
  6
Continuous
 62
     7
370
    25
100
AcDbLine
 10
36.538513597
 20
31.0188535939
 30
0.0
 11
36.538513597
 21
31.0882595629
 31
0.0
  0
LINE
  5
39F
330
1F
100
AcDbEntity
  8
0
  6
Continuous
 62
     7
370
    25
100
AcDbLine
 10
36.5082192929
 20
31.0013650644
 30
0.0
 11
36.538513597
 21
31.0188535939
 31
0.0
  0
LINE
  5
3A0
330
1F
100
AcDbEntity
  8
0
  6
Continuous
 62
     7
370
    25
100
AcDbLine
 10
36.5082192929
 20
31.1567735994
 30
0.0
 11
36.538513597
 21
31.1392850699
 31
0.0
  0
ARC
  5
3A1
330
1F
100
AcDbEntity
  8
0
  6
Continuous
 62
     7
370
    25
100
AcDbCircle
 10
36.5288306578
 20
31.1137723164
 30
0.0
 40
0.0272884573020761
100
AcDbArc
 50
290.7834208003
 51
69.2165792006
  0
ARC
  5
3A2
330
1F
100
AcDbEntity
  8
0
  6
Continuous
 62
     7
370
    25
100
AcDbCircle
 10
36.5255408568
 20
31.047485496
 30
0.0
 40
0.0314337049055104
100
AcDbArc
 50
294.3746582941
 51
354.3052007494
  0
LINE
  5
3A3
330
1F
100
AcDbEntity
  8
0
  6
Continuous
 62
     7
370
    25
100
AcDbLine
 10
34.6457367529
 20
27.6164234398
 30
0.0
 11
32.8946975803
 21
28.6272768375
 31
0.0
  0
LINE
  5
3A4
330
1F
100
AcDbEntity
  8
0
  6
Continuous
 62
     7
370
    25
100
AcDbLine
 10
34.1744521457
 20
27.8884902525
 30
0.0
 11
34.5211681028
 21
28.095519092
 31
0.0
  0
ELLIPSE
  5
3A5
330
1F
100
AcDbEntity
  8
0
  6
Continuous
 62
     7
370
    25
100
AcDbEllipse
 10
35.0925137419
 20
28.2351846011
 30
0.0
 11
0.6101722648562175
 21
0.01912536169148638
 31
0.0
210
0.0
220
0.0
230
1.0
 40
0.597072973
 41
3.482007557705621
 42
3.872296795528294
  0
LINE
  5
3A6
330
1F
100
AcDbEntity
  8
0
  6
Continuous
 62
     7
370
    25
100
AcDbLine
 10
34.3785347826
 20
28.8213250708
 30
0.0
 11
33.4685522621
 21
28.2959975812
 31
0.0
  0
LINE
  5
3A7
330
1F
100
AcDbEntity
  8
0
  6
Continuous
 62
     7
370
    25
100
AcDbLine
 10
34.6457367529
 20
27.7452762668
 30
0.0
 11
34.5341351503
 21
27.6808496736
 31
0.0
  0
LINE
  5
3A8
330
1F
100
AcDbEntity
  8
0
  6
Continuous
 62
     7
370
    25
100
AcDbLine
 10
34.6457367529
 20
27.9344014772
 30
0.0
 11
34.3797801436
 21
27.7699569223
 31
0.0
  0
ARC
  5
3A9
330
1F
100
AcDbEntity
  8
0
  6
Continuous
 62
     7
370
    25
100
AcDbCircle
 10
33.8118033423
 20
27.8686448898
 30
0.0
 40
0.0868117331333679
100
AcDbArc
 50
173.5767529175
 51
246.4178705498
  0
LINE
  5
3AA
330
1F
100
AcDbEntity
  8
0
  6
Continuous
 62
     7
370
    25
100
AcDbLine
 10
34.4926988269
 20
28.4721485095
 30
0.0
 11
33.8508642712
 21
28.0752935562
 31
0.0
  0
ELLIPSE
  5
3AB
330
1F
100
AcDbEntity
  8
0
  6
Continuous
 62
     7
370
    25
100
AcDbEllipse
 10
35.0927802695
 20
28.4159389922
 30
0.0
 11
0.602530994068161
 21
0.009270237717942111
 31
0.0
210
0.0
220
0.0
230
1.0
 40
0.5872748814
 41
3.107424467448246
 42
3.486137435390248
  0
LINE
  5
3AC
330
1F
100
AcDbEntity
  8
0
  6
Continuous
 62
     7
370
    25
100
AcDbLine
 10
34.5274993091
 20
28.2876938331
 30
0.0
 11
34.005219278
 21
27.9861863074
 31
0.0
  0
LINE
  5
3AD
330
1F
100
AcDbEntity
  8
0
  6
Continuous
 62
     7
370
    25
100
AcDbLine
 10
34.5211681028
 20
28.095519092
 30
0.0
 11
34.5274993091
 21
28.2876938331
 31
0.0
  0
LINE
  5
3AE
330
1F
100
AcDbEntity
  8
0
  6
Continuous
 62
     7
370
    25
100
AcDbLine
 10
34.4973851324
 20
28.5816934417
 30
0.0
 11
34.4976947645
 21
28.5871660295
 31
0.0
  0
ARC
  5
3AF
330
1F
100
AcDbEntity
  8
0
  6
Continuous
 62
     7
370
    25
100
AcDbCircle
 10
34.4284184045
 20
29.0195461127
 30
0.0
 40
0.0659347626226264
100
AcDbArc
 50
304.0563508265
 51
7.2558295669
  0
LWPOLYLINE
  5
3B0
330
1F
100
AcDbEntity
  8
0
  6
Continuous
 62
     7
370
    25
100
AcDbPolyline
 90
        9
 70
   128
 43
0.0
 10
34.5227938742
 20
29.8349124583
 10
34.513631121
 20
29.8115773392
 10
34.513631121
 20
29.7782891832
 10
34.5240445721
 20
29.7412373448
 10
34.5434650799
 20
29.7054258802
 10
34.5692697974
 20
29.6756913259
 10
34.5979736544
 20
29.6560494985
 10
34.6257000359
 20
29.6491531354
 10
34.6448106735
 20
29.6535877691
  0
ARC
  5
3B1
330
1F
100
AcDbEntity
  8
0
  6
Continuous
 62
     7
370
    25
100
AcDbCircle
 10
34.5298338892
 20
29.714391198
 30
0.0
 40
0.1143387088990986
100
AcDbArc
 50
2.6326010103
 51
31.8987860728
  0
LWPOLYLINE
  5
3B2
330
1F
100
AcDbEntity
  8
0
  6
Continuous
 62
     7
370
    25
100
AcDbPolyline
 90
       13
 70
   128
 43
0.0
 10
34.5544252294
 20
29.8166520656
 10
34.5529153627
 20
29.8158472579
 10
34.5413426107
 20
29.8025277451
 10
34.5372788007
 20
29.7812817463
 10
34.5413426107
 20
29.7553437723
 10
34.5529153627
 20
29.7286626446
 10
34.5702352099
 20
29.7053003228
 10
34.5906653627
 20
29.6888135088
 10
34.6110955154
 20
29.6817121705
 10
34.6284153627
 20
29.6850774223
 10
34.6399881146
 20
29.6983969351
 10
34.6440519246
 20
29.7196429339
 10
34.6440519246
 20
29.7196429339
  0
LINE
  5
3B3
330
1F
100
AcDbEntity
  8
0
  6
Continuous
 62
     7
370
    25
100
AcDbLine
 10
34.4938251684
 20
28.7547693477
 30
0.0
 11
34.4938251684
 21
29.0278736667
 31
0.0
  0
LINE
  5
3B4
330
1F
100
AcDbEntity
  8
0
  6
Continuous
 62
     7
370
    25
100
AcDbLine
 10
34.3785333283
 20
28.8213259103
 30
0.0
 11
34.4938251684
 21
28.7547693477
 31
0.0
  0
LINE
  5
3B5
330
1F
100
AcDbEntity
  8
0
  6
Continuous
 62
     7
370
    25
100
AcDbLine
 10
34.3785333283
 20
28.914806196
 30
0.0
 11
34.3785333283
 21
28.8213259103
 31
0.0
  0
LINE
  5
3B6
330
1F
100
AcDbEntity
  8
0
  6
Continuous
 62
     7
370
    25
100
AcDbLine
 10
34.4938251684
 20
28.7547693477
 30
0.0
 11
34.6457367529
 21
28.8424660388
 31
0.0
  0
ARC
  5
3B7
330
1F
100
AcDbEntity
  8
0
  6
Continuous
 62
     7
370
    25
100
AcDbCircle
 10
33.1219474532
 20
29.5849386695
 30
0.0
 40
0.0283390435676341
100
AcDbArc
 50
204.5304465675
 51
307.5431127411
  0
ARC
  5
3B8
330
1F
100
AcDbEntity
  8
0
  6
Continuous
 62
     7
370
    25
100
AcDbCircle
 10
33.1887479089
 20
30.0927319491
 30
0.0
 40
0.0959207100429869
100
AcDbArc
 50
121.0899432609
 51
164.8378003563
  0
LINE
  5
3B9
330
1F
100
AcDbEntity
  8
0
  6
Continuous
 62
     7
370
    25
100
AcDbLine
 10
33.4134737205
 20
30.3225153684
 30
0.0
 11
33.1392160824
 21
30.1748743911
 31
0.0
  0
ARC
  5
3BA
330
1F
100
AcDbEntity
  8
0
  6
Continuous
 62
     7
370
    25
100
AcDbCircle
 10
33.4308689782
 20
30.2998587396
 30
0.0
 40
0.0285642752670287
100
AcDbArc
 50
352.4151073904
 51
127.5162554963
  0
LINE
  5
3BB
330
1F
100
AcDbEntity
  8
0
  6
Continuous
 62
     7
370
    25
100
AcDbLine
 10
33.4591833268
 20
29.7857503898
 30
0.0
 11
33.4591833268
 21
30.2960883972
 31
0.0
  0
ARC
  5
3BC
330
1F
100
AcDbEntity
  8
0
  6
Continuous
 62
     7
370
    25
100
AcDbCircle
 10
33.3660380718
 20
29.7904065701
 30
0.0
 40
0.0932615599221344
100
AcDbArc
 50
300.5726330936
 51
357.1382589718
  0
LINE
  5
3BD
330
1F
100
AcDbEntity
  8
0
  6
Continuous
 62
     7
370
    25
100
AcDbLine
 10
33.1392160824
 20
29.5624687822
 30
0.0
 11
33.4134737205
 21
29.7101097595
 31
0.0
  0
ARC
  5
3BE
330
1F
100
AcDbEntity
  8
0
  6
Continuous
 62
     7
370
    25
100
AcDbCircle
 10
33.1830614566
 20
30.0967779538
 30
0.0
 40
0.0938748328185844
100
AcDbArc
 50
120.7556896993
 51
157.7664905354
  0
LINE
  5
3BF
330
1F
100
AcDbEntity
  8
0
  6
Continuous
 62
     7
370
    25
100
AcDbLine
 10
33.1350558924
 20
30.1774498203
 30
0.0
 11
33.1392160824
 21
30.1748743911
 31
0.0
  0
LINE
  5
3C0
330
1F
100
AcDbEntity
  8
0
  6
Continuous
 62
     7
370
    25
100
AcDbLine
 10
33.4134737205
 20
30.3225153684
 30
0.0
 11
33.4093135305
 21
30.3250907976
 31
0.0
  0
LINE
  5
3C1
330
1F
100
AcDbEntity
  8
0
  6
Continuous
 62
     7
370
    25
100
AcDbLine
 10
33.4093135305
 20
30.3250907976
 30
0.0
 11
33.1350558924
 21
30.1774498203
 31
0.0
  0
ARC
  5
3C2
330
1F
100
AcDbEntity
  8
0
  6
Continuous
 62
     7
370
    25
100
AcDbCircle
 10
33.427485134
 20
30.299251686
 30
0.0
 40
0.03158903072223
100
AcDbArc
 50
62.2132523744
 51
125.1171718955
  0
LWPOLYLINE
  5
3C3
330
1F
100
AcDbEntity
  8
0
  6
Continuous
 62
     7
370
    25
100
AcDbPolyline
 90
        3
 70
   128
 43
0.0
 10
33.1021580505
 20
29.5629368604
 10
33.0970497437
 20
29.5672653205
 10
33.0961662696
 20
29.568324648
  0
LINE
  5
3C4
330
1F
100
AcDbEntity
  8
0
  6
Continuous
 62
     7
370
    25
100
AcDbLine
 10
36.0477689694
 20
30.0894164127
 30
0.0
 11
36.0477689694
 21
29.6382810675
 31
0.0
  0
LINE
  5
3C5
330
1F
100
AcDbEntity
  8
0
  6
Continuous
 62
     7
370
    25
100
AcDbLine
 10
36.0477689694
 20
29.2663756574
 30
0.0
 11
36.0477689694
 21
29.1279430601
 31
0.0
  0
LINE
  5
3C6
330
1F
100
AcDbEntity
  8
0
  6
Continuous
 62
     7
370
    25
100
AcDbLine
 10
36.0477689694
 20
28.75603765
 30
0.0
 11
36.0477689694
 21
28.4563347889
 31
0.0
  0
LINE
  5
3C7
330
1F
100
AcDbEntity
  8
0
  6
Continuous
 62
     7
370
    25
100
AcDbLine
 10
35.96754869
 20
28.4523641883
 30
0.0
 11
35.96754869
 21
28.7940848381
 31
0.0
  0
LINE
  5
3C8
330
1F
100
AcDbEntity
  8
0
  6
Continuous
 62
     7
370
    25
100
AcDbLine
 10
35.96754869
 20
29.1252676767
 30
0.0
 11
35.96754869
 21
29.3044228455
 31
0.0
  0
LINE
  5
3C9
330
1F
100
AcDbEntity
  8
0
  6
Continuous
 62
     7
370
    25
100
AcDbLine
 10
35.96754869
 20
29.6356056842
 30
0.0
 11
35.96754869
 21
30.0854458121
 31
0.0
  0
LINE
  5
3CA
330
1F
100
AcDbEntity
  8
0
  6
Continuous
 62
     7
370
    25
100
AcDbLine
 10
33.9275458357
 20
35.5869217892
 30
0.0
 11
34.1667300954
 21
35.4488436551
 31
0.0
  0
LINE
  5
3CB
330
1F
100
AcDbEntity
  8
0
  6
Continuous
 62
     7
370
    25
100
AcDbLine
 10
33.7954990353
 20
37.41871353
 30
0.0
 11
33.7954990353
 21
37.17267939
 31
0.0
  0
SPLINE
  5
3CC
330
1F
100
AcDbEntity
  8
0
  6
Continuous
 62
     7
370
    25
100
AcDbSpline
210
0.0
220
0.0
230
1.0
 70
     8
 71
     3
 72
    18
 73
    14
 74
     0
 42
0.00000001
 43
0.00000001
 40
0.0
 40
0.0
 40
0.0
 40
0.0
 40
0.0379317519582206
 40
0.1291326542303506
 40
0.1848715358255641
 40
0.2422504263312465
 40
0.3003047298290707
 40
0.3604765403247205
 40
0.4501088806900239
 40
0.541905261615262
 40
0.6656682245311394
 40
0.7901998791949121
 40
1.0
 40
1.0
 40
1.0
 40
1.0
 10
34.91248651726415
 20
37.38509890970026
 30
0.0
 10
34.92090607266707
 20
37.38314397019455
 30
0.0
 10
34.94956911828165
 20
37.37648868763571
 30
0.0
 10
34.99529864699061
 20
37.37798287938211
 30
0.0
 10
35.04852786811082
 20
37.39056468460445
 30
0.0
 10
35.09499748216184
 20
37.41174668120954
 30
0.0
 10
35.14263128627125
 20
37.4451433546738
 30
0.0
 10
35.19681128488878
 20
37.49522274815443
 30
0.0
 10
35.25548507568746
 20
37.56354451847303
 30
0.0
 10
35.32343364102179
 20
37.65749033972397
 30
0.0
 10
35.39319771181417
 20
37.7675389297
 30
0.0
 10
35.48134282829567
 20
37.91940552117594
 30
0.0
 10
35.54254071503304
 20
38.0318852388249
 30
0.0
 10
35.5809436577761
 20
38.10246859369082
 30
0.0
  0
SPLINE
  5
3CD
330
1F
100
AcDbEntity
  8
0
  6
Continuous
 62
     7
370
    25
100
AcDbSpline
210
0.0
220
0.0
230
1.0
 70
     8
 71
     3
 72
    18
 73
    14
 74
     0
 42
0.00000001
 43
0.00000001
 40
0.0
 40
0.0
 40
0.0
 40
0.0
 40
0.2307804777352904
 40
0.346521262663644
 40
0.4627492065214347
 40
0.5520568781184385
 40
0.6430304536918765
 40
0.6986304009604974
 40
0.7558662692654305
 40
0.8142773225388796
 40
0.8764444459396676
 40
0.9401812210714667
 40
1.0
 40
1.0
 40
1.0
 40
1.0
 10
35.20971259765317
 20
38.31677572304429
 30
0.0
 10
35.16736935324121
 20
38.23892854484934
 30
0.0
 10
35.10379016897531
 20
38.12203953089274
 30
0.0
 10
35.01384550990949
 20
37.96864504128586
 30
0.0
 10
34.94733904532935
 20
37.86476559631747
 30
0.0
 10
34.88088944465985
 20
37.7735763079705
 30
0.0
 10
34.82319396266843
 20
37.70706178197382
 30
0.0
 10
34.7698316572608
 20
37.65832830309531
 30
0.0
 10
34.72326274655214
 20
37.62574556932542
 30
0.0
 10
34.67487254692096
 20
37.60381393986348
 30
0.0
 10
34.62687861688507
 20
37.59329144641494
 30
0.0
 10
34.58078789573857
 20
37.59106930443875
 30
0.0
 10
34.55323738038616
 20
37.59741197380482
 30
0.0
 10
34.53989894165901
 20
37.60048274419236
 30
0.0
  0
ARC
  5
3CE
330
1F
100
AcDbEntity
  8
0
  6
Continuous
 62
     7
370
    25
100
AcDbCircle
 10
33.8515631269
 20
37.520742325
 30
0.0
 40
0.0251505230119577
100
AcDbArc
 50
54.3834978222
 51
114.2947754733
  0
ARC
  5
3CF
330
1F
100
AcDbEntity
  8
0
  6
Continuous
 62
     7
370
    25
100
AcDbCircle
 10
33.8058777218
 20
37.4416196358
 30
0.0
 40
0.0251476999962479
100
AcDbArc
 50
185.700267039
 51
245.6248651658
  0
LINE
  5
3D0
330
1F
100
AcDbEntity
  8
0
  6
Continuous
 62
     7
370
    25
100
AcDbLine
 10
34.5026058165
 20
35.7039811426
 30
0.0
 11
34.5026058165
 21
37.3201563439
 31
0.0
  0
LINE
  5
3D1
330
1F
100
AcDbEntity
  8
0
  6
Continuous
 62
     7
370
    25
100
AcDbLine
 10
34.4212885366
 20
35.9468758258
 30
0.0
 11
34.3758291212
 21
35.9731189878
 31
0.0
  0
ARC
  5
3D2
330
1F
100
AcDbEntity
  8
0
  6
Continuous
 62
     7
370
    25
100
AcDbCircle
 10
35.6707919009
 20
36.3075958933
 30
0.0
 40
0.0050293927849553
100
AcDbArc
 50
294.3746582937
 51
354.3052007487
  0
ARC
  5
3D3
330
1F
100
AcDbEntity
  8
0
  6
Continuous
 62
     7
370
    25
100
AcDbCircle
 10
35.6784002603
 20
36.3266846276
 30
0.0
 40
0.0213442144943226
100
AcDbArc
 50
255.827285382
 51
304.6808176385
  0
LINE
  5
3D4
330
1F
100
AcDbEntity
  8
0
  6
Continuous
 62
     7
370
    25
100
AcDbLine
 10
36.2317764745
 20
38.3914309107
 30
0.0
 11
36.2306341239
 21
38.3907714457
 31
0.0
  0
ARC
  5
3D5
330
1F
100
AcDbEntity
  8
0
  6
Continuous
 62
     7
370
    25
100
AcDbCircle
 10
34.2490150591
 20
35.4253978524
 30
0.0
 40
0.023973175328143
100
AcDbArc
 50
304.0286269036
 51
7.2586130842
  0
ARC
  5
3D6
330
1F
100
AcDbEntity
  8
0
  6
Continuous
 62
     7
370
    25
100
AcDbCircle
 10
34.2157036781
 20
35.4434296556
 30
0.0
 40
0.0492719310511765
100
AcDbArc
 50
173.6916021262
 51
235.0911089439
  0
LINE
  5
3D7
330
1F
100
AcDbEntity
  8
0
  6
Continuous
 62
     7
370
    25
100
AcDbLine
 10
34.3758291212
 20
35.6307945142
 30
0.0
 11
34.5026058165
 21
35.7039811426
 31
0.0
  0
LINE
  5
3D8
330
1F
100
AcDbEntity
  8
0
  6
Continuous
 62
     7
370
    25
100
AcDbLine
 10
34.4212885366
 20
35.7835809335
 30
0.0
 11
34.3758291212
 21
35.8098240954
 31
0.0
  0
ARC
  5
3D9
330
1F
100
AcDbEntity
  8
0
  6
Continuous
 62
     7
370
    25
100
AcDbCircle
 10
35.8162834825
 20
38.0720175336
 30
0.0
 40
0.0263845271399005
100
AcDbArc
 50
355.1404578976
 51
45.9928810339
  0
LINE
  5
3DA
330
1F
100
AcDbEntity
  8
0
  6
Continuous
 62
     7
370
    25
100
AcDbLine
 10
35.8161899229
 20
38.0850131342
 30
0.0
 11
35.8425731668
 21
38.0697824117
 31
0.0
  0
ARC
  5
3DB
330
1F
100
AcDbEntity
  8
0
  6
Continuous
 62
     7
370
    25
100
AcDbCircle
 10
35.7253966808
 20
38.6024846985
 30
0.0
 40
0.0251488617950832
100
AcDbArc
 50
54.3824225248
 51
114.3071190461
  0
LINE
  5
3DC
330
1F
100
AcDbEntity
  8
0
  6
Continuous
 62
     7
370
    25
100
AcDbLine
 10
35.7101299171
 20
36.5948127297
 30
0.0
 11
35.8425731668
 21
36.5183548691
 31
0.0
  0
ARC
  5
3DD
330
1F
100
AcDbEntity
  8
0
  6
Continuous
 62
     7
370
    25
100
AcDbCircle
 10
36.1692700583
 20
38.3324550895
 30
0.0
 40
0.0957335639400134
100
AcDbArc
 50
63.70654739
 51
127.2871245284
  0
SPLINE
  5
3DE
330
1F
100
AcDbEntity
  8
0
  6
Continuous
 62
     7
370
    25
100
AcDbSpline
210
0.0
220
0.0
230
1.0
 70
     8
 71
     3
 72
    12
 73
     8
 74
     0
 42
0.00000001
 43
0.00000001
 40
0.0
 40
0.0
 40
0.0
 40
0.0
 40
0.0719425770997508
 40
0.1455831749573303
 40
0.5381189177140192
 40
0.5605210080679403
 40
1.0
 40
1.0
 40
1.0
 40
1.0
 10
36.22840713170861
 20
38.40596072566068
 30
0.0
 10
36.22817439084742
 20
38.40620094189296
 30
0.0
 10
36.22770341587155
 20
38.40668704404808
 30
0.0
 10
36.2270687473354
 20
38.40695924325877
 30
0.0
 10
36.22700074415661
 20
38.40617150142749
 30
0.0
 10
36.22730006542205
 20
38.40280223957501
 30
0.0
 10
36.22737096088551
 20
38.39958266000968
 30
0.0
 10
36.22743841778732
 20
38.39651923603306
 30
0.0
  0
ARC
  5
3DF
330
1F
100
AcDbEntity
  8
0
  6
Continuous
 62
     7
370
    25
100
AcDbCircle
 10
35.7986266945
 20
38.5411524992
 30
0.0
 40
0.1005954471803797
100
AcDbArc
 50
65.6928809539
 51
125.6175774752
  0
ARC
  5
3E0
330
1F
100
AcDbEntity
  8
0
  6
Continuous
 62
     7
370
    25
100
AcDbCircle
 10
36.1344815475
 20
38.2557093613
 30
0.0
 40
0.026384513897439
100
AcDbArc
 50
355.1404500785
 51
45.9929627545
  0
LINE
  5
3E1
330
1F
100
AcDbEntity
  8
0
  6
Continuous
 62
     7
370
    25
100
AcDbLine
 10
36.1343879745
 20
38.2687049594
 30
0.0
 11
36.1607712183
 21
38.2534742369
 31
0.0
  0
ARC
  5
3E2
330
1F
100
AcDbEntity
  8
0
  6
Continuous
 62
     7
370
    25
100
AcDbCircle
 10
36.2539650215
 20
38.3211793563
 30
0.0
 40
0.0049954526157994
100
AcDbArc
 50
294.149967448
 51
354.5298915945
  0
LINE
  5
3E3
330
1F
100
AcDbEntity
  8
0
  6
Continuous
 62
     7
370
    25
100
AcDbLine
 10
36.0283279687
 20
36.7785045549
 30
0.0
 11
36.1607712183
 21
36.7020466943
 31
0.0
  0
ARC
  5
3E4
330
1F
100
AcDbEntity
  8
0
  6
Continuous
 62
     7
370
    25
100
AcDbCircle
 10
36.2540880567
 20
36.7288364933
 30
0.0
 40
0.0048651582641619
100
AcDbArc
 50
293.2531391841
 51
355.4267198581
  0
ARC
  5
3E5
330
1F
100
AcDbEntity
  8
0
  6
Continuous
 62
     7
370
    25
100
AcDbCircle
 10
36.1228448049
 20
36.5071393641
 30
0.0
 40
0.0239762773162517
100
AcDbArc
 50
304.056350825
 51
7.2558295685
  0
ARC
  5
3E6
330
1F
100
AcDbEntity
  8
0
  6
Continuous
 62
     7
370
    25
100
AcDbCircle
 10
35.6816536985
 20
36.321500844
 30
0.0
 40
0.0293383553185403
100
AcDbArc
 50
263.8103505599
 51
302.9622023902
  0
ARC
  5
3E7
330
1F
100
AcDbEntity
  8
0
  6
Continuous
 62
     7
370
    25
100
AcDbCircle
 10
35.7214304732
 20
36.4379443671
 30
0.0
 40
0.0263800140859142
100
AcDbArc
 50
254.0093832285
 51
304.8562108752
  0
LINE
  5
3E8
330
1F
100
AcDbEntity
  8
0
  6
Continuous
 62
     7
370
    25
100
AcDbLine
 10
35.7101299171
 20
36.4315244723
 30
0.0
 11
35.7365071496
 21
36.4162972201
 31
0.0
  0
LINE
  5
3E9
330
1F
100
AcDbEntity
  8
0
  6
Continuous
 62
     7
370
    25
100
AcDbLine
 10
35.7101299171
 20
36.5131652835
 30
0.0
 11
35.8072178278
 21
36.4571176257
 31
0.0
  0
ARC
  5
3EA
330
1F
100
AcDbEntity
  8
0
  6
Continuous
 62
     7
370
    25
100
AcDbCircle
 10
36.0396285263
 20
36.6216361877
 30
0.0
 40
0.0263800094300637
100
AcDbArc
 50
254.0093544857
 51
304.8562136249
  0
LINE
  5
3EB
330
1F
100
AcDbEntity
  8
0
  6
Continuous
 62
     7
370
    25
100
AcDbLine
 10
36.0283279687
 20
36.6152162975
 30
0.0
 11
36.0547052012
 21
36.5999890453
 31
0.0
  0
LINE
  5
3EC
330
1F
100
AcDbEntity
  8
0
  6
Continuous
 62
     7
370
    25
100
AcDbLine
 10
36.0283279687
 20
36.6968571087
 30
0.0
 11
36.1254158793
 21
36.6408094509
 31
0.0
  0
LINE
  5
3ED
330
1F
100
AcDbEntity
  8
0
  6
Continuous
 62
     7
370
    25
100
AcDbLine
 10
36.4914288993
 20
27.9115326434
 30
0.0
 11
36.4914288993
 21
28.2868821198
 31
0.0
  0
LINE
  5
3EE
330
1F
100
AcDbEntity
  8
0
  6
Continuous
 62
     7
370
    25
100
AcDbLine
 10
36.4914288993
 20
29.962464994
 30
0.0
 11
36.4914288993
 21
31.4438513396
 31
0.0
  0
ARC
  5
3EF
330
1F
100
AcDbEntity
  8
0
  6
Continuous
 62
     7
370
    25
100
AcDbCircle
 10
34.6286954018
 20
32.5354695714
 30
0.0
 40
0.030303599295329
100
AcDbArc
 50
52.8408930988
 51
111.6101624952
  0
ARC
  5
3F0
330
1F
100
AcDbEntity
  8
0
  6
Continuous
 62
     7
370
    25
100
AcDbCircle
 10
36.4641081382
 20
31.4949670814
 30
0.0
 40
0.0304657343740206
100
AcDbArc
 50
65.034774723
 51
123.5706768137
  0
ARC
  5
3F1
330
1F
100
AcDbEntity
  8
0
  6
Continuous
 62
     7
370
    25
100
AcDbCircle
 10
36.4778738271
 20
31.4711324523
 30
0.0
 40
0.0304630774739009
100
AcDbArc
 50
296.4212443265
 51
354.9636530234
  0
ARC
  5
3F2
330
1F
100
AcDbEntity
  8
0
  6
Continuous
 62
     7
370
    25
100
AcDbCircle
 10
36.4778738271
 20
27.938813756
 30
0.0
 40
0.0304630774738956
100
AcDbArc
 50
296.4212443265
 51
354.9636530234
  0
ARC
  5
3F3
330
1F
100
AcDbEntity
  8
0
  6
Continuous
 62
     7
370
    25
100
AcDbCircle
 10
34.6638461898
 20
32.5342361828
 30
0.0
 40
0.0304657343740472
100
AcDbArc
 50
65.034774723
 51
123.5706768137
  0
ARC
  5
3F4
330
1F
100
AcDbEntity
  8
0
  6
Continuous
 62
     7
370
    25
100
AcDbCircle
 10
36.461356555
 20
27.9077536182
 30
0.0
 40
0.0303088588297582
100
AcDbArc
 50
308.3878181318
 51
7.1624988519
  0
ARC
  5
3F5
330
1F
100
AcDbEntity
  8
0
  6
Continuous
 62
     7
370
    25
100
AcDbCircle
 10
34.7768129438
 20
28.5930022929
 30
0.0
 40
0.2796565605691152
100
AcDbArc
 50
182.3175789746
 51
242.0497869744
  0
ARC
  5
3F6
330
1F
100
AcDbEntity
  8
0
  6
Continuous
 62
     7
370
    25
100
AcDbCircle
 10
34.7726812321
 20
28.6224540394
 30
0.0
 40
0.2103446645352854
100
AcDbArc
 50
127.1214836931
 51
232.8785163069
  0
LINE
  5
3F7
330
1F
100
AcDbEntity
  8
0
  6
Continuous
 62
     7
370
    25
100
AcDbLine
 10
34.6457367529
 20
29.3401008347
 30
0.0
 11
33.152826581
 21
28.4782621373
 31
0.0
  0
LINE
  5
3F8
330
1F
100
AcDbEntity
  8
0
  6
Continuous
 62
     7
370
    25
100
AcDbLine
 10
34.4938251684
 20
29.0278736667
 30
0.0
 11
34.6457367529
 21
29.1155703577
 31
0.0
  0
LINE
  5
3F9
330
1F
100
AcDbEntity
  8
0
  6
Continuous
 62
     7
370
    25
100
AcDbLine
 10
49.3921079705
 20
9.2803420338
 30
0.0
 11
49.3921079705
 21
11.2803420338
 31
0.0
  0
LINE
  5
3FA
330
1F
100
AcDbEntity
  8
0
  6
Continuous
 62
     7
370
    25
100
AcDbLine
 10
32.2546079705
 20
12.5144131505
 30
0.0
 11
32.2546079705
 21
12.5367420338
 31
0.0
  0
LINE
  5
3FB
330
1F
100
AcDbEntity
  8
0
  6
Continuous
 62
     7
370
    25
100
AcDbLine
 10
49.3921079705
 20
11.2803420338
 30
0.0
 11
31.6922237193
 21
11.2803420338
 31
0.0
  0
LINE
  5
3FC
330
1F
100
AcDbEntity
  8
0
  6
Continuous
 62
     7
370
    25
100
AcDbLine
 10
49.3921079705
 20
9.2803420338
 30
0.0
 11
31.6922237193
 21
9.2803420338
 31
0.0
  0
LINE
  5
3FD
330
1F
100
AcDbEntity
  8
0
  6
Continuous
 62
     7
370
    25
100
AcDbLine
 10
31.6922237193
 20
9.2803420338
 30
0.0
 11
31.6306359161
 21
9.2803420338
 31
0.0
  0
LINE
  5
3FE
330
1F
100
AcDbEntity
  8
0
  6
Continuous
 62
     7
370
    25
100
AcDbLine
 10
31.6306359161
 20
11.2803420338
 30
0.0
 11
31.6922237193
 21
11.2803420338
 31
0.0
  0
LINE
  5
3FF
330
1F
100
AcDbEntity
  8
0
  6
Continuous
 62
     7
370
    25
100
AcDbLine
 10
31.0621079705
 20
9.2803420338
 30
0.0
 11
31.0621079705
 21
11.2803420338
 31
0.0
  0
LINE
  5
400
330
1F
100
AcDbEntity
  8
0
  6
Continuous
 62
     7
370
    25
100
AcDbLine
 10
31.6306359161
 20
9.2803420338
 30
0.0
 11
31.0621079705
 21
9.2803420338
 31
0.0
  0
LINE
  5
401
330
1F
100
AcDbEntity
  8
0
  6
Continuous
 62
     7
370
    25
100
AcDbLine
 10
31.6306359161
 20
11.2803420338
 30
0.0
 11
31.0621079705
 21
11.2803420338
 31
0.0
  0
SPLINE
  5
402
330
1F
100
AcDbEntity
  8
0
  6
Continuous
 62
     7
370
    25
100
AcDbSpline
210
0.0
220
0.0
230
1.0
 70
     8
 71
     3
 72
    13
 73
     9
 74
     0
 42
0.00000001
 43
0.00000001
 40
0.0
 40
0.0
 40
0.0
 40
0.0
 40
0.0039921985758096
 40
0.2020598930517654
 40
0.4168808450462459
 40
0.6156699598417187
 40
0.8077110715276937
 40
1.0
 40
1.0
 40
1.0
 40
1.0
 10
41.02410074172503
 20
9.155342033793696
 30
0.0
 10
41.02405688252901
 20
9.1552423001764
 30
0.0
 10
41.02183700686693
 20
9.15019441398992
 30
0.0
 10
41.01723914835556
 20
9.139740138114128
 30
0.0
 10
41.01102418776663
 20
9.12561090554789
 30
0.0
 10
41.00606994900852
 20
9.114348545416828
 30
0.0
 10
41.00275337832213
 20
9.106809197578773
 30
0.0
 10
41.00232319891277
 20
9.105831298572472
 30
0.0
 10
41.00210797051782
 20
9.105342033793695
 30
0.0
  0
LINE
  5
403
330
1F
100
AcDbEntity
  8
0
  6
Continuous
 62
     7
370
    25
100
AcDbLine
 10
41.0021079705
 20
9.1053420338
 30
0.0
 11
40.837853678
 21
9.2803420338
 31
0.0
  0
LINE
  5
404
330
1F
100
AcDbEntity
  8
0
  6
Continuous
 62
     7
370
    25
100
AcDbLine
 10
39.7906523203
 20
9.2803420338
 30
0.0
 11
39.6271079705
 21
9.1053420338
 31
0.0
  0
SPLINE
  5
405
330
1F
100
AcDbEntity
  8
0
  6
Continuous
 62
     7
370
    25
100
AcDbSpline
210
0.0
220
0.0
230
1.0
 70
     8
 71
     3
 72
    13
 73
     9
 74
     0
 42
0.00000001
 43
0.00000001
 40
0.0
 40
0.0
 40
0.0
 40
0.0
 40
0.0039921985838812
 40
0.2020598930518364
 40
0.416880845046289
 40
0.6156699598417518
 40
0.8077110715277105
 40
1.0
 40
1.0
 40
1.0
 40
1.0
 10
39.6051151993106
 20
9.155342033793694
 30
0.0
 10
39.6051590585067
 20
9.1552423001762
 30
0.0
 10
39.60737893416899
 20
9.150194413989807
 30
0.0
 10
39.61197679268005
 20
9.139740138113904
 30
0.0
 10
39.61819175326902
 20
9.125610905547898
 30
0.0
 10
39.62314599202712
 20
9.114348545416826
 30
0.0
 10
39.6264625627135
 20
9.106809197578773
 30
0.0
 10
39.62689274212286
 20
9.105831298572472
 30
0.0
 10
39.62710797051781
 20
9.105342033793695
 30
0.0
  0
SPLINE
  5
406
330
1F
100
AcDbEntity
  8
0
  6
Continuous
 62
     7
370
    25
100
AcDbSpline
210
0.0
220
0.0
230
1.0
 70
     8
 71
     3
 72
    13
 73
     9
 74
     0
 42
0.00000001
 43
0.00000001
 40
0.0
 40
0.0
 40
0.0
 40
0.0
 40
0.1922889284723053
 40
0.3843300401582734
 40
0.583119154953752
 40
0.7979401069482218
 40
0.9960078014241781
 40
1.0
 40
1.0
 40
1.0
 40
1.0
 10
41.00210797051781
 20
11.45534203379369
 30
0.0
 10
41.00232319891278
 20
11.45485276901492
 30
0.0
 10
41.00275337832213
 20
11.45387487000862
 30
0.0
 10
41.00606994900851
 20
11.44633552217056
 30
0.0
 10
41.01102418776664
 20
11.4350731620395
 30
0.0
 10
41.01723914835554
 20
11.42094392947326
 30
0.0
 10
41.02183700686697
 20
11.41048965359747
 30
0.0
 10
41.02405688252901
 20
11.40544176741099
 30
0.0
 10
41.02410074172503
 20
11.40534203379369
 30
0.0
  0
SPLINE
  5
407
330
1F
100
AcDbEntity
  8
0
  6
Continuous
 62
     7
370
    25
100
AcDbSpline
210
0.0
220
0.0
230
1.0
 70
     8
 71
     3
 72
    13
 73
     9
 74
     0
 42
0.00000001
 43
0.00000001
 40
0.0
 40
0.0
 40
0.0
 40
0.0
 40
0.1922889284723052
 40
0.3843300401582794
 40
0.5831191549537502
 40
0.7979401069482173
 40
0.9960078014241843
 40
1.0
 40
1.0
 40
1.0
 40
1.0
 10
39.62710797051781
 20
11.45534203379369
 30
0.0
 10
39.62689274212286
 20
11.45485276901492
 30
0.0
 10
39.62646256271349
 20
11.45387487000862
 30
0.0
 10
39.62314599202712
 20
11.44633552217056
 30
0.0
 10
39.618191753269
 20
11.4350731620395
 30
0.0
 10
39.6119767926801
 20
11.42094392947326
 30
0.0
 10
39.60737893416864
 20
11.41048965359747
 30
0.0
 10
39.60515905850662
 20
11.40544176741099
 30
0.0
 10
39.6051151993106
 20
11.40534203379369
 30
0.0
  0
LINE
  5
408
330
1F
100
AcDbEntity
  8
0
  6
Continuous
 62
     7
370
    25
100
AcDbLine
 10
39.6271079705
 20
11.4553420338
 30
0.0
 11
39.791362263
 21
11.2803420338
 31
0.0
  0
LINE
  5
409
330
1F
100
AcDbEntity
  8
0
  6
Continuous
 62
     7
370
    25
100
AcDbLine
 10
40.8385636207
 20
11.2803420338
 30
0.0
 11
41.0021079705
 21
11.4553420338
 31
0.0
  0
SPLINE
  5
40A
330
1F
100
AcDbEntity
  8
0
  6
Continuous
 62
     7
370
    25
100
AcDbSpline
210
0.0
220
0.0
230
1.0
 70
    24
 71
     3
 72
    10
 73
     6
 74
     0
 42
0.00000001
 43
0.00000001
 40
0.0
 40
0.0
 40
0.0
 40
0.0
 40
0.5191132368695242
 40
0.8829607080311057
 40
1.0
 40
1.0
 40
1.0
 40
1.0
 10
41.82907184191212
 20
9.186592033793696
 30
0.0
 10
41.83839776976384
 20
9.186592033793696
 30
0.0
 10
41.85426025847374
 20
9.186592033793696
 30
0.0
 10
41.87128270330818
 20
9.186592033793694
 30
0.0
 10
41.87800890526493
 20
9.186592033793696
 30
0.0
 10
41.87964594328513
 20
9.186592033793696
 30
0.0
  0
LWPOLYLINE
  5
40B
330
1F
100
AcDbEntity
  8
0
  6
Continuous
 62
     7
370
    25
100
AcDbPolyline
 90
        9
 70
   128
 43
0.0
 10
41.8796459433
 20
9.1865920338
 10
41.8814058431
 20
9.1862301875
 10
41.8830383803
 20
9.1851708352
 10
41.8844254094
 20
9.1834906415
 10
41.8854665521
 20
9.1813112007
 10
41.8860864616
 20
9.1787902372
 10
41.8862402757
 20
9.1761101915
 10
41.8859168628
 20
9.1734650163
 10
41.8851396281
 20
9.171046141
  0
SPLINE
  5
40C
330
1F
100
AcDbEntity
  8
0
  6
Continuous
 62
     7
370
    25
100
AcDbSpline
210
0.0
220
0.0
230
1.0
 70
     8
 71
     3
 72
    10
 73
     6
 74
     0
 42
0.00000001
 43
0.00000001
 40
0.0
 40
0.0
 40
0.0
 40
0.0
 40
0.1230292022083805
 40
0.494553100280664
 40
1.0
 40
1.0
 40
1.0
 40
1.0
 10
41.88513962812881
 20
9.17104614100368
 30
0.0
 10
41.88327350634839
 20
9.171215776765163
 30
0.0
 10
41.87577206526415
 20
9.171897679031076
 30
0.0
 10
41.85697181724149
 20
9.173699417940139
 30
0.0
 10
41.83927277905136
 20
9.175534420224444
 30
0.0
 10
41.82907184191212
 20
9.176592033793694
 30
0.0
  0
LINE
  5
40D
330
1F
100
AcDbEntity
  8
0
  6
Continuous
 62
     7
370
    25
100
AcDbLine
 10
41.8290718419
 20
9.1865920338
 30
0.0
 11
41.8290718419
 21
9.1765920338
 31
0.0
  0
ARC
  5
40E
330
1F
100
AcDbEntity
  8
0
  6
Continuous
 62
     7
370
    25
100
AcDbCircle
 10
41.7521079705
 20
9.3053420338
 30
0.0
 40
0.2000000000000011
100
AcDbArc
 50
270.0
 51
352.8192442185
  0
LINE
  5
40F
330
1F
100
AcDbEntity
  8
0
  6
Continuous
 62
     7
370
    25
100
AcDbLine
 10
41.7521079705
 20
9.1553420338
 30
0.0
 11
41.7521079705
 21
9.1053420338
 31
0.0
  0
ARC
  5
410
330
1F
100
AcDbEntity
  8
0
  6
Continuous
 62
     7
370
    25
100
AcDbCircle
 10
41.7521079705
 20
9.3053420338
 30
0.0
 40
0.1500000000000004
100
AcDbArc
 50
270.0
 51
300.8700384502
  0
SPLINE
  5
411
330
1F
100
AcDbEntity
  8
0
  6
Continuous
 62
     7
370
    25
100
AcDbSpline
210
0.0
220
0.0
230
1.0
 70
     8
 71
     3
 72
    11
 73
     7
 74
     0
 42
0.00000001
 43
0.00000001
 40
0.0
 40
0.0
 40
0.0
 40
0.0
 40
0.2554135978832501
 40
0.5310458941810284
 40
0.7714120384835206
 40
1.0
 40
1.0
 40
1.0
 40
1.0
 10
41.88513962812881
 20
9.17104614100368
 30
0.0
 10
41.88796101166115
 20
9.171038292513401
 30
0.0
 10
41.89382712119164
 20
9.171021974241498
 30
0.0
 10
41.90166457346602
 20
9.175145443242121
 30
0.0
 10
41.90910664524482
 20
9.182100792216731
 30
0.0
 10
41.91350816711289
 20
9.188019044402834
 30
0.0
 10
41.91565365405695
 20
9.190903849517397
 30
0.0
  0
SPLINE
  5
412
330
1F
100
AcDbEntity
  8
0
  6
Continuous
 62
     7
370
    25
100
AcDbSpline
210
0.0
220
0.0
230
1.0
 70
     8
 71
     3
 72
    10
 73
     6
 74
     0
 42
0.00000001
 43
0.00000001
 40
0.0
 40
0.0
 40
0.0
 40
0.0
 40
0.5054468997193028
 40
0.8769707977916192
 40
0.9999999999999999
 40
0.9999999999999999
 40
0.9999999999999999
 40
0.9999999999999999
 10
41.82907184191212
 20
11.3840920337937
 30
0.0
 10
41.83927277905136
 20
11.38514964736295
 30
0.0
 10
41.85697181724149
 20
11.38698464964725
 30
0.0
 10
41.87577206526414
 20
11.38878638855631
 30
0.0
 10
41.88327350634839
 20
11.38946829082223
 30
0.0
 10
41.88513962812881
 20
11.38963792658371
 30
0.0
  0
LWPOLYLINE
  5
413
330
1F
100
AcDbEntity
  8
0
  6
Continuous
 62
     7
370
    25
100
AcDbPolyline
 90
        9
 70
   128
 43
0.0
 10
41.8851396281
 20
11.3896379266
 10
41.8859168628
 20
11.3872190513
 10
41.8862402757
 20
11.3845738761
 10
41.8860864616
 20
11.3818938303
 10
41.8854665521
 20
11.3793728669
 10
41.8844254094
 20
11.3771934261
 10
41.8830383803
 20
11.3755132323
 10
41.8814058431
 20
11.3744538801
 10
41.8796459433
 20
11.3740920338
  0
SPLINE
  5
414
330
1F
100
AcDbEntity
  8
0
  6
Continuous
 62
     7
370
    25
100
AcDbSpline
210
0.0
220
0.0
230
1.0
 70
    24
 71
     3
 72
    10
 73
     6
 74
     0
 42
0.00000001
 43
0.00000001
 40
0.0
 40
0.0
 40
0.0
 40
0.0
 40
0.1170392919688708
 40
0.4808867631305172
 40
0.9999999999999999
 40
0.9999999999999999
 40
0.9999999999999999
 40
0.9999999999999999
 10
41.87964594328513
 20
11.3740920337937
 30
0.0
 10
41.87800890526492
 20
11.3740920337937
 30
0.0
 10
41.87128270330817
 20
11.3740920337937
 30
0.0
 10
41.85426025847374
 20
11.3740920337937
 30
0.0
 10
41.83839776976384
 20
11.3740920337937
 30
0.0
 10
41.82907184191212
 20
11.3740920337937
 30
0.0
  0
LINE
  5
415
330
1F
100
AcDbEntity
  8
0
  6
Continuous
 62
     7
370
    25
100
AcDbLine
 10
41.8290718419
 20
11.3840920338
 30
0.0
 11
41.8290718419
 21
11.3740920338
 31
0.0
  0
ARC
  5
416
330
1F
100
AcDbEntity
  8
0
  6
Continuous
 62
     7
370
    25
100
AcDbCircle
 10
41.7521079705
 20
11.2553420338
 30
0.0
 40
0.1499999999999986
100
AcDbArc
 50
59.1299615498
 51
90.0
  0
LINE
  5
417
330
1F
100
AcDbEntity
  8
0
  6
Continuous
 62
     7
370
    25
100
AcDbLine
 10
41.7521079705
 20
11.4553420338
 30
0.0
 11
41.7521079705
 21
11.4053420338
 31
0.0
  0
ARC
  5
418
330
1F
100
AcDbEntity
  8
0
  6
Continuous
 62
     7
370
    25
100
AcDbCircle
 10
41.7521079705
 20
11.2553420338
 30
0.0
 40
0.1999999999999993
100
AcDbArc
 50
7.1807557815
 51
90.0
  0
SPLINE
  5
419
330
1F
100
AcDbEntity
  8
0
  6
Continuous
 62
     7
370
    25
100
AcDbSpline
210
0.0
220
0.0
230
1.0
 70
     8
 71
     3
 72
    13
 73
     9
 74
     0
 42
0.00000001
 43
0.00000001
 40
0.0
 40
0.0
 40
0.0
 40
0.0
 40
0.0654698464322346
 40
0.2804496420115829
 40
0.3375453747145341
 40
0.6418899413913994
 40
0.6592589443605027
 40
1.0
 40
1.0
 40
1.0
 40
1.0
 10
41.91565365405695
 20
11.36978021806999
 30
0.0
 10
41.9150587335857
 20
11.37061387195816
 30
0.0
 10
41.91251030492303
 20
11.37418495005346
 30
0.0
 10
41.90919024083237
 20
11.37816984446143
 30
0.0
 10
41.9035395937911
 20
11.38385316273377
 30
0.0
 10
41.89968383263307
 20
11.38660607873648
 30
0.0
 10
41.89286209050738
 20
11.38951500353465
 30
0.0
 10
41.88890489361864
 20
11.38957799260257
 30
0.0
 10
41.88513962812881
 20
11.38963792658371
 30
0.0
  0
LINE
  5
41A
330
1F
100
AcDbEntity
  8
0
  6
Continuous
 62
     7
370
    25
100
AcDbLine
 10
41.1421079705
 20
11.3840920338
 30
0.0
 11
41.8290718419
 21
11.3840920338
 31
0.0
  0
LINE
  5
41B
330
1F
100
AcDbEntity
  8
0
  6
Continuous
 62
     7
370
    25
100
AcDbLine
 10
41.8290718419
 20
11.3740920338
 30
0.0
 11
41.1421079705
 21
11.3740920338
 31
0.0
  0
LINE
  5
41C
330
1F
100
AcDbEntity
  8
0
  6
Continuous
 62
     7
370
    25
100
AcDbLine
 10
41.1421079705
 20
11.3840920338
 30
0.0
 11
41.1421079705
 21
11.3740920338
 31
0.0
  0
LINE
  5
41D
330
1F
100
AcDbEntity
  8
0
  6
Continuous
 62
     7
370
    25
100
AcDbLine
 10
41.0021079705
 20
11.4553420338
 30
0.0
 11
41.7521079705
 21
11.4553420338
 31
0.0
  0
LINE
  5
41E
330
1F
100
AcDbEntity
  8
0
  6
Continuous
 62
     7
370
    25
100
AcDbLine
 10
41.7521079705
 20
11.4053420338
 30
0.0
 11
41.0241007417
 21
11.4053420338
 31
0.0
  0
LINE
  5
41F
330
1F
100
AcDbEntity
  8
0
  6
Continuous
 62
     7
370
    25
100
AcDbLine
 10
41.1421079705
 20
9.1865920338
 30
0.0
 11
41.8290718419
 21
9.1865920338
 31
0.0
  0
LINE
  5
420
330
1F
100
AcDbEntity
  8
0
  6
Continuous
 62
     7
370
    25
100
AcDbLine
 10
41.8290718419
 20
9.1765920338
 30
0.0
 11
41.1421079705
 21
9.1765920338
 31
0.0
  0
LINE
  5
421
330
1F
100
AcDbEntity
  8
0
  6
Continuous
 62
     7
370
    25
100
AcDbLine
 10
41.1421079705
 20
9.1865920338
 30
0.0
 11
41.1421079705
 21
9.1765920338
 31
0.0
  0
LINE
  5
422
330
1F
100
AcDbEntity
  8
0
  6
Continuous
 62
     7
370
    25
100
AcDbLine
 10
41.0241007417
 20
9.1553420338
 30
0.0
 11
41.7521079705
 21
9.1553420338
 31
0.0
  0
LINE
  5
423
330
1F
100
AcDbEntity
  8
0
  6
Continuous
 62
     7
370
    25
100
AcDbLine
 10
41.7521079705
 20
9.1053420338
 30
0.0
 11
41.0021079705
 21
9.1053420338
 31
0.0
  0
LINE
  5
424
330
1F
100
AcDbEntity
  8
0
  6
Continuous
 62
     7
370
    25
100
AcDbLine
 10
39.5271079705
 20
9.2303420338
 30
0.0
 11
39.2271079705
 21
9.2303420338
 31
0.0
  0
LINE
  5
425
330
1F
100
AcDbEntity
  8
0
  6
Continuous
 62
     7
370
    25
100
AcDbLine
 10
39.2271079705
 20
11.3303420338
 30
0.0
 11
39.5271079705
 21
11.3303420338
 31
0.0
  0
ARC
  5
426
330
1F
100
AcDbEntity
  8
0
  6
Continuous
 62
     7
370
    25
100
AcDbCircle
 10
41.1421079705
 20
9.2365920338
 30
0.0
 40
0.0600000000000023
100
AcDbArc
 50
180.0
 51
270.0
  0
LINE
  5
427
330
1F
100
AcDbEntity
  8
0
  6
Continuous
 62
     7
370
    25
100
AcDbLine
 10
39.1021079705
 20
9.1553420338
 30
0.0
 11
39.6051151993
 21
9.1553420338
 31
0.0
  0
ARC
  5
428
330
1F
100
AcDbEntity
  8
0
  6
Continuous
 62
     7
370
    25
100
AcDbCircle
 10
39.1021079705
 20
9.2053420338
 30
0.0
 40
0.0500000000000043
100
AcDbArc
 50
180.0
 51
270.0
  0
ARC
  5
429
330
1F
100
AcDbEntity
  8
0
  6
Continuous
 62
     7
370
    25
100
AcDbCircle
 10
39.1021079705
 20
11.3553420338
 30
0.0
 40
0.0500000000000043
100
AcDbArc
 50
90.0
 51
180.0
  0
LINE
  5
42A
330
1F
100
AcDbEntity
  8
0
  6
Continuous
 62
     7
370
    25
100
AcDbLine
 10
39.6051151993
 20
11.4053420338
 30
0.0
 11
39.1021079705
 21
11.4053420338
 31
0.0
  0
ARC
  5
42B
330
1F
100
AcDbEntity
  8
0
  6
Continuous
 62
     7
370
    25
100
AcDbCircle
 10
41.1421079705
 20
11.3240920338
 30
0.0
 40
0.0600000000000023
100
AcDbArc
 50
90.0
 51
180.0
  0
LINE
  5
42C
330
1F
100
AcDbEntity
  8
0
  6
Continuous
 62
     7
370
    25
100
AcDbLine
 10
41.0821079705
 20
11.3240920338
 30
0.0
 11
41.0921079705
 21
11.3240920338
 31
0.0
  0
LINE
  5
42D
330
1F
100
AcDbEntity
  8
0
  6
Continuous
 62
     7
370
    25
100
AcDbLine
 10
41.0921079705
 20
11.3240920338
 30
0.0
 11
41.0921079705
 21
11.2803420338
 31
0.0
  0
LINE
  5
42E
330
1F
100
AcDbEntity
  8
0
  6
Continuous
 62
     7
370
    25
100
AcDbLine
 10
41.0921079705
 20
9.2803420338
 30
0.0
 11
41.0921079705
 21
9.2365920338
 31
0.0
  0
LINE
  5
42F
330
1F
100
AcDbEntity
  8
0
  6
Continuous
 62
     7
370
    25
100
AcDbLine
 10
41.0921079705
 20
9.2365920338
 30
0.0
 11
41.0821079705
 21
9.2365920338
 31
0.0
  0
ARC
  5
430
330
1F
100
AcDbEntity
  8
0
  6
Continuous
 62
     7
370
    25
100
AcDbCircle
 10
41.1421079705
 20
11.3240920338
 30
0.0
 40
0.0500000000000043
100
AcDbArc
 50
90.0
 51
180.0
  0
ARC
  5
431
330
1F
100
AcDbEntity
  8
0
  6
Continuous
 62
     7
370
    25
100
AcDbCircle
 10
41.1421079705
 20
9.2365920338
 30
0.0
 40
0.0500000000000043
100
AcDbArc
 50
180.0
 51
270.0
  0
LINE
  5
432
330
1F
100
AcDbEntity
  8
0
  6
Continuous
 62
     7
370
    25
100
AcDbLine
 10
39.1021079705
 20
11.4553420338
 30
0.0
 11
39.6271079705
 21
11.4553420338
 31
0.0
  0
LINE
  5
433
330
1F
100
AcDbEntity
  8
0
  6
Continuous
 62
     7
370
    25
100
AcDbLine
 10
39.1021079705
 20
11.4553420338
 30
0.0
 11
39.1021079705
 21
11.4053420338
 31
0.0
  0
LINE
  5
434
330
1F
100
AcDbEntity
  8
0
  6
Continuous
 62
     7
370
    25
100
AcDbLine
 10
39.6271079705
 20
9.1053420338
 30
0.0
 11
39.1021079705
 21
9.1053420338
 31
0.0
  0
LINE
  5
435
330
1F
100
AcDbEntity
  8
0
  6
Continuous
 62
     7
370
    25
100
AcDbLine
 10
39.1021079705
 20
9.1553420338
 30
0.0
 11
39.1021079705
 21
9.1053420338
 31
0.0
  0
LINE
  5
436
330
1F
100
AcDbEntity
  8
0
  6
Continuous
 62
     7
370
    25
100
AcDbLine
 10
39.5271079705
 20
11.3303420338
 30
0.0
 11
39.4771079705
 21
11.2803420338
 31
0.0
  0
LINE
  5
437
330
1F
100
AcDbEntity
  8
0
  6
Continuous
 62
     7
370
    25
100
AcDbLine
 10
39.2271079705
 20
11.3303420338
 30
0.0
 11
39.2771079705
 21
11.2803420338
 31
0.0
  0
LINE
  5
438
330
1F
100
AcDbEntity
  8
0
  6
Continuous
 62
     7
370
    25
100
AcDbLine
 10
39.4771079705
 20
9.2803420338
 30
0.0
 11
39.5271079705
 21
9.2303420338
 31
0.0
  0
LINE
  5
439
330
1F
100
AcDbEntity
  8
0
  6
Continuous
 62
     7
370
    25
100
AcDbLine
 10
39.2771079705
 20
9.2803420338
 30
0.0
 11
39.2271079705
 21
9.2303420338
 31
0.0
  0
LINE
  5
43A
330
1F
100
AcDbEntity
  8
0
  6
Continuous
 62
     7
370
    25
100
AcDbLine
 10
39.0021079705
 20
9.2053420338
 30
0.0
 11
39.0021079705
 21
9.2803420338
 31
0.0
  0
LINE
  5
43B
330
1F
100
AcDbEntity
  8
0
  6
Continuous
 62
     7
370
    25
100
AcDbLine
 10
39.0021079705
 20
11.2803420338
 30
0.0
 11
39.0021079705
 21
11.3553420338
 31
0.0
  0
LINE
  5
43C
330
1F
100
AcDbEntity
  8
0
  6
Continuous
 62
     7
370
    25
100
AcDbLine
 10
39.0021079705
 20
11.3553420338
 30
0.0
 11
39.0521079705
 21
11.3553420338
 31
0.0
  0
LINE
  5
43D
330
1F
100
AcDbEntity
  8
0
  6
Continuous
 62
     7
370
    25
100
AcDbLine
 10
39.0021079705
 20
9.2053420338
 30
0.0
 11
39.0521079705
 21
9.2053420338
 31
0.0
  0
ARC
  5
43E
330
1F
100
AcDbEntity
  8
0
  6
Continuous
 62
     7
370
    25
100
AcDbCircle
 10
39.1021079705
 20
11.3553420338
 30
0.0
 40
0.1000000000000014
100
AcDbArc
 50
90.0
 51
180.0
  0
ARC
  5
43F
330
1F
100
AcDbEntity
  8
0
  6
Continuous
 62
     7
370
    25
100
AcDbCircle
 10
39.1021079705
 20
9.2053420338
 30
0.0
 40
0.1000000000000014
100
AcDbArc
 50
180.0
 51
270.0
  0
LINE
  5
440
330
1F
100
AcDbEntity
  8
0
  6
Continuous
 62
     7
370
    25
100
AcDbLine
 10
41.9156536541
 20
11.3697802181
 30
0.0
 11
41.9075245668
 21
11.3640920338
 31
0.0
  0
SPLINE
  5
441
330
1F
100
AcDbEntity
  8
0
  6
Continuous
 62
     7
370
    25
100
AcDbSpline
210
0.0
220
0.0
230
1.0
 70
     8
 71
     3
 72
    11
 73
     7
 74
     0
 42
0.00000001
 43
0.00000001
 40
0.0
 40
0.0
 40
0.0
 40
0.0
 40
0.3399315561909452
 40
0.660951160477617
 40
0.9350816084321402
 40
1.0
 40
1.0
 40
1.0
 40
1.0
 10
41.87964594328513
 20
11.3740920337937
 30
0.0
 10
41.88293377499924
 20
11.37390225382857
 30
0.0
 10
41.88932652126631
 20
11.3735332522284
 30
0.0
 10
41.89798840662771
 20
11.37011204808833
 30
0.0
 10
41.90399948109228
 20
11.36656416307965
 30
0.0
 10
41.9069580780434
 20
11.36448931021772
 30
0.0
 10
41.90752456679952
 20
11.36409203379369
 30
0.0
  0
SPLINE
  5
442
330
1F
100
AcDbEntity
  8
0
  6
Continuous
 62
     7
370
    25
100
AcDbSpline
210
0.0
220
0.0
230
1.0
 70
     8
 71
     3
 72
    11
 73
     7
 74
     0
 42
0.00000001
 43
0.00000001
 40
0.0
 40
0.0
 40
0.0
 40
0.0
 40
0.2298180874433328
 40
0.4715205618383748
 40
0.7451162148964573
 40
1.0
 40
1.0
 40
1.0
 40
1.0
 10
41.90752456679952
 20
9.196592033793696
 30
0.0
 10
41.90548921903352
 20
9.19521889750857
 30
0.0
 10
41.90131327129661
 20
9.192401617111509
 30
0.0
 10
41.89445109656042
 20
9.189060780538005
 30
0.0
 10
41.88724037550627
 20
9.186914710540789
 30
0.0
 10
41.8821169523557
 20
9.186697023494796
 30
0.0
 10
41.87964594328513
 20
9.186592033793696
 30
0.0
  0
LINE
  5
443
330
1F
100
AcDbEntity
  8
0
  6
Continuous
 62
     7
370
    25
100
AcDbLine
 10
41.9075245668
 20
9.1965920338
 30
0.0
 11
41.9156536541
 21
9.1909038495
 31
0.0
  0
LINE
  5
444
330
1F
100
AcDbEntity
  8
0
  6
Continuous
 62
     7
370
    25
100
AcDbLine
 10
41.9075245668
 20
11.3640920338
 30
0.0
 11
41.1421079705
 21
11.3640920338
 31
0.0
  0
LINE
  5
445
330
1F
100
AcDbEntity
  8
0
  6
Continuous
 62
     7
370
    25
100
AcDbLine
 10
41.1421079705
 20
11.3740920338
 30
0.0
 11
41.1421079705
 21
11.3640920338
 31
0.0
  0
LINE
  5
446
330
1F
100
AcDbEntity
  8
0
  6
Continuous
 62
     7
370
    25
100
AcDbLine
 10
41.1421079705
 20
9.1965920338
 30
0.0
 11
41.9075245668
 21
9.1965920338
 31
0.0
  0
LINE
  5
447
330
1F
100
AcDbEntity
  8
0
  6
Continuous
 62
     7
370
    25
100
AcDbLine
 10
41.1421079705
 20
9.1965920338
 30
0.0
 11
41.1421079705
 21
9.1865920338
 31
0.0
  0
ARC
  5
448
330
1F
100
AcDbEntity
  8
0
  6
Continuous
 62
     7
370
    25
100
AcDbCircle
 10
41.1421079705
 20
11.3240920338
 30
0.0
 40
0.0400000000000063
100
AcDbArc
 50
90.0
 51
180.0
  0
LINE
  5
449
330
1F
100
AcDbEntity
  8
0
  6
Continuous
 62
     7
370
    25
100
AcDbLine
 10
41.0921079705
 20
11.3240920338
 30
0.0
 11
41.1021079705
 21
11.3240920338
 31
0.0
  0
ARC
  5
44A
330
1F
100
AcDbEntity
  8
0
  6
Continuous
 62
     7
370
    25
100
AcDbCircle
 10
41.1421079705
 20
9.2365920338
 30
0.0
 40
0.0400000000000063
100
AcDbArc
 50
180.0
 51
270.0
  0
LINE
  5
44B
330
1F
100
AcDbEntity
  8
0
  6
Continuous
 62
     7
370
    25
100
AcDbLine
 10
41.1021079705
 20
9.2365920338
 30
0.0
 11
41.0921079705
 21
9.2365920338
 31
0.0
  0
LINE
  5
44C
330
1F
100
AcDbEntity
  8
0
  6
Continuous
 62
     7
370
    25
100
AcDbLine
 10
41.6721079705
 20
11.2826450737
 30
0.0
 11
41.6721079705
 21
11.2803420338
 31
0.0
  0
LINE
  5
44D
330
1F
100
AcDbEntity
  8
0
  6
Continuous
 62
     7
370
    25
100
AcDbLine
 10
41.7721079705
 20
11.2826450737
 30
0.0
 11
41.6721079705
 21
11.2826450737
 31
0.0
  0
LINE
  5
44E
330
1F
100
AcDbEntity
  8
0
  6
Continuous
 62
     7
370
    25
100
AcDbLine
 10
41.7721079705
 20
11.2826450737
 30
0.0
 11
41.7721079705
 21
11.2803420338
 31
0.0
  0
LWPOLYLINE
  5
44F
330
1F
100
AcDbEntity
  8
0
  6
Continuous
 62
     7
370
    25
100
AcDbPolyline
 90
        3
 70
   128
 43
0.0
 10
41.6721079705
 20
11.2826450737
 10
41.6619041536
 20
11.2816400855
 10
41.6567584433
 20
11.2803420338
  0
LWPOLYLINE
  5
450
330
1F
100
AcDbEntity
  8
0
  6
Continuous
 62
     7
370
    25
100
AcDbPolyline
 90
        3
 70
   128
 43
0.0
 10
41.6567584433
 20
9.2803420338
 10
41.6619041536
 20
9.2790439821
 10
41.6721079705
 20
9.2780389939
  0
LINE
  5
451
330
1F
100
AcDbEntity
  8
0
  6
Continuous
 62
     7
370
    25
100
AcDbLine
 10
41.6721079705
 20
9.2780389939
 30
0.0
 11
41.7721079705
 21
9.2780389939
 31
0.0
  0
LWPOLYLINE
  5
452
330
1F
100
AcDbEntity
  8
0
  6
Continuous
 62
     7
370
    25
100
AcDbPolyline
 90
        3
 70
   128
 43
0.0
 10
41.7721079705
 20
9.2780389939
 10
41.7823117874
 20
9.2790439821
 10
41.7874574977
 20
9.2803420338
  0
LWPOLYLINE
  5
453
330
1F
100
AcDbEntity
  8
0
  6
Continuous
 62
     7
370
    25
100
AcDbPolyline
 90
        3
 70
   128
 43
0.0
 10
41.7874574977
 20
11.2803420338
 10
41.7823117874
 20
11.2816400855
 10
41.7721079705
 20
11.2826450737
  0
LWPOLYLINE
  5
454
330
1F
100
AcDbEntity
  8
0
  6
Continuous
 62
     7
370
    25
100
AcDbPolyline
 90
        3
 70
   128
 43
0.0
 10
41.3221079705
 20
9.2780389939
 10
41.3323117874
 20
9.2790439821
 10
41.3374574977
 20
9.2803420338
  0
LWPOLYLINE
  5
455
330
1F
100
AcDbEntity
  8
0
  6
Continuous
 62
     7
370
    25
100
AcDbPolyline
 90
        3
 70
   128
 43
0.0
 10
41.3374574977
 20
11.2803420338
 10
41.3323117874
 20
11.2816400855
 10
41.3221079705
 20
11.2826450737
  0
LINE
  5
456
330
1F
100
AcDbEntity
  8
0
  6
Continuous
 62
     7
370
    25
100
AcDbLine
 10
41.3221079705
 20
11.2826450737
 30
0.0
 11
41.2221079705
 21
11.2826450737
 31
0.0
  0
LWPOLYLINE
  5
457
330
1F
100
AcDbEntity
  8
0
  6
Continuous
 62
     7
370
    25
100
AcDbPolyline
 90
        3
 70
   128
 43
0.0
 10
41.2221079705
 20
11.2826450737
 10
41.2119041536
 20
11.2816400855
 10
41.2067584433
 20
11.2803420338
  0
LWPOLYLINE
  5
458
330
1F
100
AcDbEntity
  8
0
  6
Continuous
 62
     7
370
    25
100
AcDbPolyline
 90
        3
 70
   128
 43
0.0
 10
41.2067584433
 20
9.2803420338
 10
41.2119041536
 20
9.2790439821
 10
41.2221079705
 20
9.2780389939
  0
LINE
  5
459
330
1F
100
AcDbEntity
  8
0
  6
Continuous
 62
     7
370
    25
100
AcDbLine
 10
41.2221079705
 20
9.2780389939
 30
0.0
 11
41.3221079705
 21
9.2780389939
 31
0.0
  0
LINE
  5
45A
330
1F
100
AcDbEntity
  8
0
  6
Continuous
 62
     7
370
    25
100
AcDbLine
 10
41.7721079705
 20
9.2803420338
 30
0.0
 11
41.7721079705
 21
9.2780389939
 31
0.0
  0
LINE
  5
45B
330
1F
100
AcDbEntity
  8
0
  6
Continuous
 62
     7
370
    25
100
AcDbLine
 10
41.6721079705
 20
9.2803420338
 30
0.0
 11
41.6721079705
 21
9.2780389939
 31
0.0
  0
LINE
  5
45C
330
1F
100
AcDbEntity
  8
0
  6
Continuous
 62
     7
370
    25
100
AcDbLine
 10
41.3221079705
 20
11.2803420338
 30
0.0
 11
41.3221079705
 21
11.2826450737
 31
0.0
  0
LINE
  5
45D
330
1F
100
AcDbEntity
  8
0
  6
Continuous
 62
     7
370
    25
100
AcDbLine
 10
41.3221079705
 20
9.2780389939
 30
0.0
 11
41.3221079705
 21
9.2803420338
 31
0.0
  0
LINE
  5
45E
330
1F
100
AcDbEntity
  8
0
  6
Continuous
 62
     7
370
    25
100
AcDbLine
 10
41.2221079705
 20
9.2780389939
 30
0.0
 11
41.2221079705
 21
9.2803420338
 31
0.0
  0
LINE
  5
45F
330
1F
100
AcDbEntity
  8
0
  6
Continuous
 62
     7
370
    25
100
AcDbLine
 10
41.2221079705
 20
11.2803420338
 30
0.0
 11
41.2221079705
 21
11.2826450737
 31
0.0
  0
CIRCLE
  5
460
330
1F
100
AcDbEntity
  8
0
  6
Continuous
 62
     7
370
    25
100
AcDbCircle
 10
31.5621079705
 20
9.9678420338
 30
0.0
 40
0.118999999999998
  0
LINE
  5
461
330
1F
100
AcDbEntity
  8
0
  6
Continuous
 62
     7
370
    25
100
AcDbLine
 10
31.6429370082
 20
9.9678420338
 30
0.0
 11
31.6025224894
 21
10.0378420338
 31
0.0
  0
LINE
  5
462
330
1F
100
AcDbEntity
  8
0
  6
Continuous
 62
     7
370
    25
100
AcDbLine
 10
31.6025224894
 20
10.0378420338
 30
0.0
 11
31.5216934517
 21
10.0378420338
 31
0.0
  0
LINE
  5
463
330
1F
100
AcDbEntity
  8
0
  6
Continuous
 62
     7
370
    25
100
AcDbLine
 10
31.4812789328
 20
9.9678420338
 30
0.0
 11
31.5216934517
 21
10.0378420338
 31
0.0
  0
LINE
  5
464
330
1F
100
AcDbEntity
  8
0
  6
Continuous
 62
     7
370
    25
100
AcDbLine
 10
31.5216934517
 20
9.8978420338
 30
0.0
 11
31.4812789328
 21
9.9678420338
 31
0.0
  0
LINE
  5
465
330
1F
100
AcDbEntity
  8
0
  6
Continuous
 62
     7
370
    25
100
AcDbLine
 10
31.5216934517
 20
9.8978420338
 30
0.0
 11
31.6025224894
 21
9.8978420338
 31
0.0
  0
LINE
  5
466
330
1F
100
AcDbEntity
  8
0
  6
Continuous
 62
     7
370
    25
100
AcDbLine
 10
31.6429370082
 20
9.9678420338
 30
0.0
 11
31.6025224894
 21
9.8978420338
 31
0.0
  0
CIRCLE
  5
467
330
1F
100
AcDbEntity
  8
0
  6
Continuous
 62
     7
370
    25
100
AcDbCircle
 10
31.5621079705
 20
9.9678420338
 30
0.0
 40
0.1349999999999998
  0
ARC
  5
468
330
1F
100
AcDbEntity
  8
0
  6
Continuous
 62
     7
370
    25
100
AcDbCircle
 10
31.5621079705
 20
9.9678420338
 30
0.0
 40
0.07
100
AcDbArc
 50
330.0
 51
30.0
  0
ARC
  5
469
330
1F
100
AcDbEntity
  8
0
  6
Continuous
 62
     7
370
    25
100
AcDbCircle
 10
31.5621079705
 20
9.9678420338
 30
0.0
 40
0.0699999999999985
100
AcDbArc
 50
210.0
 51
270.0
  0
ARC
  5
46A
330
1F
100
AcDbEntity
  8
0
  6
Continuous
 62
     7
370
    25
100
AcDbCircle
 10
31.5621079705
 20
9.9678420338
 30
0.0
 40
0.0699999999999979
100
AcDbArc
 50
150.0
 51
210.0
  0
ARC
  5
46B
330
1F
100
AcDbEntity
  8
0
  6
Continuous
 62
     7
370
    25
100
AcDbCircle
 10
31.5621079705
 20
9.9678420338
 30
0.0
 40
0.0700000000000038
100
AcDbArc
 50
90.0
 51
150.0
  0
ARC
  5
46C
330
1F
100
AcDbEntity
  8
0
  6
Continuous
 62
     7
370
    25
100
AcDbCircle
 10
31.5621079705
 20
9.9678420338
 30
0.0
 40
0.0700000000000038
100
AcDbArc
 50
30.0
 51
90.0
  0
ARC
  5
46D
330
1F
100
AcDbEntity
  8
0
  6
Continuous
 62
     7
370
    25
100
AcDbCircle
 10
31.5621079705
 20
9.9678420338
 30
0.0
 40
0.0699999999999985
100
AcDbArc
 50
270.0
 51
330.0
  0
CIRCLE
  5
46E
330
1F
100
AcDbEntity
  8
0
  6
Continuous
 62
     7
370
    25
100
AcDbCircle
 10
31.5621079705
 20
10.5928420338
 30
0.0
 40
0.1189999999999998
  0
LINE
  5
46F
330
1F
100
AcDbEntity
  8
0
  6
Continuous
 62
     7
370
    25
100
AcDbLine
 10
31.6429370082
 20
10.5928420338
 30
0.0
 11
31.6025224894
 21
10.6628420338
 31
0.0
  0
LINE
  5
470
330
1F
100
AcDbEntity
  8
0
  6
Continuous
 62
     7
370
    25
100
AcDbLine
 10
31.6025224894
 20
10.6628420338
 30
0.0
 11
31.5216934517
 21
10.6628420338
 31
0.0
  0
LINE
  5
471
330
1F
100
AcDbEntity
  8
0
  6
Continuous
 62
     7
370
    25
100
AcDbLine
 10
31.4812789328
 20
10.5928420338
 30
0.0
 11
31.5216934517
 21
10.6628420338
 31
0.0
  0
LINE
  5
472
330
1F
100
AcDbEntity
  8
0
  6
Continuous
 62
     7
370
    25
100
AcDbLine
 10
31.5216934517
 20
10.5228420338
 30
0.0
 11
31.4812789328
 21
10.5928420338
 31
0.0
  0
LINE
  5
473
330
1F
100
AcDbEntity
  8
0
  6
Continuous
 62
     7
370
    25
100
AcDbLine
 10
31.5216934517
 20
10.5228420338
 30
0.0
 11
31.6025224894
 21
10.5228420338
 31
0.0
  0
LINE
  5
474
330
1F
100
AcDbEntity
  8
0
  6
Continuous
 62
     7
370
    25
100
AcDbLine
 10
31.6429370082
 20
10.5928420338
 30
0.0
 11
31.6025224894
 21
10.5228420338
 31
0.0
  0
CIRCLE
  5
475
330
1F
100
AcDbEntity
  8
0
  6
Continuous
 62
     7
370
    25
100
AcDbCircle
 10
31.5621079705
 20
10.5928420338
 30
0.0
 40
0.1349999999999998
  0
ARC
  5
476
330
1F
100
AcDbEntity
  8
0
  6
Continuous
 62
     7
370
    25
100
AcDbCircle
 10
31.5621079705
 20
10.5928420338
 30
0.0
 40
0.0699999999999985
100
AcDbArc
 50
210.0
 51
270.0
  0
ARC
  5
477
330
1F
100
AcDbEntity
  8
0
  6
Continuous
 62
     7
370
    25
100
AcDbCircle
 10
31.5621079705
 20
10.5928420338
 30
0.0
 40
0.0699999999999979
100
AcDbArc
 50
150.0
 51
210.0
  0
ARC
  5
478
330
1F
100
AcDbEntity
  8
0
  6
Continuous
 62
     7
370
    25
100
AcDbCircle
 10
31.5621079705
 20
10.5928420338
 30
0.0
 40
0.0700000000000021
100
AcDbArc
 50
90.0
 51
150.0
  0
ARC
  5
479
330
1F
100
AcDbEntity
  8
0
  6
Continuous
 62
     7
370
    25
100
AcDbCircle
 10
31.5621079705
 20
10.5928420338
 30
0.0
 40
0.0700000000000021
100
AcDbArc
 50
30.0
 51
90.0
  0
ARC
  5
47A
330
1F
100
AcDbEntity
  8
0
  6
Continuous
 62
     7
370
    25
100
AcDbCircle
 10
31.5621079705
 20
10.5928420338
 30
0.0
 40
0.07
100
AcDbArc
 50
330.0
 51
30.0
  0
ARC
  5
47B
330
1F
100
AcDbEntity
  8
0
  6
Continuous
 62
     7
370
    25
100
AcDbCircle
 10
31.5621079705
 20
10.5928420338
 30
0.0
 40
0.0699999999999985
100
AcDbArc
 50
270.0
 51
330.0
  0
LINE
  5
47C
330
1F
100
AcDbEntity
  8
0
  6
Continuous
 62
     7
370
    25
100
AcDbLine
 10
31.5515159926
 20
9.8332581937
 30
0.0
 11
31.550613713
 21
9.8217936444
 31
0.0
  0
ARC
  5
47D
330
1F
100
AcDbEntity
  8
0
  6
Continuous
 62
     7
370
    25
100
AcDbCircle
 10
31.5621079705
 20
9.9678420338
 30
0.0
 40
0.1465000000000009
100
AcDbArc
 50
274.5
 51
346.615662441
  0
ARC
  5
47E
330
1F
100
AcDbEntity
  8
0
  6
Continuous
 62
     7
370
    25
100
AcDbCircle
 10
31.5621079705
 20
9.9678420338
 30
0.0
 40
0.1465000000000013
100
AcDbArc
 50
13.384337559
 51
265.5
  0
LINE
  5
47F
330
1F
100
AcDbEntity
  8
0
  6
Continuous
 62
     7
370
    25
100
AcDbLine
 10
31.5726999484
 20
9.8332581937
 30
0.0
 11
31.573602228
 21
9.8217936444
 31
0.0
  0
LINE
  5
480
330
1F
100
AcDbEntity
  8
0
  6
Continuous
 62
     7
370
    25
100
AcDbLine
 10
31.5515159926
 20
10.4582581937
 30
0.0
 11
31.550613713
 21
10.4467936444
 31
0.0
  0
ARC
  5
481
330
1F
100
AcDbEntity
  8
0
  6
Continuous
 62
     7
370
    25
100
AcDbCircle
 10
31.5621079705
 20
10.5928420338
 30
0.0
 40
0.1465000000000001
100
AcDbArc
 50
274.5
 51
346.615662441
  0
ARC
  5
482
330
1F
100
AcDbEntity
  8
0
  6
Continuous
 62
     7
370
    25
100
AcDbCircle
 10
31.5621079705
 20
10.5928420338
 30
0.0
 40
0.1465000000000005
100
AcDbArc
 50
13.384337559
 51
265.5
  0
LINE
  5
483
330
1F
100
AcDbEntity
  8
0
  6
Continuous
 62
     7
370
    25
100
AcDbLine
 10
31.5726999484
 20
10.4582581937
 30
0.0
 11
31.573602228
 21
10.4467936444
 31
0.0
  0
ARC
  5
484
330
1F
100
AcDbEntity
  8
0
  6
Continuous
 62
     7
370
    25
100
AcDbCircle
 10
31.5621079705
 20
9.9678420338
 30
0.0
 40
0.1875000000000013
100
AcDbArc
 50
43.7799170838
 51
316.2200829162
  0
ARC
  5
485
330
1F
100
AcDbEntity
  8
0
  6
Continuous
 62
     7
370
    25
100
AcDbCircle
 10
31.5621079705
 20
10.5928420338
 30
0.0
 40
0.1875000000000026
100
AcDbArc
 50
43.7799170838
 51
316.2200829162
  0
LINE
  5
486
330
1F
100
AcDbEntity
  8
0
  6
Continuous
 62
     7
370
    25
100
AcDbLine
 10
31.6234771545
 20
12.5364527242
 30
0.0
 11
31.6234771545
 21
12.5367420338
 31
0.0
  0
LINE
  5
487
330
1F
100
AcDbEntity
  8
0
  6
Continuous
 62
     7
370
    25
100
AcDbLine
 10
31.6830794963
 20
12.5343713646
 30
0.0
 11
31.6830794963
 21
12.5367420338
 31
0.0
  0
LINE
  5
488
330
1F
100
AcDbEntity
  8
0
  6
Continuous
 62
     7
370
    25
100
AcDbLine
 10
31.6830794963
 20
12.5367420338
 30
0.0
 11
32.1762579946
 21
12.5367420338
 31
0.0
  0
LINE
  5
489
330
1F
100
AcDbEntity
  8
0
  6
Continuous
 62
     7
370
    25
100
AcDbLine
 10
32.1762579946
 20
12.5171491919
 30
0.0
 11
32.1762579946
 21
12.5367420338
 31
0.0
  0
LINE
  5
48A
330
1F
100
AcDbEntity
  8
0
  6
Continuous
 62
     7
370
    25
100
AcDbLine
 10
32.2129671331
 20
12.5158672806
 30
0.0
 11
32.2129671331
 21
12.5367420338
 31
0.0
  0
LINE
  5
48B
330
1F
100
AcDbEntity
  8
0
  6
Continuous
 62
     7
370
    25
100
AcDbLine
 10
32.2129671331
 20
12.5367420338
 30
0.0
 11
32.2546079705
 21
12.5367420338
 31
0.0
  0
LINE
  5
48C
330
1F
100
AcDbEntity
  8
0
  6
Continuous
 62
     7
370
    25
100
AcDbLine
 10
31.6151924129
 20
12.5367420338
 30
0.0
 11
31.6234771545
 21
12.5367420338
 31
0.0
  0
LINE
  5
48D
330
1F
100
AcDbEntity
  8
0
  6
Continuous
 62
     7
370
    25
100
AcDbLine
 10
31.6830794963
 20
12.5367420338
 30
0.0
 11
31.6234771545
 21
12.5367420338
 31
0.0
  0
LINE
  5
48E
330
1F
100
AcDbEntity
  8
0
  6
Continuous
 62
     7
370
    25
100
AcDbLine
 10
32.2129671331
 20
12.5367420338
 30
0.0
 11
32.1762579946
 21
12.5367420338
 31
0.0
  0
LINE
  5
48F
330
1F
100
AcDbEntity
  8
0
  6
Continuous
 62
     7
370
    25
100
AcDbLine
 10
29.9371079705
 20
12.5953420338
 30
0.0
 11
32.5017891891
 21
12.5057813921
 31
0.0
  0
ARC
  5
490
330
1F
100
AcDbEntity
  8
0
  6
Continuous
 62
     7
370
    25
100
AcDbCircle
 10
32.0537160436
 20
12.4745504288
 30
0.0
 40
0.4491602350502221
100
AcDbArc
 50
356.0128986004
 51
3.9871013996
  0
LINE
  5
491
330
1F
100
AcDbEntity
  8
0
  6
Continuous
 62
     7
370
    25
100
AcDbLine
 10
32.5017891891
 20
12.4433194655
 30
0.0
 11
29.9371079705
 21
12.5328801071
 31
0.0
  0
LINE
  5
492
330
1F
100
AcDbEntity
  8
0
  6
Continuous
 62
     7
370
    25
100
AcDbLine
 10
29.9371079705
 20
12.5328801071
 30
0.0
 11
29.9371079705
 21
12.5953420338
 31
0.0
  0
LINE
  5
493
330
1F
100
AcDbEntity
  8
0
  6
Continuous
 62
     7
370
    25
100
AcDbLine
 10
29.9371079705
 20
8.0278039605
 30
0.0
 11
32.5017891891
 21
8.1173646021
 31
0.0
  0
LINE
  5
494
330
1F
100
AcDbEntity
  8
0
  6
Continuous
 62
     7
370
    25
100
AcDbLine
 10
29.9371079705
 20
8.0278039605
 30
0.0
 11
29.9371079705
 21
12.5328801071
 31
0.0
  0
ARC
  5
495
330
1F
100
AcDbEntity
  8
0
  6
Continuous
 62
     7
370
    25
100
AcDbCircle
 10
32.0537160436
 20
8.0861336388
 30
0.0
 40
0.4491602350501299
100
AcDbArc
 50
356.0128986004
 51
3.9871013996
  0
LINE
  5
496
330
1F
100
AcDbEntity
  8
0
  6
Continuous
 62
     7
370
    25
100
AcDbLine
 10
32.5017891891
 20
8.0549026754
 30
0.0
 11
29.9371079705
 21
7.9653420338
 31
0.0
  0
LINE
  5
497
330
1F
100
AcDbEntity
  8
0
  6
Continuous
 62
     7
370
    25
100
AcDbLine
 10
29.9371079705
 20
7.9653420338
 30
0.0
 11
29.9371079705
 21
8.0278039605
 31
0.0
  0
ARC
  5
498
330
1F
100
AcDbEntity
  8
0
  6
Continuous
 62
     7
370
    25
100
AcDbCircle
 10
32.4996079705
 20
12.4433194655
 30
0.0
 40
0.062500000000001
100
AcDbArc
 50
0.0
 51
88.0
  0
LINE
  5
499
330
1F
100
AcDbEntity
  8
0
  6
Continuous
 62
     7
370
    25
100
AcDbLine
 10
32.5017891891
 20
12.4433194655
 30
0.0
 11
32.5621079705
 21
12.4433194655
 31
0.0
  0
LINE
  5
49A
330
1F
100
AcDbEntity
  8
0
  6
Continuous
 62
     7
370
    25
100
AcDbLine
 10
32.5621079705
 20
11.8583194655
 30
0.0
 11
32.5621079705
 21
11.2803420338
 31
0.0
  0
LINE
  5
49B
330
1F
100
AcDbEntity
  8
0
  6
Continuous
 62
     7
370
    25
100
AcDbLine
 10
32.5621079705
 20
9.2803420338
 30
0.0
 11
32.5621079705
 21
8.7023646021
 31
0.0
  0
LINE
  5
49C
330
1F
100
AcDbEntity
  8
0
  6
Continuous
 62
     7
370
    25
100
AcDbLine
 10
32.5537455446
 20
8.6173646021
 30
0.0
 11
32.5537455446
 21
8.7023646021
 31
0.0
  0
LINE
  5
49D
330
1F
100
AcDbEntity
  8
0
  6
Continuous
 62
     7
370
    25
100
AcDbLine
 10
32.5621079705
 20
8.6173646021
 30
0.0
 11
32.5621079705
 21
8.1173646021
 31
0.0
  0
LINE
  5
49E
330
1F
100
AcDbEntity
  8
0
  6
Continuous
 62
     7
370
    25
100
AcDbLine
 10
32.5017891891
 20
8.1173646021
 30
0.0
 11
32.5621079705
 21
8.1173646021
 31
0.0
  0
LINE
  5
49F
330
1F
100
AcDbEntity
  8
0
  6
Continuous
 62
     7
370
    25
100
AcDbLine
 10
32.5621079705
 20
12.4433194655
 30
0.0
 11
32.5621079705
 21
11.9433194655
 31
0.0
  0
LINE
  5
4A0
330
1F
100
AcDbEntity
  8
0
  6
Continuous
 62
     7
370
    25
100
AcDbLine
 10
32.5537455446
 20
11.8583194655
 30
0.0
 11
32.5537455446
 21
11.9433194655
 31
0.0
  0
ARC
  5
4A1
330
1F
100
AcDbEntity
  8
0
  6
Continuous
 62
     7
370
    25
100
AcDbCircle
 10
32.4996079705
 20
8.1173646021
 30
0.0
 40
0.0625
100
AcDbArc
 50
272.0
 51
0.0
  0
LINE
  5
4A2
330
1F
100
AcDbEntity
  8
0
  6
Continuous
 62
     7
370
    25
100
AcDbLine
 10
32.5537455446
 20
11.9433194655
 30
0.0
 11
32.5996079705
 21
11.9433194655
 31
0.0
  0
LINE
  5
4A3
330
1F
100
AcDbEntity
  8
0
  6
Continuous
 62
     7
370
    25
100
AcDbLine
 10
32.5996079705
 20
11.8583194655
 30
0.0
 11
32.5996079705
 21
11.9433194655
 31
0.0
  0
LINE
  5
4A4
330
1F
100
AcDbEntity
  8
0
  6
Continuous
 62
     7
370
    25
100
AcDbLine
 10
32.5537455446
 20
11.8583194655
 30
0.0
 11
32.5996079705
 21
11.8583194655
 31
0.0
  0
LINE
  5
4A5
330
1F
100
AcDbEntity
  8
0
  6
Continuous
 62
     7
370
    25
100
AcDbLine
 10
32.6621079705
 20
11.9433194655
 30
0.0
 11
32.6621079705
 21
11.8583194655
 31
0.0
  0
LINE
  5
4A6
330
1F
100
AcDbEntity
  8
0
  6
Continuous
 62
     7
370
    25
100
AcDbLine
 10
32.6621079705
 20
11.8583194655
 30
0.0
 11
32.5996079705
 21
11.8583194655
 31
0.0
  0
LINE
  5
4A7
330
1F
100
AcDbEntity
  8
0
  6
Continuous
 62
     7
370
    25
100
AcDbLine
 10
32.5996079705
 20
11.9433194655
 30
0.0
 11
32.6621079705
 21
11.9433194655
 31
0.0
  0
LINE
  5
4A8
330
1F
100
AcDbEntity
  8
0
  6
Continuous
 62
     7
370
    25
100
AcDbLine
 10
32.6621079705
 20
8.7023646021
 30
0.0
 11
32.6621079705
 21
8.6173646021
 31
0.0
  0
LINE
  5
4A9
330
1F
100
AcDbEntity
  8
0
  6
Continuous
 62
     7
370
    25
100
AcDbLine
 10
32.6621079705
 20
8.6173646021
 30
0.0
 11
32.5996079705
 21
8.6173646021
 31
0.0
  0
LINE
  5
4AA
330
1F
100
AcDbEntity
  8
0
  6
Continuous
 62
     7
370
    25
100
AcDbLine
 10
32.5996079705
 20
8.6173646021
 30
0.0
 11
32.5996079705
 21
8.7023646021
 31
0.0
  0
LINE
  5
4AB
330
1F
100
AcDbEntity
  8
0
  6
Continuous
 62
     7
370
    25
100
AcDbLine
 10
32.5996079705
 20
8.7023646021
 30
0.0
 11
32.6621079705
 21
8.7023646021
 31
0.0
  0
LINE
  5
4AC
330
1F
100
AcDbEntity
  8
0
  6
Continuous
 62
     7
370
    25
100
AcDbLine
 10
32.5537455446
 20
8.7023646021
 30
0.0
 11
32.5996079705
 21
8.7023646021
 31
0.0
  0
LINE
  5
4AD
330
1F
100
AcDbEntity
  8
0
  6
Continuous
 62
     7
370
    25
100
AcDbLine
 10
32.5537455446
 20
8.6173646021
 30
0.0
 11
32.5996079705
 21
8.6173646021
 31
0.0
  0
LINE
  5
4AE
330
1F
100
AcDbEntity
  8
0
  6
Continuous
 62
     7
370
    25
100
AcDbLine
 10
31.6922237193
 20
11.2803420338
 30
0.0
 11
31.6922237193
 21
10.727846263
 31
0.0
  0
LINE
  5
4AF
330
1F
100
AcDbEntity
  8
0
  6
Continuous
 62
     7
370
    25
100
AcDbLine
 10
31.6922237193
 20
10.4578378045
 30
0.0
 11
31.6922237193
 21
10.102846263
 31
0.0
  0
LINE
  5
4B0
330
1F
100
AcDbEntity
  8
0
  6
Continuous
 62
     7
370
    25
100
AcDbLine
 10
31.6922237193
 20
9.8328378045
 30
0.0
 11
31.6922237193
 21
9.2803420338
 31
0.0
  0
LINE
  5
4B1
330
1F
100
AcDbEntity
  8
0
  6
Continuous
 62
     7
370
    25
100
AcDbLine
 10
31.6306359161
 20
9.2803420338
 30
0.0
 11
31.6306359161
 21
9.7933136101
 31
0.0
  0
LINE
  5
4B2
330
1F
100
AcDbEntity
  8
0
  6
Continuous
 62
     7
370
    25
100
AcDbLine
 10
31.6306359161
 20
10.1423704575
 30
0.0
 11
31.6306359161
 21
10.4183136101
 31
0.0
  0
LINE
  5
4B3
330
1F
100
AcDbEntity
  8
0
  6
Continuous
 62
     7
370
    25
100
AcDbLine
 10
31.6306359161
 20
10.7673704575
 30
0.0
 11
31.6306359161
 21
11.2803420338
 31
0.0
  0
LINE
  5
4B4
330
1F
100
AcDbEntity
  8
0
  6
Continuous
 62
     7
370
    25
100
AcDbLine
 10
39.6051151993
 20
9.1553420338
 30
0.0
 11
39.7221637024
 21
9.2803420338
 31
0.0
  0
LINE
  5
4B5
330
1F
100
AcDbEntity
  8
0
  6
Continuous
 62
     7
370
    25
100
AcDbLine
 10
40.9067986377
 20
9.2803420338
 30
0.0
 11
41.0241007417
 21
9.1553420338
 31
0.0
  0
LINE
  5
4B6
330
1F
100
AcDbEntity
  8
0
  6
Continuous
 62
     7
370
    25
100
AcDbLine
 10
41.0241007417
 20
11.4053420338
 30
0.0
 11
40.9070522386
 21
11.2803420338
 31
0.0
  0
LINE
  5
4B7
330
1F
100
AcDbEntity
  8
0
  6
Continuous
 62
     7
370
    25
100
AcDbLine
 10
39.7224173033
 20
11.2803420338
 30
0.0
 11
39.6051151993
 21
11.4053420338
 31
0.0
  0
ARC
  5
4B8
330
1F
100
AcDbEntity
  8
0
  6
Continuous
 62
     7
370
    25
100
AcDbCircle
 10
41.7521079705
 20
9.3053420338
 30
0.0
 40
0.1996078370824619
100
AcDbArc
 50
325.0182781721
 51
352.8050618727
  0
ARC
  5
4B9
330
1F
100
AcDbEntity
  8
0
  6
Continuous
 62
     7
370
    25
100
AcDbCircle
 10
41.7521079705
 20
11.2553420338
 30
0.0
 40
0.1996078370824619
100
AcDbArc
 50
7.1949381273
 51
34.9817218279
  0
LINE
  5
4BA
330
1F
100
AcDbEntity
  8
0
  6
Continuous
 62
     7
370
    25
100
AcDbLine
 10
39.2271079705
 20
9.2303420338
 30
0.0
 11
39.2271079705
 21
9.2803420338
 31
0.0
  0
LINE
  5
4BB
330
1F
100
AcDbEntity
  8
0
  6
Continuous
 62
     7
370
    25
100
AcDbLine
 10
39.2271079705
 20
11.2803420338
 30
0.0
 11
39.2271079705
 21
11.3303420338
 31
0.0
  0
LINE
  5
4BC
330
1F
100
AcDbEntity
  8
0
  6
Continuous
 62
     7
370
    25
100
AcDbLine
 10
39.5271079705
 20
11.3303420338
 30
0.0
 11
39.5271079705
 21
11.2803420338
 31
0.0
  0
LINE
  5
4BD
330
1F
100
AcDbEntity
  8
0
  6
Continuous
 62
     7
370
    25
100
AcDbLine
 10
39.5271079705
 20
9.2803420338
 30
0.0
 11
39.5271079705
 21
9.2303420338
 31
0.0
  0
LINE
  5
4BE
330
1F
100
AcDbEntity
  8
0
  6
Continuous
 62
     7
370
    25
100
AcDbLine
 10
41.0821079705
 20
9.2365920338
 30
0.0
 11
41.0821079705
 21
9.2803420338
 31
0.0
  0
LINE
  5
4BF
330
1F
100
AcDbEntity
  8
0
  6
Continuous
 62
     7
370
    25
100
AcDbLine
 10
41.0821079705
 20
11.2803420338
 30
0.0
 11
41.0821079705
 21
11.3240920338
 31
0.0
  0
LINE
  5
4C0
330
1F
100
AcDbEntity
  8
0
  6
Continuous
 62
     7
370
    25
100
AcDbLine
 10
39.0521079705
 20
11.3553420338
 30
0.0
 11
39.0521079705
 21
11.2803420338
 31
0.0
  0
LINE
  5
4C1
330
1F
100
AcDbEntity
  8
0
  6
Continuous
 62
     7
370
    25
100
AcDbLine
 10
39.0521079705
 20
9.2803420338
 30
0.0
 11
39.0521079705
 21
9.2053420338
 31
0.0
  0
LINE
  5
4C2
330
1F
100
AcDbEntity
  8
0
  6
Continuous
 62
     7
370
    25
100
AcDbLine
 10
41.1021079705
 20
11.3240920338
 30
0.0
 11
41.1021079705
 21
11.2803420338
 31
0.0
  0
LINE
  5
4C3
330
1F
100
AcDbEntity
  8
0
  6
Continuous
 62
     7
370
    25
100
AcDbLine
 10
41.1021079705
 20
9.2803420338
 30
0.0
 11
41.1021079705
 21
9.2365920338
 31
0.0
  0
ARC
  5
4C4
330
1F
100
AcDbEntity
  8
0
  6
Continuous
 62
     7
370
    25
100
AcDbCircle
 10
41.7521079705
 20
9.3053420338
 30
0.0
 40
0.1896862696659684
100
AcDbArc
 50
325.0182781721
 51
352.4265783369
  0
ARC
  5
4C5
330
1F
100
AcDbEntity
  8
0
  6
Continuous
 62
     7
370
    25
100
AcDbCircle
 10
41.7521079705
 20
11.2553420338
 30
0.0
 40
0.1896862696659682
100
AcDbArc
 50
7.5734216631
 51
34.9817218279
  0
LINE
  5
4C6
330
1F
100
AcDbEntity
  8
0
  6
Continuous
 62
     7
370
    25
100
AcDbLine
 10
32.5017891891
 20
8.1173646021
 30
0.0
 11
32.5017891891
 21
9.2803420338
 31
0.0
  0
LINE
  5
4C7
330
1F
100
AcDbEntity
  8
0
  6
Continuous
 62
     7
370
    25
100
AcDbLine
 10
32.5017891891
 20
11.2803420338
 30
0.0
 11
32.5017891891
 21
12.4433194655
 31
0.0
  0
DIMENSION
  5
4C8
330
1F
100
AcDbEntity
  8
DIM
100
AcDbDimension
  2
_D_4
 10
50.489689098
 20
11.2803420338
 30
0.0
 11
50.489689098
 21
14.2200123881
 31
0.0
 70
   160
  1
<>
 71
     2
 42
-1.0
  3
SLDDIMSTYLE3
100
AcDbAlignedDimension
 13
49.3921079705
 23
9.2803420338
 33
0.0
 14
49.3921079705
 24
11.2803420338
 34
0.0
 50
90.0
100
AcDbRotatedDimension
  0
DIMENSION
  5
4DE
330
1F
100
AcDbEntity
  8
DIM
100
AcDbDimension
  2
_D_5
 10
29.9371079705
 20
14.2200123881
 30
0.0
 11
35.3513422694
 21
14.2200123881
 31
0.0
 70
   160
  1
<>
 71
     2
 42
-1.0
  3
SLDDIMSTYLE1
100
AcDbAlignedDimension
 13
32.5621079705
 23
12.4433194655
 33
0.0
 14
29.9371079705
 24
12.5328801071
 34
0.0
100
AcDbRotatedDimension
  0
ENDSEC
  0
SECTION
  2
OBJECTS
  0
DICTIONARY
  5
C
330
0
100
AcDbDictionary
281
     1
  3
ACAD_GROUP
350
D
  3
ACAD_LAYOUT
350
1A
  3
ACAD_MLINESTYLE
350
17
  3
ACAD_PLOTSETTINGS
350
19
  3
ACAD_PLOTSTYLENAME
350
E
  3
ACAD_SCALELIST
350
47
  3
DWGPROPS
350
4F2
  0
DICTIONARY
  5
D
102
{ACAD_REACTORS
330
C
102
}
330
C
100
AcDbDictionary
281
     1
  0
DICTIONARY
  5
1A
102
{ACAD_REACTORS
330
C
102
}
330
C
100
AcDbDictionary
281
     1
  3
Layout1
350
1E
  3
Layout2
350
26
  3
Model
350
22
  0
DICTIONARY
  5
17
102
{ACAD_REACTORS
330
C
102
}
330
C
100
AcDbDictionary
281
     1
  3
Standard
350
18
  0
DICTIONARY
  5
19
102
{ACAD_REACTORS
330
C
102
}
330
C
100
AcDbDictionary
281
     1
  0
ACDBDICTIONARYWDFLT
  5
E
102
{ACAD_REACTORS
330
C
102
}
330
C
100
AcDbDictionary
281
     1
  3
Normal
350
F
100
AcDbDictionaryWithDefault
340
F
  0
DICTIONARY
  5
47
102
{ACAD_REACTORS
330
C
102
}
330
C
100
AcDbDictionary
281
     1
  3
A0
350
48
  3
A1
350
49
  3
A2
350
4A
  3
A3
350
4B
  3
A4
350
4C
  3
A5
350
4D
  3
A6
350
4E
  3
A7
350
4F
  3
A8
350
50
  3
A9
350
51
  3
B1
350
52
  3
B2
350
53
  3
B3
350
54
  3
B4
350
55
  3
B5
350
56
  3
B6
350
57
  3
B7
350
58
  0
XRECORD
  5
4F2
102
{ACAD_REACTORS
330
C
102
}
330
C
100
AcDbXrecord
280
     1
  1
DWGPROPS COOKIE
  2

  3

  4

  6

  7

  8
shawnd
  9

300
=
301
=
302
=
303
=
304
=
305
=
306
=
307
=
308
=
309
=
 40
0.0
 41
2460892.72670088
 42
2460892.726701412
  1

 90
        0
  0
LAYOUT
  5
1E
102
{ACAD_REACTORS
330
1A
102
}
330
1A
100
AcDbPlotSettings
  1

  2
none_device
  4

  6

 40
0.0
 41
0.0
 42
0.0
 43
0.0
 44
0.0
 45
0.0
 46
0.0
 47
0.0
 48
0.0
 49
0.0
140
0.0
141
0.0
142
1.0
143
1.0
 70
   688
 72
     0
 73
     0
 74
     5
  7

 75
    16
147
1.0
148
0.0
149
0.0
100
AcDbLayout
  1
Layout1
 70
     1
 71
     1
 10
0.0
 20
0.0
 11
12.0
 21
9.0
 12
0.0
 22
0.0
 32
0.0
 14
1.0000000000E+20
 24
1.0000000000E+20
 34
1.0000000000E+20
 15
-1.0000000000E+20
 25
-1.0000000000E+20
 35
-1.0000000000E+20
146
0.0
 13
0.0
 23
0.0
 33
0.0
 16
1.0
 26
0.0
 36
0.0
 17
0.0
 27
1.0
 37
0.0
 76
     0
330
1B
  0
LAYOUT
  5
26
102
{ACAD_REACTORS
330
1A
102
}
330
1A
100
AcDbPlotSettings
  1

  2
none_device
  4

  6

 40
0.0
 41
0.0
 42
0.0
 43
0.0
 44
0.0
 45
0.0
 46
0.0
 47
0.0
 48
0.0
 49
0.0
140
0.0
141
0.0
142
1.0
143
1.0
 70
   688
 72
     0
 73
     0
 74
     5
  7

 75
    16
147
1.0
148
0.0
149
0.0
100
AcDbLayout
  1
Layout2
 70
     1
 71
     2
 10
0.0
 20
0.0
 11
0.0
 21
0.0
 12
0.0
 22
0.0
 32
0.0
 14
0.0
 24
0.0
 34
0.0
 15
0.0
 25
0.0
 35
0.0
146
0.0
 13
0.0
 23
0.0
 33
0.0
 16
1.0
 26
0.0
 36
0.0
 17
0.0
 27
1.0
 37
0.0
 76
     0
330
23
  0
LAYOUT
  5
22
102
{ACAD_REACTORS
330
1A
102
}
330
1A
100
AcDbPlotSettings
  1

  2
none_device
  4
Letter_(8.50_x_11.00_Inches)
  6

 40
6.35
 41
6.35
 42
6.35000508
 43
6.35000508
 44
215.9
 45
279.4
 46
0.0
 47
0.0
 48
0.0
 49
0.0
140
0.0
141
0.0
142
1.0
143
1.0
 70
  1712
 72
     0
 73
     0
 74
     0
  7

 75
     0
147
1.0
148
0.0
149
0.0
100
AcDbLayout
  1
Model
 70
     1
 71
     0
 10
0.0
 20
0.0
 11
55.0
 21
42.5
 12
0.0
 22
0.0
 32
0.0
 14
0.0
 24
0.0
 34
0.0
 15
55.0
 25
42.5
 35
0.0
146
0.0
 13
0.0
 23
0.0
 33
0.0
 16
1.0
 26
0.0
 36
0.0
 17
0.0
 27
1.0
 37
0.0
 76
     0
330
1F
331
29
  0
MLINESTYLE
  5
18
102
{ACAD_REACTORS
330
17
102
}
330
17
100
AcDbMlineStyle
  2
Standard
 70
     0
  3

 62
   256
 51
90.0
 52
90.0
 71
     2
 49
0.5
 62
   256
  6
BYLAYER
 49
-0.5
 62
   256
  6
BYLAYER
  0
ACDBPLACEHOLDER
  5
F
102
{ACAD_REACTORS
330
E
102
}
330
E
  0
SCALE
  5
48
102
{ACAD_REACTORS
330
47
102
}
330
47
100
AcDbScale
 70
     0
300
1:1
140
1.0
141
1.0
290
     1
  0
SCALE
  5
49
102
{ACAD_REACTORS
330
47
102
}
330
47
100
AcDbScale
 70
     0
300
1/128" = 1'-0"
140
0.0078125
141
12.0
290
     0
  0
SCALE
  5
4A
102
{ACAD_REACTORS
330
47
102
}
330
47
100
AcDbScale
 70
     0
300
1/64" = 1'-0"
140
0.015625
141
12.0
290
     0
  0
SCALE
  5
4B
102
{ACAD_REACTORS
330
47
102
}
330
47
100
AcDbScale
 70
     0
300
1/32" = 1'-0"
140
0.03125
141
12.0
290
     0
  0
SCALE
  5
4C
102
{ACAD_REACTORS
330
47
102
}
330
47
100
AcDbScale
 70
     0
300
1/16" = 1'-0"
140
0.0625
141
12.0
290
     0
  0
SCALE
  5
4D
102
{ACAD_REACTORS
330
47
102
}
330
47
100
AcDbScale
 70
     0
300
3/32" = 1'-0"
140
0.09375
141
12.0
290
     0
  0
SCALE
  5
4E
102
{ACAD_REACTORS
330
47
102
}
330
47
100
AcDbScale
 70
     0
300
1/8" = 1'-0"
140
0.125
141
12.0
290
     0
  0
SCALE
  5
4F
102
{ACAD_REACTORS
330
47
102
}
330
47
100
AcDbScale
 70
     0
300
3/16" = 1'-0"
140
0.1875
141
12.0
290
     0
  0
SCALE
  5
50
102
{ACAD_REACTORS
330
47
102
}
330
47
100
AcDbScale
 70
     0
300
1/4" = 1'-0"
140
0.25
141
12.0
290
     0
  0
SCALE
  5
51
102
{ACAD_REACTORS
330
47
102
}
330
47
100
AcDbScale
 70
     0
300
3/8" = 1'-0"
140
0.375
141
12.0
290
     0
  0
SCALE
  5
52
102
{ACAD_REACTORS
330
47
102
}
330
47
100
AcDbScale
 70
     0
300
1/2" = 1'-0"
140
0.5
141
12.0
290
     0
  0
SCALE
  5
53
102
{ACAD_REACTORS
330
47
102
}
330
47
100
AcDbScale
 70
     0
300
3/4" = 1'-0"
140
0.75
141
12.0
290
     0
  0
SCALE
  5
54
102
{ACAD_REACTORS
330
47
102
}
330
47
100
AcDbScale
 70
     0
300
1" = 1'-0"
140
1.0
141
12.0
290
     0
  0
SCALE
  5
55
102
{ACAD_REACTORS
330
47
102
}
330
47
100
AcDbScale
 70
     0
300
1-1/2" = 1'-0"
140
1.5
141
12.0
290
     0
  0
SCALE
  5
56
102
{ACAD_REACTORS
330
47
102
}
330
47
100
AcDbScale
 70
     0
300
3" = 1'-0"
140
3.0
141
12.0
290
     0
  0
SCALE
  5
57
102
{ACAD_REACTORS
330
47
102
}
330
47
100
AcDbScale
 70
     0
300
6" = 1'-0"
140
6.0
141
12.0
290
     0
  0
SCALE
  5
58
102
{ACAD_REACTORS
330
47
102
}
330
47
100
AcDbScale
 70
     0
300
1'-0" = 1'-0"
140
12.0
141
12.0
290
     0
  0
ENDSEC
  0
EOF
