  0
SECTION
  2
HEADER
  9
$ACADVER
  1
AC1015
  9
$ACADMAINTVER
 70
     6
  9
$DWGCODEPAGE
  3
ANSI_1252
  9
$INSBASE
 10
0.0
 20
0.0
 30
0.0
  9
$EXTMIN
 10
0.0
 20
0.0
 30
0.0
  9
$EXTMAX
 10
44.0
 20
34.0
 30
0.0
  9
$LIMMIN
 10
0.0
 20
0.0
  9
$LIMMAX
 10
44.0
 20
34.0
  9
$ORTHOMODE
 70
     0
  9
$REGENMODE
 70
     1
  9
$FILLMODE
 70
     1
  9
$QTEXTMODE
 70
     0
  9
$MIRRTEXT
 70
     1
  9
$LTSCALE
 40
4.0
  9
$ATTMODE
 70
     1
  9
$TEXTSIZE
 40
0.5
  9
$TRACEWID
 40
0.05
  9
$TEXTSTYLE
  7
Standard
  9
$CLAYER
  8
0
  9
$CELTYPE
  6
ByLayer
  9
$CECOLOR
 62
   256
  9
$CELTSCALE
 40
1.0
  9
$DISPSILH
 70
     0
  9
$DIMSCALE
 40
1.0
  9
$DIMASZ
 40
0.52
  9
$DIMEXO
 40
0.6
  9
$DIMDLI
 40
0.38
  9
$DIMRND
 40
0.0
  9
$DIMDLE
 40
0.0
  9
$DIMEXE
 40
0.4
  9
$DIMTP
 40
0.0
  9
$DIMTM
 40
0.0
  9
$DIMTXT
 40
0.5
  9
$DIMCEN
 40
0.09
  9
$DIMTSZ
 40
0.0
  9
$DIMTOL
 70
     0
  9
$DIMLIM
 70
     0
  9
$DIMTIH
 70
     1
  9
$DIMTOH
 70
     1
  9
$DIMSE1
 70
     0
  9
$DIMSE2
 70
     0
  9
$DIMTAD
 70
     0
  9
$DIMZIN
 70
     0
  9
$DIMBLK
  1

  9
$DIMASO
 70
     1
  9
$DIMSHO
 70
     1
  9
$DIMPOST
  1

  9
$DIMAPOST
  1

  9
$DIMALT
 70
     0
  9
$DIMALTD
 70
     2
  9
$DIMALTF
 40
25.4
  9
$DIMLFAC
 40
1.0
  9
$DIMTOFL
 70
     0
  9
$DIMTVP
 40
0.0
  9
$DIMTIX
 70
     0
  9
$DIMSOXD
 70
     0
  9
$DIMSAH
 70
     0
  9
$DIMBLK1
  1

  9
$DIMBLK2
  1

  9
$DIMSTYLE
  2
Standard
  9
$DIMCLRD
 70
     0
  9
$DIMCLRE
 70
     0
  9
$DIMCLRT
 70
     0
  9
$DIMTFAC
 40
1.0
  9
$DIMGAP
 40
0.24
  9
$DIMJUST
 70
     0
  9
$DIMSD1
 70
     0
  9
$DIMSD2
 70
     0
  9
$DIMTOLJ
 70
     1
  9
$DIMTZIN
 70
     0
  9
$DIMALTZ
 70
     0
  9
$DIMALTTZ
 70
     0
  9
$DIMUPT
 70
     0
  9
$DIMDEC
 70
     2
  9
$DIMTDEC
 70
     2
  9
$DIMALTU
 70
     2
  9
$DIMALTTD
 70
     2
  9
$DIMTXSTY
  7
Standard
  9
$DIMAUNIT
 70
     0
  9
$DIMADEC
 70
     0
  9
$DIMALTRND
 40
0.0
  9
$DIMAZIN
 70
     0
  9
$DIMDSEP
 70
    46
  9
$DIMATFIT
 70
     3
  9
$DIMFRAC
 70
     0
  9
$DIMLDRBLK
  1

  9
$DIMLUNIT
 70
     2
  9
$DIMLWD
 70
    -2
  9
$DIMLWE
 70
    -2
  9
$DIMTMOVE
 70
     0
  9
$LUNITS
 70
     2
  9
$LUPREC
 70
     2
  9
$SKETCHINC
 40
0.1
  9
$FILLETRAD
 40
0.0
  9
$AUNITS
 70
     0
  9
$AUPREC
 70
     0
  9
$MENU
  1
.
  9
$ELEVATION
 40
0.0
  9
$PELEVATION
 40
0.0
  9
$THICKNESS
 40
0.0
  9
$LIMCHECK
 70
     0
  9
$CHAMFERA
 40
0.0
  9
$CHAMFERB
 40
0.0
  9
$CHAMFERC
 40
0.0
  9
$CHAMFERD
 40
0.0
  9
$SKPOLY
 70
     0
  9
$TDCREATE
 40
2460892.435036725
  9
$TDUCREATE
 40
2460892.726703392
  9
$TDUPDATE
 40
2460892.435037199
  9
$TDUUPDATE
 40
2460892.726703866
  9
$TDINDWG
 40
0.0000000116
  9
$TDUSRTIMER
 40
0.0000000116
  9
$USRTIMER
 70
     1
  9
$ANGBASE
 50
0.0
  9
$ANGDIR
 70
     0
  9
$PDMODE
 70
     0
  9
$PDSIZE
 40
-1.0
  9
$PLINEWID
 40
0.0
  9
$SPLFRAME
 70
     0
  9
$SPLINETYPE
 70
     6
  9
$SPLINESEGS
 70
     8
  9
$HANDSEED
  5
4F2
  9
$SURFTAB1
 70
     6
  9
$SURFTAB2
 70
     6
  9
$SURFTYPE
 70
     6
  9
$SURFU
 70
     6
  9
$SURFV
 70
     6
  9
$UCSBASE
  2

  9
$UCSNAME
  2

  9
$UCSORG
 10
0.0
 20
0.0
 30
0.0
  9
$UCSXDIR
 10
1.0
 20
0.0
 30
0.0
  9
$UCSYDIR
 10
0.0
 20
1.0
 30
0.0
  9
$UCSORTHOREF
  2

  9
$UCSORTHOVIEW
 70
     0
  9
$UCSORGTOP
 10
0.0
 20
0.0
 30
0.0
  9
$UCSORGBOTTOM
 10
0.0
 20
0.0
 30
0.0
  9
$UCSORGLEFT
 10
0.0
 20
0.0
 30
0.0
  9
$UCSORGRIGHT
 10
0.0
 20
0.0
 30
0.0
  9
$UCSORGFRONT
 10
0.0
 20
0.0
 30
0.0
  9
$UCSORGBACK
 10
0.0
 20
0.0
 30
0.0
  9
$PUCSBASE
  2

  9
$PUCSNAME
  2

  9
$PUCSORG
 10
0.0
 20
0.0
 30
0.0
  9
$PUCSXDIR
 10
1.0
 20
0.0
 30
0.0
  9
$PUCSYDIR
 10
0.0
 20
1.0
 30
0.0
  9
$PUCSORTHOREF
  2

  9
$PUCSORTHOVIEW
 70
     0
  9
$PUCSORGTOP
 10
0.0
 20
0.0
 30
0.0
  9
$PUCSORGBOTTOM
 10
0.0
 20
0.0
 30
0.0
  9
$PUCSORGLEFT
 10
0.0
 20
0.0
 30
0.0
  9
$PUCSORGRIGHT
 10
0.0
 20
0.0
 30
0.0
  9
$PUCSORGFRONT
 10
0.0
 20
0.0
 30
0.0
  9
$PUCSORGBACK
 10
0.0
 20
0.0
 30
0.0
  9
$USERI1
 70
     0
  9
$USERI2
 70
     0
  9
$USERI3
 70
     0
  9
$USERI4
 70
     0
  9
$USERI5
 70
     0
  9
$USERR1
 40
0.0
  9
$USERR2
 40
0.0
  9
$USERR3
 40
0.0
  9
$USERR4
 40
0.0
  9
$USERR5
 40
0.0
  9
$WORLDVIEW
 70
     1
  9
$SHADEDGE
 70
     3
  9
$SHADEDIF
 70
    70
  9
$TILEMODE
 70
     1
  9
$MAXACTVP
 70
    64
  9
$PINSBASE
 10
0.0
 20
0.0
 30
0.0
  9
$PLIMCHECK
 70
     0
  9
$PEXTMIN
 10
1.0000000000E+20
 20
1.0000000000E+20
 30
1.0000000000E+20
  9
$PEXTMAX
 10
-1.0000000000E+20
 20
-1.0000000000E+20
 30
-1.0000000000E+20
  9
$PLIMMIN
 10
0.0
 20
0.0
  9
$PLIMMAX
 10
12.0
 20
9.0
  9
$UNITMODE
 70
     0
  9
$VISRETAIN
 70
     1
  9
$PLINEGEN
 70
     0
  9
$PSLTSCALE
 70
     1
  9
$TREEDEPTH
 70
  3020
  9
$CMLSTYLE
  2
Standard
  9
$CMLJUST
 70
     0
  9
$CMLSCALE
 40
1.0
  9
$PROXYGRAPHICS
 70
     1
  9
$MEASUREMENT
 70
     0
  9
$CELWEIGHT
370
    -1
  9
$ENDCAPS
280
     0
  9
$JOINSTYLE
280
     0
  9
$LWDISPLAY
290
     1
  9
$INSUNITS
 70
     1
  9
$HYPERLINKBASE
  1

  9
$STYLESHEET
  1

  9
$XEDIT
290
     1
  9
$CEPSNTYPE
380
     0
  9
$PSTYLEMODE
290
     1
  9
$FINGERPRINTGUID
  2
{035f29d9-94d9-45f4-a328-0fff14e756cf}
  9
$VERSIONGUID
  2
{FAEB1C32-E019-11D5-929B-00C0DF256EC4}
  9
$EXTNAMES
290
     1
  9
$PSVPSCALE
 40
0.0
  9
$OLESTARTUP
290
     0
  0
ENDSEC
  0
SECTION
  2
CLASSES
  0
CLASS
  1
ACDBDICTIONARYWDFLT
  2
AcDbDictionaryWithDefault
  3
ObjectDBX Classes
 90
        0
280
     0
281
     0
  0
CLASS
  1
VISUALSTYLE
  2
AcDbVisualStyle
  3
ObjectDBX Classes
 90
     4095
280
     0
281
     0
  0
CLASS
  1
MATERIAL
  2
AcDbMaterial
  3
ObjectDBX Classes
 90
     1153
280
     0
281
     0
  0
CLASS
  1
SCALE
  2
AcDbScale
  3
ObjectDBX Classes
 90
     1153
280
     0
281
     0
  0
CLASS
  1
TABLESTYLE
  2
AcDbTableStyle
  3
ObjectDBX Classes
 90
     4095
280
     0
281
     0
  0
CLASS
  1
MLEADERSTYLE
  2
AcDbMLeaderStyle
  3
ACDB_MLEADERSTYLE_CLASS
 90
     4095
280
     0
281
     0
  0
CLASS
  1
SUN
  2
AcDbSun
  3
SCENEOE
 90
     1153
280
     0
281
     0
  0
CLASS
  1
ACDBPLACEHOLDER
  2
AcDbPlaceHolder
  3
ObjectDBX Classes
 90
        0
280
     0
281
     0
  0
CLASS
  1
LAYOUT
  2
AcDbLayout
  3
ObjectDBX Classes
 90
        0
280
     0
281
     0
  0
ENDSEC
  0
SECTION
  2
TABLES
  0
TABLE
  2
VPORT
  5
8
330
0
100
AcDbSymbolTable
 70
     1
  0
VPORT
  5
29
330
8
100
AcDbSymbolTableRecord
100
AcDbViewportTableRecord
  2
*Active
 70
     0
 10
0.0
 20
0.0
 11
1.0
 21
1.0
 12
22.0
 22
17.0
 13
0.0
 23
0.0
 14
0.5
 24
0.5
 15
0.5
 25
0.5
 16
0.0
 26
0.0
 36
1.0
 17
0.0
 27
0.0
 37
0.0
 40
34.0
 41
1.2941176471
 42
50.0
 43
0.0
 44
0.0
 50
0.0
 51
0.0
 71
     0
 72
  2000
 73
     1
 74
     3
 75
     0
 76
     0
 77
     0
 78
     0
281
     0
 65
     1
110
0.0
120
0.0
130
0.0
111
1.0
121
0.0
131
0.0
112
0.0
122
1.0
132
0.0
 79
     0
146
0.0
  0
ENDTAB
  0
TABLE
  2
LTYPE
  5
5
330
0
100
AcDbSymbolTable
 70
     6
  0
LTYPE
  5
14
330
5
100
AcDbSymbolTableRecord
100
AcDbLinetypeTableRecord
  2
ByBlock
 70
     0
  3

 72
    65
 73
     0
 40
0.0
  0
LTYPE
  5
15
330
5
100
AcDbSymbolTableRecord
100
AcDbLinetypeTableRecord
  2
ByLayer
 70
     0
  3

 72
    65
 73
     0
 40
0.0
  0
LTYPE
  5
16
330
5
100
AcDbSymbolTableRecord
100
AcDbLinetypeTableRecord
  2
Continuous
 70
     0
  3
Solid line
 72
    65
 73
     0
 40
0.0
  0
LTYPE
  5
5E
330
5
100
AcDbSymbolTableRecord
100
AcDbLinetypeTableRecord
  2
HIDDEN
 70
     0
  3
Hidden __ __ __ __ __ __ __ __ __ __ __ __ __ __
 72
    65
 73
     2
 40
0.075
 49
0.05
 74
     0
 49
-0.025
 74
     0
  0
LTYPE
  5
5F
330
5
100
AcDbSymbolTableRecord
100
AcDbLinetypeTableRecord
  2
PHANTOM
 70
     0
  3
Phantom ______  __  __  ______  __  __  ______
 72
    65
 73
     6
 40
0.5
 49
0.25
 74
     0
 49
-0.05
 74
     0
 49
0.05
 74
     0
 49
-0.05
 74
     0
 49
0.05
 74
     0
 49
-0.05
 74
     0
  0
LTYPE
  5
60
330
5
100
AcDbSymbolTableRecord
100
AcDbLinetypeTableRecord
  2
CENTER
 70
     0
  3
Center ____ _ ____ _ ____ _ ____ _ ____ _ ____
 72
    65
 73
     4
 40
0.4
 49
0.25
 74
     0
 49
-0.05
 74
     0
 49
0.05
 74
     0
 49
-0.05
 74
     0
  0
LTYPE
  5
61
330
5
100
AcDbSymbolTableRecord
100
AcDbLinetypeTableRecord
  2
CENTERX2
 70
     0
  3
Center (2x) ________  __  ________  __  _____
 72
    65
 73
     4
 40
0.8
 49
0.5
 74
     0
 49
-0.1
 74
     0
 49
0.1
 74
     0
 49
-0.1
 74
     0
  0
LTYPE
  5
62
330
5
100
AcDbSymbolTableRecord
100
AcDbLinetypeTableRecord
  2
DOT2
 70
     0
  3
Dot (.5x) ........................................
 72
    65
 73
     2
 40
0.025
 49
0.0
 74
     0
 49
-0.025
 74
     0
  0
ENDTAB
  0
TABLE
  2
LAYER
  5
2
330
0
100
AcDbSymbolTable
 70
    11
  0
LAYER
  5
10
330
2
100
AcDbSymbolTableRecord
100
AcDbLayerTableRecord
  2
0
 70
     0
 62
     7
  6
Continuous
370
    -3
390
F
  0
LAYER
  5
63
330
2
100
AcDbSymbolTableRecord
100
AcDbLayerTableRecord
  2
SLD-0
 70
     0
 62
     7
  6
Continuous
370
    -3
390
F
  0
LAYER
  5
64
330
2
100
AcDbSymbolTableRecord
100
AcDbLayerTableRecord
  2
DIM
 70
     0
 62
     7
  6
Continuous
370
    -3
390
F
  0
LAYER
  5
65
330
2
100
AcDbSymbolTableRecord
100
AcDbLayerTableRecord
  2
CEN
 70
     0
 62
     1
  6
CENTER
370
    -3
390
F
  0
LAYER
  5
66
330
2
100
AcDbSymbolTableRecord
100
AcDbLayerTableRecord
  2
HAT
 70
     0
 62
     4
  6
Continuous
370
    -3
390
F
  0
LAYER
  5
67
330
2
100
AcDbSymbolTableRecord
100
AcDbLayerTableRecord
  2
OBJ
 70
     0
 62
     5
  6
Continuous
370
    -3
390
F
  0
LAYER
  5
68
330
2
100
AcDbSymbolTableRecord
100
AcDbLayerTableRecord
  2
SLD-DEFPOINTS
 70
     0
 62
     7
  6
Continuous
370
    -3
390
F
  0
LAYER
  5
69
330
2
100
AcDbSymbolTableRecord
100
AcDbLayerTableRecord
  2
HID
 70
     0
 62
     4
  6
HIDDEN
370
    -3
390
F
  0
LAYER
  5
6A
330
2
100
AcDbSymbolTableRecord
100
AcDbLayerTableRecord
  2
NOTE
 70
     0
 62
     7
  6
Continuous
370
    -3
390
F
  0
LAYER
  5
6B
330
2
100
AcDbSymbolTableRecord
100
AcDbLayerTableRecord
  2
TITLE
 70
     0
 62
     7
  6
Continuous
370
    -3
390
F
  0
LAYER
  5
6C
330
2
100
AcDbSymbolTableRecord
100
AcDbLayerTableRecord
  2
THICK_TITLE
 70
     0
 62
     7
  6
Continuous
370
   100
390
F
  0
ENDTAB
  0
TABLE
  2
STYLE
  5
3
330
0
100
AcDbSymbolTable
 70
     2
  0
STYLE
  5
11
330
3
100
AcDbSymbolTableRecord
100
AcDbTextStyleTableRecord
  2
Standard
 70
     0
 40
0.0
 41
1.0
 50
0.0
 71
     0
 42
0.5
  3
txt
  4

  0
STYLE
  5
6D
330
3
100
AcDbSymbolTableRecord
100
AcDbTextStyleTableRecord
  2
SLDTEXTSTYLE0
 70
     0
 40
0.0
 41
0.75
 50
0.0
 71
     0
 42
0.5
  3
TXT
  4

  0
ENDTAB
  0
TABLE
  2
VIEW
  5
6
330
0
100
AcDbSymbolTable
 70
     0
  0
ENDTAB
  0
TABLE
  2
UCS
  5
7
330
0
100
AcDbSymbolTable
 70
     0
  0
ENDTAB
  0
TABLE
  2
APPID
  5
9
330
0
100
AcDbSymbolTable
 70
     1
  0
APPID
  5
12
330
9
100
AcDbSymbolTableRecord
100
AcDbRegAppTableRecord
  2
ACAD
 70
     0
  0
ENDTAB
  0
TABLE
  2
DIMSTYLE
  5
A
330
0
100
AcDbSymbolTable
 70
     5
100
AcDbDimStyleTable
  0
DIMSTYLE
105
27
330
A
100
AcDbSymbolTableRecord
100
AcDbDimStyleTableRecord
  2
Standard
 70
     0
178
     0
340
11
  0
DIMSTYLE
105
14A
102
{ACAD_REACTORS
330
149
330
15F
102
}
330
A
100
AcDbSymbolTableRecord
100
AcDbDimStyleTableRecord
  2
SLDDIMSTYLE0
 70
     0
 41
0.52
 44
0.0
 45
0.000000001
 78
    12
 79
     3
140
0.5
147
0.125
148
0.000000001
170
     1
172
     1
173
     1
178
     0
271
     6
272
     2
276
     2
277
     5
284
    12
289
     0
340
6D
  0
DIMSTYLE
105
234
102
{ACAD_REACTORS
330
233
330
23F
102
}
330
A
100
AcDbSymbolTableRecord
100
AcDbDimStyleTableRecord
  2
SLDDIMSTYLE1
 70
     0
 41
0.52
 44
0.0
 78
    12
 79
     3
140
0.5
144
4.0
147
0.125
148
0.000000001
170
     1
173
     1
178
     0
272
     0
276
     2
277
     5
284
    12
340
6D
  0
DIMSTYLE
105
4C8
102
{ACAD_REACTORS
330
4C7
102
}
330
A
100
AcDbSymbolTableRecord
100
AcDbDimStyleTableRecord
  2
SLDDIMSTYLE2
 70
     0
 41
0.52
 44
0.0
 45
0.000000001
 78
    12
 79
     3
140
0.5
147
0.125
148
0.000000001
170
     1
172
     1
173
     1
178
     0
271
     2
272
     2
276
     2
277
     5
284
    12
289
     0
340
6D
  0
DIMSTYLE
105
4DD
102
{ACAD_REACTORS
330
4DC
102
}
330
A
100
AcDbSymbolTableRecord
100
AcDbDimStyleTableRecord
  2
SLDDIMSTYLE3
 70
     0
 41
0.52
 44
0.0
 45
0.000000001
 78
    12
 79
     3
140
0.5
147
0.125
148
0.000000001
170
     1
173
     1
178
     0
271
     6
272
     2
276
     2
277
     5
284
    12
340
6D
  0
ENDTAB
  0
TABLE
  2
BLOCK_RECORD
  5
1
330
0
100
AcDbSymbolTable
 70
     7
  0
BLOCK_RECORD
  5
1F
330
1
100
AcDbSymbolTableRecord
100
AcDbBlockTableRecord
  2
*Model_Space
340
22
  0
BLOCK_RECORD
  5
1B
330
1
100
AcDbSymbolTableRecord
100
AcDbBlockTableRecord
  2
*Paper_Space
340
1E
  0
BLOCK_RECORD
  5
23
330
1
100
AcDbSymbolTableRecord
100
AcDbBlockTableRecord
  2
*Paper_Space0
340
26
  0
BLOCK_RECORD
  5
14B
330
1
100
AcDbSymbolTableRecord
100
AcDbBlockTableRecord
  2
_D
340
0
  0
BLOCK_RECORD
  5
160
330
1
100
AcDbSymbolTableRecord
100
AcDbBlockTableRecord
  2
_D_1
340
0
  0
BLOCK_RECORD
  5
235
330
1
100
AcDbSymbolTableRecord
100
AcDbBlockTableRecord
  2
_D_2
340
0
  0
BLOCK_RECORD
  5
240
330
1
100
AcDbSymbolTableRecord
100
AcDbBlockTableRecord
  2
_D_3
340
0
  0
BLOCK_RECORD
  5
4C9
330
1
100
AcDbSymbolTableRecord
100
AcDbBlockTableRecord
  2
_D_4
340
0
  0
BLOCK_RECORD
  5
4DE
330
1
100
AcDbSymbolTableRecord
100
AcDbBlockTableRecord
  2
_D_5
340
0
  0
ENDTAB
  0
ENDSEC
  0
SECTION
  2
BLOCKS
  0
BLOCK
  5
20
330
1F
100
AcDbEntity
  8
0
100
AcDbBlockBegin
  2
*Model_Space
 70
     0
 10
0.0
 20
0.0
 30
0.0
  3
*Model_Space
  1

  0
ENDBLK
  5
21
330
1F
100
AcDbEntity
  8
0
100
AcDbBlockEnd
  0
BLOCK
  5
1C
330
1B
100
AcDbEntity
 67
     1
  8
0
100
AcDbBlockBegin
  2
*Paper_Space
 70
     0
 10
0.0
 20
0.0
 30
0.0
  3
*Paper_Space
  1

  0
ENDBLK
  5
1D
330
1B
100
AcDbEntity
 67
     1
  8
0
100
AcDbBlockEnd
  0
BLOCK
  5
24
330
23
100
AcDbEntity
  8
0
100
AcDbBlockBegin
  2
*Paper_Space0
 70
     0
 10
0.0
 20
0.0
 30
0.0
  3
*Paper_Space0
  1

  0
ENDBLK
  5
25
330
23
100
AcDbEntity
  8
0
100
AcDbBlockEnd
  0
BLOCK
  5
14C
330
14B
100
AcDbEntity
  8
0
100
AcDbBlockBegin
  2
_D
 70
     0
 10
0.0
 20
0.0
 30
0.0
  3
_D
  1

  0
SOLID
  5
14E
330
14B
100
AcDbEntity
  8
DIM
100
AcDbTrace
 10
17.3497232929
 20
8.1490362598
 30
0.0
 11
17.4297232929
 21
8.6690362598
 31
0.0
 12
17.2697232929
 22
8.6690362598
 32
0.0
 13
17.2697232929
 23
8.6690362598
 33
0.0
  0
SOLID
  5
14F
330
14B
100
AcDbEntity
  8
DIM
100
AcDbTrace
 10
17.3497232929
 20
3.5190362598
 30
0.0
 11
17.2697232929
 21
2.9990362598
 31
0.0
 12
17.4297232929
 22
2.9990362598
 32
0.0
 13
17.4297232929
 23
2.9990362598
 33
0.0
  0
LINE
  5
150
330
14B
100
AcDbEntity
  8
DIM
100
AcDbLine
 10
18.6019670168
 20
10.141247039
 30
0.0
 11
18.4496232683
 21
10.141247039
 31
0.0
  0
LINE
  5
151
330
14B
100
AcDbEntity
  8
DIM
100
AcDbLine
 10
18.4496232683
 20
10.141247039
 30
0.0
 11
18.4496232683
 21
9.3474970152
 31
0.0
  0
LINE
  5
152
330
14B
100
AcDbEntity
  8
DIM
100
AcDbLine
 10
18.4496232683
 20
9.3474970152
 30
0.0
 11
18.6019670168
 21
9.3474970152
 31
0.0
  0
LINE
  5
153
330
14B
100
AcDbEntity
  8
DIM
100
AcDbLine
 10
20.9603003198
 20
10.141247039
 30
0.0
 11
21.1126440682
 21
10.141247039
 31
0.0
  0
LINE
  5
154
330
14B
100
AcDbEntity
  8
DIM
100
AcDbLine
 10
21.1126440682
 20
10.141247039
 30
0.0
 11
21.1126440682
 21
9.3474970152
 31
0.0
  0
LINE
  5
155
330
14B
100
AcDbEntity
  8
DIM
100
AcDbLine
 10
21.1126440682
 20
9.3474970152
 30
0.0
 11
20.9603003198
 21
9.3474970152
 31
0.0
  0
LINE
  5
156
330
14B
100
AcDbEntity
  8
DIM
100
AcDbLine
 10
14.0989557412
 20
8.1490362598
 30
0.0
 11
17.7497232929
 21
8.1490362598
 31
0.0
  0
LINE
  5
157
330
14B
100
AcDbEntity
  8
DIM
100
AcDbLine
 10
14.0989557412
 20
3.5190362598
 30
0.0
 11
17.7497232929
 21
3.5190362598
 31
0.0
  0
LINE
  5
158
330
14B
100
AcDbEntity
  8
DIM
100
AcDbLine
 10
17.8497232929
 20
10.6687212992
 30
0.0
 11
17.3497232929
 21
10.6687212992
 31
0.0
  0
LINE
  5
159
330
14B
100
AcDbEntity
  8
DIM
100
AcDbLine
 10
17.3497232929
 20
10.6687212992
 30
0.0
 11
17.3497232929
 21
8.1490362598
 31
0.0
  0
LINE
  5
15A
330
14B
100
AcDbEntity
  8
DIM
100
AcDbLine
 10
17.3497232929
 20
3.5190362598
 30
0.0
 11
17.3497232929
 21
2.5190362598
 31
0.0
  0
MTEXT
  5
15B
330
14B
100
AcDbEntity
  8
DIM
100
AcDbMText
 10
18.3000572972
 20
10.8949823491
 30
0.0
 40
0.5
 41
0.0
 71
     1
 72
     1
  1

  7
SLDTEXTSTYLE0
 73
     1
 44
1.0
  0
MTEXT
  5
15C
330
14B
100
AcDbEntity
  8
DIM
100
AcDbMText
 10
18.885647543
 20
10.8873434232
 30
0.0
 40
0.5
 41
0.0
 71
     1
 72
     1
  1
4 5/8"
  7
SLDTEXTSTYLE0
 73
     1
 44
1.0
  0
MTEXT
  5
15D
330
14B
100
AcDbEntity
  8
DIM
100
AcDbMText
 10
18.6019670168
 20
9.9920309401
 30
0.0
 40
0.5
 41
0.0
 71
     1
 72
     1
  1
118mm
  7
SLDTEXTSTYLE0
 73
     1
 44
1.0
  0
MTEXT
  5
15E
330
14B
100
AcDbEntity
  8
DIM
100
AcDbMText
 10
21.4524877067
 20
10.8949823491
 30
0.0
 40
0.5
 41
0.0
 71
     1
 72
     1
  1

  7
SLDTEXTSTYLE0
 73
     1
 44
1.0
  0
ENDBLK
  5
14D
330
14B
100
AcDbEntity
  8
0
100
AcDbBlockEnd
  0
BLOCK
  5
161
330
160
100
AcDbEntity
  8
0
100
AcDbBlockBegin
  2
_D_1
 70
     0
 10
0.0
 20
0.0
 30
0.0
  3
_D_1
  1

  0
SOLID
  5
163
330
160
100
AcDbEntity
  8
DIM
100
AcDbTrace
 10
10.7114176679
 20
10.6687212992
 30
0.0
 11
10.1914176679
 21
10.7487212992
 31
0.0
 12
10.1914176679
 22
10.5887212992
 32
0.0
 13
10.1914176679
 23
10.5887212992
 33
0.0
  0
SOLID
  5
164
330
160
100
AcDbEntity
  8
DIM
100
AcDbTrace
 10
13.5614176679
 20
10.6687212992
 30
0.0
 11
14.0814176679
 21
10.5887212992
 31
0.0
 12
14.0814176679
 22
10.7487212992
 32
0.0
 13
14.0814176679
 23
10.7487212992
 33
0.0
  0
LINE
  5
165
330
160
100
AcDbEntity
  8
DIM
100
AcDbLine
 10
11.1419732758
 20
10.141247039
 30
0.0
 11
10.9896295273
 21
10.141247039
 31
0.0
  0
LINE
  5
166
330
160
100
AcDbEntity
  8
DIM
100
AcDbLine
 10
10.9896295273
 20
10.141247039
 30
0.0
 11
10.9896295273
 21
9.3474970152
 31
0.0
  0
LINE
  5
167
330
160
100
AcDbEntity
  8
DIM
100
AcDbLine
 10
10.9896295273
 20
9.3474970152
 30
0.0
 11
11.1419732758
 21
9.3474970152
 31
0.0
  0
LINE
  5
168
330
160
100
AcDbEntity
  8
DIM
100
AcDbLine
 10
13.1308622066
 20
10.141247039
 30
0.0
 11
13.2832059551
 21
10.141247039
 31
0.0
  0
LINE
  5
169
330
160
100
AcDbEntity
  8
DIM
100
AcDbLine
 10
13.2832059551
 20
10.141247039
 30
0.0
 11
13.2832059551
 21
9.3474970152
 31
0.0
  0
LINE
  5
16A
330
160
100
AcDbEntity
  8
DIM
100
AcDbLine
 10
13.2832059551
 20
9.3474970152
 30
0.0
 11
13.1308622066
 21
9.3474970152
 31
0.0
  0
LINE
  5
16B
330
160
100
AcDbEntity
  8
DIM
100
AcDbLine
 10
10.7114176679
 20
8.6865743331
 30
0.0
 11
10.7114176679
 21
11.0687212992
 31
0.0
  0
LINE
  5
16C
330
160
100
AcDbEntity
  8
DIM
100
AcDbLine
 10
13.5614176679
 20
8.6865743331
 30
0.0
 11
13.5614176679
 21
11.0687212992
 31
0.0
  0
LINE
  5
16D
330
160
100
AcDbEntity
  8
DIM
100
AcDbLine
 10
10.7114176679
 20
10.6687212992
 30
0.0
 11
9.7114176679
 21
10.6687212992
 31
0.0
  0
LINE
  5
16E
330
160
100
AcDbEntity
  8
DIM
100
AcDbLine
 10
13.5614176679
 20
10.6687212992
 30
0.0
 11
14.5614176679
 21
10.6687212992
 31
0.0
  0
MTEXT
  5
16F
330
160
100
AcDbEntity
  8
DIM
100
AcDbMText
 10
10.8400635562
 20
10.8949823491
 30
0.0
 40
0.5
 41
0.0
 71
     1
 72
     1
  1

  7
SLDTEXTSTYLE0
 73
     1
 44
1.0
  0
MTEXT
  5
170
330
160
100
AcDbEntity
  8
DIM
100
AcDbMText
 10
11.2409316159
 20
10.8873434232
 30
0.0
 40
0.5
 41
0.0
 71
     1
 72
     1
  1
2 7/8"
  7
SLDTEXTSTYLE0
 73
     1
 44
1.0
  0
MTEXT
  5
171
330
160
100
AcDbEntity
  8
DIM
100
AcDbMText
 10
11.1419732758
 20
9.9920309401
 30
0.0
 40
0.5
 41
0.0
 71
     1
 72
     1
  1
72mm
  7
SLDTEXTSTYLE0
 73
     1
 44
1.0
  0
MTEXT
  5
172
330
160
100
AcDbEntity
  8
DIM
100
AcDbMText
 10
13.6230495935
 20
10.8949823491
 30
0.0
 40
0.5
 41
0.0
 71
     1
 72
     1
  1

  7
SLDTEXTSTYLE0
 73
     1
 44
1.0
  0
ENDBLK
  5
162
330
160
100
AcDbEntity
  8
0
100
AcDbBlockEnd
  0
BLOCK
  5
236
330
235
100
AcDbEntity
  8
0
100
AcDbBlockBegin
  2
_D_2
 70
     0
 10
0.0
 20
0.0
 30
0.0
  3
_D_2
  1

  0
ARC
  5
238
330
235
100
AcDbEntity
  8
SLD-0
100
AcDbCircle
 10
12.1364176679
 20
23.0774850952
 30
0.0
 40
10.44333782637769
100
AcDbArc
 50
26.1049704851
 51
168.6578979079
  0
ARC
  5
239
330
235
100
AcDbEntity
  8
SLD-0
100
AcDbCircle
 10
12.1364176679
 20
23.0774850952
 30
0.0
 40
10.44333782637769
100
AcDbArc
 50
280.7377805806
 51
21.3467723092
  0
SOLID
  5
23A
330
235
100
AcDbEntity
  8
SLD-0
100
AcDbTrace
 10
1.8970339617
 20
25.1313415343
 30
0.0
 11
2.0899724554
 21
25.6208052589
 31
0.0
 12
1.9339283997
 22
25.6561641715
 32
0.0
 13
1.9339283997
 23
25.6561641715
 33
0.0
  0
SOLID
  5
23B
330
235
100
AcDbEntity
  8
SLD-0
100
AcDbTrace
 10
14.0821629903
 20
12.8170084933
 30
0.0
 11
14.6073455682
 21
12.8483654675
 31
0.0
 12
14.573634451
 22
13.0047737811
 32
0.0
 13
14.573634451
 23
13.0047737811
 33
0.0
  0
LINE
  5
23C
330
235
100
AcDbEntity
  8
SLD-0
100
AcDbLine
 10
3.4568991819
 20
24.8184575446
 30
0.0
 11
1.5048457982
 21
25.210008201
 31
0.0
  0
LINE
  5
23D
330
235
100
AcDbEntity
  8
SLD-0
100
AcDbLine
 10
13.8615641062
 20
13.9802900714
 30
0.0
 11
14.1566887925
 21
12.4240124313
 31
0.0
  0
MTEXT
  5
23E
330
235
100
AcDbEntity
  8
SLD-0
100
AcDbMText
 10
18.8983734984
 20
27.473452322
 30
0.0
 40
0.5
 41
0.0
 71
     1
 72
     1
  1
[SPECIFY LENGTH]
  7
SLDTEXTSTYLE0
 73
     1
 44
1.0
  0
ENDBLK
  5
237
330
235
100
AcDbEntity
  8
0
100
AcDbBlockEnd
  0
BLOCK
  5
241
330
240
100
AcDbEntity
  8
0
100
AcDbBlockBegin
  2
_D_3
 70
     0
 10
0.0
 20
0.0
 30
0.0
  3
_D_3
  1

  0
ARC
  5
243
330
240
100
AcDbEntity
  8
SLD-0
100
AcDbCircle
 10
12.1364176679
 20
23.0774850952
 30
0.0
 40
10.47223616411369
100
AcDbArc
 50
191.4386950753
 51
221.0531848806
  0
ARC
  5
244
330
240
100
AcDbEntity
  8
SLD-0
100
AcDbCircle
 10
12.1364176679
 20
23.0774850952
 30
0.0
 40
10.47223616411369
100
AcDbArc
 50
233.9350942461
 51
259.2622194194
  0
SOLID
  5
245
330
240
100
AcDbEntity
  8
SLD-0
100
AcDbTrace
 10
1.8721866934
 20
21.0006382592
 30
0.0
 11
1.909929896
 21
20.4758759791
 31
0.0
 12
2.0659165604
 22
20.5114872206
 32
0.0
 13
2.0659165604
 23
20.5114872206
 33
0.0
  0
SOLID
  5
246
330
240
100
AcDbEntity
  8
SLD-0
100
AcDbTrace
 10
10.185288166
 20
12.788616161
 30
0.0
 11
9.6938038384
 21
12.9763477667
 31
0.0
 12
9.6601034403
 22
12.8199371432
 32
0.0
 13
9.6601034403
 23
12.8199371432
 33
0.0
  0
LINE
  5
247
330
240
100
AcDbEntity
  8
SLD-0
100
AcDbLine
 10
3.4552517076
 20
21.3209529106
 30
0.0
 11
1.4801317087
 21
20.9213105282
 31
0.0
  0
LINE
  5
248
330
240
100
AcDbEntity
  8
SLD-0
100
AcDbLine
 10
10.4115603665
 20
13.9818147736
 30
0.0
 11
10.1107623638
 21
12.3956200989
 31
0.0
  0
MTEXT
  5
249
330
240
100
AcDbEntity
  8
SLD-0
100
AcDbMText
 10
4.3432495767
 20
16.000466817
 30
0.0
 40
0.5
 41
0.0
 71
     1
 72
     1
  1
9"
  7
SLDTEXTSTYLE0
 73
     1
 44
1.0
  0
MTEXT
  5
24A
330
240
100
AcDbEntity
  8
SLD-0
100
AcDbMText
 10
3.2179023518
 20
15.2067167931
 30
0.0
 40
0.5
 41
0.0
 71
     1
 72
     1
  1
[229mm]
  7
SLDTEXTSTYLE0
 73
     1
 44
1.0
  0
ENDBLK
  5
242
330
240
100
AcDbEntity
  8
0
100
AcDbBlockEnd
  0
BLOCK
  5
4CA
330
4C9
100
AcDbEntity
  8
0
100
AcDbBlockBegin
  2
_D_4
 70
     0
 10
0.0
 20
0.0
 30
0.0
  3
_D_4
  1

  0
SOLID
  5
4CC
330
4C9
100
AcDbEntity
  8
DIM
100
AcDbTrace
 10
40.4376357648
 20
4.8340362598
 30
0.0
 11
40.3576357648
 21
4.3140362598
 31
0.0
 12
40.5176357648
 22
4.3140362598
 32
0.0
 13
40.5176357648
 23
4.3140362598
 33
0.0
  0
SOLID
  5
4CD
330
4C9
100
AcDbEntity
  8
DIM
100
AcDbTrace
 10
40.4376357648
 20
6.8340362598
 30
0.0
 11
40.5176357648
 21
7.3540362598
 31
0.0
 12
40.3576357648
 22
7.3540362598
 32
0.0
 13
40.3576357648
 23
7.3540362598
 33
0.0
  0
LINE
  5
4CE
330
4C9
100
AcDbEntity
  8
DIM
100
AcDbLine
 10
39.4431913727
 20
5.7990568989
 30
0.0
 11
39.2908476242
 21
5.7990568989
 31
0.0
  0
LINE
  5
4CF
330
4C9
100
AcDbEntity
  8
DIM
100
AcDbLine
 10
39.2908476242
 20
5.7990568989
 30
0.0
 11
39.2908476242
 21
5.005306875
 31
0.0
  0
LINE
  5
4D0
330
4C9
100
AcDbEntity
  8
DIM
100
AcDbLine
 10
39.2908476242
 20
5.005306875
 30
0.0
 11
39.4431913727
 21
5.005306875
 31
0.0
  0
LINE
  5
4D1
330
4C9
100
AcDbEntity
  8
DIM
100
AcDbLine
 10
41.4320803035
 20
5.7990568989
 30
0.0
 11
41.584424052
 21
5.7990568989
 31
0.0
  0
LINE
  5
4D2
330
4C9
100
AcDbEntity
  8
DIM
100
AcDbLine
 10
41.584424052
 20
5.7990568989
 30
0.0
 11
41.584424052
 21
5.005306875
 31
0.0
  0
LINE
  5
4D3
330
4C9
100
AcDbEntity
  8
DIM
100
AcDbLine
 10
41.584424052
 20
5.005306875
 30
0.0
 11
41.4320803035
 21
5.005306875
 31
0.0
  0
LINE
  5
4D4
330
4C9
100
AcDbEntity
  8
DIM
100
AcDbLine
 10
39.5496863764
 20
4.8340362598
 30
0.0
 11
40.8376357648
 21
4.8340362598
 31
0.0
  0
LINE
  5
4D5
330
4C9
100
AcDbEntity
  8
DIM
100
AcDbLine
 10
39.5496863764
 20
6.8340362598
 30
0.0
 11
40.8376357648
 21
6.8340362598
 31
0.0
  0
LINE
  5
4D6
330
4C9
100
AcDbEntity
  8
DIM
100
AcDbLine
 10
40.4376357648
 20
4.8340362598
 30
0.0
 11
40.4376357648
 21
3.8340362598
 31
0.0
  0
LINE
  5
4D7
330
4C9
100
AcDbEntity
  8
DIM
100
AcDbLine
 10
40.4376357648
 20
6.8340362598
 30
0.0
 11
40.4376357648
 21
7.8340362598
 31
0.0
  0
MTEXT
  5
4D8
330
4C9
100
AcDbEntity
  8
DIM
100
AcDbMText
 10
39.1412816531
 20
6.5527922089
 30
0.0
 40
0.5
 41
0.0
 71
     1
 72
     1
  1

  7
SLDTEXTSTYLE0
 73
     1
 44
1.0
  0
MTEXT
  5
4D9
330
4C9
100
AcDbEntity
  8
DIM
100
AcDbMText
 10
40.1497885783
 20
6.545153283
 30
0.0
 40
0.5
 41
0.0
 71
     1
 72
     1
  1
2"
  7
SLDTEXTSTYLE0
 73
     1
 44
1.0
  0
MTEXT
  5
4DA
330
4C9
100
AcDbEntity
  8
DIM
100
AcDbMText
 10
39.4431913727
 20
5.6498407999
 30
0.0
 40
0.5
 41
0.0
 71
     1
 72
     1
  1
51mm
  7
SLDTEXTSTYLE0
 73
     1
 44
1.0
  0
MTEXT
  5
4DB
330
4C9
100
AcDbEntity
  8
DIM
100
AcDbMText
 10
41.9242676904
 20
6.5527922089
 30
0.0
 40
0.5
 41
0.0
 71
     1
 72
     1
  1

  7
SLDTEXTSTYLE0
 73
     1
 44
1.0
  0
ENDBLK
  5
4CB
330
4C9
100
AcDbEntity
  8
0
100
AcDbBlockEnd
  0
BLOCK
  5
4DF
330
4DE
100
AcDbEntity
  8
0
100
AcDbBlockBegin
  2
_D_5
 70
     0
 10
0.0
 20
0.0
 30
0.0
  3
_D_5
  1

  0
SOLID
  5
4E1
330
4DE
100
AcDbEntity
  8
DIM
100
AcDbTrace
 10
24.9496863764
 20
9.7238394094
 30
0.0
 11
24.4296863764
 21
9.8038394094
 31
0.0
 12
24.4296863764
 22
9.6438394094
 32
0.0
 13
24.4296863764
 23
9.6438394094
 33
0.0
  0
SOLID
  5
4E2
330
4DE
100
AcDbEntity
  8
DIM
100
AcDbTrace
 10
22.3246863764
 20
9.7238394094
 30
0.0
 11
22.8446863764
 21
9.6438394094
 31
0.0
 12
22.8446863764
 22
9.8038394094
 32
0.0
 13
22.8446863764
 23
9.8038394094
 33
0.0
  0
LINE
  5
4E3
330
4DE
100
AcDbEntity
  8
DIM
100
AcDbLine
 10
26.307263831
 20
9.1963651493
 30
0.0
 11
26.1549200825
 21
9.1963651493
 31
0.0
  0
LINE
  5
4E4
330
4DE
100
AcDbEntity
  8
DIM
100
AcDbLine
 10
26.1549200825
 20
9.1963651493
 30
0.0
 11
26.1549200825
 21
8.4026151254
 31
0.0
  0
LINE
  5
4E5
330
4DE
100
AcDbEntity
  8
DIM
100
AcDbLine
 10
26.1549200825
 20
8.4026151254
 30
0.0
 11
26.307263831
 21
8.4026151254
 31
0.0
  0
LINE
  5
4E6
330
4DE
100
AcDbEntity
  8
DIM
100
AcDbLine
 10
28.2961527618
 20
9.1963651493
 30
0.0
 11
28.4484965103
 21
9.1963651493
 31
0.0
  0
LINE
  5
4E7
330
4DE
100
AcDbEntity
  8
DIM
100
AcDbLine
 10
28.4484965103
 20
9.1963651493
 30
0.0
 11
28.4484965103
 21
8.4026151254
 31
0.0
  0
LINE
  5
4E8
330
4DE
100
AcDbEntity
  8
DIM
100
AcDbLine
 10
28.4484965103
 20
8.4026151254
 30
0.0
 11
28.2961527618
 21
8.4026151254
 31
0.0
  0
LINE
  5
4E9
330
4DE
100
AcDbEntity
  8
DIM
100
AcDbLine
 10
24.9496863764
 20
8.5970136914
 30
0.0
 11
24.9496863764
 21
10.1238394094
 31
0.0
  0
LINE
  5
4EA
330
4DE
100
AcDbEntity
  8
DIM
100
AcDbLine
 10
22.3246863764
 20
8.6865743331
 30
0.0
 11
22.3246863764
 21
10.1238394094
 31
0.0
  0
LINE
  5
4EB
330
4DE
100
AcDbEntity
  8
DIM
100
AcDbLine
 10
24.9496863764
 20
9.7238394094
 30
0.0
 11
25.7302427766
 21
9.7238394094
 31
0.0
  0
LINE
  5
4EC
330
4DE
100
AcDbEntity
  8
DIM
100
AcDbLine
 10
22.3246863764
 20
9.7238394094
 30
0.0
 11
24.9496863764
 21
9.7238394094
 31
0.0
  0
MTEXT
  5
4ED
330
4DE
100
AcDbEntity
  8
DIM
100
AcDbMText
 10
26.0053541113
 20
9.9501004593
 30
0.0
 40
0.5
 41
0.0
 71
     1
 72
     1
  1

  7
SLDTEXTSTYLE0
 73
     1
 44
1.0
  0
MTEXT
  5
4EE
330
4DE
100
AcDbEntity
  8
DIM
100
AcDbMText
 10
26.4062221711
 20
9.9424615334
 30
0.0
 40
0.5
 41
0.0
 71
     1
 72
     1
  1
2 5/8"
  7
SLDTEXTSTYLE0
 73
     1
 44
1.0
  0
MTEXT
  5
4EF
330
4DE
100
AcDbEntity
  8
DIM
100
AcDbMText
 10
26.307263831
 20
9.0471490503
 30
0.0
 40
0.5
 41
0.0
 71
     1
 72
     1
  1
67mm
  7
SLDTEXTSTYLE0
 73
     1
 44
1.0
  0
MTEXT
  5
4F0
330
4DE
100
AcDbEntity
  8
DIM
100
AcDbMText
 10
28.7883401487
 20
9.9501004593
 30
0.0
 40
0.5
 41
0.0
 71
     1
 72
     1
  1

  7
SLDTEXTSTYLE0
 73
     1
 44
1.0
  0
ENDBLK
  5
4E0
330
4DE
100
AcDbEntity
  8
0
100
AcDbBlockEnd
  0
ENDSEC
  0
SECTION
  2
ENTITIES
  0
MTEXT
  5
6E
330
1F
100
AcDbEntity
  8
SLD-0
100
AcDbMText
 10
35.0169421488
 20
3.373003985
 30
0.0
 40
0.5
 41
0.0
 71
     1
 72
     1
  1
MB2-CUSTOM
  7
SLDTEXTSTYLE0
 73
     1
 44
1.0
  0
LINE
  5
6F
330
1F
100
AcDbEntity
  8
0
  6
Continuous
 62
     7
370
    25
100
AcDbLine
 10
19.6364176679
 20
4.8340362598
 30
0.0
 11
19.6364176679
 21
6.8340362598
 31
0.0
  0
ARC
  5
70
330
1F
100
AcDbEntity
  8
0
  6
Continuous
 62
     7
370
    25
100
AcDbCircle
 10
10.6707035336
 20
5.6840362598
 30
0.0
 40
0.0500000000000007
100
AcDbArc
 50
90.0
 51
180.0
  0
ARC
  5
71
330
1F
100
AcDbEntity
  8
0
  6
Continuous
 62
     7
370
    25
100
AcDbCircle
 10
10.6707035336
 20
5.3590362598
 30
0.0
 40
0.0500000000000007
100
AcDbArc
 50
180.0
 51
270.0
  0
ARC
  5
72
330
1F
100
AcDbEntity
  8
0
  6
Continuous
 62
     7
370
    25
100
AcDbCircle
 10
10.6707035336
 20
6.3090362598
 30
0.0
 40
0.0499999999999998
100
AcDbArc
 50
90.0
 51
180.0
  0
ARC
  5
73
330
1F
100
AcDbEntity
  8
0
  6
Continuous
 62
     7
370
    25
100
AcDbCircle
 10
10.6707035336
 20
5.9840362598
 30
0.0
 40
0.0500000000000007
100
AcDbArc
 50
180.0
 51
270.0
  0
LINE
  5
74
330
1F
100
AcDbEntity
  8
0
  6
Continuous
 62
     7
370
    25
100
AcDbLine
 10
13.8721318022
 20
6.2815362598
 30
0.0
 11
13.7241318022
 21
6.2815362598
 31
0.0
  0
LINE
  5
75
330
1F
100
AcDbEntity
  8
0
  6
Continuous
 62
     7
370
    25
100
AcDbLine
 10
13.7241318022
 20
6.0115362598
 30
0.0
 11
13.8721318022
 21
6.0115362598
 31
0.0
  0
LINE
  5
76
330
1F
100
AcDbEntity
  8
0
  6
Continuous
 62
     7
370
    25
100
AcDbLine
 10
13.8721318022
 20
6.0115362598
 30
0.0
 11
13.8881318022
 21
6.0275362598
 31
0.0
  0
LINE
  5
77
330
1F
100
AcDbEntity
  8
0
  6
Continuous
 62
     7
370
    25
100
AcDbLine
 10
13.8881318022
 20
6.2655362598
 30
0.0
 11
13.8721318022
 21
6.2815362598
 31
0.0
  0
LINE
  5
78
330
1F
100
AcDbEntity
  8
0
  6
Continuous
 62
     7
370
    25
100
AcDbLine
 10
13.6496956624
 20
6.2285362598
 30
0.0
 11
13.6366718022
 21
6.2099362598
 31
0.0
  0
LINE
  5
79
330
1F
100
AcDbEntity
  8
0
  6
Continuous
 62
     7
370
    25
100
AcDbLine
 10
13.6366718022
 20
6.0831362598
 30
0.0
 11
13.6496956624
 21
6.0645362598
 31
0.0
  0
LINE
  5
7A
330
1F
100
AcDbEntity
  8
0
  6
Continuous
 62
     7
370
    25
100
AcDbLine
 10
13.623647942
 20
6.0645362598
 30
0.0
 11
13.6366718022
 21
6.0831362598
 31
0.0
  0
LINE
  5
7B
330
1F
100
AcDbEntity
  8
0
  6
Continuous
 62
     7
370
    25
100
AcDbLine
 10
13.6366718022
 20
6.2099362598
 30
0.0
 11
13.623647942
 21
6.2285362598
 31
0.0
  0
LINE
  5
7C
330
1F
100
AcDbEntity
  8
0
  6
Continuous
 62
     7
370
    25
100
AcDbLine
 10
13.651777942
 20
6.0645362598
 30
0.0
 11
13.6521318022
 21
6.0650416245
 31
0.0
  0
LINE
  5
7D
330
1F
100
AcDbEntity
  8
0
  6
Continuous
 62
     7
370
    25
100
AcDbLine
 10
13.6521318022
 20
6.228030895
 30
0.0
 11
13.651777942
 21
6.2285362598
 31
0.0
  0
LINE
  5
7E
330
1F
100
AcDbEntity
  8
0
  6
Continuous
 62
     7
370
    25
100
AcDbLine
 10
13.623647942
 20
6.2285362598
 30
0.0
 11
13.6215656624
 21
6.2285362598
 31
0.0
  0
LINE
  5
7F
330
1F
100
AcDbEntity
  8
0
  6
Continuous
 62
     7
370
    25
100
AcDbLine
 10
13.6215656624
 20
6.0645362598
 30
0.0
 11
13.623647942
 21
6.0645362598
 31
0.0
  0
LINE
  5
80
330
1F
100
AcDbEntity
  8
0
  6
Continuous
 62
     7
370
    25
100
AcDbLine
 10
13.651777942
 20
6.2285362598
 30
0.0
 11
13.6496956624
 21
6.2285362598
 31
0.0
  0
LINE
  5
81
330
1F
100
AcDbEntity
  8
0
  6
Continuous
 62
     7
370
    25
100
AcDbLine
 10
13.6496956624
 20
6.0645362598
 30
0.0
 11
13.651777942
 21
6.0645362598
 31
0.0
  0
LINE
  5
82
330
1F
100
AcDbEntity
  8
0
  6
Continuous
 62
     7
370
    25
100
AcDbLine
 10
13.6215656624
 20
6.2285362598
 30
0.0
 11
13.6085418022
 21
6.2099362598
 31
0.0
  0
LINE
  5
83
330
1F
100
AcDbEntity
  8
0
  6
Continuous
 62
     7
370
    25
100
AcDbLine
 10
13.6085418022
 20
6.0831362598
 30
0.0
 11
13.6215656624
 21
6.0645362598
 31
0.0
  0
LINE
  5
84
330
1F
100
AcDbEntity
  8
0
  6
Continuous
 62
     7
370
    25
100
AcDbLine
 10
13.6021318022
 20
6.0739818311
 30
0.0
 11
13.6085418022
 21
6.0831362598
 31
0.0
  0
LINE
  5
85
330
1F
100
AcDbEntity
  8
0
  6
Continuous
 62
     7
370
    25
100
AcDbLine
 10
13.6085418022
 20
6.2099362598
 30
0.0
 11
13.6021318022
 21
6.2190906885
 31
0.0
  0
LINE
  5
86
330
1F
100
AcDbEntity
  8
0
  6
Continuous
 62
     7
370
    25
100
AcDbLine
 10
13.8721318022
 20
5.3865362598
 30
0.0
 11
13.8881318022
 21
5.4025362598
 31
0.0
  0
LINE
  5
87
330
1F
100
AcDbEntity
  8
0
  6
Continuous
 62
     7
370
    25
100
AcDbLine
 10
13.8881318022
 20
5.6405362598
 30
0.0
 11
13.8721318022
 21
5.6565362598
 31
0.0
  0
LINE
  5
88
330
1F
100
AcDbEntity
  8
0
  6
Continuous
 62
     7
370
    25
100
AcDbLine
 10
13.8721318022
 20
5.6565362598
 30
0.0
 11
13.7241318022
 21
5.6565362598
 31
0.0
  0
LINE
  5
89
330
1F
100
AcDbEntity
  8
0
  6
Continuous
 62
     7
370
    25
100
AcDbLine
 10
13.7241318022
 20
5.3865362598
 30
0.0
 11
13.8721318022
 21
5.3865362598
 31
0.0
  0
LINE
  5
8A
330
1F
100
AcDbEntity
  8
0
  6
Continuous
 62
     7
370
    25
100
AcDbLine
 10
13.6215656624
 20
5.6035362598
 30
0.0
 11
13.6085418022
 21
5.5849362598
 31
0.0
  0
LINE
  5
8B
330
1F
100
AcDbEntity
  8
0
  6
Continuous
 62
     7
370
    25
100
AcDbLine
 10
13.6085418022
 20
5.4581362598
 30
0.0
 11
13.6215656624
 21
5.4395362598
 31
0.0
  0
LINE
  5
8C
330
1F
100
AcDbEntity
  8
0
  6
Continuous
 62
     7
370
    25
100
AcDbLine
 10
13.623647942
 20
5.4395362598
 30
0.0
 11
13.6366718022
 21
5.4581362598
 31
0.0
  0
LINE
  5
8D
330
1F
100
AcDbEntity
  8
0
  6
Continuous
 62
     7
370
    25
100
AcDbLine
 10
13.6366718022
 20
5.5849362598
 30
0.0
 11
13.623647942
 21
5.6035362598
 31
0.0
  0
LINE
  5
8E
330
1F
100
AcDbEntity
  8
0
  6
Continuous
 62
     7
370
    25
100
AcDbLine
 10
13.623647942
 20
5.6035362598
 30
0.0
 11
13.6215656624
 21
5.6035362598
 31
0.0
  0
LINE
  5
8F
330
1F
100
AcDbEntity
  8
0
  6
Continuous
 62
     7
370
    25
100
AcDbLine
 10
13.6215656624
 20
5.4395362598
 30
0.0
 11
13.623647942
 21
5.4395362598
 31
0.0
  0
LINE
  5
90
330
1F
100
AcDbEntity
  8
0
  6
Continuous
 62
     7
370
    25
100
AcDbLine
 10
13.6021318022
 20
5.4489818311
 30
0.0
 11
13.6085418022
 21
5.4581362598
 31
0.0
  0
LINE
  5
91
330
1F
100
AcDbEntity
  8
0
  6
Continuous
 62
     7
370
    25
100
AcDbLine
 10
13.6085418022
 20
5.5849362598
 30
0.0
 11
13.6021318022
 21
5.5940906885
 31
0.0
  0
LINE
  5
92
330
1F
100
AcDbEntity
  8
0
  6
Continuous
 62
     7
370
    25
100
AcDbLine
 10
13.651777942
 20
5.6035362598
 30
0.0
 11
13.6496956624
 21
5.6035362598
 31
0.0
  0
LINE
  5
93
330
1F
100
AcDbEntity
  8
0
  6
Continuous
 62
     7
370
    25
100
AcDbLine
 10
13.6496956624
 20
5.4395362598
 30
0.0
 11
13.651777942
 21
5.4395362598
 31
0.0
  0
LINE
  5
94
330
1F
100
AcDbEntity
  8
0
  6
Continuous
 62
     7
370
    25
100
AcDbLine
 10
13.651777942
 20
5.4395362598
 30
0.0
 11
13.6521318022
 21
5.4400416245
 31
0.0
  0
LINE
  5
95
330
1F
100
AcDbEntity
  8
0
  6
Continuous
 62
     7
370
    25
100
AcDbLine
 10
13.6521318022
 20
5.603030895
 30
0.0
 11
13.651777942
 21
5.6035362598
 31
0.0
  0
LINE
  5
96
330
1F
100
AcDbEntity
  8
0
  6
Continuous
 62
     7
370
    25
100
AcDbLine
 10
13.6496956624
 20
5.6035362598
 30
0.0
 11
13.6366718022
 21
5.5849362598
 31
0.0
  0
LINE
  5
97
330
1F
100
AcDbEntity
  8
0
  6
Continuous
 62
     7
370
    25
100
AcDbLine
 10
13.6366718022
 20
5.4581362598
 30
0.0
 11
13.6496956624
 21
5.4395362598
 31
0.0
  0
LINE
  5
98
330
1F
100
AcDbEntity
  8
0
  6
Continuous
 62
     7
370
    25
100
AcDbLine
 10
10.4007035336
 20
6.0115362598
 30
0.0
 11
10.5487035336
 21
6.0115362598
 31
0.0
  0
LINE
  5
99
330
1F
100
AcDbEntity
  8
0
  6
Continuous
 62
     7
370
    25
100
AcDbLine
 10
10.5487035336
 20
6.2815362598
 30
0.0
 11
10.4007035336
 21
6.2815362598
 31
0.0
  0
LINE
  5
9A
330
1F
100
AcDbEntity
  8
0
  6
Continuous
 62
     7
370
    25
100
AcDbLine
 10
10.4007035336
 20
6.2815362598
 30
0.0
 11
10.3847035336
 21
6.2655362598
 31
0.0
  0
LINE
  5
9B
330
1F
100
AcDbEntity
  8
0
  6
Continuous
 62
     7
370
    25
100
AcDbLine
 10
10.3847035336
 20
6.0275362598
 30
0.0
 11
10.4007035336
 21
6.0115362598
 31
0.0
  0
LINE
  5
9C
330
1F
100
AcDbEntity
  8
0
  6
Continuous
 62
     7
370
    25
100
AcDbLine
 10
10.4007035336
 20
5.6565362598
 30
0.0
 11
10.3847035336
 21
5.6405362598
 31
0.0
  0
LINE
  5
9D
330
1F
100
AcDbEntity
  8
0
  6
Continuous
 62
     7
370
    25
100
AcDbLine
 10
10.3847035336
 20
5.4025362598
 30
0.0
 11
10.4007035336
 21
5.3865362598
 31
0.0
  0
LINE
  5
9E
330
1F
100
AcDbEntity
  8
0
  6
Continuous
 62
     7
370
    25
100
AcDbLine
 10
10.4007035336
 20
5.3865362598
 30
0.0
 11
10.5487035336
 21
5.3865362598
 31
0.0
  0
LINE
  5
9F
330
1F
100
AcDbEntity
  8
0
  6
Continuous
 62
     7
370
    25
100
AcDbLine
 10
10.5487035336
 20
5.6565362598
 30
0.0
 11
10.4007035336
 21
5.6565362598
 31
0.0
  0
LINE
  5
A0
330
1F
100
AcDbEntity
  8
0
  6
Continuous
 62
     7
370
    25
100
AcDbLine
 10
10.5887035336
 20
6.2930362598
 30
0.0
 11
10.5487035336
 21
6.2930362598
 31
0.0
  0
LINE
  5
A1
330
1F
100
AcDbEntity
  8
0
  6
Continuous
 62
     7
370
    25
100
AcDbLine
 10
13.7241318022
 20
6.2930362598
 30
0.0
 11
13.6841318022
 21
6.2930362598
 31
0.0
  0
LINE
  5
A2
330
1F
100
AcDbEntity
  8
0
  6
Continuous
 62
     7
370
    25
100
AcDbLine
 10
10.5887035336
 20
5.6680362598
 30
0.0
 11
10.5487035336
 21
5.6680362598
 31
0.0
  0
LINE
  5
A3
330
1F
100
AcDbEntity
  8
0
  6
Continuous
 62
     7
370
    25
100
AcDbLine
 10
13.7241318022
 20
5.6680362598
 30
0.0
 11
13.6841318022
 21
5.6680362598
 31
0.0
  0
LINE
  5
A4
330
1F
100
AcDbEntity
  8
0
  6
Continuous
 62
     7
370
    25
100
AcDbLine
 10
13.6521318022
 20
5.9590362598
 30
0.0
 11
13.6841318022
 21
5.9590362598
 31
0.0
  0
LINE
  5
A5
330
1F
100
AcDbEntity
  8
0
  6
Continuous
 62
     7
370
    25
100
AcDbLine
 10
13.6841318022
 20
6.3340362598
 30
0.0
 11
13.6521318022
 21
6.3340362598
 31
0.0
  0
LINE
  5
A6
330
1F
100
AcDbEntity
  8
0
  6
Continuous
 62
     7
370
    25
100
AcDbLine
 10
10.5887035336
 20
5.3340362598
 30
0.0
 11
10.6207035336
 21
5.3340362598
 31
0.0
  0
LINE
  5
A7
330
1F
100
AcDbEntity
  8
0
  6
Continuous
 62
     7
370
    25
100
AcDbLine
 10
10.6207035336
 20
5.7090362598
 30
0.0
 11
10.5887035336
 21
5.7090362598
 31
0.0
  0
LINE
  5
A8
330
1F
100
AcDbEntity
  8
0
  6
Continuous
 62
     7
370
    25
100
AcDbLine
 10
10.5887035336
 20
5.9590362598
 30
0.0
 11
10.6207035336
 21
5.9590362598
 31
0.0
  0
LINE
  5
A9
330
1F
100
AcDbEntity
  8
0
  6
Continuous
 62
     7
370
    25
100
AcDbLine
 10
10.6207035336
 20
6.3340362598
 30
0.0
 11
10.5887035336
 21
6.3340362598
 31
0.0
  0
LINE
  5
AA
330
1F
100
AcDbEntity
  8
0
  6
Continuous
 62
     7
370
    25
100
AcDbLine
 10
13.6521318022
 20
5.3340362598
 30
0.0
 11
13.6841318022
 21
5.3340362598
 31
0.0
  0
LINE
  5
AB
330
1F
100
AcDbEntity
  8
0
  6
Continuous
 62
     7
370
    25
100
AcDbLine
 10
13.6841318022
 20
5.7090362598
 30
0.0
 11
13.6521318022
 21
5.7090362598
 31
0.0
  0
LINE
  5
AC
330
1F
100
AcDbEntity
  8
0
  6
Continuous
 62
     7
370
    25
100
AcDbLine
 10
10.6707035336
 20
4.8340362598
 30
0.0
 11
10.6707035336
 21
6.8340362598
 31
0.0
  0
LINE
  5
AD
330
1F
100
AcDbEntity
  8
0
  6
Continuous
 62
     7
370
    25
100
AcDbLine
 10
10.7114176679
 20
4.8340362598
 30
0.0
 11
10.6707035336
 21
4.8340362598
 31
0.0
  0
LINE
  5
AE
330
1F
100
AcDbEntity
  8
0
  6
Continuous
 62
     7
370
    25
100
AcDbLine
 10
10.7114176679
 20
6.8340362598
 30
0.0
 11
10.6707035336
 21
6.8340362598
 31
0.0
  0
LINE
  5
AF
330
1F
100
AcDbEntity
  8
0
  6
Continuous
 62
     7
370
    25
100
AcDbLine
 10
10.6707035336
 20
4.8340362598
 30
0.0
 11
10.6208334024
 21
4.8340362598
 31
0.0
  0
LINE
  5
B0
330
1F
100
AcDbEntity
  8
0
  6
Continuous
 62
     7
370
    25
100
AcDbLine
 10
10.6208334024
 20
6.8340362598
 30
0.0
 11
10.6707035336
 21
6.8340362598
 31
0.0
  0
LINE
  5
B1
330
1F
100
AcDbEntity
  8
0
  6
Continuous
 62
     7
370
    25
100
AcDbLine
 10
4.7828896031
 20
4.8340362598
 30
0.0
 11
4.7828896031
 21
6.8340362598
 31
0.0
  0
LINE
  5
B2
330
1F
100
AcDbEntity
  8
0
  6
Continuous
 62
     7
370
    25
100
AcDbLine
 10
10.6208334024
 20
4.8340362598
 30
0.0
 11
4.7828896031
 21
4.8340362598
 31
0.0
  0
LINE
  5
B3
330
1F
100
AcDbEntity
  8
0
  6
Continuous
 62
     7
370
    25
100
AcDbLine
 10
10.6208334024
 20
6.8340362598
 30
0.0
 11
4.7828896031
 21
6.8340362598
 31
0.0
  0
LINE
  5
B4
330
1F
100
AcDbEntity
  8
0
  6
Continuous
 62
     7
370
    25
100
AcDbLine
 10
13.6021318022
 20
4.8340362598
 30
0.0
 11
13.6021318022
 21
6.8340362598
 31
0.0
  0
LINE
  5
B5
330
1F
100
AcDbEntity
  8
0
  6
Continuous
 62
     7
370
    25
100
AcDbLine
 10
13.6021318022
 20
4.8340362598
 30
0.0
 11
13.5614176679
 21
4.8340362598
 31
0.0
  0
LINE
  5
B6
330
1F
100
AcDbEntity
  8
0
  6
Continuous
 62
     7
370
    25
100
AcDbLine
 10
13.6021318022
 20
6.8340362598
 30
0.0
 11
13.5614176679
 21
6.8340362598
 31
0.0
  0
LINE
  5
B7
330
1F
100
AcDbEntity
  8
0
  6
Continuous
 62
     7
370
    25
100
AcDbLine
 10
13.6021318022
 20
6.8340362598
 30
0.0
 11
13.6520019333
 21
6.8340362598
 31
0.0
  0
LINE
  5
B8
330
1F
100
AcDbEntity
  8
0
  6
Continuous
 62
     7
370
    25
100
AcDbLine
 10
13.6520019333
 20
4.8340362598
 30
0.0
 11
13.6021318022
 21
4.8340362598
 31
0.0
  0
LINE
  5
B9
330
1F
100
AcDbEntity
  8
0
  6
Continuous
 62
     7
370
    25
100
AcDbLine
 10
19.6364176679
 20
6.8340362598
 30
0.0
 11
13.6520019333
 21
6.8340362598
 31
0.0
  0
LINE
  5
BA
330
1F
100
AcDbEntity
  8
0
  6
Continuous
 62
     7
370
    25
100
AcDbLine
 10
19.6364176679
 20
4.8340362598
 30
0.0
 11
13.6520019333
 21
4.8340362598
 31
0.0
  0
LINE
  5
BB
330
1F
100
AcDbEntity
  8
0
  6
Continuous
 62
     7
370
    25
100
AcDbLine
 10
4.5239176679
 20
4.7590362598
 30
0.0
 11
4.5239176679
 21
6.9090362598
 31
0.0
  0
LINE
  5
BC
330
1F
100
AcDbEntity
  8
0
  6
Continuous
 62
     7
370
    25
100
AcDbLine
 10
4.5239176679
 20
6.9090362598
 30
0.0
 11
4.5739176679
 21
6.9090362598
 31
0.0
  0
LINE
  5
BD
330
1F
100
AcDbEntity
  8
0
  6
Continuous
 62
     7
370
    25
100
AcDbLine
 10
4.5739176679
 20
6.9090362598
 30
0.0
 11
4.5739176679
 21
4.7590362598
 31
0.0
  0
LINE
  5
BE
330
1F
100
AcDbEntity
  8
0
  6
Continuous
 62
     7
370
    25
100
AcDbLine
 10
4.5239176679
 20
4.7590362598
 30
0.0
 11
4.5739176679
 21
4.7590362598
 31
0.0
  0
LINE
  5
BF
330
1F
100
AcDbEntity
  8
0
  6
Continuous
 62
     7
370
    25
100
AcDbLine
 10
5.0989176679
 20
4.6590362598
 30
0.0
 11
5.0989176679
 21
4.7590362598
 31
0.0
  0
LINE
  5
C0
330
1F
100
AcDbEntity
  8
0
  6
Continuous
 62
     7
370
    25
100
AcDbLine
 10
4.5739176679
 20
4.6590362598
 30
0.0
 11
5.0989176679
 21
4.6590362598
 31
0.0
  0
LINE
  5
C1
330
1F
100
AcDbEntity
  8
0
  6
Continuous
 62
     7
370
    25
100
AcDbLine
 10
4.5739176679
 20
4.7590362598
 30
0.0
 11
4.5739176679
 21
4.6590362598
 31
0.0
  0
LINE
  5
C2
330
1F
100
AcDbEntity
  8
0
  6
Continuous
 62
     7
370
    25
100
AcDbLine
 10
4.5739176679
 20
4.7590362598
 30
0.0
 11
5.0989176679
 21
4.7590362598
 31
0.0
  0
LINE
  5
C3
330
1F
100
AcDbEntity
  8
0
  6
Continuous
 62
     7
370
    25
100
AcDbLine
 10
4.5739176679
 20
6.9090362598
 30
0.0
 11
5.0989176679
 21
6.9090362598
 31
0.0
  0
LINE
  5
C4
330
1F
100
AcDbEntity
  8
0
  6
Continuous
 62
     7
370
    25
100
AcDbLine
 10
5.0989176679
 20
6.9090362598
 30
0.0
 11
5.0989176679
 21
7.0090362598
 31
0.0
  0
LINE
  5
C5
330
1F
100
AcDbEntity
  8
0
  6
Continuous
 62
     7
370
    25
100
AcDbLine
 10
4.5739176679
 20
7.0090362598
 30
0.0
 11
4.5739176679
 21
6.9090362598
 31
0.0
  0
LINE
  5
C6
330
1F
100
AcDbEntity
  8
0
  6
Continuous
 62
     7
370
    25
100
AcDbLine
 10
4.5739176679
 20
7.0090362598
 30
0.0
 11
5.0989176679
 21
7.0090362598
 31
0.0
  0
LINE
  5
C7
330
1F
100
AcDbEntity
  8
0
  6
Continuous
 62
     7
370
    25
100
AcDbLine
 10
5.1489176679
 20
4.7590362598
 30
0.0
 11
5.1489176679
 21
4.7090362598
 31
0.0
  0
ARC
  5
C8
330
1F
100
AcDbEntity
  8
0
  6
Continuous
 62
     7
370
    25
100
AcDbCircle
 10
5.0989176679
 20
4.7090362598
 30
0.0
 40
0.0500000000000016
100
AcDbArc
 50
270.0
 51
0.0
  0
LINE
  5
C9
330
1F
100
AcDbEntity
  8
0
  6
Continuous
 62
     7
370
    25
100
AcDbLine
 10
5.0989176679
 20
4.7590362598
 30
0.0
 11
5.1489176679
 21
4.7590362598
 31
0.0
  0
LINE
  5
CA
330
1F
100
AcDbEntity
  8
0
  6
Continuous
 62
     7
370
    25
100
AcDbLine
 10
4.5239176679
 20
6.9090362598
 30
0.0
 11
4.5239176679
 21
6.9590362598
 31
0.0
  0
ARC
  5
CB
330
1F
100
AcDbEntity
  8
0
  6
Continuous
 62
     7
370
    25
100
AcDbCircle
 10
4.5739176679
 20
6.9590362598
 30
0.0
 40
0.0499999999999998
100
AcDbArc
 50
90.0
 51
180.0
  0
LINE
  5
CC
330
1F
100
AcDbEntity
  8
0
  6
Continuous
 62
     7
370
    25
100
AcDbLine
 10
5.0989176679
 20
6.9090362598
 30
0.0
 11
5.1489176679
 21
6.9090362598
 31
0.0
  0
LINE
  5
CD
330
1F
100
AcDbEntity
  8
0
  6
Continuous
 62
     7
370
    25
100
AcDbLine
 10
5.1489176679
 20
6.9090362598
 30
0.0
 11
5.1489176679
 21
6.8340362598
 31
0.0
  0
LINE
  5
CE
330
1F
100
AcDbEntity
  8
0
  6
Continuous
 62
     7
370
    25
100
AcDbLine
 10
5.1489176679
 20
4.8340362598
 30
0.0
 11
5.1489176679
 21
4.7590362598
 31
0.0
  0
ARC
  5
CF
330
1F
100
AcDbEntity
  8
0
  6
Continuous
 62
     7
370
    25
100
AcDbCircle
 10
5.0989176679
 20
6.9590362598
 30
0.0
 40
0.0500000000000016
100
AcDbArc
 50
0.0
 51
90.0
  0
LINE
  5
D0
330
1F
100
AcDbEntity
  8
0
  6
Continuous
 62
     7
370
    25
100
AcDbLine
 10
5.1489176679
 20
6.9590362598
 30
0.0
 11
5.1489176679
 21
6.9090362598
 31
0.0
  0
LINE
  5
D1
330
1F
100
AcDbEntity
  8
0
  6
Continuous
 62
     7
370
    25
100
AcDbLine
 10
4.5239176679
 20
4.7090362598
 30
0.0
 11
4.5239176679
 21
4.7590362598
 31
0.0
  0
ARC
  5
D2
330
1F
100
AcDbEntity
  8
0
  6
Continuous
 62
     7
370
    25
100
AcDbCircle
 10
4.5739176679
 20
4.7090362598
 30
0.0
 40
0.0500000000000007
100
AcDbArc
 50
180.0
 51
270.0
  0
ARC
  5
D3
330
1F
100
AcDbEntity
  8
0
  6
Continuous
 62
     7
370
    25
100
AcDbCircle
 10
11.082956103
 20
6.4005892444
 30
0.0
 40
0.2248105117630536
100
AcDbArc
 50
174.0133466758
 51
181.989088039
  0
LINE
  5
D4
330
1F
100
AcDbEntity
  8
0
  6
Continuous
 62
     7
370
    25
100
AcDbLine
 10
10.8681837817
 20
6.4240362598
 30
0.0
 11
10.8593716588
 21
6.4240362598
 31
0.0
  0
ARC
  5
D5
330
1F
100
AcDbEntity
  8
0
  6
Continuous
 62
     7
370
    25
100
AcDbCircle
 10
10.6445993376
 20
6.4005892444
 30
0.0
 40
0.2248105117657392
100
AcDbArc
 50
358.0109119609
 51
5.9866533241
  0
LINE
  5
D6
330
1F
100
AcDbEntity
  8
0
  6
Continuous
 62
     7
370
    25
100
AcDbLine
 10
10.869274391
 20
5.2752862598
 30
0.0
 11
10.869274391
 21
6.3927862598
 31
0.0
  0
ARC
  5
D7
330
1F
100
AcDbEntity
  8
0
  6
Continuous
 62
     7
370
    25
100
AcDbCircle
 10
10.6445993376
 20
5.2674832752
 30
0.0
 40
0.2248105117420212
100
AcDbArc
 50
354.0133466755
 51
1.9890880395
  0
LINE
  5
D8
330
1F
100
AcDbEntity
  8
0
  6
Continuous
 62
     7
370
    25
100
AcDbLine
 10
10.8593716588
 20
5.2440362598
 30
0.0
 11
10.8681837817
 21
5.2440362598
 31
0.0
  0
ARC
  5
D9
330
1F
100
AcDbEntity
  8
0
  6
Continuous
 62
     7
370
    25
100
AcDbCircle
 10
11.0829561029
 20
5.2674832752
 30
0.0
 40
0.2248105117467928
100
AcDbArc
 50
178.0109119607
 51
185.9866533245
  0
LINE
  5
DA
330
1F
100
AcDbEntity
  8
0
  6
Continuous
 62
     7
370
    25
100
AcDbLine
 10
10.8582810495
 20
6.3927862598
 30
0.0
 11
10.8582810495
 21
5.2752862598
 31
0.0
  0
LINE
  5
DB
330
1F
100
AcDbEntity
  8
0
  6
Continuous
 62
     7
370
    25
100
AcDbLine
 10
10.8593716588
 20
5.2440362598
 30
0.0
 11
10.8493777505
 21
5.2440362598
 31
0.0
  0
ARC
  5
DC
330
1F
100
AcDbEntity
  8
0
  6
Continuous
 62
     7
370
    25
100
AcDbCircle
 10
11.0729621947
 20
5.2674832752
 30
0.0
 40
0.2248105117651467
100
AcDbArc
 50
178.010911961
 51
185.9866533241
  0
LINE
  5
DD
330
1F
100
AcDbEntity
  8
0
  6
Continuous
 62
     7
370
    25
100
AcDbLine
 10
10.8482871413
 20
5.2752862598
 30
0.0
 11
10.8582810495
 21
5.2752862598
 31
0.0
  0
LINE
  5
DE
330
1F
100
AcDbEntity
  8
0
  6
Continuous
 62
     7
370
    25
100
AcDbLine
 10
10.8582810495
 20
6.3927862598
 30
0.0
 11
10.8482871413
 21
6.3927862598
 31
0.0
  0
LINE
  5
DF
330
1F
100
AcDbEntity
  8
0
  6
Continuous
 62
     7
370
    25
100
AcDbLine
 10
10.8482871413
 20
6.3927862598
 30
0.0
 11
10.8482871413
 21
5.2752862598
 31
0.0
  0
ARC
  5
E0
330
1F
100
AcDbEntity
  8
0
  6
Continuous
 62
     7
370
    25
100
AcDbCircle
 10
11.0729621947
 20
6.4005892444
 30
0.0
 40
0.2248105117581135
100
AcDbArc
 50
174.0133466757
 51
181.9890880391
  0
LINE
  5
E1
330
1F
100
AcDbEntity
  8
0
  6
Continuous
 62
     7
370
    25
100
AcDbLine
 10
10.8493777505
 20
6.4240362598
 30
0.0
 11
10.8593716588
 21
6.4240362598
 31
0.0
  0
LINE
  5
E2
330
1F
100
AcDbEntity
  8
0
  6
Continuous
 62
     7
370
    25
100
AcDbLine
 10
13.8721318022
 20
6.2815362598
 30
0.0
 11
13.8721318022
 21
6.0115362598
 31
0.0
  0
LINE
  5
E3
330
1F
100
AcDbEntity
  8
0
  6
Continuous
 62
     7
370
    25
100
AcDbLine
 10
13.8881318022
 20
6.2655362598
 30
0.0
 11
13.8881318022
 21
6.0275362598
 31
0.0
  0
LINE
  5
E4
330
1F
100
AcDbEntity
  8
0
  6
Continuous
 62
     7
370
    25
100
AcDbLine
 10
13.6366718022
 20
6.1465362598
 30
0.0
 11
13.6366718022
 21
6.0831362598
 31
0.0
  0
LINE
  5
E5
330
1F
100
AcDbEntity
  8
0
  6
Continuous
 62
     7
370
    25
100
AcDbLine
 10
13.6366718022
 20
6.2099362598
 30
0.0
 11
13.6366718022
 21
6.1465362598
 31
0.0
  0
LINE
  5
E6
330
1F
100
AcDbEntity
  8
0
  6
Continuous
 62
     7
370
    25
100
AcDbLine
 10
13.6496956624
 20
6.1465362598
 30
0.0
 11
13.6496956624
 21
6.0645362598
 31
0.0
  0
LINE
  5
E7
330
1F
100
AcDbEntity
  8
0
  6
Continuous
 62
     7
370
    25
100
AcDbLine
 10
13.6496956624
 20
6.2285362598
 30
0.0
 11
13.6496956624
 21
6.1465362598
 31
0.0
  0
LINE
  5
E8
330
1F
100
AcDbEntity
  8
0
  6
Continuous
 62
     7
370
    25
100
AcDbLine
 10
13.623647942
 20
6.1465362598
 30
0.0
 11
13.623647942
 21
6.0645362598
 31
0.0
  0
LINE
  5
E9
330
1F
100
AcDbEntity
  8
0
  6
Continuous
 62
     7
370
    25
100
AcDbLine
 10
13.623647942
 20
6.2285362598
 30
0.0
 11
13.623647942
 21
6.1465362598
 31
0.0
  0
LINE
  5
EA
330
1F
100
AcDbEntity
  8
0
  6
Continuous
 62
     7
370
    25
100
AcDbLine
 10
13.651777942
 20
6.1465362598
 30
0.0
 11
13.651777942
 21
6.0645362598
 31
0.0
  0
LINE
  5
EB
330
1F
100
AcDbEntity
  8
0
  6
Continuous
 62
     7
370
    25
100
AcDbLine
 10
13.651777942
 20
6.2285362598
 30
0.0
 11
13.651777942
 21
6.1465362598
 31
0.0
  0
LINE
  5
EC
330
1F
100
AcDbEntity
  8
0
  6
Continuous
 62
     7
370
    25
100
AcDbLine
 10
13.6215656624
 20
6.1465362598
 30
0.0
 11
13.6215656624
 21
6.0645362598
 31
0.0
  0
LINE
  5
ED
330
1F
100
AcDbEntity
  8
0
  6
Continuous
 62
     7
370
    25
100
AcDbLine
 10
13.6215656624
 20
6.2285362598
 30
0.0
 11
13.6215656624
 21
6.1465362598
 31
0.0
  0
LINE
  5
EE
330
1F
100
AcDbEntity
  8
0
  6
Continuous
 62
     7
370
    25
100
AcDbLine
 10
13.6085418022
 20
6.1465362598
 30
0.0
 11
13.6085418022
 21
6.0831362598
 31
0.0
  0
LINE
  5
EF
330
1F
100
AcDbEntity
  8
0
  6
Continuous
 62
     7
370
    25
100
AcDbLine
 10
13.6085418022
 20
6.2099362598
 30
0.0
 11
13.6085418022
 21
6.1465362598
 31
0.0
  0
LINE
  5
F0
330
1F
100
AcDbEntity
  8
0
  6
Continuous
 62
     7
370
    25
100
AcDbLine
 10
13.8881318022
 20
5.6405362598
 30
0.0
 11
13.8881318022
 21
5.4025362598
 31
0.0
  0
LINE
  5
F1
330
1F
100
AcDbEntity
  8
0
  6
Continuous
 62
     7
370
    25
100
AcDbLine
 10
13.8721318022
 20
5.6565362598
 30
0.0
 11
13.8721318022
 21
5.3865362598
 31
0.0
  0
LINE
  5
F2
330
1F
100
AcDbEntity
  8
0
  6
Continuous
 62
     7
370
    25
100
AcDbLine
 10
13.6085418022
 20
5.5215362598
 30
0.0
 11
13.6085418022
 21
5.4581362598
 31
0.0
  0
LINE
  5
F3
330
1F
100
AcDbEntity
  8
0
  6
Continuous
 62
     7
370
    25
100
AcDbLine
 10
13.6085418022
 20
5.5849362598
 30
0.0
 11
13.6085418022
 21
5.5215362598
 31
0.0
  0
LINE
  5
F4
330
1F
100
AcDbEntity
  8
0
  6
Continuous
 62
     7
370
    25
100
AcDbLine
 10
13.6215656624
 20
5.5215362598
 30
0.0
 11
13.6215656624
 21
5.4395362598
 31
0.0
  0
LINE
  5
F5
330
1F
100
AcDbEntity
  8
0
  6
Continuous
 62
     7
370
    25
100
AcDbLine
 10
13.6215656624
 20
5.6035362598
 30
0.0
 11
13.6215656624
 21
5.5215362598
 31
0.0
  0
LINE
  5
F6
330
1F
100
AcDbEntity
  8
0
  6
Continuous
 62
     7
370
    25
100
AcDbLine
 10
13.623647942
 20
5.5215362598
 30
0.0
 11
13.623647942
 21
5.4395362598
 31
0.0
  0
LINE
  5
F7
330
1F
100
AcDbEntity
  8
0
  6
Continuous
 62
     7
370
    25
100
AcDbLine
 10
13.623647942
 20
5.6035362598
 30
0.0
 11
13.623647942
 21
5.5215362598
 31
0.0
  0
LINE
  5
F8
330
1F
100
AcDbEntity
  8
0
  6
Continuous
 62
     7
370
    25
100
AcDbLine
 10
13.6366718022
 20
5.5215362598
 30
0.0
 11
13.6366718022
 21
5.4581362598
 31
0.0
  0
LINE
  5
F9
330
1F
100
AcDbEntity
  8
0
  6
Continuous
 62
     7
370
    25
100
AcDbLine
 10
13.6366718022
 20
5.5849362598
 30
0.0
 11
13.6366718022
 21
5.5215362598
 31
0.0
  0
LINE
  5
FA
330
1F
100
AcDbEntity
  8
0
  6
Continuous
 62
     7
370
    25
100
AcDbLine
 10
13.651777942
 20
5.5215362598
 30
0.0
 11
13.651777942
 21
5.4395362598
 31
0.0
  0
LINE
  5
FB
330
1F
100
AcDbEntity
  8
0
  6
Continuous
 62
     7
370
    25
100
AcDbLine
 10
13.651777942
 20
5.6035362598
 30
0.0
 11
13.651777942
 21
5.5215362598
 31
0.0
  0
LINE
  5
FC
330
1F
100
AcDbEntity
  8
0
  6
Continuous
 62
     7
370
    25
100
AcDbLine
 10
13.6496956624
 20
5.5215362598
 30
0.0
 11
13.6496956624
 21
5.4395362598
 31
0.0
  0
LINE
  5
FD
330
1F
100
AcDbEntity
  8
0
  6
Continuous
 62
     7
370
    25
100
AcDbLine
 10
13.6496956624
 20
5.6035362598
 30
0.0
 11
13.6496956624
 21
5.5215362598
 31
0.0
  0
LINE
  5
FE
330
1F
100
AcDbEntity
  8
0
  6
Continuous
 62
     7
370
    25
100
AcDbLine
 10
10.4007035336
 20
6.0115362598
 30
0.0
 11
10.4007035336
 21
6.2815362598
 31
0.0
  0
LINE
  5
FF
330
1F
100
AcDbEntity
  8
0
  6
Continuous
 62
     7
370
    25
100
AcDbLine
 10
10.3847035336
 20
6.0275362598
 30
0.0
 11
10.3847035336
 21
6.2655362598
 31
0.0
  0
LINE
  5
100
330
1F
100
AcDbEntity
  8
0
  6
Continuous
 62
     7
370
    25
100
AcDbLine
 10
10.3847035336
 20
5.4025362598
 30
0.0
 11
10.3847035336
 21
5.6405362598
 31
0.0
  0
LINE
  5
101
330
1F
100
AcDbEntity
  8
0
  6
Continuous
 62
     7
370
    25
100
AcDbLine
 10
10.4007035336
 20
5.3865362598
 30
0.0
 11
10.4007035336
 21
5.6565362598
 31
0.0
  0
LINE
  5
102
330
1F
100
AcDbEntity
  8
0
  6
Continuous
 62
     7
370
    25
100
AcDbLine
 10
10.5487035336
 20
6.0004878704
 30
0.0
 11
10.5887035336
 21
6.0004878704
 31
0.0
  0
LINE
  5
103
330
1F
100
AcDbEntity
  8
0
  6
Continuous
 62
     7
370
    25
100
AcDbLine
 10
10.5487035336
 20
6.0004878704
 30
0.0
 11
10.5487035336
 21
6.2930362598
 31
0.0
  0
LINE
  5
104
330
1F
100
AcDbEntity
  8
0
  6
Continuous
 62
     7
370
    25
100
AcDbLine
 10
13.7241318022
 20
6.0004878704
 30
0.0
 11
13.6841318022
 21
6.0004878704
 31
0.0
  0
LINE
  5
105
330
1F
100
AcDbEntity
  8
0
  6
Continuous
 62
     7
370
    25
100
AcDbLine
 10
13.7241318022
 20
6.2930362598
 30
0.0
 11
13.7241318022
 21
6.0004878704
 31
0.0
  0
LINE
  5
106
330
1F
100
AcDbEntity
  8
0
  6
Continuous
 62
     7
370
    25
100
AcDbLine
 10
10.5487035336
 20
5.3754878704
 30
0.0
 11
10.5887035336
 21
5.3754878704
 31
0.0
  0
LINE
  5
107
330
1F
100
AcDbEntity
  8
0
  6
Continuous
 62
     7
370
    25
100
AcDbLine
 10
10.5487035336
 20
5.3754878704
 30
0.0
 11
10.5487035336
 21
5.6680362598
 31
0.0
  0
LINE
  5
108
330
1F
100
AcDbEntity
  8
0
  6
Continuous
 62
     7
370
    25
100
AcDbLine
 10
13.7241318022
 20
5.3754878704
 30
0.0
 11
13.6841318022
 21
5.3754878704
 31
0.0
  0
LINE
  5
109
330
1F
100
AcDbEntity
  8
0
  6
Continuous
 62
     7
370
    25
100
AcDbLine
 10
13.7241318022
 20
5.6680362598
 30
0.0
 11
13.7241318022
 21
5.3754878704
 31
0.0
  0
LINE
  5
10A
330
1F
100
AcDbEntity
  8
0
  6
Continuous
 62
     7
370
    25
100
AcDbLine
 10
13.6521318022
 20
5.9590362598
 30
0.0
 11
13.6521318022
 21
6.3340362598
 31
0.0
  0
LINE
  5
10B
330
1F
100
AcDbEntity
  8
0
  6
Continuous
 62
     7
370
    25
100
AcDbLine
 10
13.6841318022
 20
5.9590362598
 30
0.0
 11
13.6841318022
 21
6.3340362598
 31
0.0
  0
LINE
  5
10C
330
1F
100
AcDbEntity
  8
0
  6
Continuous
 62
     7
370
    25
100
AcDbLine
 10
10.5887035336
 20
5.3340362598
 30
0.0
 11
10.5887035336
 21
5.7090362598
 31
0.0
  0
LINE
  5
10D
330
1F
100
AcDbEntity
  8
0
  6
Continuous
 62
     7
370
    25
100
AcDbLine
 10
10.6207035336
 20
5.3340362598
 30
0.0
 11
10.6207035336
 21
5.7090362598
 31
0.0
  0
LINE
  5
10E
330
1F
100
AcDbEntity
  8
0
  6
Continuous
 62
     7
370
    25
100
AcDbLine
 10
10.6207035336
 20
5.9590362598
 30
0.0
 11
10.6207035336
 21
6.3340362598
 31
0.0
  0
LINE
  5
10F
330
1F
100
AcDbEntity
  8
0
  6
Continuous
 62
     7
370
    25
100
AcDbLine
 10
10.5887035336
 20
5.9590362598
 30
0.0
 11
10.5887035336
 21
6.3340362598
 31
0.0
  0
LINE
  5
110
330
1F
100
AcDbEntity
  8
0
  6
Continuous
 62
     7
370
    25
100
AcDbLine
 10
13.6841318022
 20
5.3340362598
 30
0.0
 11
13.6841318022
 21
5.7090362598
 31
0.0
  0
LINE
  5
111
330
1F
100
AcDbEntity
  8
0
  6
Continuous
 62
     7
370
    25
100
AcDbLine
 10
13.6521318022
 20
5.3340362598
 30
0.0
 11
13.6521318022
 21
5.7090362598
 31
0.0
  0
LINE
  5
112
330
1F
100
AcDbEntity
  8
0
  6
Continuous
 62
     7
370
    25
100
AcDbLine
 10
13.4263353794
 20
4.4690362598
 30
0.0
 11
13.4263353794
 21
7.1990362598
 31
0.0
  0
LINE
  5
113
330
1F
100
AcDbEntity
  8
0
  6
Continuous
 62
     7
370
    25
100
AcDbLine
 10
13.3393826634
 20
4.4690362598
 30
0.0
 11
13.3393826634
 21
7.1990362598
 31
0.0
  0
ELLIPSE
  5
114
330
1F
100
AcDbEntity
  8
0
  6
Continuous
 62
     7
370
    25
100
AcDbEllipse
 10
13.369589129
 20
6.1465362598
 30
0.0
 11
0.0
 21
0.0680000000000005
 31
0.0
210
0.0
220
0.0
230
1.0
 40
0.0349207695
 41
0.0
 42
6.283185307179586
  0
ELLIPSE
  5
115
330
1F
100
AcDbEntity
  8
0
  6
Continuous
 62
     7
370
    25
100
AcDbEllipse
 10
13.369589129
 20
5.5215362598
 30
0.0
 11
0.0
 21
0.06799999999999962
 31
0.0
210
0.0
220
0.0
230
1.0
 40
0.0349207695
 41
0.0
 42
6.283185307179586
  0
LINE
  5
116
330
1F
100
AcDbEntity
  8
0
  6
Continuous
 62
     7
370
    25
100
AcDbLine
 10
10.8464999564
 20
7.1990362598
 30
0.0
 11
10.8464999564
 21
4.4690362598
 31
0.0
  0
LINE
  5
117
330
1F
100
AcDbEntity
  8
0
  6
Continuous
 62
     7
370
    25
100
AcDbLine
 10
10.9334526724
 20
7.1990362598
 30
0.0
 11
10.9334526724
 21
4.4690362598
 31
0.0
  0
ELLIPSE
  5
118
330
1F
100
AcDbEntity
  8
0
  6
Continuous
 62
     7
370
    25
100
AcDbEllipse
 10
10.9032462068
 20
5.5215362598
 30
0.0
 11
0.0
 21
0.0680000000000005
 31
0.0
210
0.0
220
0.0
230
1.0
 40
0.0349207695
 41
0.0
 42
6.283185307179586
  0
ELLIPSE
  5
119
330
1F
100
AcDbEntity
  8
0
  6
Continuous
 62
     7
370
    25
100
AcDbEllipse
 10
10.9032462068
 20
6.1465362598
 30
0.0
 11
0.0
 21
0.0680000000000005
 31
0.0
210
0.0
220
0.0
230
1.0
 40
0.0349207695
 41
0.0
 42
6.283185307179586
  0
ELLIPSE
  5
11A
330
1F
100
AcDbEntity
  8
0
  6
Continuous
 62
     7
370
    25
100
AcDbEllipse
 10
10.7739557644
 20
8.0864981633
 30
0.0
 11
-0.04424803403744804
 21
0.04424803403744804
 31
0.0
210
0.0
220
0.0
230
1.0
 40
0.998782766
 41
5.498396131367747
 42
7.067974482991439
  0
ELLIPSE
  5
11B
330
1F
100
AcDbEntity
  8
0
  6
Continuous
 62
     7
370
    25
100
AcDbEllipse
 10
13.4988795714
 20
8.0864981633
 30
0.0
 11
0.04424803403744804
 21
0.04424803403744804
 31
0.0
210
0.0
220
0.0
230
1.0
 40
0.998782766
 41
5.498396131367775
 42
7.067974482991411
  0
ELLIPSE
  5
11C
330
1F
100
AcDbEntity
  8
0
  6
Continuous
 62
     7
370
    25
100
AcDbEllipse
 10
13.4988795714
 20
3.5815743563
 30
0.0
 11
0.04424803403744981
 21
-0.04424803403744936
 31
0.0
210
0.0
220
0.0
230
1.0
 40
0.998782766
 41
5.498396131367739
 42
7.067974482991402
  0
ELLIPSE
  5
11D
330
1F
100
AcDbEntity
  8
0
  6
Continuous
 62
     7
370
    25
100
AcDbEllipse
 10
10.7739557644
 20
3.5815743563
 30
0.0
 11
-0.04424803403744981
 21
-0.04424803403744892
 31
0.0
210
0.0
220
0.0
230
1.0
 40
0.998782766
 41
5.498396131367746
 42
7.067974482991439
  0
LINE
  5
11E
330
1F
100
AcDbEntity
  8
0
  6
Continuous
 62
     7
370
    25
100
AcDbLine
 10
13.4263353794
 20
4.4690362598
 30
0.0
 11
10.8464999564
 21
4.4690362598
 31
0.0
  0
CIRCLE
  5
11F
330
1F
100
AcDbEntity
  8
0
  6
Continuous
 62
     7
370
    25
100
AcDbCircle
 10
12.1364176679
 20
4.1777862598
 30
0.0
 40
0.0624999999999982
  0
CIRCLE
  5
120
330
1F
100
AcDbEntity
  8
0
  6
Continuous
 62
     7
370
    25
100
AcDbCircle
 10
13.0739176679
 20
7.4902862598
 30
0.0
 40
0.0699999999999985
  0
CIRCLE
  5
121
330
1F
100
AcDbEntity
  8
0
  6
Continuous
 62
     7
370
    25
100
AcDbCircle
 10
11.1364176679
 20
7.7402862598
 30
0.0
 40
0.0700000000000003
  0
CIRCLE
  5
122
330
1F
100
AcDbEntity
  8
0
  6
Continuous
 62
     7
370
    25
100
AcDbCircle
 10
13.1364176679
 20
7.7402862598
 30
0.0
 40
0.0700000000000021
  0
CIRCLE
  5
123
330
1F
100
AcDbEntity
  8
0
  6
Continuous
 62
     7
370
    25
100
AcDbCircle
 10
13.0739176679
 20
4.1777862598
 30
0.0
 40
0.0700000000000003
  0
CIRCLE
  5
124
330
1F
100
AcDbEntity
  8
0
  6
Continuous
 62
     7
370
    25
100
AcDbCircle
 10
11.1989176679
 20
4.1777862598
 30
0.0
 40
0.0700000000000003
  0
CIRCLE
  5
125
330
1F
100
AcDbEntity
  8
0
  6
Continuous
 62
     7
370
    25
100
AcDbCircle
 10
13.1364176679
 20
3.9277862598
 30
0.0
 40
0.0699999999999985
  0
CIRCLE
  5
126
330
1F
100
AcDbEntity
  8
0
  6
Continuous
 62
     7
370
    25
100
AcDbCircle
 10
11.1364176679
 20
3.9277862598
 30
0.0
 40
0.0700000000000003
  0
CIRCLE
  5
127
330
1F
100
AcDbEntity
  8
0
  6
Continuous
 62
     7
370
    25
100
AcDbCircle
 10
11.1989176679
 20
7.4902862598
 30
0.0
 40
0.0699999999999985
  0
LINE
  5
128
330
1F
100
AcDbEntity
  8
0
  6
Continuous
 62
     7
370
    25
100
AcDbLine
 10
10.7738795946
 20
3.5190362598
 30
0.0
 11
13.4989557412
 21
3.5190362598
 31
0.0
  0
LINE
  5
129
330
1F
100
AcDbEntity
  8
0
  6
Continuous
 62
     7
370
    25
100
AcDbLine
 10
13.5614176679
 20
3.5814981865
 30
0.0
 11
13.5614176679
 21
8.0865743331
 31
0.0
  0
LINE
  5
12A
330
1F
100
AcDbEntity
  8
0
  6
Continuous
 62
     7
370
    25
100
AcDbLine
 10
13.4989557412
 20
8.1490362598
 30
0.0
 11
10.7738795946
 21
8.1490362598
 31
0.0
  0
LINE
  5
12B
330
1F
100
AcDbEntity
  8
0
  6
Continuous
 62
     7
370
    25
100
AcDbLine
 10
10.7114176679
 20
8.0865743331
 30
0.0
 11
10.7114176679
 21
3.5814981865
 31
0.0
  0
LINE
  5
12C
330
1F
100
AcDbEntity
  8
0
  6
Continuous
 62
     7
370
    25
100
AcDbLine
 10
10.8464999564
 20
7.1990362598
 30
0.0
 11
13.4263353794
 21
7.1990362598
 31
0.0
  0
CIRCLE
  5
12D
330
1F
100
AcDbEntity
  8
0
  6
Continuous
 62
     7
370
    25
100
AcDbCircle
 10
12.1364176679
 20
7.4902862598
 30
0.0
 40
0.0624999999999982
  0
LINE
  5
12E
330
1F
100
AcDbEntity
  8
0
  6
Continuous
 62
     7
370
    25
100
AcDbLine
 10
13.1417334293
 20
7.4729362598
 30
0.0
 11
13.0061019064
 21
7.4729362598
 31
0.0
  0
LINE
  5
12F
330
1F
100
AcDbEntity
  8
0
  6
Continuous
 62
     7
370
    25
100
AcDbLine
 10
11.2667334293
 20
7.4729362598
 30
0.0
 11
11.1311019064
 21
7.4729362598
 31
0.0
  0
CIRCLE
  5
130
330
1F
100
AcDbEntity
  8
0
  6
Continuous
 62
     7
370
    25
100
AcDbCircle
 10
11.2585526724
 20
5.0539362598
 30
0.0
 40
0.1109316922033017
  0
CIRCLE
  5
131
330
1F
100
AcDbEntity
  8
0
  6
Continuous
 62
     7
370
    25
100
AcDbCircle
 10
11.2584526724
 20
5.0539362598
 30
0.0
 40
0.0754999999999999
  0
CIRCLE
  5
132
330
1F
100
AcDbEntity
  8
0
  6
Continuous
 62
     7
370
    25
100
AcDbCircle
 10
11.2585526724
 20
5.0539362598
 30
0.0
 40
0.1249000000000002
  0
LINE
  5
133
330
1F
100
AcDbEntity
  8
0
  6
Continuous
 62
     7
370
    25
100
AcDbLine
 10
11.0964999564
 20
3.8702834224
 30
0.0
 11
11.0964999564
 21
3.9852890972
 31
0.0
  0
LINE
  5
134
330
1F
100
AcDbEntity
  8
0
  6
Continuous
 62
     7
370
    25
100
AcDbLine
 10
13.1763353794
 20
3.9852890972
 30
0.0
 11
13.1763353794
 21
3.8702834224
 31
0.0
  0
CIRCLE
  5
135
330
1F
100
AcDbEntity
  8
0
  6
Continuous
 62
     7
370
    25
100
AcDbCircle
 10
12.1364176679
 20
5.8340362598
 30
0.0
 40
0.3802381154237633
  0
CIRCLE
  5
136
330
1F
100
AcDbEntity
  8
0
  6
Continuous
 62
     7
370
    25
100
AcDbCircle
 10
12.1364176679
 20
5.8340362598
 30
0.0
 40
0.3780000000000019
  0
CIRCLE
  5
137
330
1F
100
AcDbEntity
  8
0
  6
Continuous
 62
     7
370
    25
100
AcDbCircle
 10
12.1364176679
 20
5.8340362598
 30
0.0
 40
0.4594063361507974
  0
CIRCLE
  5
138
330
1F
100
AcDbEntity
  8
0
  6
Continuous
 62
     7
370
    25
100
AcDbCircle
 10
12.1364176679
 20
5.8340362598
 30
0.0
 40
0.5218682628394902
  0
CIRCLE
  5
139
330
1F
100
AcDbEntity
  8
0
  6
Continuous
 62
     7
370
    25
100
AcDbCircle
 10
12.1364176679
 20
5.8340362598
 30
0.0
 40
0.5250000000000004
  0
LINE
  5
13A
330
1F
100
AcDbEntity
  8
0
  6
Continuous
 62
     7
370
    25
100
AcDbLine
 10
10.8806452966
 20
6.2090362598
 30
0.0
 11
10.869274391
 21
6.2090362598
 31
0.0
  0
ARC
  5
13B
330
1F
100
AcDbEntity
  8
0
  6
Continuous
 62
     7
370
    25
100
AcDbCircle
 10
10.4334764083
 20
6.1621422289
 30
0.0
 40
0.4496210235187659
100
AcDbArc
 50
358.0109119609
 51
5.9866533243
  0
LINE
  5
13C
330
1F
100
AcDbEntity
  8
0
  6
Continuous
 62
     7
370
    25
100
AcDbLine
 10
10.8828265151
 20
5.5215362598
 30
0.0
 11
10.8828265151
 21
6.1465362598
 31
0.0
  0
ARC
  5
13D
330
1F
100
AcDbEntity
  8
0
  6
Continuous
 62
     7
370
    25
100
AcDbCircle
 10
10.4334764083
 20
5.5059302906
 30
0.0
 40
0.4496210235232337
100
AcDbArc
 50
354.0133466758
 51
1.9890880391
  0
LINE
  5
13E
330
1F
100
AcDbEntity
  8
0
  6
Continuous
 62
     7
370
    25
100
AcDbLine
 10
10.869274391
 20
5.4590362598
 30
0.0
 11
10.8806452966
 21
5.4590362598
 31
0.0
  0
LINE
  5
13F
330
1F
100
AcDbEntity
  8
0
  6
Continuous
 62
     7
370
    25
100
AcDbLine
 10
10.6208334024
 20
4.8340362598
 30
0.0
 11
10.6208334024
 21
5.3554348681
 31
0.0
  0
LINE
  5
140
330
1F
100
AcDbEntity
  8
0
  6
Continuous
 62
     7
370
    25
100
AcDbLine
 10
10.6208334024
 20
5.6876376515
 30
0.0
 11
10.6208334024
 21
5.9804348681
 31
0.0
  0
LINE
  5
141
330
1F
100
AcDbEntity
  8
0
  6
Continuous
 62
     7
370
    25
100
AcDbLine
 10
10.6208334024
 20
6.3126376515
 30
0.0
 11
10.6208334024
 21
6.8340362598
 31
0.0
  0
LINE
  5
142
330
1F
100
AcDbEntity
  8
0
  6
Continuous
 62
     7
370
    25
100
AcDbLine
 10
13.6520019333
 20
6.8340362598
 30
0.0
 11
13.6520019333
 21
6.228216367
 31
0.0
  0
LINE
  5
143
330
1F
100
AcDbEntity
  8
0
  6
Continuous
 62
     7
370
    25
100
AcDbLine
 10
13.6520019333
 20
6.0648561526
 30
0.0
 11
13.6520019333
 21
5.603216367
 31
0.0
  0
LINE
  5
144
330
1F
100
AcDbEntity
  8
0
  6
Continuous
 62
     7
370
    25
100
AcDbLine
 10
13.6520019333
 20
5.4398561526
 30
0.0
 11
13.6520019333
 21
4.8340362598
 31
0.0
  0
LINE
  5
145
330
1F
100
AcDbEntity
  8
0
  6
Continuous
 62
     7
370
    25
100
AcDbLine
 10
5.0989176679
 20
4.7590362598
 30
0.0
 11
5.0989176679
 21
4.8340362598
 31
0.0
  0
LINE
  5
146
330
1F
100
AcDbEntity
  8
0
  6
Continuous
 62
     7
370
    25
100
AcDbLine
 10
5.0989176679
 20
6.8340362598
 30
0.0
 11
5.0989176679
 21
6.9090362598
 31
0.0
  0
LINE
  5
147
330
1F
100
AcDbEntity
  8
0
  6
Continuous
 62
     7
370
    25
100
AcDbLine
 10
11.1436575211
 20
7.5332550412
 30
0.0
 11
11.2541778146
 21
7.5332550412
 31
0.0
  0
LINE
  5
148
330
1F
100
AcDbEntity
  8
0
  6
Continuous
 62
     7
370
    25
100
AcDbLine
 10
13.0186575211
 20
7.5332550412
 30
0.0
 11
13.1291778146
 21
7.5332550412
 31
0.0
  0
DIMENSION
  5
149
330
1F
100
AcDbEntity
  8
DIM
100
AcDbDimension
  2
_D
 10
17.3497232929
 20
3.5190362598
 30
0.0
 11
17.3497232929
 21
10.6687212992
 31
0.0
 70
   160
  1
<>
 71
     2
 42
-1.0
  3
SLDDIMSTYLE0
100
AcDbAlignedDimension
 13
13.4989557412
 23
8.1490362598
 33
0.0
 14
13.4989557412
 24
3.5190362598
 34
0.0
 50
90.0
100
AcDbRotatedDimension
  0
DIMENSION
  5
15F
330
1F
100
AcDbEntity
  8
DIM
100
AcDbDimension
  2
_D_1
 10
13.5614176679
 20
10.6687212992
 30
0.0
 11
12.1364176679
 21
10.6687212992
 31
0.0
 70
   160
  1
<>
 71
     2
 42
-1.0
  3
SLDDIMSTYLE0
100
AcDbAlignedDimension
 13
10.7114176679
 23
8.0865743331
 33
0.0
 14
13.5614176679
 24
8.0865743331
 34
0.0
 50
0.0
100
AcDbRotatedDimension
  0
SPLINE
  5
173
330
1F
100
AcDbEntity
  8
0
  6
Continuous
 62
     7
370
    25
100
AcDbSpline
210
0.0
220
0.0
230
1.0
 70
     8
 71
     3
 72
    12
 73
     8
 74
     0
 42
0.00000001
 43
0.00000001
 40
0.0
 40
0.0
 40
0.0
 40
0.0
 40
0.2035564468512399
 40
0.4819469867684641
 40
0.6770939324120501
 40
0.8359156493453
 40
1.0
 40
1.0
 40
1.0
 40
1.0
 10
5.131315814303133
 20
24.48652622247137
 30
0.0
 10
5.129625422604312
 20
24.48847036774502
 30
0.0
 10
5.125623195220669
 20
24.49307339049852
 30
0.0
 10
5.119754778489026
 20
24.49895685184642
 30
0.0
 10
5.115655914371097
 20
24.50395204471371
 30
0.0
 10
5.113952236531567
 20
24.50728076565601
 30
0.0
 10
5.113932491415409
 20
24.50768115447663
 30
0.0
 10
5.113922457957111
 20
24.50788461160003
 30
0.0
  0
LWPOLYLINE
  5
174
330
1F
100
AcDbEntity
  8
0
  6
Continuous
 62
     7
370
    25
100
AcDbPolyline
 90
        3
 70
   128
 43
0.0
 10
10.6707035336
 20
15.7899850952
 10
10.6609490175
 20
15.7890243592
 10
10.6581308082
 20
15.7883785511
  0
ARC
  5
175
330
1F
100
AcDbEntity
  8
0
  6
Continuous
 62
     7
370
    25
100
AcDbCircle
 10
10.6707035336
 20
15.4149850952
 30
0.0
 40
0.0500000000000025
100
AcDbArc
 50
180.0
 51
270.0
  0
LINE
  5
176
330
1F
100
AcDbEntity
  8
0
  6
Continuous
 62
     7
370
    25
100
AcDbLine
 10
10.7107035336
 20
15.8074850952
 30
0.0
 11
10.7057035336
 21
15.8074850952
 31
0.0
  0
ARC
  5
177
330
1F
100
AcDbEntity
  8
0
  6
Continuous
 62
     7
370
    25
100
AcDbCircle
 10
10.7107035336
 20
15.7974850952
 30
0.0
 40
0.0100000000000016
100
AcDbArc
 50
0.0
 51
90.0
  0
LINE
  5
178
330
1F
100
AcDbEntity
  8
0
  6
Continuous
 62
     7
370
    25
100
AcDbLine
 10
13.8721318022
 20
15.7124850952
 30
0.0
 11
13.7241318022
 21
15.7124850952
 31
0.0
  0
LINE
  5
179
330
1F
100
AcDbEntity
  8
0
  6
Continuous
 62
     7
370
    25
100
AcDbLine
 10
13.7241318022
 20
15.4424850952
 30
0.0
 11
13.8721318022
 21
15.4424850952
 31
0.0
  0
LINE
  5
17A
330
1F
100
AcDbEntity
  8
0
  6
Continuous
 62
     7
370
    25
100
AcDbLine
 10
13.8721318022
 20
15.4424850952
 30
0.0
 11
13.8881318022
 21
15.4584850952
 31
0.0
  0
LINE
  5
17B
330
1F
100
AcDbEntity
  8
0
  6
Continuous
 62
     7
370
    25
100
AcDbLine
 10
13.8881318022
 20
15.6964850952
 30
0.0
 11
13.8721318022
 21
15.7124850952
 31
0.0
  0
LINE
  5
17C
330
1F
100
AcDbEntity
  8
0
  6
Continuous
 62
     7
370
    25
100
AcDbLine
 10
13.511127942
 20
15.6594850952
 30
0.0
 11
13.5090456624
 21
15.6594850952
 31
0.0
  0
LINE
  5
17D
330
1F
100
AcDbEntity
  8
0
  6
Continuous
 62
     7
370
    25
100
AcDbLine
 10
13.5090456624
 20
15.4954850952
 30
0.0
 11
13.511127942
 21
15.4954850952
 31
0.0
  0
LINE
  5
17E
330
1F
100
AcDbEntity
  8
0
  6
Continuous
 62
     7
370
    25
100
AcDbLine
 10
13.511127942
 20
15.4954850952
 30
0.0
 11
13.5221318022
 21
15.5112002362
 31
0.0
  0
LINE
  5
17F
330
1F
100
AcDbEntity
  8
0
  6
Continuous
 62
     7
370
    25
100
AcDbLine
 10
13.5221318022
 20
15.6437699541
 30
0.0
 11
13.511127942
 21
15.6594850952
 31
0.0
  0
LINE
  5
180
330
1F
100
AcDbEntity
  8
0
  6
Continuous
 62
     7
370
    25
100
AcDbLine
 10
13.6021318022
 20
15.5049306664
 30
0.0
 11
13.6085418022
 21
15.5140850952
 31
0.0
  0
LINE
  5
181
330
1F
100
AcDbEntity
  8
0
  6
Continuous
 62
     7
370
    25
100
AcDbLine
 10
13.6085418022
 20
15.6408850952
 30
0.0
 11
13.6021318022
 21
15.6500395239
 31
0.0
  0
LINE
  5
182
330
1F
100
AcDbEntity
  8
0
  6
Continuous
 62
     7
370
    25
100
AcDbLine
 10
13.6496956624
 20
15.6594850952
 30
0.0
 11
13.6366718022
 21
15.6408850952
 31
0.0
  0
LINE
  5
183
330
1F
100
AcDbEntity
  8
0
  6
Continuous
 62
     7
370
    25
100
AcDbLine
 10
13.6366718022
 20
15.5140850952
 30
0.0
 11
13.6496956624
 21
15.4954850952
 31
0.0
  0
LINE
  5
184
330
1F
100
AcDbEntity
  8
0
  6
Continuous
 62
     7
370
    25
100
AcDbLine
 10
13.651777942
 20
15.6594850952
 30
0.0
 11
13.6496956624
 21
15.6594850952
 31
0.0
  0
LINE
  5
185
330
1F
100
AcDbEntity
  8
0
  6
Continuous
 62
     7
370
    25
100
AcDbLine
 10
13.6496956624
 20
15.4954850952
 30
0.0
 11
13.651777942
 21
15.4954850952
 31
0.0
  0
LINE
  5
186
330
1F
100
AcDbEntity
  8
0
  6
Continuous
 62
     7
370
    25
100
AcDbLine
 10
13.651777942
 20
15.4954850952
 30
0.0
 11
13.6521318022
 21
15.4959904599
 31
0.0
  0
LINE
  5
187
330
1F
100
AcDbEntity
  8
0
  6
Continuous
 62
     7
370
    25
100
AcDbLine
 10
13.6521318022
 20
15.6589797304
 30
0.0
 11
13.651777942
 21
15.6594850952
 31
0.0
  0
LINE
  5
188
330
1F
100
AcDbEntity
  8
0
  6
Continuous
 62
     7
370
    25
100
AcDbLine
 10
13.623647942
 20
15.6594850952
 30
0.0
 11
13.6215656624
 21
15.6594850952
 31
0.0
  0
LINE
  5
189
330
1F
100
AcDbEntity
  8
0
  6
Continuous
 62
     7
370
    25
100
AcDbLine
 10
13.6215656624
 20
15.4954850952
 30
0.0
 11
13.623647942
 21
15.4954850952
 31
0.0
  0
LINE
  5
18A
330
1F
100
AcDbEntity
  8
0
  6
Continuous
 62
     7
370
    25
100
AcDbLine
 10
13.6215656624
 20
15.6594850952
 30
0.0
 11
13.6085418022
 21
15.6408850952
 31
0.0
  0
LINE
  5
18B
330
1F
100
AcDbEntity
  8
0
  6
Continuous
 62
     7
370
    25
100
AcDbLine
 10
13.6085418022
 20
15.5140850952
 30
0.0
 11
13.6215656624
 21
15.4954850952
 31
0.0
  0
LINE
  5
18C
330
1F
100
AcDbEntity
  8
0
  6
Continuous
 62
     7
370
    25
100
AcDbLine
 10
13.623647942
 20
15.4954850952
 30
0.0
 11
13.6366718022
 21
15.5140850952
 31
0.0
  0
LINE
  5
18D
330
1F
100
AcDbEntity
  8
0
  6
Continuous
 62
     7
370
    25
100
AcDbLine
 10
13.6366718022
 20
15.6408850952
 30
0.0
 11
13.623647942
 21
15.6594850952
 31
0.0
  0
LINE
  5
18E
330
1F
100
AcDbEntity
  8
0
  6
Continuous
 62
     7
370
    25
100
AcDbLine
 10
13.5090456624
 20
15.6594850952
 30
0.0
 11
13.5021517288
 21
15.6496395376
 31
0.0
  0
LINE
  5
18F
330
1F
100
AcDbEntity
  8
0
  6
Continuous
 62
     7
370
    25
100
AcDbLine
 10
13.507455622
 20
15.4977559082
 30
0.0
 11
13.5090456624
 21
15.4954850952
 31
0.0
  0
LINE
  5
190
330
1F
100
AcDbEntity
  8
0
  6
Continuous
 62
     7
370
    25
100
AcDbLine
 10
10.4007035336
 20
15.7124850952
 30
0.0
 11
10.3847035336
 21
15.6964850952
 31
0.0
  0
LINE
  5
191
330
1F
100
AcDbEntity
  8
0
  6
Continuous
 62
     7
370
    25
100
AcDbLine
 10
10.3847035336
 20
15.4584850952
 30
0.0
 11
10.4007035336
 21
15.4424850952
 31
0.0
  0
LINE
  5
192
330
1F
100
AcDbEntity
  8
0
  6
Continuous
 62
     7
370
    25
100
AcDbLine
 10
10.4007035336
 20
15.4424850952
 30
0.0
 11
10.5487035336
 21
15.4424850952
 31
0.0
  0
LINE
  5
193
330
1F
100
AcDbEntity
  8
0
  6
Continuous
 62
     7
370
    25
100
AcDbLine
 10
10.5487035336
 20
15.7124850952
 30
0.0
 11
10.4007035336
 21
15.7124850952
 31
0.0
  0
LINE
  5
194
330
1F
100
AcDbEntity
  8
0
  6
Continuous
 62
     7
370
    25
100
AcDbLine
 10
10.7617073938
 20
15.6594850952
 30
0.0
 11
10.7507035336
 21
15.6437699541
 31
0.0
  0
LINE
  5
195
330
1F
100
AcDbEntity
  8
0
  6
Continuous
 62
     7
370
    25
100
AcDbLine
 10
10.7507035336
 20
15.5112002362
 30
0.0
 11
10.7617073938
 21
15.4954850952
 31
0.0
  0
LINE
  5
196
330
1F
100
AcDbEntity
  8
0
  6
Continuous
 62
     7
370
    25
100
AcDbLine
 10
10.7617073938
 20
15.4954850952
 30
0.0
 11
10.7637896734
 21
15.4954850952
 31
0.0
  0
LINE
  5
197
330
1F
100
AcDbEntity
  8
0
  6
Continuous
 62
     7
370
    25
100
AcDbLine
 10
10.7637896734
 20
15.6594850952
 30
0.0
 11
10.7617073938
 21
15.6594850952
 31
0.0
  0
LINE
  5
198
330
1F
100
AcDbEntity
  8
0
  6
Continuous
 62
     7
370
    25
100
AcDbLine
 10
10.7637896734
 20
15.4954850952
 30
0.0
 11
10.7653797137
 21
15.4977559082
 31
0.0
  0
LINE
  5
199
330
1F
100
AcDbEntity
  8
0
  6
Continuous
 62
     7
370
    25
100
AcDbLine
 10
10.770683607
 20
15.6496395376
 30
0.0
 11
10.7637896734
 21
15.6594850952
 31
0.0
  0
LINE
  5
19A
330
1F
100
AcDbEntity
  8
0
  6
Continuous
 62
     7
370
    25
100
AcDbLine
 10
10.5487035336
 20
15.4309850952
 30
0.0
 11
10.5887035336
 21
15.4309850952
 31
0.0
  0
LINE
  5
19B
330
1F
100
AcDbEntity
  8
0
  6
Continuous
 62
     7
370
    25
100
AcDbLine
 10
10.5887035336
 20
15.7239850952
 30
0.0
 11
10.5487035336
 21
15.7239850952
 31
0.0
  0
LINE
  5
19C
330
1F
100
AcDbEntity
  8
0
  6
Continuous
 62
     7
370
    25
100
AcDbLine
 10
13.7241318022
 20
15.7239850952
 30
0.0
 11
13.6841318022
 21
15.7239850952
 31
0.0
  0
LINE
  5
19D
330
1F
100
AcDbEntity
  8
0
  6
Continuous
 62
     7
370
    25
100
AcDbLine
 10
13.6841318022
 20
15.4309850952
 30
0.0
 11
13.7241318022
 21
15.4309850952
 31
0.0
  0
LINE
  5
19E
330
1F
100
AcDbEntity
  8
0
  6
Continuous
 62
     7
370
    25
100
AcDbLine
 10
13.6521318022
 20
15.3899850952
 30
0.0
 11
13.6841318022
 21
15.3899850952
 31
0.0
  0
LINE
  5
19F
330
1F
100
AcDbEntity
  8
0
  6
Continuous
 62
     7
370
    25
100
AcDbLine
 10
10.5887035336
 20
15.3899850952
 30
0.0
 11
10.6207035336
 21
15.3899850952
 31
0.0
  0
LINE
  5
1A0
330
1F
100
AcDbEntity
  8
0
  6
Continuous
 62
     7
370
    25
100
AcDbLine
 10
10.7507035336
 20
15.7702145659
 30
0.0
 11
10.7507035336
 21
15.0774850952
 31
0.0
  0
LINE
  5
1A1
330
1F
100
AcDbEntity
  8
0
  6
Continuous
 62
     7
370
    25
100
AcDbLine
 10
10.7507035336
 20
15.0774850952
 30
0.0
 11
10.6707035336
 21
15.0774850952
 31
0.0
  0
LINE
  5
1A2
330
1F
100
AcDbEntity
  8
0
  6
Continuous
 62
     7
370
    25
100
AcDbLine
 10
10.6707035336
 20
15.0774850952
 30
0.0
 11
10.6707035336
 21
15.6710036222
 31
0.0
  0
ARC
  5
1A3
330
1F
100
AcDbEntity
  8
0
  6
Continuous
 62
     7
370
    25
100
AcDbCircle
 10
10.6082035336
 20
15.6710036222
 30
0.0
 40
0.0625000000000018
100
AcDbArc
 50
0.0
 51
78.3415045448
  0
ARC
  5
1A4
330
1F
100
AcDbEntity
  8
0
  6
Continuous
 62
     7
370
    25
100
AcDbCircle
 10
12.1364176679
 20
23.0774850952
 30
0.0
 40
7.4375
100
AcDbArc
 50
191.4386950753
 51
259.2622194194
  0
ARC
  5
1A5
330
1F
100
AcDbEntity
  8
0
  6
Continuous
 62
     7
370
    25
100
AcDbCircle
 10
12.1364176679
 20
23.0774850952
 30
0.0
 40
7.499999999999999
100
AcDbArc
 50
191.3421020921
 51
258.3415045448
  0
ARC
  5
1A6
330
1F
100
AcDbEntity
  8
0
  6
Continuous
 62
     7
370
    25
100
AcDbCircle
 10
13.6646318022
 20
15.6710036222
 30
0.0
 40
0.0625000000000024
100
AcDbArc
 50
101.6584954552
 51
180.0
  0
LINE
  5
1A7
330
1F
100
AcDbEntity
  8
0
  6
Continuous
 62
     7
370
    25
100
AcDbLine
 10
13.6021318022
 20
15.6710036222
 30
0.0
 11
13.6021318022
 21
15.0774850952
 31
0.0
  0
LINE
  5
1A8
330
1F
100
AcDbEntity
  8
0
  6
Continuous
 62
     7
370
    25
100
AcDbLine
 10
13.6021318022
 20
15.0774850952
 30
0.0
 11
13.5221318022
 21
15.0774850952
 31
0.0
  0
LINE
  5
1A9
330
1F
100
AcDbEntity
  8
0
  6
Continuous
 62
     7
370
    25
100
AcDbLine
 10
13.5221318022
 20
15.0774850952
 30
0.0
 11
13.5221318022
 21
15.7702145659
 31
0.0
  0
ARC
  5
1AA
330
1F
100
AcDbEntity
  8
0
  6
Continuous
 62
     7
370
    25
100
AcDbCircle
 10
12.1364176679
 20
23.0774850952
 30
0.0
 40
7.437499999999999
100
AcDbArc
 50
280.7377805806
 51
168.5613049247
  0
LINE
  5
1AB
330
1F
100
AcDbEntity
  8
0
  6
Continuous
 62
     7
370
    25
100
AcDbLine
 10
4.8466452949
 20
24.5524850952
 30
0.0
 11
4.7828896031
 21
24.5524850952
 31
0.0
  0
ARC
  5
1AC
330
1F
100
AcDbEntity
  8
0
  6
Continuous
 62
     7
370
    25
100
AcDbCircle
 10
12.1364176679
 20
23.0774850952
 30
0.0
 40
7.5
100
AcDbArc
 50
281.6584954552
 51
168.6578979079
  0
SPLINE
  5
1AD
330
1F
100
AcDbEntity
  8
0
  6
Continuous
 62
     7
370
    25
100
AcDbSpline
210
0.0
220
0.0
230
1.0
 70
    24
 71
     3
 72
    21
 73
    17
 74
     0
 42
0.00000001
 43
0.00000001
 40
0.0
 40
0.0
 40
0.0
 40
0.0
 40
0.1526624103388148
 40
0.2292255034351719
 40
0.3061108545366938
 40
0.3651883143874542
 40
0.425367777834581
 40
0.4621474138247387
 40
0.5000092195503012
 40
0.5386484158578061
 40
0.5797722708533777
 40
0.6219344581160465
 40
0.694341776440137
 40
0.7679231093905251
 40
0.9183653333941056
 40
1.0
 40
1.0
 40
1.0
 40
1.0
 10
4.573917667882727
 20
23.60248509515129
 30
0.0
 10
4.573917667882727
 20
23.54260269769384
 30
0.0
 10
4.573917667882727
 20
23.45268814260706
 30
0.0
 10
4.573917667882728
 20
23.32548723462786
 30
0.0
 10
4.573917667882726
 20
23.2314327499421
 30
0.0
 10
4.573917667882727
 20
23.13745923911514
 30
0.0
 10
4.573917667882728
 20
23.05586421467949
 30
0.0
 10
4.573917667882727
 20
22.98040165642887
 30
0.0
 10
4.573917667882726
 20
22.9145326076257
 30
0.0
 10
4.573917667882728
 20
22.84614042199559
 30
0.0
 10
4.573917667882726
 20
22.77809850685664
 30
0.0
 10
4.573917667882726
 20
22.6963028665877
 30
0.0
 10
4.573917667882728
 20
22.60539601566032
 30
0.0
 10
4.573917667882723
 20
22.47410552189013
 30
0.0
 10
4.573917667882726
 20
22.35059908276228
 30
0.0
 10
4.573917667882727
 20
22.25952207020684
 30
0.0
 10
4.573917667882727
 20
22.22748509515129
 30
0.0
  0
SPLINE
  5
1AE
330
1F
100
AcDbEntity
  8
0
  6
Continuous
 62
     7
370
    25
100
AcDbSpline
210
0.0
220
0.0
230
1.0
 70
     8
 71
     3
 72
    13
 73
     9
 74
     0
 42
0.00000001
 43
0.00000001
 40
0.0
 40
0.0
 40
0.0
 40
0.0
 40
0.1922889284722933
 40
0.3843300401582687
 40
0.583119154953751
 40
0.7979401069482209
 40
0.9960078014241909
 40
1.0
 40
1.0
 40
1.0
 40
1.0
 10
4.573917667882727
 20
22.22748509515129
 30
0.0
 10
4.568644900593282
 20
22.22726986675633
 30
0.0
 10
4.558106161414708
 20
22.22683968734697
 30
0.0
 10
4.543976587456287
 20
22.2235231166606
 30
0.0
 10
4.532637348436285
 20
22.21856887790244
 30
0.0
 10
4.525554775471492
 20
22.21235391731368
 30
0.0
 10
4.52392784154542
 20
22.20775605880192
 30
0.0
 10
4.523917864994445
 20
22.20553618314009
 30
0.0
 10
4.523917667882727
 20
22.20549232394408
 30
0.0
  0
SPLINE
  5
1AF
330
1F
100
AcDbEntity
  8
0
  6
Continuous
 62
     7
370
    25
100
AcDbSpline
210
0.0
220
0.0
230
1.0
 70
    24
 71
     3
 72
    20
 73
    16
 74
     0
 42
0.00000001
 43
0.00000001
 40
0.0
 40
0.0
 40
0.0
 40
0.0
 40
0.0677810137449287
 40
0.1677352191651994
 40
0.2676548275820834
 40
0.3667540497844538
 40
0.4117555853292668
 40
0.4566686519872358
 40
0.5000554007146862
 40
0.5414464970345508
 40
0.5829111040712273
 40
0.6453066940580189
 40
0.7078870366393948
 40
0.8537202385865111
 40
1.0
 40
1.0
 40
1.0
 40
1.0
 10
4.523917667882727
 20
22.20549232394408
 30
0.0
 10
4.523917667882727
 20
22.23275000068594
 30
0.0
 10
4.523917667882728
 20
22.30020358583643
 30
0.0
 10
4.523917667882727
 20
22.40923958166577
 30
0.0
 10
4.523917667882727
 20
22.53961360703552
 30
0.0
 10
4.523917667882727
 20
22.65914385794562
 30
0.0
 10
4.523917667882725
 20
22.76061391181275
 30
0.0
 10
4.52391766788273
 20
22.83670258090924
 30
0.0
 10
4.523917667882725
 20
22.9138039190428
 30
0.0
 10
4.52391766788273
 20
22.98882534945544
 30
0.0
 10
4.523917667882722
 20
23.07207295568304
 30
0.0
 10
4.523917667882728
 20
23.16125804676182
 30
0.0
 10
4.523917667882722
 20
23.29388172489033
 30
0.0
 10
4.52391766788273
 20
23.44914973915188
 30
0.0
 10
4.523917667882726
 20
23.56597562586154
 30
0.0
 10
4.523917667882727
 20
23.62447786635851
 30
0.0
  0
SPLINE
  5
1B0
330
1F
100
AcDbEntity
  8
0
  6
Continuous
 62
     7
370
    25
100
AcDbSpline
210
0.0
220
0.0
230
1.0
 70
     8
 71
     3
 72
    13
 73
     9
 74
     0
 42
0.00000001
 43
0.00000001
 40
0.0
 40
0.0
 40
0.0
 40
0.0
 40
0.1922889284722934
 40
0.3843300401582628
 40
0.5831191549537529
 40
0.797940106948224
 40
0.9960078014241884
 40
1.0
 40
1.0
 40
1.0
 40
1.0
 10
4.573917667882727
 20
23.60248509515129
 30
0.0
 10
4.568644900593284
 20
23.60270032354624
 30
0.0
 10
4.558106161414708
 20
23.60313050295561
 30
0.0
 10
4.543976587456283
 20
23.60644707364199
 30
0.0
 10
4.532637348436282
 20
23.61140131240008
 30
0.0
 10
4.5255547754715
 20
23.61761627298914
 30
0.0
 10
4.523927841545412
 20
23.62221413150016
 30
0.0
 10
4.523917864994444
 20
23.62443400716249
 30
0.0
 10
4.523917667882727
 20
23.62447786635851
 30
0.0
  0
SPLINE
  5
1B1
330
1F
100
AcDbEntity
  8
0
  6
Continuous
 62
     7
370
    25
100
AcDbSpline
210
0.0
220
0.0
230
1.0
 70
    24
 71
     3
 72
    21
 73
    17
 74
     0
 42
0.00000001
 43
0.00000001
 40
0.0
 40
0.0
 40
0.0
 40
0.0
 40
0.1526601464615984
 40
0.2292221041806104
 40
0.3061063151259257
 40
0.3651828988991038
 40
0.4253614699267025
 40
0.4621405605004754
 40
0.5000018047618298
 40
0.5383087177359704
 40
0.5780128597078008
 40
0.6371564210834172
 40
0.6977279164519896
 40
0.7793924402545703
 40
0.8615641824047395
 40
1.0
 40
1.0
 40
1.0
 40
1.0
 10
5.09891766788274
 20
22.22748509515129
 30
0.0
 10
5.098917667882739
 20
22.28736749230522
 30
0.0
 10
5.098917667882739
 20
22.37728204693625
 30
0.0
 10
5.098917667882744
 20
22.50448295704837
 30
0.0
 10
5.098917667882742
 20
22.59853743558542
 30
0.0
 10
5.09891766788274
 20
22.69251096460383
 30
0.0
 10
5.098917667882739
 20
22.77410593252392
 30
0.0
 10
5.098917667882739
 20
22.84956862810205
 30
0.0
 10
5.09891766788274
 20
22.91524432980763
 30
0.0
 10
5.09891766788274
 20
22.98262031007253
 30
0.0
 10
5.098917667882744
 20
23.05923882035218
 30
0.0
 10
5.098917667882739
 20
23.1422174905686
 30
0.0
 10
5.098917667882742
 20
23.23831081038373
 30
0.0
 10
5.098917667882739
 20
23.33697226960055
 30
0.0
 10
5.09891766788274
 20
23.46162823409341
 30
0.0
 10
5.098917667882739
 20
23.54817512606378
 30
0.0
 10
5.098917667882739
 20
23.6024850951513
 30
0.0
  0
LINE
  5
1B2
330
1F
100
AcDbEntity
  8
0
  6
Continuous
 62
     7
370
    25
100
AcDbLine
 10
4.5739176679
 20
22.2274850952
 30
0.0
 11
5.0989176679
 21
22.2274850952
 31
0.0
  0
LINE
  5
1B3
330
1F
100
AcDbEntity
  8
0
  6
Continuous
 62
     7
370
    25
100
AcDbLine
 10
4.5739176679
 20
23.6024850952
 30
0.0
 11
5.0989176679
 21
23.6024850952
 31
0.0
  0
SPLINE
  5
1B4
330
1F
100
AcDbEntity
  8
0
  6
Continuous
 62
     7
370
    25
100
AcDbSpline
210
0.0
220
0.0
230
1.0
 70
     8
 71
     3
 72
    13
 73
     9
 74
     0
 42
0.00000001
 43
0.00000001
 40
0.0
 40
0.0
 40
0.0
 40
0.0
 40
0.1922889284723173
 40
0.3843300401582843
 40
0.5831191549537527
 40
0.7979401069482212
 40
0.9960078014241782
 40
1.0
 40
1.0
 40
1.0
 40
1.0
 10
5.09891766788274
 20
23.60248509515129
 30
0.0
 10
5.104190435172185
 20
23.60270032354625
 30
0.0
 10
5.114729174350762
 20
23.60313050295561
 30
0.0
 10
5.128858748309181
 20
23.60644707364198
 30
0.0
 10
5.140197987329192
 20
23.61140131240012
 30
0.0
 10
5.147280560293942
 20
23.61761627298902
 30
0.0
 10
5.148907494220113
 20
23.62221413150042
 30
0.0
 10
5.148917470771025
 20
23.62443400716249
 30
0.0
 10
5.148917667882742
 20
23.62447786635851
 30
0.0
  0
SPLINE
  5
1B5
330
1F
100
AcDbEntity
  8
0
  6
Continuous
 62
     7
370
    25
100
AcDbSpline
210
0.0
220
0.0
230
1.0
 70
    24
 71
     3
 72
    20
 73
    16
 74
     0
 42
0.00000001
 43
0.00000001
 40
0.0
 40
0.0
 40
0.0
 40
0.0
 40
0.1239029896577534
 40
0.2061282877615548
 40
0.2882714449488378
 40
0.3509842751128583
 40
0.4135190765922711
 40
0.4568148359676295
 40
0.500023265242592
 40
0.5414170221020898
 40
0.582884294403526
 40
0.6452838950581871
 40
0.7078682601829721
 40
0.8537108360063099
 40
1.0
 40
1.0
 40
1.0
 40
1.0
 10
5.148917667882742
 20
23.62447786635851
 30
0.0
 10
5.14891766788274
 20
23.57468028809827
 30
0.0
 10
5.14891766788274
 20
23.4918357209913
 30
0.0
 10
5.148917667882745
 20
23.37044510060664
 30
0.0
 10
5.148917667882742
 20
23.26816720162032
 30
0.0
 10
5.148917667882741
 20
23.16704032395647
 30
0.0
 10
5.148917667882744
 20
23.07723902798295
 30
0.0
 10
5.148917667882741
 20
22.99207397659289
 30
0.0
 10
5.148917667882742
 20
22.91606251259229
 30
0.0
 10
5.148917667882744
 20
22.84114383694711
 30
0.0
 10
5.148917667882741
 20
22.75789765782168
 30
0.0
 10
5.148917667882742
 20
22.66871201467037
 30
0.0
 10
5.148917667882739
 20
22.53608855326
 30
0.0
 10
5.148917667882745
 20
22.38082042223414
 30
0.0
 10
5.148917667882742
 20
22.26399455479238
 30
0.0
 10
5.148917667882742
 20
22.20549232394408
 30
0.0
  0
SPLINE
  5
1B6
330
1F
100
AcDbEntity
  8
0
  6
Continuous
 62
     7
370
    25
100
AcDbSpline
210
0.0
220
0.0
230
1.0
 70
     8
 71
     3
 72
    13
 73
     9
 74
     0
 42
0.00000001
 43
0.00000001
 40
0.0
 40
0.0
 40
0.0
 40
0.0
 40
0.1922889284723172
 40
0.3843300401582903
 40
0.5831191549537509
 40
0.7979401069482166
 40
0.9960078014241844
 40
1.0
 40
1.0
 40
1.0
 40
1.0
 10
5.09891766788274
 20
22.22748509515129
 30
0.0
 10
5.104190435172186
 20
22.22726986675633
 30
0.0
 10
5.114729174350764
 20
22.22683968734697
 30
0.0
 10
5.128858748309183
 20
22.22352311666059
 30
0.0
 10
5.140197987329188
 20
22.21856887790247
 30
0.0
 10
5.14728056029395
 20
22.21235391731354
 30
0.0
 10
5.148907494220097
 20
22.2077560588022
 30
0.0
 10
5.148917470771025
 20
22.20553618314009
 30
0.0
 10
5.148917667882742
 20
22.20549232394408
 30
0.0
  0
SPLINE
  5
1B7
330
1F
100
AcDbEntity
  8
0
  6
Continuous
 62
     7
370
    25
100
AcDbSpline
210
0.0
220
0.0
230
1.0
 70
     8
 71
     3
 72
    10
 73
     6
 74
     0
 42
0.00000001
 43
0.00000001
 40
0.0
 40
0.0
 40
0.0
 40
0.0
 40
0.5054468997193028
 40
0.8769707977916192
 40
0.9999999999999999
 40
0.9999999999999999
 40
0.9999999999999999
 40
0.9999999999999999
 10
5.148917667882742
 20
24.4294489665456
 30
0.0
 10
5.148266045953024
 20
24.43964990368483
 30
0.0
 10
5.147135455570772
 20
24.45734894187498
 30
0.0
 10
5.138379634045127
 20
24.47614918989762
 30
0.0
 10
5.131803582062031
 20
24.48365063098186
 30
0.0
 10
5.13016766788274
 20
24.48551675276229
 30
0.0
  0
LINE
  5
1B8
330
1F
100
AcDbEntity
  8
0
  6
Continuous
 62
     7
370
    25
100
AcDbLine
 10
5.0989176679
 20
24.3524850952
 30
0.0
 11
5.1489176679
 21
24.3524850952
 31
0.0
  0
LINE
  5
1B9
330
1F
100
AcDbEntity
  8
0
  6
Continuous
 62
     7
370
    25
100
AcDbLine
 10
5.0989176679
 20
24.3524850952
 30
0.0
 11
5.0989176679
 21
24.5524850952
 31
0.0
  0
ARC
  5
1BA
330
1F
100
AcDbEntity
  8
0
  6
Continuous
 62
     7
370
    25
100
AcDbCircle
 10
5.0989176679
 20
24.5024850952
 30
0.0
 40
0.0499999999999972
100
AcDbArc
 50
82.8192442185
 51
90.0
  0
LINE
  5
1BB
330
1F
100
AcDbEntity
  8
0
  6
Continuous
 62
     7
370
    25
100
AcDbLine
 10
5.1051676679
 20
24.5160307787
 30
0.0
 11
5.1051676679
 21
24.5520929322
 31
0.0
  0
SPLINE
  5
1BC
330
1F
100
AcDbEntity
  8
0
  6
Continuous
 62
     7
370
    25
100
AcDbSpline
210
0.0
220
0.0
230
1.0
 70
     8
 71
     3
 72
    13
 73
     9
 74
     0
 42
0.00000001
 43
0.00000001
 40
0.0
 40
0.0
 40
0.0
 40
0.0
 40
0.0654698464322342
 40
0.2804496420115747
 40
0.3375453747145362
 40
0.6418899413913853
 40
0.6592589443605048
 40
1.0
 40
1.0
 40
1.0
 40
1.0
 10
5.105167667882742
 20
24.51603077869042
 30
0.0
 10
5.105204320419228
 20
24.51543585821917
 30
0.0
 10
5.105361326908418
 20
24.51288742955651
 30
0.0
 10
5.106996181399632
 20
24.50956736546586
 30
0.0
 10
5.111109426831472
 20
24.50391671842458
 30
0.0
 10
5.115006807154098
 20
24.50006095726653
 30
0.0
 10
5.122247328412846
 20
24.49323921514087
 30
0.0
 10
5.126305922831509
 20
24.48928201825213
 30
0.0
 10
5.130167667882742
 20
24.48551675276229
 30
0.0
  0
LINE
  5
1BD
330
1F
100
AcDbEntity
  8
0
  6
Continuous
 62
     7
370
    25
100
AcDbLine
 10
5.1489176679
 20
24.4294489665
 30
0.0
 11
5.1489176679
 21
24.3524850952
 31
0.0
  0
LINE
  5
1BE
330
1F
100
AcDbEntity
  8
0
  6
Continuous
 62
     7
370
    25
100
AcDbLine
 10
4.5739176679
 20
24.5524850952
 30
0.0
 11
4.5739176679
 21
24.3524850952
 31
0.0
  0
LINE
  5
1BF
330
1F
100
AcDbEntity
  8
0
  6
Continuous
 62
     7
370
    25
100
AcDbLine
 10
4.5739176679
 20
24.3524850952
 30
0.0
 11
4.5239176679
 21
24.3524850952
 31
0.0
  0
ARC
  5
1C0
330
1F
100
AcDbEntity
  8
0
  6
Continuous
 62
     7
370
    25
100
AcDbCircle
 10
4.5739176679
 20
24.5024850952
 30
0.0
 40
0.0499999999999998
100
AcDbArc
 50
90.0
 51
180.0
  0
LINE
  5
1C1
330
1F
100
AcDbEntity
  8
0
  6
Continuous
 62
     7
370
    25
100
AcDbLine
 10
4.5239176679
 20
24.3524850952
 30
0.0
 11
4.5239176679
 21
24.5024850952
 31
0.0
  0
LINE
  5
1C2
330
1F
100
AcDbEntity
  8
0
  6
Continuous
 62
     7
370
    25
100
AcDbLine
 10
4.5739176679
 20
24.3524850952
 30
0.0
 11
5.0989176679
 21
24.3524850952
 31
0.0
  0
LINE
  5
1C3
330
1F
100
AcDbEntity
  8
0
  6
Continuous
 62
     7
370
    25
100
AcDbLine
 10
4.5739176679
 20
24.5524850952
 30
0.0
 11
4.7828896031
 21
24.5524850952
 31
0.0
  0
LINE
  5
1C4
330
1F
100
AcDbEntity
  8
0
  6
Continuous
 62
     7
370
    25
100
AcDbLine
 10
4.8466452949
 20
24.5524850952
 30
0.0
 11
5.0989176679
 21
24.5524850952
 31
0.0
  0
LINE
  5
1C5
330
1F
100
AcDbEntity
  8
0
  6
Continuous
 62
     7
370
    25
100
AcDbLine
 10
5.0989176679
 20
23.6024850952
 30
0.0
 11
5.0989176679
 21
24.3524850952
 31
0.0
  0
LINE
  5
1C6
330
1F
100
AcDbEntity
  8
0
  6
Continuous
 62
     7
370
    25
100
AcDbLine
 10
5.1489176679
 20
24.3524850952
 30
0.0
 11
5.1489176679
 21
23.6244778664
 31
0.0
  0
LINE
  5
1C7
330
1F
100
AcDbEntity
  8
0
  6
Continuous
 62
     7
370
    25
100
AcDbLine
 10
4.5739176679
 20
24.3524850952
 30
0.0
 11
4.5739176679
 21
23.6024850952
 31
0.0
  0
LINE
  5
1C8
330
1F
100
AcDbEntity
  8
0
  6
Continuous
 62
     7
370
    25
100
AcDbLine
 10
4.5239176679
 20
23.6244778664
 30
0.0
 11
4.5239176679
 21
24.3524850952
 31
0.0
  0
LINE
  5
1C9
330
1F
100
AcDbEntity
  8
0
  6
Continuous
 62
     7
370
    25
100
AcDbLine
 10
4.5739176679
 20
22.2274850952
 30
0.0
 11
4.5739176679
 21
21.7024850952
 31
0.0
  0
LINE
  5
1CA
330
1F
100
AcDbEntity
  8
0
  6
Continuous
 62
     7
370
    25
100
AcDbLine
 10
4.5239176679
 20
21.7024850952
 30
0.0
 11
4.5739176679
 21
21.7024850952
 31
0.0
  0
LINE
  5
1CB
330
1F
100
AcDbEntity
  8
0
  6
Continuous
 62
     7
370
    25
100
AcDbLine
 10
4.5239176679
 20
21.7024850952
 30
0.0
 11
4.5239176679
 21
22.2054923239
 31
0.0
  0
LINE
  5
1CC
330
1F
100
AcDbEntity
  8
0
  6
Continuous
 62
     7
370
    25
100
AcDbLine
 10
5.0989176679
 20
21.7024850952
 30
0.0
 11
5.0989176679
 21
22.2274850952
 31
0.0
  0
LINE
  5
1CD
330
1F
100
AcDbEntity
  8
0
  6
Continuous
 62
     7
370
    25
100
AcDbLine
 10
5.0989176679
 20
21.7024850952
 30
0.0
 11
5.1489176679
 21
21.7024850952
 31
0.0
  0
LINE
  5
1CE
330
1F
100
AcDbEntity
  8
0
  6
Continuous
 62
     7
370
    25
100
AcDbLine
 10
5.1489176679
 20
22.2054923239
 30
0.0
 11
5.1489176679
 21
21.7024850952
 31
0.0
  0
LINE
  5
1CF
330
1F
100
AcDbEntity
  8
0
  6
Continuous
 62
     7
370
    25
100
AcDbLine
 10
4.5739176679
 20
21.7024850952
 30
0.0
 11
4.5739176679
 21
21.6024850952
 31
0.0
  0
ARC
  5
1D0
330
1F
100
AcDbEntity
  8
0
  6
Continuous
 62
     7
370
    25
100
AcDbCircle
 10
4.5739176679
 20
21.6524850952
 30
0.0
 40
0.0500000000000149
100
AcDbArc
 50
180.0
 51
270.0
  0
LINE
  5
1D1
330
1F
100
AcDbEntity
  8
0
  6
Continuous
 62
     7
370
    25
100
AcDbLine
 10
4.5239176679
 20
21.6524850952
 30
0.0
 11
4.5239176679
 21
21.7024850952
 31
0.0
  0
LINE
  5
1D2
330
1F
100
AcDbEntity
  8
0
  6
Continuous
 62
     7
370
    25
100
AcDbLine
 10
5.0989176679
 20
21.6024850952
 30
0.0
 11
5.0989176679
 21
21.7024850952
 31
0.0
  0
ARC
  5
1D3
330
1F
100
AcDbEntity
  8
0
  6
Continuous
 62
     7
370
    25
100
AcDbCircle
 10
5.0989176679
 20
21.6524850952
 30
0.0
 40
0.0500000000000149
100
AcDbArc
 50
270.0
 51
0.0
  0
LINE
  5
1D4
330
1F
100
AcDbEntity
  8
0
  6
Continuous
 62
     7
370
    25
100
AcDbLine
 10
5.1489176679
 20
21.7024850952
 30
0.0
 11
5.1489176679
 21
21.6524850952
 31
0.0
  0
LINE
  5
1D5
330
1F
100
AcDbEntity
  8
0
  6
Continuous
 62
     7
370
    25
100
AcDbLine
 10
4.5739176679
 20
21.6024850952
 30
0.0
 11
5.0989176679
 21
21.6024850952
 31
0.0
  0
LINE
  5
1D6
330
1F
100
AcDbEntity
  8
0
  6
Continuous
 62
     7
370
    25
100
AcDbLine
 10
4.5739176679
 20
21.7024850952
 30
0.0
 11
5.0989176679
 21
21.7024850952
 31
0.0
  0
LINE
  5
1D7
330
1F
100
AcDbEntity
  8
0
  6
Continuous
 62
     7
370
    25
100
AcDbLine
 10
5.1301676679
 20
24.4855167528
 30
0.0
 11
5.1314223716
 21
24.4866196242
 31
0.0
  0
ARC
  5
1D8
330
1F
100
AcDbEntity
  8
0
  6
Continuous
 62
     7
370
    25
100
AcDbCircle
 10
5.1049895486
 20
24.5070653412
 30
0.0
 40
0.0089672066764104
100
AcDbArc
 50
5.3516202517
 51
88.8618357273
  0
ARC
  5
1D9
330
1F
100
AcDbEntity
  8
0
  6
Continuous
 62
     7
370
    25
100
AcDbCircle
 10
5.1039176679
 20
24.5421713648
 30
0.0
 40
0.0099999999999989
100
AcDbArc
 50
0.0
 51
82.8192442185
  0
LINE
  5
1DA
330
1F
100
AcDbEntity
  8
0
  6
Continuous
 62
     7
370
    25
100
AcDbLine
 10
5.1139176679
 20
24.5421713648
 30
0.0
 11
5.1139176679
 21
24.5079016914
 31
0.0
  0
LINE
  5
1DB
330
1F
100
AcDbEntity
  8
0
  6
Continuous
 62
     7
370
    25
100
AcDbLine
 10
10.6707035336
 20
15.7899850952
 30
0.0
 11
10.6707035336
 21
15.7858399909
 31
0.0
  0
LINE
  5
1DC
330
1F
100
AcDbEntity
  8
0
  6
Continuous
 62
     7
370
    25
100
AcDbLine
 10
10.7057035336
 20
15.7788918529
 30
0.0
 11
10.7057035336
 21
15.8074850952
 31
0.0
  0
LINE
  5
1DD
330
1F
100
AcDbEntity
  8
0
  6
Continuous
 62
     7
370
    25
100
AcDbLine
 10
10.7207035336
 20
15.7974850952
 30
0.0
 11
10.7207035336
 21
15.7759674625
 31
0.0
  0
LINE
  5
1DE
330
1F
100
AcDbEntity
  8
0
  6
Continuous
 62
     7
370
    25
100
AcDbLine
 10
13.8721318022
 20
15.7124850952
 30
0.0
 11
13.8721318022
 21
15.4424850952
 31
0.0
  0
LINE
  5
1DF
330
1F
100
AcDbEntity
  8
0
  6
Continuous
 62
     7
370
    25
100
AcDbLine
 10
13.8881318022
 20
15.6964850952
 30
0.0
 11
13.8881318022
 21
15.4584850952
 31
0.0
  0
LINE
  5
1E0
330
1F
100
AcDbEntity
  8
0
  6
Continuous
 62
     7
370
    25
100
AcDbLine
 10
13.511127942
 20
15.6594850952
 30
0.0
 11
13.511127942
 21
15.4954850952
 31
0.0
  0
LINE
  5
1E1
330
1F
100
AcDbEntity
  8
0
  6
Continuous
 62
     7
370
    25
100
AcDbLine
 10
13.5090456624
 20
15.6594850952
 30
0.0
 11
13.5090456624
 21
15.4954850952
 31
0.0
  0
LINE
  5
1E2
330
1F
100
AcDbEntity
  8
0
  6
Continuous
 62
     7
370
    25
100
AcDbLine
 10
13.6085418022
 20
15.6408850952
 30
0.0
 11
13.6085418022
 21
15.5140850952
 31
0.0
  0
LINE
  5
1E3
330
1F
100
AcDbEntity
  8
0
  6
Continuous
 62
     7
370
    25
100
AcDbLine
 10
13.6366718022
 20
15.6408850952
 30
0.0
 11
13.6366718022
 21
15.5140850952
 31
0.0
  0
LINE
  5
1E4
330
1F
100
AcDbEntity
  8
0
  6
Continuous
 62
     7
370
    25
100
AcDbLine
 10
13.6496956624
 20
15.6594850952
 30
0.0
 11
13.6496956624
 21
15.4954850952
 31
0.0
  0
LINE
  5
1E5
330
1F
100
AcDbEntity
  8
0
  6
Continuous
 62
     7
370
    25
100
AcDbLine
 10
13.651777942
 20
15.6594850952
 30
0.0
 11
13.651777942
 21
15.4954850952
 31
0.0
  0
LINE
  5
1E6
330
1F
100
AcDbEntity
  8
0
  6
Continuous
 62
     7
370
    25
100
AcDbLine
 10
13.623647942
 20
15.6594850952
 30
0.0
 11
13.623647942
 21
15.4954850952
 31
0.0
  0
LINE
  5
1E7
330
1F
100
AcDbEntity
  8
0
  6
Continuous
 62
     7
370
    25
100
AcDbLine
 10
13.6215656624
 20
15.6594850952
 30
0.0
 11
13.6215656624
 21
15.4954850952
 31
0.0
  0
LINE
  5
1E8
330
1F
100
AcDbEntity
  8
0
  6
Continuous
 62
     7
370
    25
100
AcDbLine
 10
10.3847035336
 20
15.4584850952
 30
0.0
 11
10.3847035336
 21
15.6964850952
 31
0.0
  0
LINE
  5
1E9
330
1F
100
AcDbEntity
  8
0
  6
Continuous
 62
     7
370
    25
100
AcDbLine
 10
10.4007035336
 20
15.4424850952
 30
0.0
 11
10.4007035336
 21
15.7124850952
 31
0.0
  0
LINE
  5
1EA
330
1F
100
AcDbEntity
  8
0
  6
Continuous
 62
     7
370
    25
100
AcDbLine
 10
10.7617073938
 20
15.4954850952
 30
0.0
 11
10.7617073938
 21
15.6594850952
 31
0.0
  0
LINE
  5
1EB
330
1F
100
AcDbEntity
  8
0
  6
Continuous
 62
     7
370
    25
100
AcDbLine
 10
10.7637896734
 20
15.4954850952
 30
0.0
 11
10.7637896734
 21
15.6594850952
 31
0.0
  0
LINE
  5
1EC
330
1F
100
AcDbEntity
  8
0
  6
Continuous
 62
     7
370
    25
100
AcDbLine
 10
10.5487035336
 20
15.4309850952
 30
0.0
 11
10.5487035336
 21
15.7239850952
 31
0.0
  0
LINE
  5
1ED
330
1F
100
AcDbEntity
  8
0
  6
Continuous
 62
     7
370
    25
100
AcDbLine
 10
13.7241318022
 20
15.7239850952
 30
0.0
 11
13.7241318022
 21
15.4309850952
 31
0.0
  0
LINE
  5
1EE
330
1F
100
AcDbEntity
  8
0
  6
Continuous
 62
     7
370
    25
100
AcDbLine
 10
13.6841318022
 20
15.3899850952
 30
0.0
 11
13.6841318022
 21
15.7389170497
 31
0.0
  0
LINE
  5
1EF
330
1F
100
AcDbEntity
  8
0
  6
Continuous
 62
     7
370
    25
100
AcDbLine
 10
13.6521318022
 20
15.3899850952
 30
0.0
 11
13.6521318022
 21
15.7322410105
 31
0.0
  0
LINE
  5
1F0
330
1F
100
AcDbEntity
  8
0
  6
Continuous
 62
     7
370
    25
100
AcDbLine
 10
10.5887035336
 20
15.3899850952
 30
0.0
 11
10.5887035336
 21
15.7389170497
 31
0.0
  0
LINE
  5
1F1
330
1F
100
AcDbEntity
  8
0
  6
Continuous
 62
     7
370
    25
100
AcDbLine
 10
10.6207035336
 20
15.3899850952
 30
0.0
 11
10.6207035336
 21
15.7322410105
 31
0.0
  0
LINE
  5
1F2
330
1F
100
AcDbEntity
  8
0
  6
Continuous
 62
     7
370
    25
100
AcDbLine
 10
11.1752868519
 20
16.1916351192
 30
0.0
 11
11.3632619277
 21
15.8864316968
 31
0.0
  0
LINE
  5
1F3
330
1F
100
AcDbEntity
  8
0
  6
Continuous
 62
     7
370
    25
100
AcDbLine
 10
11.3632619277
 20
15.8864316968
 30
0.0
 11
11.0580585053
 21
15.6984566209
 31
0.0
  0
ARC
  5
1F4
330
1F
100
AcDbEntity
  8
0
  6
Continuous
 62
     7
370
    25
100
AcDbCircle
 10
11.4114176679
 20
15.8749850952
 30
0.0
 40
0.3950000000000022
100
AcDbArc
 50
126.7124629142
 51
206.5454466944
  0
LINE
  5
1F5
330
1F
100
AcDbEntity
  8
0
  6
Continuous
 62
     7
370
    25
100
AcDbLine
 10
11.7280676919
 20
16.1111159112
 30
0.0
 11
11.4228642695
 21
15.9231408353
 31
0.0
  0
LINE
  5
1F6
330
1F
100
AcDbEntity
  8
0
  6
Continuous
 62
     7
370
    25
100
AcDbLine
 10
11.4228642695
 20
15.9231408353
 30
0.0
 11
11.2348891937
 21
16.2283442578
 31
0.0
  0
ARC
  5
1F7
330
1F
100
AcDbEntity
  8
0
  6
Continuous
 62
     7
370
    25
100
AcDbCircle
 10
11.4114176679
 20
15.8749850952
 30
0.0
 40
0.3950000000000015
100
AcDbArc
 50
36.7124629142
 51
116.5454466944
  0
LINE
  5
1F8
330
1F
100
AcDbEntity
  8
0
  6
Continuous
 62
     7
370
    25
100
AcDbLine
 10
11.0947676438
 20
15.6388542791
 30
0.0
 11
11.3999710663
 21
15.826829355
 31
0.0
  0
LINE
  5
1F9
330
1F
100
AcDbEntity
  8
0
  6
Continuous
 62
     7
370
    25
100
AcDbLine
 10
11.3999710663
 20
15.826829355
 30
0.0
 11
11.5879461421
 21
15.5216259326
 31
0.0
  0
ARC
  5
1FA
330
1F
100
AcDbEntity
  8
0
  6
Continuous
 62
     7
370
    25
100
AcDbCircle
 10
11.4114176679
 20
15.8749850952
 30
0.0
 40
0.3950000000000007
100
AcDbArc
 50
216.7124629142
 51
296.5454466944
  0
LINE
  5
1FB
330
1F
100
AcDbEntity
  8
0
  6
Continuous
 62
     7
370
    25
100
AcDbLine
 10
11.6475484839
 20
15.5583350711
 30
0.0
 11
11.4595734081
 21
15.8635384935
 31
0.0
  0
LINE
  5
1FC
330
1F
100
AcDbEntity
  8
0
  6
Continuous
 62
     7
370
    25
100
AcDbLine
 10
11.4595734081
 20
15.8635384935
 30
0.0
 11
11.7647768305
 21
16.0515135694
 31
0.0
  0
ARC
  5
1FD
330
1F
100
AcDbEntity
  8
0
  6
Continuous
 62
     7
370
    25
100
AcDbCircle
 10
11.4114176679
 20
15.8749850952
 30
0.0
 40
0.3949999999999992
100
AcDbArc
 50
306.7124629142
 51
26.5454466944
  0
ARC
  5
1FE
330
1F
100
AcDbEntity
  8
0
  6
Continuous
 62
     7
370
    25
100
AcDbCircle
 10
11.4114176679
 20
15.8749850952
 30
0.0
 40
0.3949999999999992
100
AcDbArc
 50
296.5454466944
 51
306.7124629142
  0
ARC
  5
1FF
330
1F
100
AcDbEntity
  8
0
  6
Continuous
 62
     7
370
    25
100
AcDbCircle
 10
11.4114176679
 20
15.8749850952
 30
0.0
 40
0.3950000000000004
100
AcDbArc
 50
26.5454466944
 51
36.7124629142
  0
ARC
  5
200
330
1F
100
AcDbEntity
  8
0
  6
Continuous
 62
     7
370
    25
100
AcDbCircle
 10
11.4114176679
 20
15.8749850952
 30
0.0
 40
0.3950000000000021
100
AcDbArc
 50
116.5454466944
 51
126.7124629142
  0
ARC
  5
201
330
1F
100
AcDbEntity
  8
0
  6
Continuous
 62
     7
370
    25
100
AcDbCircle
 10
11.4114176679
 20
15.8749850952
 30
0.0
 40
0.3950000000000022
100
AcDbArc
 50
206.5454466944
 51
216.7124629142
  0
LINE
  5
202
330
1F
100
AcDbEntity
  8
0
  6
Continuous
 62
     7
370
    25
100
AcDbLine
 10
13.0379461421
 20
16.2283442578
 30
0.0
 11
12.8499710663
 21
15.9231408353
 31
0.0
  0
LINE
  5
203
330
1F
100
AcDbEntity
  8
0
  6
Continuous
 62
     7
370
    25
100
AcDbLine
 10
12.8499710663
 20
15.9231408353
 30
0.0
 11
12.5447676438
 21
16.1111159112
 31
0.0
  0
ARC
  5
204
330
1F
100
AcDbEntity
  8
0
  6
Continuous
 62
     7
370
    25
100
AcDbCircle
 10
12.8614176679
 20
15.8749850952
 30
0.0
 40
0.3949999999999999
100
AcDbArc
 50
63.4545533056
 51
143.2875370858
  0
LINE
  5
205
330
1F
100
AcDbEntity
  8
0
  6
Continuous
 62
     7
370
    25
100
AcDbLine
 10
12.5080585053
 20
16.0515135694
 30
0.0
 11
12.8132619277
 21
15.8635384935
 31
0.0
  0
LINE
  5
206
330
1F
100
AcDbEntity
  8
0
  6
Continuous
 62
     7
370
    25
100
AcDbLine
 10
12.8132619277
 20
15.8635384935
 30
0.0
 11
12.6252868519
 21
15.5583350711
 31
0.0
  0
ARC
  5
207
330
1F
100
AcDbEntity
  8
0
  6
Continuous
 62
     7
370
    25
100
AcDbCircle
 10
12.8614176679
 20
15.8749850952
 30
0.0
 40
0.3950000000000007
100
AcDbArc
 50
153.4545533056
 51
233.2875370858
  0
LINE
  5
208
330
1F
100
AcDbEntity
  8
0
  6
Continuous
 62
     7
370
    25
100
AcDbLine
 10
13.2147768305
 20
15.6984566209
 30
0.0
 11
12.9095734081
 21
15.8864316968
 31
0.0
  0
LINE
  5
209
330
1F
100
AcDbEntity
  8
0
  6
Continuous
 62
     7
370
    25
100
AcDbLine
 10
12.9095734081
 20
15.8864316968
 30
0.0
 11
13.0975484839
 21
16.1916351192
 31
0.0
  0
ARC
  5
20A
330
1F
100
AcDbEntity
  8
0
  6
Continuous
 62
     7
370
    25
100
AcDbCircle
 10
12.8614176679
 20
15.8749850952
 30
0.0
 40
0.3950000000000015
100
AcDbArc
 50
333.4545533056
 51
53.2875370858
  0
LINE
  5
20B
330
1F
100
AcDbEntity
  8
0
  6
Continuous
 62
     7
370
    25
100
AcDbLine
 10
12.6848891937
 20
15.5216259326
 30
0.0
 11
12.8728642695
 21
15.826829355
 31
0.0
  0
LINE
  5
20C
330
1F
100
AcDbEntity
  8
0
  6
Continuous
 62
     7
370
    25
100
AcDbLine
 10
12.8728642695
 20
15.826829355
 30
0.0
 11
13.1780676919
 21
15.6388542791
 31
0.0
  0
ARC
  5
20D
330
1F
100
AcDbEntity
  8
0
  6
Continuous
 62
     7
370
    25
100
AcDbCircle
 10
12.8614176679
 20
15.8749850952
 30
0.0
 40
0.3950000000000018
100
AcDbArc
 50
243.4545533056
 51
323.2875370858
  0
ARC
  5
20E
330
1F
100
AcDbEntity
  8
0
  6
Continuous
 62
     7
370
    25
100
AcDbCircle
 10
12.8614176679
 20
15.8749850952
 30
0.0
 40
0.3950000000000018
100
AcDbArc
 50
323.2875370858
 51
333.4545533056
  0
ARC
  5
20F
330
1F
100
AcDbEntity
  8
0
  6
Continuous
 62
     7
370
    25
100
AcDbCircle
 10
12.8614176679
 20
15.8749850952
 30
0.0
 40
0.3950000000000007
100
AcDbArc
 50
53.2875370858
 51
63.4545533056
  0
ARC
  5
210
330
1F
100
AcDbEntity
  8
0
  6
Continuous
 62
     7
370
    25
100
AcDbCircle
 10
12.8614176679
 20
15.8749850952
 30
0.0
 40
0.3949999999999993
100
AcDbArc
 50
143.2875370858
 51
153.4545533056
  0
ARC
  5
211
330
1F
100
AcDbEntity
  8
0
  6
Continuous
 62
     7
370
    25
100
AcDbCircle
 10
12.8614176679
 20
15.8749850952
 30
0.0
 40
0.3950000000000007
100
AcDbArc
 50
233.2875370858
 51
243.4545533056
  0
LINE
  5
212
330
1F
100
AcDbEntity
  8
0
  6
Continuous
 62
     7
370
    25
100
AcDbLine
 10
10.7114176679
 20
13.9524850952
 30
0.0
 11
10.8009783095
 21
16.5171663137
 31
0.0
  0
ARC
  5
213
330
1F
100
AcDbEntity
  8
0
  6
Continuous
 62
     7
370
    25
100
AcDbCircle
 10
10.8322092729
 20
16.0690931682
 30
0.0
 40
0.4491602350508813
100
AcDbArc
 50
86.0128986004
 51
93.9871013996
  0
LINE
  5
214
330
1F
100
AcDbEntity
  8
0
  6
Continuous
 62
     7
370
    25
100
AcDbLine
 10
10.8634402362
 20
16.5171663137
 30
0.0
 11
10.7738795946
 21
13.9524850952
 31
0.0
  0
LINE
  5
215
330
1F
100
AcDbEntity
  8
0
  6
Continuous
 62
     7
370
    25
100
AcDbLine
 10
10.7738795946
 20
13.9524850952
 30
0.0
 11
10.7114176679
 21
13.9524850952
 31
0.0
  0
LINE
  5
216
330
1F
100
AcDbEntity
  8
0
  6
Continuous
 62
     7
370
    25
100
AcDbLine
 10
13.4093950995
 20
16.5171663137
 30
0.0
 11
10.8634402362
 21
16.5171663137
 31
0.0
  0
LINE
  5
217
330
1F
100
AcDbEntity
  8
0
  6
Continuous
 62
     7
370
    25
100
AcDbLine
 10
13.4989557412
 20
13.9524850952
 30
0.0
 11
13.4093950995
 21
16.5171663137
 31
0.0
  0
LINE
  5
218
330
1F
100
AcDbEntity
  8
0
  6
Continuous
 62
     7
370
    25
100
AcDbLine
 10
13.4989557412
 20
13.9524850952
 30
0.0
 11
10.7738795946
 21
13.9524850952
 31
0.0
  0
CIRCLE
  5
219
330
1F
100
AcDbEntity
  8
0
  6
Continuous
 62
     7
370
    25
100
AcDbCircle
 10
12.8614176679
 20
15.8744942671
 30
0.0
 40
0.4024962050740406
  0
CIRCLE
  5
21A
330
1F
100
AcDbEntity
  8
0
  6
Continuous
 62
     7
370
    25
100
AcDbCircle
 10
11.4114176679
 20
15.8744942671
 30
0.0
 40
0.4024962050740406
  0
ARC
  5
21B
330
1F
100
AcDbEntity
  8
0
  6
Continuous
 62
     7
370
    25
100
AcDbCircle
 10
13.4406260629
 20
16.0690931682
 30
0.0
 40
0.4491602350499811
100
AcDbArc
 50
86.0128986004
 51
93.9871013996
  0
LINE
  5
21C
330
1F
100
AcDbEntity
  8
0
  6
Continuous
 62
     7
370
    25
100
AcDbLine
 10
13.4718570262
 20
16.5171663137
 30
0.0
 11
13.5614176679
 21
13.9524850952
 31
0.0
  0
LINE
  5
21D
330
1F
100
AcDbEntity
  8
0
  6
Continuous
 62
     7
370
    25
100
AcDbLine
 10
13.5614176679
 20
13.9524850952
 30
0.0
 11
13.4989557412
 21
13.9524850952
 31
0.0
  0
LINE
  5
21E
330
1F
100
AcDbEntity
  8
0
  6
Continuous
 62
     7
370
    25
100
AcDbLine
 10
10.8634402362
 20
16.5774850952
 30
0.0
 11
10.8634402362
 21
16.5171663137
 31
0.0
  0
ARC
  5
21F
330
1F
100
AcDbEntity
  8
0
  6
Continuous
 62
     7
370
    25
100
AcDbCircle
 10
10.8634402362
 20
16.5149850952
 30
0.0
 40
0.0625000000000011
100
AcDbArc
 50
90.0
 51
178.0
  0
LINE
  5
220
330
1F
100
AcDbEntity
  8
0
  6
Continuous
 62
     7
370
    25
100
AcDbLine
 10
10.8634402362
 20
16.5774850952
 30
0.0
 11
13.4093950995
 21
16.5774850952
 31
0.0
  0
LINE
  5
221
330
1F
100
AcDbEntity
  8
0
  6
Continuous
 62
     7
370
    25
100
AcDbLine
 10
13.4093950995
 20
16.5171663137
 30
0.0
 11
13.4093950995
 21
16.5774850952
 31
0.0
  0
ARC
  5
222
330
1F
100
AcDbEntity
  8
0
  6
Continuous
 62
     7
370
    25
100
AcDbCircle
 10
13.4093950995
 20
16.5149850952
 30
0.0
 40
0.0625000000000011
100
AcDbArc
 50
2.0
 51
90.0
  0
LINE
  5
223
330
1F
100
AcDbEntity
  8
0
  6
Continuous
 62
     7
370
    25
100
AcDbLine
 10
10.8322092729
 20
16.5691226692
 30
0.0
 11
10.8322092729
 21
16.6149850952
 31
0.0
  0
ARC
  5
224
330
1F
100
AcDbEntity
  8
0
  6
Continuous
 62
     7
370
    25
100
AcDbCircle
 10
10.8947092729
 20
16.6149850952
 30
0.0
 40
0.0625000000000018
100
AcDbArc
 50
90.0
 51
179.9999999995
  0
LINE
  5
225
330
1F
100
AcDbEntity
  8
0
  6
Continuous
 62
     7
370
    25
100
AcDbLine
 10
10.8947092729
 20
16.6774850952
 30
0.0
 11
11.2072092729
 21
16.6774850952
 31
0.0
  0
ARC
  5
226
330
1F
100
AcDbEntity
  8
0
  6
Continuous
 62
     7
370
    25
100
AcDbCircle
 10
11.2072092729
 20
16.6149850952
 30
0.0
 40
0.0625
100
AcDbArc
 50
0.0
 51
90.0
  0
LINE
  5
227
330
1F
100
AcDbEntity
  8
0
  6
Continuous
 62
     7
370
    25
100
AcDbLine
 10
11.2697092729
 20
16.6149850952
 30
0.0
 11
11.2697092729
 21
16.5774850952
 31
0.0
  0
ARC
  5
228
330
1F
100
AcDbEntity
  8
0
  6
Continuous
 62
     7
370
    25
100
AcDbCircle
 10
13.0656260629
 20
16.6149850952
 30
0.0
 40
0.0625000000000018
100
AcDbArc
 50
90.0
 51
180.0
  0
LINE
  5
229
330
1F
100
AcDbEntity
  8
0
  6
Continuous
 62
     7
370
    25
100
AcDbLine
 10
13.0656260629
 20
16.6774850952
 30
0.0
 11
13.3781260629
 21
16.6774850952
 31
0.0
  0
ARC
  5
22A
330
1F
100
AcDbEntity
  8
0
  6
Continuous
 62
     7
370
    25
100
AcDbCircle
 10
13.3781260629
 20
16.6149850952
 30
0.0
 40
0.0625
100
AcDbArc
 50
0.0000000005
 51
90.0
  0
LINE
  5
22B
330
1F
100
AcDbEntity
  8
0
  6
Continuous
 62
     7
370
    25
100
AcDbLine
 10
13.4406260629
 20
16.5691226692
 30
0.0
 11
13.4406260629
 21
16.6149850952
 31
0.0
  0
LINE
  5
22C
330
1F
100
AcDbEntity
  8
0
  6
Continuous
 62
     7
370
    25
100
AcDbLine
 10
13.0031260629
 20
16.6149850952
 30
0.0
 11
13.0031260629
 21
16.5774850952
 31
0.0
  0
LINE
  5
22D
330
1F
100
AcDbEntity
  8
0
  6
Continuous
 62
     7
370
    25
100
AcDbLine
 10
10.7107035336
 20
15.7779135011
 30
0.0
 11
10.7107035336
 21
15.8074850952
 31
0.0
  0
LINE
  5
22E
330
1F
100
AcDbEntity
  8
SLD-0
100
AcDbLine
 10
13.5221318022
 20
15.7702145659
 30
0.0
 11
13.7497754029
 21
14.5697841646
 31
0.0
  0
LINE
  5
22F
330
1F
100
AcDbEntity
  8
SLD-0
100
AcDbLine
 10
4.7828896031
 20
24.5524850952
 30
0.0
 11
4.0451814271
 21
24.7004575446
 31
0.0
  0
LINE
  5
230
330
1F
100
AcDbEntity
  8
SLD-0
100
AcDbLine
 10
4.8466452949
 20
21.6024850952
 30
0.0
 11
4.0433341848
 21
21.4399445072
 31
0.0
  0
LINE
  5
231
330
1F
100
AcDbEntity
  8
SLD-0
100
AcDbLine
 10
10.7507035336
 20
15.7702145659
 30
0.0
 11
10.5233490698
 21
14.5713088667
 31
0.0
  0
ARC
  5
232
330
1F
100
AcDbEntity
  8
SLD-0
100
AcDbCircle
 10
12.1364176679
 20
23.0774850952
 30
0.0
 40
7.437500000000002
100
AcDbArc
 50
280.7377805806
 51
168.5613049247
  0
DIMENSION
  5
233
330
1F
100
AcDbEntity
  8
SLD-0
100
AcDbDimension
  2
_D_2
 10
13.7497754029
 20
14.5697841646
 30
0.0
 11
21.7112208175
 21
27.2471912721
 31
0.0
 70
   162
  1
[SPECIFY LENGTH]
 71
     1
 42
-1.0
  3
SLDDIMSTYLE1
100
AcDb2LineAngularDimension
 13
4.7828896031
 23
24.5524850952
 33
0.0
 14
4.0451814271
 24
24.7004575446
 34
0.0
 15
13.5221318022
 25
15.7702145659
 35
0.0
 16
10.7947176287
 26
33.4342773573
 36
0.0
  0
DIMENSION
  5
23F
330
1F
100
AcDbEntity
  8
SLD-0
100
AcDbDimension
  2
_D_3
 10
10.7507035336
 20
15.7702145659
 30
0.0
 11
4.6310967998
 21
15.774205767
 31
0.0
 70
   162
  1
9"\P[229mm]
 71
     1
 42
-1.0
  3
SLDDIMSTYLE1
100
AcDb2LineAngularDimension
 13
4.0433341848
 23
21.4399445072
 33
0.0
 14
4.8466452949
 24
21.6024850952
 34
0.0
 15
10.5233490698
 25
14.5713088667
 35
0.0
 16
2.7438263236
 26
18.4463990329
 36
0.0
  0
LINE
  5
24B
330
1F
100
AcDbEntity
  8
0
  6
Continuous
 62
     7
370
    25
100
AcDbLine
 10
27.6850232076
 20
27.6867222365
 30
0.0
 11
27.6850232076
 21
26.0536406128
 31
0.0
  0
LINE
  5
24C
330
1F
100
AcDbEntity
  8
0
  6
Continuous
 62
     7
370
    25
100
AcDbLine
 10
42.6850232076
 20
26.0536406128
 30
0.0
 11
42.6850232076
 21
27.6867222365
 31
0.0
  0
LINE
  5
24D
330
1F
100
AcDbEntity
  8
0
  6
Continuous
 62
     7
370
    25
100
AcDbLine
 10
29.3748757585
 20
28.404163623
 30
0.0
 11
29.3748757585
 21
30.0611611735
 31
0.0
  0
LINE
  5
24E
330
1F
100
AcDbEntity
  8
0
  6
Continuous
 62
     7
370
    25
100
AcDbLine
 10
29.3748757584
 20
30.0611611732
 30
0.0
 11
29.5370037297
 21
30.1547556588
 31
0.0
  0
SPLINE
  5
24F
330
1F
100
AcDbEntity
  8
0
  6
Continuous
 62
     7
370
    25
100
AcDbSpline
210
0.0
220
0.0
230
1.0
 70
     8
 71
     3
 72
    11
 73
     7
 74
     0
 42
0.00000001
 43
0.00000001
 40
0.0
 40
0.0
 40
0.0
 40
0.0
 40
0.1689966201942902
 40
0.4348997929888496
 40
0.7103190388103402
 40
0.9999999999999999
 40
0.9999999999999999
 40
0.9999999999999999
 40
0.9999999999999999
 10
28.84025838244962
 20
30.35785487709892
 30
0.0
 10
28.83451390107025
 20
30.3540468818892
 30
0.0
 10
28.81973092044116
 20
30.34424729935018
 30
0.0
 10
28.80014603447426
 20
30.3207926360872
 30
0.0
 10
28.78349374054413
 20
30.28839300182159
 30
0.0
 10
28.78111856911362
 20
30.26520288120841
 30
0.0
 10
28.77990101170619
 20
30.25331519059003
 30
0.0
  0
LINE
  5
250
330
1F
100
AcDbEntity
  8
0
  6
Continuous
 62
     7
370
    25
100
AcDbLine
 10
29.20680087
 20
30.5694553511
 30
0.0
 11
28.8402583824
 21
30.3578548771
 31
0.0
  0
LINE
  5
251
330
1F
100
AcDbEntity
  8
0
  6
Continuous
 62
     7
370
    25
100
AcDbLine
 10
28.7799010117
 20
30.2533151906
 30
0.0
 11
28.7799010117
 21
29.9392105377
 31
0.0
  0
SPLINE
  5
252
330
1F
100
AcDbEntity
  8
0
  6
Continuous
 62
     7
370
    25
100
AcDbSpline
210
0.0
220
0.0
230
1.0
 70
     8
 71
     3
 72
    20
 73
    16
 74
     0
 42
0.00000001
 43
0.00000001
 40
0.0
 40
0.0
 40
0.0
 40
0.0
 40
0.1075449385716984
 40
0.2659886948524021
 40
0.3731333332487678
 40
0.4682798976862565
 40
0.5459867462869309
 40
0.6120338828622303
 40
0.6698198127527317
 40
0.72206456721942
 40
0.7773716665610073
 40
0.8303978420790522
 40
0.8884038870544048
 40
0.9556474435778997
 40
0.9999999999999999
 40
0.9999999999999999
 40
0.9999999999999999
 40
0.9999999999999999
 10
30.18664165620784
 20
31.13385810996373
 30
0.0
 10
30.16670574200527
 20
31.0971818400074
 30
0.0
 10
30.11739865354666
 20
31.00647117238044
 30
0.0
 10
30.04611127840434
 20
30.8802590663033
 30
0.0
 10
29.97404931987285
 20
30.76004929791615
 30
0.0
 10
29.91414316726575
 20
30.6696277369824
 30
0.0
 10
29.85958089258059
 20
30.59591908406602
 30
0.0
 10
29.81043086481598
 20
30.53816333379348
 30
0.0
 10
29.76513970778892
 20
30.49326779992879
 30
0.0
 10
29.72130544809842
 20
30.45812250111593
 30
0.0
 10
29.67923939502768
 20
30.43330423968531
 30
0.0
 10
29.63809941935375
 20
30.41799659448486
 30
0.0
 10
29.59701680334383
 20
30.41089610831683
 30
0.0
 10
29.56020293249631
 20
30.41052929905464
 30
0.0
 10
29.53734422505653
 20
30.41544154691482
 30
0.0
 10
29.528259301893
 20
30.4173938617816
 30
0.0
  0
LINE
  5
253
330
1F
100
AcDbEntity
  8
0
  6
Continuous
 62
     7
370
    25
100
AcDbLine
 10
30.6748431089
 20
29.1212882873
 30
0.0
 11
30.6748431089
 21
30.8258172321
 31
0.0
  0
LINE
  5
254
330
1F
100
AcDbEntity
  8
0
  6
Continuous
 62
     7
370
    25
100
AcDbLine
 10
30.7122691094
 20
30.8906414356
 30
0.0
 11
31.1980259213
 21
31.1710628741
 31
0.0
  0
SPLINE
  5
255
330
1F
100
AcDbEntity
  8
0
  6
Continuous
 62
     7
370
    25
100
AcDbSpline
210
0.0
220
0.0
230
1.0
 70
     8
 71
     3
 72
    10
 73
     6
 74
     0
 42
0.00000001
 43
0.00000001
 40
0.0
 40
0.0
 40
0.0
 40
0.0
 40
0.3130034835642977
 40
0.6268422618756456
 40
1.0
 40
1.0
 40
1.0
 40
1.0
 10
29.18677374789111
 20
28.2176861929294
 30
0.0
 10
29.19427201049038
 20
28.21417881577605
 30
0.0
 10
29.20928854587949
 20
28.20715470152973
 30
0.0
 10
29.23627197816876
 20
28.20808041185048
 30
0.0
 10
29.2526106558701
 20
28.21562695740195
 30
0.0
 10
29.26148537920436
 20
28.21972603476445
 30
0.0
  0
LINE
  5
256
330
1F
100
AcDbEntity
  8
0
  6
Continuous
 62
     7
370
    25
100
AcDbLine
 10
28.9224013183
 20
28.3697066341
 30
0.0
 11
29.1864914743
 21
28.2172506322
 31
0.0
  0
SPLINE
  5
257
330
1F
100
AcDbEntity
  8
0
  6
Continuous
 62
     7
370
    25
100
AcDbSpline
210
0.0
220
0.0
230
1.0
 70
     8
 71
     3
 72
    20
 73
    16
 74
     0
 42
0.00000001
 43
0.00000001
 40
0.0
 40
0.0
 40
0.0
 40
0.0
 40
0.103105048800602
 40
0.2624734663503124
 40
0.3704363612155054
 40
0.4663889947651044
 40
0.5448233878746752
 40
0.6114546920296794
 40
0.6696826055644022
 40
0.7221494138340792
 40
0.7776617820698866
 40
0.8307376894598363
 40
0.8883483721786947
 40
0.9550871714756318
 40
1.0
 40
1.0
 40
1.0
 40
1.0
 10
29.62981540514383
 20
28.43365019257611
 30
0.0
 10
29.64887763650923
 20
28.46872982271897
 30
0.0
 10
29.6974041635906
 20
28.55803167775897
 30
0.0
 10
29.76798589762684
 20
28.68303798412162
 30
0.0
 10
29.84022391719759
 20
28.80390173686554
 30
0.0
 10
29.90033285895666
 20
28.89499454532751
 30
0.0
 10
29.95513127420162
 20
28.96931191272132
 30
0.0
 10
30.00449549380559
 20
29.02759329539949
 30
0.0
 10
30.04993411902081
 20
29.07291124391908
 30
0.0
 10
30.09386766378272
 20
29.10843851564716
 30
0.0
 10
30.13602024029716
 20
29.13358389632771
 30
0.0
 10
30.17716624652904
 20
29.14925281091594
 30
0.0
 10
30.21798449135379
 20
29.15659332305851
 30
0.0
 10
30.25461219543239
 20
29.1571279597571
 30
0.0
 10
30.2774860361023
 20
29.15232327850182
 30
0.0
 10
30.28668723543766
 20
29.15039055410233
 30
0.0
  0
LINE
  5
258
330
1F
100
AcDbEntity
  8
0
  6
Continuous
 62
     7
370
    25
100
AcDbLine
 10
29.2614853792
 20
28.2197260348
 30
0.0
 11
29.6280278668
 21
28.4313265088
 31
0.0
  0
LINE
  5
259
330
1F
100
AcDbEntity
  8
0
  6
Continuous
 62
     7
370
    25
100
AcDbLine
 10
30.7140913526
 20
31.4395956253
 30
0.0
 11
30.1884498392
 21
31.1361492386
 31
0.0
  0
LINE
  5
25A
330
1F
100
AcDbEntity
  8
0
  6
Continuous
 62
     7
370
    25
100
AcDbLine
 10
31.2267117971
 20
31.2191877574
 30
0.0
 11
31.2108414656
 21
31.2322193283
 31
0.0
  0
LINE
  5
25B
330
1F
100
AcDbEntity
  8
0
  6
Continuous
 62
     7
370
    25
100
AcDbLine
 10
31.2103122543
 20
31.2327147035
 30
0.0
 11
30.8390811942
 21
31.4470218328
 31
0.0
  0
SPLINE
  5
25C
330
1F
100
AcDbEntity
  8
0
  6
Continuous
 62
     7
370
    25
100
AcDbSpline
210
0.0
220
0.0
230
1.0
 70
     8
 71
     3
 72
    10
 73
     6
 74
     0
 42
0.00000001
 43
0.00000001
 40
0.0
 40
0.0
 40
0.0
 40
0.0
 40
0.5409854563730845
 40
0.9316991114945712
 40
1.0
 40
1.0
 40
1.0
 40
1.0
 10
31.22795175217678
 20
31.20495849462124
 30
0.0
 10
31.22815085662816
 20
31.20663111530288
 30
0.0
 10
31.22849375945162
 20
31.20951174579783
 30
0.0
 10
31.22858203087478
 20
31.21145166199035
 30
0.0
 10
31.22856273958047
 20
31.2113099715705
 30
0.0
 10
31.22855986905586
 20
31.21128888818284
 30
0.0
  0
LINE
  5
25D
330
1F
100
AcDbEntity
  8
0
  6
Continuous
 62
     7
370
    25
100
AcDbLine
 10
31.2579843625
 20
29.5426400322
 30
0.0
 11
31.2579843625
 21
31.1348946154
 31
0.0
  0
SPLINE
  5
25E
330
1F
100
AcDbEntity
  8
0
  6
Continuous
 62
     7
370
    25
100
AcDbSpline
210
0.0
220
0.0
230
1.0
 70
     8
 71
     3
 72
    12
 73
     8
 74
     0
 42
0.00000001
 43
0.00000001
 40
0.0
 40
0.0
 40
0.0
 40
0.0
 40
0.00091587292421
 40
0.2773597696825338
 40
0.5456380841221027
 40
0.8233358740252017
 40
1.0
 40
1.0
 40
1.0
 40
1.0
 10
30.83892418102629
 20
31.44708993563755
 30
0.0
 10
30.83889402468564
 20
31.44711472389029
 30
0.0
 10
30.82976158340737
 20
31.45462151210009
 30
0.0
 10
30.80571921987733
 20
31.4602835187205
 30
0.0
 10
30.77073678098733
 20
31.46147998465758
 30
0.0
 10
30.73969105048052
 20
31.4530679625402
 30
0.0
 10
30.72125832820574
 20
31.44336738511524
 30
0.0
 10
30.71409135259398
 20
31.43959562526402
 30
0.0
  0
LINE
  5
25F
330
1F
100
AcDbEntity
  8
0
  6
Continuous
 62
     7
370
    25
100
AcDbLine
 10
30.609676836
 20
28.9980203963
 30
0.0
 11
31.1353183493
 21
29.3014667829
 31
0.0
  0
SPLINE
  5
260
330
1F
100
AcDbEntity
  8
0
  6
Continuous
 62
     7
370
    25
100
AcDbSpline
210
0.0
220
0.0
230
1.0
 70
     8
 71
     3
 72
    11
 73
     7
 74
     0
 42
0.00000001
 43
0.00000001
 40
0.0
 40
0.0
 40
0.0
 40
0.0
 40
0.2101402761622558
 40
0.5888454178847983
 40
0.9663180053267761
 40
1.0
 40
1.0
 40
1.0
 40
1.0
 10
31.13531834934873
 20
29.30146678292954
 30
0.0
 10
31.14235451358084
 20
29.30587609592148
 30
0.0
 10
31.16207092941141
 20
29.31823167001105
 30
0.0
 10
31.19136569204718
 20
29.34641923285121
 30
0.0
 10
31.21401155189028
 20
29.37307273620035
 30
0.0
 10
31.22243185436522
 20
29.3890874707294
 30
0.0
 10
31.22312164987146
 20
29.39039940601254
 30
0.0
  0
SPLINE
  5
261
330
1F
100
AcDbEntity
  8
0
  6
Continuous
 62
     7
370
    25
100
AcDbSpline
210
0.0
220
0.0
230
1.0
 70
     8
 71
     3
 72
    11
 73
     7
 74
     0
 42
0.00000001
 43
0.00000001
 40
0.0
 40
0.0
 40
0.0
 40
0.0
 40
0.3013004841567837
 40
0.6360657689913469
 40
0.8579992494981324
 40
0.9999999999999999
 40
0.9999999999999999
 40
0.9999999999999999
 40
0.9999999999999999
 10
31.22790664278312
 20
29.40126456233962
 30
0.0
 10
31.22814202201279
 20
29.40405002984936
 30
0.0
 10
31.22863892354
 20
29.40993034079059
 30
0.0
 10
31.22876787136742
 20
29.41985013156403
 30
0.0
 10
31.2303140604342
 20
29.4293190173545
 30
0.0
 10
31.23221441803221
 20
29.43392074301251
 30
0.0
 10
31.23295590421885
 20
29.43571625561167
 30
0.0
  0
LINE
  5
262
330
1F
100
AcDbEntity
  8
0
  6
Continuous
 62
     7
370
    25
100
AcDbLine
 10
28.0888070248
 20
24.2823364469
 30
0.0
 11
28.0819870412
 21
24.2865584619
 31
0.0
  0
LINE
  5
263
330
1F
100
AcDbEntity
  8
0
  6
Continuous
 62
     7
370
    25
100
AcDbLine
 10
27.8644223896
 20
23.2215213616
 30
0.0
 11
27.8712423732
 21
23.2172993465
 31
0.0
  0
LINE
  5
264
330
1F
100
AcDbEntity
  8
0
  6
Continuous
 62
     7
370
    25
100
AcDbLine
 10
31.1090730981
 20
23.2450704079
 30
0.0
 11
31.1203849678
 21
23.2516027343
 31
0.0
  0
LINE
  5
265
330
1F
100
AcDbEntity
  8
0
  6
Continuous
 62
     7
370
    25
100
AcDbLine
 10
31.2045169988
 20
23.3973394773
 30
0.0
 11
31.2045169988
 21
23.4104020071
 31
0.0
  0
LINE
  5
266
330
1F
100
AcDbEntity
  8
0
  6
Continuous
 62
     7
370
    25
100
AcDbLine
 10
31.1765520978
 20
23.4722110559
 30
0.0
 11
31.0719002941
 21
23.5326252562
 31
0.0
  0
LINE
  5
267
330
1F
100
AcDbEntity
  8
0
  6
Continuous
 62
     7
370
    25
100
AcDbLine
 10
30.9369112652
 20
23.2987920634
 30
0.0
 11
31.0415630688
 21
23.2383778631
 31
0.0
  0
LINE
  5
268
330
1F
100
AcDbEntity
  8
0
  6
Continuous
 62
     7
370
    25
100
AcDbLine
 10
31.1090730981
 20
22.7347324005
 30
0.0
 11
31.1203849678
 21
22.7412647269
 31
0.0
  0
LINE
  5
269
330
1F
100
AcDbEntity
  8
0
  6
Continuous
 62
     7
370
    25
100
AcDbLine
 10
31.2045169988
 20
22.8870014698
 30
0.0
 11
31.2045169988
 21
22.9000639996
 31
0.0
  0
LINE
  5
26A
330
1F
100
AcDbEntity
  8
0
  6
Continuous
 62
     7
370
    25
100
AcDbLine
 10
31.1765520978
 20
22.9618730485
 30
0.0
 11
31.0719002941
 21
23.0222872488
 31
0.0
  0
LINE
  5
26B
330
1F
100
AcDbEntity
  8
0
  6
Continuous
 62
     7
370
    25
100
AcDbLine
 10
30.9369112652
 20
22.7884540559
 30
0.0
 11
31.0415630688
 21
22.7280398557
 31
0.0
  0
LINE
  5
26C
330
1F
100
AcDbEntity
  8
0
  6
Continuous
 62
     7
370
    25
100
AcDbLine
 10
28.9767649106
 20
24.020387059
 30
0.0
 11
28.9800170731
 21
24.0222651029
 31
0.0
  0
LINE
  5
26D
330
1F
100
AcDbEntity
  8
0
  6
Continuous
 62
     7
370
    25
100
AcDbLine
 10
31.0776498269
 20
23.5425848181
 30
0.0
 11
31.0493655556
 21
23.5589129804
 31
0.0
  0
LINE
  5
26E
330
1F
100
AcDbEntity
  8
0
  6
Continuous
 62
     7
370
    25
100
AcDbLine
 10
30.9028774613
 20
23.3051606637
 30
0.0
 11
30.9311617325
 21
23.2888325014
 31
0.0
  0
LINE
  5
26F
330
1F
100
AcDbEntity
  8
0
  6
Continuous
 62
     7
370
    25
100
AcDbLine
 10
31.0776498269
 20
23.0322468107
 30
0.0
 11
31.0493655556
 21
23.0485749729
 31
0.0
  0
LINE
  5
270
330
1F
100
AcDbEntity
  8
0
  6
Continuous
 62
     7
370
    25
100
AcDbLine
 10
30.9028774613
 20
22.7948226562
 30
0.0
 11
30.9311617325
 21
22.778494494
 31
0.0
  0
LINE
  5
271
330
1F
100
AcDbEntity
  8
0
  6
Continuous
 62
     7
370
    25
100
AcDbLine
 10
30.8597517103
 20
23.2827151901
 30
0.0
 11
30.8823791273
 21
23.2696526603
 31
0.0
  0
LINE
  5
272
330
1F
100
AcDbEntity
  8
0
  6
Continuous
 62
     7
370
    25
100
AcDbLine
 10
31.0698638896
 20
23.5944209837
 30
0.0
 11
31.0472364726
 21
23.6074835135
 31
0.0
  0
LINE
  5
273
330
1F
100
AcDbEntity
  8
0
  6
Continuous
 62
     7
370
    25
100
AcDbLine
 10
30.8597517103
 20
22.7723771827
 30
0.0
 11
30.8823791273
 21
22.7593146529
 31
0.0
  0
LINE
  5
274
330
1F
100
AcDbEntity
  8
0
  6
Continuous
 62
     7
370
    25
100
AcDbLine
 10
31.0698638896
 20
23.0840829763
 30
0.0
 11
31.0472364726
 21
23.0971455061
 31
0.0
  0
LINE
  5
275
330
1F
100
AcDbEntity
  8
0
  6
Continuous
 62
     7
370
    25
100
AcDbLine
 10
29.9744341998
 20
26.0112796588
 30
0.0
 11
29.9744341998
 21
26.0684823404
 31
0.0
  0
LINE
  5
276
330
1F
100
AcDbEntity
  8
0
  6
Continuous
 62
     7
370
    25
100
AcDbLine
 10
29.1844341998
 20
26.0684823404
 30
0.0
 11
29.1844341998
 21
26.0252315857
 31
0.0
  0
LINE
  5
277
330
1F
100
AcDbEntity
  8
0
  6
Continuous
 62
     7
370
    25
100
AcDbLine
 10
30.9997390325
 20
25.4193837778
 30
0.0
 11
30.9997390325
 21
25.4765864594
 31
0.0
  0
LINE
  5
278
330
1F
100
AcDbEntity
  8
0
  6
Continuous
 62
     7
370
    25
100
AcDbLine
 10
30.2097390325
 20
25.4765864594
 30
0.0
 11
30.2097390325
 21
25.4333357047
 31
0.0
  0
LINE
  5
279
330
1F
100
AcDbEntity
  8
0
  6
Continuous
 62
     7
370
    25
100
AcDbLine
 10
29.616581543
 20
26.5330521024
 30
0.0
 11
27.739090702
 21
25.5954989699
 31
0.0
  0
ARC
  5
27A
330
1F
100
AcDbEntity
  8
0
  6
Continuous
 62
     7
370
    25
100
AcDbCircle
 10
31.4447659303
 20
25.4378671052
 30
0.0
 40
0.0625000000000004
100
AcDbArc
 50
0.0
 51
60.0026882664
  0
LINE
  5
27B
330
1F
100
AcDbEntity
  8
0
  6
Continuous
 62
     7
370
    25
100
AcDbLine
 10
31.5072659303
 20
21.9055484089
 30
0.0
 11
31.5072659303
 21
22.2802759153
 31
0.0
  0
LINE
  5
27C
330
1F
100
AcDbEntity
  8
0
  6
Continuous
 62
     7
370
    25
100
AcDbLine
 10
31.5072659303
 20
23.9548124496
 30
0.0
 11
31.5072659303
 21
25.4378671052
 31
0.0
  0
LINE
  5
27D
330
1F
100
AcDbEntity
  8
0
  6
Continuous
 62
     7
370
    25
100
AcDbLine
 10
31.4760133907
 20
25.4919951591
 30
0.0
 11
29.6757514423
 21
26.5312642605
 31
0.0
  0
LINE
  5
27E
330
1F
100
AcDbEntity
  8
0
  6
Continuous
 62
     7
370
    25
100
AcDbLine
 10
31.5558660606
 20
25.0137752834
 30
0.0
 11
31.5558660606
 21
25.0831812524
 31
0.0
  0
LINE
  5
27F
330
1F
100
AcDbEntity
  8
0
  6
Continuous
 62
     7
370
    25
100
AcDbLine
 10
29.728435877
 20
20.6963977235
 30
0.0
 11
31.4792244221
 21
21.8534056976
 31
0.0
  0
ARC
  5
280
330
1F
100
AcDbEntity
  8
0
  6
Continuous
 62
     7
370
    25
100
AcDbCircle
 10
29.6445039819
 20
26.4771362066
 30
0.0
 40
0.0625000000000022
100
AcDbArc
 50
60.0026882663
 51
116.5359355438
  0
SPLINE
  5
281
330
1F
100
AcDbEntity
  8
0
  6
Continuous
 62
     7
370
    25
100
AcDbSpline
210
0.0
220
0.0
230
1.0
 70
     8
 71
     3
 72
    12
 73
     8
 74
     0
 42
0.00000001
 43
0.00000001
 40
0.0
 40
0.0
 40
0.0
 40
0.0
 40
0.2028754601709774
 40
0.4310185710236937
 40
0.6556140818637144
 40
0.8736609259411853
 40
1.0
 40
1.0
 40
1.0
 40
1.0
 10
29.64478339028122
 20
22.78732740726833
 30
0.0
 10
29.62798329333469
 20
22.7748317407454
 30
0.0
 10
29.59229068776845
 20
22.74828410248416
 30
0.0
 10
29.5502765533988
 20
22.70085140262553
 30
0.0
 10
29.51854894025236
 20
22.64774952739677
 30
0.0
 10
29.50072421622636
 20
22.59926545686596
 30
0.0
 10
29.49899674214657
 20
22.56884200432292
 30
0.0
 10
29.49836301276273
 20
22.55768106358307
 30
0.0
  0
LINE
  5
282
330
1F
100
AcDbEntity
  8
0
  6
Continuous
 62
     7
370
    25
100
AcDbLine
 10
29.4964317698
 20
22.5511023777
 30
0.0
 11
29.489461614
 21
22.3881712066
 31
0.0
  0
LINE
  5
283
330
1F
100
AcDbEntity
  8
0
  6
Continuous
 62
     7
370
    25
100
AcDbLine
 10
28.3866273794
 20
22.3121503807
 30
0.0
 11
29.4643890363
 21
22.9343289418
 31
0.0
  0
ARC
  5
284
330
1F
100
AcDbEntity
  8
0
  6
Continuous
 62
     7
370
    25
100
AcDbCircle
 10
31.4447659303
 20
21.9055484089
 30
0.0
 40
0.0625000000000036
100
AcDbArc
 50
303.4587075228
 51
0.0
  0
LINE
  5
285
330
1F
100
AcDbEntity
  8
0
  6
Continuous
 62
     7
370
    25
100
AcDbLine
 10
29.6438573109
 20
23.6229967051
 30
0.0
 11
29.6447833903
 21
23.6234797679
 31
0.0
  0
LINE
  5
286
330
1F
100
AcDbEntity
  8
0
  6
Continuous
 62
     7
370
    25
100
AcDbLine
 10
28.4454181997
 20
24.2940316553
 30
0.0
 11
28.4412580097
 21
24.2966070845
 31
0.0
  0
LINE
  5
287
330
1F
100
AcDbEntity
  8
0
  6
Continuous
 62
     7
370
    25
100
AcDbLine
 10
28.1012046879
 20
23.5323457964
 30
0.0
 11
28.1053648779
 21
23.5297703672
 31
0.0
  0
LWPOLYLINE
  5
288
330
1F
100
AcDbEntity
  8
0
  6
Continuous
 62
     7
370
    25
100
AcDbPolyline
 90
       25
 70
   128
 43
0.0
 10
28.3521390341
 20
25.9016338237
 10
28.3026782529
 20
25.9661212781
 10
28.1800882967
 20
26.1397541428
 10
28.0706356152
 20
26.31628824
 10
27.9745254795
 20
26.4953924921
 10
27.8919381376
 20
26.6767310014
 10
27.8230284763
 20
26.8599636799
 10
27.767925731
 20
27.0447468875
 10
27.7267332431
 20
27.2307340757
 10
27.6995282663
 20
27.4175764384
 10
27.6863618216
 20
27.6049235657
 10
27.6872586019
 20
27.7924241007
 10
27.7022169252
 20
27.9797263991
 10
27.7312087383
 20
28.1664791883
 10
27.774179669
 20
28.3523322263
 10
27.8310491282
 20
28.5369369584
 10
27.9017104613
 20
28.7199471711
 10
27.9860311477
 20
28.9010196414
 10
28.0838530497
 20
29.0798147802
 10
28.1949927091
 20
29.2559972695
 10
28.3192416911
 20
29.4292366911
 10
28.4563669753
 20
29.5992081465
 10
28.6061113925
 20
29.7655928658
 10
28.7681941075
 20
29.9280788058
 10
28.9423111451
 20
30.0863612354
  0
LINE
  5
289
330
1F
100
AcDbEntity
  8
0
  6
Continuous
 62
     7
370
    25
100
AcDbLine
 10
28.9423111451
 20
30.0863612354
 30
0.0
 11
28.9873932271
 21
30.0603359034
 31
0.0
  0
LWPOLYLINE
  5
28A
330
1F
100
AcDbEntity
  8
0
  6
Continuous
 62
     7
370
    25
100
AcDbPolyline
 90
       24
 70
   128
 43
0.0
 10
28.9873932271
 20
30.0603359034
 10
28.8131413032
 20
29.9012453984
 10
28.6511351484
 20
29.7378989233
 10
28.5016861134
 20
29.5706104045
 10
28.3650814161
 20
29.3997013449
 10
28.2415835895
 20
29.2255002049
 10
28.1314299772
 20
29.0483417723
 10
28.0348322775
 20
28.8685665181
 10
27.9519761362
 20
28.6865199423
 10
27.8830207899
 20
28.5025519105
 10
27.8280987601
 20
28.3170159804
 10
27.7873155984
 20
28.1302687235
 10
27.7607496837
 20
27.9426690391
 10
27.7484520717
 20
27.7545774646
 10
27.7504463963
 20
27.5663554828
 10
27.7667288249
 20
27.3783648273
 10
27.7972680651
 20
27.1909667869
 10
27.8420054252
 20
27.0045215116
 10
27.900854927
 20
26.8193873204
 10
27.9737034709
 20
26.6359200123
 10
28.0604110532
 20
26.4544721833
 10
28.1608110354
 20
26.2753925477
 10
28.2747104643
 20
26.099025269
 10
28.4014594179
 20
25.926262695
  0
LINE
  5
28B
330
1F
100
AcDbEntity
  8
0
  6
Continuous
 62
     7
370
    25
100
AcDbLine
 10
28.9873932271
 20
30.0603359034
 30
0.0
 11
28.9873932271
 21
28.4272542796
 31
0.0
  0
LWPOLYLINE
  5
28C
330
1F
100
AcDbEntity
  8
0
  6
Continuous
 62
     7
370
    25
100
AcDbPolyline
 90
       10
 70
   128
 43
0.0
 10
28.9873932271
 20
28.4272542796
 10
28.8131413032
 20
28.2681637746
 10
28.6511351484
 20
28.1048172995
 10
28.5016861134
 20
27.9375287808
 10
28.3650814161
 20
27.7666197211
 10
28.2415835895
 20
27.5924185811
 10
28.1314299772
 20
27.4152601485
 10
28.0348322775
 20
27.2354848943
 10
27.9519761362
 20
27.0534383186
 10
27.883259309
 20
26.8701814247
  0
ARC
  5
28D
330
1F
100
AcDbEntity
  8
0
  6
Continuous
 62
     7
370
    25
100
AcDbCircle
 10
30.2139371875
 20
26.0550296116
 30
0.0
 40
2.528914361325695
100
AcDbArc
 50
180.0314695409
 51
190.7065824397
  0
ARC
  5
28E
330
1F
100
AcDbEntity
  8
0
  6
Continuous
 62
     7
370
    25
100
AcDbCircle
 10
31.0288124832
 20
23.9778983662
 30
0.0
 40
0.0978816280691873
100
AcDbArc
 50
69.6743096019
 51
117.0715114428
  0
LINE
  5
28F
330
1F
100
AcDbEntity
  8
0
  6
Continuous
 62
     7
370
    25
100
AcDbLine
 10
30.984266337
 20
24.0650560048
 30
0.0
 11
30.5645853618
 21
23.8227793348
 31
0.0
  0
LINE
  5
290
330
1F
100
AcDbEntity
  8
0
  6
Continuous
 62
     7
370
    25
100
AcDbLine
 10
30.5645853618
 20
23.8227793348
 30
0.0
 11
30.5080168193
 21
23.8554356593
 31
0.0
  0
LINE
  5
291
330
1F
100
AcDbEntity
  8
0
  6
Continuous
 62
     7
370
    25
100
AcDbLine
 10
30.5080168193
 20
23.8554356593
 30
0.0
 11
30.9978505256
 21
24.1382106389
 31
0.0
  0
LWPOLYLINE
  5
292
330
1F
100
AcDbEntity
  8
0
  6
Continuous
 62
     7
370
    25
100
AcDbPolyline
 90
      101
 70
   128
 43
0.0
 10
30.9978505256
 20
24.1382106389
 10
31.2675565551
 20
24.0370099141
 10
31.5445904486
 20
23.942636202
 10
31.8284339968
 20
23.8552660347
 10
32.1185562529
 20
23.7750628433
 10
32.4144145252
 20
23.702176653
 10
32.7154553926
 20
23.6367438017
 10
33.0211157394
 20
23.5788866859
 10
33.3308238091
 20
23.5287135306
 10
33.6440002735
 20
23.4863181881
 10
33.9600593167
 20
23.4517799613
 10
34.2784097307
 20
23.4251634561
 10
34.5984560213
 20
23.4065184604
 10
34.9195995222
 20
23.3958798508
 10
35.2412395145
 20
23.3932675275
 10
35.5627743506
 20
23.398686377
 10
35.8836025799
 20
23.4121262629
 10
36.2031240733
 20
23.4335620452
 10
36.5207411459
 20
23.4629536269
 10
36.8358596755
 20
23.5002460292
 10
37.1478902133
 20
23.5453694944
 10
37.4562490868
 20
23.5982396162
 10
37.7603594918
 20
23.6587574978
 10
38.0596525709
 20
23.7268099368
 10
38.3535684777
 20
23.8022696369
 10
38.6415574246
 20
23.8849954459
 10
38.9230807102
 20
23.9748326203
 10
39.1976117279
 20
24.0716131139
 10
39.4646369505
 20
24.1751558929
 10
39.7236568906
 20
24.2852672741
 10
39.9741870355
 20
24.4017412873
 10
40.215758753
 20
24.5243600607
 10
40.4479201683
 20
24.6528942283
 10
40.6702370091
 20
24.787103359
 10
40.882293418
 20
24.9267364063
 10
41.0836927302
 20
25.0715321779
 10
41.2740582161
 20
25.2212198244
 10
41.4530337851
 20
25.3755193457
 10
41.6202846523
 20
25.5341421151
 10
41.7754979646
 20
25.6967914189
 10
41.9183833861
 20
25.8631630114
 10
42.0486736405
 20
26.0329456843
 10
42.1661250119
 20
26.2058218487
 10
42.2705178004
 20
26.3814681288
 10
42.3616567326
 20
26.5595559676
 10
42.4393713276
 20
26.7397522406
 10
42.5035162155
 20
26.9217198797
 10
42.5539714091
 20
27.105118503
 10
42.5906425291
 20
27.289605052
 10
42.6134609797
 20
27.4748344334
 10
42.6223840777
 20
27.660460164
 10
42.6173951319
 20
27.8461350194
 10
42.5985034743
 20
28.0315116833
 10
42.565744443
 20
28.2162433973
 10
42.5191793158
 20
28.3999846091
 10
42.4588951957
 20
28.5823916196
 10
42.3850048477
 20
28.763123225
 10
42.2976464885
 20
28.9418413557
 10
42.1969835272
 20
29.1182117084
 10
42.0832042601
 20
29.2919043715
 10
41.9565215183
 20
29.462594442
 10
41.8171722698
 20
29.6299626337
 10
41.6654171761
 20
29.7936958739
 10
41.5015401042
 20
29.9534878895
 10
41.3258475966
 20
30.1090397797
 10
41.1386682968
 20
30.2600605749
 10
40.9403523354
 20
30.4062677815
 10
40.7312706746
 20
30.5473879099
 10
40.5118144147
 20
30.683156986
 10
40.2823940621
 20
30.8133210455
 10
40.0434387618
 20
30.9376366084
 10
39.7953954945
 20
31.0558711347
 10
39.5387282404
 20
31.1678034595
 10
39.2739171116
 20
31.2732242063
 10
39.0014574537
 20
31.3719361793
 10
38.7218589193
 20
31.4637547314
 10
38.4356445148
 20
31.5485081106
 10
38.1433496219
 20
31.6260377801
 10
37.8455209964
 20
31.6961987162
 10
37.5427157451
 20
31.7588596783
 10
37.2355002839
 20
31.8139034553
 10
36.9244492785
 20
31.8612270843
 10
36.6101445689
 20
31.9007420437
 10
36.2931740816
 20
31.9323744182
 10
35.9741307295
 20
31.9560650375
 10
35.653611303
 20
31.9717695868
 10
35.3322153534
 20
31.9794586898
 10
35.0105440718
 20
31.9791179636
 10
34.6891991642
 20
31.9707480454
 10
34.3687817262
 20
31.9543645919
 10
34.0498911184
 20
31.9299982491
 10
33.7331238454
 20
31.897694596
 10
33.4190724401
 20
31.8575140584
 10
33.108324355
 20
31.8095317965
 10
32.8014608636
 20
31.7538375642
 10
32.4990559731
 20
31.6905355409
 10
32.2016753506
 20
31.619744137
 10
31.9098752649
 20
31.5415957722
 10
31.6242015461
 20
31.4562366279
 10
31.3451885647
 20
31.3638263736
 10
31.1227204264
 20
31.2832803894
  0
LWPOLYLINE
  5
293
330
1F
100
AcDbEntity
  8
0
  6
Continuous
 62
     7
370
    25
100
AcDbPolyline
 90
      102
 70
   128
 43
0.0
 10
31.0775649822
 20
31.3093480725
 10
31.3011750888
 20
31.3906302398
 10
31.5812907757
 20
31.4838148862
 10
31.868102715
 20
31.5699439891
 10
32.161077969
 20
31.6488575082
 10
32.4596721476
 20
31.720408811
 10
32.7633304198
 20
31.7844649447
 10
33.0714885451
 20
31.8409068839
 10
33.3835739214
 20
31.8896297514
 10
33.6990066492
 20
31.930543013
 10
34.0172006092
 20
31.9635706462
 10
34.3375645513
 20
31.9886512807
 10
34.6595031933
 20
32.0057383131
 10
34.9824183269
 20
32.0147999934
 10
35.3057099296
 20
32.0158194836
 10
35.628777279
 20
32.0087948892
 10
35.9510200695
 20
31.9937392632
 10
36.2718395279
 20
31.9706805809
 10
36.5906395255
 20
31.9396616886
 10
36.9068276861
 20
31.9007402241
 10
37.2198164866
 20
31.8539885088
 10
37.529024349
 20
31.7994934143
 10
37.8338767206
 20
31.7373562003
 10
38.1338071419
 20
31.6676923265
 10
38.4282582991
 20
31.5906312385
 10
38.7166830597
 20
31.5063161269
 10
38.9985454891
 20
31.4149036613
 10
39.2733218463
 20
31.3165636991
 10
39.5405015575
 20
31.2114789701
 10
39.7995881643
 20
31.0998447368
 10
40.0501002466
 20
30.9818684317
 10
40.2915723171
 20
30.8577692717
 10
40.5235556858
 20
30.7277778509
 10
40.7456192945
 20
30.5921357119
 10
40.957350517
 20
30.4510948975
 10
41.1583559262
 20
30.3049174815
 10
41.3482620253
 20
30.1538750828
 10
41.5267159415
 20
29.9982483597
 10
41.6933860817
 20
29.8383264891
 10
41.847962749
 20
29.6744066287
 10
41.9901587175
 20
29.5067933652
 10
42.1197097669
 20
29.3357981482
 10
42.2363751727
 20
29.1617387113
 10
42.3399381537
 20
28.9849384819
 10
42.4302062751
 20
28.8057259803
 10
42.5070118057
 20
28.624434209
 10
42.5702120299
 20
28.4414000342
 10
42.6196895125
 20
28.2569635596
 10
42.6553523174
 20
28.0714674948
 10
42.6771341777
 20
27.885256518
 10
42.6849946198
 20
27.6986766359
 10
42.6789190379
 20
27.5120745409
 10
42.6589187211
 20
27.3257969664
 10
42.625030833
 20
27.1401900429
 10
42.5773183421
 20
26.9555986547
 10
42.5158699052
 20
26.7723657992
 10
42.4407997021
 20
26.5908319492
 10
42.3522472242
 20
26.4113344208
 10
42.2503770147
 20
26.2342067461
 10
42.135378363
 20
26.0597780538
 10
42.0074649531
 20
25.8883724575
 10
41.8668744666
 20
25.7203084534
 10
41.7138681407
 20
25.5558983285
 10
41.5487302833
 20
25.3954475804
 10
41.3717677441
 20
25.2392543498
 10
41.1833093449
 20
25.0876088661
 10
40.9837052686
 20
24.9407929083
 10
40.7733264081
 20
24.7990792815
 10
40.5525636777
 20
24.6627313102
 10
40.3218272861
 20
24.5320023483
 10
40.0815459748
 20
24.407135309
 10
39.8321662209
 20
24.2883622134
 10
39.5741514078
 20
24.1759037587
 10
39.3079809641
 20
24.069968909
 10
39.0341494727
 20
23.9707545065
 10
38.7531657519
 20
23.8784449057
 10
38.4655519098
 20
23.7932116312
 10
38.1718423741
 20
23.7152130587
 10
37.8725828995
 20
23.6445941205
 10
37.5683295529
 20
23.581486037
 10
37.2596476808
 20
23.526006072
 10
36.9471108585
 20
23.4782573152
 10
36.6312998242
 20
23.4383284907
 10
36.3128014003
 20
23.406293792
 10
35.9922074025
 20
23.3822127441
 10
35.6701135405
 20
23.3661300931
 10
35.347118311
 20
23.3580757228
 10
35.0238218855
 20
23.3580645995
 10
34.7008249953
 20
23.3660967438
 10
34.3787278148
 20
23.3821572308
 10
34.058128847
 20
23.4062162179
 10
33.7396238108
 20
23.4382289999
 10
33.4238045343
 20
23.4781360926
 10
33.111257855
 20
23.5258633428
 10
32.8025645296
 20
23.5813220665
 10
32.4982981546
 20
23.6444092133
 10
32.1990241007
 20
23.7150075583
 10
31.9052984619
 20
23.7929859197
 10
31.6176670228
 20
23.8781994023
 10
31.3366642439
 20
23.9704896674
 10
31.0628122686
 20
24.0696852264
 10
31.0628122686
 20
24.0696852264
  0
LWPOLYLINE
  5
294
330
1F
100
AcDbEntity
  8
0
  6
Continuous
 62
     7
370
    25
100
AcDbPolyline
 90
       51
 70
   128
 43
0.0
 10
42.6850232076
 20
26.0536406128
 10
42.6789190379
 20
25.8789929172
 10
42.6589187211
 20
25.6927153427
 10
42.625030833
 20
25.5071084192
 10
42.5773183421
 20
25.322517031
 10
42.5158699052
 20
25.1392841754
 10
42.4407997021
 20
24.9577503254
 10
42.3522472242
 20
24.778252797
 10
42.2503770147
 20
24.6011251223
 10
42.135378363
 20
24.42669643
 10
42.0074649531
 20
24.2552908337
 10
41.8668744666
 20
24.0872268296
 10
41.7138681407
 20
23.9228167047
 10
41.5487302833
 20
23.7623659567
 10
41.3717677441
 20
23.6061727261
 10
41.1833093449
 20
23.4545272423
 10
40.9837052686
 20
23.3077112845
 10
40.7733264081
 20
23.1659976578
 10
40.5525636777
 20
23.0296496864
 10
40.3218272861
 20
22.8989207245
 10
40.0815459748
 20
22.7740536853
 10
39.8321662209
 20
22.6552805896
 10
39.5741514078
 20
22.5428221349
 10
39.3079809641
 20
22.4368872853
 10
39.0341494727
 20
22.3376728827
 10
38.7531657519
 20
22.245363282
 10
38.4655519098
 20
22.1601300075
 10
38.1718423741
 20
22.0821314349
 10
37.8725828995
 20
22.0115124968
 10
37.5683295529
 20
21.9484044133
 10
37.2596476808
 20
21.8929244483
 10
36.9471108585
 20
21.8451756915
 10
36.6312998242
 20
21.805246867
 10
36.3128014003
 20
21.7732121682
 10
35.9922074025
 20
21.7491311203
 10
35.6701135405
 20
21.7330484693
 10
35.347118311
 20
21.7249940991
 10
35.0238218855
 20
21.7249829757
 10
34.7008249953
 20
21.73301512
 10
34.3787278148
 20
21.7490756071
 10
34.058128847
 20
21.7731345941
 10
33.7396238108
 20
21.8051473762
 10
33.4238045343
 20
21.8450544689
 10
33.111257855
 20
21.8927817191
 10
32.8025645296
 20
21.9482404427
 10
32.4982981546
 20
22.0113275896
 10
32.1990241007
 20
22.0819259346
 10
31.9052984619
 20
22.1599042959
 10
31.6176670228
 20
22.2451177786
 10
31.3366642439
 20
22.3374080437
 10
31.0628122686
 20
22.4366036026
  0
LWPOLYLINE
  5
295
330
1F
100
AcDbEntity
  8
0
  6
Continuous
 62
     7
370
    25
100
AcDbPolyline
 90
       47
 70
   128
 43
0.0
 10
42.4867871063
 20
26.8701814247
 10
42.4588951957
 20
26.9493099958
 10
42.3850048477
 20
27.1300416012
 10
42.2976464885
 20
27.3087597319
 10
42.1969835272
 20
27.4851300847
 10
42.0832042601
 20
27.6588227477
 10
41.9565215183
 20
27.8295128183
 10
41.8171722698
 20
27.9968810099
 10
41.6654171761
 20
28.1606142501
 10
41.5015401042
 20
28.3204062658
 10
41.3258475966
 20
28.4759581559
 10
41.1386682968
 20
28.6269789512
 10
40.9403523354
 20
28.7731861578
 10
40.7312706746
 20
28.9143062861
 10
40.5118144147
 20
29.0500753622
 10
40.2823940621
 20
29.1802394217
 10
40.0434387618
 20
29.3045549846
 10
39.7953954945
 20
29.4227895109
 10
39.5387282404
 20
29.5347218357
 10
39.2739171116
 20
29.6401425826
 10
39.0014574537
 20
29.7388545555
 10
38.7218589193
 20
29.8306731077
 10
38.4356445148
 20
29.9154264868
 10
38.1433496219
 20
29.9929561564
 10
37.8455209964
 20
30.0631170924
 10
37.5427157451
 20
30.1257780545
 10
37.2355002839
 20
30.1808218315
 10
36.9244492785
 20
30.2281454606
 10
36.6101445689
 20
30.2676604199
 10
36.2931740816
 20
30.2992927944
 10
35.9741307295
 20
30.3229834137
 10
35.653611303
 20
30.338687963
 10
35.3322153534
 20
30.346377066
 10
35.0105440718
 20
30.3460363398
 10
34.6891991642
 20
30.3376664217
 10
34.3687817262
 20
30.3212829681
 10
34.0498911184
 20
30.2969166254
 10
33.7331238454
 20
30.2646129722
 10
33.4190724401
 20
30.2244324346
 10
33.108324355
 20
30.1764501728
 10
32.8014608636
 20
30.1207559404
 10
32.4990559731
 20
30.0574539172
 10
32.2016753506
 20
29.9866625133
 10
31.9098752649
 20
29.9085141485
 10
31.6242015461
 20
29.8231550041
 10
31.3451885647
 20
29.7307447498
 10
31.2579843625
 20
29.6999230696
  0
LINE
  5
296
330
1F
100
AcDbEntity
  8
0
  6
Continuous
 62
     7
370
    25
100
AcDbLine
 10
30.5645853618
 20
22.189697711
 30
0.0
 11
30.5645853618
 21
23.8227793348
 31
0.0
  0
LINE
  5
297
330
1F
100
AcDbEntity
  8
0
  6
Continuous
 62
     7
370
    25
100
AcDbLine
 10
30.984266337
 20
22.431974381
 30
0.0
 11
30.5645853618
 21
22.189697711
 31
0.0
  0
LINE
  5
298
330
1F
100
AcDbEntity
  8
0
  6
Continuous
 62
     7
370
    25
100
AcDbLine
 10
30.5080168193
 20
22.2223540355
 30
0.0
 11
30.5080168193
 21
23.8554356593
 31
0.0
  0
LINE
  5
299
330
1F
100
AcDbEntity
  8
0
  6
Continuous
 62
     7
370
    25
100
AcDbLine
 10
30.5645853618
 20
22.189697711
 30
0.0
 11
30.5080168193
 21
22.2223540355
 31
0.0
  0
ARC
  5
29A
330
1F
100
AcDbEntity
  8
0
  6
Continuous
 62
     7
370
    25
100
AcDbCircle
 10
31.0288124832
 20
22.3448167424
 30
0.0
 40
0.0978816280691873
100
AcDbArc
 50
69.6743096019
 51
117.0715114428
  0
ARC
  5
29B
330
1F
100
AcDbEntity
  8
0
  6
Continuous
 62
     7
370
    25
100
AcDbCircle
 10
29.3192983429
 20
30.0116117732
 30
0.0
 40
0.1536804807571589
100
AcDbArc
 50
122.60547834
 51
177.3945215144
  0
ARC
  5
29C
330
1F
100
AcDbEntity
  8
0
  6
Continuous
 62
     7
370
    25
100
AcDbCircle
 10
29.1950819449
 20
30.0763420592
 30
0.0
 40
0.076840240378621
100
AcDbArc
 50
2.6054784857
 51
57.39452166
  0
ARC
  5
29D
330
1F
100
AcDbEntity
  8
0
  6
Continuous
 62
     7
370
    25
100
AcDbCircle
 10
29.313248216
 20
30.0151048158
 30
0.0
 40
0.0768402403786292
100
AcDbArc
 50
122.60547834
 51
177.3945215143
  0
ARC
  5
29E
330
1F
100
AcDbEntity
  8
0
  6
Continuous
 62
     7
370
    25
100
AcDbCircle
 10
29.2011320718
 20
30.0868334127
 30
0.0
 40
0.0768510953955538
100
AcDbArc
 50
242.6096722366
 51
297.3903277634
  0
LINE
  5
29F
330
1F
100
AcDbEntity
  8
0
  6
Continuous
 62
     7
370
    25
100
AcDbLine
 10
29.3602310976
 20
28.354884343
 30
0.0
 11
29.3602310976
 21
30.0696200479
 31
0.0
  0
LINE
  5
2A0
330
1F
100
AcDbEntity
  8
0
  6
Continuous
 62
     7
370
    25
100
AcDbLine
 10
29.572363132
 20
28.4773455597
 30
0.0
 11
29.3602310976
 21
28.354884343
 31
0.0
  0
LINE
  5
2A1
330
1F
100
AcDbEntity
  8
0
  6
Continuous
 62
     7
370
    25
100
AcDbLine
 10
29.572363132
 20
30.1920812647
 30
0.0
 11
29.572363132
 21
28.4773455597
 31
0.0
  0
LINE
  5
2A2
330
1F
100
AcDbEntity
  8
0
  6
Continuous
 62
     7
370
    25
100
AcDbLine
 10
29.3602310976
 20
30.0696200479
 30
0.0
 11
29.572363132
 21
30.1920812647
 31
0.0
  0
LINE
  5
2A3
330
1F
100
AcDbEntity
  8
0
  6
Continuous
 62
     7
370
    25
100
AcDbLine
 10
30.6719141767
 20
29.1172062468
 30
0.0
 11
30.6719141767
 21
30.8217351916
 31
0.0
  0
ARC
  5
2A4
330
1F
100
AcDbEntity
  8
0
  6
Continuous
 62
     7
370
    25
100
AcDbCircle
 10
30.6977786387
 20
29.1130106149
 30
0.0
 40
0.0262025518457085
100
AcDbArc
 50
170.7859630095
 51
309.2032852357
  0
LINE
  5
2A5
330
1F
100
AcDbEntity
  8
0
  6
Continuous
 62
     7
370
    25
100
AcDbLine
 10
31.2000973955
 20
29.37312748
 30
0.0
 11
30.7143405836
 21
29.0927060414
 31
0.0
  0
ARC
  5
2A6
330
1F
100
AcDbEntity
  8
0
  6
Continuous
 62
     7
370
    25
100
AcDbCircle
 10
31.0439445402
 20
29.4926321727
 30
0.0
 40
0.1966343962373608
100
AcDbArc
 50
301.155470671
 51
322.5729586838
  0
LINE
  5
2A7
330
1F
100
AcDbEntity
  8
0
  6
Continuous
 62
     7
370
    25
100
AcDbLine
 10
30.6308968719
 20
29.0271835197
 30
0.0
 11
31.1456757201
 21
29.3243590233
 31
0.0
  0
SPLINE
  5
2A8
330
1F
100
AcDbEntity
  8
0
  6
Continuous
 62
     7
370
    25
100
AcDbSpline
210
0.0
220
0.0
230
1.0
 70
     8
 71
     3
 72
    20
 73
    16
 74
     0
 42
0.00000001
 43
0.00000001
 40
0.0
 40
0.0
 40
0.0
 40
0.0
 40
0.1239029896577535
 40
0.2061282877615549
 40
0.2882714449488387
 40
0.3509842751128591
 40
0.4135190765922707
 40
0.4568148359676292
 40
0.5000232652425916
 40
0.5414170221020893
 40
0.5828842944035253
 40
0.6452838950581864
 40
0.7078682601829712
 40
0.8537108360063099
 40
1.0
 40
1.0
 40
1.0
 40
1.0
 10
29.62752257241304
 20
28.44794786603387
 30
0.0
 10
29.66273477768752
 20
28.51248430496539
 30
0.0
 10
29.72131473287332
 20
28.61984883016311
 30
0.0
 10
29.80715086371975
 20
28.76796777478059
 30
0.0
 10
29.87947225965849
 20
28.88167793591237
 30
0.0
 10
29.95097976061482
 20
28.98060008633412
 30
0.0
 10
30.01447886595703
 20
29.05433247364863
 30
0.0
 10
30.07469965131505
 20
29.10975183698849
 30
0.0
 10
30.12844787295779
 20
29.14760270337131
 30
0.0
 10
30.18142337654401
 20
29.17175198224742
 30
0.0
 10
30.24028731431148
 20
29.18633533999123
 30
0.0
 10
30.30335108736825
 20
29.18688401174576
 30
0.0
 10
30.39713003627596
 20
29.16639462824373
 30
0.0
 10
30.50692118462651
 20
29.11261466668844
 30
0.0
 10
30.58952954771257
 20
29.05568957625712
 30
0.0
 10
30.63089687185995
 20
29.02718351972701
 30
0.0
  0
LINE
  5
2A9
330
1F
100
AcDbEntity
  8
0
  6
Continuous
 62
     7
370
    25
100
AcDbLine
 10
29.2718427499
 20
28.2426182751
 30
0.0
 11
29.6275225724
 21
28.447947866
 31
0.0
  0
ARC
  5
2AA
330
1F
100
AcDbEntity
  8
0
  6
Continuous
 62
     7
370
    25
100
AcDbCircle
 10
29.2580411293
 20
28.259538753
 30
0.0
 40
0.0218354598714303
100
AcDbArc
 50
170.7859630096
 51
309.2032852357
  0
LINE
  5
2AB
330
1F
100
AcDbEntity
  8
0
  6
Continuous
 62
     7
370
    25
100
AcDbLine
 10
29.2364874109
 20
30.0185978584
 30
0.0
 11
29.2364874109
 21
28.2630351129
 31
0.0
  0
LINE
  5
2AC
330
1F
100
AcDbEntity
  8
0
  6
Continuous
 62
     7
370
    25
100
AcDbLine
 10
29.6275225724
 20
30.2851646928
 30
0.0
 11
29.2718427499
 21
30.0798351018
 31
0.0
  0
SPLINE
  5
2AD
330
1F
100
AcDbEntity
  8
0
  6
Continuous
 62
     7
370
    25
100
AcDbSpline
210
0.0
220
0.0
230
1.0
 70
     8
 71
     3
 72
    20
 73
    16
 74
     0
 42
0.00000001
 43
0.00000001
 40
0.0
 40
0.0
 40
0.0
 40
0.0
 40
0.1239029896577534
 40
0.2061282877615548
 40
0.2882714449488378
 40
0.3509842751128583
 40
0.4135190765922711
 40
0.4568148359676295
 40
0.500023265242592
 40
0.5414170221020898
 40
0.582884294403526
 40
0.6452838950581871
 40
0.7078682601829721
 40
0.8537108360063099
 40
1.0
 40
1.0
 40
1.0
 40
1.0
 10
30.63089687185995
 20
30.86440034646995
 30
0.0
 10
30.59568466658546
 20
30.79986390753843
 30
0.0
 10
30.53710471139966
 20
30.69249938234071
 30
0.0
 10
30.45126858055323
 20
30.54438043772322
 30
0.0
 10
30.37894718461449
 20
30.43067027659145
 30
0.0
 10
30.30743968365816
 20
30.3317481261697
 30
0.0
 10
30.24394057831595
 20
30.25801573885518
 30
0.0
 10
30.18371979295794
 20
30.20259637551532
 30
0.0
 10
30.12997157131519
 20
30.1647455091325
 30
0.0
 10
30.07699606772897
 20
30.14059623025639
 30
0.0
 10
30.0181321299615
 20
30.12601287251258
 30
0.0
 10
29.95506835690473
 20
30.12546420075805
 30
0.0
 10
29.86128940799702
 20
30.14595358426009
 30
0.0
 10
29.75149825964648
 20
30.19973354581538
 30
0.0
 10
29.66888989656041
 20
30.2566586362467
 30
0.0
 10
29.62752257241304
 20
30.2851646927768
 30
0.0
  0
LINE
  5
2AE
330
1F
100
AcDbEntity
  8
0
  6
Continuous
 62
     7
370
    25
100
AcDbLine
 10
31.1456757201
 20
31.16157585
 30
0.0
 11
30.6308968719
 21
30.8644003465
 31
0.0
  0
ARC
  5
2AF
330
1F
100
AcDbEntity
  8
0
  6
Continuous
 62
     7
370
    25
100
AcDbCircle
 10
31.1945157473
 20
31.0849216176
 30
0.0
 40
0.0908912515058297
100
AcDbArc
 50
86.4792405365
 51
122.5031342987
  0
LINE
  5
2B0
330
1F
100
AcDbEntity
  8
0
  6
Continuous
 62
     7
370
    25
100
AcDbLine
 10
30.7143405836
 20
30.8952198836
 30
0.0
 11
31.2000973955
 21
31.1756413222
 31
0.0
  0
ARC
  5
2B1
330
1F
100
AcDbEntity
  8
0
  6
Continuous
 62
     7
370
    25
100
AcDbCircle
 10
30.7640271428
 20
30.8175435404
 30
0.0
 40
0.0922082884543072
100
AcDbArc
 50
122.60547834
 51
177.3945215144
  0
LINE
  5
2B2
330
1F
100
AcDbEntity
  8
0
  6
Continuous
 62
     7
370
    25
100
AcDbLine
 10
28.7945456726
 20
30.2329049878
 30
0.0
 11
29.1657767328
 21
30.0185978584
 31
0.0
  0
ARC
  5
2B3
330
1F
100
AcDbEntity
  8
0
  6
Continuous
 62
     7
370
    25
100
AcDbCircle
 10
28.9480672828
 20
30.2259189026
 30
0.0
 40
0.1536804807572254
100
AcDbArc
 50
122.60547834
 51
177.3945215143
  0
LINE
  5
2B4
330
1F
100
AcDbEntity
  8
0
  6
Continuous
 62
     7
370
    25
100
AcDbLine
 10
28.8652563508
 20
30.3553794746
 30
0.0
 11
29.2364874109
 21
30.1410723452
 31
0.0
  0
LINE
  5
2B5
330
1F
100
AcDbEntity
  8
0
  6
Continuous
 62
     7
370
    25
100
AcDbLine
 10
29.1657767328
 20
28.2630351129
 30
0.0
 11
29.1657767328
 21
30.0185978584
 31
0.0
  0
ARC
  5
2B6
330
1F
100
AcDbEntity
  8
0
  6
Continuous
 62
     7
370
    25
100
AcDbCircle
 10
29.2011320718
 20
28.3312706671
 30
0.0
 40
0.0768510953955821
100
AcDbArc
 50
242.6096722366
 51
297.3903277634
  0
LINE
  5
2B7
330
1F
100
AcDbEntity
  8
0
  6
Continuous
 62
     7
370
    25
100
AcDbLine
 10
29.2364874109
 20
30.1410723452
 30
0.0
 11
29.607718471
 21
30.3553794746
 31
0.0
  0
SPLINE
  5
2B8
330
1F
100
AcDbEntity
  8
0
  6
Continuous
 62
     7
370
    25
100
AcDbSpline
210
0.0
220
0.0
230
1.0
 70
     8
 71
     3
 72
    13
 73
     9
 74
     0
 42
0.00000001
 43
0.00000001
 40
0.0
 40
0.0
 40
0.0
 40
0.0
 40
0.1922889284723172
 40
0.3843300401582903
 40
0.5831191549537509
 40
0.7979401069482166
 40
0.9960078014241844
 40
1.0
 40
1.0
 40
1.0
 40
1.0
 10
29.60771847101141
 20
30.35537947457417
 30
0.0
 10
29.61129469105982
 20
30.35273974781729
 30
0.0
 10
29.61844252222066
 20
30.34746369631218
 30
0.0
 10
29.62608847015931
 20
30.33418592410339
 30
0.0
 10
29.63060334714237
 20
30.31833868370429
 30
0.0
 10
29.63121684173676
 20
30.30137348154309
 30
0.0
 10
29.62911608081618
 20
30.2902961531116
 30
0.0
 10
29.62755344616892
 20
30.28526411330915
 30
0.0
 10
29.62752257241304
 20
30.2851646927768
 30
0.0
  0
LINE
  5
2B9
330
1F
100
AcDbEntity
  8
0
  6
Continuous
 62
     7
370
    25
100
AcDbLine
 10
29.2364874109
 20
30.5696866039
 30
0.0
 11
28.8652563508
 21
30.3553794746
 31
0.0
  0
LINE
  5
2BA
330
1F
100
AcDbEntity
  8
0
  6
Continuous
 62
     7
370
    25
100
AcDbLine
 10
29.2364874109
 20
30.5696866039
 30
0.0
 11
29.607718471
 21
30.3553794746
 31
0.0
  0
ELLIPSE
  5
2BB
330
1F
100
AcDbEntity
  8
0
  6
Continuous
 62
     7
370
    25
100
AcDbEllipse
 10
29.3248757585
 20
30.0900302507
 30
0.0
 11
0.04999999971962054
 21
-0.02886907728874633
 31
0.0
210
0.0
220
0.0
230
1.0
 40
0.0000703729
 41
0.0000406315596653
 42
0.7854387932567719
  0
ELLIPSE
  5
2BC
330
1F
100
AcDbEntity
  8
0
  6
Continuous
 62
     7
370
    25
100
AcDbEllipse
 10
29.3248757585
 20
28.3752945458
 30
0.0
 11
0.03535677558937422
 21
0.06123641403130974
 31
0.0
210
0.0
220
0.0
230
1.0
 40
0.5773346305
 41
4.712429612415693
 42
5.497827775813183
  0
ELLIPSE
  5
2BD
330
1F
100
AcDbEntity
  8
0
  6
Continuous
 62
     7
370
    25
100
AcDbEllipse
 10
29.5370077929
 20
30.2124914675
 30
0.0
 11
0.03535677558937422
 21
0.06123641403130974
 31
0.0
210
0.0
220
0.0
230
1.0
 40
0.5773346305
 41
3.926950184956178
 42
4.712429612415805
  0
SPLINE
  5
2BE
330
1F
100
AcDbEntity
  8
0
  6
Continuous
 62
     7
370
    25
100
AcDbSpline
210
0.0
220
0.0
230
1.0
 70
     8
 71
     3
 72
    11
 73
     7
 74
     0
 42
0.00000001
 43
0.00000001
 40
0.0
 40
0.0
 40
0.0
 40
0.0
 40
0.4487974481526943
 40
0.6738778771074149
 40
0.8999056811890177
 40
1.0
 40
1.0
 40
1.0
 40
1.0
 10
29.60771847101141
 20
30.35537947457417
 30
0.0
 10
29.65001992591577
 20
30.32632556865425
 30
0.0
 10
29.71353636244373
 20
30.28270057808537
 30
0.0
 10
29.80377468298822
 20
30.23382294646692
 30
0.0
 10
29.86170172258739
 20
30.20821962541724
 30
0.0
 10
29.89983054826073
 20
30.20138734896008
 30
0.0
 10
29.91153315463096
 20
30.19929036746173
 30
0.0
  0
SPLINE
  5
2BF
330
1F
100
AcDbEntity
  8
0
  6
Continuous
 62
     7
370
    25
100
AcDbSpline
210
0.0
220
0.0
230
1.0
 70
     8
 71
     3
 72
     9
 73
     5
 74
     0
 42
0.00000001
 43
0.00000001
 40
0.0
 40
0.0
 40
0.0
 40
0.0
 40
0.4856054390179528
 40
1.0
 40
1.0
 40
1.0
 40
1.0
 10
29.53894557902582
 20
30.41467420195383
 30
0.0
 10
29.52744969959477
 20
30.41623482427034
 30
0.0
 10
29.50377640743747
 20
30.41944859040868
 30
0.0
 10
29.48297056384664
 20
30.42877554510823
 30
0.0
 10
29.47226815106687
 20
30.43357327987621
 30
0.0
  0
LINE
  5
2C0
330
1F
100
AcDbEntity
  8
0
  6
Continuous
 62
     7
370
    25
100
AcDbLine
 10
30.208759235
 20
31.1309671808
 30
0.0
 11
30.5799902951
 21
30.9166600515
 31
0.0
  0
SPLINE
  5
2C1
330
1F
100
AcDbEntity
  8
0
  6
Continuous
 62
     7
370
    25
100
AcDbSpline
210
0.0
220
0.0
230
1.0
 70
     8
 71
     3
 72
    13
 73
     9
 74
     0
 42
0.00000001
 43
0.00000001
 40
0.0
 40
0.0
 40
0.0
 40
0.0
 40
0.1922889284723173
 40
0.3843300401582843
 40
0.5831191549537527
 40
0.7979401069482212
 40
0.9960078014241782
 40
1.0
 40
1.0
 40
1.0
 40
1.0
 10
30.57999029514292
 20
30.91666005145229
 30
0.0
 10
30.58387089410648
 20
30.91419603890294
 30
0.0
 10
30.59162709082229
 20
30.90927118935717
 30
0.0
 10
30.60396337800619
 20
30.89870109236017
 30
0.0
 10
30.61548460663222
 20
30.88689853267111
 30
0.0
 10
30.62488738278107
 20
30.87500727474937
 30
0.0
 10
30.62928897572516
 20
30.86768367530357
 30
0.0
 10
30.63086571934599
 20
30.86446395999889
 30
0.0
 10
30.63089687185995
 20
30.86440034646995
 30
0.0
  0
ELLIPSE
  5
2C2
330
1F
100
AcDbEntity
  8
0
  6
Continuous
 62
     7
370
    25
100
AcDbEllipse
 10
29.5370077929
 20
28.4977557625
 30
0.0
 11
0.04999999971962054
 21
-0.02886907728874988
 31
0.0
210
0.0
220
0.0
230
1.0
 40
0.0000703729
 41
0.7854387930308632
 42
2.35623512552606
  0
SPLINE
  5
2C3
330
1F
100
AcDbEntity
  8
0
  6
Continuous
 62
     7
370
    25
100
AcDbSpline
210
0.0
220
0.0
230
1.0
 70
     8
 71
     3
 72
    10
 73
     6
 74
     0
 42
0.00000001
 43
0.00000001
 40
0.0
 40
0.0
 40
0.0
 40
0.0
 40
0.3953546167931231
 40
0.7901997112160921
 40
1.0
 40
1.0
 40
1.0
 40
1.0
 10
29.23648741088846
 20
30.56968660392764
 30
0.0
 10
29.23262283328517
 20
30.5713090532381
 30
0.0
 10
29.224898658642
 20
30.5745518608901
 30
0.0
 10
29.21440668675469
 20
30.57363641519188
 30
0.0
 10
29.20898469450558
 20
30.57014121560769
 30
0.0
 10
29.20710336774573
 20
30.56892844874883
 30
0.0
  0
LINE
  5
2C4
330
1F
100
AcDbEntity
  8
0
  6
Continuous
 62
     7
370
    25
100
AcDbLine
 10
29.420335174
 20
30.0874043352
 30
0.0
 11
29.420335174
 21
28.5651160668
 31
0.0
  0
LINE
  5
2C5
330
1F
100
AcDbEntity
  8
0
  6
Continuous
 62
     7
370
    25
100
AcDbLine
 10
29.420335174
 20
28.5651160668
 30
0.0
 11
29.5016524538
 21
28.5181726003
 31
0.0
  0
SPLINE
  5
2C6
330
1F
100
AcDbEntity
  8
0
  6
Continuous
 62
     7
370
    25
100
AcDbSpline
210
0.0
220
0.0
230
1.0
 70
     8
 71
     3
 72
    10
 73
     6
 74
     0
 42
0.00000001
 43
0.00000001
 40
0.0
 40
0.0
 40
0.0
 40
0.0
 40
0.3953546167931274
 40
0.7901997112160879
 40
1.0
 40
1.0
 40
1.0
 40
1.0
 10
30.20875923501997
 20
31.13096718080575
 30
0.0
 10
30.20521665751002
 20
31.13277551681339
 30
0.0
 10
30.1981360680685
 20
31.13638985829398
 30
0.0
 10
30.19133355590636
 20
31.13760429235933
 30
0.0
 10
30.18941725603709
 20
31.13613288590838
 30
0.0
 10
30.18875233693386
 20
31.13562233624258
 30
0.0
  0
LINE
  5
2C7
330
1F
100
AcDbEntity
  8
0
  6
Continuous
 62
     7
370
    25
100
AcDbLine
 10
30.5799902951
 20
30.9166600515
 30
0.0
 11
31.110320381
 21
31.2228130934
 31
0.0
  0
ARC
  5
2C8
330
1F
100
AcDbEntity
  8
0
  6
Continuous
 62
     7
370
    25
100
AcDbCircle
 10
31.068914915
 20
31.1580828074
 30
0.0
 40
0.0768402403786282
100
AcDbArc
 50
2.6054784857
 51
57.39452166
  0
LINE
  5
2C9
330
1F
100
AcDbEntity
  8
0
  6
Continuous
 62
     7
370
    25
100
AcDbLine
 10
30.7390893209
 20
31.4371202227
 30
0.0
 11
30.208759235
 21
31.1309671808
 31
0.0
  0
LINE
  5
2CA
330
1F
100
AcDbEntity
  8
0
  6
Continuous
 62
     7
370
    25
100
AcDbLine
 10
30.7390893209
 20
31.4371202227
 30
0.0
 11
31.110320381
 21
31.2228130934
 31
0.0
  0
ARC
  5
2CB
330
1F
100
AcDbEntity
  8
0
  6
Continuous
 62
     7
370
    25
100
AcDbCircle
 10
30.709583728
 20
30.8946142433
 30
0.0
 40
0.0047952554423988
100
AcDbArc
 50
304.0563506717
 51
7.2558297217
  0
ARC
  5
2CC
330
1F
100
AcDbEntity
  8
0
  6
Continuous
 62
     7
370
    25
100
AcDbCircle
 10
30.6698385383
 20
30.8263162959
 30
0.0
 40
0.0050293927849447
100
AcDbArc
 50
294.3746582937
 51
354.3052007488
  0
ARC
  5
2CD
330
1F
100
AcDbEntity
  8
0
  6
Continuous
 62
     7
370
    25
100
AcDbCircle
 10
31.1953405399
 20
31.1750356819
 30
0.0
 40
0.0047952554641152
100
AcDbArc
 50
304.0563508313
 51
7.2558295621
  0
ARC
  5
2CE
330
1F
100
AcDbEntity
  8
0
  6
Continuous
 62
     7
370
    25
100
AcDbCircle
 10
31.1076710751
 20
30.9753077774
 30
0.0
 40
0.0803795632137465
100
AcDbArc
 50
122.60547834
 51
177.3945215143
  0
LINE
  5
2CF
330
1F
100
AcDbEntity
  8
0
  6
Continuous
 62
     7
370
    25
100
AcDbLine
 10
31.027374606
 20
30.9789617124
 30
0.0
 11
31.027374606
 21
29.4275341698
 31
0.0
  0
ARC
  5
2D0
330
1F
100
AcDbEntity
  8
0
  6
Continuous
 62
     7
370
    25
100
AcDbCircle
 10
31.0499211059
 20
29.4238767648
 30
0.0
 40
0.0228412185905325
100
AcDbArc
 50
170.7859630095
 51
309.2032852357
  0
LINE
  5
2D1
330
1F
100
AcDbEntity
  8
0
  6
Continuous
 62
     7
370
    25
100
AcDbLine
 10
31.0643584403
 20
29.4061769161
 30
0.0
 11
31.1350691184
 21
29.4469973217
 31
0.0
  0
ARC
  5
2D2
330
1F
100
AcDbEntity
  8
0
  6
Continuous
 62
     7
370
    25
100
AcDbCircle
 10
31.0917564835
 20
29.5147091364
 30
0.0
 40
0.0803795632137447
100
AcDbArc
 50
302.60547834
 51
357.3945215144
  0
LINE
  5
2D3
330
1F
100
AcDbEntity
  8
0
  6
Continuous
 62
     7
370
    25
100
AcDbLine
 10
31.1720529526
 20
29.5110552014
 30
0.0
 11
31.1720529526
 21
31.062482744
 31
0.0
  0
ARC
  5
2D4
330
1F
100
AcDbEntity
  8
0
  6
Continuous
 62
     7
370
    25
100
AcDbCircle
 10
31.1495064527
 20
31.066140149
 30
0.0
 40
0.0228412185905309
100
AcDbArc
 50
350.7859630095
 51
129.2032852357
  0
LINE
  5
2D5
330
1F
100
AcDbEntity
  8
0
  6
Continuous
 62
     7
370
    25
100
AcDbLine
 10
31.1350691184
 20
31.0838399977
 30
0.0
 11
31.0643584403
 21
31.0430195921
 31
0.0
  0
ARC
  5
2D6
330
1F
100
AcDbEntity
  8
0
  6
Continuous
 62
     7
370
    25
100
AcDbCircle
 10
30.773558432
 20
29.3310173112
 30
0.0
 40
0.0803795632137408
100
AcDbArc
 50
302.60547834
 51
357.3945215144
  0
LINE
  5
2D7
330
1F
100
AcDbEntity
  8
0
  6
Continuous
 62
     7
370
    25
100
AcDbLine
 10
30.8538549011
 20
29.3273633763
 30
0.0
 11
30.8538549011
 21
30.8787909189
 31
0.0
  0
ARC
  5
2D8
330
1F
100
AcDbEntity
  8
0
  6
Continuous
 62
     7
370
    25
100
AcDbCircle
 10
30.8313084012
 20
30.8824483238
 30
0.0
 40
0.0228412185905298
100
AcDbArc
 50
350.7859630095
 51
129.2032852357
  0
LINE
  5
2D9
330
1F
100
AcDbEntity
  8
0
  6
Continuous
 62
     7
370
    25
100
AcDbLine
 10
30.8168710668
 20
30.9001481725
 30
0.0
 11
30.7461603887
 21
30.8593277669
 31
0.0
  0
ARC
  5
2DA
330
1F
100
AcDbEntity
  8
0
  6
Continuous
 62
     7
370
    25
100
AcDbCircle
 10
30.7894730236
 20
30.7916159523
 30
0.0
 40
0.0803795632137698
100
AcDbArc
 50
122.60547834
 51
177.3945215143
  0
LINE
  5
2DB
330
1F
100
AcDbEntity
  8
0
  6
Continuous
 62
     7
370
    25
100
AcDbLine
 10
30.7091765545
 20
30.7952698872
 30
0.0
 11
30.7091765545
 21
29.2438423446
 31
0.0
  0
ARC
  5
2DC
330
1F
100
AcDbEntity
  8
0
  6
Continuous
 62
     7
370
    25
100
AcDbCircle
 10
30.7317230544
 20
29.2401849396
 30
0.0
 40
0.0228412185905275
100
AcDbArc
 50
170.7859630095
 51
309.2032852357
  0
LINE
  5
2DD
330
1F
100
AcDbEntity
  8
0
  6
Continuous
 62
     7
370
    25
100
AcDbLine
 10
30.7461603887
 20
29.222485091
 30
0.0
 11
30.8168710668
 21
29.2633054966
 31
0.0
  0
LINE
  5
2DE
330
1F
100
AcDbEntity
  8
0
  6
Continuous
 62
     7
370
    25
100
AcDbLine
 10
30.6895918462
 20
29.1233239996
 30
0.0
 11
31.2308231119
 21
29.4357701587
 31
0.0
  0
ARC
  5
2DF
330
1F
100
AcDbEntity
  8
0
  6
Continuous
 62
     7
370
    25
100
AcDbCircle
 10
31.1467422394
 20
31.137057419
 30
0.0
 40
0.1084930661278649
100
AcDbArc
 50
356.7002399305
 51
39.1960151731
  0
LINE
  5
2E0
330
1F
100
AcDbEntity
  8
0
  6
Continuous
 62
     7
370
    25
100
AcDbLine
 10
31.2550554303
 20
29.5385579916
 30
0.0
 11
31.2550554303
 21
31.1308125748
 31
0.0
  0
ARC
  5
2E1
330
1F
100
AcDbEntity
  8
0
  6
Continuous
 62
     7
370
    25
100
AcDbCircle
 10
30.9984536328
 20
29.5448017709
 30
0.0
 40
0.2566777498427643
100
AcDbArc
 50
334.8632517952
 51
358.6061219199
  0
SPLINE
  5
2E2
330
1F
100
AcDbEntity
  8
0
  6
Continuous
 62
     7
370
    25
100
AcDbSpline
210
0.0
220
0.0
230
1.0
 70
     8
 71
     3
 72
    13
 73
     9
 74
     0
 42
0.00000001
 43
0.00000001
 40
0.0
 40
0.0
 40
0.0
 40
0.0
 40
0.0039921985758096
 40
0.202059893051766
 40
0.4168808450462453
 40
0.6156699598417078
 40
0.8077110715276816
 40
1.0
 40
1.0
 40
1.0
 40
1.0
 10
30.63089687185995
 20
29.02718351972701
 30
0.0
 10
30.630865719346
 20
29.02708426011827
 30
0.0
 10
30.62928897572513
 20
29.02206036525295
 30
0.0
 10
30.62488738278109
 20
29.01231127887612
 30
0.0
 10
30.61548460663222
 20
29.00112834673595
 30
0.0
 10
30.60396337800619
 20
28.99453855305467
 30
0.0
 10
30.59162709082229
 20
28.99279627964214
 30
0.0
 10
30.58387089410648
 20
28.9961241402908
 30
0.0
 10
30.57999029514292
 20
28.99778914352077
 30
0.0
  0
SPLINE
  5
2E3
330
1F
100
AcDbEntity
  8
0
  6
Continuous
 62
     7
370
    25
100
AcDbSpline
210
0.0
220
0.0
230
1.0
 70
     8
 71
     3
 72
    11
 73
     7
 74
     0
 42
0.00000001
 43
0.00000001
 40
0.0
 40
0.0
 40
0.0
 40
0.0
 40
0.4487974481526829
 40
0.6738778771074001
 40
0.8999056811889977
 40
1.0
 40
1.0
 40
1.0
 40
1.0
 10
30.57999029514292
 20
28.99778914352077
 30
0.0
 10
30.53768884023856
 20
29.0268430494407
 30
0.0
 10
30.47417240371059
 20
29.07046804000958
 30
0.0
 10
30.38393408316611
 20
29.11934567162803
 30
0.0
 10
30.32600704356693
 20
29.14494899267772
 30
0.0
 10
30.28787821789359
 20
29.15178126913488
 30
0.0
 10
30.27617561152335
 20
29.15387825063322
 30
0.0
  0
SPLINE
  5
2E4
330
1F
100
AcDbEntity
  8
0
  6
Continuous
 62
     7
370
    25
100
AcDbSpline
210
0.0
220
0.0
230
1.0
 70
     8
 71
     3
 72
    11
 73
     7
 74
     0
 42
0.00000001
 43
0.00000001
 40
0.0
 40
0.0
 40
0.0
 40
0.0
 40
0.0077725299352329
 40
0.3933964041258888
 40
0.8116376927315287
 40
1.0
 40
1.0
 40
1.0
 40
1.0
 10
29.62752257241303
 20
28.44794786603387
 30
0.0
 10
29.62755345447964
 20
28.44788440542909
 30
0.0
 10
29.62911650975946
 20
28.44467243018648
 30
0.0
 10
29.63108636628361
 20
28.43880307338074
 30
0.0
 10
29.63108680263756
 20
28.43322077070261
 30
0.0
 10
29.62852184021009
 20
28.4321773986733
 30
0.0
 10
29.62772536909752
 20
28.43185341120584
 30
0.0
  0
LINE
  5
2E5
330
1F
100
AcDbEntity
  8
0
  6
Continuous
 62
     7
370
    25
100
AcDbLine
 10
30.3448724847
 20
29.1335197664
 30
0.0
 11
30.5799902951
 21
28.9977891435
 31
0.0
  0
ARC
  5
2E6
330
1F
100
AcDbEntity
  8
0
  6
Continuous
 62
     7
370
    25
100
AcDbCircle
 10
30.8701807984
 20
30.934363361
 30
0.0
 40
0.0579209050979047
100
AcDbArc
 50
240.4552371535
 51
253.6284325474
  0
LINE
  5
2E7
330
1F
100
AcDbEntity
  8
0
  6
Continuous
 62
     7
370
    25
100
AcDbLine
 10
30.8416198042
 20
29.3325463269
 30
0.0
 11
30.8416198042
 21
30.8839738695
 31
0.0
  0
ARC
  5
2E8
330
1F
100
AcDbEntity
  8
0
  6
Continuous
 62
     7
370
    25
100
AcDbCircle
 10
30.8701807984
 20
29.3829358184
 30
0.0
 40
0.0579209050979472
100
AcDbArc
 50
240.4552371535
 51
253.6284325474
  0
SPLINE
  5
2E9
330
1F
100
AcDbEntity
  8
0
  6
Continuous
 62
     7
370
    25
100
AcDbSpline
210
0.0
220
0.0
230
1.0
 70
     8
 71
     3
 72
    10
 73
     6
 74
     0
 42
0.00000001
 43
0.00000001
 40
0.0
 40
0.0
 40
0.0
 40
0.0
 40
0.5054468997193028
 40
0.8769707977916192
 40
0.9999999999999999
 40
0.9999999999999999
 40
0.9999999999999999
 40
0.9999999999999999
 10
31.20009739546144
 20
31.17564132220517
 30
0.0
 10
31.20684978100178
 20
31.18093496547663
 30
0.0
 10
31.21856544280047
 20
31.19011965048623
 30
0.0
 10
31.22566792488963
 20
31.20283934319243
 30
0.0
 10
31.22632227379829
 20
31.20914263398942
 30
0.0
 10
31.22648505515413
 20
31.21071069379452
 30
0.0
  0
ARC
  5
2EA
330
1F
100
AcDbEntity
  8
0
  6
Continuous
 62
     7
370
    25
100
AcDbCircle
 10
31.1419053258
 20
31.145005866
 30
0.0
 40
0.1141678114412851
100
AcDbArc
 50
356.7002399305
 51
39.1960151731
  0
SPLINE
  5
2EB
330
1F
100
AcDbEntity
  8
0
  6
Continuous
 62
     7
370
    25
100
AcDbSpline
210
0.0
220
0.0
230
1.0
 70
     8
 71
     3
 72
     9
 73
     5
 74
     0
 42
0.00000001
 43
0.00000001
 40
0.0
 40
0.0
 40
0.0
 40
0.0
 40
0.2914039242903751
 40
1.0
 40
1.0
 40
1.0
 40
1.0
 10
31.23038406027955
 20
31.21715711490637
 30
0.0
 10
31.22998201285096
 20
31.21758988255829
 30
0.0
 10
31.22860232165577
 20
31.21907499520039
 30
0.0
 10
31.22793010158183
 20
31.21970544743955
 30
0.0
 10
31.22745376907542
 20
31.22015218342214
 30
0.0
  0
ARC
  5
2EC
330
1F
100
AcDbEntity
  8
0
  6
Continuous
 62
     7
370
    25
100
AcDbCircle
 10
31.2209685956
 20
31.2061109674
 30
0.0
 40
0.0071825349846246
100
AcDbArc
 50
350.6931920456
 51
39.8219752313
  0
ARC
  5
2ED
330
1F
100
AcDbEntity
  8
0
  6
Continuous
 62
     7
370
    25
100
AcDbCircle
 10
31.2245494533
 20
31.2111593008
 30
0.0
 40
0.0083675810350348
100
AcDbArc
 50
318.5693962898
 51
45.7902428417
  0
ARC
  5
2EE
330
1F
100
AcDbEntity
  8
0
  6
Continuous
 62
     7
370
    25
100
AcDbCircle
 10
31.18837885
 20
31.1180551861
 30
0.0
 40
0.0579209050976719
100
AcDbArc
 50
240.4552371534
 51
253.6284325475
  0
ARC
  5
2EF
330
1F
100
AcDbEntity
  8
0
  6
Continuous
 62
     7
370
    25
100
AcDbCircle
 10
31.2534909343
 20
31.1346213108
 30
0.0
 40
0.0045017321506751
100
AcDbArc
 50
3.4806228354
 51
57.8894040828
  0
LINE
  5
2F0
330
1F
100
AcDbEntity
  8
0
  6
Continuous
 62
     7
370
    25
100
AcDbLine
 10
31.1598178557
 20
29.516238152
 30
0.0
 11
31.1598178557
 21
31.0676656946
 31
0.0
  0
ARC
  5
2F1
330
1F
100
AcDbEntity
  8
0
  6
Continuous
 62
     7
370
    25
100
AcDbCircle
 10
31.18837885
 20
29.5666276436
 30
0.0
 40
0.0579209050975889
100
AcDbArc
 50
240.4552371534
 51
253.6284325475
  0
ARC
  5
2F2
330
1F
100
AcDbEntity
  8
0
  6
Continuous
 62
     7
370
    25
100
AcDbCircle
 10
30.6934678951
 20
29.121873968
 30
0.0
 40
0.0218354598714212
100
AcDbArc
 50
170.7859630095
 51
309.2032852357
  0
ARC
  5
2F3
330
1F
100
AcDbEntity
  8
0
  6
Continuous
 62
     7
370
    25
100
AcDbCircle
 10
30.6989884226
 20
29.0920074329
 30
0.0
 40
0.0153680480757279
100
AcDbArc
 50
2.6054784857
 51
57.39452166
  0
LINE
  5
2F4
330
1F
100
AcDbEntity
  8
0
  6
Continuous
 62
     7
370
    25
100
AcDbLine
 10
30.696662914
 20
29.1110765509
 30
0.0
 11
30.7072695158
 21
29.1049534901
 31
0.0
  0
ARC
  5
2F5
330
1F
100
AcDbEntity
  8
0
  6
Continuous
 62
     7
370
    25
100
AcDbCircle
 10
30.7062058791
 20
29.1805660275
 30
0.0
 40
0.057910022657413
100
AcDbArc
 50
46.3745466865
 51
59.5501098024
  0
ARC
  5
2F6
330
1F
100
AcDbEntity
  8
0
  6
Continuous
 62
     7
370
    25
100
AcDbCircle
 10
30.7049440072
 20
29.1240226081
 30
0.0
 40
0.0153680480757552
100
AcDbArc
 50
182.6054784857
 51
237.3945216599
  0
LINE
  5
2F7
330
1F
100
AcDbEntity
  8
0
  6
Continuous
 62
     7
370
    25
100
AcDbLine
 10
30.7072695158
 20
29.1049534901
 30
0.0
 11
31.1930263276
 21
29.3853749286
 31
0.0
  0
ARC
  5
2F8
330
1F
100
AcDbEntity
  8
0
  6
Continuous
 62
     7
370
    25
100
AcDbCircle
 10
31.1847452344
 20
29.3724288714
 30
0.0
 40
0.0153680480757336
100
AcDbArc
 50
2.6054784857
 51
57.39452166
  0
LINE
  5
2F9
330
1F
100
AcDbEntity
  8
0
  6
Continuous
 62
     7
370
    25
100
AcDbLine
 10
31.218181016
 20
29.4121425428
 30
0.0
 11
30.696662914
 21
29.1110765509
 31
0.0
  0
SPLINE
  5
2FA
330
1F
100
AcDbEntity
  8
0
  6
Continuous
 62
     7
370
    25
100
AcDbSpline
210
0.0
220
0.0
230
1.0
 70
     8
 71
     3
 72
    10
 73
     6
 74
     0
 42
0.00000001
 43
0.00000001
 40
0.0
 40
0.0
 40
0.0
 40
0.0
 40
0.5191132368695188
 40
0.8829607080311064
 40
1.0
 40
1.0
 40
1.0
 40
1.0
 10
31.19302632764957
 20
29.38537492864535
 30
0.0
 10
31.19927725849068
 20
29.3893801062301
 30
0.0
 10
31.20990947884128
 20
29.39619252052597
 30
0.0
 10
31.21700593061996
 20
29.40599308816061
 30
0.0
 10
31.21795100231099
 20
29.4109388357256
 30
0.0
 10
31.21818101596505
 20
29.41214254278856
 30
0.0
  0
SPLINE
  5
2FB
330
1F
100
AcDbEntity
  8
0
  6
Continuous
 62
     7
370
    25
100
AcDbSpline
210
0.0
220
0.0
230
1.0
 70
     8
 71
     3
 72
    11
 73
     7
 74
     0
 42
0.00000001
 43
0.00000001
 40
0.0
 40
0.0
 40
0.0
 40
0.0
 40
0.2298180874433391
 40
0.4715205618383836
 40
0.7451162148964691
 40
1.0
 40
1.0
 40
1.0
 40
1.0
 10
31.23082311189035
 20
29.43577015865832
 30
0.0
 10
31.22950703490269
 20
29.43374701748783
 30
0.0
 10
31.22680682375941
 20
29.4295961141712
 30
0.0
 10
31.2237263276706
 20
29.42304418218291
 30
0.0
 10
31.22106470612794
 20
29.41694145869513
 30
0.0
 10
31.21911928552118
 20
29.41370397152855
 30
0.0
 10
31.21818101596505
 20
29.41214254278856
 30
0.0
  0
LINE
  5
2FC
330
1F
100
AcDbEntity
  8
0
  6
Continuous
 62
     7
370
    25
100
AcDbLine
 10
30.735553787
 20
29.2304886779
 30
0.0
 11
30.8062644651
 21
29.2713090835
 31
0.0
  0
ARC
  5
2FD
330
1F
100
AcDbEntity
  8
0
  6
Continuous
 62
     7
370
    25
100
AcDbCircle
 10
30.7769165572
 20
29.2213864331
 30
0.0
 40
0.057910022657555
100
AcDbArc
 50
46.3745466865
 51
59.5501098024
  0
ARC
  5
2FE
330
1F
100
AcDbEntity
  8
0
  6
Continuous
 62
     7
370
    25
100
AcDbCircle
 10
30.7648589991
 20
29.3360393695
 30
0.0
 40
0.0768402403786063
100
AcDbArc
 50
302.60547834
 51
357.3945215143
  0
ARC
  5
2FF
330
1F
100
AcDbEntity
  8
0
  6
Continuous
 62
     7
370
    25
100
AcDbCircle
 10
31.0244039306
 20
29.3642578526
 30
0.0
 40
0.0579100226576401
100
AcDbArc
 50
46.3745466866
 51
59.5501098024
  0
LINE
  5
300
330
1F
100
AcDbEntity
  8
0
  6
Continuous
 62
     7
370
    25
100
AcDbLine
 10
31.0537518385
 20
29.4141805031
 30
0.0
 11
31.1244625167
 21
29.4550009087
 31
0.0
  0
ARC
  5
301
330
1F
100
AcDbEntity
  8
0
  6
Continuous
 62
     7
370
    25
100
AcDbCircle
 10
31.0951146087
 20
29.4050782582
 30
0.0
 40
0.0579100226578657
100
AcDbArc
 50
46.3745466866
 51
59.5501098024
  0
SPLINE
  5
302
330
1F
100
AcDbEntity
  8
0
  6
Continuous
 62
     7
370
    25
100
AcDbSpline
210
0.0
220
0.0
230
1.0
 70
     8
 71
     3
 72
    10
 73
     6
 74
     0
 42
0.00000001
 43
0.00000001
 40
0.0
 40
0.0
 40
0.0
 40
0.0
 40
0.1230292022083805
 40
0.494553100280664
 40
1.0
 40
1.0
 40
1.0
 40
1.0
 10
31.22648505515413
 20
29.39913995595395
 30
0.0
 10
31.22632227379829
 20
29.39784892519365
 30
0.0
 10
31.22566792488963
 20
29.39265923645634
 30
0.0
 10
31.21856544280047
 20
29.38288193045336
 30
0.0
 10
31.20684978100178
 20
29.37669395395384
 30
0.0
 10
31.20009739546144
 20
29.37312747996738
 30
0.0
  0
ARC
  5
303
330
1F
100
AcDbEntity
  8
0
  6
Continuous
 62
     7
370
    25
100
AcDbCircle
 10
31.0412939361
 20
29.5469335015
 30
0.0
 40
0.2145912410479574
100
AcDbArc
 50
352.395364097
 51
359.798761879
  0
ARC
  5
304
330
1F
100
AcDbEntity
  8
0
  6
Continuous
 62
     7
370
    25
100
AcDbCircle
 10
31.0830570506
 20
29.5197311947
 30
0.0
 40
0.076840240378599
100
AcDbArc
 50
302.60547834
 51
357.3945215144
  0
ARC
  5
305
330
1F
100
AcDbEntity
  8
0
  6
Continuous
 62
     7
370
    25
100
AcDbCircle
 10
31.2318750799
 20
29.4377104807
 30
0.0
 40
0.0022071443176082
100
AcDbArc
 50
241.5351536842
 51
296.6558410345
  0
LWPOLYLINE
  5
306
330
1F
100
AcDbEntity
  8
0
  6
Continuous
 62
     7
370
    25
100
AcDbPolyline
 90
        9
 70
   128
 43
0.0
 10
31.218181016
 20
29.4121425428
 10
31.2208412118
 20
29.4117481787
 10
31.2233088912
 20
29.41079143
 10
31.2254054701
 20
29.4093415358
 10
31.2269792206
 20
29.4075034238
 10
31.2279162516
 20
29.405410117
 10
31.2281487509
 20
29.4032131063
 10
31.2276598927
 20
29.4010713878
 10
31.2264850552
 20
29.399139956
  0
ARC
  5
307
330
1F
100
AcDbEntity
  8
0
  6
Continuous
 62
     7
370
    25
100
AcDbCircle
 10
27.9114091185
 20
24.1417227747
 30
0.0
 40
0.0466307799612328
100
AcDbArc
 50
120.5726330937
 51
177.1382589716
  0
LINE
  5
308
330
1F
100
AcDbEntity
  8
0
  6
Continuous
 62
     7
370
    25
100
AcDbLine
 10
28.0723581038
 20
24.2812827714
 30
0.0
 11
27.8876912942
 21
24.18187118
 31
0.0
  0
ARC
  5
309
330
1F
100
AcDbEntity
  8
0
  6
Continuous
 62
     7
370
    25
100
AcDbCircle
 10
28.0810557327
 20
24.269954457
 30
0.0
 40
0.0142821376335365
100
AcDbArc
 50
352.4151073902
 51
127.5162554961
  0
LINE
  5
30A
330
1F
100
AcDbEntity
  8
0
  6
Continuous
 62
     7
370
    25
100
AcDbLine
 10
28.095212907
 20
23.3555849285
 30
0.0
 11
28.095212907
 21
24.2680692858
 31
0.0
  0
ARC
  5
30B
330
1F
100
AcDbEntity
  8
0
  6
Continuous
 62
     7
370
    25
100
AcDbCircle
 10
28.0486402795
 20
23.3579130187
 30
0.0
 40
0.046630779960687
100
AcDbArc
 50
300.5726330934
 51
357.1382589722
  0
LINE
  5
30C
330
1F
100
AcDbEntity
  8
0
  6
Continuous
 62
     7
370
    25
100
AcDbLine
 10
27.8876912942
 20
23.218353022
 30
0.0
 11
28.0723581038
 21
23.3177646134
 31
0.0
  0
ARC
  5
30D
330
1F
100
AcDbEntity
  8
0
  6
Continuous
 62
     7
370
    25
100
AcDbCircle
 10
27.8789936653
 20
23.2296813364
 30
0.0
 40
0.0142821376333491
100
AcDbArc
 50
172.4151073889
 51
307.5162554981
  0
LINE
  5
30E
330
1F
100
AcDbEntity
  8
0
  6
Continuous
 62
     7
370
    25
100
AcDbLine
 10
27.864836491
 20
24.1440508649
 30
0.0
 11
27.864836491
 21
23.2315665076
 31
0.0
  0
LINE
  5
30F
330
1F
100
AcDbEntity
  8
0
  6
Continuous
 62
     7
370
    25
100
AcDbLine
 10
27.864836491
 20
24.1440508649
 30
0.0
 11
27.8580165074
 21
24.1482728799
 31
0.0
  0
ARC
  5
310
330
1F
100
AcDbEntity
  8
0
  6
Continuous
 62
     7
370
    25
100
AcDbCircle
 10
27.9045891349
 20
24.1459447898
 30
0.0
 40
0.0466307799609738
100
AcDbArc
 50
120.5726330935
 51
177.1382589718
  0
LINE
  5
311
330
1F
100
AcDbEntity
  8
0
  6
Continuous
 62
     7
370
    25
100
AcDbLine
 10
27.8808713106
 20
24.1860931951
 30
0.0
 11
27.8876912942
 21
24.18187118
 31
0.0
  0
LINE
  5
312
330
1F
100
AcDbEntity
  8
0
  6
Continuous
 62
     7
370
    25
100
AcDbLine
 10
28.0723581038
 20
24.2812827714
 30
0.0
 11
28.0655381202
 21
24.2855047865
 31
0.0
  0
LINE
  5
313
330
1F
100
AcDbEntity
  8
0
  6
Continuous
 62
     7
370
    25
100
AcDbLine
 10
28.0655381202
 20
24.2855047865
 30
0.0
 11
27.8808713106
 21
24.1860931951
 31
0.0
  0
LINE
  5
314
330
1F
100
AcDbEntity
  8
0
  6
Continuous
 62
     7
370
    25
100
AcDbLine
 10
27.8580165074
 20
23.2357885226
 30
0.0
 11
27.864836491
 21
23.2315665076
 31
0.0
  0
LINE
  5
315
330
1F
100
AcDbEntity
  8
0
  6
Continuous
 62
     7
370
    25
100
AcDbLine
 10
27.8580165074
 20
24.1482728799
 30
0.0
 11
27.8580165074
 21
23.2357885226
 31
0.0
  0
ARC
  5
316
330
1F
100
AcDbEntity
  8
0
  6
Continuous
 62
     7
370
    25
100
AcDbCircle
 10
28.074623922
 20
24.2725852307
 30
0.0
 40
0.0157945153603333
100
AcDbArc
 50
62.2132523726
 51
125.1171718972
  0
ARC
  5
317
330
1F
100
AcDbEntity
  8
0
  6
Continuous
 62
     7
370
    25
100
AcDbCircle
 10
27.8739339007
 20
23.234363666
 30
0.0
 40
0.0159810396286789
100
AcDbArc
 50
174.8847620758
 51
233.474910001
  0
LWPOLYLINE
  5
318
330
1F
100
AcDbEntity
  8
0
  6
Continuous
 62
     7
370
    25
100
AcDbPolyline
 90
       19
 70
   128
 43
0.0
 10
31.1203712918
 20
23.251594838
 10
31.1491508186
 20
23.2740688741
 10
31.1744591096
 20
23.3055521476
 10
31.1932436116
 20
23.3422473111
 10
31.2032386364
 20
23.3797283863
 10
31.2032386364
 20
23.4134746024
 10
31.1932436116
 20
23.4394156677
 10
31.1744591096
 20
23.4544227069
 10
31.1491508186
 20
23.4566856494
 10
31.1203712918
 20
23.4459315512
 10
31.091591765
 20
23.4234575151
 10
31.066283474
 20
23.3919742416
 10
31.047498972
 20
23.3552790781
 10
31.0375039472
 20
23.3177980029
 10
31.0375039472
 20
23.2840517868
 10
31.047498972
 20
23.2581107215
 10
31.066283474
 20
23.2431036824
 10
31.091591765
 20
23.2408407398
 10
31.1203712918
 20
23.251594838
  0
LWPOLYLINE
  5
319
330
1F
100
AcDbEntity
  8
0
  6
Continuous
 62
     7
370
    25
100
AcDbPolyline
 90
       17
 70
   128
 43
0.0
 10
31.2045169988
 20
23.4104020071
 10
31.2041909565
 20
23.4193167566
 10
31.1964767698
 20
23.4500405772
 10
31.1792893578
 20
23.4704971859
 10
31.1544912432
 20
23.4784697916
 10
31.1247696867
 20
23.4730944387
 10
31.0933454799
 20
23.4549536303
 10
31.0636239234
 20
23.4260132044
 10
31.0388258088
 20
23.3894093051
 10
31.0216383968
 20
23.349108533
 10
31.0139242101
 20
23.309478102
 10
31.0165192006
 20
23.2748125842
 10
31.0291421606
 20
23.2488685264
 10
31.0504251968
 20
23.2344573699
 10
31.0780619618
 20
23.233140787
 10
31.1090575833
 20
23.2450614499
 10
31.1090575833
 20
23.2450614499
  0
LWPOLYLINE
  5
31A
330
1F
100
AcDbEntity
  8
0
  6
Continuous
 62
     7
370
    25
100
AcDbPolyline
 90
       11
 70
   128
 43
0.0
 10
31.0719002941
 20
23.5326252562
 10
31.0498394396
 20
23.5388839918
 10
31.0201178831
 20
23.533508639
 10
30.9886936763
 20
23.5153678306
 10
30.9589721198
 20
23.4864274046
 10
30.9341740052
 20
23.4498235054
 10
30.9169865932
 20
23.4095227332
 10
30.9092724065
 20
23.3698923022
 10
30.911867397
 20
23.3352267845
 10
30.924490357
 20
23.3092827267
 10
30.9369112652
 20
23.2987920634
  0
LINE
  5
31B
330
1F
100
AcDbEntity
  8
0
  6
Continuous
 62
     7
370
    25
100
AcDbLine
 10
31.1775260525
 20
23.3817579356
 30
0.0
 11
31.1489486721
 21
23.422418422
 31
0.0
  0
LINE
  5
31C
330
1F
100
AcDbEntity
  8
0
  6
Continuous
 62
     7
370
    25
100
AcDbLine
 10
31.1489486721
 20
23.422418422
 30
0.0
 11
31.0917939115
 21
23.3894236809
 31
0.0
  0
LINE
  5
31D
330
1F
100
AcDbEntity
  8
0
  6
Continuous
 62
     7
370
    25
100
AcDbLine
 10
31.0632165311
 20
23.3157684536
 30
0.0
 11
31.0917939115
 21
23.3894236809
 31
0.0
  0
LINE
  5
31E
330
1F
100
AcDbEntity
  8
0
  6
Continuous
 62
     7
370
    25
100
AcDbLine
 10
31.0917939115
 20
23.2751079673
 30
0.0
 11
31.0632165311
 21
23.3157684536
 31
0.0
  0
LINE
  5
31F
330
1F
100
AcDbEntity
  8
0
  6
Continuous
 62
     7
370
    25
100
AcDbLine
 10
31.0917939115
 20
23.2751079673
 30
0.0
 11
31.1489486721
 21
23.3081027083
 31
0.0
  0
LINE
  5
320
330
1F
100
AcDbEntity
  8
0
  6
Continuous
 62
     7
370
    25
100
AcDbLine
 10
31.1775260525
 20
23.3817579356
 30
0.0
 11
31.1489486721
 21
23.3081027083
 31
0.0
  0
ARC
  5
321
330
1F
100
AcDbEntity
  8
0
  6
Continuous
 62
     7
370
    25
100
AcDbCircle
 10
31.0209940629
 20
23.4115130758
 30
0.0
 40
0.0945713851879786
100
AcDbArc
 50
338.1802465565
 51
354.787272233
  0
ARC
  5
322
330
1F
100
AcDbEntity
  8
0
  6
Continuous
 62
     7
370
    25
100
AcDbCircle
 10
31.0079820092
 20
23.4135063768
 30
0.0
 40
0.1074336141183361
100
AcDbArc
 50
302.6379705891
 51
339.7728862144
  0
LINE
  5
323
330
1F
100
AcDbEntity
  8
0
  6
Continuous
 62
     7
370
    25
100
AcDbLine
 10
31.1280205324
 20
23.410336864
 30
0.0
 11
31.1775260525
 21
23.3817579356
 31
0.0
  0
LINE
  5
324
330
1F
100
AcDbEntity
  8
0
  6
Continuous
 62
     7
370
    25
100
AcDbLine
 10
31.0660691605
 20
23.3231208092
 30
0.0
 11
31.09450145
 21
23.3395344206
 31
0.0
  0
LINE
  5
325
330
1F
100
AcDbEntity
  8
0
  6
Continuous
 62
     7
370
    25
100
AcDbLine
 10
31.09450145
 20
23.3395344206
 30
0.0
 11
31.1489486721
 21
23.3081027083
 31
0.0
  0
LINE
  5
326
330
1F
100
AcDbEntity
  8
0
  6
Continuous
 62
     7
370
    25
100
AcDbLine
 10
31.1087901401
 20
23.3763620343
 30
0.0
 11
31.09450145
 21
23.3395344206
 31
0.0
  0
LINE
  5
327
330
1F
100
AcDbEntity
  8
0
  6
Continuous
 62
     7
370
    25
100
AcDbLine
 10
31.120226201
 20
23.4058372923
 30
0.0
 11
31.1087901401
 21
23.3763620343
 31
0.0
  0
LWPOLYLINE
  5
328
330
1F
100
AcDbEntity
  8
0
  6
Continuous
 62
     7
370
    25
100
AcDbPolyline
 90
       19
 70
   128
 43
0.0
 10
31.1203712918
 20
22.7412568306
 10
31.1491508186
 20
22.7637308667
 10
31.1744591096
 20
22.7952141402
 10
31.1932436116
 20
22.8319093037
 10
31.2032386364
 20
22.8693903789
 10
31.2032386364
 20
22.903136595
 10
31.1932436116
 20
22.9290776603
 10
31.1744591096
 20
22.9440846994
 10
31.1491508186
 20
22.946347642
 10
31.1203712918
 20
22.9355935438
 10
31.091591765
 20
22.9131195077
 10
31.066283474
 20
22.8816362342
 10
31.047498972
 20
22.8449410707
 10
31.0375039472
 20
22.8074599955
 10
31.0375039472
 20
22.7737137794
 10
31.047498972
 20
22.7477727141
 10
31.066283474
 20
22.7327656749
 10
31.091591765
 20
22.7305027323
 10
31.1203712918
 20
22.7412568306
  0
LWPOLYLINE
  5
329
330
1F
100
AcDbEntity
  8
0
  6
Continuous
 62
     7
370
    25
100
AcDbPolyline
 90
       17
 70
   128
 43
0.0
 10
31.2045169988
 20
22.9000639996
 10
31.2041909565
 20
22.9089787492
 10
31.1964767698
 20
22.9397025698
 10
31.1792893578
 20
22.9601591785
 10
31.1544912432
 20
22.9681317841
 10
31.1247696867
 20
22.9627564313
 10
31.0933454799
 20
22.9446156229
 10
31.0636239234
 20
22.9156751969
 10
31.0388258088
 20
22.8790712977
 10
31.0216383968
 20
22.8387705255
 10
31.0139242101
 20
22.7991400945
 10
31.0165192006
 20
22.7644745768
 10
31.0291421606
 20
22.738530519
 10
31.0504251968
 20
22.7241193625
 10
31.0780619618
 20
22.7228027795
 10
31.1090575833
 20
22.7347234425
 10
31.1090575833
 20
22.7347234425
  0
LWPOLYLINE
  5
32A
330
1F
100
AcDbEntity
  8
0
  6
Continuous
 62
     7
370
    25
100
AcDbPolyline
 90
       11
 70
   128
 43
0.0
 10
31.0719002941
 20
23.0222872488
 10
31.0498394396
 20
23.0285459844
 10
31.0201178831
 20
23.0231706316
 10
30.9886936763
 20
23.0050298232
 10
30.9589721198
 20
22.9760893972
 10
30.9341740052
 20
22.9394854979
 10
30.9169865932
 20
22.8991847258
 10
30.9092724065
 20
22.8595542948
 10
30.911867397
 20
22.824888777
 10
30.924490357
 20
22.7989447193
 10
30.9369112652
 20
22.7884540559
  0
LINE
  5
32B
330
1F
100
AcDbEntity
  8
0
  6
Continuous
 62
     7
370
    25
100
AcDbLine
 10
31.1775260525
 20
22.8714199282
 30
0.0
 11
31.1489486721
 21
22.9120804145
 31
0.0
  0
LINE
  5
32C
330
1F
100
AcDbEntity
  8
0
  6
Continuous
 62
     7
370
    25
100
AcDbLine
 10
31.1489486721
 20
22.9120804145
 30
0.0
 11
31.0917939115
 21
22.8790856735
 31
0.0
  0
LINE
  5
32D
330
1F
100
AcDbEntity
  8
0
  6
Continuous
 62
     7
370
    25
100
AcDbLine
 10
31.0632165311
 20
22.8054304462
 30
0.0
 11
31.0917939115
 21
22.8790856735
 31
0.0
  0
LINE
  5
32E
330
1F
100
AcDbEntity
  8
0
  6
Continuous
 62
     7
370
    25
100
AcDbLine
 10
31.0917939115
 20
22.7647699598
 30
0.0
 11
31.0632165311
 21
22.8054304462
 31
0.0
  0
LINE
  5
32F
330
1F
100
AcDbEntity
  8
0
  6
Continuous
 62
     7
370
    25
100
AcDbLine
 10
31.0917939115
 20
22.7647699598
 30
0.0
 11
31.1489486721
 21
22.7977647009
 31
0.0
  0
LINE
  5
330
330
1F
100
AcDbEntity
  8
0
  6
Continuous
 62
     7
370
    25
100
AcDbLine
 10
31.1775260525
 20
22.8714199282
 30
0.0
 11
31.1489486721
 21
22.7977647009
 31
0.0
  0
ARC
  5
331
330
1F
100
AcDbEntity
  8
0
  6
Continuous
 62
     7
370
    25
100
AcDbCircle
 10
31.0209940629
 20
22.9011750684
 30
0.0
 40
0.0945713851885657
100
AcDbArc
 50
338.1802465565
 51
354.787272233
  0
ARC
  5
332
330
1F
100
AcDbEntity
  8
0
  6
Continuous
 62
     7
370
    25
100
AcDbCircle
 10
31.0079820092
 20
22.9031683694
 30
0.0
 40
0.107433614118312
100
AcDbArc
 50
302.6379705891
 51
339.7728862144
  0
LINE
  5
333
330
1F
100
AcDbEntity
  8
0
  6
Continuous
 62
     7
370
    25
100
AcDbLine
 10
31.1280205324
 20
22.8999988566
 30
0.0
 11
31.1775260525
 21
22.8714199282
 31
0.0
  0
LINE
  5
334
330
1F
100
AcDbEntity
  8
0
  6
Continuous
 62
     7
370
    25
100
AcDbLine
 10
31.0660691605
 20
22.8127828018
 30
0.0
 11
31.09450145
 21
22.8291964132
 31
0.0
  0
LINE
  5
335
330
1F
100
AcDbEntity
  8
0
  6
Continuous
 62
     7
370
    25
100
AcDbLine
 10
31.09450145
 20
22.8291964132
 30
0.0
 11
31.1489486721
 21
22.7977647009
 31
0.0
  0
LINE
  5
336
330
1F
100
AcDbEntity
  8
0
  6
Continuous
 62
     7
370
    25
100
AcDbLine
 10
31.1087901401
 20
22.8660240268
 30
0.0
 11
31.09450145
 21
22.8291964132
 31
0.0
  0
LINE
  5
337
330
1F
100
AcDbEntity
  8
0
  6
Continuous
 62
     7
370
    25
100
AcDbLine
 10
31.120226201
 20
22.8954992849
 30
0.0
 11
31.1087901401
 21
22.8660240268
 31
0.0
  0
LWPOLYLINE
  5
338
330
1F
100
AcDbEntity
  8
0
  6
Continuous
 62
     7
370
    25
100
AcDbPolyline
 90
        3
 70
   128
 43
0.0
 10
28.9800097869
 20
24.0222608959
 10
28.9628538705
 20
24.0162976529
 10
28.9617870964
 20
24.0162108654
  0
ARC
  5
339
330
1F
100
AcDbEntity
  8
0
  6
Continuous
 62
     7
370
    25
100
AcDbCircle
 10
28.9262388312
 20
24.1054255995
 30
0.0
 40
0.0990337497995196
100
AcDbArc
 50
302.8850852788
 51
351.9446625083
  0
LWPOLYLINE
  5
33A
330
1F
100
AcDbEntity
  8
0
  6
Continuous
 62
     7
370
    25
100
AcDbPolyline
 90
       15
 70
   128
 43
0.0
 10
31.1003510241
 20
23.5162009994
 10
31.0980281662
 20
23.5209571031
 10
31.0791539852
 20
23.5416800718
 10
31.0525761484
 20
23.5494202485
 10
31.0210338052
 20
23.5433799196
 10
30.9877777542
 20
23.52418161
 10
30.956235411
 20
23.4938039246
 10
30.9296575741
 20
23.4553776307
 10
30.9107833932
 20
23.4128629964
 10
30.9015580679
 20
23.3706416403
 10
30.9029323733
 20
23.333064955
 10
30.9147646717
 20
23.3040056469
 10
30.9358355095
 20
23.2864586094
 10
30.9639732964
 20
23.282232265
 10
30.9653619952
 20
23.2823678065
  0
LWPOLYLINE
  5
33B
330
1F
100
AcDbEntity
  8
0
  6
Continuous
 62
     7
370
    25
100
AcDbPolyline
 90
       11
 70
   128
 43
0.0
 10
31.0493655556
 20
23.5589129804
 10
31.0242918772
 20
23.5657484107
 10
30.992749534
 20
23.5597080818
 10
30.9594934829
 20
23.5405097722
 10
30.9279511397
 20
23.5101320868
 10
30.9013733029
 20
23.4717057929
 10
30.8824991219
 20
23.4291911587
 10
30.8732737966
 20
23.3869698026
 10
30.8746481021
 20
23.3493931172
 10
30.8864804004
 20
23.3203338091
 10
30.9028774613
 20
23.3051606637
  0
LWPOLYLINE
  5
33C
330
1F
100
AcDbEntity
  8
0
  6
Continuous
 62
     7
370
    25
100
AcDbPolyline
 90
       15
 70
   128
 43
0.0
 10
31.1003510241
 20
23.005862992
 10
31.0980281662
 20
23.0106190956
 10
31.0791539852
 20
23.0313420643
 10
31.0525761484
 20
23.0390822411
 10
31.0210338052
 20
23.0330419122
 10
30.9877777542
 20
23.0138436026
 10
30.956235411
 20
22.9834659172
 10
30.9296575741
 20
22.9450396232
 10
30.9107833932
 20
22.902524989
 10
30.9015580679
 20
22.8603036329
 10
30.9029323733
 20
22.8227269476
 10
30.9147646717
 20
22.7936676395
 10
30.9358355095
 20
22.7761206019
 10
30.9639732964
 20
22.7718942576
 10
30.9653619952
 20
22.7720297991
  0
LWPOLYLINE
  5
33D
330
1F
100
AcDbEntity
  8
0
  6
Continuous
 62
     7
370
    25
100
AcDbPolyline
 90
       11
 70
   128
 43
0.0
 10
31.0493655556
 20
23.0485749729
 10
31.0242918772
 20
23.0554104033
 10
30.992749534
 20
23.0493700744
 10
30.9594934829
 20
23.0301717648
 10
30.9279511397
 20
22.9997940794
 10
30.9013733029
 20
22.9613677855
 10
30.8824991219
 20
22.9188531513
 10
30.8732737966
 20
22.8766317951
 10
30.8746481021
 20
22.8390551098
 10
30.8864804004
 20
22.8099958017
 10
30.9028774613
 20
22.7948226562
  0
LWPOLYLINE
  5
33E
330
1F
100
AcDbEntity
  8
0
  6
Continuous
 62
     7
370
    25
100
AcDbPolyline
 90
       17
 70
   128
 43
0.0
 10
30.9736923492
 20
23.2775587955
 10
30.9514845548
 20
23.2673793561
 10
30.9172508309
 20
23.2608708567
 10
30.8873832758
 20
23.2670569539
 10
30.8640970295
 20
23.2854788532
 10
30.8491191263
 20
23.3147702866
 10
30.8435604088
 20
23.3527588424
 10
30.8478331416
 20
23.3966270834
 10
30.8616204357
 20
23.4431215026
 10
30.8838997506
 20
23.4887938218
 10
30.9130187314
 20
23.530256734
 10
30.9468177564
 20
23.5644351246
 10
30.9827901067
 20
23.5887941389
 10
31.0182678776
 20
23.60152718
 10
31.050619845
 20
23.6016898966
 10
31.0774466117
 20
23.5892702208
 10
31.0902711382
 20
23.5758097974
  0
LWPOLYLINE
  5
33F
330
1F
100
AcDbEntity
  8
0
  6
Continuous
 62
     7
370
    25
100
AcDbPolyline
 90
       13
 70
   128
 43
0.0
 10
30.8597517103
 20
23.2827151901
 10
30.8414696125
 20
23.298541383
 10
30.8264917093
 20
23.3278328164
 10
30.8209329918
 20
23.3658213722
 10
30.8252057246
 20
23.4096896132
 10
30.8389930188
 20
23.4561840324
 10
30.8612723336
 20
23.5018563516
 10
30.8903913144
 20
23.5433192638
 10
30.9241903394
 20
23.5774976544
 10
30.9601626897
 20
23.6018566686
 10
30.9956404606
 20
23.6145897098
 10
31.027992428
 20
23.6147524264
 10
31.0472364726
 20
23.6074835135
  0
LWPOLYLINE
  5
340
330
1F
100
AcDbEntity
  8
0
  6
Continuous
 62
     7
370
    25
100
AcDbPolyline
 90
       17
 70
   128
 43
0.0
 10
30.9736923492
 20
22.7672207881
 10
30.9514845548
 20
22.7570413487
 10
30.9172508309
 20
22.7505328493
 10
30.8873832758
 20
22.7567189465
 10
30.8640970295
 20
22.7751408458
 10
30.8491191263
 20
22.8044322792
 10
30.8435604088
 20
22.842420835
 10
30.8478331416
 20
22.886289076
 10
30.8616204357
 20
22.9327834952
 10
30.8838997506
 20
22.9784558144
 10
30.9130187314
 20
23.0199187266
 10
30.9468177564
 20
23.0540971172
 10
30.9827901067
 20
23.0784561314
 10
31.0182678776
 20
23.0911891726
 10
31.050619845
 20
23.0913518892
 10
31.0774466117
 20
23.0789322134
 10
31.0902711382
 20
23.0654717899
  0
LWPOLYLINE
  5
341
330
1F
100
AcDbEntity
  8
0
  6
Continuous
 62
     7
370
    25
100
AcDbPolyline
 90
       13
 70
   128
 43
0.0
 10
30.8597517103
 20
22.7723771827
 10
30.8414696125
 20
22.7882033756
 10
30.8264917093
 20
22.8174948089
 10
30.8209329918
 20
22.8554833648
 10
30.8252057246
 20
22.8993516057
 10
30.8389930188
 20
22.945846025
 10
30.8612723336
 20
22.9915183442
 10
30.8903913144
 20
23.0329812564
 10
30.9241903394
 20
23.067159647
 10
30.9601626897
 20
23.0915186612
 10
30.9956404606
 20
23.1042517023
 10
31.027992428
 20
23.104414419
 10
31.0472364726
 20
23.0971455061
  0
LINE
  5
342
330
1F
100
AcDbEntity
  8
0
  6
Continuous
 62
     7
370
    25
100
AcDbLine
 10
29.4543960209
 20
25.8506319007
 30
0.0
 11
29.4543960209
 21
25.8521800579
 31
0.0
  0
LINE
  5
343
330
1F
100
AcDbEntity
  8
0
  6
Continuous
 62
     7
370
    25
100
AcDbLine
 10
29.5224985217
 20
25.8404542631
 30
0.0
 11
29.5224985217
 21
25.8428349595
 31
0.0
  0
LWPOLYLINE
  5
344
330
1F
100
AcDbEntity
  8
0
  6
Continuous
 62
     7
370
    25
100
AcDbPolyline
 90
        9
 70
   128
 43
0.0
 10
29.5224985217
 20
25.8428349595
 10
29.5910943843
 20
25.8405530677
 10
29.659337432
 20
25.8451678779
 10
29.7251627614
 20
25.8565397549
 10
29.7865786244
 20
25.8743246074
 10
29.841726695
 20
25.8979843
 10
29.8889382984
 20
25.9268029358
 10
29.9267849023
 20
25.9599085184
 10
29.954121341
 20
25.9962993362
  0
LINE
  5
345
330
1F
100
AcDbEntity
  8
0
  6
Continuous
 62
     7
370
    25
100
AcDbLine
 10
29.954121341
 20
25.9723554262
 30
0.0
 11
29.954121341
 21
25.9962993362
 31
0.0
  0
LINE
  5
346
330
1F
100
AcDbEntity
  8
0
  6
Continuous
 62
     7
370
    25
100
AcDbLine
 10
29.9703092803
 20
26.0007372411
 30
0.0
 11
29.9703092803
 21
26.0356140731
 31
0.0
  0
LWPOLYLINE
  5
347
330
1F
100
AcDbEntity
  8
0
  6
Continuous
 62
     7
370
    25
100
AcDbPolyline
 90
        9
 70
   128
 43
0.0
 10
29.9703092803
 20
26.0356140731
 10
29.9742620611
 20
26.0752136217
 10
29.9662681092
 20
26.1146094946
 10
29.9465693061
 20
26.1526096484
 10
29.9157616999
 20
26.1880642714
 10
29.8747774695
 20
26.2199005749
 10
29.8248567189
 20
26.2471552534
 10
29.7675099543
 20
26.2690036328
 10
29.7044723786
 20
26.284784623
  0
ARC
  5
348
330
1F
100
AcDbEntity
  8
0
  6
Continuous
 62
     7
370
    25
100
AcDbCircle
 10
29.5818449469
 20
25.6020963581
 30
0.0
 40
0.6534849980997863
100
AcDbArc
 50
80.5784717689
 51
85.2138386628
  0
LINE
  5
349
330
1F
100
AcDbEntity
  8
0
  6
Continuous
 62
     7
370
    25
100
AcDbLine
 10
29.6363698778
 20
26.2533026808
 30
0.0
 11
29.6363698778
 21
26.2941297214
 31
0.0
  0
LWPOLYLINE
  5
34A
330
1F
100
AcDbEntity
  8
0
  6
Continuous
 62
     7
370
    25
100
AcDbPolyline
 90
        9
 70
   128
 43
0.0
 10
29.6363698778
 20
26.2941297214
 10
29.5677740153
 20
26.2964116132
 10
29.4995309675
 20
26.291796803
 10
29.4337056381
 20
26.280424926
 10
29.3722897751
 20
26.2626400735
 10
29.3171417045
 20
26.2389803809
 10
29.2699301011
 20
26.210161745
 10
29.2320834972
 20
26.1770561625
 10
29.2047470585
 20
26.1406653446
  0
LINE
  5
34B
330
1F
100
AcDbEntity
  8
0
  6
Continuous
 62
     7
370
    25
100
AcDbLine
 10
29.2047470585
 20
26.099838304
 30
0.0
 11
29.2047470585
 21
26.1406653446
 31
0.0
  0
LWPOLYLINE
  5
34C
330
1F
100
AcDbEntity
  8
0
  6
Continuous
 62
     7
370
    25
100
AcDbPolyline
 90
        9
 70
   128
 43
0.0
 10
29.1885591192
 20
26.1013506077
 10
29.1846063384
 20
26.0617510592
 10
29.1926002903
 20
26.0223551863
 10
29.2122990934
 20
25.9843550325
 10
29.2431066996
 20
25.9489004095
 10
29.2840909301
 20
25.917064106
 10
29.3340116806
 20
25.8898094274
 10
29.3913584452
 20
25.8679610481
 10
29.4543960209
 20
25.8521800579
  0
LINE
  5
34D
330
1F
100
AcDbEntity
  8
0
  6
Continuous
 62
     7
370
    25
100
AcDbLine
 10
29.5224985217
 20
25.8428349595
 30
0.0
 11
29.6053914806
 21
26.0441524228
 31
0.0
  0
LINE
  5
34E
330
1F
100
AcDbEntity
  8
0
  6
Continuous
 62
     7
370
    25
100
AcDbLine
 10
29.6053914806
 20
26.0441524228
 30
0.0
 11
29.954121341
 21
25.9962993362
 31
0.0
  0
LINE
  5
34F
330
1F
100
AcDbEntity
  8
0
  6
Continuous
 62
     7
370
    25
100
AcDbLine
 10
29.5372889797
 20
26.0126704806
 30
0.0
 11
29.4693971247
 21
25.8477853537
 31
0.0
  0
LINE
  5
350
330
1F
100
AcDbEntity
  8
0
  6
Continuous
 62
     7
370
    25
100
AcDbLine
 10
29.553476919
 20
26.0519852175
 30
0.0
 11
29.2047470585
 21
26.099838304
 31
0.0
  0
LINE
  5
351
330
1F
100
AcDbEntity
  8
0
  6
Continuous
 62
     7
370
    25
100
AcDbLine
 10
29.6363698778
 20
26.2533026808
 30
0.0
 11
29.553476919
 21
26.0519852175
 31
0.0
  0
LINE
  5
352
330
1F
100
AcDbEntity
  8
0
  6
Continuous
 62
     7
370
    25
100
AcDbLine
 10
29.9677186011
 20
25.9951425283
 30
0.0
 11
29.6215794198
 21
26.0426401191
 31
0.0
  0
LINE
  5
353
330
1F
100
AcDbEntity
  8
0
  6
Continuous
 62
     7
370
    25
100
AcDbLine
 10
29.1885591192
 20
26.1013506077
 30
0.0
 11
29.5372889797
 21
26.0534975212
 31
0.0
  0
LINE
  5
354
330
1F
100
AcDbEntity
  8
0
  6
Continuous
 62
     7
370
    25
100
AcDbLine
 10
29.5372889797
 20
26.0534975212
 30
0.0
 11
29.4543960209
 21
25.8521800579
 31
0.0
  0
LINE
  5
355
330
1F
100
AcDbEntity
  8
0
  6
Continuous
 62
     7
370
    25
100
AcDbLine
 10
29.5372889797
 20
26.0126704806
 30
0.0
 11
29.5372889797
 21
26.0534975212
 31
0.0
  0
LINE
  5
356
330
1F
100
AcDbEntity
  8
0
  6
Continuous
 62
     7
370
    25
100
AcDbLine
 10
29.9703092803
 20
26.0356140731
 30
0.0
 11
29.6215794198
 21
26.0834671597
 31
0.0
  0
LINE
  5
357
330
1F
100
AcDbEntity
  8
0
  6
Continuous
 62
     7
370
    25
100
AcDbLine
 10
29.6215794198
 20
26.0834671597
 30
0.0
 11
29.7044723786
 21
26.284784623
 31
0.0
  0
LINE
  5
358
330
1F
100
AcDbEntity
  8
0
  6
Continuous
 62
     7
370
    25
100
AcDbLine
 10
29.6215794198
 20
26.0426401191
 30
0.0
 11
29.6215794198
 21
26.0834671597
 31
0.0
  0
LINE
  5
359
330
1F
100
AcDbEntity
  8
0
  6
Continuous
 62
     7
370
    25
100
AcDbLine
 10
29.6363698778
 20
26.2941297214
 30
0.0
 11
29.553476919
 21
26.0928122581
 31
0.0
  0
LINE
  5
35A
330
1F
100
AcDbEntity
  8
0
  6
Continuous
 62
     7
370
    25
100
AcDbLine
 10
29.553476919
 20
26.0928122581
 30
0.0
 11
29.2047470585
 21
26.1406653446
 31
0.0
  0
LINE
  5
35B
330
1F
100
AcDbEntity
  8
0
  6
Continuous
 62
     7
370
    25
100
AcDbLine
 10
29.553476919
 20
26.0519852175
 30
0.0
 11
29.553476919
 21
26.0928122581
 31
0.0
  0
LINE
  5
35C
330
1F
100
AcDbEntity
  8
0
  6
Continuous
 62
     7
370
    25
100
AcDbLine
 10
30.6616747105
 20
25.2463177455
 30
0.0
 11
30.6616747105
 21
25.2509390784
 31
0.0
  0
LINE
  5
35D
330
1F
100
AcDbEntity
  8
0
  6
Continuous
 62
     7
370
    25
100
AcDbLine
 10
30.7297772114
 20
25.2538203226
 30
0.0
 11
30.7297772114
 21
25.2602841768
 31
0.0
  0
LWPOLYLINE
  5
35E
330
1F
100
AcDbEntity
  8
0
  6
Continuous
 62
     7
370
    25
100
AcDbPolyline
 90
        9
 70
   128
 43
0.0
 10
30.7297772114
 20
25.2602841768
 10
30.7928147871
 20
25.276065167
 10
30.8501615516
 20
25.2979135464
 10
30.9000823022
 20
25.3251682249
 10
30.9410665326
 20
25.3570045284
 10
30.9718741388
 20
25.3924591514
 10
30.9915729419
 20
25.4304593052
 10
30.9995668938
 20
25.4698551781
 10
30.995614113
 20
25.5094547267
  0
LINE
  5
35F
330
1F
100
AcDbEntity
  8
0
  6
Continuous
 62
     7
370
    25
100
AcDbLine
 10
30.9794261737
 20
25.507942423
 30
0.0
 11
30.9794261737
 21
25.5487694636
 31
0.0
  0
LWPOLYLINE
  5
360
330
1F
100
AcDbEntity
  8
0
  6
Continuous
 62
     7
370
    25
100
AcDbPolyline
 90
        9
 70
   128
 43
0.0
 10
30.9794261737
 20
25.5487694636
 10
30.952089735
 20
25.5851602814
 10
30.9142431311
 20
25.6182658639
 10
30.8670315277
 20
25.6470844998
 10
30.8118834571
 20
25.6707441924
 10
30.7504675941
 20
25.6885290449
 10
30.6846422647
 20
25.6999009219
 10
30.616399217
 20
25.7045157321
 10
30.5478033545
 20
25.7022338403
  0
LINE
  5
361
330
1F
100
AcDbEntity
  8
0
  6
Continuous
 62
     7
370
    25
100
AcDbLine
 10
30.5478033545
 20
25.6614067997
 30
0.0
 11
30.5478033545
 21
25.7022338403
 31
0.0
  0
ARC
  5
362
330
1F
100
AcDbEntity
  8
0
  6
Continuous
 62
     7
370
    25
100
AcDbCircle
 10
30.602068785
 20
25.0122827309
 30
0.0
 40
0.6513883585240271
100
AcDbArc
 50
94.7786972617
 51
99.4289923066
  0
LWPOLYLINE
  5
363
330
1F
100
AcDbEntity
  8
0
  6
Continuous
 62
     7
370
    25
100
AcDbPolyline
 90
        9
 70
   128
 43
0.0
 10
30.4797008536
 20
25.6928887419
 10
30.4166632779
 20
25.6771077517
 10
30.3593165133
 20
25.6552593724
 10
30.3093957628
 20
25.6280046938
 10
30.2684115324
 20
25.5961683903
 10
30.2376039261
 20
25.5607137673
 10
30.2179051231
 20
25.5227136135
 10
30.2099111711
 20
25.4833177406
 10
30.213863952
 20
25.4437181921
  0
LINE
  5
364
330
1F
100
AcDbEntity
  8
0
  6
Continuous
 62
     7
370
    25
100
AcDbLine
 10
30.213863952
 20
25.4230287204
 30
0.0
 11
30.213863952
 21
25.4437181921
 31
0.0
  0
LINE
  5
365
330
1F
100
AcDbEntity
  8
0
  6
Continuous
 62
     7
370
    25
100
AcDbLine
 10
30.2300518912
 20
25.3945829278
 30
0.0
 11
30.2300518912
 21
25.4044034551
 31
0.0
  0
LWPOLYLINE
  5
366
330
1F
100
AcDbEntity
  8
0
  6
Continuous
 62
     7
370
    25
100
AcDbPolyline
 90
        9
 70
   128
 43
0.0
 10
30.2300518912
 20
25.4044034551
 10
30.25738833
 20
25.3680126373
 10
30.2952349338
 20
25.3349070548
 10
30.3424465373
 20
25.3060884189
 10
30.3975946078
 20
25.2824287263
 10
30.4590104709
 20
25.2646438738
 10
30.5248358002
 20
25.2532719968
 10
30.593078848
 20
25.2486571866
 10
30.6616747105
 20
25.2509390784
  0
LINE
  5
367
330
1F
100
AcDbEntity
  8
0
  6
Continuous
 62
     7
370
    25
100
AcDbLine
 10
30.2300518912
 20
25.4044034551
 30
0.0
 11
30.5787817517
 21
25.4522565417
 31
0.0
  0
LINE
  5
368
330
1F
100
AcDbEntity
  8
0
  6
Continuous
 62
     7
370
    25
100
AcDbLine
 10
30.5787817517
 20
25.4522565417
 30
0.0
 11
30.6616747105
 21
25.2509390784
 31
0.0
  0
LINE
  5
369
330
1F
100
AcDbEntity
  8
0
  6
Continuous
 62
     7
370
    25
100
AcDbLine
 10
30.6306963133
 20
25.4600893364
 30
0.0
 11
30.5478033545
 21
25.6614067997
 31
0.0
  0
LINE
  5
36A
330
1F
100
AcDbEntity
  8
0
  6
Continuous
 62
     7
370
    25
100
AcDbLine
 10
30.9794261737
 20
25.507942423
 30
0.0
 11
30.6306963133
 21
25.4600893364
 31
0.0
  0
LINE
  5
36B
330
1F
100
AcDbEntity
  8
0
  6
Continuous
 62
     7
370
    25
100
AcDbLine
 10
30.716460736
 20
25.2517981104
 30
0.0
 11
30.6468842525
 21
25.4207745995
 31
0.0
  0
LINE
  5
36C
330
1F
100
AcDbEntity
  8
0
  6
Continuous
 62
     7
370
    25
100
AcDbLine
 10
30.5625938124
 20
25.450744238
 30
0.0
 11
30.223734601
 21
25.4042456125
 31
0.0
  0
LINE
  5
36D
330
1F
100
AcDbEntity
  8
0
  6
Continuous
 62
     7
370
    25
100
AcDbLine
 10
30.7297772114
 20
25.2602841768
 30
0.0
 11
30.6468842525
 21
25.4616016401
 31
0.0
  0
LINE
  5
36E
330
1F
100
AcDbEntity
  8
0
  6
Continuous
 62
     7
370
    25
100
AcDbLine
 10
30.6468842525
 20
25.4616016401
 30
0.0
 11
30.995614113
 21
25.5094547267
 31
0.0
  0
LINE
  5
36F
330
1F
100
AcDbEntity
  8
0
  6
Continuous
 62
     7
370
    25
100
AcDbLine
 10
30.6468842525
 20
25.4207745995
 30
0.0
 11
30.6468842525
 21
25.4616016401
 31
0.0
  0
LINE
  5
370
330
1F
100
AcDbEntity
  8
0
  6
Continuous
 62
     7
370
    25
100
AcDbLine
 10
30.5625938124
 20
25.450744238
 30
0.0
 11
30.5625938124
 21
25.4915712786
 31
0.0
  0
LINE
  5
371
330
1F
100
AcDbEntity
  8
0
  6
Continuous
 62
     7
370
    25
100
AcDbLine
 10
30.5625938124
 20
25.4915712786
 30
0.0
 11
30.213863952
 21
25.4437181921
 31
0.0
  0
LINE
  5
372
330
1F
100
AcDbEntity
  8
0
  6
Continuous
 62
     7
370
    25
100
AcDbLine
 10
30.4797008536
 20
25.6928887419
 30
0.0
 11
30.5625938124
 21
25.4915712786
 31
0.0
  0
LINE
  5
373
330
1F
100
AcDbEntity
  8
0
  6
Continuous
 62
     7
370
    25
100
AcDbLine
 10
30.6306963133
 20
25.4600893364
 30
0.0
 11
30.6306963133
 21
25.500916377
 31
0.0
  0
LINE
  5
374
330
1F
100
AcDbEntity
  8
0
  6
Continuous
 62
     7
370
    25
100
AcDbLine
 10
30.9794261737
 20
25.5487694636
 30
0.0
 11
30.6306963133
 21
25.500916377
 31
0.0
  0
LINE
  5
375
330
1F
100
AcDbEntity
  8
0
  6
Continuous
 62
     7
370
    25
100
AcDbLine
 10
30.6306963133
 20
25.500916377
 30
0.0
 11
30.5478033545
 21
25.7022338403
 31
0.0
  0
ELLIPSE
  5
376
330
1F
100
AcDbEntity
  8
0
  6
Continuous
 62
     7
370
    25
100
AcDbEllipse
 10
27.7692677782
 20
25.5407089609
 30
0.0
 11
-0.03128555149075041
 21
0.05419401535423418
 31
0.0
210
0.0
220
0.0
230
1.0
 40
0.5766787367
 41
5.498477197879478
 42
7.068055549503282
  0
LINE
  5
377
330
1F
100
AcDbEntity
  8
0
  6
Continuous
 62
     7
370
    25
100
AcDbLine
 10
29.6961337406
 20
24.4794178261
 30
0.0
 11
27.769213918
 21
25.5918049618
 31
0.0
  0
ELLIPSE
  5
378
330
1F
100
AcDbEntity
  8
0
  6
Continuous
 62
     7
370
    25
100
AcDbEllipse
 10
29.6960798804
 20
24.4283840109
 30
0.0
 11
-0.03124745109205662
 21
0.05412805926977526
 31
0.0
210
0.0
220
0.0
230
1.0
 40
0.5780852102
 41
3.927681267029333
 42
5.497259618652913
  0
LINE
  5
379
330
1F
100
AcDbEntity
  8
0
  6
Continuous
 62
     7
370
    25
100
AcDbLine
 10
29.7403009925
 20
20.7243393676
 30
0.0
 11
29.7403009925
 21
24.402917902
 31
0.0
  0
ELLIPSE
  5
37A
330
1F
100
AcDbEntity
  8
0
  6
Continuous
 62
     7
370
    25
100
AcDbEllipse
 10
29.6960798804
 20
20.749929868
 30
0.0
 11
-0.03128555149075041
 21
0.05419401535423418
 31
0.0
210
0.0
220
0.0
230
1.0
 40
0.5766787367
 41
2.356884544289939
 42
3.926462895913406
  0
LINE
  5
37B
330
1F
100
AcDbEntity
  8
0
  6
Continuous
 62
     7
370
    25
100
AcDbLine
 10
27.769213918
 20
21.8112210028
 30
0.0
 11
29.6961337406
 21
20.6988338671
 31
0.0
  0
ELLIPSE
  5
37C
330
1F
100
AcDbEntity
  8
0
  6
Continuous
 62
     7
370
    25
100
AcDbEllipse
 10
27.7692677782
 20
21.8622548181
 30
0.0
 11
-0.03124745109206373
 21
0.05412805926977882
 31
0.0
210
0.0
220
0.0
230
1.0
 40
0.5780852102
 41
0.7860886134394378
 42
2.355666965062988
  0
LINE
  5
37D
330
1F
100
AcDbEntity
  8
0
  6
Continuous
 62
     7
370
    25
100
AcDbLine
 10
27.7250466661
 20
25.5662994613
 30
0.0
 11
27.7250466661
 21
21.887720927
 31
0.0
  0
LINE
  5
37E
330
1F
100
AcDbEntity
  8
0
  6
Continuous
 62
     7
370
    25
100
AcDbLine
 10
27.8205642683
 20
24.7864472643
 30
0.0
 11
29.6447833903
 21
23.7333479811
 31
0.0
  0
LINE
  5
37F
330
1F
100
AcDbEntity
  8
0
  6
Continuous
 62
     7
370
    25
100
AcDbLine
 10
27.8205642683
 20
24.7864472643
 30
0.0
 11
27.8205642683
 21
22.5572908479
 31
0.0
  0
LINE
  5
380
330
1F
100
AcDbEntity
  8
0
  6
Continuous
 62
     7
370
    25
100
AcDbLine
 10
29.6447833903
 20
21.5041915646
 30
0.0
 11
27.8205642683
 21
22.5572908479
 31
0.0
  0
LINE
  5
381
330
1F
100
AcDbEntity
  8
0
  6
Continuous
 62
     7
370
    25
100
AcDbLine
 10
29.6447833903
 20
21.5041915646
 30
0.0
 11
29.6447833903
 21
23.7333479811
 31
0.0
  0
LWPOLYLINE
  5
382
330
1F
100
AcDbEntity
  8
0
  6
Continuous
 62
     7
370
    25
100
AcDbPolyline
 90
       17
 70
   128
 43
0.0
 10
28.7768680031
 20
24.4722023807
 10
28.7735039219
 20
24.4936742134
 10
28.7639238293
 20
24.5157612397
 10
28.7495862074
 20
24.53510091
 10
28.7326738293
 20
24.5487489349
 10
28.7157614512
 20
24.5546275262
 10
28.7014238293
 20
24.5518417217
 10
28.6918437366
 20
24.540815635
 10
28.6884796555
 20
24.5232278876
 10
28.6918437366
 20
24.5017560549
 10
28.7014238293
 20
24.4796690286
 10
28.7157614512
 20
24.4603293583
 10
28.7326738293
 20
24.4466813334
 10
28.7495862074
 20
24.4408027421
 10
28.7639238293
 20
24.4435885466
 10
28.7735039219
 20
24.4546146333
 10
28.7768680031
 20
24.4722023807
  0
LWPOLYLINE
  5
383
330
1F
100
AcDbEntity
  8
0
  6
Continuous
 62
     7
370
    25
100
AcDbPolyline
 90
       17
 70
   128
 43
0.0
 10
28.7768680031
 20
21.7674109413
 10
28.7735039219
 20
21.788882774
 10
28.7639238293
 20
21.8109698004
 10
28.7495862074
 20
21.8303094707
 10
28.7326738293
 20
21.8439574955
 10
28.7157614512
 20
21.8498360868
 10
28.7014238293
 20
21.8470502824
 10
28.6918437366
 20
21.8360241956
 10
28.6884796555
 20
21.8184364483
 10
28.6918437366
 20
21.7969646155
 10
28.7014238293
 20
21.7748775892
 10
28.7157614512
 20
21.7555379189
 10
28.7326738293
 20
21.741889894
 10
28.7495862074
 20
21.7360113027
 10
28.7639238293
 20
21.7387971072
 10
28.7735039219
 20
21.749823194
 10
28.7768680031
 20
21.7674109413
  0
LWPOLYLINE
  5
384
330
1F
100
AcDbEntity
  8
0
  6
Continuous
 62
     7
370
    25
100
AcDbPolyline
 90
       17
 70
   128
 43
0.0
 10
29.4450839113
 20
24.0864495478
 10
29.4413161404
 20
24.1104980005
 10
29.4305864367
 20
24.13523547
 10
29.4145283002
 20
24.1568959007
 10
29.3955864367
 20
24.1721816886
 10
29.3766445732
 20
24.1787657108
 10
29.3605864367
 20
24.1756456098
 10
29.3498567329
 20
24.1632963926
 10
29.346088962
 20
24.1435981156
 10
29.3498567329
 20
24.119549663
 10
29.3605864367
 20
24.0948121935
 10
29.3766445732
 20
24.0731517627
 10
29.3955864367
 20
24.0578659749
 10
29.4145283002
 20
24.0512819526
 10
29.4305864367
 20
24.0544020536
 10
29.4413161404
 20
24.0667512708
 10
29.4450839113
 20
24.0864495478
  0
LWPOLYLINE
  5
385
330
1F
100
AcDbEntity
  8
0
  6
Continuous
 62
     7
370
    25
100
AcDbPolyline
 90
       17
 70
   128
 43
0.0
 10
28.1192586966
 20
24.8518321527
 10
28.1154909257
 20
24.8758806053
 10
28.1047612219
 20
24.9006180748
 10
28.0887030854
 20
24.9222785056
 10
28.0697612219
 20
24.9375642934
 10
28.0508193584
 20
24.9441483157
 10
28.0347612219
 20
24.9410282147
 10
28.0240315182
 20
24.9286789975
 10
28.0202637472
 20
24.9089807205
 10
28.0240315182
 20
24.8849322678
 10
28.0347612219
 20
24.8601947983
 10
28.0508193584
 20
24.8385343676
 10
28.0697612219
 20
24.8232485797
 10
28.0887030854
 20
24.8166645575
 10
28.1047612219
 20
24.8197846585
 10
28.1154909257
 20
24.8321338757
 10
28.1192586966
 20
24.8518321527
  0
LWPOLYLINE
  5
386
330
1F
100
AcDbEntity
  8
0
  6
Continuous
 62
     7
370
    25
100
AcDbPolyline
 90
       17
 70
   128
 43
0.0
 10
28.0750645228
 20
25.0814801091
 10
28.0712967519
 20
25.1055285618
 10
28.0605670481
 20
25.1302660313
 10
28.0445089116
 20
25.151926462
 10
28.0255670481
 20
25.1672122499
 10
28.0066251846
 20
25.1737962721
 10
27.9905670481
 20
25.1706761711
 10
27.9798373443
 20
25.1583269539
 10
27.9760695734
 20
25.1386286769
 10
27.9798373443
 20
25.1145802243
 10
27.9905670481
 20
25.0898427548
 10
28.0066251846
 20
25.068182324
 10
28.0255670481
 20
25.0528965362
 10
28.0445089116
 20
25.0463125139
 10
28.0605670481
 20
25.0494326149
 10
28.0712967519
 20
25.0617818321
 10
28.0750645228
 20
25.0814801091
  0
LWPOLYLINE
  5
387
330
1F
100
AcDbEntity
  8
0
  6
Continuous
 62
     7
370
    25
100
AcDbPolyline
 90
       17
 70
   128
 43
0.0
 10
29.4892780852
 20
24.2650719973
 10
29.4855103143
 20
24.28912045
 10
29.4747806105
 20
24.3138579195
 10
29.458722474
 20
24.3355183502
 10
29.4397806105
 20
24.350804138
 10
29.420838747
 20
24.3573881603
 10
29.4047806105
 20
24.3542680593
 10
29.3940509067
 20
24.3419188421
 10
29.3902831358
 20
24.3222205651
 10
29.3940509067
 20
24.2981721124
 10
29.4047806105
 20
24.273434643
 10
29.420838747
 20
24.2517742122
 10
29.4397806105
 20
24.2364884244
 10
29.458722474
 20
24.2299044021
 10
29.4747806105
 20
24.2330245031
 10
29.4855103143
 20
24.2453737203
 10
29.4892780852
 20
24.2650719973
  0
LWPOLYLINE
  5
388
330
1F
100
AcDbEntity
  8
0
  6
Continuous
 62
     7
370
    25
100
AcDbPolyline
 90
       17
 70
   128
 43
0.0
 10
29.4450839113
 20
21.3816581084
 10
29.4413161404
 20
21.4057065611
 10
29.4305864367
 20
21.4304440306
 10
29.4145283002
 20
21.4521044614
 10
29.3955864367
 20
21.4673902492
 10
29.3766445732
 20
21.4739742715
 10
29.3605864367
 20
21.4708541705
 10
29.3498567329
 20
21.4585049533
 10
29.346088962
 20
21.4388066763
 10
29.3498567329
 20
21.4147582236
 10
29.3605864367
 20
21.3900207541
 10
29.3766445732
 20
21.3683603234
 10
29.3955864367
 20
21.3530745355
 10
29.4145283002
 20
21.3464905133
 10
29.4305864367
 20
21.3496106143
 10
29.4413161404
 20
21.3619598315
 10
29.4450839113
 20
21.3816581084
  0
LWPOLYLINE
  5
389
330
1F
100
AcDbEntity
  8
0
  6
Continuous
 62
     7
370
    25
100
AcDbPolyline
 90
       17
 70
   128
 43
0.0
 10
28.1192586966
 20
22.1470407133
 10
28.1154909257
 20
22.171089166
 10
28.1047612219
 20
22.1958266354
 10
28.0887030854
 20
22.2174870662
 10
28.0697612219
 20
22.232772854
 10
28.0508193584
 20
22.2393568763
 10
28.0347612219
 20
22.2362367753
 10
28.0240315182
 20
22.2238875581
 10
28.0202637472
 20
22.2041892811
 10
28.0240315182
 20
22.1801408284
 10
28.0347612219
 20
22.155403359
 10
28.0508193584
 20
22.1337429282
 10
28.0697612219
 20
22.1184571404
 10
28.0887030854
 20
22.1118731181
 10
28.1047612219
 20
22.1149932191
 10
28.1154909257
 20
22.1273424363
 10
28.1192586966
 20
22.1470407133
  0
LWPOLYLINE
  5
38A
330
1F
100
AcDbEntity
  8
0
  6
Continuous
 62
     7
370
    25
100
AcDbPolyline
 90
       17
 70
   128
 43
0.0
 10
29.3902831358
 20
21.2091587198
 10
29.3940509067
 20
21.1851102671
 10
29.4047806105
 20
21.1603727977
 10
29.420838747
 20
21.1387123669
 10
29.4397806105
 20
21.1234265791
 10
29.458722474
 20
21.1168425568
 10
29.4747806105
 20
21.1199626578
 10
29.4855103143
 20
21.132311875
 10
29.4892780852
 20
21.152010152
 10
29.4855103143
 20
21.1760586047
 10
29.4747806105
 20
21.2007960741
 10
29.458722474
 20
21.2224565049
 10
29.4397806105
 20
21.2377422927
 10
29.420838747
 20
21.244326315
 10
29.4047806105
 20
21.241206214
 10
29.3940509067
 20
21.2288569968
 10
29.3902831358
 20
21.2091587198
  0
LWPOLYLINE
  5
38B
330
1F
100
AcDbEntity
  8
0
  6
Continuous
 62
     7
370
    25
100
AcDbPolyline
 90
       17
 70
   128
 43
0.0
 10
27.9760695734
 20
22.0255668316
 10
27.9798373443
 20
22.0015183789
 10
27.9905670481
 20
21.9767809095
 10
28.0066251846
 20
21.9551204787
 10
28.0255670481
 20
21.9398346909
 10
28.0445089116
 20
21.9332506686
 10
28.0605670481
 20
21.9363707696
 10
28.0712967519
 20
21.9487199868
 10
28.0750645228
 20
21.9684182638
 10
28.0712967519
 20
21.9924667165
 10
28.0605670481
 20
22.017204186
 10
28.0445089116
 20
22.0388646167
 10
28.0255670481
 20
22.0541504046
 10
28.0066251846
 20
22.0607344268
 10
27.9905670481
 20
22.0576143258
 10
27.9798373443
 20
22.0452651086
 10
27.9760695734
 20
22.0255668316
  0
LINE
  5
38C
330
1F
100
AcDbEntity
  8
0
  6
Continuous
 62
     7
370
    25
100
AcDbLine
 10
29.6961337406
 20
24.4794178261
 30
0.0
 11
31.4463082847
 21
25.4897601998
 31
0.0
  0
ARC
  5
38D
330
1F
100
AcDbEntity
  8
0
  6
Continuous
 62
     7
370
    25
100
AcDbCircle
 10
31.3997486484
 20
25.4118790316
 30
0.0
 40
0.0907374017794642
100
AcDbArc
 50
0.8722148325
 51
59.1277853132
  0
LINE
  5
38E
330
1F
100
AcDbEntity
  8
0
  6
Continuous
 62
     7
370
    25
100
AcDbLine
 10
31.4904755367
 20
25.4132602756
 30
0.0
 11
29.7403009925
 21
24.402917902
 31
0.0
  0
LINE
  5
38F
330
1F
100
AcDbEntity
  8
0
  6
Continuous
 62
     7
370
    25
100
AcDbLine
 10
29.7403009925
 20
20.7243393676
 30
0.0
 11
31.4904755367
 21
21.8809415794
 31
0.0
  0
LINE
  5
390
330
1F
100
AcDbEntity
  8
0
  6
Continuous
 62
     7
370
    25
100
AcDbLine
 10
29.6460463363
 20
26.5290293011
 30
0.0
 11
27.769213918
 21
25.5918049618
 31
0.0
  0
LINE
  5
391
330
1F
100
AcDbEntity
  8
0
  6
Continuous
 62
     7
370
    25
100
AcDbLine
 10
31.4463082847
 20
25.4897601998
 30
0.0
 11
29.6460463363
 21
26.5290293011
 31
0.0
  0
ELLIPSE
  5
392
330
1F
100
AcDbEntity
  8
0
  6
Continuous
 62
     7
370
    25
100
AcDbEllipse
 10
30.6043919646
 20
25.4694307747
 30
0.0
 11
0.4024427618092794
 21
-0.01176311161446364
 31
0.0
210
0.0
220
0.0
230
1.0
 40
0.5567969691
 41
3.943263782300009
 42
6.670993715929817
  0
ELLIPSE
  5
393
330
1F
100
AcDbEntity
  8
0
  6
Continuous
 62
     7
370
    25
100
AcDbEllipse
 10
30.6043919646
 20
25.4694307747
 30
0.0
 11
0.4024427618092794
 21
-0.01176311161446364
 31
0.0
210
0.0
220
0.0
230
1.0
 40
0.5567969691
 41
1.728131212387655
 42
1.894245335034988
  0
ELLIPSE
  5
394
330
1F
100
AcDbEntity
  8
0
  6
Continuous
 62
     7
370
    25
100
AcDbEllipse
 10
30.6043919646
 20
25.4694307747
 30
0.0
 11
0.4024427618092794
 21
-0.01176311161446364
 31
0.0
210
0.0
220
0.0
230
1.0
 40
0.5567969691
 41
2.413374667672062
 42
3.943263782300032
  0
ELLIPSE
  5
395
330
1F
100
AcDbEntity
  8
0
  6
Continuous
 62
     7
370
    25
100
AcDbEllipse
 10
29.5790871319
 20
26.0613266557
 30
0.0
 11
0.4024427618092723
 21
-0.01176311161447074
 31
0.0
210
0.0
220
0.0
230
1.0
 40
0.5567969691
 41
3.943263782300035
 42
6.578230915154033
  0
ELLIPSE
  5
396
330
1F
100
AcDbEntity
  8
0
  6
Continuous
 62
     7
370
    25
100
AcDbEllipse
 10
29.5790871319
 20
26.0613266557
 30
0.0
 11
0.4024427618092723
 21
-0.01176311161447074
 31
0.0
210
0.0
220
0.0
230
1.0
 40
0.5567969691
 41
1.283091959608175
 42
1.444266019738398
  0
ELLIPSE
  5
397
330
1F
100
AcDbEntity
  8
0
  6
Continuous
 62
     7
370
    25
100
AcDbEllipse
 10
29.5790871319
 20
26.0613266557
 30
0.0
 11
0.4024427618092723
 21
-0.01176311161447074
 31
0.0
210
0.0
220
0.0
230
1.0
 40
0.5567969691
 41
2.413374668027938
 42
3.943263782300048
  0
LINE
  5
398
330
1F
100
AcDbEntity
  8
0
  6
Continuous
 62
     7
370
    25
100
AcDbLine
 10
29.6427450086
 20
23.3291900479
 30
0.0
 11
29.6447833903
 21
23.3280133152
 31
0.0
  0
LINE
  5
399
330
1F
100
AcDbEntity
  8
0
  6
Continuous
 62
     7
370
    25
100
AcDbLine
 10
29.6427450086
 20
23.6224400267
 30
0.0
 11
29.6427450086
 21
23.3291900479
 31
0.0
  0
LINE
  5
39A
330
1F
100
AcDbEntity
  8
0
  6
Continuous
 62
     7
370
    25
100
AcDbLine
 10
27.8205642683
 20
22.5572908479
 30
0.0
 11
27.8937442177
 21
22.5966857735
 31
0.0
  0
LINE
  5
39B
330
1F
100
AcDbEntity
  8
0
  6
Continuous
 62
     7
370
    25
100
AcDbLine
 10
28.0811153388
 20
22.4885187277
 30
0.0
 11
29.6427450086
 21
23.3291900479
 31
0.0
  0
ELLIPSE
  5
39C
330
1F
100
AcDbEntity
  8
0
  6
Continuous
 62
     7
370
    25
100
AcDbEllipse
 10
29.0097384462
 20
24.0568675937
 30
0.0
 11
0.0358368422611548
 21
0.05781559055407826
 31
0.0
210
0.0
220
0.0
230
1.0
 40
0.5971668203
 41
1.008680776220922
 42
2.374828564799522
  0
ELLIPSE
  5
39D
330
1F
100
AcDbEntity
  8
0
  6
Continuous
 62
     7
370
    25
100
AcDbEllipse
 10
29.0097384462
 20
24.0568675937
 30
0.0
 11
0.0358368422611548
 21
0.05781559055407826
 31
0.0
210
0.0
220
0.0
230
1.0
 40
0.5971668203
 41
2.374828564799522
 42
5.311935208297168
  0
LINE
  5
39E
330
1F
100
AcDbEntity
  8
0
  6
Continuous
 62
     7
370
    25
100
AcDbLine
 10
31.5072659303
 20
25.0401799694
 30
0.0
 11
31.5375602344
 21
25.0576684989
 31
0.0
  0
LINE
  5
39F
330
1F
100
AcDbEntity
  8
0
  6
Continuous
 62
     7
370
    25
100
AcDbLine
 10
31.5375602344
 20
24.9882625299
 30
0.0
 11
31.5375602344
 21
25.0576684989
 31
0.0
  0
LINE
  5
3A0
330
1F
100
AcDbEntity
  8
0
  6
Continuous
 62
     7
370
    25
100
AcDbLine
 10
31.5072659303
 20
24.9707740004
 30
0.0
 11
31.5375602344
 21
24.9882625299
 31
0.0
  0
LINE
  5
3A1
330
1F
100
AcDbEntity
  8
0
  6
Continuous
 62
     7
370
    25
100
AcDbLine
 10
31.5072659303
 20
25.1261825354
 30
0.0
 11
31.5375602344
 21
25.1086940059
 31
0.0
  0
ARC
  5
3A2
330
1F
100
AcDbEntity
  8
0
  6
Continuous
 62
     7
370
    25
100
AcDbCircle
 10
31.5278772952
 20
25.0831812524
 30
0.0
 40
0.027288457302077
100
AcDbArc
 50
290.7834208003
 51
69.2165792006
  0
ARC
  5
3A3
330
1F
100
AcDbEntity
  8
0
  6
Continuous
 62
     7
370
    25
100
AcDbCircle
 10
31.5245874942
 20
25.016894432
 30
0.0
 40
0.0314337049055167
100
AcDbArc
 50
294.3746582941
 51
354.3052007494
  0
LINE
  5
3A4
330
1F
100
AcDbEntity
  8
0
  6
Continuous
 62
     7
370
    25
100
AcDbLine
 10
29.6447833903
 20
21.5858323758
 30
0.0
 11
27.8937442177
 21
22.5966857735
 31
0.0
  0
LINE
  5
3A5
330
1F
100
AcDbEntity
  8
0
  6
Continuous
 62
     7
370
    25
100
AcDbLine
 10
29.173498783
 20
21.8578991885
 30
0.0
 11
29.5202147402
 21
22.0649280279
 31
0.0
  0
ELLIPSE
  5
3A6
330
1F
100
AcDbEntity
  8
0
  6
Continuous
 62
     7
370
    25
100
AcDbEllipse
 10
30.0915603792
 20
22.2045935371
 30
0.0
 11
0.6101722648562175
 21
0.01912536169148993
 31
0.0
210
0.0
220
0.0
230
1.0
 40
0.597072973
 41
3.482007557705598
 42
3.872296795528286
  0
LINE
  5
3A7
330
1F
100
AcDbEntity
  8
0
  6
Continuous
 62
     7
370
    25
100
AcDbLine
 10
29.37758142
 20
22.7907340068
 30
0.0
 11
28.4675988995
 21
22.2654065172
 31
0.0
  0
LINE
  5
3A8
330
1F
100
AcDbEntity
  8
0
  6
Continuous
 62
     7
370
    25
100
AcDbLine
 10
29.6447833903
 20
21.7146852027
 30
0.0
 11
29.5331817877
 21
21.6502586096
 31
0.0
  0
LINE
  5
3A9
330
1F
100
AcDbEntity
  8
0
  6
Continuous
 62
     7
370
    25
100
AcDbLine
 10
29.6447833903
 20
21.9038104132
 30
0.0
 11
29.3788267809
 21
21.7393658583
 31
0.0
  0
ARC
  5
3AA
330
1F
100
AcDbEntity
  8
0
  6
Continuous
 62
     7
370
    25
100
AcDbCircle
 10
28.8108499797
 20
21.8380538258
 30
0.0
 40
0.0868117331333272
100
AcDbArc
 50
173.5767529174
 51
246.4178705499
  0
LINE
  5
3AB
330
1F
100
AcDbEntity
  8
0
  6
Continuous
 62
     7
370
    25
100
AcDbLine
 10
29.4917454643
 20
22.4415574454
 30
0.0
 11
28.8499109086
 21
22.0447024921
 31
0.0
  0
ELLIPSE
  5
3AC
330
1F
100
AcDbEntity
  8
0
  6
Continuous
 62
     7
370
    25
100
AcDbEllipse
 10
30.0918269069
 20
22.3853479282
 30
0.0
 11
0.6025309940681645
 21
0.009270237717945662
 31
0.0
210
0.0
220
0.0
230
1.0
 40
0.5872748814
 41
3.107424467448237
 42
3.486137435390249
  0
LINE
  5
3AD
330
1F
100
AcDbEntity
  8
0
  6
Continuous
 62
     7
370
    25
100
AcDbLine
 10
29.5265459464
 20
22.2571027691
 30
0.0
 11
29.0042659154
 21
21.9555952434
 31
0.0
  0
LINE
  5
3AE
330
1F
100
AcDbEntity
  8
0
  6
Continuous
 62
     7
370
    25
100
AcDbLine
 10
29.5202147402
 20
22.0649280279
 30
0.0
 11
29.5265459464
 21
22.2571027691
 31
0.0
  0
LINE
  5
3AF
330
1F
100
AcDbEntity
  8
0
  6
Continuous
 62
     7
370
    25
100
AcDbLine
 10
29.4964317698
 20
22.5511023777
 30
0.0
 11
29.4967414018
 21
22.5565749655
 31
0.0
  0
ARC
  5
3B0
330
1F
100
AcDbEntity
  8
0
  6
Continuous
 62
     7
370
    25
100
AcDbCircle
 10
29.4274650419
 20
22.9889550488
 30
0.0
 40
0.0659347626522883
100
AcDbArc
 50
304.0563508424
 51
7.255829551
  0
LWPOLYLINE
  5
3B1
330
1F
100
AcDbEntity
  8
0
  6
Continuous
 62
     7
370
    25
100
AcDbPolyline
 90
        9
 70
   128
 43
0.0
 10
29.5218405115
 20
23.8043213943
 10
29.5126777583
 20
23.7809862752
 10
29.5126777583
 20
23.7476981192
 10
29.5230912094
 20
23.7106462808
 10
29.5425117173
 20
23.6748348161
 10
29.5683164347
 20
23.6451002619
 10
29.5970202917
 20
23.6254584345
 10
29.6247466733
 20
23.6185620714
 10
29.6438573109
 20
23.6229967051
  0
ARC
  5
3B2
330
1F
100
AcDbEntity
  8
0
  6
Continuous
 62
     7
370
    25
100
AcDbCircle
 10
29.5288805265
 20
23.683800134
 30
0.0
 40
0.1143387088989957
100
AcDbArc
 50
2.6326010103
 51
31.8987860728
  0
LWPOLYLINE
  5
3B3
330
1F
100
AcDbEntity
  8
0
  6
Continuous
 62
     7
370
    25
100
AcDbPolyline
 90
       13
 70
   128
 43
0.0
 10
29.5534718667
 20
23.7860610016
 10
29.551962
 20
23.7852561939
 10
29.5403892481
 20
23.771936681
 10
29.536325438
 20
23.7506906823
 10
29.5403892481
 20
23.7247527083
 10
29.551962
 20
23.6980715805
 10
29.5692818472
 20
23.6747092588
 10
29.589712
 20
23.6582224448
 10
29.6101421528
 20
23.6511211065
 10
29.627462
 20
23.6544863583
 10
29.6390347519
 20
23.6678058711
 10
29.643098562
 20
23.6890518699
 10
29.643098562
 20
23.6890518699
  0
LINE
  5
3B4
330
1F
100
AcDbEntity
  8
0
  6
Continuous
 62
     7
370
    25
100
AcDbLine
 10
29.4928718058
 20
22.7241782837
 30
0.0
 11
29.4928718058
 21
22.9972826027
 31
0.0
  0
LINE
  5
3B5
330
1F
100
AcDbEntity
  8
0
  6
Continuous
 62
     7
370
    25
100
AcDbLine
 10
29.3775799657
 20
22.7907348463
 30
0.0
 11
29.4928718058
 21
22.7241782837
 31
0.0
  0
LINE
  5
3B6
330
1F
100
AcDbEntity
  8
0
  6
Continuous
 62
     7
370
    25
100
AcDbLine
 10
29.3775799657
 20
22.884215132
 30
0.0
 11
29.3775799657
 21
22.7907348463
 31
0.0
  0
LINE
  5
3B7
330
1F
100
AcDbEntity
  8
0
  6
Continuous
 62
     7
370
    25
100
AcDbLine
 10
29.4928718058
 20
22.7241782837
 30
0.0
 11
29.6447833903
 21
22.8118749748
 31
0.0
  0
ARC
  5
3B8
330
1F
100
AcDbEntity
  8
0
  6
Continuous
 62
     7
370
    25
100
AcDbCircle
 10
28.1209940905
 20
23.5543476055
 30
0.0
 40
0.0283390435676368
100
AcDbArc
 50
204.5304465675
 51
307.5431127411
  0
ARC
  5
3B9
330
1F
100
AcDbEntity
  8
0
  6
Continuous
 62
     7
370
    25
100
AcDbCircle
 10
28.1877945463
 20
24.0621408851
 30
0.0
 40
0.0959207100430822
100
AcDbArc
 50
121.0899432609
 51
164.8378003563
  0
LINE
  5
3BA
330
1F
100
AcDbEntity
  8
0
  6
Continuous
 62
     7
370
    25
100
AcDbLine
 10
28.4125203579
 20
24.2919243044
 30
0.0
 11
28.1382627197
 21
24.1442833271
 31
0.0
  0
ARC
  5
3BB
330
1F
100
AcDbEntity
  8
0
  6
Continuous
 62
     7
370
    25
100
AcDbCircle
 10
28.4299156155
 20
24.2692676756
 30
0.0
 40
0.0285642752670371
100
AcDbArc
 50
352.4151073904
 51
127.5162554963
  0
LINE
  5
3BC
330
1F
100
AcDbEntity
  8
0
  6
Continuous
 62
     7
370
    25
100
AcDbLine
 10
28.4582299642
 20
23.7551593258
 30
0.0
 11
28.4582299642
 21
24.2654973332
 31
0.0
  0
ARC
  5
3BD
330
1F
100
AcDbEntity
  8
0
  6
Continuous
 62
     7
370
    25
100
AcDbCircle
 10
28.3650847091
 20
23.7598155061
 30
0.0
 40
0.0932615599221132
100
AcDbArc
 50
300.5726330936
 51
357.1382589718
  0
LINE
  5
3BE
330
1F
100
AcDbEntity
  8
0
  6
Continuous
 62
     7
370
    25
100
AcDbLine
 10
28.1382627197
 20
23.5318777182
 30
0.0
 11
28.4125203579
 21
23.6795186955
 31
0.0
  0
ARC
  5
3BF
330
1F
100
AcDbEntity
  8
0
  6
Continuous
 62
     7
370
    25
100
AcDbCircle
 10
28.182108094
 20
24.0661868898
 30
0.0
 40
0.0938748328187921
100
AcDbArc
 50
120.7556896993
 51
157.7664905353
  0
LINE
  5
3C0
330
1F
100
AcDbEntity
  8
0
  6
Continuous
 62
     7
370
    25
100
AcDbLine
 10
28.1341025298
 20
24.1468587562
 30
0.0
 11
28.1382627197
 21
24.1442833271
 31
0.0
  0
LINE
  5
3C1
330
1F
100
AcDbEntity
  8
0
  6
Continuous
 62
     7
370
    25
100
AcDbLine
 10
28.4125203579
 20
24.2919243044
 30
0.0
 11
28.4083601679
 21
24.2944997336
 31
0.0
  0
LINE
  5
3C2
330
1F
100
AcDbEntity
  8
0
  6
Continuous
 62
     7
370
    25
100
AcDbLine
 10
28.4083601679
 20
24.2944997336
 30
0.0
 11
28.1341025298
 21
24.1468587562
 31
0.0
  0
ARC
  5
3C3
330
1F
100
AcDbEntity
  8
0
  6
Continuous
 62
     7
370
    25
100
AcDbCircle
 10
28.4265317714
 20
24.268660622
 30
0.0
 40
0.0315890307221686
100
AcDbArc
 50
62.2132523743
 51
125.1171718956
  0
LWPOLYLINE
  5
3C4
330
1F
100
AcDbEntity
  8
0
  6
Continuous
 62
     7
370
    25
100
AcDbPolyline
 90
        3
 70
   128
 43
0.0
 10
28.1012046879
 20
23.5323457964
 10
28.0960963811
 20
23.5366742565
 10
28.095212907
 20
23.5377335839
  0
LINE
  5
3C5
330
1F
100
AcDbEntity
  8
0
  6
Continuous
 62
     7
370
    25
100
AcDbLine
 10
31.0628122686
 20
24.0696852264
 30
0.0
 11
31.0628122686
 21
23.5984917978
 31
0.0
  0
LINE
  5
3C6
330
1F
100
AcDbEntity
  8
0
  6
Continuous
 62
     7
370
    25
100
AcDbLine
 10
31.0628122686
 20
23.2321636823
 30
0.0
 11
31.0628122686
 21
23.0881537904
 31
0.0
  0
LINE
  5
3C7
330
1F
100
AcDbEntity
  8
0
  6
Continuous
 62
     7
370
    25
100
AcDbLine
 10
31.0628122686
 20
22.7218256749
 30
0.0
 11
31.0628122686
 21
22.4366036026
 31
0.0
  0
LINE
  5
3C8
330
1F
100
AcDbEntity
  8
0
  6
Continuous
 62
     7
370
    25
100
AcDbLine
 10
30.984266337
 20
22.431974381
 30
0.0
 11
30.984266337
 21
22.7611165549
 31
0.0
  0
LINE
  5
3C9
330
1F
100
AcDbEntity
  8
0
  6
Continuous
 62
     7
370
    25
100
AcDbLine
 10
30.984266337
 20
23.1014463254
 30
0.0
 11
30.984266337
 21
23.2714545623
 31
0.0
  0
LINE
  5
3CA
330
1F
100
AcDbEntity
  8
0
  6
Continuous
 62
     7
370
    25
100
AcDbLine
 10
30.984266337
 20
23.6117843329
 30
0.0
 11
30.984266337
 21
24.0650560048
 31
0.0
  0
LINE
  5
3CB
330
1F
100
AcDbEntity
  8
0
  6
Continuous
 62
     7
370
    25
100
AcDbLine
 10
28.9453686245
 20
28.3902740055
 30
0.0
 11
29.1657767328
 21
28.2630351129
 31
0.0
  0
LINE
  5
3CC
330
1F
100
AcDbEntity
  8
0
  6
Continuous
 62
     7
370
    25
100
AcDbLine
 10
28.7945456726
 20
30.2329049878
 30
0.0
 11
28.7945456726
 21
29.9530303397
 31
0.0
  0
SPLINE
  5
3CD
330
1F
100
AcDbEntity
  8
0
  6
Continuous
 62
     7
370
    25
100
AcDbSpline
210
0.0
220
0.0
230
1.0
 70
     8
 71
     3
 72
    18
 73
    14
 74
     0
 42
0.00000001
 43
0.00000001
 40
0.0
 40
0.0
 40
0.0
 40
0.0
 40
0.0379317519582183
 40
0.1291326542303485
 40
0.1848715358255622
 40
0.2422504263312446
 40
0.3003047298290691
 40
0.360476540324719
 40
0.4501088806900226
 40
0.541905261615261
 40
0.6656682245311387
 40
0.7901998791949117
 40
1.0
 40
1.0
 40
1.0
 40
1.0
 10
29.91153315463096
 20
30.19929036746173
 30
0.0
 10
29.91995271003389
 20
30.19733542795601
 30
0.0
 10
29.94861575564846
 20
30.19068014539717
 30
0.0
 10
29.99434528435743
 20
30.19217433714357
 30
0.0
 10
30.04757450547763
 20
30.20475614236591
 30
0.0
 10
30.09404411952865
 20
30.22593813897101
 30
0.0
 10
30.14167792363807
 20
30.25933481243526
 30
0.0
 10
30.19585792225559
 20
30.30941420591589
 30
0.0
 10
30.25453171305428
 20
30.37773597623449
 30
0.0
 10
30.32248027838861
 20
30.47168179748544
 30
0.0
 10
30.39224434918099
 20
30.58173038746146
 30
0.0
 10
30.48038946566249
 20
30.73359697893741
 30
0.0
 10
30.54158735239985
 20
30.84607669658636
 30
0.0
 10
30.57999029514292
 20
30.91666005145229
 30
0.0
  0
SPLINE
  5
3CE
330
1F
100
AcDbEntity
  8
0
  6
Continuous
 62
     7
370
    25
100
AcDbSpline
210
0.0
220
0.0
230
1.0
 70
     8
 71
     3
 72
    18
 73
    14
 74
     0
 42
0.00000001
 43
0.00000001
 40
0.0
 40
0.0
 40
0.0
 40
0.0
 40
0.2307804777352887
 40
0.3465212626636415
 40
0.4627492065214314
 40
0.5520568781184346
 40
0.643030453691872
 40
0.6986304009604924
 40
0.7558662692654252
 40
0.8142773225388739
 40
0.8764444459396614
 40
0.9401812210714601
 40
0.9999999999999999
 40
0.9999999999999999
 40
0.9999999999999999
 40
0.9999999999999999
 10
30.20875923501997
 20
31.13096718080575
 30
0.0
 10
30.16641599060802
 20
31.05312000261081
 30
0.0
 10
30.10283680634212
 20
30.9362309886542
 30
0.0
 10
30.01289214727631
 20
30.78283649904733
 30
0.0
 10
29.94638568269616
 20
30.67895705407894
 30
0.0
 10
29.87993608202666
 20
30.58776776573196
 30
0.0
 10
29.82224060003524
 20
30.52125323973529
 30
0.0
 10
29.76887829462761
 20
30.47251976085678
 30
0.0
 10
29.72230938391895
 20
30.43993702708689
 30
0.0
 10
29.67391918428777
 20
30.41800539762495
 30
0.0
 10
29.62592525425189
 20
30.40748290417641
 30
0.0
 10
29.57983453310537
 20
30.40526076220022
 30
0.0
 10
29.55228401775297
 20
30.41160343156629
 30
0.0
 10
29.53894557902582
 20
30.41467420195383
 30
0.0
  0
ARC
  5
3CF
330
1F
100
AcDbEntity
  8
0
  6
Continuous
 62
     7
370
    25
100
AcDbCircle
 10
28.8506097643
 20
30.3349337828
 30
0.0
 40
0.0251505230119843
100
AcDbArc
 50
54.3834978222
 51
114.2947754732
  0
ARC
  5
3D0
330
1F
100
AcDbEntity
  8
0
  6
Continuous
 62
     7
370
    25
100
AcDbCircle
 10
28.8049243591
 20
30.2558110936
 30
0.0
 40
0.0251476999962444
100
AcDbArc
 50
185.7002670391
 51
245.6248651658
  0
LINE
  5
3D1
330
1F
100
AcDbEntity
  8
0
  6
Continuous
 62
     7
370
    25
100
AcDbLine
 10
29.5016524538
 20
28.5181726003
 30
0.0
 11
29.5016524538
 21
30.1343478016
 31
0.0
  0
LINE
  5
3D2
330
1F
100
AcDbEntity
  8
0
  6
Continuous
 62
     7
370
    25
100
AcDbLine
 10
29.420335174
 20
28.7610672836
 30
0.0
 11
29.3748757585
 21
28.7873104456
 31
0.0
  0
ARC
  5
3D3
330
1F
100
AcDbEntity
  8
0
  6
Continuous
 62
     7
370
    25
100
AcDbCircle
 10
30.6698385383
 20
29.1217873511
 30
0.0
 40
0.005029392784938
100
AcDbArc
 50
294.3746582936
 51
354.3052007488
  0
ARC
  5
3D4
330
1F
100
AcDbEntity
  8
0
  6
Continuous
 62
     7
370
    25
100
AcDbCircle
 10
30.6774468976
 20
29.1408760854
 30
0.0
 40
0.021344214520059
100
AcDbArc
 50
255.8272855733
 51
304.68081762
  0
LINE
  5
3D5
330
1F
100
AcDbEntity
  8
0
  6
Continuous
 62
     7
370
    25
100
AcDbLine
 10
31.2308231119
 20
31.2056223684
 30
0.0
 11
31.2296807612
 21
31.2049629034
 31
0.0
  0
ARC
  5
3D6
330
1F
100
AcDbEntity
  8
0
  6
Continuous
 62
     7
370
    25
100
AcDbCircle
 10
29.2480616964
 20
28.2395893101
 30
0.0
 40
0.0239731753324815
100
AcDbArc
 50
304.02862691
 51
7.2586130778
  0
ARC
  5
3D7
330
1F
100
AcDbEntity
  8
0
  6
Continuous
 62
     7
370
    25
100
AcDbCircle
 10
29.2147503154
 20
28.2576211133
 30
0.0
 40
0.0492719310505876
100
AcDbArc
 50
173.6916021259
 51
235.0911089443
  0
LINE
  5
3D8
330
1F
100
AcDbEntity
  8
0
  6
Continuous
 62
     7
370
    25
100
AcDbLine
 10
29.3748757585
 20
28.444985972
 30
0.0
 11
29.5016524538
 21
28.5181726003
 31
0.0
  0
LINE
  5
3D9
330
1F
100
AcDbEntity
  8
0
  6
Continuous
 62
     7
370
    25
100
AcDbLine
 10
29.420335174
 20
28.5977723912
 30
0.0
 11
29.3748757585
 21
28.6240155532
 31
0.0
  0
ARC
  5
3DA
330
1F
100
AcDbEntity
  8
0
  6
Continuous
 62
     7
370
    25
100
AcDbCircle
 10
30.8153301316
 20
30.8862089935
 30
0.0
 40
0.0263845155688874
100
AcDbArc
 50
355.1404510654
 51
45.9929524397
  0
LINE
  5
3DB
330
1F
100
AcDbEntity
  8
0
  6
Continuous
 62
     7
370
    25
100
AcDbLine
 10
30.8152365603
 20
30.899204592
 30
0.0
 11
30.8416198042
 21
30.8839738695
 31
0.0
  0
ARC
  5
3DC
330
1F
100
AcDbEntity
  8
0
  6
Continuous
 62
     7
370
    25
100
AcDbCircle
 10
30.7244433182
 20
31.4166761563
 30
0.0
 40
0.025148861795063
100
AcDbArc
 50
54.3824225248
 51
114.3071190461
  0
LINE
  5
3DD
330
1F
100
AcDbEntity
  8
0
  6
Continuous
 62
     7
370
    25
100
AcDbLine
 10
30.7091765545
 20
29.4090041875
 30
0.0
 11
30.8416198042
 21
29.3325463269
 31
0.0
  0
ARC
  5
3DE
330
1F
100
AcDbEntity
  8
0
  6
Continuous
 62
     7
370
    25
100
AcDbCircle
 10
31.1683166957
 20
31.1466465472
 30
0.0
 40
0.0957335639395735
100
AcDbArc
 50
63.7065473899
 51
127.2871245286
  0
SPLINE
  5
3DF
330
1F
100
AcDbEntity
  8
0
  6
Continuous
 62
     7
370
    25
100
AcDbSpline
210
0.0
220
0.0
230
1.0
 70
     8
 71
     3
 72
    12
 73
     8
 74
     0
 42
0.00000001
 43
0.00000001
 40
0.0
 40
0.0
 40
0.0
 40
0.0
 40
0.071942577099747
 40
0.1455831749573392
 40
0.5381189177140044
 40
0.5605210080679461
 40
1.0
 40
1.0
 40
1.0
 40
1.0
 10
31.22745376907542
 20
31.22015218342214
 30
0.0
 10
31.22722102821423
 20
31.22039239965443
 30
0.0
 10
31.22675005323836
 20
31.22087850180954
 30
0.0
 10
31.22611538470222
 20
31.22115070102024
 30
0.0
 10
31.22604738152341
 20
31.22036295918894
 30
0.0
 10
31.22634670278888
 20
31.21699369733649
 30
0.0
 10
31.22641759825233
 20
31.21377411777115
 30
0.0
 10
31.22648505515413
 20
31.21071069379452
 30
0.0
  0
ARC
  5
3E0
330
1F
100
AcDbEntity
  8
0
  6
Continuous
 62
     7
370
    25
100
AcDbCircle
 10
30.7976733319
 20
31.3553439569
 30
0.0
 40
0.1005954471803624
100
AcDbArc
 50
65.6928809539
 51
125.6175774752
  0
ARC
  5
3E1
330
1F
100
AcDbEntity
  8
0
  6
Continuous
 62
     7
370
    25
100
AcDbCircle
 10
31.1335281796
 20
31.0699008181
 30
0.0
 40
0.0263845190558987
100
AcDbArc
 50
355.1404531243
 51
45.9929309211
  0
LINE
  5
3E2
330
1F
100
AcDbEntity
  8
0
  6
Continuous
 62
     7
370
    25
100
AcDbLine
 10
31.1334346118
 20
31.0828964171
 30
0.0
 11
31.1598178557
 21
31.0676656946
 31
0.0
  0
ARC
  5
3E3
330
1F
100
AcDbEntity
  8
0
  6
Continuous
 62
     7
370
    25
100
AcDbCircle
 10
31.2530116589
 20
31.135370814
 30
0.0
 40
0.0049954526158781
100
AcDbArc
 50
294.1499674485
 51
354.529891594
  0
LINE
  5
3E4
330
1F
100
AcDbEntity
  8
0
  6
Continuous
 62
     7
370
    25
100
AcDbLine
 10
31.027374606
 20
29.5926960126
 30
0.0
 11
31.1598178557
 21
29.516238152
 31
0.0
  0
ARC
  5
3E5
330
1F
100
AcDbEntity
  8
0
  6
Continuous
 62
     7
370
    25
100
AcDbCircle
 10
31.2531346941
 20
29.543027951
 30
0.0
 40
0.004865158264203
100
AcDbArc
 50
293.2531391845
 51
355.4267198579
  0
ARC
  5
3E6
330
1F
100
AcDbEntity
  8
0
  6
Continuous
 62
     7
370
    25
100
AcDbCircle
 10
31.1218914423
 20
29.3213308218
 30
0.0
 40
0.0239762773082992
100
AcDbArc
 50
304.0563508133
 51
7.2558295801
  0
ARC
  5
3E7
330
1F
100
AcDbEntity
  8
0
  6
Continuous
 62
     7
370
    25
100
AcDbCircle
 10
30.6807003359
 20
29.1356923018
 30
0.0
 40
0.029338355316947
100
AcDbArc
 50
263.8103505526
 51
302.9622023908
  0
ARC
  5
3E8
330
1F
100
AcDbEntity
  8
0
  6
Continuous
 62
     7
370
    25
100
AcDbCircle
 10
30.7204771107
 20
29.2521358244
 30
0.0
 40
0.026380013622078
100
AcDbArc
 50
254.009380365
 51
304.8562111491
  0
LINE
  5
3E9
330
1F
100
AcDbEntity
  8
0
  6
Continuous
 62
     7
370
    25
100
AcDbLine
 10
30.7091765545
 20
29.2457159301
 30
0.0
 11
30.735553787
 21
29.2304886779
 31
0.0
  0
LINE
  5
3EA
330
1F
100
AcDbEntity
  8
0
  6
Continuous
 62
     7
370
    25
100
AcDbLine
 10
30.7091765545
 20
29.3273567413
 30
0.0
 11
30.8062644651
 21
29.2713090835
 31
0.0
  0
ARC
  5
3EB
330
1F
100
AcDbEntity
  8
0
  6
Continuous
 62
     7
370
    25
100
AcDbCircle
 10
31.0386751638
 20
29.4358276452
 30
0.0
 40
0.0263800092221012
100
AcDbArc
 50
254.0093532018
 51
304.8562137477
  0
LINE
  5
3EC
330
1F
100
AcDbEntity
  8
0
  6
Continuous
 62
     7
370
    25
100
AcDbLine
 10
31.027374606
 20
29.4294077553
 30
0.0
 11
31.0537518385
 21
29.4141805031
 31
0.0
  0
LINE
  5
3ED
330
1F
100
AcDbEntity
  8
0
  6
Continuous
 62
     7
370
    25
100
AcDbLine
 10
31.027374606
 20
29.5110485664
 30
0.0
 11
31.1244625167
 21
29.4550009087
 31
0.0
  0
LINE
  5
3EE
330
1F
100
AcDbEntity
  8
0
  6
Continuous
 62
     7
370
    25
100
AcDbLine
 10
31.4904755367
 20
21.8809415794
 30
0.0
 11
31.4904755367
 21
22.285746137
 31
0.0
  0
LINE
  5
3EF
330
1F
100
AcDbEntity
  8
0
  6
Continuous
 62
     7
370
    25
100
AcDbLine
 10
31.4904755367
 20
23.9603435255
 30
0.0
 11
31.4904755367
 21
25.4132602756
 31
0.0
  0
ARC
  5
3F0
330
1F
100
AcDbEntity
  8
0
  6
Continuous
 62
     7
370
    25
100
AcDbCircle
 10
29.6277420392
 20
26.5048785074
 30
0.0
 40
0.0303035992952957
100
AcDbArc
 50
52.8408930988
 51
111.6101624952
  0
ARC
  5
3F1
330
1F
100
AcDbEntity
  8
0
  6
Continuous
 62
     7
370
    25
100
AcDbCircle
 10
31.4631547756
 20
25.4643760174
 30
0.0
 40
0.0304657343740426
100
AcDbArc
 50
65.034774723
 51
123.5706768137
  0
ARC
  5
3F2
330
1F
100
AcDbEntity
  8
0
  6
Continuous
 62
     7
370
    25
100
AcDbCircle
 10
31.4769204644
 20
25.4405413883
 30
0.0
 40
0.0304630774738805
100
AcDbArc
 50
296.4212443265
 51
354.9636530234
  0
ARC
  5
3F3
330
1F
100
AcDbEntity
  8
0
  6
Continuous
 62
     7
370
    25
100
AcDbCircle
 10
31.4769204644
 20
21.908222692
 30
0.0
 40
0.0304630774739146
100
AcDbArc
 50
296.4212443265
 51
354.9636530234
  0
ARC
  5
3F4
330
1F
100
AcDbEntity
  8
0
  6
Continuous
 62
     7
370
    25
100
AcDbCircle
 10
29.6628928272
 20
26.5036451188
 30
0.0
 40
0.0304657343740502
100
AcDbArc
 50
65.034774723
 51
123.5706768137
  0
ARC
  5
3F5
330
1F
100
AcDbEntity
  8
0
  6
Continuous
 62
     7
370
    25
100
AcDbCircle
 10
31.4604031923
 20
21.8771625542
 30
0.0
 40
0.0303088588297738
100
AcDbArc
 50
308.3878181318
 51
7.1624988519
  0
ARC
  5
3F6
330
1F
100
AcDbEntity
  8
0
  6
Continuous
 62
     7
370
    25
100
AcDbCircle
 10
29.7758595812
 20
22.5624112289
 30
0.0
 40
0.2796565605690524
100
AcDbArc
 50
182.3175789746
 51
242.0497869744
  0
ARC
  5
3F7
330
1F
100
AcDbEntity
  8
0
  6
Continuous
 62
     7
370
    25
100
AcDbCircle
 10
29.7717278695
 20
22.5918629754
 30
0.0
 40
0.2103446645352783
100
AcDbArc
 50
127.1214836931
 51
232.8785163069
  0
LINE
  5
3F8
330
1F
100
AcDbEntity
  8
0
  6
Continuous
 62
     7
370
    25
100
AcDbLine
 10
29.6447833903
 20
23.3095097707
 30
0.0
 11
28.1518732184
 21
22.4476710733
 31
0.0
  0
LINE
  5
3F9
330
1F
100
AcDbEntity
  8
0
  6
Continuous
 62
     7
370
    25
100
AcDbLine
 10
29.4928718058
 20
22.9972826027
 30
0.0
 11
29.6447833903
 21
23.0849792937
 31
0.0
  0
LINE
  5
3FA
330
1F
100
AcDbEntity
  8
0
  6
Continuous
 62
     7
370
    25
100
AcDbLine
 10
38.9496863764
 20
4.8340362598
 30
0.0
 11
38.9496863764
 21
6.8340362598
 31
0.0
  0
LINE
  5
3FB
330
1F
100
AcDbEntity
  8
0
  6
Continuous
 62
     7
370
    25
100
AcDbLine
 10
24.6421863764
 20
8.0681073765
 30
0.0
 11
24.6421863764
 21
8.0904362598
 31
0.0
  0
LINE
  5
3FC
330
1F
100
AcDbEntity
  8
0
  6
Continuous
 62
     7
370
    25
100
AcDbLine
 10
38.9496863764
 20
6.8340362598
 30
0.0
 11
24.1044154941
 21
6.8340362598
 31
0.0
  0
LINE
  5
3FD
330
1F
100
AcDbEntity
  8
0
  6
Continuous
 62
     7
370
    25
100
AcDbLine
 10
38.9496863764
 20
4.8340362598
 30
0.0
 11
24.1044154941
 21
4.8340362598
 31
0.0
  0
LINE
  5
3FE
330
1F
100
AcDbEntity
  8
0
  6
Continuous
 62
     7
370
    25
100
AcDbLine
 10
24.1044154941
 20
4.8340362598
 30
0.0
 11
24.0432049034
 21
4.8340362598
 31
0.0
  0
LINE
  5
3FF
330
1F
100
AcDbEntity
  8
0
  6
Continuous
 62
     7
370
    25
100
AcDbLine
 10
24.0432049034
 20
6.8340362598
 30
0.0
 11
24.1044154941
 21
6.8340362598
 31
0.0
  0
LINE
  5
400
330
1F
100
AcDbEntity
  8
0
  6
Continuous
 62
     7
370
    25
100
AcDbLine
 10
23.4496863764
 20
4.8340362598
 30
0.0
 11
23.4496863764
 21
6.8340362598
 31
0.0
  0
LINE
  5
401
330
1F
100
AcDbEntity
  8
0
  6
Continuous
 62
     7
370
    25
100
AcDbLine
 10
24.0432049034
 20
4.8340362598
 30
0.0
 11
23.4496863764
 21
4.8340362598
 31
0.0
  0
LINE
  5
402
330
1F
100
AcDbEntity
  8
0
  6
Continuous
 62
     7
370
    25
100
AcDbLine
 10
24.0432049034
 20
6.8340362598
 30
0.0
 11
23.4496863764
 21
6.8340362598
 31
0.0
  0
SPLINE
  5
403
330
1F
100
AcDbEntity
  8
0
  6
Continuous
 62
     7
370
    25
100
AcDbSpline
210
0.0
220
0.0
230
1.0
 70
     8
 71
     3
 72
    13
 73
     9
 74
     0
 42
0.00000001
 43
0.00000001
 40
0.0
 40
0.0
 40
0.0
 40
0.0
 40
0.0039921985758096
 40
0.202059893051766
 40
0.4168808450462453
 40
0.6156699598417078
 40
0.8077110715276816
 40
1.0
 40
1.0
 40
1.0
 40
1.0
 10
31.99667914762146
 20
4.709036259786035
 30
0.0
 10
31.99663528842545
 20
4.708936526168738
 30
0.0
 10
31.99441541276339
 20
4.703888639982259
 30
0.0
 10
31.98981755425198
 20
4.693434364106468
 30
0.0
 10
31.98360259366306
 20
4.679305131540229
 30
0.0
 10
31.97864835490494
 20
4.668042771409167
 30
0.0
 10
31.97533178421856
 20
4.660503423571111
 30
0.0
 10
31.9749016048092
 20
4.659525524564812
 30
0.0
 10
31.97468637641425
 20
4.659036259786034
 30
0.0
  0
LINE
  5
404
330
1F
100
AcDbEntity
  8
0
  6
Continuous
 62
     7
370
    25
100
AcDbLine
 10
31.9746863764
 20
4.6590362598
 30
0.0
 11
31.8104320839
 21
4.8340362598
 31
0.0
  0
LINE
  5
405
330
1F
100
AcDbEntity
  8
0
  6
Continuous
 62
     7
370
    25
100
AcDbLine
 10
30.7632307262
 20
4.8340362598
 30
0.0
 11
30.5996863764
 21
4.6590362598
 31
0.0
  0
SPLINE
  5
406
330
1F
100
AcDbEntity
  8
0
  6
Continuous
 62
     7
370
    25
100
AcDbSpline
210
0.0
220
0.0
230
1.0
 70
     8
 71
     3
 72
    13
 73
     9
 74
     0
 42
0.00000001
 43
0.00000001
 40
0.0
 40
0.0
 40
0.0
 40
0.0
 40
0.0039921985838812
 40
0.2020598930518356
 40
0.4168808450462874
 40
0.6156699598417403
 40
0.8077110715276983
 40
1.0
 40
1.0
 40
1.0
 40
1.0
 10
30.57769360520703
 20
4.709036259786035
 30
0.0
 10
30.57773746440314
 20
4.708936526168539
 30
0.0
 10
30.57995734006539
 20
4.703888639982146
 30
0.0
 10
30.5845551985765
 20
4.693434364106242
 30
0.0
 10
30.59077015916544
 20
4.679305131540239
 30
0.0
 10
30.59572439792354
 20
4.668042771409165
 30
0.0
 10
30.59904096860993
 20
4.660503423571111
 30
0.0
 10
30.59947114801929
 20
4.659525524564812
 30
0.0
 10
30.59968637641424
 20
4.659036259786034
 30
0.0
  0
SPLINE
  5
407
330
1F
100
AcDbEntity
  8
0
  6
Continuous
 62
     7
370
    25
100
AcDbSpline
210
0.0
220
0.0
230
1.0
 70
     8
 71
     3
 72
    13
 73
     9
 74
     0
 42
0.00000001
 43
0.00000001
 40
0.0
 40
0.0
 40
0.0
 40
0.0
 40
0.1922889284723173
 40
0.3843300401582843
 40
0.5831191549537527
 40
0.7979401069482212
 40
0.9960078014241782
 40
1.0
 40
1.0
 40
1.0
 40
1.0
 10
31.97468637641425
 20
7.009036259786034
 30
0.0
 10
31.9749016048092
 20
7.008546995007257
 30
0.0
 10
31.97533178421856
 20
7.007569096000958
 30
0.0
 10
31.97864835490494
 20
7.0000297481629
 30
0.0
 10
31.98360259366306
 20
6.988767388031841
 30
0.0
 10
31.98981755425197
 20
6.974638155465597
 30
0.0
 10
31.99441541276338
 20
6.964183879589813
 30
0.0
 10
31.99663528842544
 20
6.959135993403329
 30
0.0
 10
31.99667914762146
 20
6.959036259786034
 30
0.0
  0
SPLINE
  5
408
330
1F
100
AcDbEntity
  8
0
  6
Continuous
 62
     7
370
    25
100
AcDbSpline
210
0.0
220
0.0
230
1.0
 70
     8
 71
     3
 72
    13
 73
     9
 74
     0
 42
0.00000001
 43
0.00000001
 40
0.0
 40
0.0
 40
0.0
 40
0.0
 40
0.1922889284723172
 40
0.3843300401582903
 40
0.5831191549537509
 40
0.7979401069482166
 40
0.9960078014241844
 40
1.0
 40
1.0
 40
1.0
 40
1.0
 10
30.59968637641424
 20
7.009036259786034
 30
0.0
 10
30.59947114801929
 20
7.008546995007257
 30
0.0
 10
30.59904096860993
 20
7.007569096000958
 30
0.0
 10
30.59572439792355
 20
7.000029748162901
 30
0.0
 10
30.59077015916543
 20
6.988767388031841
 30
0.0
 10
30.5845551985765
 20
6.9746381554656
 30
0.0
 10
30.57995734006516
 20
6.964183879589808
 30
0.0
 10
30.57773746440305
 20
6.959135993403329
 30
0.0
 10
30.57769360520703
 20
6.959036259786033
 30
0.0
  0
LINE
  5
409
330
1F
100
AcDbEntity
  8
0
  6
Continuous
 62
     7
370
    25
100
AcDbLine
 10
30.5996863764
 20
7.0090362598
 30
0.0
 11
30.7639406689
 21
6.8340362598
 31
0.0
  0
LINE
  5
40A
330
1F
100
AcDbEntity
  8
0
  6
Continuous
 62
     7
370
    25
100
AcDbLine
 10
31.8111420266
 20
6.8340362598
 30
0.0
 11
31.9746863764
 21
7.0090362598
 31
0.0
  0
SPLINE
  5
40B
330
1F
100
AcDbEntity
  8
0
  6
Continuous
 62
     7
370
    25
100
AcDbSpline
210
0.0
220
0.0
230
1.0
 70
    24
 71
     3
 72
    10
 73
     6
 74
     0
 42
0.00000001
 43
0.00000001
 40
0.0
 40
0.0
 40
0.0
 40
0.0
 40
0.5191132368695188
 40
0.8829607080311064
 40
1.0
 40
1.0
 40
1.0
 40
1.0
 10
32.80165024780855
 20
4.740286259786035
 30
0.0
 10
32.81097617566027
 20
4.740286259786034
 30
0.0
 10
32.82683866437017
 20
4.740286259786034
 30
0.0
 10
32.8438611092046
 20
4.740286259786035
 30
0.0
 10
32.85058731116136
 20
4.740286259786035
 30
0.0
 10
32.85222434918156
 20
4.740286259786035
 30
0.0
  0
LWPOLYLINE
  5
40C
330
1F
100
AcDbEntity
  8
0
  6
Continuous
 62
     7
370
    25
100
AcDbPolyline
 90
        9
 70
   128
 43
0.0
 10
32.8522243492
 20
4.7402862598
 10
32.853984249
 20
4.7399244135
 10
32.8556167862
 20
4.7388650612
 10
32.8570038153
 20
4.7371848675
 10
32.858044958
 20
4.7350054267
 10
32.8586648675
 20
4.7324844632
 10
32.8588186816
 20
4.7298044175
 10
32.8584952687
 20
4.7271592423
 10
32.857718034
 20
4.724740367
  0
SPLINE
  5
40D
330
1F
100
AcDbEntity
  8
0
  6
Continuous
 62
     7
370
    25
100
AcDbSpline
210
0.0
220
0.0
230
1.0
 70
     8
 71
     3
 72
    10
 73
     6
 74
     0
 42
0.00000001
 43
0.00000001
 40
0.0
 40
0.0
 40
0.0
 40
0.0
 40
0.1230292022083805
 40
0.494553100280664
 40
1.0
 40
1.0
 40
1.0
 40
1.0
 10
32.85771803402524
 20
4.724740366996019
 30
0.0
 10
32.85585191224482
 20
4.724910002757501
 30
0.0
 10
32.84835047116059
 20
4.725591905023416
 30
0.0
 10
32.82955022313793
 20
4.727393643932478
 30
0.0
 10
32.81185118494779
 20
4.729228646216784
 30
0.0
 10
32.80165024780856
 20
4.730286259786033
 30
0.0
  0
LINE
  5
40E
330
1F
100
AcDbEntity
  8
0
  6
Continuous
 62
     7
370
    25
100
AcDbLine
 10
32.8016502478
 20
4.7402862598
 30
0.0
 11
32.8016502478
 21
4.7302862598
 31
0.0
  0
ARC
  5
40F
330
1F
100
AcDbEntity
  8
0
  6
Continuous
 62
     7
370
    25
100
AcDbCircle
 10
32.7246863764
 20
4.8590362598
 30
0.0
 40
0.2000000000000002
100
AcDbArc
 50
270.0
 51
352.8192442185
  0
LINE
  5
410
330
1F
100
AcDbEntity
  8
0
  6
Continuous
 62
     7
370
    25
100
AcDbLine
 10
32.7246863764
 20
4.7090362598
 30
0.0
 11
32.7246863764
 21
4.6590362598
 31
0.0
  0
ARC
  5
411
330
1F
100
AcDbEntity
  8
0
  6
Continuous
 62
     7
370
    25
100
AcDbCircle
 10
32.7246863764
 20
4.8590362598
 30
0.0
 40
0.1500000000000025
100
AcDbArc
 50
270.0
 51
300.8700384502
  0
SPLINE
  5
412
330
1F
100
AcDbEntity
  8
0
  6
Continuous
 62
     7
370
    25
100
AcDbSpline
210
0.0
220
0.0
230
1.0
 70
     8
 71
     3
 72
    11
 73
     7
 74
     0
 42
0.00000001
 43
0.00000001
 40
0.0
 40
0.0
 40
0.0
 40
0.0
 40
0.255413597883249
 40
0.531045894181042
 40
0.7714120384835216
 40
1.0
 40
1.0
 40
1.0
 40
1.0
 10
32.85771803402524
 20
4.724740366996019
 30
0.0
 10
32.86053941755758
 20
4.72473251850574
 30
0.0
 10
32.86640552708808
 20
4.724716200233837
 30
0.0
 10
32.87424297936246
 20
4.728839669234458
 30
0.0
 10
32.88168505114125
 20
4.735795018209072
 30
0.0
 10
32.88608657300933
 20
4.741713270395175
 30
0.0
 10
32.88823205995338
 20
4.744598075509737
 30
0.0
  0
SPLINE
  5
413
330
1F
100
AcDbEntity
  8
0
  6
Continuous
 62
     7
370
    25
100
AcDbSpline
210
0.0
220
0.0
230
1.0
 70
     8
 71
     3
 72
    10
 73
     6
 74
     0
 42
0.00000001
 43
0.00000001
 40
0.0
 40
0.0
 40
0.0
 40
0.0
 40
0.5054468997193028
 40
0.8769707977916192
 40
0.9999999999999999
 40
0.9999999999999999
 40
0.9999999999999999
 40
0.9999999999999999
 10
32.80165024780856
 20
6.937786259786035
 30
0.0
 10
32.81185118494779
 20
6.938843873355285
 30
0.0
 10
32.82955022313793
 20
6.940678875639592
 30
0.0
 10
32.84835047116057
 20
6.942480614548653
 30
0.0
 10
32.85585191224482
 20
6.943162516814568
 30
0.0
 10
32.85771803402524
 20
6.94333215257605
 30
0.0
  0
LWPOLYLINE
  5
414
330
1F
100
AcDbEntity
  8
0
  6
Continuous
 62
     7
370
    25
100
AcDbPolyline
 90
        9
 70
   128
 43
0.0
 10
32.857718034
 20
6.9433321526
 10
32.8584952687
 20
6.9409132773
 10
32.8588186816
 20
6.9382681021
 10
32.8586648675
 20
6.9355880563
 10
32.858044958
 20
6.9330670929
 10
32.8570038153
 20
6.9308876521
 10
32.8556167862
 20
6.9292074583
 10
32.853984249
 20
6.9281481061
 10
32.8522243492
 20
6.9277862598
  0
SPLINE
  5
415
330
1F
100
AcDbEntity
  8
0
  6
Continuous
 62
     7
370
    25
100
AcDbSpline
210
0.0
220
0.0
230
1.0
 70
    24
 71
     3
 72
    10
 73
     6
 74
     0
 42
0.00000001
 43
0.00000001
 40
0.0
 40
0.0
 40
0.0
 40
0.0
 40
0.1170392919688702
 40
0.4808867631305227
 40
1.0
 40
1.0
 40
1.0
 40
1.0
 10
32.85222434918156
 20
6.927786259786035
 30
0.0
 10
32.85058731116136
 20
6.927786259786035
 30
0.0
 10
32.8438611092046
 20
6.927786259786035
 30
0.0
 10
32.82683866437017
 20
6.927786259786035
 30
0.0
 10
32.81097617566027
 20
6.927786259786035
 30
0.0
 10
32.80165024780856
 20
6.927786259786035
 30
0.0
  0
LINE
  5
416
330
1F
100
AcDbEntity
  8
0
  6
Continuous
 62
     7
370
    25
100
AcDbLine
 10
32.8016502478
 20
6.9377862598
 30
0.0
 11
32.8016502478
 21
6.9277862598
 31
0.0
  0
ARC
  5
417
330
1F
100
AcDbEntity
  8
0
  6
Continuous
 62
     7
370
    25
100
AcDbCircle
 10
32.7246863764
 20
6.8090362598
 30
0.0
 40
0.1500000000000025
100
AcDbArc
 50
59.1299615498
 51
90.0
  0
LINE
  5
418
330
1F
100
AcDbEntity
  8
0
  6
Continuous
 62
     7
370
    25
100
AcDbLine
 10
32.7246863764
 20
7.0090362598
 30
0.0
 11
32.7246863764
 21
6.9590362598
 31
0.0
  0
ARC
  5
419
330
1F
100
AcDbEntity
  8
0
  6
Continuous
 62
     7
370
    25
100
AcDbCircle
 10
32.7246863764
 20
6.8090362598
 30
0.0
 40
0.2000000000000002
100
AcDbArc
 50
7.1807557815
 51
90.0
  0
SPLINE
  5
41A
330
1F
100
AcDbEntity
  8
0
  6
Continuous
 62
     7
370
    25
100
AcDbSpline
210
0.0
220
0.0
230
1.0
 70
     8
 71
     3
 72
    13
 73
     9
 74
     0
 42
0.00000001
 43
0.00000001
 40
0.0
 40
0.0
 40
0.0
 40
0.0
 40
0.0654698464322342
 40
0.2804496420115747
 40
0.3375453747145362
 40
0.6418899413913853
 40
0.6592589443605048
 40
1.0
 40
1.0
 40
1.0
 40
1.0
 10
32.88823205995338
 20
6.923474444062332
 30
0.0
 10
32.88763713948212
 20
6.924308097950495
 30
0.0
 10
32.88508871081946
 20
6.927879176045795
 30
0.0
 10
32.88176864672881
 20
6.931864070453767
 30
0.0
 10
32.87611799968754
 20
6.937547388726111
 30
0.0
 10
32.87226223852949
 20
6.940300304728822
 30
0.0
 10
32.86544049640383
 20
6.943209229526985
 30
0.0
 10
32.86148329951509
 20
6.943272218594911
 30
0.0
 10
32.85771803402524
 20
6.94333215257605
 30
0.0
  0
LINE
  5
41B
330
1F
100
AcDbEntity
  8
0
  6
Continuous
 62
     7
370
    25
100
AcDbLine
 10
32.1146863764
 20
6.9377862598
 30
0.0
 11
32.8016502478
 21
6.9377862598
 31
0.0
  0
LINE
  5
41C
330
1F
100
AcDbEntity
  8
0
  6
Continuous
 62
     7
370
    25
100
AcDbLine
 10
32.8016502478
 20
6.9277862598
 30
0.0
 11
32.1146863764
 21
6.9277862598
 31
0.0
  0
LINE
  5
41D
330
1F
100
AcDbEntity
  8
0
  6
Continuous
 62
     7
370
    25
100
AcDbLine
 10
32.1146863764
 20
6.9377862598
 30
0.0
 11
32.1146863764
 21
6.9277862598
 31
0.0
  0
LINE
  5
41E
330
1F
100
AcDbEntity
  8
0
  6
Continuous
 62
     7
370
    25
100
AcDbLine
 10
31.9746863764
 20
7.0090362598
 30
0.0
 11
32.7246863764
 21
7.0090362598
 31
0.0
  0
LINE
  5
41F
330
1F
100
AcDbEntity
  8
0
  6
Continuous
 62
     7
370
    25
100
AcDbLine
 10
32.7246863764
 20
6.9590362598
 30
0.0
 11
31.9966791476
 21
6.9590362598
 31
0.0
  0
LINE
  5
420
330
1F
100
AcDbEntity
  8
0
  6
Continuous
 62
     7
370
    25
100
AcDbLine
 10
32.1146863764
 20
4.7402862598
 30
0.0
 11
32.8016502478
 21
4.7402862598
 31
0.0
  0
LINE
  5
421
330
1F
100
AcDbEntity
  8
0
  6
Continuous
 62
     7
370
    25
100
AcDbLine
 10
32.8016502478
 20
4.7302862598
 30
0.0
 11
32.1146863764
 21
4.7302862598
 31
0.0
  0
LINE
  5
422
330
1F
100
AcDbEntity
  8
0
  6
Continuous
 62
     7
370
    25
100
AcDbLine
 10
32.1146863764
 20
4.7402862598
 30
0.0
 11
32.1146863764
 21
4.7302862598
 31
0.0
  0
LINE
  5
423
330
1F
100
AcDbEntity
  8
0
  6
Continuous
 62
     7
370
    25
100
AcDbLine
 10
31.9966791476
 20
4.7090362598
 30
0.0
 11
32.7246863764
 21
4.7090362598
 31
0.0
  0
LINE
  5
424
330
1F
100
AcDbEntity
  8
0
  6
Continuous
 62
     7
370
    25
100
AcDbLine
 10
32.7246863764
 20
4.6590362598
 30
0.0
 11
31.9746863764
 21
4.6590362598
 31
0.0
  0
LINE
  5
425
330
1F
100
AcDbEntity
  8
0
  6
Continuous
 62
     7
370
    25
100
AcDbLine
 10
30.4996863764
 20
4.7840362598
 30
0.0
 11
30.1996863764
 21
4.7840362598
 31
0.0
  0
LINE
  5
426
330
1F
100
AcDbEntity
  8
0
  6
Continuous
 62
     7
370
    25
100
AcDbLine
 10
30.1996863764
 20
6.8840362598
 30
0.0
 11
30.4996863764
 21
6.8840362598
 31
0.0
  0
ARC
  5
427
330
1F
100
AcDbEntity
  8
0
  6
Continuous
 62
     7
370
    25
100
AcDbCircle
 10
32.1146863764
 20
4.7902862598
 30
0.0
 40
0.0599999999999996
100
AcDbArc
 50
180.0
 51
270.0
  0
LINE
  5
428
330
1F
100
AcDbEntity
  8
0
  6
Continuous
 62
     7
370
    25
100
AcDbLine
 10
30.0746863764
 20
4.7090362598
 30
0.0
 11
30.5776936052
 21
4.7090362598
 31
0.0
  0
ARC
  5
429
330
1F
100
AcDbEntity
  8
0
  6
Continuous
 62
     7
370
    25
100
AcDbCircle
 10
30.0746863764
 20
4.7590362598
 30
0.0
 40
0.0499999999999998
100
AcDbArc
 50
180.0
 51
270.0
  0
ARC
  5
42A
330
1F
100
AcDbEntity
  8
0
  6
Continuous
 62
     7
370
    25
100
AcDbCircle
 10
30.0746863764
 20
6.9090362598
 30
0.0
 40
0.0500000000000007
100
AcDbArc
 50
90.0
 51
180.0
  0
LINE
  5
42B
330
1F
100
AcDbEntity
  8
0
  6
Continuous
 62
     7
370
    25
100
AcDbLine
 10
30.5776936052
 20
6.9590362598
 30
0.0
 11
30.0746863764
 21
6.9590362598
 31
0.0
  0
ARC
  5
42C
330
1F
100
AcDbEntity
  8
0
  6
Continuous
 62
     7
370
    25
100
AcDbCircle
 10
32.1146863764
 20
6.8777862598
 30
0.0
 40
0.0600000000000005
100
AcDbArc
 50
90.0
 51
180.0
  0
LINE
  5
42D
330
1F
100
AcDbEntity
  8
0
  6
Continuous
 62
     7
370
    25
100
AcDbLine
 10
32.0546863764
 20
6.8777862598
 30
0.0
 11
32.0646863764
 21
6.8777862598
 31
0.0
  0
LINE
  5
42E
330
1F
100
AcDbEntity
  8
0
  6
Continuous
 62
     7
370
    25
100
AcDbLine
 10
32.0646863764
 20
6.8777862598
 30
0.0
 11
32.0646863764
 21
6.8340362598
 31
0.0
  0
LINE
  5
42F
330
1F
100
AcDbEntity
  8
0
  6
Continuous
 62
     7
370
    25
100
AcDbLine
 10
32.0646863764
 20
4.8340362598
 30
0.0
 11
32.0646863764
 21
4.7902862598
 31
0.0
  0
LINE
  5
430
330
1F
100
AcDbEntity
  8
0
  6
Continuous
 62
     7
370
    25
100
AcDbLine
 10
32.0646863764
 20
4.7902862598
 30
0.0
 11
32.0546863764
 21
4.7902862598
 31
0.0
  0
ARC
  5
431
330
1F
100
AcDbEntity
  8
0
  6
Continuous
 62
     7
370
    25
100
AcDbCircle
 10
32.1146863764
 20
6.8777862598
 30
0.0
 40
0.0499999999999998
100
AcDbArc
 50
90.0
 51
180.0
  0
ARC
  5
432
330
1F
100
AcDbEntity
  8
0
  6
Continuous
 62
     7
370
    25
100
AcDbCircle
 10
32.1146863764
 20
4.7902862598
 30
0.0
 40
0.0500000000000007
100
AcDbArc
 50
180.0
 51
270.0
  0
LINE
  5
433
330
1F
100
AcDbEntity
  8
0
  6
Continuous
 62
     7
370
    25
100
AcDbLine
 10
30.0746863764
 20
7.0090362598
 30
0.0
 11
30.5996863764
 21
7.0090362598
 31
0.0
  0
LINE
  5
434
330
1F
100
AcDbEntity
  8
0
  6
Continuous
 62
     7
370
    25
100
AcDbLine
 10
30.0746863764
 20
7.0090362598
 30
0.0
 11
30.0746863764
 21
6.9590362598
 31
0.0
  0
LINE
  5
435
330
1F
100
AcDbEntity
  8
0
  6
Continuous
 62
     7
370
    25
100
AcDbLine
 10
30.5996863764
 20
4.6590362598
 30
0.0
 11
30.0746863764
 21
4.6590362598
 31
0.0
  0
LINE
  5
436
330
1F
100
AcDbEntity
  8
0
  6
Continuous
 62
     7
370
    25
100
AcDbLine
 10
30.0746863764
 20
4.7090362598
 30
0.0
 11
30.0746863764
 21
4.6590362598
 31
0.0
  0
LINE
  5
437
330
1F
100
AcDbEntity
  8
0
  6
Continuous
 62
     7
370
    25
100
AcDbLine
 10
30.4996863764
 20
6.8840362598
 30
0.0
 11
30.4496863764
 21
6.8340362598
 31
0.0
  0
LINE
  5
438
330
1F
100
AcDbEntity
  8
0
  6
Continuous
 62
     7
370
    25
100
AcDbLine
 10
30.1996863764
 20
6.8840362598
 30
0.0
 11
30.2496863764
 21
6.8340362598
 31
0.0
  0
LINE
  5
439
330
1F
100
AcDbEntity
  8
0
  6
Continuous
 62
     7
370
    25
100
AcDbLine
 10
30.4496863764
 20
4.8340362598
 30
0.0
 11
30.4996863764
 21
4.7840362598
 31
0.0
  0
LINE
  5
43A
330
1F
100
AcDbEntity
  8
0
  6
Continuous
 62
     7
370
    25
100
AcDbLine
 10
30.2496863764
 20
4.8340362598
 30
0.0
 11
30.1996863764
 21
4.7840362598
 31
0.0
  0
ARC
  5
43B
330
1F
100
AcDbEntity
  8
0
  6
Continuous
 62
     7
370
    25
100
AcDbCircle
 10
30.0746863764
 20
6.9090362598
 30
0.0
 40
0.1000000000000085
100
AcDbArc
 50
90.0
 51
180.0
  0
LINE
  5
43C
330
1F
100
AcDbEntity
  8
0
  6
Continuous
 62
     7
370
    25
100
AcDbLine
 10
29.9746863764
 20
6.9090362598
 30
0.0
 11
30.0246863764
 21
6.9090362598
 31
0.0
  0
ARC
  5
43D
330
1F
100
AcDbEntity
  8
0
  6
Continuous
 62
     7
370
    25
100
AcDbCircle
 10
30.0746863764
 20
4.7590362598
 30
0.0
 40
0.1000000000000085
100
AcDbArc
 50
180.0
 51
270.0
  0
LINE
  5
43E
330
1F
100
AcDbEntity
  8
0
  6
Continuous
 62
     7
370
    25
100
AcDbLine
 10
29.9746863764
 20
4.7590362598
 30
0.0
 11
30.0246863764
 21
4.7590362598
 31
0.0
  0
LINE
  5
43F
330
1F
100
AcDbEntity
  8
0
  6
Continuous
 62
     7
370
    25
100
AcDbLine
 10
29.9746863764
 20
4.7590362598
 30
0.0
 11
29.9746863764
 21
4.8340362598
 31
0.0
  0
LINE
  5
440
330
1F
100
AcDbEntity
  8
0
  6
Continuous
 62
     7
370
    25
100
AcDbLine
 10
29.9746863764
 20
6.8340362598
 30
0.0
 11
29.9746863764
 21
6.9090362598
 31
0.0
  0
LINE
  5
441
330
1F
100
AcDbEntity
  8
0
  6
Continuous
 62
     7
370
    25
100
AcDbLine
 10
32.88823206
 20
6.9234744441
 30
0.0
 11
32.8801029727
 21
6.9177862598
 31
0.0
  0
SPLINE
  5
442
330
1F
100
AcDbEntity
  8
0
  6
Continuous
 62
     7
370
    25
100
AcDbSpline
210
0.0
220
0.0
230
1.0
 70
     8
 71
     3
 72
    11
 73
     7
 74
     0
 42
0.00000001
 43
0.00000001
 40
0.0
 40
0.0
 40
0.0
 40
0.0
 40
0.3399315561909469
 40
0.6609511604776204
 40
0.9350816084321387
 40
1.0
 40
1.0
 40
1.0
 40
1.0
 10
32.85222434918156
 20
6.927786259786035
 30
0.0
 10
32.85551218089568
 20
6.927596479820911
 30
0.0
 10
32.86190492716275
 20
6.927227478220739
 30
0.0
 10
32.87056681252414
 20
6.923806274080664
 30
0.0
 10
32.87657788698872
 20
6.920258389071991
 30
0.0
 10
32.87953648393984
 20
6.918183536210063
 30
0.0
 10
32.88010297269595
 20
6.917786259786035
 30
0.0
  0
SPLINE
  5
443
330
1F
100
AcDbEntity
  8
0
  6
Continuous
 62
     7
370
    25
100
AcDbSpline
210
0.0
220
0.0
230
1.0
 70
     8
 71
     3
 72
    11
 73
     7
 74
     0
 42
0.00000001
 43
0.00000001
 40
0.0
 40
0.0
 40
0.0
 40
0.0
 40
0.2298180874433391
 40
0.4715205618383836
 40
0.7451162148964691
 40
1.0
 40
1.0
 40
1.0
 40
1.0
 10
32.88010297269595
 20
4.750286259786034
 30
0.0
 10
32.87806762492995
 20
4.748913123500907
 30
0.0
 10
32.87389167719304
 20
4.746095843103848
 30
0.0
 10
32.86702950245685
 20
4.742755006530345
 30
0.0
 10
32.85981878140271
 20
4.740608936533127
 30
0.0
 10
32.85469535825214
 20
4.740391249487135
 30
0.0
 10
32.85222434918156
 20
4.740286259786035
 30
0.0
  0
LINE
  5
444
330
1F
100
AcDbEntity
  8
0
  6
Continuous
 62
     7
370
    25
100
AcDbLine
 10
32.8801029727
 20
4.7502862598
 30
0.0
 11
32.88823206
 21
4.7445980755
 31
0.0
  0
LINE
  5
445
330
1F
100
AcDbEntity
  8
0
  6
Continuous
 62
     7
370
    25
100
AcDbLine
 10
32.8801029727
 20
6.9177862598
 30
0.0
 11
32.1146863764
 21
6.9177862598
 31
0.0
  0
LINE
  5
446
330
1F
100
AcDbEntity
  8
0
  6
Continuous
 62
     7
370
    25
100
AcDbLine
 10
32.1146863764
 20
6.9277862598
 30
0.0
 11
32.1146863764
 21
6.9177862598
 31
0.0
  0
LINE
  5
447
330
1F
100
AcDbEntity
  8
0
  6
Continuous
 62
     7
370
    25
100
AcDbLine
 10
32.1146863764
 20
4.7502862598
 30
0.0
 11
32.8801029727
 21
4.7502862598
 31
0.0
  0
LINE
  5
448
330
1F
100
AcDbEntity
  8
0
  6
Continuous
 62
     7
370
    25
100
AcDbLine
 10
32.1146863764
 20
4.7502862598
 30
0.0
 11
32.1146863764
 21
4.7402862598
 31
0.0
  0
ARC
  5
449
330
1F
100
AcDbEntity
  8
0
  6
Continuous
 62
     7
370
    25
100
AcDbCircle
 10
32.1146863764
 20
6.8777862598
 30
0.0
 40
0.04
100
AcDbArc
 50
90.0
 51
180.0
  0
LINE
  5
44A
330
1F
100
AcDbEntity
  8
0
  6
Continuous
 62
     7
370
    25
100
AcDbLine
 10
32.0646863764
 20
6.8777862598
 30
0.0
 11
32.0746863764
 21
6.8777862598
 31
0.0
  0
ARC
  5
44B
330
1F
100
AcDbEntity
  8
0
  6
Continuous
 62
     7
370
    25
100
AcDbCircle
 10
32.1146863764
 20
4.7902862598
 30
0.0
 40
0.04
100
AcDbArc
 50
180.0
 51
270.0
  0
LINE
  5
44C
330
1F
100
AcDbEntity
  8
0
  6
Continuous
 62
     7
370
    25
100
AcDbLine
 10
32.0746863764
 20
4.7902862598
 30
0.0
 11
32.0646863764
 21
4.7902862598
 31
0.0
  0
LWPOLYLINE
  5
44D
330
1F
100
AcDbEntity
  8
0
  6
Continuous
 62
     7
370
    25
100
AcDbPolyline
 90
        3
 70
   128
 43
0.0
 10
32.6446863764
 20
6.8363392997
 10
32.6344825595
 20
6.8353343115
 10
32.6293368492
 20
6.8340362598
  0
LWPOLYLINE
  5
44E
330
1F
100
AcDbEntity
  8
0
  6
Continuous
 62
     7
370
    25
100
AcDbPolyline
 90
        3
 70
   128
 43
0.0
 10
32.6293368492
 20
4.8340362598
 10
32.6344825595
 20
4.8327382081
 10
32.6446863764
 20
4.8317332199
  0
LINE
  5
44F
330
1F
100
AcDbEntity
  8
0
  6
Continuous
 62
     7
370
    25
100
AcDbLine
 10
32.6446863764
 20
4.8317332199
 30
0.0
 11
32.7446863764
 21
4.8317332199
 31
0.0
  0
LWPOLYLINE
  5
450
330
1F
100
AcDbEntity
  8
0
  6
Continuous
 62
     7
370
    25
100
AcDbPolyline
 90
        3
 70
   128
 43
0.0
 10
32.7446863764
 20
4.8317332199
 10
32.7548901933
 20
4.8327382081
 10
32.7600359036
 20
4.8340362598
  0
LWPOLYLINE
  5
451
330
1F
100
AcDbEntity
  8
0
  6
Continuous
 62
     7
370
    25
100
AcDbPolyline
 90
        3
 70
   128
 43
0.0
 10
32.7600359036
 20
6.8340362598
 10
32.7548901933
 20
6.8353343115
 10
32.7446863764
 20
6.8363392997
  0
LINE
  5
452
330
1F
100
AcDbEntity
  8
0
  6
Continuous
 62
     7
370
    25
100
AcDbLine
 10
32.7446863764
 20
6.8363392997
 30
0.0
 11
32.6446863764
 21
6.8363392997
 31
0.0
  0
LWPOLYLINE
  5
453
330
1F
100
AcDbEntity
  8
0
  6
Continuous
 62
     7
370
    25
100
AcDbPolyline
 90
        3
 70
   128
 43
0.0
 10
32.2946863764
 20
4.8317332199
 10
32.3048901933
 20
4.8327382081
 10
32.3100359036
 20
4.8340362598
  0
LWPOLYLINE
  5
454
330
1F
100
AcDbEntity
  8
0
  6
Continuous
 62
     7
370
    25
100
AcDbPolyline
 90
        3
 70
   128
 43
0.0
 10
32.3100359036
 20
6.8340362598
 10
32.3048901933
 20
6.8353343115
 10
32.2946863764
 20
6.8363392997
  0
LINE
  5
455
330
1F
100
AcDbEntity
  8
0
  6
Continuous
 62
     7
370
    25
100
AcDbLine
 10
32.2946863764
 20
6.8363392997
 30
0.0
 11
32.1946863764
 21
6.8363392997
 31
0.0
  0
LWPOLYLINE
  5
456
330
1F
100
AcDbEntity
  8
0
  6
Continuous
 62
     7
370
    25
100
AcDbPolyline
 90
        3
 70
   128
 43
0.0
 10
32.1946863764
 20
6.8363392997
 10
32.1844825595
 20
6.8353343115
 10
32.1793368492
 20
6.8340362598
  0
LWPOLYLINE
  5
457
330
1F
100
AcDbEntity
  8
0
  6
Continuous
 62
     7
370
    25
100
AcDbPolyline
 90
        3
 70
   128
 43
0.0
 10
32.1793368492
 20
4.8340362598
 10
32.1844825595
 20
4.8327382081
 10
32.1946863764
 20
4.8317332199
  0
LINE
  5
458
330
1F
100
AcDbEntity
  8
0
  6
Continuous
 62
     7
370
    25
100
AcDbLine
 10
32.1946863764
 20
4.8317332199
 30
0.0
 11
32.2946863764
 21
4.8317332199
 31
0.0
  0
LINE
  5
459
330
1F
100
AcDbEntity
  8
0
  6
Continuous
 62
     7
370
    25
100
AcDbLine
 10
32.6446863764
 20
6.8363392997
 30
0.0
 11
32.6446863764
 21
6.8340362598
 31
0.0
  0
LINE
  5
45A
330
1F
100
AcDbEntity
  8
0
  6
Continuous
 62
     7
370
    25
100
AcDbLine
 10
32.7446863764
 20
6.8363392997
 30
0.0
 11
32.7446863764
 21
6.8340362598
 31
0.0
  0
LINE
  5
45B
330
1F
100
AcDbEntity
  8
0
  6
Continuous
 62
     7
370
    25
100
AcDbLine
 10
32.7446863764
 20
4.8340362598
 30
0.0
 11
32.7446863764
 21
4.8317332199
 31
0.0
  0
LINE
  5
45C
330
1F
100
AcDbEntity
  8
0
  6
Continuous
 62
     7
370
    25
100
AcDbLine
 10
32.6446863764
 20
4.8340362598
 30
0.0
 11
32.6446863764
 21
4.8317332199
 31
0.0
  0
LINE
  5
45D
330
1F
100
AcDbEntity
  8
0
  6
Continuous
 62
     7
370
    25
100
AcDbLine
 10
32.2946863764
 20
6.8340362598
 30
0.0
 11
32.2946863764
 21
6.8363392997
 31
0.0
  0
LINE
  5
45E
330
1F
100
AcDbEntity
  8
0
  6
Continuous
 62
     7
370
    25
100
AcDbLine
 10
32.2946863764
 20
4.8317332199
 30
0.0
 11
32.2946863764
 21
4.8340362598
 31
0.0
  0
LINE
  5
45F
330
1F
100
AcDbEntity
  8
0
  6
Continuous
 62
     7
370
    25
100
AcDbLine
 10
32.1946863764
 20
4.8317332199
 30
0.0
 11
32.1946863764
 21
4.8340362598
 31
0.0
  0
LINE
  5
460
330
1F
100
AcDbEntity
  8
0
  6
Continuous
 62
     7
370
    25
100
AcDbLine
 10
32.1946863764
 20
6.8340362598
 30
0.0
 11
32.1946863764
 21
6.8363392997
 31
0.0
  0
CIRCLE
  5
461
330
1F
100
AcDbEntity
  8
0
  6
Continuous
 62
     7
370
    25
100
AcDbCircle
 10
23.9496863764
 20
6.1465362598
 30
0.0
 40
0.1189999999999989
  0
CIRCLE
  5
462
330
1F
100
AcDbEntity
  8
0
  6
Continuous
 62
     7
370
    25
100
AcDbCircle
 10
23.9496863764
 20
6.1465362598
 30
0.0
 40
0.1349999999999998
  0
LINE
  5
463
330
1F
100
AcDbEntity
  8
0
  6
Continuous
 62
     7
370
    25
100
AcDbLine
 10
24.0305154141
 20
6.1465362598
 30
0.0
 11
23.9901008953
 21
6.2165362598
 31
0.0
  0
LINE
  5
464
330
1F
100
AcDbEntity
  8
0
  6
Continuous
 62
     7
370
    25
100
AcDbLine
 10
23.9901008953
 20
6.2165362598
 30
0.0
 11
23.9092718576
 21
6.2165362598
 31
0.0
  0
LINE
  5
465
330
1F
100
AcDbEntity
  8
0
  6
Continuous
 62
     7
370
    25
100
AcDbLine
 10
23.8688573387
 20
6.1465362598
 30
0.0
 11
23.9092718576
 21
6.2165362598
 31
0.0
  0
LINE
  5
466
330
1F
100
AcDbEntity
  8
0
  6
Continuous
 62
     7
370
    25
100
AcDbLine
 10
23.9092718576
 20
6.0765362598
 30
0.0
 11
23.8688573387
 21
6.1465362598
 31
0.0
  0
LINE
  5
467
330
1F
100
AcDbEntity
  8
0
  6
Continuous
 62
     7
370
    25
100
AcDbLine
 10
23.9092718576
 20
6.0765362598
 30
0.0
 11
23.9901008953
 21
6.0765362598
 31
0.0
  0
LINE
  5
468
330
1F
100
AcDbEntity
  8
0
  6
Continuous
 62
     7
370
    25
100
AcDbLine
 10
24.0305154141
 20
6.1465362598
 30
0.0
 11
23.9901008953
 21
6.0765362598
 31
0.0
  0
ARC
  5
469
330
1F
100
AcDbEntity
  8
0
  6
Continuous
 62
     7
370
    25
100
AcDbCircle
 10
23.9496863764
 20
6.1465362598
 30
0.0
 40
0.0699999999999976
100
AcDbArc
 50
210.0
 51
270.0
  0
ARC
  5
46A
330
1F
100
AcDbEntity
  8
0
  6
Continuous
 62
     7
370
    25
100
AcDbCircle
 10
23.9496863764
 20
6.1465362598
 30
0.0
 40
0.0699999999999983
100
AcDbArc
 50
150.0
 51
210.0
  0
ARC
  5
46B
330
1F
100
AcDbEntity
  8
0
  6
Continuous
 62
     7
370
    25
100
AcDbCircle
 10
23.9496863764
 20
6.1465362598
 30
0.0
 40
0.0700000000000047
100
AcDbArc
 50
90.0
 51
150.0
  0
ARC
  5
46C
330
1F
100
AcDbEntity
  8
0
  6
Continuous
 62
     7
370
    25
100
AcDbCircle
 10
23.9496863764
 20
6.1465362598
 30
0.0
 40
0.0700000000000047
100
AcDbArc
 50
30.0
 51
90.0
  0
ARC
  5
46D
330
1F
100
AcDbEntity
  8
0
  6
Continuous
 62
     7
370
    25
100
AcDbCircle
 10
23.9496863764
 20
6.1465362598
 30
0.0
 40
0.0700000000000036
100
AcDbArc
 50
330.0
 51
30.0
  0
ARC
  5
46E
330
1F
100
AcDbEntity
  8
0
  6
Continuous
 62
     7
370
    25
100
AcDbCircle
 10
23.9496863764
 20
6.1465362598
 30
0.0
 40
0.0699999999999976
100
AcDbArc
 50
270.0
 51
330.0
  0
CIRCLE
  5
46F
330
1F
100
AcDbEntity
  8
0
  6
Continuous
 62
     7
370
    25
100
AcDbCircle
 10
23.9496863764
 20
5.5215362598
 30
0.0
 40
0.1189999999999989
  0
CIRCLE
  5
470
330
1F
100
AcDbEntity
  8
0
  6
Continuous
 62
     7
370
    25
100
AcDbCircle
 10
23.9496863764
 20
5.5215362598
 30
0.0
 40
0.1349999999999989
  0
LINE
  5
471
330
1F
100
AcDbEntity
  8
0
  6
Continuous
 62
     7
370
    25
100
AcDbLine
 10
24.0305154141
 20
5.5215362598
 30
0.0
 11
23.9901008953
 21
5.5915362598
 31
0.0
  0
LINE
  5
472
330
1F
100
AcDbEntity
  8
0
  6
Continuous
 62
     7
370
    25
100
AcDbLine
 10
23.9901008953
 20
5.5915362598
 30
0.0
 11
23.9092718576
 21
5.5915362598
 31
0.0
  0
LINE
  5
473
330
1F
100
AcDbEntity
  8
0
  6
Continuous
 62
     7
370
    25
100
AcDbLine
 10
23.8688573387
 20
5.5215362598
 30
0.0
 11
23.9092718576
 21
5.5915362598
 31
0.0
  0
LINE
  5
474
330
1F
100
AcDbEntity
  8
0
  6
Continuous
 62
     7
370
    25
100
AcDbLine
 10
23.9092718576
 20
5.4515362598
 30
0.0
 11
23.8688573387
 21
5.5215362598
 31
0.0
  0
LINE
  5
475
330
1F
100
AcDbEntity
  8
0
  6
Continuous
 62
     7
370
    25
100
AcDbLine
 10
23.9092718576
 20
5.4515362598
 30
0.0
 11
23.9901008953
 21
5.4515362598
 31
0.0
  0
LINE
  5
476
330
1F
100
AcDbEntity
  8
0
  6
Continuous
 62
     7
370
    25
100
AcDbLine
 10
24.0305154141
 20
5.5215362598
 30
0.0
 11
23.9901008953
 21
5.4515362598
 31
0.0
  0
ARC
  5
477
330
1F
100
AcDbEntity
  8
0
  6
Continuous
 62
     7
370
    25
100
AcDbCircle
 10
23.9496863764
 20
5.5215362598
 30
0.0
 40
0.0700000000000047
100
AcDbArc
 50
30.0
 51
90.0
  0
ARC
  5
478
330
1F
100
AcDbEntity
  8
0
  6
Continuous
 62
     7
370
    25
100
AcDbCircle
 10
23.9496863764
 20
5.5215362598
 30
0.0
 40
0.0700000000000036
100
AcDbArc
 50
330.0
 51
30.0
  0
ARC
  5
479
330
1F
100
AcDbEntity
  8
0
  6
Continuous
 62
     7
370
    25
100
AcDbCircle
 10
23.9496863764
 20
5.5215362598
 30
0.0
 40
0.0699999999999967
100
AcDbArc
 50
210.0
 51
270.0
  0
ARC
  5
47A
330
1F
100
AcDbEntity
  8
0
  6
Continuous
 62
     7
370
    25
100
AcDbCircle
 10
23.9496863764
 20
5.5215362598
 30
0.0
 40
0.0699999999999988
100
AcDbArc
 50
150.0
 51
210.0
  0
ARC
  5
47B
330
1F
100
AcDbEntity
  8
0
  6
Continuous
 62
     7
370
    25
100
AcDbCircle
 10
23.9496863764
 20
5.5215362598
 30
0.0
 40
0.0700000000000047
100
AcDbArc
 50
90.0
 51
150.0
  0
ARC
  5
47C
330
1F
100
AcDbEntity
  8
0
  6
Continuous
 62
     7
370
    25
100
AcDbCircle
 10
23.9496863764
 20
5.5215362598
 30
0.0
 40
0.0699999999999974
100
AcDbArc
 50
270.0
 51
330.0
  0
LINE
  5
47D
330
1F
100
AcDbEntity
  8
0
  6
Continuous
 62
     7
370
    25
100
AcDbLine
 10
23.9390943985
 20
6.0119524197
 30
0.0
 11
23.9381921189
 21
6.0004878704
 31
0.0
  0
ARC
  5
47E
330
1F
100
AcDbEntity
  8
0
  6
Continuous
 62
     7
370
    25
100
AcDbCircle
 10
23.9496863764
 20
6.1465362598
 30
0.0
 40
0.1464999999999853
100
AcDbArc
 50
274.5
 51
265.5
  0
LINE
  5
47F
330
1F
100
AcDbEntity
  8
0
  6
Continuous
 62
     7
370
    25
100
AcDbLine
 10
23.9602783543
 20
6.0119524197
 30
0.0
 11
23.9611806339
 21
6.0004878704
 31
0.0
  0
LINE
  5
480
330
1F
100
AcDbEntity
  8
0
  6
Continuous
 62
     7
370
    25
100
AcDbLine
 10
23.9390943985
 20
5.3869524197
 30
0.0
 11
23.9381921189
 21
5.3754878704
 31
0.0
  0
ARC
  5
481
330
1F
100
AcDbEntity
  8
0
  6
Continuous
 62
     7
370
    25
100
AcDbCircle
 10
23.9496863764
 20
5.5215362598
 30
0.0
 40
0.1464999999999853
100
AcDbArc
 50
274.5
 51
265.5
  0
LINE
  5
482
330
1F
100
AcDbEntity
  8
0
  6
Continuous
 62
     7
370
    25
100
AcDbLine
 10
23.9602783543
 20
5.3869524197
 30
0.0
 11
23.9611806339
 21
5.3754878704
 31
0.0
  0
ARC
  5
483
330
1F
100
AcDbEntity
  8
0
  6
Continuous
 62
     7
370
    25
100
AcDbCircle
 10
23.9496863764
 20
6.1465362598
 30
0.0
 40
0.1874999999999998
100
AcDbArc
 50
30.574282736
 51
329.425717264
  0
ARC
  5
484
330
1F
100
AcDbEntity
  8
0
  6
Continuous
 62
     7
370
    25
100
AcDbCircle
 10
23.9496863764
 20
5.5215362598
 30
0.0
 40
0.187500000000001
100
AcDbArc
 50
30.574282736
 51
329.4257172641
  0
LINE
  5
485
330
1F
100
AcDbEntity
  8
0
  6
Continuous
 62
     7
370
    25
100
AcDbLine
 10
24.0110555604
 20
8.0901469502
 30
0.0
 11
24.0110555604
 21
8.0904362598
 31
0.0
  0
LINE
  5
486
330
1F
100
AcDbEntity
  8
0
  6
Continuous
 62
     7
370
    25
100
AcDbLine
 10
24.0706579022
 20
8.0880655906
 30
0.0
 11
24.0706579022
 21
8.0904362598
 31
0.0
  0
LINE
  5
487
330
1F
100
AcDbEntity
  8
0
  6
Continuous
 62
     7
370
    25
100
AcDbLine
 10
24.0706579022
 20
8.0904362598
 30
0.0
 11
24.5638364005
 21
8.0904362598
 31
0.0
  0
LINE
  5
488
330
1F
100
AcDbEntity
  8
0
  6
Continuous
 62
     7
370
    25
100
AcDbLine
 10
24.5638364005
 20
8.0708434179
 30
0.0
 11
24.5638364005
 21
8.0904362598
 31
0.0
  0
LINE
  5
489
330
1F
100
AcDbEntity
  8
0
  6
Continuous
 62
     7
370
    25
100
AcDbLine
 10
24.600545539
 20
8.0695615066
 30
0.0
 11
24.600545539
 21
8.0904362598
 31
0.0
  0
LINE
  5
48A
330
1F
100
AcDbEntity
  8
0
  6
Continuous
 62
     7
370
    25
100
AcDbLine
 10
24.600545539
 20
8.0904362598
 30
0.0
 11
24.6421863764
 21
8.0904362598
 31
0.0
  0
LINE
  5
48B
330
1F
100
AcDbEntity
  8
0
  6
Continuous
 62
     7
370
    25
100
AcDbLine
 10
24.0027708188
 20
8.0904362598
 30
0.0
 11
24.0110555604
 21
8.0904362598
 31
0.0
  0
LINE
  5
48C
330
1F
100
AcDbEntity
  8
0
  6
Continuous
 62
     7
370
    25
100
AcDbLine
 10
24.0706579022
 20
8.0904362598
 30
0.0
 11
24.0110555604
 21
8.0904362598
 31
0.0
  0
LINE
  5
48D
330
1F
100
AcDbEntity
  8
0
  6
Continuous
 62
     7
370
    25
100
AcDbLine
 10
24.600545539
 20
8.0904362598
 30
0.0
 11
24.5638364005
 21
8.0904362598
 31
0.0
  0
LINE
  5
48E
330
1F
100
AcDbEntity
  8
0
  6
Continuous
 62
     7
370
    25
100
AcDbLine
 10
22.3246863764
 20
8.1490362598
 30
0.0
 11
24.889367595
 21
8.0594756181
 31
0.0
  0
ARC
  5
48F
330
1F
100
AcDbEntity
  8
0
  6
Continuous
 62
     7
370
    25
100
AcDbCircle
 10
24.4412944495
 20
8.0282446548
 30
0.0
 40
0.449160235052469
100
AcDbArc
 50
356.0128986004
 51
3.9871013996
  0
LINE
  5
490
330
1F
100
AcDbEntity
  8
0
  6
Continuous
 62
     7
370
    25
100
AcDbLine
 10
24.889367595
 20
7.9970136914
 30
0.0
 11
22.3246863764
 21
8.0865743331
 31
0.0
  0
LINE
  5
491
330
1F
100
AcDbEntity
  8
0
  6
Continuous
 62
     7
370
    25
100
AcDbLine
 10
22.3246863764
 20
8.0865743331
 30
0.0
 11
22.3246863764
 21
8.1490362598
 31
0.0
  0
LINE
  5
492
330
1F
100
AcDbEntity
  8
0
  6
Continuous
 62
     7
370
    25
100
AcDbLine
 10
22.3246863764
 20
3.5814981865
 30
0.0
 11
24.889367595
 21
3.6710588281
 31
0.0
  0
LINE
  5
493
330
1F
100
AcDbEntity
  8
0
  6
Continuous
 62
     7
370
    25
100
AcDbLine
 10
22.3246863764
 20
3.5814981865
 30
0.0
 11
22.3246863764
 21
8.0865743331
 31
0.0
  0
ARC
  5
494
330
1F
100
AcDbEntity
  8
0
  6
Continuous
 62
     7
370
    25
100
AcDbCircle
 10
24.4412944495
 20
3.6398278648
 30
0.0
 40
0.4491602350515369
100
AcDbArc
 50
356.0128986004
 51
3.9871013996
  0
LINE
  5
495
330
1F
100
AcDbEntity
  8
0
  6
Continuous
 62
     7
370
    25
100
AcDbLine
 10
24.889367595
 20
3.6085969014
 30
0.0
 11
22.3246863764
 21
3.5190362598
 31
0.0
  0
LINE
  5
496
330
1F
100
AcDbEntity
  8
0
  6
Continuous
 62
     7
370
    25
100
AcDbLine
 10
22.3246863764
 20
3.5190362598
 30
0.0
 11
22.3246863764
 21
3.5814981865
 31
0.0
  0
ARC
  5
497
330
1F
100
AcDbEntity
  8
0
  6
Continuous
 62
     7
370
    25
100
AcDbCircle
 10
24.8871863764
 20
7.9970136914
 30
0.0
 40
0.0625000000000036
100
AcDbArc
 50
0.0
 51
88.0
  0
LINE
  5
498
330
1F
100
AcDbEntity
  8
0
  6
Continuous
 62
     7
370
    25
100
AcDbLine
 10
24.889367595
 20
7.9970136914
 30
0.0
 11
24.9496863764
 21
7.9970136914
 31
0.0
  0
LINE
  5
499
330
1F
100
AcDbEntity
  8
0
  6
Continuous
 62
     7
370
    25
100
AcDbLine
 10
24.9496863764
 20
7.4120136914
 30
0.0
 11
24.9496863764
 21
6.8340362598
 31
0.0
  0
LINE
  5
49A
330
1F
100
AcDbEntity
  8
0
  6
Continuous
 62
     7
370
    25
100
AcDbLine
 10
24.9496863764
 20
4.8340362598
 30
0.0
 11
24.9496863764
 21
4.2560588281
 31
0.0
  0
LINE
  5
49B
330
1F
100
AcDbEntity
  8
0
  6
Continuous
 62
     7
370
    25
100
AcDbLine
 10
24.9413239505
 20
4.1710588281
 30
0.0
 11
24.9413239505
 21
4.2560588281
 31
0.0
  0
LINE
  5
49C
330
1F
100
AcDbEntity
  8
0
  6
Continuous
 62
     7
370
    25
100
AcDbLine
 10
24.9496863764
 20
4.1710588281
 30
0.0
 11
24.9496863764
 21
3.6710588281
 31
0.0
  0
LINE
  5
49D
330
1F
100
AcDbEntity
  8
0
  6
Continuous
 62
     7
370
    25
100
AcDbLine
 10
24.889367595
 20
3.6710588281
 30
0.0
 11
24.9496863764
 21
3.6710588281
 31
0.0
  0
LINE
  5
49E
330
1F
100
AcDbEntity
  8
0
  6
Continuous
 62
     7
370
    25
100
AcDbLine
 10
24.9496863764
 20
7.9970136914
 30
0.0
 11
24.9496863764
 21
7.4970136914
 31
0.0
  0
LINE
  5
49F
330
1F
100
AcDbEntity
  8
0
  6
Continuous
 62
     7
370
    25
100
AcDbLine
 10
24.9413239505
 20
7.4120136914
 30
0.0
 11
24.9413239505
 21
7.4970136914
 31
0.0
  0
ARC
  5
4A0
330
1F
100
AcDbEntity
  8
0
  6
Continuous
 62
     7
370
    25
100
AcDbCircle
 10
24.8871863764
 20
3.6710588281
 30
0.0
 40
0.0625000000000036
100
AcDbArc
 50
272.0
 51
0.0
  0
LINE
  5
4A1
330
1F
100
AcDbEntity
  8
0
  6
Continuous
 62
     7
370
    25
100
AcDbLine
 10
24.9413239505
 20
7.4970136914
 30
0.0
 11
24.9871863764
 21
7.4970136914
 31
0.0
  0
LINE
  5
4A2
330
1F
100
AcDbEntity
  8
0
  6
Continuous
 62
     7
370
    25
100
AcDbLine
 10
24.9871863764
 20
7.4120136914
 30
0.0
 11
24.9871863764
 21
7.4970136914
 31
0.0
  0
LINE
  5
4A3
330
1F
100
AcDbEntity
  8
0
  6
Continuous
 62
     7
370
    25
100
AcDbLine
 10
24.9413239505
 20
7.4120136914
 30
0.0
 11
24.9871863764
 21
7.4120136914
 31
0.0
  0
LINE
  5
4A4
330
1F
100
AcDbEntity
  8
0
  6
Continuous
 62
     7
370
    25
100
AcDbLine
 10
25.0496863764
 20
7.4970136914
 30
0.0
 11
25.0496863764
 21
7.4120136914
 31
0.0
  0
LINE
  5
4A5
330
1F
100
AcDbEntity
  8
0
  6
Continuous
 62
     7
370
    25
100
AcDbLine
 10
25.0496863764
 20
7.4120136914
 30
0.0
 11
24.9871863764
 21
7.4120136914
 31
0.0
  0
LINE
  5
4A6
330
1F
100
AcDbEntity
  8
0
  6
Continuous
 62
     7
370
    25
100
AcDbLine
 10
24.9871863764
 20
7.4970136914
 30
0.0
 11
25.0496863764
 21
7.4970136914
 31
0.0
  0
LINE
  5
4A7
330
1F
100
AcDbEntity
  8
0
  6
Continuous
 62
     7
370
    25
100
AcDbLine
 10
24.9413239505
 20
4.2560588281
 30
0.0
 11
24.9871863764
 21
4.2560588281
 31
0.0
  0
LINE
  5
4A8
330
1F
100
AcDbEntity
  8
0
  6
Continuous
 62
     7
370
    25
100
AcDbLine
 10
24.9871863764
 20
4.1710588281
 30
0.0
 11
24.9871863764
 21
4.2560588281
 31
0.0
  0
LINE
  5
4A9
330
1F
100
AcDbEntity
  8
0
  6
Continuous
 62
     7
370
    25
100
AcDbLine
 10
24.9413239505
 20
4.1710588281
 30
0.0
 11
24.9871863764
 21
4.1710588281
 31
0.0
  0
LINE
  5
4AA
330
1F
100
AcDbEntity
  8
0
  6
Continuous
 62
     7
370
    25
100
AcDbLine
 10
25.0496863764
 20
4.2560588281
 30
0.0
 11
25.0496863764
 21
4.1710588281
 31
0.0
  0
LINE
  5
4AB
330
1F
100
AcDbEntity
  8
0
  6
Continuous
 62
     7
370
    25
100
AcDbLine
 10
25.0496863764
 20
4.1710588281
 30
0.0
 11
24.9871863764
 21
4.1710588281
 31
0.0
  0
LINE
  5
4AC
330
1F
100
AcDbEntity
  8
0
  6
Continuous
 62
     7
370
    25
100
AcDbLine
 10
24.9871863764
 20
4.2560588281
 30
0.0
 11
25.0496863764
 21
4.2560588281
 31
0.0
  0
LINE
  5
4AD
330
1F
100
AcDbEntity
  8
0
  6
Continuous
 62
     7
370
    25
100
AcDbLine
 10
24.1044154941
 20
6.8340362598
 30
0.0
 11
24.1044154941
 21
6.2524378657
 31
0.0
  0
LINE
  5
4AE
330
1F
100
AcDbEntity
  8
0
  6
Continuous
 62
     7
370
    25
100
AcDbLine
 10
24.1044154941
 20
6.0406346539
 30
0.0
 11
24.1044154941
 21
5.6274378657
 31
0.0
  0
LINE
  5
4AF
330
1F
100
AcDbEntity
  8
0
  6
Continuous
 62
     7
370
    25
100
AcDbLine
 10
24.1044154941
 20
5.4156346539
 30
0.0
 11
24.1044154941
 21
4.8340362598
 31
0.0
  0
LINE
  5
4B0
330
1F
100
AcDbEntity
  8
0
  6
Continuous
 62
     7
370
    25
100
AcDbLine
 10
24.0432049034
 20
4.8340362598
 30
0.0
 11
24.0432049034
 21
5.3590230754
 31
0.0
  0
LINE
  5
4B1
330
1F
100
AcDbEntity
  8
0
  6
Continuous
 62
     7
370
    25
100
AcDbLine
 10
24.0432049034
 20
5.6840494442
 30
0.0
 11
24.0432049034
 21
5.9840230754
 31
0.0
  0
LINE
  5
4B2
330
1F
100
AcDbEntity
  8
0
  6
Continuous
 62
     7
370
    25
100
AcDbLine
 10
24.0432049034
 20
6.3090494442
 30
0.0
 11
24.0432049034
 21
6.8340362598
 31
0.0
  0
LINE
  5
4B3
330
1F
100
AcDbEntity
  8
0
  6
Continuous
 62
     7
370
    25
100
AcDbLine
 10
30.5776936052
 20
4.7090362598
 30
0.0
 11
30.6947421083
 21
4.8340362598
 31
0.0
  0
LINE
  5
4B4
330
1F
100
AcDbEntity
  8
0
  6
Continuous
 62
     7
370
    25
100
AcDbLine
 10
31.8793770436
 20
4.8340362598
 30
0.0
 11
31.9966791476
 21
4.7090362598
 31
0.0
  0
LINE
  5
4B5
330
1F
100
AcDbEntity
  8
0
  6
Continuous
 62
     7
370
    25
100
AcDbLine
 10
31.9966791476
 20
6.9590362598
 30
0.0
 11
31.8796306445
 21
6.8340362598
 31
0.0
  0
LINE
  5
4B6
330
1F
100
AcDbEntity
  8
0
  6
Continuous
 62
     7
370
    25
100
AcDbLine
 10
30.6949957092
 20
6.8340362598
 30
0.0
 11
30.5776936052
 21
6.9590362598
 31
0.0
  0
ARC
  5
4B7
330
1F
100
AcDbEntity
  8
0
  6
Continuous
 62
     7
370
    25
100
AcDbCircle
 10
32.7246863764
 20
4.8590362598
 30
0.0
 40
0.1996078370824614
100
AcDbArc
 50
325.0182781721
 51
352.8050618727
  0
ARC
  5
4B8
330
1F
100
AcDbEntity
  8
0
  6
Continuous
 62
     7
370
    25
100
AcDbCircle
 10
32.7246863764
 20
6.8090362598
 30
0.0
 40
0.1996078370824619
100
AcDbArc
 50
7.1949381273
 51
34.9817218279
  0
LINE
  5
4B9
330
1F
100
AcDbEntity
  8
0
  6
Continuous
 62
     7
370
    25
100
AcDbLine
 10
30.1996863764
 20
4.7840362598
 30
0.0
 11
30.1996863764
 21
4.8340362598
 31
0.0
  0
LINE
  5
4BA
330
1F
100
AcDbEntity
  8
0
  6
Continuous
 62
     7
370
    25
100
AcDbLine
 10
30.1996863764
 20
6.8340362598
 30
0.0
 11
30.1996863764
 21
6.8840362598
 31
0.0
  0
LINE
  5
4BB
330
1F
100
AcDbEntity
  8
0
  6
Continuous
 62
     7
370
    25
100
AcDbLine
 10
30.4996863764
 20
6.8840362598
 30
0.0
 11
30.4996863764
 21
6.8340362598
 31
0.0
  0
LINE
  5
4BC
330
1F
100
AcDbEntity
  8
0
  6
Continuous
 62
     7
370
    25
100
AcDbLine
 10
30.4996863764
 20
4.8340362598
 30
0.0
 11
30.4996863764
 21
4.7840362598
 31
0.0
  0
LINE
  5
4BD
330
1F
100
AcDbEntity
  8
0
  6
Continuous
 62
     7
370
    25
100
AcDbLine
 10
32.0546863764
 20
4.7902862598
 30
0.0
 11
32.0546863764
 21
4.8340362598
 31
0.0
  0
LINE
  5
4BE
330
1F
100
AcDbEntity
  8
0
  6
Continuous
 62
     7
370
    25
100
AcDbLine
 10
32.0546863764
 20
6.8340362598
 30
0.0
 11
32.0546863764
 21
6.8777862598
 31
0.0
  0
LINE
  5
4BF
330
1F
100
AcDbEntity
  8
0
  6
Continuous
 62
     7
370
    25
100
AcDbLine
 10
30.0246863764
 20
6.9090362598
 30
0.0
 11
30.0246863764
 21
6.8340362598
 31
0.0
  0
LINE
  5
4C0
330
1F
100
AcDbEntity
  8
0
  6
Continuous
 62
     7
370
    25
100
AcDbLine
 10
30.0246863764
 20
4.8340362598
 30
0.0
 11
30.0246863764
 21
4.7590362598
 31
0.0
  0
LINE
  5
4C1
330
1F
100
AcDbEntity
  8
0
  6
Continuous
 62
     7
370
    25
100
AcDbLine
 10
32.0746863764
 20
6.8777862598
 30
0.0
 11
32.0746863764
 21
6.8340362598
 31
0.0
  0
LINE
  5
4C2
330
1F
100
AcDbEntity
  8
0
  6
Continuous
 62
     7
370
    25
100
AcDbLine
 10
32.0746863764
 20
4.8340362598
 30
0.0
 11
32.0746863764
 21
4.7902862598
 31
0.0
  0
ARC
  5
4C3
330
1F
100
AcDbEntity
  8
0
  6
Continuous
 62
     7
370
    25
100
AcDbCircle
 10
32.7246863764
 20
4.8590362598
 30
0.0
 40
0.1896862696659684
100
AcDbArc
 50
325.0182781721
 51
352.4265783369
  0
ARC
  5
4C4
330
1F
100
AcDbEntity
  8
0
  6
Continuous
 62
     7
370
    25
100
AcDbCircle
 10
32.7246863764
 20
6.8090362598
 30
0.0
 40
0.1896862696659684
100
AcDbArc
 50
7.5734216631
 51
34.9817218279
  0
LINE
  5
4C5
330
1F
100
AcDbEntity
  8
0
  6
Continuous
 62
     7
370
    25
100
AcDbLine
 10
24.889367595
 20
3.6710588281
 30
0.0
 11
24.889367595
 21
4.8340362598
 31
0.0
  0
LINE
  5
4C6
330
1F
100
AcDbEntity
  8
0
  6
Continuous
 62
     7
370
    25
100
AcDbLine
 10
24.889367595
 20
6.8340362598
 30
0.0
 11
24.889367595
 21
7.9970136914
 31
0.0
  0
DIMENSION
  5
4C7
330
1F
100
AcDbEntity
  8
DIM
100
AcDbDimension
  2
_D_4
 10
40.4376357648
 20
6.8340362598
 30
0.0
 11
40.4376357648
 21
6.326531159
 31
0.0
 70
   160
  1
<>
 71
     2
 42
-1.0
  3
SLDDIMSTYLE2
100
AcDbAlignedDimension
 13
38.9496863764
 23
4.8340362598
 33
0.0
 14
38.9496863764
 24
6.8340362598
 34
0.0
 50
90.0
100
AcDbRotatedDimension
  0
DIMENSION
  5
4DC
330
1F
100
AcDbEntity
  8
DIM
100
AcDbDimension
  2
_D_5
 10
22.3246863764
 20
9.7238394094
 30
0.0
 11
27.3017082231
 21
9.7238394094
 31
0.0
 70
   160
  1
<>
 71
     2
 42
-1.0
  3
SLDDIMSTYLE3
100
AcDbAlignedDimension
 13
24.9496863764
 23
7.9970136914
 33
0.0
 14
22.3246863764
 24
8.0865743331
 34
0.0
100
AcDbRotatedDimension
  0
ENDSEC
  0
SECTION
  2
OBJECTS
  0
DICTIONARY
  5
C
330
0
100
AcDbDictionary
281
     1
  3
ACAD_GROUP
350
D
  3
ACAD_LAYOUT
350
1A
  3
ACAD_MLINESTYLE
350
17
  3
ACAD_PLOTSETTINGS
350
19
  3
ACAD_PLOTSTYLENAME
350
E
  3
ACAD_SCALELIST
350
47
  3
DWGPROPS
350
4F1
  0
DICTIONARY
  5
D
102
{ACAD_REACTORS
330
C
102
}
330
C
100
AcDbDictionary
281
     1
  0
DICTIONARY
  5
1A
102
{ACAD_REACTORS
330
C
102
}
330
C
100
AcDbDictionary
281
     1
  3
Layout1
350
1E
  3
Layout2
350
26
  3
Model
350
22
  0
DICTIONARY
  5
17
102
{ACAD_REACTORS
330
C
102
}
330
C
100
AcDbDictionary
281
     1
  3
Standard
350
18
  0
DICTIONARY
  5
19
102
{ACAD_REACTORS
330
C
102
}
330
C
100
AcDbDictionary
281
     1
  0
ACDBDICTIONARYWDFLT
  5
E
102
{ACAD_REACTORS
330
C
102
}
330
C
100
AcDbDictionary
281
     1
  3
Normal
350
F
100
AcDbDictionaryWithDefault
340
F
  0
DICTIONARY
  5
47
102
{ACAD_REACTORS
330
C
102
}
330
C
100
AcDbDictionary
281
     1
  3
A0
350
48
  3
A1
350
49
  3
A2
350
4A
  3
A3
350
4B
  3
A4
350
4C
  3
A5
350
4D
  3
A6
350
4E
  3
A7
350
4F
  3
A8
350
50
  3
A9
350
51
  3
B1
350
52
  3
B2
350
53
  3
B3
350
54
  3
B4
350
55
  3
B5
350
56
  3
B6
350
57
  3
B7
350
58
  0
XRECORD
  5
4F1
102
{ACAD_REACTORS
330
C
102
}
330
C
100
AcDbXrecord
280
     1
  1
DWGPROPS COOKIE
  2

  3

  4

  6

  7

  8
shawnd
  9

300
=
301
=
302
=
303
=
304
=
305
=
306
=
307
=
308
=
309
=
 40
0.0
 41
2460892.726703392
 42
2460892.726703866
  1

 90
        0
  0
LAYOUT
  5
1E
102
{ACAD_REACTORS
330
1A
102
}
330
1A
100
AcDbPlotSettings
  1

  2
none_device
  4

  6

 40
0.0
 41
0.0
 42
0.0
 43
0.0
 44
0.0
 45
0.0
 46
0.0
 47
0.0
 48
0.0
 49
0.0
140
0.0
141
0.0
142
1.0
143
1.0
 70
   688
 72
     0
 73
     0
 74
     5
  7

 75
    16
147
1.0
148
0.0
149
0.0
100
AcDbLayout
  1
Layout1
 70
     1
 71
     1
 10
0.0
 20
0.0
 11
12.0
 21
9.0
 12
0.0
 22
0.0
 32
0.0
 14
1.0000000000E+20
 24
1.0000000000E+20
 34
1.0000000000E+20
 15
-1.0000000000E+20
 25
-1.0000000000E+20
 35
-1.0000000000E+20
146
0.0
 13
0.0
 23
0.0
 33
0.0
 16
1.0
 26
0.0
 36
0.0
 17
0.0
 27
1.0
 37
0.0
 76
     0
330
1B
  0
LAYOUT
  5
26
102
{ACAD_REACTORS
330
1A
102
}
330
1A
100
AcDbPlotSettings
  1

  2
none_device
  4

  6

 40
0.0
 41
0.0
 42
0.0
 43
0.0
 44
0.0
 45
0.0
 46
0.0
 47
0.0
 48
0.0
 49
0.0
140
0.0
141
0.0
142
1.0
143
1.0
 70
   688
 72
     0
 73
     0
 74
     5
  7

 75
    16
147
1.0
148
0.0
149
0.0
100
AcDbLayout
  1
Layout2
 70
     1
 71
     2
 10
0.0
 20
0.0
 11
0.0
 21
0.0
 12
0.0
 22
0.0
 32
0.0
 14
0.0
 24
0.0
 34
0.0
 15
0.0
 25
0.0
 35
0.0
146
0.0
 13
0.0
 23
0.0
 33
0.0
 16
1.0
 26
0.0
 36
0.0
 17
0.0
 27
1.0
 37
0.0
 76
     0
330
23
  0
LAYOUT
  5
22
102
{ACAD_REACTORS
330
1A
102
}
330
1A
100
AcDbPlotSettings
  1

  2
none_device
  4
Letter_(8.50_x_11.00_Inches)
  6

 40
6.35
 41
6.35
 42
6.35000508
 43
6.35000508
 44
215.9
 45
279.4
 46
0.0
 47
0.0
 48
0.0
 49
0.0
140
0.0
141
0.0
142
1.0
143
1.0
 70
  1712
 72
     0
 73
     0
 74
     0
  7

 75
     0
147
1.0
148
0.0
149
0.0
100
AcDbLayout
  1
Model
 70
     1
 71
     0
 10
0.0
 20
0.0
 11
44.0
 21
34.0
 12
0.0
 22
0.0
 32
0.0
 14
0.0
 24
0.0
 34
0.0
 15
44.0
 25
34.0
 35
0.0
146
0.0
 13
0.0
 23
0.0
 33
0.0
 16
1.0
 26
0.0
 36
0.0
 17
0.0
 27
1.0
 37
0.0
 76
     0
330
1F
331
29
  0
MLINESTYLE
  5
18
102
{ACAD_REACTORS
330
17
102
}
330
17
100
AcDbMlineStyle
  2
Standard
 70
     0
  3

 62
   256
 51
90.0
 52
90.0
 71
     2
 49
0.5
 62
   256
  6
BYLAYER
 49
-0.5
 62
   256
  6
BYLAYER
  0
ACDBPLACEHOLDER
  5
F
102
{ACAD_REACTORS
330
E
102
}
330
E
  0
SCALE
  5
48
102
{ACAD_REACTORS
330
47
102
}
330
47
100
AcDbScale
 70
     0
300
1:1
140
1.0
141
1.0
290
     1
  0
SCALE
  5
49
102
{ACAD_REACTORS
330
47
102
}
330
47
100
AcDbScale
 70
     0
300
1/128" = 1'-0"
140
0.0078125
141
12.0
290
     0
  0
SCALE
  5
4A
102
{ACAD_REACTORS
330
47
102
}
330
47
100
AcDbScale
 70
     0
300
1/64" = 1'-0"
140
0.015625
141
12.0
290
     0
  0
SCALE
  5
4B
102
{ACAD_REACTORS
330
47
102
}
330
47
100
AcDbScale
 70
     0
300
1/32" = 1'-0"
140
0.03125
141
12.0
290
     0
  0
SCALE
  5
4C
102
{ACAD_REACTORS
330
47
102
}
330
47
100
AcDbScale
 70
     0
300
1/16" = 1'-0"
140
0.0625
141
12.0
290
     0
  0
SCALE
  5
4D
102
{ACAD_REACTORS
330
47
102
}
330
47
100
AcDbScale
 70
     0
300
3/32" = 1'-0"
140
0.09375
141
12.0
290
     0
  0
SCALE
  5
4E
102
{ACAD_REACTORS
330
47
102
}
330
47
100
AcDbScale
 70
     0
300
1/8" = 1'-0"
140
0.125
141
12.0
290
     0
  0
SCALE
  5
4F
102
{ACAD_REACTORS
330
47
102
}
330
47
100
AcDbScale
 70
     0
300
3/16" = 1'-0"
140
0.1875
141
12.0
290
     0
  0
SCALE
  5
50
102
{ACAD_REACTORS
330
47
102
}
330
47
100
AcDbScale
 70
     0
300
1/4" = 1'-0"
140
0.25
141
12.0
290
     0
  0
SCALE
  5
51
102
{ACAD_REACTORS
330
47
102
}
330
47
100
AcDbScale
 70
     0
300
3/8" = 1'-0"
140
0.375
141
12.0
290
     0
  0
SCALE
  5
52
102
{ACAD_REACTORS
330
47
102
}
330
47
100
AcDbScale
 70
     0
300
1/2" = 1'-0"
140
0.5
141
12.0
290
     0
  0
SCALE
  5
53
102
{ACAD_REACTORS
330
47
102
}
330
47
100
AcDbScale
 70
     0
300
3/4" = 1'-0"
140
0.75
141
12.0
290
     0
  0
SCALE
  5
54
102
{ACAD_REACTORS
330
47
102
}
330
47
100
AcDbScale
 70
     0
300
1" = 1'-0"
140
1.0
141
12.0
290
     0
  0
SCALE
  5
55
102
{ACAD_REACTORS
330
47
102
}
330
47
100
AcDbScale
 70
     0
300
1-1/2" = 1'-0"
140
1.5
141
12.0
290
     0
  0
SCALE
  5
56
102
{ACAD_REACTORS
330
47
102
}
330
47
100
AcDbScale
 70
     0
300
3" = 1'-0"
140
3.0
141
12.0
290
     0
  0
SCALE
  5
57
102
{ACAD_REACTORS
330
47
102
}
330
47
100
AcDbScale
 70
     0
300
6" = 1'-0"
140
6.0
141
12.0
290
     0
  0
SCALE
  5
58
102
{ACAD_REACTORS
330
47
102
}
330
47
100
AcDbScale
 70
     0
300
1'-0" = 1'-0"
140
12.0
141
12.0
290
     0
  0
ENDSEC
  0
EOF
