  0
SECTION
  2
HEADER
  9
$ACADVER
  1
AC1015
  9
$ACADMAINTVER
 70
     6
  9
$DWGCODEPAGE
  3
ANSI_1252
  9
$INSBASE
 10
0.0
 20
0.0
 30
0.0
  9
$EXTMIN
 10
0.0
 20
0.0
 30
0.0
  9
$EXTMAX
 10
33.0
 20
25.5
 30
0.0
  9
$LIMMIN
 10
0.0
 20
0.0
  9
$LIMMAX
 10
33.0
 20
25.5
  9
$ORTHOMODE
 70
     0
  9
$REGENMODE
 70
     1
  9
$FILLMODE
 70
     1
  9
$QTEXTMODE
 70
     0
  9
$MIRRTEXT
 70
     1
  9
$LTSCALE
 40
3.0
  9
$ATTMODE
 70
     1
  9
$TEXTSIZE
 40
0.4133858268
  9
$TRACEWID
 40
0.05
  9
$TEXTSTYLE
  7
Standard
  9
$CLAYER
  8
0
  9
$CELTYPE
  6
ByLayer
  9
$CECOLOR
 62
   256
  9
$CELTSCALE
 40
1.0
  9
$DISPSILH
 70
     0
  9
$DIMSCALE
 40
1.0
  9
$DIMASZ
 40
0.39
  9
$DIMEXO
 40
0.1181102362
  9
$DIMDLI
 40
0.38
  9
$DIMRND
 40
0.0
  9
$DIMDLE
 40
0.0
  9
$DIMEXE
 40
0.1181102362
  9
$DIMTP
 40
0.0
  9
$DIMTM
 40
0.0
  9
$DIMTXT
 40
0.4133858268
  9
$DIMCEN
 40
0.09
  9
$DIMTSZ
 40
0.0
  9
$DIMTOL
 70
     0
  9
$DIMLIM
 70
     0
  9
$DIMTIH
 70
     1
  9
$DIMTOH
 70
     1
  9
$DIMSE1
 70
     0
  9
$DIMSE2
 70
     0
  9
$DIMTAD
 70
     1
  9
$DIMZIN
 70
     1
  9
$DIMBLK
  1

  9
$DIMASO
 70
     1
  9
$DIMSHO
 70
     1
  9
$DIMPOST
  1

  9
$DIMAPOST
  1

  9
$DIMALT
 70
     0
  9
$DIMALTD
 70
     2
  9
$DIMALTF
 40
25.4
  9
$DIMLFAC
 40
1.0
  9
$DIMTOFL
 70
     0
  9
$DIMTVP
 40
0.0
  9
$DIMTIX
 70
     0
  9
$DIMSOXD
 70
     0
  9
$DIMSAH
 70
     0
  9
$DIMBLK1
  1

  9
$DIMBLK2
  1

  9
$DIMSTYLE
  2
Standard
  9
$DIMCLRD
 70
     0
  9
$DIMCLRE
 70
     0
  9
$DIMCLRT
 70
     0
  9
$DIMTFAC
 40
1.0
  9
$DIMGAP
 40
0.18
  9
$DIMJUST
 70
     0
  9
$DIMSD1
 70
     0
  9
$DIMSD2
 70
     0
  9
$DIMTOLJ
 70
     1
  9
$DIMTZIN
 70
     1
  9
$DIMALTZ
 70
     0
  9
$DIMALTTZ
 70
     0
  9
$DIMUPT
 70
     0
  9
$DIMDEC
 70
     0
  9
$DIMTDEC
 70
     0
  9
$DIMALTU
 70
     2
  9
$DIMALTTD
 70
     2
  9
$DIMTXSTY
  7
Standard
  9
$DIMAUNIT
 70
     0
  9
$DIMADEC
 70
     2
  9
$DIMALTRND
 40
0.0
  9
$DIMAZIN
 70
     0
  9
$DIMDSEP
 70
    46
  9
$DIMATFIT
 70
     3
  9
$DIMFRAC
 70
     0
  9
$DIMLDRBLK
  1

  9
$DIMLUNIT
 70
     2
  9
$DIMLWD
 70
    -2
  9
$DIMLWE
 70
    -2
  9
$DIMTMOVE
 70
     0
  9
$LUNITS
 70
     2
  9
$LUPREC
 70
     6
  9
$SKETCHINC
 40
0.1
  9
$FILLETRAD
 40
0.0
  9
$AUNITS
 70
     0
  9
$AUPREC
 70
     2
  9
$MENU
  1
.
  9
$ELEVATION
 40
0.0
  9
$PELEVATION
 40
0.0
  9
$THICKNESS
 40
0.0
  9
$LIMCHECK
 70
     0
  9
$CHAMFERA
 40
0.0
  9
$CHAMFERB
 40
0.0
  9
$CHAMFERC
 40
0.0
  9
$CHAMFERD
 40
0.0
  9
$SKPOLY
 70
     0
  9
$TDCREATE
 40
2460858.357509896
  9
$TDUCREATE
 40
2460858.649176563
  9
$TDUPDATE
 40
2460858.357510579
  9
$TDUUPDATE
 40
2460858.649177246
  9
$TDINDWG
 40
0.0000000116
  9
$TDUSRTIMER
 40
0.0000000116
  9
$USRTIMER
 70
     1
  9
$ANGBASE
 50
0.0
  9
$ANGDIR
 70
     0
  9
$PDMODE
 70
     0
  9
$PDSIZE
 40
-1.0
  9
$PLINEWID
 40
0.0
  9
$SPLFRAME
 70
     0
  9
$SPLINETYPE
 70
     6
  9
$SPLINESEGS
 70
     8
  9
$HANDSEED
  5
2F3
  9
$SURFTAB1
 70
     6
  9
$SURFTAB2
 70
     6
  9
$SURFTYPE
 70
     6
  9
$SURFU
 70
     6
  9
$SURFV
 70
     6
  9
$UCSBASE
  2

  9
$UCSNAME
  2

  9
$UCSORG
 10
0.0
 20
0.0
 30
0.0
  9
$UCSXDIR
 10
1.0
 20
0.0
 30
0.0
  9
$UCSYDIR
 10
0.0
 20
1.0
 30
0.0
  9
$UCSORTHOREF
  2

  9
$UCSORTHOVIEW
 70
     0
  9
$UCSORGTOP
 10
0.0
 20
0.0
 30
0.0
  9
$UCSORGBOTTOM
 10
0.0
 20
0.0
 30
0.0
  9
$UCSORGLEFT
 10
0.0
 20
0.0
 30
0.0
  9
$UCSORGRIGHT
 10
0.0
 20
0.0
 30
0.0
  9
$UCSORGFRONT
 10
0.0
 20
0.0
 30
0.0
  9
$UCSORGBACK
 10
0.0
 20
0.0
 30
0.0
  9
$PUCSBASE
  2

  9
$PUCSNAME
  2

  9
$PUCSORG
 10
0.0
 20
0.0
 30
0.0
  9
$PUCSXDIR
 10
1.0
 20
0.0
 30
0.0
  9
$PUCSYDIR
 10
0.0
 20
1.0
 30
0.0
  9
$PUCSORTHOREF
  2

  9
$PUCSORTHOVIEW
 70
     0
  9
$PUCSORGTOP
 10
0.0
 20
0.0
 30
0.0
  9
$PUCSORGBOTTOM
 10
0.0
 20
0.0
 30
0.0
  9
$PUCSORGLEFT
 10
0.0
 20
0.0
 30
0.0
  9
$PUCSORGRIGHT
 10
0.0
 20
0.0
 30
0.0
  9
$PUCSORGFRONT
 10
0.0
 20
0.0
 30
0.0
  9
$PUCSORGBACK
 10
0.0
 20
0.0
 30
0.0
  9
$USERI1
 70
     0
  9
$USERI2
 70
     0
  9
$USERI3
 70
     0
  9
$USERI4
 70
     0
  9
$USERI5
 70
     0
  9
$USERR1
 40
0.0
  9
$USERR2
 40
0.0
  9
$USERR3
 40
0.0
  9
$USERR4
 40
0.0
  9
$USERR5
 40
0.0
  9
$WORLDVIEW
 70
     1
  9
$SHADEDGE
 70
     3
  9
$SHADEDIF
 70
    70
  9
$TILEMODE
 70
     1
  9
$MAXACTVP
 70
    64
  9
$PINSBASE
 10
0.0
 20
0.0
 30
0.0
  9
$PLIMCHECK
 70
     0
  9
$PEXTMIN
 10
1.0000000000E+20
 20
1.0000000000E+20
 30
1.0000000000E+20
  9
$PEXTMAX
 10
-1.0000000000E+20
 20
-1.0000000000E+20
 30
-1.0000000000E+20
  9
$PLIMMIN
 10
0.0
 20
0.0
  9
$PLIMMAX
 10
12.0
 20
9.0
  9
$UNITMODE
 70
     0
  9
$VISRETAIN
 70
     1
  9
$PLINEGEN
 70
     0
  9
$PSLTSCALE
 70
     1
  9
$TREEDEPTH
 70
  3020
  9
$CMLSTYLE
  2
Standard
  9
$CMLJUST
 70
     0
  9
$CMLSCALE
 40
1.0
  9
$PROXYGRAPHICS
 70
     1
  9
$MEASUREMENT
 70
     0
  9
$CELWEIGHT
370
    -1
  9
$ENDCAPS
280
     0
  9
$JOINSTYLE
280
     0
  9
$LWDISPLAY
290
     1
  9
$INSUNITS
 70
     1
  9
$HYPERLINKBASE
  1

  9
$STYLESHEET
  1

  9
$XEDIT
290
     1
  9
$CEPSNTYPE
380
     0
  9
$PSTYLEMODE
290
     1
  9
$FINGERPRINTGUID
  2
{6b05b9c6-72c7-498a-b1a1-d0d54d644a54}
  9
$VERSIONGUID
  2
{FAEB1C32-E019-11D5-929B-00C0DF256EC4}
  9
$EXTNAMES
290
     1
  9
$PSVPSCALE
 40
0.0
  9
$OLESTARTUP
290
     0
  0
ENDSEC
  0
SECTION
  2
CLASSES
  0
CLASS
  1
ACDBDICTIONARYWDFLT
  2
AcDbDictionaryWithDefault
  3
ObjectDBX Classes
 90
        0
280
     0
281
     0
  0
CLASS
  1
VISUALSTYLE
  2
AcDbVisualStyle
  3
ObjectDBX Classes
 90
     4095
280
     0
281
     0
  0
CLASS
  1
MATERIAL
  2
AcDbMaterial
  3
ObjectDBX Classes
 90
     1153
280
     0
281
     0
  0
CLASS
  1
SCALE
  2
AcDbScale
  3
ObjectDBX Classes
 90
     1153
280
     0
281
     0
  0
CLASS
  1
TABLESTYLE
  2
AcDbTableStyle
  3
ObjectDBX Classes
 90
     4095
280
     0
281
     0
  0
CLASS
  1
MLEADERSTYLE
  2
AcDbMLeaderStyle
  3
ACDB_MLEADERSTYLE_CLASS
 90
     4095
280
     0
281
     0
  0
CLASS
  1
SUN
  2
AcDbSun
  3
SCENEOE
 90
     1153
280
     0
281
     0
  0
CLASS
  1
ACDBPLACEHOLDER
  2
AcDbPlaceHolder
  3
ObjectDBX Classes
 90
        0
280
     0
281
     0
  0
CLASS
  1
LAYOUT
  2
AcDbLayout
  3
ObjectDBX Classes
 90
        0
280
     0
281
     0
  0
ENDSEC
  0
SECTION
  2
TABLES
  0
TABLE
  2
VPORT
  5
8
330
0
100
AcDbSymbolTable
 70
     1
  0
VPORT
  5
29
330
8
100
AcDbSymbolTableRecord
100
AcDbViewportTableRecord
  2
*Active
 70
     0
 10
0.0
 20
0.0
 11
1.0
 21
1.0
 12
16.5
 22
12.75
 13
0.0
 23
0.0
 14
0.5
 24
0.5
 15
0.5
 25
0.5
 16
0.0
 26
0.0
 36
1.0
 17
0.0
 27
0.0
 37
0.0
 40
25.5
 41
1.2941176471
 42
50.0
 43
0.0
 44
0.0
 50
0.0
 51
0.0
 71
     0
 72
  2000
 73
     1
 74
     3
 75
     0
 76
     0
 77
     0
 78
     0
281
     0
 65
     1
110
0.0
120
0.0
130
0.0
111
1.0
121
0.0
131
0.0
112
0.0
122
1.0
132
0.0
 79
     0
146
0.0
  0
ENDTAB
  0
TABLE
  2
LTYPE
  5
5
330
0
100
AcDbSymbolTable
 70
     6
  0
LTYPE
  5
14
330
5
100
AcDbSymbolTableRecord
100
AcDbLinetypeTableRecord
  2
ByBlock
 70
     0
  3

 72
    65
 73
     0
 40
0.0
  0
LTYPE
  5
15
330
5
100
AcDbSymbolTableRecord
100
AcDbLinetypeTableRecord
  2
ByLayer
 70
     0
  3

 72
    65
 73
     0
 40
0.0
  0
LTYPE
  5
16
330
5
100
AcDbSymbolTableRecord
100
AcDbLinetypeTableRecord
  2
Continuous
 70
     0
  3
Solid line
 72
    65
 73
     0
 40
0.0
  0
LTYPE
  5
5E
330
5
100
AcDbSymbolTableRecord
100
AcDbLinetypeTableRecord
  2
HIDDEN
 70
     0
  3
Hidden __ __ __ __ __ __ __ __ __ __ __ __ __ __
 72
    65
 73
     2
 40
0.075
 49
0.05
 74
     0
 49
-0.025
 74
     0
  0
LTYPE
  5
5F
330
5
100
AcDbSymbolTableRecord
100
AcDbLinetypeTableRecord
  2
PHANTOM
 70
     0
  3
Phantom ______  __  __  ______  __  __  ______
 72
    65
 73
     6
 40
0.5
 49
0.25
 74
     0
 49
-0.05
 74
     0
 49
0.05
 74
     0
 49
-0.05
 74
     0
 49
0.05
 74
     0
 49
-0.05
 74
     0
  0
LTYPE
  5
60
330
5
100
AcDbSymbolTableRecord
100
AcDbLinetypeTableRecord
  2
CENTER
 70
     0
  3
Center ____ _ ____ _ ____ _ ____ _ ____ _ ____
 72
    65
 73
     4
 40
0.4
 49
0.25
 74
     0
 49
-0.05
 74
     0
 49
0.05
 74
     0
 49
-0.05
 74
     0
  0
LTYPE
  5
61
330
5
100
AcDbSymbolTableRecord
100
AcDbLinetypeTableRecord
  2
CENTERX2
 70
     0
  3
Center (2x) ________  __  ________  __  _____
 72
    65
 73
     4
 40
0.8
 49
0.5
 74
     0
 49
-0.1
 74
     0
 49
0.1
 74
     0
 49
-0.1
 74
     0
  0
LTYPE
  5
62
330
5
100
AcDbSymbolTableRecord
100
AcDbLinetypeTableRecord
  2
DOT2
 70
     0
  3
Dot (.5x) ........................................
 72
    65
 73
     2
 40
0.025
 49
0.0
 74
     0
 49
-0.025
 74
     0
  0
ENDTAB
  0
TABLE
  2
LAYER
  5
2
330
0
100
AcDbSymbolTable
 70
    11
  0
LAYER
  5
10
330
2
100
AcDbSymbolTableRecord
100
AcDbLayerTableRecord
  2
0
 70
     0
 62
     7
  6
Continuous
370
    -3
390
F
  0
LAYER
  5
63
330
2
100
AcDbSymbolTableRecord
100
AcDbLayerTableRecord
  2
SLD-0
 70
     0
 62
     7
  6
Continuous
370
    -3
390
F
  0
LAYER
  5
64
330
2
100
AcDbSymbolTableRecord
100
AcDbLayerTableRecord
  2
DIM
 70
     0
 62
     7
  6
Continuous
370
    -3
390
F
  0
LAYER
  5
65
330
2
100
AcDbSymbolTableRecord
100
AcDbLayerTableRecord
  2
CEN
 70
     0
 62
     1
  6
CENTER
370
    -3
390
F
  0
LAYER
  5
66
330
2
100
AcDbSymbolTableRecord
100
AcDbLayerTableRecord
  2
HAT
 70
     0
 62
     4
  6
Continuous
370
    -3
390
F
  0
LAYER
  5
67
330
2
100
AcDbSymbolTableRecord
100
AcDbLayerTableRecord
  2
OBJ
 70
     0
 62
     5
  6
Continuous
370
    -3
390
F
  0
LAYER
  5
68
330
2
100
AcDbSymbolTableRecord
100
AcDbLayerTableRecord
  2
SLD-DEFPOINTS
 70
     0
 62
     7
  6
Continuous
370
    -3
390
F
  0
LAYER
  5
69
330
2
100
AcDbSymbolTableRecord
100
AcDbLayerTableRecord
  2
HID
 70
     0
 62
     4
  6
HIDDEN
370
    -3
390
F
  0
LAYER
  5
6A
330
2
100
AcDbSymbolTableRecord
100
AcDbLayerTableRecord
  2
NOTE
 70
     0
 62
     7
  6
Continuous
370
    -3
390
F
  0
LAYER
  5
6B
330
2
100
AcDbSymbolTableRecord
100
AcDbLayerTableRecord
  2
TITLE
 70
     0
 62
     7
  6
Continuous
370
    -3
390
F
  0
LAYER
  5
6C
330
2
100
AcDbSymbolTableRecord
100
AcDbLayerTableRecord
  2
THICK_TITLE
 70
     0
 62
     7
  6
Continuous
370
   100
390
F
  0
ENDTAB
  0
TABLE
  2
STYLE
  5
3
330
0
100
AcDbSymbolTable
 70
     3
  0
STYLE
  5
11
330
3
100
AcDbSymbolTableRecord
100
AcDbTextStyleTableRecord
  2
Standard
 70
     0
 40
0.0
 41
1.0
 50
0.0
 71
     0
 42
0.4133858268
  3
txt
  4

  0
STYLE
  5
142
330
3
100
AcDbSymbolTableRecord
100
AcDbTextStyleTableRecord
  2
SLDTEXTSTYLE0
 70
     0
 40
0.0
 41
0.75
 50
0.0
 71
     0
 42
0.4133858268
  3
TXT
  4

  0
STYLE
  5
2F0
330
3
100
AcDbSymbolTableRecord
100
AcDbTextStyleTableRecord
  2
SLDTEXTSTYLE1
 70
     0
 40
0.0
 41
0.7
 50
0.0
 71
     0
 42
0.4133858268
  3
TXT
  4

  0
ENDTAB
  0
TABLE
  2
VIEW
  5
6
330
0
100
AcDbSymbolTable
 70
     0
  0
ENDTAB
  0
TABLE
  2
UCS
  5
7
330
0
100
AcDbSymbolTable
 70
     0
  0
ENDTAB
  0
TABLE
  2
APPID
  5
9
330
0
100
AcDbSymbolTable
 70
     1
  0
APPID
  5
12
330
9
100
AcDbSymbolTableRecord
100
AcDbRegAppTableRecord
  2
ACAD
 70
     0
  0
ENDTAB
  0
TABLE
  2
DIMSTYLE
  5
A
330
0
100
AcDbSymbolTable
 70
     5
100
AcDbDimStyleTable
  0
DIMSTYLE
105
27
330
A
100
AcDbSymbolTableRecord
100
AcDbDimStyleTableRecord
  2
Standard
 70
     0
178
     0
340
11
  0
DIMSTYLE
105
143
102
{ACAD_REACTORS
330
141
330
157
330
294
330
2B9
102
}
330
A
100
AcDbSymbolTableRecord
100
AcDbDimStyleTableRecord
  2
SLDDIMSTYLE0
 70
     0
 41
0.39
 44
0.0
 45
0.000000001
 78
    12
 79
     3
140
0.4133858268
147
0.1033464567
148
0.000000001
170
     1
173
     1
178
     0
271
     6
272
     0
276
     2
277
     5
284
    12
340
142
  0
DIMSTYLE
105
16C
102
{ACAD_REACTORS
330
16B
330
2DC
102
}
330
A
100
AcDbSymbolTableRecord
100
AcDbDimStyleTableRecord
  2
SLDDIMSTYLE1
 70
     0
 41
0.39
 44
0.0
 45
0.000000001
 78
    12
 79
     3
140
0.4133858268
147
0.1033464567
148
0.000000001
170
     1
172
     1
173
     1
178
     0
271
     6
272
     0
276
     2
277
     5
284
    12
289
     0
340
142
  0
DIMSTYLE
105
181
102
{ACAD_REACTORS
330
180
102
}
330
A
100
AcDbSymbolTableRecord
100
AcDbDimStyleTableRecord
  2
SLDDIMSTYLE2
 70
     0
 41
0.39
 44
0.0
 45
0.000000001
 78
    12
 79
     3
140
0.4133858268
147
0.1033464567
148
0.000000001
170
     1
172
     1
173
     1
178
     0
271
     0
272
     0
276
     2
277
     5
284
    12
289
     0
340
142
  0
DIMSTYLE
105
196
330
A
100
AcDbSymbolTableRecord
100
AcDbDimStyleTableRecord
  2
SLDDIMSTYLE3
 70
     0
 41
0.39
 44
0.0
 45
0.000000001
146
0.39
147
0.0
173
     1
178
     0
271
     0
272
     0
276
     2
277
     5
340
11
  0
ENDTAB
  0
TABLE
  2
BLOCK_RECORD
  5
1
330
0
100
AcDbSymbolTable
 70
     8
  0
BLOCK_RECORD
  5
1F
330
1
100
AcDbSymbolTableRecord
100
AcDbBlockTableRecord
  2
*Model_Space
340
22
  0
BLOCK_RECORD
  5
1B
330
1
100
AcDbSymbolTableRecord
100
AcDbBlockTableRecord
  2
*Paper_Space
340
1E
  0
BLOCK_RECORD
  5
23
330
1
100
AcDbSymbolTableRecord
100
AcDbBlockTableRecord
  2
*Paper_Space0
340
26
  0
BLOCK_RECORD
  5
144
330
1
100
AcDbSymbolTableRecord
100
AcDbBlockTableRecord
  2
_D
340
0
  0
BLOCK_RECORD
  5
158
330
1
100
AcDbSymbolTableRecord
100
AcDbBlockTableRecord
  2
_D_1
340
0
  0
BLOCK_RECORD
  5
16D
330
1
100
AcDbSymbolTableRecord
100
AcDbBlockTableRecord
  2
_D_2
340
0
  0
BLOCK_RECORD
  5
182
330
1
100
AcDbSymbolTableRecord
100
AcDbBlockTableRecord
  2
_D_3
340
0
  0
BLOCK_RECORD
  5
295
330
1
100
AcDbSymbolTableRecord
100
AcDbBlockTableRecord
  2
_D_4
340
0
  0
BLOCK_RECORD
  5
2BA
330
1
100
AcDbSymbolTableRecord
100
AcDbBlockTableRecord
  2
_D_5
340
0
  0
BLOCK_RECORD
  5
2DD
330
1
100
AcDbSymbolTableRecord
100
AcDbBlockTableRecord
  2
_D_6
340
0
  0
ENDTAB
  0
ENDSEC
  0
SECTION
  2
BLOCKS
  0
BLOCK
  5
20
330
1F
100
AcDbEntity
  8
0
100
AcDbBlockBegin
  2
*Model_Space
 70
     0
 10
0.0
 20
0.0
 30
0.0
  3
*Model_Space
  1

  0
ENDBLK
  5
21
330
1F
100
AcDbEntity
  8
0
100
AcDbBlockEnd
  0
BLOCK
  5
1C
330
1B
100
AcDbEntity
 67
     1
  8
0
100
AcDbBlockBegin
  2
*Paper_Space
 70
     0
 10
0.0
 20
0.0
 30
0.0
  3
*Paper_Space
  1

  0
ENDBLK
  5
1D
330
1B
100
AcDbEntity
 67
     1
  8
0
100
AcDbBlockEnd
  0
BLOCK
  5
24
330
23
100
AcDbEntity
  8
0
100
AcDbBlockBegin
  2
*Paper_Space0
 70
     0
 10
0.0
 20
0.0
 30
0.0
  3
*Paper_Space0
  1

  0
ENDBLK
  5
25
330
23
100
AcDbEntity
  8
0
100
AcDbBlockEnd
  0
BLOCK
  5
145
330
144
100
AcDbEntity
  8
0
100
AcDbBlockBegin
  2
_D
 70
     0
 10
0.0
 20
0.0
 30
0.0
  3
_D
  1

  0
SOLID
  5
147
330
144
100
AcDbEntity
  8
SLD-0
100
AcDbTrace
 10
2.6372281278
 20
16.8905662704
 30
0.0
 11
2.9554261793
 21
17.1239115082
 31
0.0
 12
2.8705733656
 22
17.208764322
 32
0.0
 13
2.8705733656
 23
17.208764322
 33
0.0
  0
SOLID
  5
148
330
144
100
AcDbEntity
  8
SLD-0
100
AcDbTrace
 10
9.9833604775
 20
24.2366986202
 30
0.0
 11
9.665162426
 21
24.0033533824
 31
0.0
 12
9.7500152397
 22
23.9185005686
 32
0.0
 13
9.7500152397
 23
23.9185005686
 33
0.0
  0
LINE
  5
149
330
144
100
AcDbEntity
  8
SLD-0
100
AcDbLine
 10
5.3353927111
 20
20.5604745468
 30
0.0
 11
5.2094392161
 21
20.5604745468
 31
0.0
  0
LINE
  5
14A
330
144
100
AcDbEntity
  8
SLD-0
100
AcDbLine
 10
5.2094392161
 20
20.5604745468
 30
0.0
 11
5.2094392161
 21
19.9042245478
 31
0.0
  0
LINE
  5
14B
330
144
100
AcDbEntity
  8
SLD-0
100
AcDbLine
 10
5.2094392161
 20
19.9042245478
 30
0.0
 11
5.3353927111
 21
19.9042245478
 31
0.0
  0
LINE
  5
14C
330
144
100
AcDbEntity
  8
SLD-0
100
AcDbLine
 10
7.2851958668
 20
20.5604745468
 30
0.0
 11
7.4111493617
 21
20.5604745468
 31
0.0
  0
LINE
  5
14D
330
144
100
AcDbEntity
  8
SLD-0
100
AcDbLine
 10
7.4111493617
 20
20.5604745468
 30
0.0
 11
7.4111493617
 21
19.9042245478
 31
0.0
  0
LINE
  5
14E
330
144
100
AcDbEntity
  8
SLD-0
100
AcDbLine
 10
7.4111493617
 20
19.9042245478
 30
0.0
 11
7.2851958668
 21
19.9042245478
 31
0.0
  0
LINE
  5
14F
330
144
100
AcDbEntity
  8
SLD-0
100
AcDbLine
 10
5.0388130474
 20
14.4889813508
 30
0.0
 11
2.5537115788
 21
16.9740828194
 31
0.0
  0
LINE
  5
150
330
144
100
AcDbEntity
  8
SLD-0
100
AcDbLine
 10
11.3348918271
 20
22.8851672706
 30
0.0
 11
9.8998439286
 21
24.3202151691
 31
0.0
  0
LINE
  5
151
330
144
100
AcDbEntity
  8
SLD-0
100
AcDbLine
 10
2.6372281278
 20
16.8905662704
 30
0.0
 11
5.5669175002
 21
19.8202556428
 31
0.0
  0
LINE
  5
152
330
144
100
AcDbEntity
  8
SLD-0
100
AcDbLine
 10
9.9833604775
 20
24.2366986202
 30
0.0
 11
7.0536711051
 21
21.3070092477
 31
0.0
  0
MTEXT
  5
153
330
144
100
AcDbEntity
  8
SLD-0
100
AcDbMText
 10
5.0857823042
 20
21.1836415615
 30
0.0
 40
0.4133858268
 41
0.0
 71
     1
 72
     1
  1

  7
SLDTEXTSTYLE0
 73
     1
 44
1.0
  0
MTEXT
  5
154
330
144
100
AcDbEntity
  8
SLD-0
100
AcDbMText
 10
5.4172086109
 20
21.1773258951
 30
0.0
 40
0.4133858268
 41
0.0
 71
     1
 72
     1
  1
10 3/8"
  7
SLDTEXTSTYLE0
 73
     1
 44
1.0
  0
MTEXT
  5
155
330
144
100
AcDbEntity
  8
SLD-0
100
AcDbMText
 10
5.3353927111
 20
20.4371068606
 30
0.0
 40
0.4133858268
 41
0.0
 71
     1
 72
     1
  1
264mm
  7
SLDTEXTSTYLE0
 73
     1
 44
1.0
  0
MTEXT
  5
156
330
144
100
AcDbEntity
  8
SLD-0
100
AcDbMText
 10
7.6921225555
 20
21.1836415615
 30
0.0
 40
0.4133858268
 41
0.0
 71
     1
 72
     1
  1

  7
SLDTEXTSTYLE0
 73
     1
 44
1.0
  0
ENDBLK
  5
146
330
144
100
AcDbEntity
  8
0
100
AcDbBlockEnd
  0
BLOCK
  5
159
330
158
100
AcDbEntity
  8
0
100
AcDbBlockBegin
  2
_D_1
 70
     0
 10
0.0
 20
0.0
 30
0.0
  3
_D_1
  1

  0
SOLID
  5
15B
330
158
100
AcDbEntity
  8
0
  6
Continuous
 62
     7
370
    18
100
AcDbTrace
 10
7.3606476815
 20
12.1671467167
 30
0.0
 11
7.678845733
 21
12.4004919545
 31
0.0
 12
7.5939929193
 22
12.4853447683
 32
0.0
 13
7.5939929193
 23
12.4853447683
 33
0.0
  0
SOLID
  5
15C
330
158
100
AcDbEntity
  8
0
  6
Continuous
 62
     7
370
    18
100
AcDbTrace
 10
10.9845699351
 20
15.7910689703
 30
0.0
 11
10.6663718835
 21
15.5577237325
 31
0.0
 12
10.7512246973
 22
15.4728709188
 32
0.0
 13
10.7512246973
 23
15.4728709188
 33
0.0
  0
LINE
  5
15D
330
158
100
AcDbEntity
  8
0
  6
Continuous
 62
     7
370
     0
100
AcDbLine
 10
8.1977072167
 20
13.975949945
 30
0.0
 11
8.0717537217
 21
13.975949945
 31
0.0
  0
LINE
  5
15E
330
158
100
AcDbEntity
  8
0
  6
Continuous
 62
     7
370
     0
100
AcDbLine
 10
8.0717537217
 20
13.975949945
 30
0.0
 11
8.0717537217
 21
13.3196999461
 31
0.0
  0
LINE
  5
15F
330
158
100
AcDbEntity
  8
0
  6
Continuous
 62
     7
370
     0
100
AcDbLine
 10
8.0717537217
 20
13.3196999461
 30
0.0
 11
8.1977072167
 21
13.3196999461
 31
0.0
  0
LINE
  5
160
330
158
100
AcDbEntity
  8
0
  6
Continuous
 62
     7
370
     0
100
AcDbLine
 10
10.1475103724
 20
13.975949945
 30
0.0
 11
10.2734638673
 21
13.975949945
 31
0.0
  0
LINE
  5
161
330
158
100
AcDbEntity
  8
0
  6
Continuous
 62
     7
370
     0
100
AcDbLine
 10
10.2734638673
 20
13.975949945
 30
0.0
 11
10.2734638673
 21
13.3196999461
 31
0.0
  0
LINE
  5
162
330
158
100
AcDbEntity
  8
0
  6
Continuous
 62
     7
370
     0
100
AcDbLine
 10
10.2734638673
 20
13.3196999461
 30
0.0
 11
10.1475103724
 21
13.3196999461
 31
0.0
  0
LINE
  5
163
330
158
100
AcDbEntity
  8
0
  6
Continuous
 62
     7
370
     0
100
AcDbLine
 10
5.2058461453
 20
14.3219482529
 30
0.0
 11
7.4441642304
 21
12.0836301678
 31
0.0
  0
LINE
  5
164
330
158
100
AcDbEntity
  8
0
  6
Continuous
 62
     7
370
     0
100
AcDbLine
 10
9.879821969
 20
16.8958169364
 30
0.0
 11
11.068086484
 21
15.7075524214
 31
0.0
  0
LINE
  5
165
330
158
100
AcDbEntity
  8
0
  6
Continuous
 62
     7
370
     0
100
AcDbLine
 10
7.3606476815
 20
12.1671467167
 30
0.0
 11
8.4292320058
 21
13.2357310411
 31
0.0
  0
LINE
  5
166
330
158
100
AcDbEntity
  8
0
  6
Continuous
 62
     7
370
     0
100
AcDbLine
 10
10.9845699351
 20
15.7910689703
 30
0.0
 11
9.9159856107
 21
14.722484646
 31
0.0
  0
MTEXT
  5
167
330
158
100
AcDbEntity
  8
0
  6
Continuous
 62
     7
370
    18
100
AcDbMText
 10
7.9480968098
 20
14.5991169598
 30
0.0
 40
0.4133858268
 41
0.0
 71
     1
 72
     1
  1

  7
SLDTEXTSTYLE0
 73
     1
 44
1.0
  0
MTEXT
  5
168
330
158
100
AcDbEntity
  8
0
  6
Continuous
 62
     7
370
    18
100
AcDbMText
 10
8.4322462322
 20
14.5928012934
 30
0.0
 40
0.4133858268
 41
0.0
 71
     1
 72
     1
  1
5 1/8"
  7
SLDTEXTSTYLE0
 73
     1
 44
1.0
  0
MTEXT
  5
169
330
158
100
AcDbEntity
  8
0
  6
Continuous
 62
     7
370
    18
100
AcDbMText
 10
8.1977072167
 20
13.8525822588
 30
0.0
 40
0.4133858268
 41
0.0
 71
     1
 72
     1
  1
130mm
  7
SLDTEXTSTYLE0
 73
     1
 44
1.0
  0
MTEXT
  5
16A
330
158
100
AcDbEntity
  8
0
  6
Continuous
 62
     7
370
    18
100
AcDbMText
 10
10.5544370611
 20
14.5991169598
 30
0.0
 40
0.4133858268
 41
0.0
 71
     1
 72
     1
  1

  7
SLDTEXTSTYLE0
 73
     1
 44
1.0
  0
ENDBLK
  5
15A
330
158
100
AcDbEntity
  8
0
100
AcDbBlockEnd
  0
BLOCK
  5
16E
330
16D
100
AcDbEntity
  8
0
100
AcDbBlockBegin
  2
_D_2
 70
     0
 10
0.0
 20
0.0
 30
0.0
  3
_D_2
  1

  0
SOLID
  5
170
330
16D
100
AcDbEntity
  8
0
  6
Continuous
 62
     7
370
    18
100
AcDbTrace
 10
2.7857416922
 20
14.4054648019
 30
0.0
 11
2.8457416922
 21
14.7954648019
 31
0.0
 12
2.7257416922
 22
14.7954648019
 32
0.0
 13
2.7257416922
 23
14.7954648019
 33
0.0
  0
SOLID
  5
171
330
16D
100
AcDbEntity
  8
0
  6
Continuous
 62
     7
370
    18
100
AcDbTrace
 10
2.7857416922
 20
11.7174648019
 30
0.0
 11
2.7257416922
 21
11.3274648019
 31
0.0
 12
2.8457416922
 22
11.3274648019
 32
0.0
 13
2.8457416922
 23
11.3274648019
 33
0.0
  0
LINE
  5
172
330
16D
100
AcDbEntity
  8
0
  6
Continuous
 62
     7
370
     0
100
AcDbLine
 10
1.9635632163
 20
13.0583069033
 30
0.0
 11
1.8376097213
 21
13.0583069033
 31
0.0
  0
LINE
  5
173
330
16D
100
AcDbEntity
  8
0
  6
Continuous
 62
     7
370
     0
100
AcDbLine
 10
1.8376097213
 20
13.0583069033
 30
0.0
 11
1.8376097213
 21
12.4020569044
 31
0.0
  0
LINE
  5
174
330
16D
100
AcDbEntity
  8
0
  6
Continuous
 62
     7
370
     0
100
AcDbLine
 10
1.8376097213
 20
12.4020569044
 30
0.0
 11
1.9635632163
 21
12.4020569044
 31
0.0
  0
LINE
  5
175
330
16D
100
AcDbEntity
  8
0
  6
Continuous
 62
     7
370
     0
100
AcDbLine
 10
3.6079201406
 20
13.0583069033
 30
0.0
 11
3.7338736355
 21
13.0583069033
 31
0.0
  0
LINE
  5
176
330
16D
100
AcDbEntity
  8
0
  6
Continuous
 62
     7
370
     0
100
AcDbLine
 10
3.7338736355
 20
13.0583069033
 30
0.0
 11
3.7338736355
 21
12.4020569044
 31
0.0
  0
LINE
  5
177
330
16D
100
AcDbEntity
  8
0
  6
Continuous
 62
     7
370
     0
100
AcDbLine
 10
3.7338736355
 20
12.4020569044
 30
0.0
 11
3.6079201406
 21
12.4020569044
 31
0.0
  0
LINE
  5
178
330
16D
100
AcDbEntity
  8
0
  6
Continuous
 62
     7
370
     0
100
AcDbLine
 10
4.2592193601
 20
14.4054648019
 30
0.0
 11
2.667631456
 21
14.4054648019
 31
0.0
  0
LINE
  5
179
330
16D
100
AcDbEntity
  8
0
  6
Continuous
 62
     7
370
     0
100
AcDbLine
 10
4.2592193601
 20
11.7174648019
 30
0.0
 11
2.667631456
 21
11.7174648019
 31
0.0
  0
LINE
  5
17A
330
16D
100
AcDbEntity
  8
0
  6
Continuous
 62
     7
370
     0
100
AcDbLine
 10
2.7857416922
 20
14.4054648019
 30
0.0
 11
2.7857416922
 21
15.1554648019
 31
0.0
  0
LINE
  5
17B
330
16D
100
AcDbEntity
  8
0
  6
Continuous
 62
     7
370
     0
100
AcDbLine
 10
2.7857416922
 20
11.7174648019
 30
0.0
 11
2.7857416922
 21
10.9674648019
 31
0.0
  0
MTEXT
  5
17C
330
16D
100
AcDbEntity
  8
0
  6
Continuous
 62
     7
370
    18
100
AcDbMText
 10
1.7139528094
 20
13.6814739181
 30
0.0
 40
0.4133858268
 41
0.0
 71
     1
 72
     1
  1

  7
SLDTEXTSTYLE0
 73
     1
 44
1.0
  0
MTEXT
  5
17D
330
16D
100
AcDbEntity
  8
0
  6
Continuous
 62
     7
370
    18
100
AcDbMText
 10
1.7399329397
 20
13.6751582517
 30
0.0
 40
0.4133858268
 41
0.0
 71
     1
 72
     1
  1
2 11/16"
  7
SLDTEXTSTYLE0
 73
     1
 44
1.0
  0
MTEXT
  5
17E
330
16D
100
AcDbEntity
  8
0
  6
Continuous
 62
     7
370
    18
100
AcDbMText
 10
1.9635632163
 20
12.9349392171
 30
0.0
 40
0.4133858268
 41
0.0
 71
     1
 72
     1
  1
68mm
  7
SLDTEXTSTYLE0
 73
     1
 44
1.0
  0
MTEXT
  5
17F
330
16D
100
AcDbEntity
  8
0
  6
Continuous
 62
     7
370
    18
100
AcDbMText
 10
4.0148468293
 20
13.6814739181
 30
0.0
 40
0.4133858268
 41
0.0
 71
     1
 72
     1
  1

  7
SLDTEXTSTYLE0
 73
     1
 44
1.0
  0
ENDBLK
  5
16F
330
16D
100
AcDbEntity
  8
0
100
AcDbBlockEnd
  0
BLOCK
  5
183
330
182
100
AcDbEntity
  8
0
100
AcDbBlockBegin
  2
_D_3
 70
     0
 10
0.0
 20
0.0
 30
0.0
  3
_D_3
  1

  0
SOLID
  5
185
330
182
100
AcDbEntity
  8
SLD-0
100
AcDbTrace
 10
12.3862660688
 20
23.7695084144
 30
0.0
 11
12.152920831
 21
24.0877064659
 31
0.0
 12
12.0680680172
 22
24.0028536522
 32
0.0
 13
12.0680680172
 23
24.0028536522
 33
0.0
  0
SOLID
  5
186
330
182
100
AcDbEntity
  8
SLD-0
100
AcDbTrace
 10
14.4863732089
 20
21.6694012743
 30
0.0
 11
14.7197184467
 21
21.3512032227
 31
0.0
 12
14.8045712604
 22
21.4360560365
 32
0.0
 13
14.8045712604
 23
21.4360560365
 33
0.0
  0
LINE
  5
187
330
182
100
AcDbEntity
  8
SLD-0
100
AcDbLine
 10
12.6141411767
 20
22.7194547893
 30
0.0
 11
12.4881876817
 21
22.7194547893
 31
0.0
  0
LINE
  5
188
330
182
100
AcDbEntity
  8
SLD-0
100
AcDbLine
 10
12.4881876817
 20
22.7194547893
 30
0.0
 11
12.4881876817
 21
22.0632047904
 31
0.0
  0
LINE
  5
189
330
182
100
AcDbEntity
  8
SLD-0
100
AcDbLine
 10
12.4881876817
 20
22.0632047904
 30
0.0
 11
12.6141411767
 21
22.0632047904
 31
0.0
  0
LINE
  5
18A
330
182
100
AcDbEntity
  8
SLD-0
100
AcDbLine
 10
14.258498101
 20
22.7194547893
 30
0.0
 11
14.3844515959
 21
22.7194547893
 31
0.0
  0
LINE
  5
18B
330
182
100
AcDbEntity
  8
SLD-0
100
AcDbLine
 10
14.3844515959
 20
22.7194547893
 30
0.0
 11
14.3844515959
 21
22.0632047904
 31
0.0
  0
LINE
  5
18C
330
182
100
AcDbEntity
  8
SLD-0
100
AcDbLine
 10
14.3844515959
 20
22.0632047904
 30
0.0
 11
14.258498101
 21
22.0632047904
 31
0.0
  0
LINE
  5
18D
330
182
100
AcDbEntity
  8
SLD-0
100
AcDbLine
 10
11.501924925
 20
22.8851672706
 30
0.0
 11
12.4697826177
 21
23.8530249634
 31
0.0
  0
LINE
  5
18E
330
182
100
AcDbEntity
  8
SLD-0
100
AcDbLine
 10
10.0085154031
 20
17.1915434685
 30
0.0
 11
14.5698897579
 21
21.7529178232
 31
0.0
  0
LINE
  5
18F
330
182
100
AcDbEntity
  8
SLD-0
100
AcDbLine
 10
12.3862660688
 20
23.7695084144
 30
0.0
 11
11.8559359829
 21
24.2998385003
 31
0.0
  0
LINE
  5
190
330
182
100
AcDbEntity
  8
SLD-0
100
AcDbLine
 10
14.4863732089
 20
21.6694012743
 30
0.0
 11
15.0167032948
 21
21.1390711884
 31
0.0
  0
MTEXT
  5
191
330
182
100
AcDbEntity
  8
SLD-0
100
AcDbMText
 10
12.8866169391
 20
23.3363061377
 30
0.0
 40
0.4133858268
 41
0.0
 71
     1
 72
     1
  1
%%c
  7
SLDTEXTSTYLE0
 73
     1
 44
1.0
  0
MTEXT
  5
192
330
182
100
AcDbEntity
  8
SLD-0
100
AcDbMText
 10
13.5100544271
 20
23.3363061377
 30
0.0
 40
0.4133858268
 41
0.0
 71
     1
 72
     1
  1
3"
  7
SLDTEXTSTYLE0
 73
     1
 44
1.0
  0
MTEXT
  5
193
330
182
100
AcDbEntity
  8
SLD-0
100
AcDbMText
 10
12.6141411767
 20
22.5960871031
 30
0.0
 40
0.4133858268
 41
0.0
 71
     1
 72
     1
  1
75mm
  7
SLDTEXTSTYLE0
 73
     1
 44
1.0
  0
ENDBLK
  5
184
330
182
100
AcDbEntity
  8
0
100
AcDbBlockEnd
  0
BLOCK
  5
296
330
295
100
AcDbEntity
  8
0
100
AcDbBlockBegin
  2
_D_4
 70
     0
 10
0.0
 20
0.0
 30
0.0
  3
_D_4
  1

  0
SOLID
  5
298
330
295
100
AcDbEntity
  8
0
  6
Continuous
 62
     7
370
    18
100
AcDbTrace
 10
5.5859626235
 20
8.2808239658
 30
0.0
 11
5.5259626235
 21
7.8908239658
 31
0.0
 12
5.6459626235
 22
7.8908239658
 32
0.0
 13
5.6459626235
 23
7.8908239658
 33
0.0
  0
SOLID
  5
299
330
295
100
AcDbEntity
  8
0
  6
Continuous
 62
     7
370
    18
100
AcDbTrace
 10
5.5859626235
 20
3.0168239658
 30
0.0
 11
5.6459626235
 21
3.4068239658
 31
0.0
 12
5.5259626235
 22
3.4068239658
 32
0.0
 13
5.5259626235
 23
3.4068239658
 33
0.0
  0
LINE
  5
29A
330
295
100
AcDbEntity
  8
0
  6
Continuous
 62
     7
370
     0
100
AcDbLine
 10
4.6110610319
 20
5.6456660673
 30
0.0
 11
4.4851075369
 21
5.6456660673
 31
0.0
  0
LINE
  5
29B
330
295
100
AcDbEntity
  8
0
  6
Continuous
 62
     7
370
     0
100
AcDbLine
 10
4.4851075369
 20
5.6456660673
 30
0.0
 11
4.4851075369
 21
4.9894160684
 31
0.0
  0
LINE
  5
29C
330
295
100
AcDbEntity
  8
0
  6
Continuous
 62
     7
370
     0
100
AcDbLine
 10
4.4851075369
 20
4.9894160684
 30
0.0
 11
4.6110610319
 21
4.9894160684
 31
0.0
  0
LINE
  5
29D
330
295
100
AcDbEntity
  8
0
  6
Continuous
 62
     7
370
     0
100
AcDbLine
 10
6.5608641876
 20
5.6456660673
 30
0.0
 11
6.6868176826
 21
5.6456660673
 31
0.0
  0
LINE
  5
29E
330
295
100
AcDbEntity
  8
0
  6
Continuous
 62
     7
370
     0
100
AcDbLine
 10
6.6868176826
 20
5.6456660673
 30
0.0
 11
6.6868176826
 21
4.9894160684
 31
0.0
  0
LINE
  5
29F
330
295
100
AcDbEntity
  8
0
  6
Continuous
 62
     7
370
     0
100
AcDbLine
 10
6.6868176826
 20
4.9894160684
 30
0.0
 11
6.5608641876
 21
4.9894160684
 31
0.0
  0
LINE
  5
2A0
330
295
100
AcDbEntity
  8
0
  6
Continuous
 62
     7
370
     0
100
AcDbLine
 10
8.0662775841
 20
8.2808239658
 30
0.0
 11
5.4678523873
 21
8.2808239658
 31
0.0
  0
LINE
  5
2A1
330
295
100
AcDbEntity
  8
0
  6
Continuous
 62
     7
370
     0
100
AcDbLine
 10
8.0662775841
 20
3.0168239658
 30
0.0
 11
5.4678523873
 21
3.0168239658
 31
0.0
  0
LINE
  5
2A2
330
295
100
AcDbEntity
  8
0
  6
Continuous
 62
     7
370
     0
100
AcDbLine
 10
5.5859626235
 20
8.2808239658
 30
0.0
 11
5.5859626235
 21
6.3922007683
 31
0.0
  0
LINE
  5
2A3
330
295
100
AcDbEntity
  8
0
  6
Continuous
 62
     7
370
     0
100
AcDbLine
 10
5.5859626235
 20
3.0168239658
 30
0.0
 11
5.5859626235
 21
4.9054471634
 31
0.0
  0
MTEXT
  5
2A4
330
295
100
AcDbEntity
  8
0
  6
Continuous
 62
     7
370
    18
100
AcDbMText
 10
4.361450625
 20
6.2688330821
 30
0.0
 40
0.4133858268
 41
0.0
 71
     1
 72
     1
  1

  7
SLDTEXTSTYLE0
 73
     1
 44
1.0
  0
MTEXT
  5
2A5
330
295
100
AcDbEntity
  8
0
  6
Continuous
 62
     7
370
    18
100
AcDbMText
 10
4.8456000475
 20
6.2625174157
 30
0.0
 40
0.4133858268
 41
0.0
 71
     1
 72
     1
  1
5 1/4"
  7
SLDTEXTSTYLE0
 73
     1
 44
1.0
  0
MTEXT
  5
2A6
330
295
100
AcDbEntity
  8
0
  6
Continuous
 62
     7
370
    18
100
AcDbMText
 10
4.6110610319
 20
5.5222983811
 30
0.0
 40
0.4133858268
 41
0.0
 71
     1
 72
     1
  1
134mm
  7
SLDTEXTSTYLE0
 73
     1
 44
1.0
  0
MTEXT
  5
2A7
330
295
100
AcDbEntity
  8
0
  6
Continuous
 62
     7
370
    18
100
AcDbMText
 10
6.9677908764
 20
6.2688330821
 30
0.0
 40
0.4133858268
 41
0.0
 71
     1
 72
     1
  1

  7
SLDTEXTSTYLE0
 73
     1
 44
1.0
  0
ENDBLK
  5
297
330
295
100
AcDbEntity
  8
0
100
AcDbBlockEnd
  0
BLOCK
  5
2BB
330
2BA
100
AcDbEntity
  8
0
100
AcDbBlockBegin
  2
_D_5
 70
     0
 10
0.0
 20
0.0
 30
0.0
  3
_D_5
  1

  0
SOLID
  5
2BD
330
2BA
100
AcDbEntity
  8
0
  6
Continuous
 62
     7
370
    18
100
AcDbTrace
 10
13.9717752417
 20
5.87372646
 30
0.0
 11
13.9117752417
 21
5.48372646
 31
0.0
 12
14.0317752417
 22
5.48372646
 32
0.0
 13
14.0317752417
 23
5.48372646
 33
0.0
  0
SOLID
  5
2BE
330
2BA
100
AcDbEntity
  8
0
  6
Continuous
 62
     7
370
    18
100
AcDbTrace
 10
13.9717752417
 20
3.04972646
 30
0.0
 11
14.0317752417
 21
3.43972646
 31
0.0
 12
13.9117752417
 22
3.43972646
 32
0.0
 13
13.9117752417
 23
3.43972646
 33
0.0
  0
LINE
  5
2BF
330
2BA
100
AcDbEntity
  8
0
  6
Continuous
 62
     7
370
     0
100
AcDbLine
 10
13.1495967658
 20
4.4585685615
 30
0.0
 11
13.0236432709
 21
4.4585685615
 31
0.0
  0
LINE
  5
2C0
330
2BA
100
AcDbEntity
  8
0
  6
Continuous
 62
     7
370
     0
100
AcDbLine
 10
13.0236432709
 20
4.4585685615
 30
0.0
 11
13.0236432709
 21
3.8023185626
 31
0.0
  0
LINE
  5
2C1
330
2BA
100
AcDbEntity
  8
0
  6
Continuous
 62
     7
370
     0
100
AcDbLine
 10
13.0236432709
 20
3.8023185626
 30
0.0
 11
13.1495967658
 21
3.8023185626
 31
0.0
  0
LINE
  5
2C2
330
2BA
100
AcDbEntity
  8
0
  6
Continuous
 62
     7
370
     0
100
AcDbLine
 10
14.7939536901
 20
4.4585685615
 30
0.0
 11
14.9199071851
 21
4.4585685615
 31
0.0
  0
LINE
  5
2C3
330
2BA
100
AcDbEntity
  8
0
  6
Continuous
 62
     7
370
     0
100
AcDbLine
 10
14.9199071851
 20
4.4585685615
 30
0.0
 11
14.9199071851
 21
3.8023185626
 31
0.0
  0
LINE
  5
2C4
330
2BA
100
AcDbEntity
  8
0
  6
Continuous
 62
     7
370
     0
100
AcDbLine
 10
14.9199071851
 20
3.8023185626
 30
0.0
 11
14.7939536901
 21
3.8023185626
 31
0.0
  0
LINE
  5
2C5
330
2BA
100
AcDbEntity
  8
0
  6
Continuous
 62
     7
370
     0
100
AcDbLine
 10
15.773428785
 20
5.87372646
 30
0.0
 11
13.8536650055
 21
5.87372646
 31
0.0
  0
LINE
  5
2C6
330
2BA
100
AcDbEntity
  8
0
  6
Continuous
 62
     7
370
     0
100
AcDbLine
 10
15.743428785
 20
3.04972646
 30
0.0
 11
13.8536650055
 21
3.04972646
 31
0.0
  0
LINE
  5
2C7
330
2BA
100
AcDbEntity
  8
0
  6
Continuous
 62
     7
370
     0
100
AcDbLine
 10
13.9717752417
 20
5.87372646
 30
0.0
 11
13.9717752417
 21
5.2051032625
 31
0.0
  0
LINE
  5
2C8
330
2BA
100
AcDbEntity
  8
0
  6
Continuous
 62
     7
370
     0
100
AcDbLine
 10
13.9717752417
 20
3.04972646
 30
0.0
 11
13.9717752417
 21
3.7183496576
 31
0.0
  0
MTEXT
  5
2C9
330
2BA
100
AcDbEntity
  8
0
  6
Continuous
 62
     7
370
    18
100
AcDbMText
 10
12.8999863589
 20
5.0817355763
 30
0.0
 40
0.4133858268
 41
0.0
 71
     1
 72
     1
  1

  7
SLDTEXTSTYLE0
 73
     1
 44
1.0
  0
MTEXT
  5
2CA
330
2BA
100
AcDbEntity
  8
0
  6
Continuous
 62
     7
370
    18
100
AcDbMText
 10
12.9259664892
 20
5.0754199099
 30
0.0
 40
0.4133858268
 41
0.0
 71
     1
 72
     1
  1
2 13/16"
  7
SLDTEXTSTYLE0
 73
     1
 44
1.0
  0
MTEXT
  5
2CB
330
2BA
100
AcDbEntity
  8
0
  6
Continuous
 62
     7
370
    18
100
AcDbMText
 10
13.1495967658
 20
4.3352008753
 30
0.0
 40
0.4133858268
 41
0.0
 71
     1
 72
     1
  1
72mm
  7
SLDTEXTSTYLE0
 73
     1
 44
1.0
  0
MTEXT
  5
2CC
330
2BA
100
AcDbEntity
  8
0
  6
Continuous
 62
     7
370
    18
100
AcDbMText
 10
15.2008803788
 20
5.0817355763
 30
0.0
 40
0.4133858268
 41
0.0
 71
     1
 72
     1
  1

  7
SLDTEXTSTYLE0
 73
     1
 44
1.0
  0
ENDBLK
  5
2BC
330
2BA
100
AcDbEntity
  8
0
100
AcDbBlockEnd
  0
BLOCK
  5
2DE
330
2DD
100
AcDbEntity
  8
0
100
AcDbBlockBegin
  2
_D_6
 70
     0
 10
0.0
 20
0.0
 30
0.0
  3
_D_6
  1

  0
SOLID
  5
2E0
330
2DD
100
AcDbEntity
  8
0
  6
Continuous
 62
     7
370
    18
100
AcDbTrace
 10
21.5376993276
 20
4.87372646
 30
0.0
 11
21.5976993276
 21
5.26372646
 31
0.0
 12
21.4776993276
 22
5.26372646
 32
0.0
 13
21.4776993276
 23
5.26372646
 33
0.0
  0
SOLID
  5
2E1
330
2DD
100
AcDbEntity
  8
0
  6
Continuous
 62
     7
370
    18
100
AcDbTrace
 10
21.5376993276
 20
3.04972646
 30
0.0
 11
21.4776993276
 21
2.65972646
 31
0.0
 12
21.5976993276
 22
2.65972646
 32
0.0
 13
21.5976993276
 23
2.65972646
 33
0.0
  0
LINE
  5
2E2
330
2DD
100
AcDbEntity
  8
0
  6
Continuous
 62
     7
370
     0
100
AcDbLine
 10
20.7155208517
 20
3.9585685615
 30
0.0
 11
20.5895673567
 21
3.9585685615
 31
0.0
  0
LINE
  5
2E3
330
2DD
100
AcDbEntity
  8
0
  6
Continuous
 62
     7
370
     0
100
AcDbLine
 10
20.5895673567
 20
3.9585685615
 30
0.0
 11
20.5895673567
 21
3.3023185626
 31
0.0
  0
LINE
  5
2E4
330
2DD
100
AcDbEntity
  8
0
  6
Continuous
 62
     7
370
     0
100
AcDbLine
 10
20.5895673567
 20
3.3023185626
 30
0.0
 11
20.7155208517
 21
3.3023185626
 31
0.0
  0
LINE
  5
2E5
330
2DD
100
AcDbEntity
  8
0
  6
Continuous
 62
     7
370
     0
100
AcDbLine
 10
22.3598777759
 20
3.9585685615
 30
0.0
 11
22.4858312709
 21
3.9585685615
 31
0.0
  0
LINE
  5
2E6
330
2DD
100
AcDbEntity
  8
0
  6
Continuous
 62
     7
370
     0
100
AcDbLine
 10
22.4858312709
 20
3.9585685615
 30
0.0
 11
22.4858312709
 21
3.3023185626
 31
0.0
  0
LINE
  5
2E7
330
2DD
100
AcDbEntity
  8
0
  6
Continuous
 62
     7
370
     0
100
AcDbLine
 10
22.4858312709
 20
3.3023185626
 30
0.0
 11
22.3598777759
 21
3.3023185626
 31
0.0
  0
LINE
  5
2E8
330
2DD
100
AcDbEntity
  8
0
  6
Continuous
 62
     7
370
     0
100
AcDbLine
 10
23.6288075817
 20
4.87372646
 30
0.0
 11
21.4195890914
 21
4.87372646
 31
0.0
  0
LINE
  5
2E9
330
2DD
100
AcDbEntity
  8
0
  6
Continuous
 62
     7
370
     0
100
AcDbLine
 10
23.5988075817
 20
3.04972646
 30
0.0
 11
21.4195890914
 21
3.04972646
 31
0.0
  0
LINE
  5
2EA
330
2DD
100
AcDbEntity
  8
0
  6
Continuous
 62
     7
370
     0
100
AcDbLine
 10
21.5376993276
 20
4.87372646
 30
0.0
 11
21.5376993276
 21
5.62372646
 31
0.0
  0
LINE
  5
2EB
330
2DD
100
AcDbEntity
  8
0
  6
Continuous
 62
     7
370
     0
100
AcDbLine
 10
21.5376993276
 20
3.04972646
 30
0.0
 11
21.5376993276
 21
2.29972646
 31
0.0
  0
MTEXT
  5
2EC
330
2DD
100
AcDbEntity
  8
0
  6
Continuous
 62
     7
370
    18
100
AcDbMText
 10
20.4659104448
 20
4.5817355763
 30
0.0
 40
0.4133858268
 41
0.0
 71
     1
 72
     1
  1

  7
SLDTEXTSTYLE0
 73
     1
 44
1.0
  0
MTEXT
  5
2ED
330
2DD
100
AcDbEntity
  8
0
  6
Continuous
 62
     7
370
    18
100
AcDbMText
 10
20.4918905751
 20
4.5754199099
 30
0.0
 40
0.4133858268
 41
0.0
 71
     1
 72
     1
  1
1 13/16"
  7
SLDTEXTSTYLE0
 73
     1
 44
1.0
  0
MTEXT
  5
2EE
330
2DD
100
AcDbEntity
  8
0
  6
Continuous
 62
     7
370
    18
100
AcDbMText
 10
20.7155208517
 20
3.8352008753
 30
0.0
 40
0.4133858268
 41
0.0
 71
     1
 72
     1
  1
46mm
  7
SLDTEXTSTYLE0
 73
     1
 44
1.0
  0
MTEXT
  5
2EF
330
2DD
100
AcDbEntity
  8
0
  6
Continuous
 62
     7
370
    18
100
AcDbMText
 10
22.7668044647
 20
4.5817355763
 30
0.0
 40
0.4133858268
 41
0.0
 71
     1
 72
     1
  1

  7
SLDTEXTSTYLE0
 73
     1
 44
1.0
  0
ENDBLK
  5
2DF
330
2DD
100
AcDbEntity
  8
0
100
AcDbBlockEnd
  0
ENDSEC
  0
SECTION
  2
ENTITIES
  0
LINE
  5
6D
330
1F
100
AcDbEntity
  8
0
  6
Continuous
 62
     7
370
    25
100
AcDbLine
 10
11.1821621308
 20
18.3651901962
 30
0.0
 11
11.418408376
 21
18.6014364414
 31
0.0
  0
LINE
  5
6E
330
1F
100
AcDbEntity
  8
0
  6
Continuous
 62
     7
370
    25
100
AcDbLine
 10
10.0210927961
 20
17.2041208614
 30
0.0
 11
11.0866834156
 21
18.269711481
 31
0.0
  0
LINE
  5
6F
330
1F
100
AcDbEntity
  8
0
  6
Continuous
 62
     7
370
    25
100
AcDbLine
 10
9.79630542
 20
16.9793334854
 30
0.0
 11
9.9256140809
 21
17.1086421463
 31
0.0
  0
LINE
  5
70
330
1F
100
AcDbEntity
  8
0
  6
Continuous
 62
     7
370
    25
100
AcDbLine
 10
11.418408376
 20
22.8016507217
 30
0.0
 11
7.6961982799
 21
19.0794406255
 31
0.0
  0
LWPOLYLINE
  5
71
330
1F
100
AcDbEntity
  8
0
  6
Continuous
 62
     7
370
    25
100
AcDbPolyline
 90
        3
 70
   128
 43
0.0
 10
4.6701402998
 20
11.7174648019
 10
4.662080859
 20
11.7114488292
 10
4.6559708852
 20
11.7032149321
  0
ARC
  5
72
330
1F
100
AcDbEntity
  8
0
  6
Continuous
 62
     7
370
    25
100
AcDbCircle
 10
5.5578295964
 20
11.6867000919
 30
0.0
 40
0.035
100
AcDbArc
 50
3.7479666991
 51
61.520972675
  0
LINE
  5
73
330
1F
100
AcDbEntity
  8
0
  6
Continuous
 62
     7
370
    25
100
AcDbLine
 10
4.7313786836
 20
11.552987962
 30
0.0
 11
4.7363295964
 21
11.5442000919
 31
0.0
  0
LINE
  5
74
330
1F
100
AcDbEntity
  8
0
  6
Continuous
 62
     7
370
    25
100
AcDbLine
 10
5.5083295964
 20
11.5442000919
 30
0.0
 11
5.5132805091
 21
11.552987962
 31
0.0
  0
LINE
  5
75
330
1F
100
AcDbEntity
  8
0
  6
Continuous
 62
     7
370
    25
100
AcDbLine
 10
5.5283295964
 20
11.5087000919
 30
0.0
 11
5.5083295964
 21
11.5442000919
 31
0.0
  0
LINE
  5
76
330
1F
100
AcDbEntity
  8
0
  6
Continuous
 62
     7
370
    25
100
AcDbLine
 10
4.7363295964
 20
11.5442000919
 30
0.0
 11
4.7163295964
 21
11.5087000919
 31
0.0
  0
LINE
  5
77
330
1F
100
AcDbEntity
  8
0
  6
Continuous
 62
     7
370
    25
100
AcDbLine
 10
4.7163295964
 20
11.5087000919
 30
0.0
 11
4.7363295964
 21
11.4732000919
 31
0.0
  0
LINE
  5
78
330
1F
100
AcDbEntity
  8
0
  6
Continuous
 62
     7
370
    25
100
AcDbLine
 10
5.5083295964
 20
11.4732000919
 30
0.0
 11
5.5283295964
 21
11.5087000919
 31
0.0
  0
LINE
  5
79
330
1F
100
AcDbEntity
  8
0
  6
Continuous
 62
     7
370
    25
100
AcDbLine
 10
4.7163295964
 20
11.4377000919
 30
0.0
 11
4.7363295964
 21
11.4022000919
 31
0.0
  0
LINE
  5
7A
330
1F
100
AcDbEntity
  8
0
  6
Continuous
 62
     7
370
    25
100
AcDbLine
 10
5.5083295964
 20
11.4022000919
 30
0.0
 11
5.5283295964
 21
11.4377000919
 31
0.0
  0
LINE
  5
7B
330
1F
100
AcDbEntity
  8
0
  6
Continuous
 62
     7
370
    25
100
AcDbLine
 10
5.5283295964
 20
11.4377000919
 30
0.0
 11
5.5083295964
 21
11.4732000919
 31
0.0
  0
LINE
  5
7C
330
1F
100
AcDbEntity
  8
0
  6
Continuous
 62
     7
370
    25
100
AcDbLine
 10
4.7363295964
 20
11.4732000919
 30
0.0
 11
4.7163295964
 21
11.4377000919
 31
0.0
  0
LINE
  5
7D
330
1F
100
AcDbEntity
  8
0
  6
Continuous
 62
     7
370
    25
100
AcDbLine
 10
4.7163295964
 20
11.3667000919
 30
0.0
 11
4.7363295964
 21
11.3312000919
 31
0.0
  0
LINE
  5
7E
330
1F
100
AcDbEntity
  8
0
  6
Continuous
 62
     7
370
    25
100
AcDbLine
 10
5.5083295964
 20
11.3312000919
 30
0.0
 11
5.5283295964
 21
11.3667000919
 31
0.0
  0
LINE
  5
7F
330
1F
100
AcDbEntity
  8
0
  6
Continuous
 62
     7
370
    25
100
AcDbLine
 10
5.5283295964
 20
11.3667000919
 30
0.0
 11
5.5083295964
 21
11.4022000919
 31
0.0
  0
LINE
  5
80
330
1F
100
AcDbEntity
  8
0
  6
Continuous
 62
     7
370
    25
100
AcDbLine
 10
4.7363295964
 20
11.4022000919
 30
0.0
 11
4.7163295964
 21
11.3667000919
 31
0.0
  0
LINE
  5
81
330
1F
100
AcDbEntity
  8
0
  6
Continuous
 62
     7
370
    25
100
AcDbLine
 10
4.7163295964
 20
11.2957000919
 30
0.0
 11
4.7363295964
 21
11.2602000919
 31
0.0
  0
LINE
  5
82
330
1F
100
AcDbEntity
  8
0
  6
Continuous
 62
     7
370
    25
100
AcDbLine
 10
5.5083295964
 20
11.2602000919
 30
0.0
 11
5.5283295964
 21
11.2957000919
 31
0.0
  0
LINE
  5
83
330
1F
100
AcDbEntity
  8
0
  6
Continuous
 62
     7
370
    25
100
AcDbLine
 10
5.5283295964
 20
11.2957000919
 30
0.0
 11
5.5083295964
 21
11.3312000919
 31
0.0
  0
LINE
  5
84
330
1F
100
AcDbEntity
  8
0
  6
Continuous
 62
     7
370
    25
100
AcDbLine
 10
4.7363295964
 20
11.3312000919
 30
0.0
 11
4.7163295964
 21
11.2957000919
 31
0.0
  0
LINE
  5
85
330
1F
100
AcDbEntity
  8
0
  6
Continuous
 62
     7
370
    25
100
AcDbLine
 10
4.7163295964
 20
11.2247000919
 30
0.0
 11
4.7363295964
 21
11.1892000919
 31
0.0
  0
LINE
  5
86
330
1F
100
AcDbEntity
  8
0
  6
Continuous
 62
     7
370
    25
100
AcDbLine
 10
5.5083295964
 20
11.1892000919
 30
0.0
 11
5.5283295964
 21
11.2247000919
 31
0.0
  0
LINE
  5
87
330
1F
100
AcDbEntity
  8
0
  6
Continuous
 62
     7
370
    25
100
AcDbLine
 10
5.5283295964
 20
11.2247000919
 30
0.0
 11
5.5083295964
 21
11.2602000919
 31
0.0
  0
LINE
  5
88
330
1F
100
AcDbEntity
  8
0
  6
Continuous
 62
     7
370
    25
100
AcDbLine
 10
4.7363295964
 20
11.2602000919
 30
0.0
 11
4.7163295964
 21
11.2247000919
 31
0.0
  0
LINE
  5
89
330
1F
100
AcDbEntity
  8
0
  6
Continuous
 62
     7
370
    25
100
AcDbLine
 10
5.5283295964
 20
11.1537000919
 30
0.0
 11
5.5083295964
 21
11.1892000919
 31
0.0
  0
LINE
  5
8A
330
1F
100
AcDbEntity
  8
0
  6
Continuous
 62
     7
370
    25
100
AcDbLine
 10
4.7363295964
 20
11.1892000919
 30
0.0
 11
4.7163295964
 21
11.1537000919
 31
0.0
  0
LINE
  5
8B
330
1F
100
AcDbEntity
  8
0
  6
Continuous
 62
     7
370
    25
100
AcDbLine
 10
4.7163295964
 20
11.1537000919
 30
0.0
 11
4.7363295964
 21
11.1182000919
 31
0.0
  0
LINE
  5
8C
330
1F
100
AcDbEntity
  8
0
  6
Continuous
 62
     7
370
    25
100
AcDbLine
 10
5.5083295964
 20
11.1182000919
 30
0.0
 11
5.5283295964
 21
11.1537000919
 31
0.0
  0
LINE
  5
8D
330
1F
100
AcDbEntity
  8
0
  6
Continuous
 62
     7
370
    25
100
AcDbLine
 10
5.5204422724
 20
11.0967000919
 30
0.0
 11
5.5083295964
 21
11.1182000919
 31
0.0
  0
LINE
  5
8E
330
1F
100
AcDbEntity
  8
0
  6
Continuous
 62
     7
370
    25
100
AcDbLine
 10
4.7363295964
 20
11.1182000919
 30
0.0
 11
4.7242169203
 21
11.0967000919
 31
0.0
  0
ARC
  5
8F
330
1F
100
AcDbEntity
  8
0
  6
Continuous
 62
     7
370
    25
100
AcDbCircle
 10
5.5617108622
 20
11.8515602144
 30
0.0
 40
0.2999999999999999
100
AcDbArc
 50
275.5921022903
 51
277.9142345778
  0
ARC
  5
90
330
1F
100
AcDbEntity
  8
0
  6
Continuous
 62
     7
370
    25
100
AcDbCircle
 10
5.6023295964
 20
11.5593700051
 30
0.0
 40
0.0050000000000014
100
AcDbArc
 50
277.9142345778
 51
0.0
  0
LINE
  5
91
330
1F
100
AcDbEntity
  8
0
  6
Continuous
 62
     7
370
    25
100
AcDbLine
 10
5.6073295964
 20
11.5593700051
 30
0.0
 11
5.6073295964
 21
11.5626873543
 31
0.0
  0
LINE
  5
92
330
1F
100
AcDbEntity
  8
0
  6
Continuous
 62
     7
370
    25
100
AcDbLine
 10
5.8673295964
 20
11.7174648019
 30
0.0
 11
5.8673295964
 21
13.5874648019
 31
0.0
  0
LINE
  5
93
330
1F
100
AcDbEntity
  8
0
  6
Continuous
 62
     7
370
    25
100
AcDbLine
 10
4.3773295964
 20
13.5874648019
 30
0.0
 11
4.3773295964
 21
11.7174648019
 31
0.0
  0
LINE
  5
94
330
1F
100
AcDbEntity
  8
0
  6
Continuous
 62
     7
370
    25
100
AcDbLine
 10
6.7734239304
 20
13.9564519958
 30
0.0
 11
9.7856988183
 21
16.9687268837
 31
0.0
  0
LINE
  5
95
330
1F
100
AcDbEntity
  8
0
  6
Continuous
 62
     7
370
    25
100
AcDbLine
 10
7.6855916782
 20
19.0688340238
 30
0.0
 11
4.6733167903
 21
16.0565591359
 31
0.0
  0
LINE
  5
96
330
1F
100
AcDbEntity
  8
0
  6
Continuous
 62
     7
370
    25
100
AcDbLine
 10
4.6733167903
 20
16.0565591359
 30
0.0
 11
4.6733167903
 21
16.0141327291
 31
0.0
  0
LINE
  5
97
330
1F
100
AcDbEntity
  8
0
  6
Continuous
 62
     7
370
    25
100
AcDbLine
 10
6.7309975236
 20
13.9564519958
 30
0.0
 11
6.7734239304
 21
13.9564519958
 31
0.0
  0
LINE
  5
98
330
1F
100
AcDbEntity
  8
0
  6
Continuous
 62
     7
370
    25
100
AcDbLine
 10
9.7856988183
 20
16.9687268837
 30
0.0
 11
9.7856988183
 21
16.9899400871
 31
0.0
  0
LINE
  5
99
330
1F
100
AcDbEntity
  8
0
  6
Continuous
 62
     7
370
    25
100
AcDbLine
 10
7.7068048816
 20
19.0688340238
 30
0.0
 11
7.6855916782
 21
19.0688340238
 31
0.0
  0
LINE
  5
9A
330
1F
100
AcDbEntity
  8
0
  6
Continuous
 62
     7
370
    25
100
AcDbLine
 10
5.1753626049
 20
15.5120869144
 30
0.0
 11
4.5955350444
 21
14.9322593538
 31
0.0
  0
LINE
  5
9B
330
1F
100
AcDbEntity
  8
0
  6
Continuous
 62
     7
370
    25
100
AcDbLine
 10
5.8673295964
 20
14.0968756979
 30
0.0
 11
6.2289517089
 21
14.4584978104
 31
0.0
  0
LWPOLYLINE
  5
9C
330
1F
100
AcDbEntity
  8
0
  6
Continuous
 62
     7
370
    25
100
AcDbPolyline
 90
       17
 70
   128
 43
0.0
 10
8.3573203684
 20
18.6826689971
 10
8.3769308067
 20
18.6733131691
 10
8.3997491066
 20
18.6727686454
 10
8.4223013889
 20
18.681118325
 10
8.441154273
 20
18.6970910447
 10
8.4534375782
 20
18.7182551028
 10
8.4572812826
 20
18.7413884634
 10
8.4521002172
 20
18.7629692819
 10
8.438683152
 20
18.7797120744
 10
8.4190727137
 20
18.7890679024
 10
8.3962544138
 20
18.7896124261
 10
8.3737021315
 20
18.7812627466
 10
8.3548492474
 20
18.7652900268
 10
8.3425659422
 20
18.7441259687
 10
8.3387222378
 20
18.7209926081
 10
8.3439033032
 20
18.6994117896
 10
8.3573203684
 20
18.6826689971
  0
LINE
  5
9D
330
1F
100
AcDbEntity
  8
0
  6
Continuous
 62
     7
370
    25
100
AcDbLine
 10
8.4389947742
 20
18.7274470478
 30
0.0
 11
8.4268979459
 21
18.765655615
 31
0.0
  0
LINE
  5
9E
330
1F
100
AcDbEntity
  8
0
  6
Continuous
 62
     7
370
    25
100
AcDbLine
 10
8.385904932
 20
18.769399103
 30
0.0
 11
8.4268979459
 21
18.765655615
 31
0.0
  0
LINE
  5
9F
330
1F
100
AcDbEntity
  8
0
  6
Continuous
 62
     7
370
    25
100
AcDbLine
 10
8.3570087462
 20
18.7349340238
 30
0.0
 11
8.385904932
 21
18.769399103
 31
0.0
  0
LINE
  5
A0
330
1F
100
AcDbEntity
  8
0
  6
Continuous
 62
     7
370
    25
100
AcDbLine
 10
8.3570087462
 20
18.7349340238
 30
0.0
 11
8.3691055745
 21
18.6967254565
 31
0.0
  0
LINE
  5
A1
330
1F
100
AcDbEntity
  8
0
  6
Continuous
 62
     7
370
    25
100
AcDbLine
 10
8.4100985884
 20
18.6929819685
 30
0.0
 11
8.3691055745
 21
18.6967254565
 31
0.0
  0
LINE
  5
A2
330
1F
100
AcDbEntity
  8
0
  6
Continuous
 62
     7
370
    25
100
AcDbLine
 10
8.4100985884
 20
18.6929819685
 30
0.0
 11
8.4389947742
 21
18.7274470478
 31
0.0
  0
LINE
  5
A3
330
1F
100
AcDbEntity
  8
0
  6
Continuous
 62
     7
370
    25
100
AcDbLine
 10
8.3888285514
 20
18.7031142186
 30
0.0
 11
8.3570087462
 21
18.7349340238
 31
0.0
  0
LINE
  5
A4
330
1F
100
AcDbEntity
  8
0
  6
Continuous
 62
     7
370
    25
100
AcDbLine
 10
8.3888285514
 20
18.7031142186
 30
0.0
 11
8.3914986605
 21
18.6946805166
 31
0.0
  0
LINE
  5
A5
330
1F
100
AcDbEntity
  8
0
  6
Continuous
 62
     7
370
    25
100
AcDbLine
 10
8.4177247371
 20
18.7375792978
 30
0.0
 11
8.4363246651
 21
18.7358807497
 31
0.0
  0
LINE
  5
A6
330
1F
100
AcDbEntity
  8
0
  6
Continuous
 62
     7
370
    25
100
AcDbLine
 10
8.4177247371
 20
18.7375792978
 30
0.0
 11
8.385904932
 21
18.769399103
 31
0.0
  0
LINE
  5
A7
330
1F
100
AcDbEntity
  8
0
  6
Continuous
 62
     7
370
    25
100
AcDbLine
 10
8.3888285514
 20
18.7031142186
 30
0.0
 11
8.4177247371
 21
18.7375792978
 31
0.0
  0
LINE
  5
A8
330
1F
100
AcDbEntity
  8
0
  6
Continuous
 62
     7
370
    25
100
AcDbLine
 10
10.0179126852
 20
17.2009407506
 30
0.0
 11
9.9282515454
 21
17.1112796107
 31
0.0
  0
LINE
  5
A9
330
1F
100
AcDbEntity
  8
0
  6
Continuous
 62
     7
370
    25
100
AcDbLine
 10
11.418408376
 20
18.6014364414
 30
0.0
 11
11.418408376
 21
22.8016507217
 31
0.0
  0
SPLINE
  5
AA
330
1F
100
AcDbEntity
  8
0
  6
Continuous
 62
     7
370
    25
100
AcDbSpline
210
0.0
220
0.0
230
1.0
 70
     8
 71
     3
 72
    17
 73
    13
 74
     0
 42
0.00000001
 43
0.00000001
 40
0.0
 40
0.0
 40
0.0
 40
0.0
 40
0.0369140410714704
 40
0.1441727578000942
 40
0.2514729941470853
 40
0.358871341917221
 40
0.466271438458919
 40
0.5735739143471642
 40
0.6808318517915293
 40
0.7881677618600145
 40
0.8955825044580591
 40
1.0
 40
1.0
 40
1.0
 40
1.0
 10
11.08665550220541
 20
18.26973939444736
 30
0.0
 10
11.08649469369191
 20
18.26956332224043
 30
0.0
 10
11.08586663438989
 20
18.26887564852854
 30
0.0
 10
11.09012101019868
 20
18.27353761128111
 30
0.0
 10
11.09903665677341
 20
18.28317054091367
 30
0.0
 10
11.11220161450934
 20
18.29708271729929
 30
0.0
 10
11.12781303776114
 20
18.31310353558371
 30
0.0
 10
11.14427648293702
 20
18.32947029998617
 30
0.0
 10
11.15972901642381
 20
18.34435705255769
 30
0.0
 10
11.17220991872559
 20
18.35606390906655
 30
0.0
 10
11.18065600540853
 20
18.36382595038974
 30
0.0
 10
11.18166267861482
 20
18.36474192589753
 30
0.0
 10
11.18215889343062
 20
18.36519343351195
 30
0.0
  0
SPLINE
  5
AB
330
1F
100
AcDbEntity
  8
0
  6
Continuous
 62
     7
370
    25
100
AcDbSpline
210
0.0
220
0.0
230
1.0
 70
    11
 71
     3
 72
    26
 73
    22
 74
     0
 42
0.00000001
 43
0.00000001
 40
0.0
 40
0.0
 40
0.0
 40
0.0
 40
0.0536503689453616
 40
0.1072993747806826
 40
0.1609837494484661
 40
0.2146911935981145
 40
0.2683602334769264
 40
0.3219893978318394
 40
0.3756393219208421
 40
0.4293383015439434
 40
0.483038155549675
 40
0.5366891994052506
 40
0.5903179741194464
 40
0.6439857350046699
 40
0.6976929120120792
 40
0.7513784439456008
 40
0.8050151129999691
 40
0.8586518917400265
 40
0.9123375339936987
 40
0.9660446892035236
 40
1.0
 40
1.0
 40
1.0
 40
1.0
 10
8.440193822792923
 20
18.68899847316693
 30
0.0
 10
8.434317680050997
 20
18.68406718842974
 30
0.0
 10
8.42256554386396
 20
18.67420474424589
 30
0.0
 10
8.400836292466119
 20
18.66716303445486
 30
0.0
 10
8.37913724955005
 20
18.666975385908
 30
0.0
 10
8.359538563806048
 20
18.67404683910327
 30
0.0
 10
8.344423217858578
 20
18.68741569921264
 30
0.0
 10
8.335466867851792
 20
18.70558892326286
 30
0.0
 10
8.333641718105694
 20
18.72655114797623
 30
0.0
 10
8.339096485084387
 20
18.74801652251151
 30
0.0
 10
8.35116476577072
 20
18.76761935768415
 30
0.0
 10
8.368443086085277
 20
18.78317276127679
 30
0.0
 10
8.388986423424313
 20
18.79292383086421
 30
0.0
 10
8.410539552533997
 20
18.7957366158258
 30
0.0
 10
8.43074386542907
 20
18.79122224870251
 30
0.0
 10
8.447365252101015
 20
18.77982978107926
 30
0.0
 10
8.458540674153195
 20
18.76284190383135
 30
0.0
 10
8.463022509286475
 20
18.74216904619222
 30
0.0
 10
8.460169122995872
 20
18.72027932343221
 30
0.0
 10
8.451714812632762
 20
18.70189513879721
 30
0.0
 10
8.443410447870102
 20
18.69259918271143
 30
0.0
 10
8.440193822792923
 20
18.68899847316693
 30
0.0
  0
SPLINE
  5
AC
330
1F
100
AcDbEntity
  8
0
  6
Continuous
 62
     7
370
    25
100
AcDbSpline
210
0.0
220
0.0
230
1.0
 70
     8
 71
     3
 72
    17
 73
    13
 74
     0
 42
0.00000001
 43
0.00000001
 40
0.0
 40
0.0
 40
0.0
 40
0.0
 40
0.0369140410714698
 40
0.1441727578000942
 40
0.2514729941470841
 40
0.3588713419172131
 40
0.4662714384589207
 40
0.5735739143471592
 40
0.6808318517915248
 40
0.788167761860018
 40
0.8955825044580558
 40
1.0
 40
1.0
 40
1.0
 40
1.0
 10
9.925586167497102
 20
17.10867005973905
 30
0.0
 10
9.925425358983594
 20
17.10849398753212
 30
0.0
 10
9.924797299681583
 20
17.10780631382023
 30
0.0
 10
9.929051675490367
 20
17.1124682765728
 30
0.0
 10
9.9379673220651
 20
17.12210120620536
 30
0.0
 10
9.951132279801026
 20
17.13601338259098
 30
0.0
 10
9.966743703052824
 20
17.1520342008754
 30
0.0
 10
9.983207148228704
 20
17.16840096527786
 30
0.0
 10
9.998659681715498
 20
17.18328771784939
 30
0.0
 10
10.01114058401728
 20
17.19499457435824
 30
0.0
 10
10.01958667070021
 20
17.20275661568143
 30
0.0
 10
10.0205933439065
 20
17.20367259118922
 30
0.0
 10
10.0210895587223
 20
17.20412409880365
 30
0.0
  0
LINE
  5
AD
330
1F
100
AcDbEntity
  8
0
  6
Continuous
 62
     7
370
    25
100
AcDbLine
 10
8.7462518499
 20
18.0293870554
 30
0.0
 11
9.79630542
 21
16.9793334854
 31
0.0
  0
LINE
  5
AE
330
1F
100
AcDbEntity
  8
0
  6
Continuous
 62
     7
370
    25
100
AcDbLine
 10
7.6961982799
 20
19.0794406255
 30
0.0
 11
8.7462518499
 21
18.0293870554
 31
0.0
  0
LINE
  5
AF
330
1F
100
AcDbEntity
  8
0
  6
Continuous
 62
     7
370
    25
100
AcDbLine
 10
4.7363295964
 20
11.5442000919
 30
0.0
 11
5.5083295964
 21
11.5442000919
 31
0.0
  0
LINE
  5
B0
330
1F
100
AcDbEntity
  8
0
  6
Continuous
 62
     7
370
    25
100
AcDbLine
 10
4.7163295964
 20
11.5087000919
 30
0.0
 11
5.5283295964
 21
11.5087000919
 31
0.0
  0
LINE
  5
B1
330
1F
100
AcDbEntity
  8
0
  6
Continuous
 62
     7
370
    25
100
AcDbLine
 10
4.7363295964
 20
11.4732000919
 30
0.0
 11
5.5083295964
 21
11.4732000919
 31
0.0
  0
LINE
  5
B2
330
1F
100
AcDbEntity
  8
0
  6
Continuous
 62
     7
370
    25
100
AcDbLine
 10
4.7163295964
 20
11.4377000919
 30
0.0
 11
5.5283295964
 21
11.4377000919
 31
0.0
  0
LINE
  5
B3
330
1F
100
AcDbEntity
  8
0
  6
Continuous
 62
     7
370
    25
100
AcDbLine
 10
4.7363295964
 20
11.4022000919
 30
0.0
 11
5.5083295964
 21
11.4022000919
 31
0.0
  0
LINE
  5
B4
330
1F
100
AcDbEntity
  8
0
  6
Continuous
 62
     7
370
    25
100
AcDbLine
 10
4.7163295964
 20
11.3667000919
 30
0.0
 11
5.5283295964
 21
11.3667000919
 31
0.0
  0
LINE
  5
B5
330
1F
100
AcDbEntity
  8
0
  6
Continuous
 62
     7
370
    25
100
AcDbLine
 10
4.7363295964
 20
11.3312000919
 30
0.0
 11
5.5083295964
 21
11.3312000919
 31
0.0
  0
LINE
  5
B6
330
1F
100
AcDbEntity
  8
0
  6
Continuous
 62
     7
370
    25
100
AcDbLine
 10
4.7163295964
 20
11.2957000919
 30
0.0
 11
5.5283295964
 21
11.2957000919
 31
0.0
  0
LINE
  5
B7
330
1F
100
AcDbEntity
  8
0
  6
Continuous
 62
     7
370
    25
100
AcDbLine
 10
4.7363295964
 20
11.2602000919
 30
0.0
 11
5.5083295964
 21
11.2602000919
 31
0.0
  0
LINE
  5
B8
330
1F
100
AcDbEntity
  8
0
  6
Continuous
 62
     7
370
    25
100
AcDbLine
 10
4.7163295964
 20
11.2247000919
 30
0.0
 11
5.5283295964
 21
11.2247000919
 31
0.0
  0
LINE
  5
B9
330
1F
100
AcDbEntity
  8
0
  6
Continuous
 62
     7
370
    25
100
AcDbLine
 10
4.7363295964
 20
11.1892000919
 30
0.0
 11
5.5083295964
 21
11.1892000919
 31
0.0
  0
LINE
  5
BA
330
1F
100
AcDbEntity
  8
0
  6
Continuous
 62
     7
370
    25
100
AcDbLine
 10
4.7163295964
 20
11.1537000919
 30
0.0
 11
5.5283295964
 21
11.1537000919
 31
0.0
  0
LINE
  5
BB
330
1F
100
AcDbEntity
  8
0
  6
Continuous
 62
     7
370
    25
100
AcDbLine
 10
4.7363295964
 20
11.1182000919
 30
0.0
 11
5.5083295964
 21
11.1182000919
 31
0.0
  0
LINE
  5
BC
330
1F
100
AcDbEntity
  8
0
  6
Continuous
 62
     7
370
    25
100
AcDbLine
 10
4.7242169203
 20
11.0967000919
 30
0.0
 11
5.5204422724
 21
11.0967000919
 31
0.0
  0
LINE
  5
BD
330
1F
100
AcDbEntity
  8
0
  6
Continuous
 62
     7
370
    25
100
AcDbLine
 10
5.5909445769
 20
11.552987962
 30
0.0
 11
4.6537146158
 21
11.552987962
 31
0.0
  0
SPLINE
  5
BE
330
1F
100
AcDbEntity
  8
0
  6
Continuous
 62
     7
370
    25
100
AcDbSpline
210
0.0
220
0.0
230
1.0
 70
     8
 71
     3
 72
    10
 73
     6
 74
     0
 42
0.00000001
 43
0.00000001
 40
0.0
 40
0.0
 40
0.0
 40
0.0
 40
0.4665495905504661
 40
0.7778212346566701
 40
1.0
 40
1.0
 40
1.0
 40
1.0
 10
4.577687863326641
 20
11.57665840240625
 30
0.0
 10
4.588730765600479
 20
11.57195707740211
 30
0.0
 10
4.607141249833666
 20
11.56411913156891
 30
0.0
 10
4.631851393132337
 20
11.55763506059423
 30
0.0
 10
4.645210874840782
 20
11.55536365491567
 30
0.0
 10
4.650775015572574
 20
11.55441762863035
 30
0.0
  0
LINE
  5
BF
330
1F
100
AcDbEntity
  8
0
  6
Continuous
 62
     7
370
    25
100
AcDbLine
 10
4.6820062953
 20
11.5766584024
 30
0.0
 11
4.5776878633
 21
11.5766584024
 31
0.0
  0
SPLINE
  5
C0
330
1F
100
AcDbEntity
  8
0
  6
Continuous
 62
     7
370
    25
100
AcDbSpline
210
0.0
220
0.0
230
1.0
 70
     8
 71
     3
 72
    10
 73
     6
 74
     0
 42
0.00000001
 43
0.00000001
 40
0.0
 40
0.0
 40
0.0
 40
0.0
 40
0.5331753442086893
 40
0.8095997620717293
 40
1.0
 40
1.0
 40
1.0
 40
1.0
 10
4.754869261105309
 20
11.55441762863035
 30
0.0
 10
4.741589920027022
 20
11.55701026900458
 30
0.0
 10
4.721425913018397
 20
11.56094706213073
 30
0.0
 10
4.697375722546235
 20
11.569695085015
 30
0.0
 10
4.686458869515186
 20
11.57464110619496
 30
0.0
 10
4.682006295323241
 20
11.57665840240625
 30
0.0
  0
LINE
  5
C1
330
1F
100
AcDbEntity
  8
0
  6
Continuous
 62
     7
370
    25
100
AcDbLine
 10
4.9673189435
 20
11.5544176286
 30
0.0
 11
4.7548692611
 21
11.5544176286
 31
0.0
  0
SPLINE
  5
C2
330
1F
100
AcDbEntity
  8
0
  6
Continuous
 62
     7
370
    25
100
AcDbSpline
210
0.0
220
0.0
230
1.0
 70
     8
 71
     3
 72
    10
 73
     6
 74
     0
 42
0.00000001
 43
0.00000001
 40
0.0
 40
0.0
 40
0.0
 40
0.0
 40
0.4665495905504992
 40
0.7778212346567677
 40
1.0
 40
1.0
 40
1.0
 40
1.0
 10
4.960940751502181
 20
11.57665840240625
 30
0.0
 10
4.961900491310402
 20
11.57195707740211
 30
0.0
 10
4.963500548448377
 20
11.56411913156891
 30
0.0
 10
4.965659075427669
 20
11.55763506059423
 30
0.0
 10
4.966830889998885
 20
11.55536365491567
 30
0.0
 10
4.967318943452462
 20
11.55441762863035
 30
0.0
  0
LINE
  5
C3
330
1F
100
AcDbEntity
  8
0
  6
Continuous
 62
     7
370
    25
100
AcDbLine
 10
5.2011134582
 20
11.5766584024
 30
0.0
 11
4.9609407515
 21
11.5766584024
 31
0.0
  0
SPLINE
  5
C4
330
1F
100
AcDbEntity
  8
0
  6
Continuous
 62
     7
370
    25
100
AcDbSpline
210
0.0
220
0.0
230
1.0
 70
     8
 71
     3
 72
    10
 73
     6
 74
     0
 42
0.00000001
 43
0.00000001
 40
0.0
 40
0.0
 40
0.0
 40
0.0
 40
0.5331753442087167
 40
0.8095997620717973
 40
1.0
 40
1.0
 40
1.0
 40
1.0
 10
5.206975504856553
 20
11.55441762863035
 30
0.0
 10
5.20591172892608
 20
11.55701026900458
 30
0.0
 10
5.204296439041497
 20
11.56094706213073
 30
0.0
 10
5.202356369916311
 20
11.56969508501499
 30
0.0
 10
5.201473533873078
 20
11.57464110619496
 30
0.0
 10
5.201113458220266
 20
11.57665840240625
 30
0.0
  0
LINE
  5
C5
330
1F
100
AcDbEntity
  8
0
  6
Continuous
 62
     7
370
    25
100
AcDbLine
 10
5.4388735242
 20
11.5544176286
 30
0.0
 11
5.2069755049
 21
11.5544176286
 31
0.0
  0
SPLINE
  5
C6
330
1F
100
AcDbEntity
  8
0
  6
Continuous
 62
     7
370
    25
100
AcDbSpline
210
0.0
220
0.0
230
1.0
 70
     8
 71
     3
 72
    10
 73
     6
 74
     0
 42
0.00000001
 43
0.00000001
 40
0.0
 40
0.0
 40
0.0
 40
0.0
 40
0.4686381556240126
 40
0.7785358969781419
 40
1.0
 40
1.0
 40
1.0
 40
1.0
 10
5.505582484529016
 20
11.57665840240625
 30
0.0
 10
5.495453528946241
 20
11.57193768633397
 30
0.0
 10
5.478626568901583
 20
11.56409528836103
 30
0.0
 10
5.456073314806359
 20
11.55762191351773
 30
0.0
 10
5.443933307579804
 20
11.55536025564907
 30
0.0
 10
5.438873524233363
 20
11.55441762863035
 30
0.0
  0
LINE
  5
C7
330
1F
100
AcDbEntity
  8
0
  6
Continuous
 62
     7
370
    25
100
AcDbLine
 10
5.6414367593
 20
11.5766584024
 30
0.0
 11
5.5055824845
 21
11.5766584024
 31
0.0
  0
SPLINE
  5
C8
330
1F
100
AcDbEntity
  8
0
  6
Continuous
 62
     7
370
    25
100
AcDbSpline
210
0.0
220
0.0
230
1.0
 70
     8
 71
     3
 72
    10
 73
     6
 74
     0
 42
0.00000001
 43
0.00000001
 40
0.0
 40
0.0
 40
0.0
 40
0.0
 40
0.5332311337846968
 40
0.8096265694457455
 40
1.0
 40
1.0
 40
1.0
 40
1.0
 10
5.574435840104721
 20
11.55441762863035
 30
0.0
 10
5.586652679620055
 20
11.55701059333098
 30
0.0
 10
5.605202005118112
 20
11.56094759734718
 30
0.0
 10
5.627312033919599
 20
11.56969592403898
 30
0.0
 10
5.637344841213719
 20
11.57464137976374
 30
0.0
 10
5.641436759250494
 20
11.57665840240625
 30
0.0
  0
SPLINE
  5
C9
330
1F
100
AcDbEntity
  8
0
  6
Continuous
 62
     7
370
    25
100
AcDbSpline
210
0.0
220
0.0
230
1.0
 70
     8
 71
     3
 72
    10
 73
     6
 74
     0
 42
0.00000001
 43
0.00000001
 40
0.0
 40
0.0
 40
0.0
 40
0.0
 40
0.5604314957931679
 40
0.9343390859781582
 40
1.0
 40
1.0
 40
1.0
 40
1.0
 10
5.666971329380302
 20
11.57665840240625
 30
0.0
 10
5.655923887231403
 20
11.57198739140496
 30
0.0
 10
5.637505834218179
 20
11.56419998441179
 30
0.0
 10
5.616967479647095
 20
11.55858566187781
 30
0.0
 10
5.607813904785909
 20
11.55695618850775
 30
0.0
 10
5.606446581863087
 20
11.55671278455631
 30
0.0
  0
LINE
  5
CA
330
1F
100
AcDbEntity
  8
0
  6
Continuous
 62
     7
370
    25
100
AcDbLine
 10
4.9563446209
 20
11.7154825023
 30
0.0
 11
4.9562299274
 21
11.7146527044
 31
0.0
  0
SPLINE
  5
CB
330
1F
100
AcDbEntity
  8
0
  6
Continuous
 62
     7
370
    25
100
AcDbSpline
210
0.0
220
0.0
230
1.0
 70
     8
 71
     3
 72
     9
 73
     5
 74
     0
 42
0.00000001
 43
0.00000001
 40
0.0
 40
0.0
 40
0.0
 40
0.0
 40
0.5058031042358386
 40
1.0
 40
1.0
 40
1.0
 40
1.0
 10
5.079648835536758
 20
11.68598796196769
 30
0.0
 10
5.058077738325737
 20
11.68901481439868
 30
0.0
 10
5.015430516451506
 20
11.69499906480291
 30
0.0
 10
4.975886935753546
 20
11.70870772500589
 30
0.0
 10
4.956344620925214
 20
11.71548250232329
 30
0.0
  0
LINE
  5
CC
330
1F
100
AcDbEntity
  8
0
  6
Continuous
 62
     7
370
    25
100
AcDbLine
 10
5.2055146355
 20
11.685987962
 30
0.0
 11
5.0796488355
 21
11.685987962
 31
0.0
  0
LINE
  5
CD
330
1F
100
AcDbEntity
  8
0
  6
Continuous
 62
     7
370
    25
100
AcDbLine
 10
5.2055146355
 20
11.5829825262
 30
0.0
 11
5.2055146355
 21
11.685987962
 31
0.0
  0
LINE
  5
CE
330
1F
100
AcDbEntity
  8
0
  6
Continuous
 62
     7
370
    25
100
AcDbLine
 10
5.2052416938
 20
11.5812400993
 30
0.0
 11
5.2055146355
 21
11.5829825262
 31
0.0
  0
LINE
  5
CF
330
1F
100
AcDbEntity
  8
0
  6
Continuous
 62
     7
370
    25
100
AcDbLine
 10
4.9564936075
 20
11.5812400993
 30
0.0
 11
5.2052416938
 21
11.5812400993
 31
0.0
  0
LINE
  5
D0
330
1F
100
AcDbEntity
  8
0
  6
Continuous
 62
     7
370
    25
100
AcDbLine
 10
4.9562299274
 20
11.5829825262
 30
0.0
 11
4.9564936075
 21
11.5812400993
 31
0.0
  0
LINE
  5
D1
330
1F
100
AcDbEntity
  8
0
  6
Continuous
 62
     7
370
    25
100
AcDbLine
 10
4.9562299274
 20
11.5829825262
 30
0.0
 11
4.9562299274
 21
11.7146527044
 31
0.0
  0
SPLINE
  5
D2
330
1F
100
AcDbEntity
  8
0
  6
Continuous
 62
     7
370
    25
100
AcDbSpline
210
0.0
220
0.0
230
1.0
 70
     8
 71
     3
 72
    12
 73
     8
 74
     0
 42
0.00000001
 43
0.00000001
 40
0.0
 40
0.0
 40
0.0
 40
0.0
 40
0.2610466257367431
 40
0.5203567671393053
 40
0.8317512029534131
 40
0.9869218091718155
 40
0.9999999999999999
 40
0.9999999999999999
 40
0.9999999999999999
 40
0.9999999999999999
 10
5.205241693844624
 20
11.58124009927288
 30
0.0
 10
5.205007773096966
 20
11.58068027359315
 30
0.0
 10
5.204541487644415
 20
11.5795643461988
 30
0.0
 10
5.203365709848023
 20
11.57813586572703
 30
0.0
 10
5.20221325733175
 20
11.57720932626533
 30
0.0
 10
5.201416170942543
 20
11.57678946366956
 30
0.0
 10
5.201135291345024
 20
11.57666785518673
 30
0.0
 10
5.201113458220266
 20
11.57665840240625
 30
0.0
  0
SPLINE
  5
D3
330
1F
100
AcDbEntity
  8
0
  6
Continuous
 62
     7
370
    25
100
AcDbSpline
210
0.0
220
0.0
230
1.0
 70
     8
 71
     3
 72
    12
 73
     8
 74
     0
 42
0.00000001
 43
0.00000001
 40
0.0
 40
0.0
 40
0.0
 40
0.0
 40
0.2610466257376923
 40
0.5203567671427952
 40
0.831751202956836
 40
0.986921809171898
 40
1.0
 40
1.0
 40
1.0
 40
1.0
 10
4.956493607511307
 20
11.58124009927288
 30
0.0
 10
4.956728377108197
 20
11.58068027359315
 30
0.0
 10
4.95719635461266
 20
11.57956434619878
 30
0.0
 10
4.958455741181647
 20
11.57813586572703
 30
0.0
 10
4.959717505893598
 20
11.57720932626533
 30
0.0
 10
4.960602885879572
 20
11.57678946366956
 30
0.0
 10
4.96091638297801
 20
11.57666785518673
 30
0.0
 10
4.960940751502181
 20
11.57665840240625
 30
0.0
  0
SPLINE
  5
D4
330
1F
100
AcDbEntity
  8
0
  6
Continuous
 62
     7
370
    25
100
AcDbSpline
210
0.0
220
0.0
230
1.0
 70
     8
 71
     3
 72
    13
 73
     9
 74
     0
 42
0.00000001
 43
0.00000001
 40
0.0
 40
0.0
 40
0.0
 40
0.0
 40
0.2142797061672875
 40
0.4285450239899017
 40
0.6429491528021051
 40
0.8576415051291933
 40
0.9549170214531397
 40
1.0
 40
1.0
 40
1.0
 40
1.0
 10
5.080035883648517
 20
11.68898796196769
 30
0.0
 10
5.080008551077122
 20
11.6889548751254
 30
0.0
 10
5.079953887769648
 20
11.68888870366252
 30
0.0
 10
5.079858365308756
 20
11.68837255018406
 30
0.0
 10
5.079766143556671
 20
11.6876129761718
 30
0.0
 10
5.07970066462935
 20
11.68683491921995
 30
0.0
 10
5.079664865456292
 20
11.6862810299297
 30
0.0
 10
5.079652691014978
 20
11.68605844997871
 30
0.0
 10
5.079648835536758
 20
11.68598796196769
 30
0.0
  0
SPLINE
  5
D5
330
1F
100
AcDbEntity
  8
0
  6
Continuous
 62
     7
370
    25
100
AcDbSpline
210
0.0
220
0.0
230
1.0
 70
     8
 71
     3
 72
    12
 73
     8
 74
     0
 42
0.00000001
 43
0.00000001
 40
0.0
 40
0.0
 40
0.0
 40
0.0
 40
0.221718115514221
 40
0.4435284651950245
 40
0.6625812968593191
 40
0.8762617802484302
 40
0.9999999999999999
 40
0.9999999999999999
 40
0.9999999999999999
 40
0.9999999999999999
 10
5.20574725954457
 20
11.68898796196769
 30
0.0
 10
5.205720593062236
 20
11.68895355923458
 30
0.0
 10
5.205667249004381
 20
11.6888847394569
 30
0.0
 10
5.205596377986679
 20
11.68834646415265
 30
0.0
 10
5.205543856961707
 20
11.68755824753481
 30
0.0
 10
5.205517967500085
 20
11.68671910604342
 30
0.0
 10
5.205515529512404
 20
11.68618414348817
 30
0.0
 10
5.205514635453324
 20
11.68598796196769
 30
0.0
  0
LINE
  5
D6
330
1F
100
AcDbEntity
  8
0
  6
Continuous
 62
     7
370
    25
100
AcDbLine
 10
5.0800358836
 20
11.688987962
 30
0.0
 11
5.2057472595
 21
11.688987962
 31
0.0
  0
SPLINE
  5
D7
330
1F
100
AcDbEntity
  8
0
  6
Continuous
 62
     7
370
    25
100
AcDbSpline
210
0.0
220
0.0
230
1.0
 70
     8
 71
     3
 72
     9
 73
     5
 74
     0
 42
0.00000001
 43
0.00000001
 40
0.0
 40
0.0
 40
0.0
 40
0.0
 40
0.4852580463207584
 40
0.9999999999999999
 40
0.9999999999999999
 40
0.9999999999999999
 40
0.9999999999999999
 10
4.960444694728815
 20
11.71746480185098
 30
0.0
 10
4.979062592859812
 20
11.71105158765826
 30
0.0
 10
5.017429598357523
 20
11.69783549728872
 30
0.0
 10
5.058760918942475
 20
11.69199454510572
 30
0.0
 10
5.080035883648517
 20
11.68898796196769
 30
0.0
  0
SPLINE
  5
D8
330
1F
100
AcDbEntity
  8
0
  6
Continuous
 62
     7
370
    25
100
AcDbSpline
210
0.0
220
0.0
230
1.0
 70
     8
 71
     3
 72
     9
 73
     5
 74
     0
 42
0.00000001
 43
0.00000001
 40
0.0
 40
0.0
 40
0.0
 40
0.0
 40
0.516326622440515
 40
1.0
 40
1.0
 40
1.0
 40
1.0
 10
5.205514635453324
 20
11.58298252622263
 30
0.0
 10
5.206523066741984
 20
11.57762584749045
 30
0.0
 10
5.208476154661203
 20
11.56725125416258
 30
0.0
 10
5.21054686365146
 20
11.56230570406585
 30
0.0
 10
5.211548410462719
 20
11.55991367314667
 30
0.0
  0
LINE
  5
D9
330
1F
100
AcDbEntity
  8
0
  6
Continuous
 62
     7
370
    25
100
AcDbLine
 10
5.2115484105
 20
11.5599136731
 30
0.0
 11
5.2115187691
 21
11.5593700051
 31
0.0
  0
SPLINE
  5
DA
330
1F
100
AcDbEntity
  8
0
  6
Continuous
 62
     7
370
    25
100
AcDbSpline
210
0.0
220
0.0
230
1.0
 70
     8
 71
     3
 72
    13
 73
     9
 74
     0
 42
0.00000001
 43
0.00000001
 40
0.0
 40
0.0
 40
0.0
 40
0.0
 40
0.1858612659550086
 40
0.3708268618804485
 40
0.577878981301576
 40
0.8292801638910289
 40
0.9889166448666149
 40
1.0
 40
1.0
 40
1.0
 40
1.0
 10
5.211518769066211
 20
11.55937000505991
 30
0.0
 10
5.211421167982532
 20
11.55886681281893
 30
0.0
 10
5.211226436157207
 20
11.5578628532328
 30
0.0
 10
5.210462744966506
 20
11.55653830444599
 30
0.0
 10
5.209392768144421
 20
11.55540076465832
 30
0.0
 10
5.208193649201205
 20
11.55470742497757
 30
0.0
 10
5.207342980155546
 20
11.55447362569443
 30
0.0
 10
5.206997907429432
 20
11.55442104240622
 30
0.0
 10
5.206975504856553
 20
11.55441762863035
 30
0.0
  0
LINE
  5
DB
330
1F
100
AcDbEntity
  8
0
  6
Continuous
 62
     7
370
    25
100
AcDbLine
 10
5.2115484105
 20
11.5599136731
 30
0.0
 11
5.2115484105
 21
11.688987962
 31
0.0
  0
LINE
  5
DC
330
1F
100
AcDbEntity
  8
0
  6
Continuous
 62
     7
370
    25
100
AcDbLine
 10
5.2115484105
 20
11.688987962
 30
0.0
 11
5.2057472595
 21
11.688987962
 31
0.0
  0
LINE
  5
DD
330
1F
100
AcDbEntity
  8
0
  6
Continuous
 62
     7
370
    25
100
AcDbLine
 10
5.2115187691
 20
11.5593700051
 30
0.0
 11
5.4388077507
 21
11.5593700051
 31
0.0
  0
SPLINE
  5
DE
330
1F
100
AcDbEntity
  8
0
  6
Continuous
 62
     7
370
    25
100
AcDbSpline
210
0.0
220
0.0
230
1.0
 70
     8
 71
     3
 72
    13
 73
     9
 74
     0
 42
0.00000001
 43
0.00000001
 40
0.0
 40
0.0
 40
0.0
 40
0.0
 40
0.1858612659553096
 40
0.3708268618803804
 40
0.5778789813013542
 40
0.8292801638917321
 40
0.988916644866624
 40
0.9999999999999999
 40
0.9999999999999999
 40
0.9999999999999999
 40
0.9999999999999999
 10
5.438807750676012
 20
11.55937000505991
 30
0.0
 10
5.438846777799228
 20
11.55886681281893
 30
0.0
 10
5.438924643972989
 20
11.5578628532328
 30
0.0
 10
5.438984013603909
 20
11.55653830444599
 30
0.0
 10
5.438997578466526
 20
11.55540076465831
 30
0.0
 10
5.438955992312321
 20
11.55470742497757
 30
0.0
 10
5.438901392579326
 20
11.55447362569443
 30
0.0
 10
5.438875223184703
 20
11.55442104240622
 30
0.0
 10
5.438873524233363
 20
11.55441762863035
 30
0.0
  0
LINE
  5
DF
330
1F
100
AcDbEntity
  8
0
  6
Continuous
 62
     7
370
    25
100
AcDbLine
 10
5.4387848991
 20
11.5599136731
 30
0.0
 11
5.4387848991
 21
11.688987962
 31
0.0
  0
LINE
  5
E0
330
1F
100
AcDbEntity
  8
0
  6
Continuous
 62
     7
370
    25
100
AcDbLine
 10
5.4388077507
 20
11.5593700051
 30
0.0
 11
5.4387848991
 21
11.5599136731
 31
0.0
  0
LINE
  5
E1
330
1F
100
AcDbEntity
  8
0
  6
Continuous
 62
     7
370
    25
100
AcDbLine
 10
5.4387848991
 20
11.688987962
 30
0.0
 11
5.2115484105
 21
11.688987962
 31
0.0
  0
SPLINE
  5
E2
330
1F
100
AcDbEntity
  8
0
  6
Continuous
 62
     7
370
    25
100
AcDbSpline
210
0.0
220
0.0
230
1.0
 70
     8
 71
     3
 72
     9
 73
     5
 74
     0
 42
0.00000001
 43
0.00000001
 40
0.0
 40
0.0
 40
0.0
 40
0.0
 40
0.4836733775595327
 40
1.0
 40
1.0
 40
1.0
 40
1.0
 10
4.962263702406981
 20
11.55991367314666
 30
0.0
 10
4.961262155595722
 20
11.56230570406584
 30
0.0
 10
4.959191446605467
 20
11.56725125416258
 30
0.0
 10
4.957238358686249
 20
11.57762584749045
 30
0.0
 10
4.956229927397589
 20
11.58298252622263
 30
0.0
  0
SPLINE
  5
E3
330
1F
100
AcDbEntity
  8
0
  6
Continuous
 62
     7
370
    25
100
AcDbSpline
210
0.0
220
0.0
230
1.0
 70
     8
 71
     3
 72
    13
 73
     9
 74
     0
 42
0.00000001
 43
0.00000001
 40
0.0
 40
0.0
 40
0.0
 40
0.0
 40
0.1858612659553009
 40
0.370826861880382
 40
0.5778789813017653
 40
0.8292801638917662
 40
0.988916644866296
 40
1.0
 40
1.0
 40
1.0
 40
1.0
 10
4.962292168919366
 20
11.55937000505991
 30
0.0
 10
4.962392894340022
 20
11.55886681281893
 30
0.0
 10
4.962593859783043
 20
11.5578628532328
 30
0.0
 10
4.963429497092855
 20
11.55653830444599
 30
0.0
 10
4.964613716408967
 20
11.55540076465831
 30
0.0
 10
4.965951831424897
 20
11.55470742497757
 30
0.0
 10
4.966905951962135
 20
11.55447362569443
 30
0.0
 10
4.967293766054182
 20
11.55442104240622
 30
0.0
 10
4.967318943452462
 20
11.55441762863035
 30
0.0
  0
LINE
  5
E4
330
1F
100
AcDbEntity
  8
0
  6
Continuous
 62
     7
370
    25
100
AcDbLine
 10
4.7540649832
 20
11.5593700051
 30
0.0
 11
4.9622921689
 21
11.5593700051
 31
0.0
  0
SPLINE
  5
E5
330
1F
100
AcDbEntity
  8
0
  6
Continuous
 62
     7
370
    25
100
AcDbSpline
210
0.0
220
0.0
230
1.0
 70
     8
 71
     3
 72
    13
 73
     9
 74
     0
 42
0.00000001
 43
0.00000001
 40
0.0
 40
0.0
 40
0.0
 40
0.0
 40
0.1858612659553143
 40
0.3708268618807544
 40
0.5778789813022328
 40
0.8292801638918071
 40
0.9889166448668291
 40
1.0
 40
1.0
 40
1.0
 40
1.0
 10
4.754064983220341
 20
11.55937000505991
 30
0.0
 10
4.754040538882177
 20
11.55886681281893
 30
0.0
 10
4.753991768003718
 20
11.5578628532328
 30
0.0
 10
4.754073371231783
 20
11.55653830444599
 30
0.0
 10
4.75426492106607
 20
11.55540076465832
 30
0.0
 10
4.754542580826809
 20
11.55470742497757
 30
0.0
 10
4.754767395123822
 20
11.55447362569443
 30
0.0
 10
4.754863051000629
 20
11.55442104240622
 30
0.0
 10
4.754869261105309
 20
11.55441762863035
 30
0.0
  0
LINE
  5
E6
330
1F
100
AcDbEntity
  8
0
  6
Continuous
 62
     7
370
    25
100
AcDbLine
 10
4.7540846073
 20
11.5599136731
 30
0.0
 11
4.7540846073
 21
11.688987962
 31
0.0
  0
LINE
  5
E7
330
1F
100
AcDbEntity
  8
0
  6
Continuous
 62
     7
370
    25
100
AcDbLine
 10
4.7540846073
 20
11.5599136731
 30
0.0
 11
4.7540649832
 21
11.5593700051
 31
0.0
  0
LINE
  5
E8
330
1F
100
AcDbEntity
  8
0
  6
Continuous
 62
     7
370
    25
100
AcDbLine
 10
4.9562299274
 20
11.688987962
 30
0.0
 11
4.7540846073
 21
11.688987962
 31
0.0
  0
SPLINE
  5
E9
330
1F
100
AcDbEntity
  8
0
  6
Continuous
 62
     7
370
    25
100
AcDbSpline
210
0.0
220
0.0
230
1.0
 70
     8
 71
     3
 72
     9
 73
     5
 74
     0
 42
0.00000001
 43
0.00000001
 40
0.0
 40
0.0
 40
0.0
 40
0.0
 40
0.4852580463207249
 40
0.9999999999999999
 40
0.9999999999999999
 40
0.9999999999999999
 40
0.9999999999999999
 10
5.504997675263264
 20
11.71746480185098
 30
0.0
 10
5.518798041398989
 20
11.71105158765826
 30
0.0
 10
5.547237273350652
 20
11.69783549728872
 30
0.0
 10
5.571730057476719
 20
11.69199454510571
 30
0.0
 10
5.584337521028815
 20
11.68898796196769
 30
0.0
  0
SPLINE
  5
EA
330
1F
100
AcDbEntity
  8
0
  6
Continuous
 62
     7
370
    25
100
AcDbSpline
210
0.0
220
0.0
230
1.0
 70
     8
 71
     3
 72
     9
 73
     5
 74
     0
 42
0.00000001
 43
0.00000001
 40
0.0
 40
0.0
 40
0.0
 40
0.0
 40
0.3971422548369061
 40
1.0
 40
1.0
 40
1.0
 40
1.0
 10
5.573253985146645
 20
11.68898796196769
 30
0.0
 10
5.564756851944841
 20
11.69140286160234
 30
0.0
 10
5.543361160354948
 20
11.69748355335759
 30
0.0
 10
5.519293837668052
 20
11.70871283993653
 30
0.0
 10
5.504784665780918
 20
11.71548250232329
 30
0.0
  0
SPLINE
  5
EB
330
1F
100
AcDbEntity
  8
0
  6
Continuous
 62
     7
370
    25
100
AcDbSpline
210
0.0
220
0.0
230
1.0
 70
    24
 71
     3
 72
    10
 73
     6
 74
     0
 42
0.00000001
 43
0.00000001
 40
0.0
 40
0.0
 40
0.0
 40
0.0
 40
0.0145234240138623
 40
0.2503637466990133
 40
1.0
 40
1.0
 40
1.0
 40
1.0
 10
5.584337521028815
 20
11.68898796196769
 30
0.0
 10
5.584317564448739
 20
11.68898796196769
 30
0.0
 10
5.583973540604597
 20
11.68898796196769
 30
0.0
 10
5.580307289619101
 20
11.68898796196769
 30
0.0
 10
5.576301287113916
 20
11.68898796196769
 30
0.0
 10
5.573253985146645
 20
11.68898796196769
 30
0.0
  0
LINE
  5
EC
330
1F
100
AcDbEntity
  8
0
  6
Continuous
 62
     7
370
    25
100
AcDbLine
 10
5.5047846658
 20
11.7154825023
 30
0.0
 11
5.5046966314
 21
11.7146527044
 31
0.0
  0
LINE
  5
ED
330
1F
100
AcDbEntity
  8
0
  6
Continuous
 62
     7
370
    25
100
AcDbLine
 10
5.6457051318
 20
11.5829825262
 30
0.0
 11
5.6457051318
 21
11.688987962
 31
0.0
  0
LINE
  5
EE
330
1F
100
AcDbEntity
  8
0
  6
Continuous
 62
     7
370
    25
100
AcDbLine
 10
5.6456039465
 20
11.5812400993
 30
0.0
 11
5.6457051318
 21
11.5829825262
 31
0.0
  0
LINE
  5
EF
330
1F
100
AcDbEntity
  8
0
  6
Continuous
 62
     7
370
    25
100
AcDbLine
 10
5.5048989875
 20
11.5812400993
 30
0.0
 11
5.6456039465
 21
11.5812400993
 31
0.0
  0
LINE
  5
F0
330
1F
100
AcDbEntity
  8
0
  6
Continuous
 62
     7
370
    25
100
AcDbLine
 10
5.5046966314
 20
11.5829825262
 30
0.0
 11
5.5048989875
 21
11.5812400993
 31
0.0
  0
LINE
  5
F1
330
1F
100
AcDbEntity
  8
0
  6
Continuous
 62
     7
370
    25
100
AcDbLine
 10
5.5046966314
 20
11.5829825262
 30
0.0
 11
5.5046966314
 21
11.7146527044
 31
0.0
  0
LINE
  5
F2
330
1F
100
AcDbEntity
  8
0
  6
Continuous
 62
     7
370
    25
100
AcDbLine
 10
5.6457051318
 20
11.688987962
 30
0.0
 11
5.5732539851
 21
11.688987962
 31
0.0
  0
SPLINE
  5
F3
330
1F
100
AcDbEntity
  8
0
  6
Continuous
 62
     7
370
    25
100
AcDbSpline
210
0.0
220
0.0
230
1.0
 70
     8
 71
     3
 72
    12
 73
     8
 74
     0
 42
0.00000001
 43
0.00000001
 40
0.0
 40
0.0
 40
0.0
 40
0.0
 40
0.2610466257360418
 40
0.5203567671405956
 40
0.8317512029539195
 40
0.9869218091725162
 40
0.9999999999999999
 40
0.9999999999999999
 40
0.9999999999999999
 40
0.9999999999999999
 10
5.645603946502395
 20
11.58124009927288
 30
0.0
 10
5.645466752258407
 20
11.58068027359315
 30
0.0
 10
5.645193276387683
 20
11.57956434619878
 30
0.0
 10
5.644047885447331
 20
11.57813586572705
 30
0.0
 10
5.642768029420513
 20
11.57720932626532
 30
0.0
 10
5.64180993316918
 20
11.57678946366957
 30
0.0
 10
5.641463674381979
 20
11.57666785518673
 30
0.0
 10
5.641436759250494
 20
11.57665840240625
 30
0.0
  0
SPLINE
  5
F4
330
1F
100
AcDbEntity
  8
0
  6
Continuous
 62
     7
370
    25
100
AcDbSpline
210
0.0
220
0.0
230
1.0
 70
     8
 71
     3
 72
    12
 73
     8
 74
     0
 42
0.00000001
 43
0.00000001
 40
0.0
 40
0.0
 40
0.0
 40
0.0
 40
0.2610466257372732
 40
0.5203567671424303
 40
0.8317512029576025
 40
0.9869218091726623
 40
1.0
 40
1.0
 40
1.0
 40
1.0
 10
5.504898987479587
 20
11.58124009927288
 30
0.0
 10
5.505026909067015
 20
11.58068027359315
 30
0.0
 10
5.505281901306404
 20
11.57956434619878
 30
0.0
 10
5.505513967002197
 20
11.57813586572703
 30
0.0
 10
5.505599718812538
 20
11.57720932626532
 30
0.0
 10
5.505593313751492
 20
11.57678946366958
 30
0.0
 10
5.505583265585601
 20
11.57666785518673
 30
0.0
 10
5.505582484529016
 20
11.57665840240625
 30
0.0
  0
SPLINE
  5
F5
330
1F
100
AcDbEntity
  8
0
  6
Continuous
 62
     7
370
    25
100
AcDbSpline
210
0.0
220
0.0
230
1.0
 70
     8
 71
     3
 72
     9
 73
     5
 74
     0
 42
0.00000001
 43
0.00000001
 40
0.0
 40
0.0
 40
0.0
 40
0.0
 40
0.4815978158478176
 40
1.0
 40
1.0
 40
1.0
 40
1.0
 10
5.438784899138441
 20
11.55991367314667
 30
0.0
 10
5.449678757077651
 20
11.56229355109064
 30
0.0
 10
5.47229899658192
 20
11.56723518052844
 30
0.0
 10
5.493635659029402
 20
11.57760617831713
 30
0.0
 10
5.504696631444695
 20
11.58298252622263
 30
0.0
  0
SPLINE
  5
F6
330
1F
100
AcDbEntity
  8
0
  6
Continuous
 62
     7
370
    25
100
AcDbSpline
210
0.0
220
0.0
230
1.0
 70
     8
 71
     3
 72
     9
 73
     5
 74
     0
 42
0.00000001
 43
0.00000001
 40
0.0
 40
0.0
 40
0.0
 40
0.0
 40
0.7268678013185443
 40
1.0
 40
1.0
 40
1.0
 40
1.0
 10
5.438784899138432
 20
11.71465270444166
 30
0.0
 10
5.438806729625122
 20
11.71498243958376
 30
0.0
 10
5.438836763266247
 20
11.71543607797783
 30
0.0
 10
5.438980002440837
 20
11.71584586788773
 30
0.0
 10
5.43901912567153
 20
11.71595779470682
 30
0.0
  0
LINE
  5
F7
330
1F
100
AcDbEntity
  8
0
  6
Continuous
 62
     7
370
    25
100
AcDbLine
 10
5.5046966314
 20
11.7146527044
 30
0.0
 11
5.4387848991
 21
11.7146527044
 31
0.0
  0
LINE
  5
F8
330
1F
100
AcDbEntity
  8
0
  6
Continuous
 62
     7
370
    25
100
AcDbLine
 10
5.4387848991
 20
11.7146527044
 30
0.0
 11
5.4387848991
 21
11.688987962
 31
0.0
  0
LINE
  5
F9
330
1F
100
AcDbEntity
  8
0
  6
Continuous
 62
     7
370
    25
100
AcDbLine
 10
4.6819673437
 20
11.5812400993
 30
0.0
 11
4.6821391
 21
11.5829825262
 31
0.0
  0
SPLINE
  5
FA
330
1F
100
AcDbEntity
  8
0
  6
Continuous
 62
     7
370
    25
100
AcDbSpline
210
0.0
220
0.0
230
1.0
 70
     8
 71
     3
 72
     9
 73
     5
 74
     0
 42
0.00000001
 43
0.00000001
 40
0.0
 40
0.0
 40
0.0
 40
0.0
 40
0.5163266224404975
 40
1.0
 40
1.0
 40
1.0
 40
1.0
 10
4.682139099959017
 20
11.58298252622263
 30
0.0
 10
4.694163429759618
 20
11.57762584749045
 30
0.0
 10
4.717451653294879
 20
11.56725125416258
 30
0.0
 10
4.74214236658383
 20
11.56230570406584
 30
0.0
 10
4.75408460727465
 20
11.55991367314667
 30
0.0
  0
SPLINE
  5
FB
330
1F
100
AcDbEntity
  8
0
  6
Continuous
 62
     7
370
    25
100
AcDbSpline
210
0.0
220
0.0
230
1.0
 70
     8
 71
     3
 72
    12
 73
     8
 74
     0
 42
0.00000001
 43
0.00000001
 40
0.0
 40
0.0
 40
0.0
 40
0.0
 40
0.2610466257363319
 40
0.5203567671398925
 40
0.8317512029543873
 40
0.986921809172778
 40
1.0
 40
1.0
 40
1.0
 40
1.0
 10
4.681967343695691
 20
11.58124009927288
 30
0.0
 10
4.681870617192028
 20
11.58068027359315
 30
0.0
 10
4.681677807610211
 20
11.57956434619879
 30
0.0
 10
4.681647420754162
 20
11.57813586572704
 30
0.0
 10
4.681774824264649
 20
11.57720932626533
 30
0.0
 10
4.681935834126875
 20
11.57678946366957
 30
0.0
 10
4.682001213316515
 20
11.57666785518673
 30
0.0
 10
4.682006295323241
 20
11.57665840240625
 30
0.0
  0
SPLINE
  5
FC
330
1F
100
AcDbEntity
  8
0
  6
Continuous
 62
     7
370
    25
100
AcDbSpline
210
0.0
220
0.0
230
1.0
 70
     8
 71
     3
 72
    12
 73
     8
 74
     0
 42
0.00000001
 43
0.00000001
 40
0.0
 40
0.0
 40
0.0
 40
0.0
 40
0.2217181155150581
 40
0.4435284651947351
 40
0.6625812968592294
 40
0.876261780248288
 40
0.9999999999999999
 40
0.9999999999999999
 40
0.9999999999999999
 40
0.9999999999999999
 10
4.684912862360198
 20
11.68898796196769
 30
0.0
 10
4.684594896642816
 20
11.68895355923458
 30
0.0
 10
4.683958832935131
 20
11.6888847394569
 30
0.0
 10
4.6831137813189
 20
11.68834646415265
 30
0.0
 10
4.682487531287843
 20
11.68755824753481
 30
0.0
 10
4.682178830607743
 20
11.68671910604342
 30
0.0
 10
4.682149760537875
 20
11.68618414348817
 30
0.0
 10
4.682139099959017
 20
11.68598796196769
 30
0.0
  0
LINE
  5
FD
330
1F
100
AcDbEntity
  8
0
  6
Continuous
 62
     7
370
    25
100
AcDbLine
 10
4.6821391
 20
11.5829825262
 30
0.0
 11
4.6821391
 21
11.685987962
 31
0.0
  0
LINE
  5
FE
330
1F
100
AcDbEntity
  8
0
  6
Continuous
 62
     7
370
    25
100
AcDbLine
 10
4.7540846073
 20
11.688987962
 30
0.0
 11
4.6849128624
 21
11.688987962
 31
0.0
  0
LINE
  5
FF
330
1F
100
AcDbEntity
  8
0
  6
Continuous
 62
     7
370
    25
100
AcDbLine
 10
4.6821391
 20
11.685987962
 30
0.0
 11
4.6152542553
 21
11.685987962
 31
0.0
  0
SPLINE
  5
100
330
1F
100
AcDbEntity
  8
0
  6
Continuous
 62
     7
370
    25
100
AcDbSpline
210
0.0
220
0.0
230
1.0
 70
     8
 71
     3
 72
    13
 73
     9
 74
     0
 42
0.00000001
 43
0.00000001
 40
0.0
 40
0.0
 40
0.0
 40
0.0
 40
0.0450838408436641
 40
0.1423612177182981
 40
0.3570576764415832
 40
0.5714659061368144
 40
0.7857353221871495
 40
1.0
 40
1.0
 40
1.0
 40
1.0
 10
4.615254255300854
 20
11.68598796196769
 30
0.0
 10
4.615257248990786
 20
11.68605844997862
 30
0.0
 10
4.615266702163725
 20
11.68628102992926
 30
0.0
 10
4.615355477465592
 20
11.68683491922593
 30
0.0
 10
4.615660320443959
 20
11.68761297611893
 30
0.0
 10
4.616293715447619
 20
11.6883725503755
 30
0.0
 10
4.617114232657328
 20
11.68888868759502
 30
0.0
 10
4.617723331028181
 20
11.68895487075406
 30
0.0
 10
4.618027876846251
 20
11.68898796196769
 30
0.0
  0
LINE
  5
101
330
1F
100
AcDbEntity
  8
0
  6
Continuous
 62
     7
370
    25
100
AcDbLine
 10
4.6180278768
 20
11.688987962
 30
0.0
 11
4.6849128624
 21
11.688987962
 31
0.0
  0
LINE
  5
102
330
1F
100
AcDbEntity
  8
0
  6
Continuous
 62
     7
370
    25
100
AcDbLine
 10
4.5738895515
 20
11.7154825023
 30
0.0
 11
4.5738628923
 21
11.7146527044
 31
0.0
  0
SPLINE
  5
103
330
1F
100
AcDbEntity
  8
0
  6
Continuous
 62
     7
370
    25
100
AcDbSpline
210
0.0
220
0.0
230
1.0
 70
     8
 71
     3
 72
     9
 73
     5
 74
     0
 42
0.00000001
 43
0.00000001
 40
0.0
 40
0.0
 40
0.0
 40
0.0
 40
0.5058031042358256
 40
0.9999999999999999
 40
0.9999999999999999
 40
0.9999999999999999
 40
0.9999999999999999
 10
4.615254255300854
 20
11.68598796196769
 30
0.0
 10
4.606459025765694
 20
11.68901481439868
 30
0.0
 10
4.589070382909401
 20
11.69499906480291
 30
0.0
 10
4.578910522816879
 20
11.70870772500589
 30
0.0
 10
4.573889551497757
 20
11.71548250232329
 30
0.0
  0
LINE
  5
104
330
1F
100
AcDbEntity
  8
0
  6
Continuous
 62
     7
370
    25
100
AcDbLine
 10
4.5739242164
 20
11.5812400993
 30
0.0
 11
4.6819673437
 21
11.5812400993
 31
0.0
  0
LINE
  5
105
330
1F
100
AcDbEntity
  8
0
  6
Continuous
 62
     7
370
    25
100
AcDbLine
 10
4.5738628923
 20
11.5829825262
 30
0.0
 11
4.5739242164
 21
11.5812400993
 31
0.0
  0
LINE
  5
106
330
1F
100
AcDbEntity
  8
0
  6
Continuous
 62
     7
370
    25
100
AcDbLine
 10
4.5738628923
 20
11.5829825262
 30
0.0
 11
4.5738628923
 21
11.7146527044
 31
0.0
  0
SPLINE
  5
107
330
1F
100
AcDbEntity
  8
0
  6
Continuous
 62
     7
370
    25
100
AcDbSpline
210
0.0
220
0.0
230
1.0
 70
     8
 71
     3
 72
    12
 73
     8
 74
     0
 42
0.00000001
 43
0.00000001
 40
0.0
 40
0.0
 40
0.0
 40
0.0
 40
0.0130781908277869
 40
0.1682487970431754
 40
0.4796432328572025
 40
0.738953374262657
 40
0.9999999999999999
 40
0.9999999999999999
 40
0.9999999999999999
 40
0.9999999999999999
 10
4.577687863326641
 20
11.57665840240625
 30
0.0
 10
4.577662713745884
 20
11.57666785518673
 30
0.0
 10
4.577339168481522
 20
11.57678946366956
 30
0.0
 10
4.576447383434571
 20
11.57720932626533
 30
0.0
 10
4.575271370532913
 20
11.57813586572703
 30
0.0
 10
4.574244049659727
 20
11.57956434619878
 30
0.0
 10
4.574031064394661
 20
11.58068027359315
 30
0.0
 10
4.573924216385202
 20
11.58124009927288
 30
0.0
  0
SPLINE
  5
108
330
1F
100
AcDbEntity
  8
0
  6
Continuous
 62
     7
370
    25
100
AcDbSpline
210
0.0
220
0.0
230
1.0
 70
     8
 71
     3
 72
     9
 73
     5
 74
     0
 42
0.00000001
 43
0.00000001
 40
0.0
 40
0.0
 40
0.0
 40
0.0
 40
0.4852580261333772
 40
1.0
 40
1.0
 40
1.0
 40
1.0
 10
4.577776615819018
 20
11.71746480185098
 30
0.0
 10
4.582594154247469
 20
11.71105158761472
 30
0.0
 10
4.592521941463765
 20
11.69783549660565
 30
0.0
 10
4.609360410207969
 20
11.69199454495144
 30
0.0
 10
4.618027876846251
 20
11.68898796196769
 30
0.0
  0
SPLINE
  5
109
330
1F
100
AcDbEntity
  8
0
  6
Continuous
 62
     7
370
    25
100
AcDbSpline
210
0.0
220
0.0
230
1.0
 70
     8
 71
     3
 72
     9
 73
     5
 74
     0
 42
0.00000001
 43
0.00000001
 40
0.0
 40
0.0
 40
0.0
 40
0.0
 40
0.5205564344219638
 40
1.0
 40
1.0
 40
1.0
 40
1.0
 10
4.68247403525053
 20
11.68898796196769
 30
0.0
 10
4.673783547268366
 20
11.69205072920588
 30
0.0
 10
4.657088934720136
 20
11.69793437031693
 30
0.0
 10
4.648278917822151
 20
11.71113557108488
 30
0.0
 10
4.644055011907779
 20
11.71746480185098
 30
0.0
  0
LINE
  5
10A
330
1F
100
AcDbEntity
  8
0
  6
Continuous
 62
     7
370
    25
100
AcDbLine
 10
4.6458660543
 20
11.7159577947
 30
0.0
 11
4.6588229192
 21
11.7000267155
 31
0.0
  0
SPLINE
  5
10B
330
1F
100
AcDbEntity
  8
0
  6
Continuous
 62
     7
370
    25
100
AcDbSpline
210
0.0
220
0.0
230
1.0
 70
     8
 71
     3
 72
     9
 73
     5
 74
     0
 42
0.00000001
 43
0.00000001
 40
0.0
 40
0.0
 40
0.0
 40
0.0
 40
0.4162339174578266
 40
1.0
 40
1.0
 40
1.0
 40
1.0
 10
5.607329596353464
 20
11.56193102889573
 30
0.0
 10
5.616407840438308
 20
11.56379665642125
 30
0.0
 10
5.638218278521515
 20
11.56827881764665
 30
0.0
 10
5.658788249199737
 20
11.57756283296814
 30
0.0
 10
5.67079630040057
 20
11.58298252622263
 30
0.0
  0
LINE
  5
10C
330
1F
100
AcDbEntity
  8
0
  6
Continuous
 62
     7
370
    25
100
AcDbLine
 10
5.6707963004
 20
11.5829825262
 30
0.0
 11
5.6707349763
 21
11.5812400993
 31
0.0
  0
SPLINE
  5
10D
330
1F
100
AcDbEntity
  8
0
  6
Continuous
 62
     7
370
    25
100
AcDbSpline
210
0.0
220
0.0
230
1.0
 70
     8
 71
     3
 72
    12
 73
     8
 74
     0
 42
0.00000001
 43
0.00000001
 40
0.0
 40
0.0
 40
0.0
 40
0.0
 40
0.2610466257365875
 40
0.5203567671403801
 40
0.8317512029543029
 40
0.9869218091726257
 40
0.9999999999999999
 40
0.9999999999999999
 40
0.9999999999999999
 40
0.9999999999999999
 10
5.670734976321744
 20
11.58124009927288
 30
0.0
 10
5.670628128312284
 20
11.58068027359315
 30
0.0
 10
5.670415143047217
 20
11.57956434619879
 30
0.0
 10
5.669387822174045
 20
11.57813586572704
 30
0.0
 10
5.668211809272367
 20
11.57720932626532
 30
0.0
 10
5.667320024225435
 20
11.57678946366958
 30
0.0
 10
5.666996478961059
 20
11.57666785518673
 30
0.0
 10
5.666971329380302
 20
11.57665840240625
 30
0.0
  0
SPLINE
  5
10E
330
1F
100
AcDbEntity
  8
0
  6
Continuous
 62
     7
370
    25
100
AcDbSpline
210
0.0
220
0.0
230
1.0
 70
     8
 71
     3
 72
     9
 73
     5
 74
     0
 42
0.00000001
 43
0.00000001
 40
0.0
 40
0.0
 40
0.0
 40
0.0
 40
0.7268678013213501
 40
1.0
 40
1.0
 40
1.0
 40
1.0
 10
5.598850793084934
 20
11.71465270444166
 30
0.0
 10
5.598845441297056
 20
11.71498243958375
 30
0.0
 10
5.59883807848931
 20
11.71543607797783
 30
0.0
 10
5.598802779635753
 20
11.71584586788773
 30
0.0
 10
5.598793138382271
 20
11.71595779470682
 30
0.0
  0
LINE
  5
10F
330
1F
100
AcDbEntity
  8
0
  6
Continuous
 62
     7
370
    25
100
AcDbLine
 10
5.6707696412
 20
11.7154825023
 30
0.0
 11
5.6707963004
 21
11.7146527044
 31
0.0
  0
LINE
  5
110
330
1F
100
AcDbEntity
  8
0
  6
Continuous
 62
     7
370
    25
100
AcDbLine
 10
5.6707963004
 20
11.7146527044
 30
0.0
 11
5.5988507931
 21
11.7146527044
 31
0.0
  0
LINE
  5
111
330
1F
100
AcDbEntity
  8
0
  6
Continuous
 62
     7
370
    25
100
AcDbLine
 10
5.5988507931
 20
11.7146527044
 30
0.0
 11
5.5988507931
 21
11.688987962
 31
0.0
  0
LINE
  5
112
330
1F
100
AcDbEntity
  8
0
  6
Continuous
 62
     7
370
    25
100
AcDbLine
 10
5.6707963004
 20
11.5829825262
 30
0.0
 11
5.6707963004
 21
11.7146527044
 31
0.0
  0
LINE
  5
113
330
1F
100
AcDbEntity
  8
0
  6
Continuous
 62
     7
370
    25
100
AcDbLine
 10
5.5987931384
 20
11.7159577947
 30
0.0
 11
5.5883371038
 21
11.7031016049
 31
0.0
  0
LINE
  5
114
330
1F
100
AcDbEntity
  8
0
  6
Continuous
 62
     7
370
    25
100
AcDbLine
 10
5.5884518451
 20
11.7029451848
 30
0.0
 11
5.6006041808
 21
11.7174648019
 31
0.0
  0
CIRCLE
  5
115
330
1F
100
AcDbEntity
  8
0
  6
Continuous
 62
     7
370
    25
100
AcDbCircle
 10
5.1223295964
 20
12.4674648019
 30
0.0
 40
0.1575000000000011
  0
LINE
  5
116
330
1F
100
AcDbEntity
  8
0
  6
Continuous
 62
     7
370
    25
100
AcDbLine
 10
5.0433886781
 20
12.5477351664
 30
0.0
 11
5.0133429623
 21
12.4392351436
 31
0.0
  0
LINE
  5
117
330
1F
100
AcDbEntity
  8
0
  6
Continuous
 62
     7
370
    25
100
AcDbLine
 10
5.0133429623
 20
12.4392351436
 30
0.0
 11
5.0922838806
 21
12.358964779
 31
0.0
  0
LINE
  5
118
330
1F
100
AcDbEntity
  8
0
  6
Continuous
 62
     7
370
    25
100
AcDbLine
 10
5.0922838806
 20
12.358964779
 30
0.0
 11
5.2012705146
 21
12.3871944373
 31
0.0
  0
LINE
  5
119
330
1F
100
AcDbEntity
  8
0
  6
Continuous
 62
     7
370
    25
100
AcDbLine
 10
5.2012705146
 20
12.3871944373
 30
0.0
 11
5.2313162304
 21
12.4956944601
 31
0.0
  0
LINE
  5
11A
330
1F
100
AcDbEntity
  8
0
  6
Continuous
 62
     7
370
    25
100
AcDbLine
 10
5.2313162304
 20
12.4956944601
 30
0.0
 11
5.1523753121
 21
12.5759648247
 31
0.0
  0
LINE
  5
11B
330
1F
100
AcDbEntity
  8
0
  6
Continuous
 62
     7
370
    25
100
AcDbLine
 10
5.1523753121
 20
12.5759648247
 30
0.0
 11
5.0433886781
 21
12.5477351664
 31
0.0
  0
CIRCLE
  5
11C
330
1F
100
AcDbEntity
  8
0
  6
Continuous
 62
     7
370
    25
100
AcDbCircle
 10
5.1223295964
 20
12.4674648019
 30
0.0
 40
0.0967500000000007
  0
ARC
  5
11D
330
1F
100
AcDbEntity
  8
0
  6
Continuous
 62
     7
370
    25
100
AcDbCircle
 10
5.1223295964
 20
14.4054648019
 30
0.0
 40
0.1082531754730882
100
AcDbArc
 50
249.6168172823
 51
309.6168172823
  0
SPLINE
  5
11E
330
1F
100
AcDbEntity
  8
0
  6
Continuous
 62
     7
370
    25
100
AcDbSpline
210
0.0
220
0.0
230
1.0
 70
    24
 71
     3
 72
    10
 73
     6
 74
     0
 42
0.00000001
 43
0.00000001
 40
0.0
 40
0.0
 40
0.0
 40
0.0
 40
0.4391249614229249
 40
0.7513736477007492
 40
1.0
 40
1.0
 40
1.0
 40
1.0
 10
5.084625348305386
 20
14.30398997896805
 30
0.0
 10
5.099905160912116
 20
14.30657897923844
 30
0.0
 10
5.126049993347285
 20
14.31100894052043
 30
0.0
 10
5.164055661319437
 20
14.31744859309907
 30
0.0
 10
5.182971969527106
 20
14.32065375852383
 30
0.0
 10
5.191357246790599
 20
14.32207455376923
 30
0.0
  0
ARC
  5
11F
330
1F
100
AcDbEntity
  8
0
  6
Continuous
 62
     7
370
    25
100
AcDbCircle
 10
5.1223295964
 20
14.4054648019
 30
0.0
 40
0.1082531754730484
100
AcDbArc
 50
129.6168172822
 51
189.6168172823
  0
SPLINE
  5
120
330
1F
100
AcDbEntity
  8
0
  6
Continuous
 62
     7
370
    25
100
AcDbSpline
210
0.0
220
0.0
230
1.0
 70
    24
 71
     3
 72
    10
 73
     6
 74
     0
 42
0.00000001
 43
0.00000001
 40
0.0
 40
0.0
 40
0.0
 40
0.0
 40
0.439124961423053
 40
0.7513736477006228
 40
1.0
 40
1.0
 40
1.0
 40
1.0
 10
5.053301945916461
 20
14.48885504993276
 30
0.0
 10
5.047904179617617
 20
14.47432784391506
 30
0.0
 10
5.038668222407955
 20
14.44947077420752
 30
0.0
 10
5.025242291146561
 20
14.41333707396647
 30
0.0
 10
5.018559891723907
 20
14.39535248780041
 30
0.0
 10
5.015597697868254
 20
14.38738022704974
 30
0.0
  0
ARC
  5
121
330
1F
100
AcDbEntity
  8
0
  6
Continuous
 62
     7
370
    25
100
AcDbCircle
 10
5.1223295964
 20
14.4054648019
 30
0.0
 40
0.1082531754731164
100
AcDbArc
 50
309.6168172823
 51
9.6168172823
  0
SPLINE
  5
122
330
1F
100
AcDbEntity
  8
0
  6
Continuous
 62
     7
370
    25
100
AcDbSpline
210
0.0
220
0.0
230
1.0
 70
    24
 71
     3
 72
    10
 73
     6
 74
     0
 42
0.00000001
 43
0.00000001
 40
0.0
 40
0.0
 40
0.0
 40
0.0
 40
0.4391249614223944
 40
0.7513736477011523
 40
1.0
 40
1.0
 40
1.0
 40
1.0
 10
5.191357246790599
 20
14.32207455376923
 30
0.0
 10
5.196755013089399
 20
14.33660175978691
 30
0.0
 10
5.205990970299005
 20
14.36145882949447
 30
0.0
 10
5.219416901560467
 20
14.39759252973549
 30
0.0
 10
5.226099300983106
 20
14.41557711590156
 30
0.0
 10
5.229061494838742
 20
14.42354937665221
 30
0.0
  0
SPLINE
  5
123
330
1F
100
AcDbEntity
  8
0
  6
Continuous
 62
     7
370
    25
100
AcDbSpline
210
0.0
220
0.0
230
1.0
 70
    24
 71
     3
 72
    10
 73
     6
 74
     0
 42
0.00000001
 43
0.00000001
 40
0.0
 40
0.0
 40
0.0
 40
0.0
 40
0.4391249614232428
 40
0.7513736477014447
 40
1.0
 40
1.0
 40
1.0
 40
1.0
 10
5.160033844401639
 20
14.50693962473395
 30
0.0
 10
5.144754031794903
 20
14.50435062446356
 30
0.0
 10
5.118609199359716
 20
14.49992066318157
 30
0.0
 10
5.080603531387578
 20
14.49348101060284
 30
0.0
 10
5.061687223179927
 20
14.49027584517813
 30
0.0
 10
5.053301945916461
 20
14.48885504993276
 30
0.0
  0
ARC
  5
124
330
1F
100
AcDbEntity
  8
0
  6
Continuous
 62
     7
370
    25
100
AcDbCircle
 10
5.1223295964
 20
14.4054648019
 30
0.0
 40
0.1082531754730976
100
AcDbArc
 50
69.6168172822
 51
129.6168172822
  0
SPLINE
  5
125
330
1F
100
AcDbEntity
  8
0
  6
Continuous
 62
     7
370
    25
100
AcDbSpline
210
0.0
220
0.0
230
1.0
 70
    24
 71
     3
 72
    11
 73
     7
 74
     0
 42
0.00000001
 43
0.00000001
 40
0.0
 40
0.0
 40
0.0
 40
0.0
 40
0.18094224651971
 40
0.5062925772655451
 40
0.8439745107796215
 40
1.0
 40
1.0
 40
1.0
 40
1.0
 10
5.015597697868254
 20
14.38738022704974
 30
0.0
 10
5.019529125844747
 20
14.38263078603304
 30
0.0
 10
5.030529612689787
 20
14.36934142559255
 30
0.0
 10
5.05087374003016
 20
14.34476429142686
 30
0.0
 10
5.070539260540873
 20
14.32100696195588
 30
0.0
 10
5.081242744939879
 20
14.30807640132234
 30
0.0
 10
5.084625348305386
 20
14.30398997896805
 30
0.0
  0
ARC
  5
126
330
1F
100
AcDbEntity
  8
0
  6
Continuous
 62
     7
370
    25
100
AcDbCircle
 10
5.1223295964
 20
14.4054648019
 30
0.0
 40
0.1082531754730484
100
AcDbArc
 50
189.6168172823
 51
249.6168172823
  0
ARC
  5
127
330
1F
100
AcDbEntity
  8
0
  6
Continuous
 62
     7
370
    25
100
AcDbCircle
 10
5.1223295964
 20
14.4054648019
 30
0.0
 40
0.1082531754731164
100
AcDbArc
 50
9.6168172823
 51
69.6168172822
  0
SPLINE
  5
128
330
1F
100
AcDbEntity
  8
0
  6
Continuous
 62
     7
370
    25
100
AcDbSpline
210
0.0
220
0.0
230
1.0
 70
    24
 71
     3
 72
    11
 73
     7
 74
     0
 42
0.00000001
 43
0.00000001
 40
0.0
 40
0.0
 40
0.0
 40
0.0
 40
0.1560254891886948
 40
0.4937074226655719
 40
0.8190577533760088
 40
1.0
 40
1.0
 40
1.0
 40
1.0
 10
5.229061494838742
 20
14.42354937665221
 30
0.0
 10
5.225678891473938
 20
14.42763579900568
 30
0.0
 10
5.214975407076478
 20
14.44056635963743
 30
0.0
 10
5.195309886568625
 20
14.46432368910489
 30
0.0
 10
5.17496575922697
 20
14.48890082327192
 30
0.0
 10
5.163965272380406
 20
14.50219018371444
 30
0.0
 10
5.160033844401639
 20
14.50693962473395
 30
0.0
  0
CIRCLE
  5
129
330
1F
100
AcDbEntity
  8
0
  6
Continuous
 62
     7
370
    25
100
AcDbCircle
 10
5.1223295964
 20
14.4054648019
 30
0.0
 40
0.1687500000000012
  0
CIRCLE
  5
12A
330
1F
100
AcDbEntity
  8
0
  6
Continuous
 62
     7
370
    25
100
AcDbCircle
 10
5.1223295964
 20
14.4054648019
 30
0.0
 40
0.1875000000000007
  0
LINE
  5
12B
330
1F
100
AcDbEntity
  8
0
  6
Continuous
 62
     7
370
    25
100
AcDbLine
 10
5.8673295964
 20
13.5874648019
 30
0.0
 11
5.8673295964
 21
14.4054648019
 31
0.0
  0
LINE
  5
12C
330
1F
100
AcDbEntity
  8
0
  6
Continuous
 62
     7
370
    25
100
AcDbLine
 10
4.3773295964
 20
14.4054648019
 30
0.0
 11
4.3773295964
 21
13.5874648019
 31
0.0
  0
LINE
  5
12D
330
1F
100
AcDbEntity
  8
0
  6
Continuous
 62
     7
370
    25
100
AcDbLine
 10
4.9270170964
 20
14.4054648019
 30
0.0
 11
4.3773295964
 21
14.4054648019
 31
0.0
  0
SPLINE
  5
12E
330
1F
100
AcDbEntity
  8
0
  6
Continuous
 62
     7
370
    25
100
AcDbSpline
210
0.0
220
0.0
230
1.0
 70
     8
 71
     3
 72
    17
 73
    13
 74
     0
 42
0.00000001
 43
0.00000001
 40
0.0
 40
0.0
 40
0.0
 40
0.0
 40
0.1048327141697722
 40
0.2095765072388658
 40
0.3166109314861626
 40
0.4252646270477367
 40
0.5314898903667566
 40
0.6351464711814786
 40
0.7398351710609884
 40
0.8476277085572528
 40
0.9560054683794277
 40
1.0
 40
1.0
 40
1.0
 40
1.0
 10
5.317642096353464
 20
14.40546480185098
 30
0.0
 10
5.315558960865221
 20
14.38392690007109
 30
0.0
 10
5.311394456843846
 20
14.34086936536896
 30
0.0
 10
5.279022223892613
 20
14.28327982724593
 30
0.0
 10
5.230756032755377
 20
14.23848032561128
 30
0.0
 10
5.169306355663494
 20
14.21200326954371
 30
0.0
 10
5.103023795626029
 20
14.20748161730359
 30
0.0
 10
5.039909028268418
 20
14.22453076425821
 30
0.0
 10
4.985646473586187
 20
14.2608970764296
 30
0.0
 10
4.945818982094389
 20
14.31365129126114
 30
0.0
 10
4.928711018059695
 20
14.36529695881233
 30
0.0
 10
4.927396606959709
 20
14.39646549426365
 30
0.0
 10
4.927017096353462
 20
14.40546480185098
 30
0.0
  0
LINE
  5
12F
330
1F
100
AcDbEntity
  8
0
  6
Continuous
 62
     7
370
    25
100
AcDbLine
 10
5.8673295964
 20
14.4054648019
 30
0.0
 11
5.3176420964
 21
14.4054648019
 31
0.0
  0
LINE
  5
130
330
1F
100
AcDbEntity
  8
0
  6
Continuous
 62
     7
370
    25
100
AcDbLine
 10
5.8673295964
 20
11.7174648019
 30
0.0
 11
4.3773295964
 21
11.7174648019
 31
0.0
  0
SPLINE
  5
131
330
1F
100
AcDbEntity
  8
0
  6
Continuous
 62
     7
370
    25
100
AcDbSpline
210
0.0
220
0.0
230
1.0
 70
     8
 71
     3
 72
    11
 73
     7
 74
     0
 42
0.00000001
 43
0.00000001
 40
0.0
 40
0.0
 40
0.0
 40
0.0
 40
0.3015022284628076
 40
0.6028513990675946
 40
0.908200995847549
 40
1.0
 40
1.0
 40
1.0
 40
1.0
 10
5.122329596353463
 20
12.31121480185098
 30
0.0
 10
5.104911134699584
 20
12.31287516495515
 30
0.0
 10
5.070083053888429
 20
12.31619504827877
 30
0.0
 10
5.02465807717773
 20
12.34291617112839
 30
0.0
 10
4.994710383739656
 20
12.37140210311652
 30
0.0
 10
4.986552199594834
 20
12.39269529849822
 30
0.0
 10
4.984666474255681
 20
12.39761711901245
 30
0.0
  0
SPLINE
  5
132
330
1F
100
AcDbEntity
  8
0
  6
Continuous
 62
     7
370
    25
100
AcDbSpline
210
0.0
220
0.0
230
1.0
 70
     8
 71
     3
 72
    13
 73
     9
 74
     0
 42
0.00000001
 43
0.00000001
 40
0.0
 40
0.0
 40
0.0
 40
0.0
 40
0.0136355742005503
 40
0.235439272283113
 40
0.4589178705374909
 40
0.6868149729836995
 40
0.9150828251017786
 40
0.9999999999999999
 40
0.9999999999999999
 40
0.9999999999999999
 40
0.9999999999999999
 10
4.967148020657387
 20
12.48079584241879
 30
0.0
 10
4.967073285830975
 20
12.48184700974935
 30
0.0
 10
4.965782873495884
 20
12.49999703905618
 30
0.0
 10
4.979341726076281
 20
12.53471029155974
 30
0.0
 10
5.007606948909518
 20
12.57834052762564
 30
0.0
 10
5.050810360932517
 20
12.60901677877043
 30
0.0
 10
5.091447942685616
 20
12.62413558846763
 30
0.0
 10
5.115674979801328
 20
12.62219770927131
 30
0.0
 10
5.122243913085336
 20
12.62167227155095
 30
0.0
  0
SPLINE
  5
133
330
1F
100
AcDbEntity
  8
0
  6
Continuous
 62
     7
370
    25
100
AcDbSpline
210
0.0
220
0.0
230
1.0
 70
     8
 71
     3
 72
     9
 73
     5
 74
     0
 42
0.00000001
 43
0.00000001
 40
0.0
 40
0.0
 40
0.0
 40
0.0
 40
0.4799512667880039
 40
1.0
 40
1.0
 40
1.0
 40
1.0
 10
5.195772221755131
 20
12.33169815629758
 30
0.0
 10
5.184813182648387
 20
12.32574473790235
 30
0.0
 10
5.161979532932063
 20
12.3133405235431
 30
0.0
 10
5.135894884649231
 20
12.31194206726622
 30
0.0
 10
5.122329596353463
 20
12.31121480185098
 30
0.0
  0
ARC
  5
134
330
1F
100
AcDbEntity
  8
0
  6
Continuous
 62
     7
370
    25
100
AcDbCircle
 10
5.1223295964
 20
14.4054648019
 30
0.0
 40
0.7450000000000001
100
AcDbArc
 50
0.0
 51
180.0
  0
ARC
  5
135
330
1F
100
AcDbEntity
  8
0
  6
Continuous
 62
     7
370
    25
100
AcDbCircle
 10
5.1223295964
 20
14.4054648019
 30
0.0
 40
0.1953125000000009
100
AcDbArc
 50
0.0
 51
180.0
  0
LINE
  5
136
330
1F
100
AcDbEntity
  8
0
  6
Continuous
 62
     7
370
    25
100
AcDbLine
 10
5.7233703604
 20
15.0065055659
 30
0.0
 11
6.7734239304
 21
13.9564519958
 31
0.0
  0
LINE
  5
137
330
1F
100
AcDbEntity
  8
0
  6
Continuous
 62
     7
370
    25
100
AcDbLine
 10
4.6733167903
 20
16.0565591359
 30
0.0
 11
5.7233703604
 21
15.0065055659
 31
0.0
  0
LINE
  5
138
330
1F
100
AcDbEntity
  8
0
  6
Continuous
 62
     7
370
    25
100
AcDbLine
 10
8.7356452482
 20
18.0187804537
 30
0.0
 11
7.6855916782
 21
19.0688340238
 31
0.0
  0
LINE
  5
139
330
1F
100
AcDbEntity
  8
0
  6
Continuous
 62
     7
370
    25
100
AcDbLine
 10
9.7856988183
 20
16.9687268837
 30
0.0
 11
8.7356452482
 21
18.0187804537
 31
0.0
  0
LINE
  5
13A
330
1F
100
AcDbEntity
  8
0
  6
Continuous
 62
     7
370
    25
100
AcDbLine
 10
5.7021571569
 20
14.9852923624
 30
0.0
 11
4.6733167903
 21
16.0141327291
 31
0.0
  0
LINE
  5
13B
330
1F
100
AcDbEntity
  8
0
  6
Continuous
 62
     7
370
    25
100
AcDbLine
 10
6.7309975236
 20
13.9564519958
 30
0.0
 11
5.7021571569
 21
14.9852923624
 31
0.0
  0
LINE
  5
13C
330
1F
100
AcDbEntity
  8
0
  6
Continuous
 62
     7
370
    25
100
AcDbLine
 10
5.1683034015
 20
15.5050039823
 30
0.0
 11
6.2218687768
 21
14.451438607
 31
0.0
  0
LINE
  5
13D
330
1F
100
AcDbEntity
  8
0
  6
Continuous
 62
     7
370
    25
100
AcDbLine
 10
5.1683034015
 20
15.5050039823
 30
0.0
 11
4.5955469087
 21
14.9322474895
 31
0.0
  0
LINE
  5
13E
330
1F
100
AcDbEntity
  8
0
  6
Continuous
 62
     7
370
    25
100
AcDbLine
 10
6.2218687768
 20
14.451438607
 30
0.0
 11
5.8673295964
 21
14.0968994266
 31
0.0
  0
LINE
  5
13F
330
1F
100
AcDbEntity
  8
0
  6
Continuous
 62
     7
370
    25
100
AcDbLine
 10
4.6507750156
 20
11.5544176286
 30
0.0
 11
4.6416411432
 21
11.5544176286
 31
0.0
  0
LINE
  5
140
330
1F
100
AcDbEntity
  8
0
  6
Continuous
 62
     7
370
    25
100
AcDbLine
 10
5.6030180495
 20
11.5544176286
 30
0.0
 11
5.5744358401
 21
11.5544176286
 31
0.0
  0
DIMENSION
  5
141
330
1F
100
AcDbEntity
  8
SLD-0
100
AcDbDimension
  2
_D
 10
9.9833604775
 20
24.2366986202
 30
0.0
 11
6.3102943027
 21
20.5636324453
 31
0.0
 70
   160
  1
<>
 71
     2
 42
-1.0
  3
SLDDIMSTYLE0
100
AcDbAlignedDimension
 13
5.1223295964
 23
14.4054648019
 33
0.0
 14
11.418408376
 24
22.8016507217
 34
0.0
 50
45.0
100
AcDbRotatedDimension
  0
DIMENSION
  5
157
330
1F
100
AcDbEntity
  8
0
  6
Continuous
 62
     7
370
    18
100
AcDbDimension
  2
_D_1
 10
10.9845699351
 20
15.7910689703
 30
0.0
 11
9.1726088083
 21
13.9791078435
 31
0.0
 70
   160
  1
<>
 71
     2
 42
-1.0
  3
SLDDIMSTYLE0
100
AcDbAlignedDimension
 13
5.1223295964
 23
14.4054648019
 33
0.0
 14
9.79630542
 24
16.9793334854
 34
0.0
 50
45.0
100
AcDbRotatedDimension
  0
DIMENSION
  5
16B
330
1F
100
AcDbEntity
  8
0
  6
Continuous
 62
     7
370
    18
100
AcDbDimension
  2
_D_2
 10
2.7857416922
 20
11.7174648019
 30
0.0
 11
2.7857416922
 21
13.0614648019
 31
0.0
 70
   160
  1
<>
 71
     2
 42
-1.0
  3
SLDDIMSTYLE1
100
AcDbAlignedDimension
 13
4.3773295964
 23
14.4054648019
 33
0.0
 14
4.3773295964
 24
11.7174648019
 34
0.0
 50
90.0
100
AcDbRotatedDimension
  0
DIMENSION
  5
180
330
1F
100
AcDbEntity
  8
SLD-0
100
AcDbDimension
  2
_D_3
 10
14.4863732089
 20
21.6694012743
 30
0.0
 11
13.4363196388
 21
22.7194548443
 31
0.0
 70
   160
  1
%%c<>
 71
     2
 42
-1.0
  3
SLDDIMSTYLE2
100
AcDbAlignedDimension
 13
11.418408376
 23
22.8016507217
 33
0.0
 14
9.9249988542
 24
17.1080269195
 34
0.0
 50
-45.0
100
AcDbRotatedDimension
  0
MTEXT
  5
194
330
1F
100
AcDbEntity
  8
SLD-0
100
AcDbMText
 10
9.138734154
 20
10.2825023917
 30
0.0
 40
0.4133858268
 41
0.0
 71
     2
 72
     1
  1
1/2" PIPE THREAD
  7
SLDTEXTSTYLE0
 73
     1
 44
1.0
  0
MTEXT
  5
195
330
1F
100
AcDbEntity
  8
SLD-0
100
AcDbMText
 10
9.1479203573
 20
9.7479715417
 30
0.0
 40
0.4133858268
 41
0.0
 71
     2
 72
     1
  1
FOR MOUNTING
  7
SLDTEXTSTYLE0
 73
     1
 44
1.0
  0
LEADER
  5
197
330
1F
100
AcDbEntity
  8
SLD-0
100
AcDbLeader
  3
SLDDIMSTYLE3
 76
     3
 10
5.5139667829
 20
11.1081940858
 30
0.0
 10
6.1283296634
 20
10.0913483375
 30
0.0
 10
6.8783296634
 20
10.0913483375
 30
0.0
  0
LINE
  5
198
330
1F
100
AcDbEntity
  8
0
  6
Continuous
 62
     7
370
    25
100
AcDbLine
 10
26.7161485128
 20
18.2426160065
 30
0.0
 11
26.717908116
 21
18.2479178362
 31
0.0
  0
LINE
  5
199
330
1F
100
AcDbEntity
  8
0
  6
Continuous
 62
     7
370
    25
100
AcDbLine
 10
26.6735927053
 20
18.3560101064
 30
0.0
 11
26.6725728296
 21
18.356530985
 31
0.0
  0
LINE
  5
19A
330
1F
100
AcDbEntity
  8
0
  6
Continuous
 62
     7
370
    25
100
AcDbLine
 10
24.6111120593
 20
16.7396186898
 30
0.0
 11
24.6115292264
 21
16.7384387631
 31
0.0
  0
LINE
  5
19B
330
1F
100
AcDbEntity
  8
0
  6
Continuous
 62
     7
370
    25
100
AcDbLine
 10
26.7443599824
 20
18.4541372643
 30
0.0
 11
24.2486112711
 21
21.9836589402
 31
0.0
  0
LINE
  5
19C
330
1F
100
AcDbEntity
  8
0
  6
Continuous
 62
     7
370
    25
100
AcDbLine
 10
23.0361138484
 20
18.5541983412
 30
0.0
 11
24.3193651371
 21
16.7394069648
 31
0.0
  0
ARC
  5
19D
330
1F
100
AcDbEntity
  8
0
  6
Continuous
 62
     7
370
    25
100
AcDbCircle
 10
27.6588625598
 20
11.254085151
 30
0.0
 40
0.0350000000000024
100
AcDbArc
 50
118.479027325
 51
176.2520333009
  0
ARC
  5
19E
330
1F
100
AcDbEntity
  8
0
  6
Continuous
 62
     7
370
    25
100
AcDbCircle
 10
28.5298625598
 20
11.254085151
 30
0.0
 40
0.0350000000000025
100
AcDbArc
 50
3.7479666991
 51
61.520972675
  0
LINE
  5
19F
330
1F
100
AcDbEntity
  8
0
  6
Continuous
 62
     7
370
    25
100
AcDbLine
 10
27.6883625598
 20
11.076085151
 30
0.0
 11
27.7083625598
 21
11.040585151
 31
0.0
  0
LINE
  5
1A0
330
1F
100
AcDbEntity
  8
0
  6
Continuous
 62
     7
370
    25
100
AcDbLine
 10
28.4803625598
 20
11.040585151
 30
0.0
 11
28.5003625598
 21
11.076085151
 31
0.0
  0
LINE
  5
1A1
330
1F
100
AcDbEntity
  8
0
  6
Continuous
 62
     7
370
    25
100
AcDbLine
 10
27.6883625598
 20
10.934085151
 30
0.0
 11
27.7083625598
 21
10.898585151
 31
0.0
  0
LINE
  5
1A2
330
1F
100
AcDbEntity
  8
0
  6
Continuous
 62
     7
370
    25
100
AcDbLine
 10
28.4803625598
 20
10.898585151
 30
0.0
 11
28.5003625598
 21
10.934085151
 31
0.0
  0
LINE
  5
1A3
330
1F
100
AcDbEntity
  8
0
  6
Continuous
 62
     7
370
    25
100
AcDbLine
 10
27.703411647
 20
11.1203730211
 30
0.0
 11
27.7083625598
 21
11.111585151
 31
0.0
  0
LINE
  5
1A4
330
1F
100
AcDbEntity
  8
0
  6
Continuous
 62
     7
370
    25
100
AcDbLine
 10
28.4803625598
 20
11.111585151
 30
0.0
 11
28.4853134725
 21
11.1203730211
 31
0.0
  0
LINE
  5
1A5
330
1F
100
AcDbEntity
  8
0
  6
Continuous
 62
     7
370
    25
100
AcDbLine
 10
27.6883625598
 20
11.005085151
 30
0.0
 11
27.7083625598
 21
10.969585151
 31
0.0
  0
LINE
  5
1A6
330
1F
100
AcDbEntity
  8
0
  6
Continuous
 62
     7
370
    25
100
AcDbLine
 10
28.4803625598
 20
10.969585151
 30
0.0
 11
28.5003625598
 21
11.005085151
 31
0.0
  0
LINE
  5
1A7
330
1F
100
AcDbEntity
  8
0
  6
Continuous
 62
     7
370
    25
100
AcDbLine
 10
27.6883625598
 20
10.721085151
 30
0.0
 11
27.7083625598
 21
10.685585151
 31
0.0
  0
LINE
  5
1A8
330
1F
100
AcDbEntity
  8
0
  6
Continuous
 62
     7
370
    25
100
AcDbLine
 10
28.4803625598
 20
10.685585151
 30
0.0
 11
28.5003625598
 21
10.721085151
 31
0.0
  0
LINE
  5
1A9
330
1F
100
AcDbEntity
  8
0
  6
Continuous
 62
     7
370
    25
100
AcDbLine
 10
27.6883625598
 20
10.792085151
 30
0.0
 11
27.7083625598
 21
10.756585151
 31
0.0
  0
LINE
  5
1AA
330
1F
100
AcDbEntity
  8
0
  6
Continuous
 62
     7
370
    25
100
AcDbLine
 10
28.4803625598
 20
10.756585151
 30
0.0
 11
28.5003625598
 21
10.792085151
 31
0.0
  0
LINE
  5
1AB
330
1F
100
AcDbEntity
  8
0
  6
Continuous
 62
     7
370
    25
100
AcDbLine
 10
28.5003625598
 20
11.076085151
 30
0.0
 11
28.4803625598
 21
11.111585151
 31
0.0
  0
LINE
  5
1AC
330
1F
100
AcDbEntity
  8
0
  6
Continuous
 62
     7
370
    25
100
AcDbLine
 10
27.7083625598
 20
11.111585151
 30
0.0
 11
27.6883625598
 21
11.076085151
 31
0.0
  0
LINE
  5
1AD
330
1F
100
AcDbEntity
  8
0
  6
Continuous
 62
     7
370
    25
100
AcDbLine
 10
28.5003625598
 20
11.005085151
 30
0.0
 11
28.4803625598
 21
11.040585151
 31
0.0
  0
LINE
  5
1AE
330
1F
100
AcDbEntity
  8
0
  6
Continuous
 62
     7
370
    25
100
AcDbLine
 10
27.7083625598
 20
11.040585151
 30
0.0
 11
27.6883625598
 21
11.005085151
 31
0.0
  0
LINE
  5
1AF
330
1F
100
AcDbEntity
  8
0
  6
Continuous
 62
     7
370
    25
100
AcDbLine
 10
28.5003625598
 20
10.934085151
 30
0.0
 11
28.4803625598
 21
10.969585151
 31
0.0
  0
LINE
  5
1B0
330
1F
100
AcDbEntity
  8
0
  6
Continuous
 62
     7
370
    25
100
AcDbLine
 10
27.7083625598
 20
10.969585151
 30
0.0
 11
27.6883625598
 21
10.934085151
 31
0.0
  0
LINE
  5
1B1
330
1F
100
AcDbEntity
  8
0
  6
Continuous
 62
     7
370
    25
100
AcDbLine
 10
28.5003625598
 20
10.863085151
 30
0.0
 11
28.4803625598
 21
10.898585151
 31
0.0
  0
LINE
  5
1B2
330
1F
100
AcDbEntity
  8
0
  6
Continuous
 62
     7
370
    25
100
AcDbLine
 10
27.7083625598
 20
10.898585151
 30
0.0
 11
27.6883625598
 21
10.863085151
 31
0.0
  0
LINE
  5
1B3
330
1F
100
AcDbEntity
  8
0
  6
Continuous
 62
     7
370
    25
100
AcDbLine
 10
27.6883625598
 20
10.863085151
 30
0.0
 11
27.7083625598
 21
10.827585151
 31
0.0
  0
LINE
  5
1B4
330
1F
100
AcDbEntity
  8
0
  6
Continuous
 62
     7
370
    25
100
AcDbLine
 10
28.4803625598
 20
10.827585151
 30
0.0
 11
28.5003625598
 21
10.863085151
 31
0.0
  0
LINE
  5
1B5
330
1F
100
AcDbEntity
  8
0
  6
Continuous
 62
     7
370
    25
100
AcDbLine
 10
28.5003625598
 20
10.721085151
 30
0.0
 11
28.4803625598
 21
10.756585151
 31
0.0
  0
LINE
  5
1B6
330
1F
100
AcDbEntity
  8
0
  6
Continuous
 62
     7
370
    25
100
AcDbLine
 10
27.7083625598
 20
10.756585151
 30
0.0
 11
27.6883625598
 21
10.721085151
 31
0.0
  0
LINE
  5
1B7
330
1F
100
AcDbEntity
  8
0
  6
Continuous
 62
     7
370
    25
100
AcDbLine
 10
28.5003625598
 20
10.792085151
 30
0.0
 11
28.4803625598
 21
10.827585151
 31
0.0
  0
LINE
  5
1B8
330
1F
100
AcDbEntity
  8
0
  6
Continuous
 62
     7
370
    25
100
AcDbLine
 10
27.7083625598
 20
10.827585151
 30
0.0
 11
27.6883625598
 21
10.792085151
 31
0.0
  0
LINE
  5
1B9
330
1F
100
AcDbEntity
  8
0
  6
Continuous
 62
     7
370
    25
100
AcDbLine
 10
28.4924752358
 20
10.664085151
 30
0.0
 11
28.4803625598
 21
10.685585151
 31
0.0
  0
LINE
  5
1BA
330
1F
100
AcDbEntity
  8
0
  6
Continuous
 62
     7
370
    25
100
AcDbLine
 10
27.7083625598
 20
10.685585151
 30
0.0
 11
27.6962498837
 21
10.664085151
 31
0.0
  0
ARC
  5
1BB
330
1F
100
AcDbEntity
  8
0
  6
Continuous
 62
     7
370
    25
100
AcDbCircle
 10
28.5337438256
 20
11.4189452736
 30
0.0
 40
0.3000000000000018
100
AcDbArc
 50
275.5921022903
 51
293.6033423945
  0
ARC
  5
1BC
330
1F
100
AcDbEntity
  8
0
  6
Continuous
 62
     7
370
    25
100
AcDbCircle
 10
27.6549812939
 20
11.4189452736
 30
0.0
 40
0.3000000000000004
100
AcDbArc
 50
246.3966576055
 51
264.4078977097
  0
LINE
  5
1BD
330
1F
100
AcDbEntity
  8
0
  6
Continuous
 62
     7
370
    25
100
AcDbLine
 10
27.5318625598
 20
11.2764771363
 30
0.0
 11
27.5318625598
 21
11.1486251584
 31
0.0
  0
ARC
  5
1BE
330
1F
100
AcDbEntity
  8
0
  6
Continuous
 62
     7
370
    25
100
AcDbCircle
 10
27.5368625598
 20
11.1486251584
 30
0.0
 40
0.0050000000000003
100
AcDbArc
 50
180.0
 51
246.3966576055
  0
LINE
  5
1BF
330
1F
100
AcDbEntity
  8
0
  6
Continuous
 62
     7
370
    25
100
AcDbLine
 10
28.6568625598
 20
11.1486251584
 30
0.0
 11
28.6568625598
 21
11.2764771363
 31
0.0
  0
ARC
  5
1C0
330
1F
100
AcDbEntity
  8
0
  6
Continuous
 62
     7
370
    25
100
AcDbCircle
 10
28.6518625598
 20
11.1486251584
 30
0.0
 40
0.0050000000000026
100
AcDbArc
 50
293.6033423945
 51
0.0
  0
LINE
  5
1C1
330
1F
100
AcDbEntity
  8
0
  6
Continuous
 62
     7
370
    25
100
AcDbLine
 10
28.8393625598
 20
11.284849861
 30
0.0
 11
28.8393625598
 21
13.154849861
 31
0.0
  0
LINE
  5
1C2
330
1F
100
AcDbEntity
  8
0
  6
Continuous
 62
     7
370
    25
100
AcDbLine
 10
27.3493625598
 20
13.5839308845
 30
0.0
 11
27.3493625598
 21
11.284849861
 31
0.0
  0
LINE
  5
1C3
330
1F
100
AcDbEntity
  8
0
  6
Continuous
 62
     7
370
    25
100
AcDbLine
 10
28.8853955163
 20
15.4312557748
 30
0.0
 11
26.7553955163
 21
18.4435306626
 31
0.0
  0
LINE
  5
1C4
330
1F
100
AcDbEntity
  8
0
  6
Continuous
 62
     7
370
    25
100
AcDbLine
 10
24.3484387559
 20
16.7032906587
 30
0.0
 11
26.460400671
 21
13.7165254753
 31
0.0
  0
LINE
  5
1C5
330
1F
100
AcDbEntity
  8
0
  6
Continuous
 62
     7
370
    25
100
AcDbLine
 10
26.9303980937
 20
13.523837055
 30
0.0
 11
26.9603980937
 21
13.523837055
 31
0.0
  0
LINE
  5
1C6
330
1F
100
AcDbEntity
  8
0
  6
Continuous
 62
     7
370
    25
100
AcDbLine
 10
28.9003980937
 20
14.8956242105
 30
0.0
 11
28.9103980937
 21
14.9239084817
 31
0.0
  0
LINE
  5
1C7
330
1F
100
AcDbEntity
  8
0
  6
Continuous
 62
     7
370
    25
100
AcDbLine
 10
28.7061880465
 20
14.4029758116
 30
0.0
 11
28.656974225
 21
14.4725746652
 31
0.0
  0
ARC
  5
1C8
330
1F
100
AcDbEntity
  8
0
  6
Continuous
 62
     7
370
    25
100
AcDbCircle
 10
28.0978980937
 20
13.972849861
 30
0.0
 40
0.7450000000000008
100
AcDbArc
 50
269.4561766101
 51
35.2643896828
  0
LWPOLYLINE
  5
1C9
330
1F
100
AcDbEntity
  8
0
  6
Continuous
 62
     7
370
    25
100
AcDbPolyline
 90
       17
 70
   128
 43
0.0
 10
26.7195322803
 20
18.2578942031
 10
26.717786009
 20
18.2775046414
 10
26.7114267791
 20
18.3003229413
 10
26.7014227258
 20
18.3228752236
 10
26.6892968755
 20
18.3417281077
 10
26.676895279
 20
18.3540114129
 10
26.666105967
 20
18.3578551174
 10
26.6585715143
 20
18.3526740519
 10
26.6554389732
 20
18.3392569867
 10
26.6571852446
 20
18.3196465485
 10
26.6635444744
 20
18.2968282485
 10
26.6735485277
 20
18.2742759662
 10
26.685674378
 20
18.2554230821
 10
26.6980759745
 20
18.2431397769
 10
26.7088652865
 20
18.2392960725
 10
26.7163997392
 20
18.244477138
 10
26.7195322803
 20
18.2578942031
  0
LINE
  5
1CA
330
1F
100
AcDbEntity
  8
0
  6
Continuous
 62
     7
370
    25
100
AcDbLine
 10
26.6772183568
 20
18.3395686089
 30
0.0
 11
26.6647227366
 21
18.3274717807
 31
0.0
  0
LINE
  5
1CB
330
1F
100
AcDbEntity
  8
0
  6
Continuous
 62
     7
370
    25
100
AcDbLine
 10
26.6749900066
 20
18.2864787667
 30
0.0
 11
26.6647227366
 21
18.3274717807
 31
0.0
  0
LINE
  5
1CC
330
1F
100
AcDbEntity
  8
0
  6
Continuous
 62
     7
370
    25
100
AcDbLine
 10
26.6977528967
 20
18.2575825809
 30
0.0
 11
26.6749900066
 21
18.2864787667
 31
0.0
  0
LINE
  5
1CD
330
1F
100
AcDbEntity
  8
0
  6
Continuous
 62
     7
370
    25
100
AcDbLine
 10
26.6977528967
 20
18.2575825809
 30
0.0
 11
26.7102485169
 21
18.2696794092
 31
0.0
  0
LINE
  5
1CE
330
1F
100
AcDbEntity
  8
0
  6
Continuous
 62
     7
370
    25
100
AcDbLine
 10
26.6999812469
 20
18.3106724232
 30
0.0
 11
26.7102485169
 21
18.2696794092
 31
0.0
  0
LINE
  5
1CF
330
1F
100
AcDbEntity
  8
0
  6
Continuous
 62
     7
370
    25
100
AcDbLine
 10
26.6999812469
 20
18.3106724232
 30
0.0
 11
26.6772183568
 21
18.3395686089
 31
0.0
  0
LINE
  5
1D0
330
1F
100
AcDbEntity
  8
0
  6
Continuous
 62
     7
370
    25
100
AcDbLine
 10
26.6936003308
 20
18.2628540256
 30
0.0
 11
26.7102485169
 21
18.2696794092
 31
0.0
  0
LINE
  5
1D1
330
1F
100
AcDbEntity
  8
0
  6
Continuous
 62
     7
370
    25
100
AcDbLine
 10
26.6718219001
 20
18.2991277214
 30
0.0
 11
26.6999812469
 21
18.3106724232
 31
0.0
  0
LWPOLYLINE
  5
1D2
330
1F
100
AcDbEntity
  8
0
  6
Continuous
 62
     7
370
    25
100
AcDbPolyline
 90
       17
 70
   128
 43
0.0
 10
24.7004270691
 20
16.6788937746
 10
24.7135251986
 20
16.6840210797
 10
24.719138762
 20
16.6951579678
 10
24.7164131451
 20
16.7106089488
 10
24.7057632984
 20
16.7280217507
 10
24.6888105646
 20
16.7447454324
 10
24.6681358437
 20
16.7582339649
 10
24.6468866745
 20
16.7664338414
 10
24.6282980504
 20
16.768096705
 10
24.6151999209
 20
16.7629693999
 10
24.6095863575
 20
16.7518325118
 10
24.6123119744
 20
16.7363815309
 10
24.6229618211
 20
16.718968729
 10
24.6399145549
 20
16.7022450473
 10
24.6605892758
 20
16.6887565148
 10
24.681838445
 20
16.6805566383
 10
24.7004270691
 20
16.6788937746
  0
LINE
  5
1D3
330
1F
100
AcDbEntity
  8
0
  6
Continuous
 62
     7
370
    25
100
AcDbLine
 10
24.677021495
 20
16.7421200028
 30
0.0
 11
24.6387457675
 21
16.7551758723
 31
0.0
  0
LINE
  5
1D4
330
1F
100
AcDbEntity
  8
0
  6
Continuous
 62
     7
370
    25
100
AcDbLine
 10
24.6260868323
 20
16.7365511093
 30
0.0
 11
24.6387457675
 21
16.7551758723
 31
0.0
  0
LINE
  5
1D5
330
1F
100
AcDbEntity
  8
0
  6
Continuous
 62
     7
370
    25
100
AcDbLine
 10
24.6517036245
 20
16.7048704768
 30
0.0
 11
24.6260868323
 21
16.7365511093
 31
0.0
  0
LINE
  5
1D6
330
1F
100
AcDbEntity
  8
0
  6
Continuous
 62
     7
370
    25
100
AcDbLine
 10
24.6517036245
 20
16.7048704768
 30
0.0
 11
24.689979352
 21
16.6918146073
 31
0.0
  0
LINE
  5
1D7
330
1F
100
AcDbEntity
  8
0
  6
Continuous
 62
     7
370
    25
100
AcDbLine
 10
24.7026382872
 20
16.7104393703
 30
0.0
 11
24.689979352
 21
16.6918146073
 31
0.0
  0
LINE
  5
1D8
330
1F
100
AcDbEntity
  8
0
  6
Continuous
 62
     7
370
    25
100
AcDbLine
 10
24.7026382872
 20
16.7104393703
 30
0.0
 11
24.677021495
 21
16.7421200028
 31
0.0
  0
LINE
  5
1D9
330
1F
100
AcDbEntity
  8
0
  6
Continuous
 62
     7
370
    25
100
AcDbLine
 10
24.6391572751
 20
16.7550355069
 30
0.0
 11
24.6260868323
 21
16.7365511093
 31
0.0
  0
LINE
  5
1DA
330
1F
100
AcDbEntity
  8
0
  6
Continuous
 62
     7
370
    25
100
AcDbLine
 10
24.6775664554
 20
16.741446043
 30
0.0
 11
24.6517036245
 21
16.7048704768
 31
0.0
  0
ELLIPSE
  5
1DB
330
1F
100
AcDbEntity
  8
0
  6
Continuous
 62
     7
370
    25
100
AcDbEllipse
 10
23.6423625598
 20
20.2689286407
 30
0.0
 11
0.0
 21
2.100107140124049
 31
0.0
210
0.0
220
0.0
230
1.0
 40
0.5
 41
0.0
 42
6.283185307179586
  0
SPLINE
  5
1DC
330
1F
100
AcDbEntity
  8
0
  6
Continuous
 62
     7
370
    25
100
AcDbSpline
210
0.0
220
0.0
230
1.0
 70
    11
 71
     3
 72
    26
 73
    22
 74
     0
 42
0.00000001
 43
0.00000001
 40
0.0
 40
0.0
 40
0.0
 40
0.0
 40
0.0536503689453596
 40
0.1072993747806783
 40
0.1609837494484622
 40
0.2146911935981138
 40
0.2683602334769234
 40
0.3219893978318404
 40
0.3756393219208393
 40
0.4293383015439495
 40
0.483038155549676
 40
0.5366891994052522
 40
0.5903179741194494
 40
0.6439857350046698
 40
0.697692912012078
 40
0.7513784439456048
 40
0.8050151129999653
 40
0.858651891740024
 40
0.9123375339936963
 40
0.9660446892035189
 40
1.0
 40
1.0
 40
1.0
 40
1.0
 10
23.89222468055079
 20
17.8856660484437
 30
0.0
 10
23.89549691975857
 20
17.88023729243366
 30
0.0
 10
23.90204131503543
 20
17.8693799183435
 30
0.0
 10
23.90368837361575
 20
17.8546464305661
 30
0.0
 10
23.89895671327567
 20
17.84331647621527
 30
0.0
 10
23.88795169379899
 20
17.83677500781178
 30
0.0
 10
23.87211843676125
 20
17.83586038744842
 30
0.0
 10
23.85322392862997
 20
17.84068011114725
 30
0.0
 10
23.83334991518702
 20
17.85062058430744
 30
0.0
 10
23.81463649225826
 20
17.86445067858542
 30
0.0
 10
23.79911568000775
 20
17.88049196958968
 30
0.0
 10
23.78849744928809
 20
17.8968589357548
 30
0.0
 10
23.78398112478805
 20
17.91172443538537
 30
0.0
 10
23.78613545292375
 20
17.92351617453664
 30
0.0
 10
23.79481679023352
 20
17.93103156298502
 30
0.0
 10
23.80912589809392
 20
17.93352274238332
 30
0.0
 10
23.82745870847541
 20
17.93075299122831
 30
0.0
 10
23.84774995581711
 20
17.92299494122013
 30
0.0
 10
23.86753879304127
 20
17.91101021229399
 30
0.0
 10
23.88279285431907
 20
17.89783915880391
 30
0.0
 10
23.88959134355437
 20
17.88906474357288
 30
0.0
 10
23.89222468055079
 20
17.8856660484437
 30
0.0
  0
SPLINE
  5
1DD
330
1F
100
AcDbEntity
  8
0
  6
Continuous
 62
     7
370
    25
100
AcDbSpline
210
0.0
220
0.0
230
1.0
 70
    11
 71
     3
 72
    26
 73
    22
 74
     0
 42
0.00000001
 43
0.00000001
 40
0.0
 40
0.0
 40
0.0
 40
0.0
 40
0.0536503689453581
 40
0.1072993747806825
 40
0.1609837494484648
 40
0.2146911935981206
 40
0.2683602334769253
 40
0.3219893978318427
 40
0.375639321920845
 40
0.4293383015439517
 40
0.4830381555496786
 40
0.5366891994052554
 40
0.590317974119451
 40
0.6439857350046745
 40
0.6976929120120767
 40
0.7513784439456073
 40
0.8050151129999651
 40
0.8586518917400222
 40
0.9123375339937017
 40
0.9660446892035213
 40
1.0
 40
1.0
 40
1.0
 40
1.0
 10
26.69154552569247
 20
18.3396661835752
 30
0.0
 10
26.69533739330268
 20
18.33381508310376
 30
0.0
 10
26.70292103218204
 20
18.32211303082144
 30
0.0
 10
26.71258720125637
 20
18.30073178660656
 30
0.0
 10
26.71942627564808
 20
18.27941935230986
 30
0.0
 10
26.72248189821502
 20
18.26009851869497
 30
0.0
 10
26.72130451614232
 20
18.24502455019183
 30
0.0
 10
26.71601435096071
 20
18.23585691350791
 30
0.0
 10
26.70729223270425
 20
18.23365982808527
 30
0.0
 10
26.69626050578064
 20
18.23874457154297
 30
0.0
 10
26.68430999133163
 20
18.25060711915452
 30
0.0
 10
26.67287693815414
 20
18.26793433525757
 30
0.0
 10
26.66322826785324
 20
18.28875937642926
 30
0.0
 10
26.65633195973339
 20
18.31070372342331
 30
0.0
 10
26.65281176811217
 20
18.33123762075588
 30
0.0
 10
26.65293890409092
 20
18.34798228755389
 30
0.0
 10
26.65664580494555
 20
18.3590212331632
 30
0.0
 10
26.66356873397188
 20
18.36316560705175
 30
0.0
 10
26.67305492751317
 20
18.35992539516198
 30
0.0
 10
26.68286920679852
 20
18.3512228907899
 30
0.0
 10
26.68912312403082
 20
18.34289278083405
 30
0.0
 10
26.69154552569247
 20
18.3396661835752
 30
0.0
  0
SPLINE
  5
1DE
330
1F
100
AcDbEntity
  8
0
  6
Continuous
 62
     7
370
    25
100
AcDbSpline
210
0.0
220
0.0
230
1.0
 70
    11
 71
     3
 72
    26
 73
    22
 74
     0
 42
0.00000001
 43
0.00000001
 40
0.0
 40
0.0
 40
0.0
 40
0.0
 40
0.0536503689453607
 40
0.1072993747806813
 40
0.160983749448466
 40
0.2146911935981176
 40
0.2683602334769272
 40
0.3219893978318448
 40
0.3756393219208443
 40
0.4293383015439494
 40
0.4830381555496799
 40
0.5366891994052527
 40
0.5903179741194503
 40
0.6439857350046735
 40
0.697692912012079
 40
0.7513784439456074
 40
0.8050151129999682
 40
0.8586518917400273
 40
0.9123375339937009
 40
0.966044689203527
 40
1.0
 40
1.0
 40
1.0
 40
1.0
 10
24.71322468055078
 20
16.72459671373539
 30
0.0
 10
24.71649691975857
 20
16.71916795772535
 30
0.0
 10
24.72304131503543
 20
16.7083105836352
 30
0.0
 10
24.72468837361575
 20
16.69357709585779
 30
0.0
 10
24.71995671327567
 20
16.68224714150697
 30
0.0
 10
24.70895169379898
 20
16.67570567310347
 30
0.0
 10
24.69311843676125
 20
16.67479105274011
 30
0.0
 10
24.67422392862997
 20
16.67961077643895
 30
0.0
 10
24.65434991518702
 20
16.68955124959913
 30
0.0
 10
24.63563649225826
 20
16.70338134387711
 30
0.0
 10
24.62011568000775
 20
16.71942263488138
 30
0.0
 10
24.60949744928809
 20
16.73578960104649
 30
0.0
 10
24.60498112478805
 20
16.75065510067706
 30
0.0
 10
24.60713545292375
 20
16.76244683982832
 30
0.0
 10
24.61581679023352
 20
16.76996222827671
 30
0.0
 10
24.63012589809392
 20
16.77245340767501
 30
0.0
 10
24.64845870847541
 20
16.76968365652
 30
0.0
 10
24.66874995581711
 20
16.76192560651182
 30
0.0
 10
24.68853879304127
 20
16.74994087758568
 30
0.0
 10
24.70379285431907
 20
16.7367698240956
 30
0.0
 10
24.71059134355437
 20
16.72799540886457
 30
0.0
 10
24.71322468055078
 20
16.72459671373539
 30
0.0
  0
LWPOLYLINE
  5
1DF
330
1F
100
AcDbEntity
  8
0
  6
Continuous
 62
     7
370
    25
100
AcDbPolyline
 90
       36
 70
   128
 43
0.0
 10
24.3193651371
 20
16.7394069648
 10
24.3477943644
 20
16.7039985759
 10
24.3991546641
 20
16.6568027047
 10
24.4601788282
 20
16.6176263211
 10
24.53034622
 20
16.5868036642
 10
24.6090581961
 20
16.564597702
 10
24.6956432136
 20
16.5511978879
 10
24.7893625598
 20
16.5467185445
 10
24.8894166541
 20
16.5511978879
 10
24.9949518704
 20
16.564597702
 10
25.1050678194
 20
16.5868036642
 10
25.2188250307
 20
16.6176263211
 10
25.3352529677
 20
16.6568027047
 10
25.4533583085
 20
16.7039985759
 10
25.5721334199
 20
16.7588112761
 10
25.6905649545
 20
16.8207731627
 10
25.8076424962
 20
16.8893555988
 10
25.9223671807
 20
16.9639734632
 10
26.0337602175
 20
17.0439901426
 10
26.1408712405
 20
17.1287229628
 10
26.2427864161
 20
17.2174490133
 10
26.33863624
 20
17.3094113149
 10
26.4276029554
 20
17.4038252774
 10
26.5089275295
 20
17.4998853943
 10
26.5819161298
 20
17.5967721146
 10
26.6459460433
 20
17.6936588348
 10
26.7004709893
 20
17.7897189518
 10
26.7450257803
 20
17.8841329143
 10
26.7792302904
 20
17.9760952158
 10
26.8027926988
 20
18.0648212664
 10
26.8155119794
 20
18.1495540866
 10
26.8172796157
 20
18.229570766
 10
26.808080527
 20
18.3041886303
 10
26.7879931965
 20
18.3727710664
 10
26.7571890024
 20
18.4347329531
 10
26.7443599824
 20
18.4541372643
  0
ELLIPSE
  5
1E0
330
1F
100
AcDbEntity
  8
0
  6
Continuous
 62
     7
370
    25
100
AcDbEllipse
 10
23.6423625598
 20
20.2689286407
 30
0.0
 11
0.0
 21
1.976363453416401
 31
0.0
210
0.0
220
0.0
230
1.0
 40
0.5
 41
0.0
 42
6.283185307179586
  0
LWPOLYLINE
  5
1E1
330
1F
100
AcDbEntity
  8
0
  6
Continuous
 62
     7
370
    25
100
AcDbPolyline
 90
       18
 70
   128
 43
0.0
 10
24.585131162
 20
19.6766770468
 10
24.5582637453
 20
19.6632981879
 10
24.4436482497
 20
19.6017156349
 10
24.3306285783
 20
19.5336562943
 10
24.2202282545
 20
19.459736522
 10
24.1134470809
 20
19.3806257468
 10
24.0112520842
 20
19.2970404083
 10
23.9145687583
 20
19.2097374682
 10
23.8242726823
 20
19.1195075554
 10
23.7411815914
 20
19.0271678061
 10
23.6660479714
 20
18.9335544632
 10
23.5995522441
 20
18.8395153037
 10
23.5422966049
 20
18.7459019608
 10
23.4947995699
 20
18.6535622115
 10
23.4574912796
 20
18.5633322987
 10
23.4307096036
 20
18.4760293586
 10
23.4146970809
 20
18.3924440201
 10
23.4105030484
 20
18.3477370396
  0
LWPOLYLINE
  5
1E2
330
1F
100
AcDbEntity
  8
0
  6
Continuous
 62
     7
370
    25
100
AcDbPolyline
 90
       18
 70
   128
 43
0.0
 10
23.5289075
 20
18.3056343944
 10
23.5249291515
 20
18.3464378293
 10
23.5267945662
 20
18.4201162676
 10
23.5395233817
 20
18.4984301837
 10
23.5629890932
 20
18.5806012587
 10
23.5969584882
 20
18.6658128395
 10
23.6410939633
 20
18.7532180551
 10
23.6949568805
 20
18.8419482333
 10
23.7580119259
 20
18.9311215336
 10
23.82963243
 20
19.0198517118
 10
23.9091065962
 20
19.1072569274
 10
23.9956445746
 20
19.1924685082
 10
24.0883863116
 20
19.2746395832
 10
24.1864100984
 20
19.3529534993
 10
24.2887417306
 20
19.4266319377
 10
24.3943641902
 20
19.4949426489
 10
24.502227754
 20
19.5572067303
 10
24.5709745349
 20
19.5931093611
  0
LWPOLYLINE
  5
1E3
330
1F
100
AcDbEntity
  8
0
  6
Continuous
 62
     7
370
    25
100
AcDbPolyline
 90
       16
 70
   128
 43
0.0
 10
23.5743451263
 20
18.2972524464
 10
23.5767945662
 20
18.3494055895
 10
23.5895233817
 20
18.4277195056
 10
23.6129890932
 20
18.5098905806
 10
23.6469584882
 20
18.5951021614
 10
23.6910939633
 20
18.682507377
 10
23.7449568805
 20
18.7712375552
 10
23.8080119259
 20
18.8604108555
 10
23.87963243
 20
18.9491410337
 10
23.9591065962
 20
19.0365462493
 10
24.0456445746
 20
19.1217578301
 10
24.1383863116
 20
19.2039289051
 10
24.2364100984
 20
19.2822428212
 10
24.3387417306
 20
19.3559212596
 10
24.4443641902
 20
19.4242319707
 10
24.5494832918
 20
19.4850023622
  0
LINE
  5
1E4
330
1F
100
AcDbEntity
  8
0
  6
Continuous
 62
     7
370
    25
100
AcDbLine
 10
28.4974821783
 20
11.076085151
 30
0.0
 11
28.5003625598
 21
11.076085151
 31
0.0
  0
LINE
  5
1E5
330
1F
100
AcDbEntity
  8
0
  6
Continuous
 62
     7
370
    25
100
AcDbLine
 10
27.6883625598
 20
11.076085151
 30
0.0
 11
28.1239177502
 21
11.076085151
 31
0.0
  0
LINE
  5
1E6
330
1F
100
AcDbEntity
  8
0
  6
Continuous
 62
     7
370
    25
100
AcDbLine
 10
28.1239177502
 20
11.076085151
 30
0.0
 11
28.173521791
 21
11.040585151
 31
0.0
  0
LINE
  5
1E7
330
1F
100
AcDbEntity
  8
0
  6
Continuous
 62
     7
370
    25
100
AcDbLine
 10
28.4680872302
 20
11.040585151
 30
0.0
 11
28.4803625598
 21
11.040585151
 31
0.0
  0
LINE
  5
1E8
330
1F
100
AcDbEntity
  8
0
  6
Continuous
 62
     7
370
    25
100
AcDbLine
 10
27.7083625598
 20
11.040585151
 30
0.0
 11
28.173521791
 21
11.040585151
 31
0.0
  0
LINE
  5
1E9
330
1F
100
AcDbEntity
  8
0
  6
Continuous
 62
     7
370
    25
100
AcDbLine
 10
28.4680872302
 20
11.040585151
 30
0.0
 11
28.4974821783
 21
11.076085151
 31
0.0
  0
LINE
  5
1EA
330
1F
100
AcDbEntity
  8
0
  6
Continuous
 62
     7
370
    25
100
AcDbLine
 10
28.4974821783
 20
10.934085151
 30
0.0
 11
28.5003625598
 21
10.934085151
 31
0.0
  0
LINE
  5
1EB
330
1F
100
AcDbEntity
  8
0
  6
Continuous
 62
     7
370
    25
100
AcDbLine
 10
27.6883625598
 20
10.934085151
 30
0.0
 11
28.1239177502
 21
10.934085151
 31
0.0
  0
LINE
  5
1EC
330
1F
100
AcDbEntity
  8
0
  6
Continuous
 62
     7
370
    25
100
AcDbLine
 10
28.1239177502
 20
10.934085151
 30
0.0
 11
28.173521791
 21
10.898585151
 31
0.0
  0
LINE
  5
1ED
330
1F
100
AcDbEntity
  8
0
  6
Continuous
 62
     7
370
    25
100
AcDbLine
 10
28.4680872302
 20
10.898585151
 30
0.0
 11
28.4803625598
 21
10.898585151
 31
0.0
  0
LINE
  5
1EE
330
1F
100
AcDbEntity
  8
0
  6
Continuous
 62
     7
370
    25
100
AcDbLine
 10
27.7083625598
 20
10.898585151
 30
0.0
 11
28.173521791
 21
10.898585151
 31
0.0
  0
LINE
  5
1EF
330
1F
100
AcDbEntity
  8
0
  6
Continuous
 62
     7
370
    25
100
AcDbLine
 10
28.4680872302
 20
10.898585151
 30
0.0
 11
28.4974821783
 21
10.934085151
 31
0.0
  0
LINE
  5
1F0
330
1F
100
AcDbEntity
  8
0
  6
Continuous
 62
     7
370
    25
100
AcDbLine
 10
28.1612425271
 20
11.1203730211
 30
0.0
 11
28.173521791
 21
11.111585151
 31
0.0
  0
LINE
  5
1F1
330
1F
100
AcDbEntity
  8
0
  6
Continuous
 62
     7
370
    25
100
AcDbLine
 10
28.4680872302
 20
11.111585151
 30
0.0
 11
28.4803625598
 21
11.111585151
 31
0.0
  0
LINE
  5
1F2
330
1F
100
AcDbEntity
  8
0
  6
Continuous
 62
     7
370
    25
100
AcDbLine
 10
27.7083625598
 20
11.111585151
 30
0.0
 11
28.173521791
 21
11.111585151
 31
0.0
  0
LINE
  5
1F3
330
1F
100
AcDbEntity
  8
0
  6
Continuous
 62
     7
370
    25
100
AcDbLine
 10
28.4680872302
 20
11.111585151
 30
0.0
 11
28.4764398006
 21
11.1216724711
 31
0.0
  0
LINE
  5
1F4
330
1F
100
AcDbEntity
  8
0
  6
Continuous
 62
     7
370
    25
100
AcDbLine
 10
28.4974821783
 20
11.005085151
 30
0.0
 11
28.5003625598
 21
11.005085151
 31
0.0
  0
LINE
  5
1F5
330
1F
100
AcDbEntity
  8
0
  6
Continuous
 62
     7
370
    25
100
AcDbLine
 10
27.6883625598
 20
11.005085151
 30
0.0
 11
28.1239177502
 21
11.005085151
 31
0.0
  0
LINE
  5
1F6
330
1F
100
AcDbEntity
  8
0
  6
Continuous
 62
     7
370
    25
100
AcDbLine
 10
28.1239177502
 20
11.005085151
 30
0.0
 11
28.173521791
 21
10.969585151
 31
0.0
  0
LINE
  5
1F7
330
1F
100
AcDbEntity
  8
0
  6
Continuous
 62
     7
370
    25
100
AcDbLine
 10
28.4680872302
 20
10.969585151
 30
0.0
 11
28.4803625598
 21
10.969585151
 31
0.0
  0
LINE
  5
1F8
330
1F
100
AcDbEntity
  8
0
  6
Continuous
 62
     7
370
    25
100
AcDbLine
 10
27.7083625598
 20
10.969585151
 30
0.0
 11
28.173521791
 21
10.969585151
 31
0.0
  0
LINE
  5
1F9
330
1F
100
AcDbEntity
  8
0
  6
Continuous
 62
     7
370
    25
100
AcDbLine
 10
28.4680872302
 20
10.969585151
 30
0.0
 11
28.4974821783
 21
11.005085151
 31
0.0
  0
LINE
  5
1FA
330
1F
100
AcDbEntity
  8
0
  6
Continuous
 62
     7
370
    25
100
AcDbLine
 10
28.4974821783
 20
10.721085151
 30
0.0
 11
28.5003625598
 21
10.721085151
 31
0.0
  0
LINE
  5
1FB
330
1F
100
AcDbEntity
  8
0
  6
Continuous
 62
     7
370
    25
100
AcDbLine
 10
27.6883625598
 20
10.721085151
 30
0.0
 11
28.1239177502
 21
10.721085151
 31
0.0
  0
LINE
  5
1FC
330
1F
100
AcDbEntity
  8
0
  6
Continuous
 62
     7
370
    25
100
AcDbLine
 10
28.1239177502
 20
10.721085151
 30
0.0
 11
28.173521791
 21
10.685585151
 31
0.0
  0
LINE
  5
1FD
330
1F
100
AcDbEntity
  8
0
  6
Continuous
 62
     7
370
    25
100
AcDbLine
 10
28.4680872302
 20
10.685585151
 30
0.0
 11
28.4803625598
 21
10.685585151
 31
0.0
  0
LINE
  5
1FE
330
1F
100
AcDbEntity
  8
0
  6
Continuous
 62
     7
370
    25
100
AcDbLine
 10
27.7083625598
 20
10.685585151
 30
0.0
 11
28.173521791
 21
10.685585151
 31
0.0
  0
LINE
  5
1FF
330
1F
100
AcDbEntity
  8
0
  6
Continuous
 62
     7
370
    25
100
AcDbLine
 10
28.4680872302
 20
10.685585151
 30
0.0
 11
28.4974821783
 21
10.721085151
 31
0.0
  0
LINE
  5
200
330
1F
100
AcDbEntity
  8
0
  6
Continuous
 62
     7
370
    25
100
AcDbLine
 10
28.4974821783
 20
10.792085151
 30
0.0
 11
28.5003625598
 21
10.792085151
 31
0.0
  0
LINE
  5
201
330
1F
100
AcDbEntity
  8
0
  6
Continuous
 62
     7
370
    25
100
AcDbLine
 10
27.6883625598
 20
10.792085151
 30
0.0
 11
28.1239177502
 21
10.792085151
 31
0.0
  0
LINE
  5
202
330
1F
100
AcDbEntity
  8
0
  6
Continuous
 62
     7
370
    25
100
AcDbLine
 10
28.1239177502
 20
10.792085151
 30
0.0
 11
28.173521791
 21
10.756585151
 31
0.0
  0
LINE
  5
203
330
1F
100
AcDbEntity
  8
0
  6
Continuous
 62
     7
370
    25
100
AcDbLine
 10
28.4680872302
 20
10.756585151
 30
0.0
 11
28.4803625598
 21
10.756585151
 31
0.0
  0
LINE
  5
204
330
1F
100
AcDbEntity
  8
0
  6
Continuous
 62
     7
370
    25
100
AcDbLine
 10
27.7083625598
 20
10.756585151
 30
0.0
 11
28.173521791
 21
10.756585151
 31
0.0
  0
LINE
  5
205
330
1F
100
AcDbEntity
  8
0
  6
Continuous
 62
     7
370
    25
100
AcDbLine
 10
28.4680872302
 20
10.756585151
 30
0.0
 11
28.4974821783
 21
10.792085151
 31
0.0
  0
LINE
  5
206
330
1F
100
AcDbEntity
  8
0
  6
Continuous
 62
     7
370
    25
100
AcDbLine
 10
28.173521791
 20
11.111585151
 30
0.0
 11
28.1239177502
 21
11.076085151
 31
0.0
  0
LINE
  5
207
330
1F
100
AcDbEntity
  8
0
  6
Continuous
 62
     7
370
    25
100
AcDbLine
 10
28.4974821783
 20
11.076085151
 30
0.0
 11
28.4680872302
 21
11.111585151
 31
0.0
  0
LINE
  5
208
330
1F
100
AcDbEntity
  8
0
  6
Continuous
 62
     7
370
    25
100
AcDbLine
 10
28.173521791
 20
11.040585151
 30
0.0
 11
28.1239177502
 21
11.005085151
 31
0.0
  0
LINE
  5
209
330
1F
100
AcDbEntity
  8
0
  6
Continuous
 62
     7
370
    25
100
AcDbLine
 10
28.4974821783
 20
11.005085151
 30
0.0
 11
28.4680872302
 21
11.040585151
 31
0.0
  0
LINE
  5
20A
330
1F
100
AcDbEntity
  8
0
  6
Continuous
 62
     7
370
    25
100
AcDbLine
 10
28.173521791
 20
10.969585151
 30
0.0
 11
28.1239177502
 21
10.934085151
 31
0.0
  0
LINE
  5
20B
330
1F
100
AcDbEntity
  8
0
  6
Continuous
 62
     7
370
    25
100
AcDbLine
 10
28.4974821783
 20
10.934085151
 30
0.0
 11
28.4680872302
 21
10.969585151
 31
0.0
  0
LINE
  5
20C
330
1F
100
AcDbEntity
  8
0
  6
Continuous
 62
     7
370
    25
100
AcDbLine
 10
28.173521791
 20
10.898585151
 30
0.0
 11
28.1239177502
 21
10.863085151
 31
0.0
  0
LINE
  5
20D
330
1F
100
AcDbEntity
  8
0
  6
Continuous
 62
     7
370
    25
100
AcDbLine
 10
28.4974821783
 20
10.863085151
 30
0.0
 11
28.5003625598
 21
10.863085151
 31
0.0
  0
LINE
  5
20E
330
1F
100
AcDbEntity
  8
0
  6
Continuous
 62
     7
370
    25
100
AcDbLine
 10
27.6883625598
 20
10.863085151
 30
0.0
 11
28.1239177502
 21
10.863085151
 31
0.0
  0
LINE
  5
20F
330
1F
100
AcDbEntity
  8
0
  6
Continuous
 62
     7
370
    25
100
AcDbLine
 10
28.4974821783
 20
10.863085151
 30
0.0
 11
28.4680872302
 21
10.898585151
 31
0.0
  0
LINE
  5
210
330
1F
100
AcDbEntity
  8
0
  6
Continuous
 62
     7
370
    25
100
AcDbLine
 10
28.1239177502
 20
10.863085151
 30
0.0
 11
28.173521791
 21
10.827585151
 31
0.0
  0
LINE
  5
211
330
1F
100
AcDbEntity
  8
0
  6
Continuous
 62
     7
370
    25
100
AcDbLine
 10
28.4680872302
 20
10.827585151
 30
0.0
 11
28.4803625598
 21
10.827585151
 31
0.0
  0
LINE
  5
212
330
1F
100
AcDbEntity
  8
0
  6
Continuous
 62
     7
370
    25
100
AcDbLine
 10
27.7083625598
 20
10.827585151
 30
0.0
 11
28.173521791
 21
10.827585151
 31
0.0
  0
LINE
  5
213
330
1F
100
AcDbEntity
  8
0
  6
Continuous
 62
     7
370
    25
100
AcDbLine
 10
28.4680872302
 20
10.827585151
 30
0.0
 11
28.4974821783
 21
10.863085151
 31
0.0
  0
LINE
  5
214
330
1F
100
AcDbEntity
  8
0
  6
Continuous
 62
     7
370
    25
100
AcDbLine
 10
28.173521791
 20
10.756585151
 30
0.0
 11
28.1239177502
 21
10.721085151
 31
0.0
  0
LINE
  5
215
330
1F
100
AcDbEntity
  8
0
  6
Continuous
 62
     7
370
    25
100
AcDbLine
 10
28.4974821783
 20
10.721085151
 30
0.0
 11
28.4680872302
 21
10.756585151
 31
0.0
  0
LINE
  5
216
330
1F
100
AcDbEntity
  8
0
  6
Continuous
 62
     7
370
    25
100
AcDbLine
 10
28.173521791
 20
10.827585151
 30
0.0
 11
28.1239177502
 21
10.792085151
 31
0.0
  0
LINE
  5
217
330
1F
100
AcDbEntity
  8
0
  6
Continuous
 62
     7
370
    25
100
AcDbLine
 10
28.4974821783
 20
10.792085151
 30
0.0
 11
28.4680872302
 21
10.827585151
 31
0.0
  0
LINE
  5
218
330
1F
100
AcDbEntity
  8
0
  6
Continuous
 62
     7
370
    25
100
AcDbLine
 10
28.173521791
 20
10.685585151
 30
0.0
 11
28.1414893093
 21
10.664085151
 31
0.0
  0
LINE
  5
219
330
1F
100
AcDbEntity
  8
0
  6
Continuous
 62
     7
370
    25
100
AcDbLine
 10
28.4870694163
 20
10.664085151
 30
0.0
 11
28.4680872302
 21
10.685585151
 31
0.0
  0
LINE
  5
21A
330
1F
100
AcDbEntity
  8
0
  6
Continuous
 62
     7
370
    25
100
AcDbLine
 10
28.4870694163
 20
10.664085151
 30
0.0
 11
28.4924752358
 21
10.664085151
 31
0.0
  0
LINE
  5
21B
330
1F
100
AcDbEntity
  8
0
  6
Continuous
 62
     7
370
    25
100
AcDbLine
 10
27.6962498837
 20
10.664085151
 30
0.0
 11
28.1414893093
 21
10.664085151
 31
0.0
  0
LINE
  5
21C
330
1F
100
AcDbEntity
  8
0
  6
Continuous
 62
     7
370
    25
100
AcDbLine
 10
28.1975206394
 20
11.1203730211
 30
0.0
 11
28.1975206394
 21
10.664085151
 31
0.0
  0
LINE
  5
21D
330
1F
100
AcDbEntity
  8
0
  6
Continuous
 62
     7
370
    25
100
AcDbLine
 10
28.1414893093
 20
10.664085151
 30
0.0
 11
28.1975206394
 21
10.664085151
 31
0.0
  0
LINE
  5
21E
330
1F
100
AcDbEntity
  8
0
  6
Continuous
 62
     7
370
    25
100
AcDbLine
 10
28.4538657093
 20
11.1203730211
 30
0.0
 11
28.4538657093
 21
10.664085151
 31
0.0
  0
LINE
  5
21F
330
1F
100
AcDbEntity
  8
0
  6
Continuous
 62
     7
370
    25
100
AcDbLine
 10
28.1975206394
 20
10.664085151
 30
0.0
 11
28.4538657093
 21
10.664085151
 31
0.0
  0
LINE
  5
220
330
1F
100
AcDbEntity
  8
0
  6
Continuous
 62
     7
370
    25
100
AcDbLine
 10
28.4538657093
 20
10.664085151
 30
0.0
 11
28.4870694163
 21
10.664085151
 31
0.0
  0
LINE
  5
221
330
1F
100
AcDbEntity
  8
0
  6
Continuous
 62
     7
370
    25
100
AcDbLine
 10
28.5629775403
 20
11.1203730211
 30
0.0
 11
27.6257475792
 21
11.1203730211
 31
0.0
  0
LINE
  5
222
330
1F
100
AcDbEntity
  8
0
  6
Continuous
 62
     7
370
    25
100
AcDbLine
 10
28.3064933448
 20
11.1218026878
 30
0.0
 11
28.0536570134
 21
11.1218026878
 31
0.0
  0
SPLINE
  5
223
330
1F
100
AcDbEntity
  8
0
  6
Continuous
 62
     7
370
    25
100
AcDbSpline
210
0.0
220
0.0
230
1.0
 70
     8
 71
     3
 72
    10
 73
     6
 74
     0
 42
0.00000001
 43
0.00000001
 40
0.0
 40
0.0
 40
0.0
 40
0.0
 40
0.4665495905510522
 40
0.7778212346569823
 40
1.0
 40
1.0
 40
1.0
 40
1.0
 10
28.35905480598971
 20
11.14404346155991
 30
0.0
 10
28.35110876470215
 20
11.13934213655577
 30
0.0
 10
28.33786129911628
 20
11.13150419072257
 30
0.0
 10
28.32009307561236
 20
11.12502011974789
 30
0.0
 10
28.31049209379949
 20
11.12274871406934
 30
0.0
 10
28.30649334481087
 20
11.12180268778402
 30
0.0
  0
LINE
  5
224
330
1F
100
AcDbEntity
  8
0
  6
Continuous
 62
     7
370
    25
100
AcDbLine
 10
28.5417570094
 20
11.1440434616
 30
0.0
 11
28.359054806
 21
11.1440434616
 31
0.0
  0
SPLINE
  5
225
330
1F
100
AcDbEntity
  8
0
  6
Continuous
 62
     7
370
    25
100
AcDbSpline
210
0.0
220
0.0
230
1.0
 70
     8
 71
     3
 72
    10
 73
     6
 74
     0
 42
0.00000001
 43
0.00000001
 40
0.0
 40
0.0
 40
0.0
 40
0.0
 40
0.5331753442087224
 40
0.8095997620716981
 40
0.9999999999999999
 40
0.9999999999999999
 40
0.9999999999999999
 40
0.9999999999999999
 10
28.48880291045549
 20
11.12180268778402
 30
0.0
 10
28.49845895916375
 20
11.12439532815824
 30
0.0
 10
28.51312118017915
 20
11.12833212128439
 30
0.0
 10
28.53059421253218
 20
11.13708014416866
 30
0.0
 10
28.53852311004826
 20
11.14202616534863
 30
0.0
 10
28.54175700944677
 20
11.14404346155992
 30
0.0
  0
LINE
  5
226
330
1F
100
AcDbEntity
  8
0
  6
Continuous
 62
     7
370
    25
100
AcDbLine
 10
28.5739871032
 20
11.1218026878
 30
0.0
 11
28.4888029105
 21
11.1218026878
 31
0.0
  0
SPLINE
  5
227
330
1F
100
AcDbEntity
  8
0
  6
Continuous
 62
     7
370
    25
100
AcDbSpline
210
0.0
220
0.0
230
1.0
 70
     8
 71
     3
 72
    10
 73
     6
 74
     0
 42
0.00000001
 43
0.00000001
 40
0.0
 40
0.0
 40
0.0
 40
0.0
 40
0.5332077067628922
 40
0.8059796939237488
 40
1.0
 40
1.0
 40
1.0
 40
1.0
 10
28.65359905232765
 20
11.14404346155991
 30
0.0
 10
28.63982216179161
 20
11.13872996057028
 30
0.0
 10
28.61899745525299
 20
11.13069824263566
 30
0.0
 10
28.59201466310262
 20
11.12457499013202
 30
0.0
 10
28.5792801510352
 20
11.12261665977949
 30
0.0
 10
28.57398710321747
 20
11.12180268778402
 30
0.0
  0
SPLINE
  5
228
330
1F
100
AcDbEntity
  8
0
  6
Continuous
 62
     7
370
    25
100
AcDbSpline
210
0.0
220
0.0
230
1.0
 70
     8
 71
     3
 72
    10
 73
     6
 74
     0
 42
0.00000001
 43
0.00000001
 40
0.0
 40
0.0
 40
0.0
 40
0.0
 40
0.5332311337846967
 40
0.8096265694457458
 40
1.0
 40
1.0
 40
1.0
 40
1.0
 10
27.65921666274496
 20
11.12180268778402
 30
0.0
 10
27.64472188861025
 20
11.12439565248465
 30
0.0
 10
27.62271388211167
 20
11.12833265650085
 30
0.0
 10
27.59646929539718
 20
11.13708098319265
 30
0.0
 10
27.58455840713103
 20
11.14202643891741
 30
0.0
 10
27.57970050673471
 20
11.14404346155991
 30
0.0
  0
LINE
  5
229
330
1F
100
AcDbEntity
  8
0
  6
Continuous
 62
     7
370
    25
100
AcDbLine
 10
27.8268688013
 20
11.1218026878
 30
0.0
 11
27.6592166627
 21
11.1218026878
 31
0.0
  0
SPLINE
  5
22A
330
1F
100
AcDbEntity
  8
0
  6
Continuous
 62
     7
370
    25
100
AcDbSpline
210
0.0
220
0.0
230
1.0
 70
     8
 71
     3
 72
    10
 73
     6
 74
     0
 42
0.00000001
 43
0.00000001
 40
0.0
 40
0.0
 40
0.0
 40
0.0
 40
0.4665495905504486
 40
0.7778212346567838
 40
1.0
 40
1.0
 40
1.0
 40
1.0
 10
27.7998183134175
 20
11.14404346155991
 30
0.0
 10
27.80390220279625
 20
11.13934213655578
 30
0.0
 10
27.8107107735101
 20
11.13150419072257
 30
0.0
 10
27.81985803954032
 20
11.1250201197479
 30
0.0
 10
27.82480741667142
 20
11.12274871406934
 30
0.0
 10
27.82686880134885
 20
11.12180268778402
 30
0.0
  0
LINE
  5
22B
330
1F
100
AcDbEntity
  8
0
  6
Continuous
 62
     7
370
    25
100
AcDbLine
 10
28.0270949564
 20
11.1440434616
 30
0.0
 11
27.7998183134
 21
11.1440434616
 31
0.0
  0
SPLINE
  5
22C
330
1F
100
AcDbEntity
  8
0
  6
Continuous
 62
     7
370
    25
100
AcDbSpline
210
0.0
220
0.0
230
1.0
 70
     8
 71
     3
 72
    10
 73
     6
 74
     0
 42
0.00000001
 43
0.00000001
 40
0.0
 40
0.0
 40
0.0
 40
0.0
 40
0.5331753442086985
 40
0.8095997620717834
 40
1.0
 40
1.0
 40
1.0
 40
1.0
 10
28.05365701344502
 20
11.12180268778402
 30
0.0
 10
28.04881980020247
 20
11.12439532815824
 30
0.0
 10
28.04147473683298
 20
11.1283321212844
 30
0.0
 10
28.03270307339939
 20
11.13708014416866
 30
0.0
 10
28.02871964656827
 20
11.14202616534863
 30
0.0
 10
28.02709495642604
 20
11.14404346155991
 30
0.0
  0
LINE
  5
22D
330
1F
100
AcDbEntity
  8
0
  6
Continuous
 62
     7
370
    25
100
AcDbLine
 10
27.7948288166
 20
11.1503675854
 30
0.0
 11
27.7950624377
 21
11.1486251584
 31
0.0
  0
LINE
  5
22E
330
1F
100
AcDbEntity
  8
0
  6
Continuous
 62
     7
370
    25
100
AcDbLine
 10
27.7948288166
 20
11.1503675854
 30
0.0
 11
27.7948288166
 21
11.2820377636
 31
0.0
  0
LINE
  5
22F
330
1F
100
AcDbEntity
  8
0
  6
Continuous
 62
     7
370
    25
100
AcDbLine
 10
27.7949304308
 20
11.2828675615
 30
0.0
 11
27.7948288166
 21
11.2820377636
 31
0.0
  0
SPLINE
  5
230
330
1F
100
AcDbEntity
  8
0
  6
Continuous
 62
     7
370
    25
100
AcDbSpline
210
0.0
220
0.0
230
1.0
 70
     8
 71
     3
 72
     9
 73
     5
 74
     0
 42
0.00000001
 43
0.00000001
 40
0.0
 40
0.0
 40
0.0
 40
0.0
 40
0.5058031042357857
 40
1.0
 40
1.0
 40
1.0
 40
1.0
 10
27.90797009336753
 20
11.25337302112136
 30
0.0
 10
27.88772883722344
 20
11.25639987355234
 30
0.0
 10
27.84771078281731
 20
11.26238412395658
 30
0.0
 10
27.81238722392659
 20
11.27609278415956
 30
0.0
 10
27.79493043077544
 20
11.28286756147696
 30
0.0
  0
LINE
  5
231
330
1F
100
AcDbEntity
  8
0
  6
Continuous
 62
     7
370
    25
100
AcDbLine
 10
28.0307281924
 20
11.2533730211
 30
0.0
 11
27.9079700934
 21
11.2533730211
 31
0.0
  0
LINE
  5
232
330
1F
100
AcDbEntity
  8
0
  6
Continuous
 62
     7
370
    25
100
AcDbLine
 10
28.0307281924
 20
11.1503675854
 30
0.0
 11
28.0307281924
 21
11.2533730211
 31
0.0
  0
LINE
  5
233
330
1F
100
AcDbEntity
  8
0
  6
Continuous
 62
     7
370
    25
100
AcDbLine
 10
28.0304540057
 20
11.1486251584
 30
0.0
 11
28.0307281924
 21
11.1503675854
 31
0.0
  0
LINE
  5
234
330
1F
100
AcDbEntity
  8
0
  6
Continuous
 62
     7
370
    25
100
AcDbLine
 10
27.7950624377
 20
11.1486251584
 30
0.0
 11
28.0304540057
 21
11.1486251584
 31
0.0
  0
SPLINE
  5
235
330
1F
100
AcDbEntity
  8
0
  6
Continuous
 62
     7
370
    25
100
AcDbSpline
210
0.0
220
0.0
230
1.0
 70
     8
 71
     3
 72
    12
 73
     8
 74
     0
 42
0.00000001
 43
0.00000001
 40
0.0
 40
0.0
 40
0.0
 40
0.0
 40
0.2610466257365888
 40
0.5203567671403744
 40
0.8317512029542965
 40
0.9869218091726235
 40
1.0
 40
1.0
 40
1.0
 40
1.0
 10
27.79506243770953
 20
11.14862515842655
 30
0.0
 10
27.79528605871754
 20
11.14806533274682
 30
0.0
 10
27.79573181320475
 20
11.14694940535246
 30
0.0
 10
27.79706712159803
 20
11.14552092488071
 30
0.0
 10
27.79844880961213
 20
11.14459438541899
 30
0.0
 10
27.7994382368767
 20
11.14417452282324
 30
0.0
 10
27.79979090043509
 20
11.1440529143404
 30
0.0
 10
27.7998183134175
 20
11.14404346155991
 30
0.0
  0
SPLINE
  5
236
330
1F
100
AcDbEntity
  8
0
  6
Continuous
 62
     7
370
    25
100
AcDbSpline
210
0.0
220
0.0
230
1.0
 70
     8
 71
     3
 72
    12
 73
     8
 74
     0
 42
0.00000001
 43
0.00000001
 40
0.0
 40
0.0
 40
0.0
 40
0.0
 40
0.0130781908274287
 40
0.1682487970462131
 40
0.479643232859912
 40
0.7389533742639105
 40
1.0
 40
1.0
 40
1.0
 40
1.0
 10
28.02709495642604
 20
11.14404346155991
 30
0.0
 10
28.0271112642969
 20
11.1440529143404
 30
0.0
 10
28.02732106240198
 20
11.14417452282324
 30
0.0
 10
28.02792376154907
 20
11.14459438541899
 30
0.0
 10
28.02882665946741
 20
11.14552092488071
 30
0.0
 10
28.02979575938805
 20
11.14694940535245
 30
0.0
 10
28.03023410264641
 20
11.14806533274682
 30
0.0
 10
28.03045400567397
 20
11.14862515842655
 30
0.0
  0
SPLINE
  5
237
330
1F
100
AcDbEntity
  8
0
  6
Continuous
 62
     7
370
    25
100
AcDbSpline
210
0.0
220
0.0
230
1.0
 70
     8
 71
     3
 72
    13
 73
     9
 74
     0
 42
0.00000001
 43
0.00000001
 40
0.0
 40
0.0
 40
0.0
 40
0.0
 40
0.2142797061534791
 40
0.4285450239859198
 40
0.6429491528099998
 40
0.8576415051480526
 40
0.9549170214506468
 40
0.9999999999999999
 40
0.9999999999999999
 40
0.9999999999999999
 40
0.9999999999999999
 10
27.90911506172063
 20
11.25637302112136
 30
0.0
 10
27.90900172022983
 20
11.25633993427905
 30
0.0
 10
27.90877504485883
 20
11.25627376281613
 30
0.0
 10
27.90845182518295
 20
11.25575760933765
 30
0.0
 10
27.90818723098535
 20
11.25499803532536
 30
0.0
 10
27.90804266274726
 20
11.25421997837353
 30
0.0
 10
27.9079869015927
 20
11.25366608908332
 30
0.0
 10
27.90797413604198
 20
11.25344350913238
 30
0.0
 10
27.90797009336753
 20
11.25337302112136
 30
0.0
  0
SPLINE
  5
238
330
1F
100
AcDbEntity
  8
0
  6
Continuous
 62
     7
370
    25
100
AcDbSpline
210
0.0
220
0.0
230
1.0
 70
     8
 71
     3
 72
    12
 73
     8
 74
     0
 42
0.00000001
 43
0.00000001
 40
0.0
 40
0.0
 40
0.0
 40
0.0
 40
0.2217181155137377
 40
0.4435284651955419
 40
0.6625812968591296
 40
0.8762617802484733
 40
1.0
 40
1.0
 40
1.0
 40
1.0
 10
28.03174709160188
 20
11.25637302112136
 30
0.0
 10
28.03163029175584
 20
11.25633861838824
 30
0.0
 10
28.03139664347531
 20
11.25626979861056
 30
0.0
 10
28.03108622668105
 20
11.25573152330632
 30
0.0
 10
28.03085618330462
 20
11.25494330668847
 30
0.0
 10
28.03074278682841
 20
11.25410416519709
 30
0.0
 10
28.03073210838259
 20
11.25356920264183
 30
0.0
 10
28.0307281923819
 20
11.25337302112136
 30
0.0
  0
LINE
  5
239
330
1F
100
AcDbEntity
  8
0
  6
Continuous
 62
     7
370
    25
100
AcDbLine
 10
27.9091150617
 20
11.2563730211
 30
0.0
 11
28.0317470916
 21
11.2563730211
 31
0.0
  0
LINE
  5
23A
330
1F
100
AcDbEntity
  8
0
  6
Continuous
 62
     7
370
    25
100
AcDbLine
 10
28.0571562748
 20
11.1272987323
 30
0.0
 11
28.0571262079
 21
11.1267550642
 31
0.0
  0
SPLINE
  5
23B
330
1F
100
AcDbEntity
  8
0
  6
Continuous
 62
     7
370
    25
100
AcDbSpline
210
0.0
220
0.0
230
1.0
 70
     8
 71
     3
 72
    13
 73
     9
 74
     0
 42
0.00000001
 43
0.00000001
 40
0.0
 40
0.0
 40
0.0
 40
0.0
 40
0.0110833551326466
 40
0.1707198361086736
 40
0.4221210186983004
 40
0.6291731381193393
 40
0.8141387340448352
 40
1.0
 40
1.0
 40
1.0
 40
1.0
 10
28.05365701344502
 20
11.12180268778402
 30
0.0
 10
28.05367344912666
 20
11.12180610155989
 30
0.0
 10
28.05392661225675
 20
11.1218586848481
 30
0.0
 10
28.05455399296252
 20
11.12209248413123
 30
0.0
 10
28.05545008850275
 20
11.12278582381198
 30
0.0
 10
28.05626647462529
 20
11.12392336359966
 30
0.0
 10
28.05686563805379
 20
11.12524791238647
 30
0.0
 10
28.0570392115145
 20
11.1262518719726
 30
0.0
 10
28.05712620786363
 20
11.12675506421358
 30
0.0
  0
SPLINE
  5
23C
330
1F
100
AcDbEntity
  8
0
  6
Continuous
 62
     7
370
    25
100
AcDbSpline
210
0.0
220
0.0
230
1.0
 70
     8
 71
     3
 72
     9
 73
     5
 74
     0
 42
0.00000001
 43
0.00000001
 40
0.0
 40
0.0
 40
0.0
 40
0.0
 40
0.5163266224404597
 40
1.0
 40
1.0
 40
1.0
 40
1.0
 10
28.0307281923819
 20
11.15036758537629
 30
0.0
 10
28.03514514613735
 20
11.14501090664412
 30
0.0
 10
28.04369971908301
 20
11.13463631331625
 30
0.0
 10
28.05276947520205
 20
11.12969076321951
 30
0.0
 10
28.05715627477779
 20
11.12729873230033
 30
0.0
  0
LINE
  5
23D
330
1F
100
AcDbEntity
  8
0
  6
Continuous
 62
     7
370
    25
100
AcDbLine
 10
28.0571562748
 20
11.1272987323
 30
0.0
 11
28.0571562748
 21
11.2563730211
 31
0.0
  0
LINE
  5
23E
330
1F
100
AcDbEntity
  8
0
  6
Continuous
 62
     7
370
    25
100
AcDbLine
 10
28.0571562748
 20
11.2563730211
 30
0.0
 11
28.0317470916
 21
11.2563730211
 31
0.0
  0
SPLINE
  5
23F
330
1F
100
AcDbEntity
  8
0
  6
Continuous
 62
     7
370
    25
100
AcDbSpline
210
0.0
220
0.0
230
1.0
 70
     8
 71
     3
 72
     9
 73
     5
 74
     0
 42
0.00000001
 43
0.00000001
 40
0.0
 40
0.0
 40
0.0
 40
0.0
 40
0.4852580463207263
 40
1.0
 40
1.0
 40
1.0
 40
1.0
 10
27.79943980919403
 20
11.28484986100465
 30
0.0
 10
27.81608101970317
 20
11.27843664681192
 30
0.0
 10
27.85037454793071
 20
11.26522055644238
 30
0.0
 10
27.8891537694656
 20
11.25937960425938
 30
0.0
 10
27.90911506172063
 20
11.25637302112136
 30
0.0
  0
SPLINE
  5
240
330
1F
100
AcDbEntity
  8
0
  6
Continuous
 62
     7
370
    25
100
AcDbSpline
210
0.0
220
0.0
230
1.0
 70
     8
 71
     3
 72
     9
 73
     5
 74
     0
 42
0.00000001
 43
0.00000001
 40
0.0
 40
0.0
 40
0.0
 40
0.0
 40
0.520556434421933
 40
1.0
 40
1.0
 40
1.0
 40
1.0
 10
27.93278834275649
 20
11.25637302112136
 30
0.0
 10
27.91258396172064
 20
11.25943578835954
 30
0.0
 10
27.87377091533446
 20
11.2653194294706
 30
0.0
 10
27.83998473275027
 20
11.27852063023855
 30
0.0
 10
27.82378616490483
 20
11.28484986100465
 30
0.0
  0
LINE
  5
241
330
1F
100
AcDbEntity
  8
0
  6
Continuous
 62
     7
370
    25
100
AcDbLine
 10
28.3569236402
 20
11.1503675854
 30
0.0
 11
28.3571676662
 21
11.1486251584
 31
0.0
  0
SPLINE
  5
242
330
1F
100
AcDbEntity
  8
0
  6
Continuous
 62
     7
370
    25
100
AcDbSpline
210
0.0
220
0.0
230
1.0
 70
     8
 71
     3
 72
    12
 73
     8
 74
     0
 42
0.00000001
 43
0.00000001
 40
0.0
 40
0.0
 40
0.0
 40
0.0
 40
0.0130781908285288
 40
0.1682487970432847
 40
0.4796432328579518
 40
0.738953374262484
 40
1.0
 40
1.0
 40
1.0
 40
1.0
 10
28.35905480598971
 20
11.14404346155991
 30
0.0
 10
28.35904816097939
 20
11.1440529143404
 30
0.0
 10
28.35896267400283
 20
11.14417452282323
 30
0.0
 10
28.35870330038689
 20
11.14459438541899
 30
0.0
 10
28.3582561952295
 20
11.14552092488069
 30
0.0
 10
28.3576903360131
 20
11.14694940535245
 30
0.0
 10
28.35734227667079
 20
11.14806533274682
 30
0.0
 10
28.35716766624463
 20
11.14862515842655
 30
0.0
  0
SPLINE
  5
243
330
1F
100
AcDbEntity
  8
0
  6
Continuous
 62
     7
370
    25
100
AcDbSpline
210
0.0
220
0.0
230
1.0
 70
     8
 71
     3
 72
    13
 73
     9
 74
     0
 42
0.00000001
 43
0.00000001
 40
0.0
 40
0.0
 40
0.0
 40
0.0
 40
0.0110833551325044
 40
0.1707198361085833
 40
0.4221210186985385
 40
0.629173138118703
 40
0.8141387340447729
 40
1.0
 40
1.0
 40
1.0
 40
1.0
 10
28.30649334481087
 20
11.12180268778402
 30
0.0
 10
28.30648720751958
 20
11.12180610155989
 30
0.0
 10
28.30639267320661
 20
11.1218586848481
 30
0.0
 10
28.30615210667814
 20
11.12209248413124
 30
0.0
 10
28.30578615459682
 20
11.12278582381198
 30
0.0
 10
28.30542116493537
 20
11.12392336359966
 30
0.0
 10
28.30512295252951
 20
11.12524791238646
 30
0.0
 10
28.30499931483588
 20
11.1262518719726
 30
0.0
 10
28.30493734667601
 20
11.12675506421358
 30
0.0
  0
LINE
  5
244
330
1F
100
AcDbEntity
  8
0
  6
Continuous
 62
     7
370
    25
100
AcDbLine
 10
28.3049373467
 20
11.1267550642
 30
0.0
 11
28.304910181
 21
11.1272987323
 31
0.0
  0
SPLINE
  5
245
330
1F
100
AcDbEntity
  8
0
  6
Continuous
 62
     7
370
    25
100
AcDbSpline
210
0.0
220
0.0
230
1.0
 70
     8
 71
     3
 72
     9
 73
     5
 74
     0
 42
0.00000001
 43
0.00000001
 40
0.0
 40
0.0
 40
0.0
 40
0.0
 40
0.4836733775589747
 40
1.0
 40
1.0
 40
1.0
 40
1.0
 10
28.30491018101479
 20
11.12729873230033
 30
0.0
 10
28.31354389939202
 20
11.12969076321951
 30
0.0
 10
28.33139420659893
 20
11.13463631331625
 30
0.0
 10
28.34823057497527
 20
11.14501090664412
 30
0.0
 10
28.35692364019319
 20
11.15036758537629
 30
0.0
  0
SPLINE
  5
246
330
1F
100
AcDbEntity
  8
0
  6
Continuous
 62
     7
370
    25
100
AcDbSpline
210
0.0
220
0.0
230
1.0
 70
     8
 71
     3
 72
     9
 73
     5
 74
     0
 42
0.00000001
 43
0.00000001
 40
0.0
 40
0.0
 40
0.0
 40
0.0
 40
0.726867801316412
 40
1.0
 40
1.0
 40
1.0
 40
1.0
 10
28.30491018101479
 20
11.28203776359533
 30
0.0
 10
28.30493612918608
 20
11.28236749873742
 30
0.0
 10
28.30497182779763
 20
11.2828211371315
 30
0.0
 10
28.30514213969957
 20
11.2832309270414
 30
0.0
 10
28.30518865736381
 20
11.28334285386049
 30
0.0
  0
LINE
  5
247
330
1F
100
AcDbEntity
  8
0
  6
Continuous
 62
     7
370
    25
100
AcDbLine
 10
28.3570297971
 20
11.2828675615
 30
0.0
 11
28.3569236402
 21
11.2820377636
 31
0.0
  0
LINE
  5
248
330
1F
100
AcDbEntity
  8
0
  6
Continuous
 62
     7
370
    25
100
AcDbLine
 10
28.3569236402
 20
11.2820377636
 30
0.0
 11
28.304910181
 21
11.2820377636
 31
0.0
  0
LINE
  5
249
330
1F
100
AcDbEntity
  8
0
  6
Continuous
 62
     7
370
    25
100
AcDbLine
 10
28.304910181
 20
11.2820377636
 30
0.0
 11
28.304910181
 21
11.2563730211
 31
0.0
  0
LINE
  5
24A
330
1F
100
AcDbEntity
  8
0
  6
Continuous
 62
     7
370
    25
100
AcDbLine
 10
28.3569236402
 20
11.1503675854
 30
0.0
 11
28.3569236402
 21
11.2820377636
 31
0.0
  0
LINE
  5
24B
330
1F
100
AcDbEntity
  8
0
  6
Continuous
 62
     7
370
    25
100
AcDbLine
 10
28.304910181
 20
11.1272987323
 30
0.0
 11
28.304910181
 21
11.2563730211
 31
0.0
  0
LINE
  5
24C
330
1F
100
AcDbEntity
  8
0
  6
Continuous
 62
     7
370
    25
100
AcDbLine
 10
28.0571262079
 20
11.1267550642
 30
0.0
 11
28.3049373467
 21
11.1267550642
 31
0.0
  0
LINE
  5
24D
330
1F
100
AcDbEntity
  8
0
  6
Continuous
 62
     7
370
    25
100
AcDbLine
 10
28.304910181
 20
11.2563730211
 30
0.0
 11
28.0571562748
 21
11.2563730211
 31
0.0
  0
SPLINE
  5
24E
330
1F
100
AcDbEntity
  8
0
  6
Continuous
 62
     7
370
    25
100
AcDbSpline
210
0.0
220
0.0
230
1.0
 70
     8
 71
     3
 72
     9
 73
     5
 74
     0
 42
0.00000001
 43
0.00000001
 40
0.0
 40
0.0
 40
0.0
 40
0.0
 40
0.5058031042358158
 40
1.0
 40
1.0
 40
1.0
 40
1.0
 10
28.46078363895885
 20
11.25337302112136
 30
0.0
 10
28.44390548112741
 20
11.25639987355234
 30
0.0
 10
28.41053645335732
 20
11.26238412395658
 30
0.0
 10
28.37472681110287
 20
11.27609278415956
 30
0.0
 10
28.3570297970623
 20
11.28286756147696
 30
0.0
  0
LINE
  5
24F
330
1F
100
AcDbEntity
  8
0
  6
Continuous
 62
     7
370
    25
100
AcDbLine
 10
28.5465574503
 20
11.2533730211
 30
0.0
 11
28.460783639
 21
11.2533730211
 31
0.0
  0
LINE
  5
250
330
1F
100
AcDbEntity
  8
0
  6
Continuous
 62
     7
370
    25
100
AcDbLine
 10
28.5465574503
 20
11.1503675854
 30
0.0
 11
28.5465574503
 21
11.2533730211
 31
0.0
  0
LINE
  5
251
330
1F
100
AcDbEntity
  8
0
  6
Continuous
 62
     7
370
    25
100
AcDbLine
 10
28.5463932619
 20
11.1486251584
 30
0.0
 11
28.5465574503
 21
11.1503675854
 31
0.0
  0
LINE
  5
252
330
1F
100
AcDbEntity
  8
0
  6
Continuous
 62
     7
370
    25
100
AcDbLine
 10
28.3571676662
 20
11.1486251584
 30
0.0
 11
28.5463932619
 21
11.1486251584
 31
0.0
  0
SPLINE
  5
253
330
1F
100
AcDbEntity
  8
0
  6
Continuous
 62
     7
370
    25
100
AcDbSpline
210
0.0
220
0.0
230
1.0
 70
     8
 71
     3
 72
    12
 73
     8
 74
     0
 42
0.00000001
 43
0.00000001
 40
0.0
 40
0.0
 40
0.0
 40
0.0
 40
0.0130781908276565
 40
0.1682487970461901
 40
0.4796432328598419
 40
0.738953374263745
 40
0.9999999999999999
 40
0.9999999999999999
 40
0.9999999999999999
 40
0.9999999999999999
 10
28.54175700944677
 20
11.14404346155992
 30
0.0
 10
28.54178551057431
 20
11.1440529143404
 30
0.0
 10
28.54215217294277
 20
11.14417452282325
 30
0.0
 10
28.54317267129143
 20
11.14459438541898
 30
0.0
 10
28.54456208958106
 20
11.14552092488071
 30
0.0
 10
28.54584868854533
 20
11.14694940535245
 30
0.0
 10
28.54621133402534
 20
11.14806533274682
 30
0.0
 10
28.54639326185807
 20
11.14862515842655
 30
0.0
  0
SPLINE
  5
254
330
1F
100
AcDbEntity
  8
0
  6
Continuous
 62
     7
370
    25
100
AcDbSpline
210
0.0
220
0.0
230
1.0
 70
     8
 71
     3
 72
    13
 73
     9
 74
     0
 42
0.00000001
 43
0.00000001
 40
0.0
 40
0.0
 40
0.0
 40
0.0
 40
0.2142797061524608
 40
0.4285450239868659
 40
0.6429491528099395
 40
0.8576415051485194
 40
0.9549170214502849
 40
1.0
 40
1.0
 40
1.0
 40
1.0
 10
28.4589506154683
 20
11.25637302112136
 30
0.0
 10
28.4591688136134
 20
11.25633993427905
 30
0.0
 10
28.45960519525218
 20
11.25627376281613
 30
0.0
 10
28.460168623445
 20
11.25575760933765
 30
0.0
 10
28.46058292823954
 20
11.25499803532536
 30
0.0
 10
28.46075879925022
 20
11.25421997837353
 30
0.0
 10
28.46079135518981
 20
11.25366608908333
 30
0.0
 10
28.46078549484842
 20
11.25344350913238
 30
0.0
 10
28.46078363895885
 20
11.25337302112136
 30
0.0
  0
SPLINE
  5
255
330
1F
100
AcDbEntity
  8
0
  6
Continuous
 62
     7
370
    25
100
AcDbSpline
210
0.0
220
0.0
230
1.0
 70
     8
 71
     3
 72
     9
 73
     5
 74
     0
 42
0.00000001
 43
0.00000001
 40
0.0
 40
0.0
 40
0.0
 40
0.0
 40
0.4852580463207538
 40
1.0
 40
1.0
 40
1.0
 40
1.0
 10
28.35842906044513
 20
11.28484986100465
 30
0.0
 10
28.37526112914636
 20
11.27843664681193
 30
0.0
 10
28.4099479701557
 20
11.26522055644239
 30
0.0
 10
28.44229846074163
 20
11.25937960425938
 30
0.0
 10
28.4589506154683
 20
11.25637302112136
 30
0.0
  0
SPLINE
  5
256
330
1F
100
AcDbEntity
  8
0
  6
Continuous
 62
     7
370
    25
100
AcDbSpline
210
0.0
220
0.0
230
1.0
 70
     8
 71
     3
 72
    12
 73
     8
 74
     0
 42
0.00000001
 43
0.00000001
 40
0.0
 40
0.0
 40
0.0
 40
0.0
 40
0.2217181155143495
 40
0.4435284651953103
 40
0.6625812968586925
 40
0.8762617802484133
 40
1.0
 40
1.0
 40
1.0
 40
1.0
 10
28.54455214120694
 20
11.25637302112136
 30
0.0
 10
28.54478201653172
 20
11.25633861838824
 30
0.0
 10
28.54524186280884
 20
11.25626979861057
 30
0.0
 10
28.54585279821515
 20
11.25573152330632
 30
0.0
 10
28.54630554963274
 20
11.25494330668847
 30
0.0
 10
28.54652872674028
 20
11.25410416519709
 30
0.0
 10
28.546549743131
 20
11.25356920264184
 30
0.0
 10
28.54655745026385
 20
11.25337302112136
 30
0.0
  0
LINE
  5
257
330
1F
100
AcDbEntity
  8
0
  6
Continuous
 62
     7
370
    25
100
AcDbLine
 10
28.4589506155
 20
11.2563730211
 30
0.0
 11
28.5445521412
 21
11.2563730211
 31
0.0
  0
LINE
  5
258
330
1F
100
AcDbEntity
  8
0
  6
Continuous
 62
     7
370
    25
100
AcDbLine
 10
27.6569618142
 20
11.1267550642
 30
0.0
 11
27.8212818199
 21
11.1267550642
 31
0.0
  0
SPLINE
  5
259
330
1F
100
AcDbEntity
  8
0
  6
Continuous
 62
     7
370
    25
100
AcDbSpline
210
0.0
220
0.0
230
1.0
 70
     8
 71
     3
 72
    13
 73
     9
 74
     0
 42
0.00000001
 43
0.00000001
 40
0.0
 40
0.0
 40
0.0
 40
0.0
 40
0.1858612659552017
 40
0.3708268618808884
 40
0.5778789813017743
 40
0.8292801638921181
 40
0.9889166448664539
 40
0.9999999999999999
 40
0.9999999999999999
 40
0.9999999999999999
 40
0.9999999999999999
 10
27.65696181424229
 20
11.12675506421358
 30
0.0
 10
27.65696371903831
 20
11.1262518719726
 30
0.0
 10
27.65696751945108
 20
11.12524791238647
 30
0.0
 10
27.65728677162202
 20
11.12392336359966
 30
0.0
 10
27.6578201893593
 20
11.12278582381198
 30
0.0
 10
27.6584882454592
 20
11.12209248413124
 30
0.0
 10
27.65899322289266
 20
11.1218586848481
 30
0.0
 10
27.65920304107409
 20
11.12180610155989
 30
0.0
 10
27.65921666274496
 20
11.12180268778402
 30
0.0
  0
LINE
  5
25A
330
1F
100
AcDbEntity
  8
0
  6
Continuous
 62
     7
370
    25
100
AcDbLine
 10
27.6569748434
 20
11.1272987323
 30
0.0
 11
27.6569748434
 21
11.2563730211
 31
0.0
  0
LINE
  5
25B
330
1F
100
AcDbEntity
  8
0
  6
Continuous
 62
     7
370
    25
100
AcDbLine
 10
27.6569748434
 20
11.1272987323
 30
0.0
 11
27.6569618142
 21
11.1267550642
 31
0.0
  0
LINE
  5
25C
330
1F
100
AcDbEntity
  8
0
  6
Continuous
 62
     7
370
    25
100
AcDbLine
 10
27.7933040173
 20
11.2563730211
 30
0.0
 11
27.6569748434
 21
11.2563730211
 31
0.0
  0
SPLINE
  5
25D
330
1F
100
AcDbEntity
  8
0
  6
Continuous
 62
     7
370
    25
100
AcDbSpline
210
0.0
220
0.0
230
1.0
 70
     8
 71
     3
 72
    13
 73
     9
 74
     0
 42
0.00000001
 43
0.00000001
 40
0.0
 40
0.0
 40
0.0
 40
0.0
 40
0.0110833551329408
 40
0.1707198361076959
 40
0.4221210186984488
 40
0.6291731381189636
 40
0.8141387340448368
 40
1.0
 40
1.0
 40
1.0
 40
1.0
 10
28.57398710321747
 20
11.12180268778402
 30
0.0
 10
28.57400955541108
 20
11.12180610155989
 30
0.0
 10
28.57435539245836
 20
11.1218586848481
 30
0.0
 10
28.57519532670378
 20
11.12209248413124
 30
0.0
 10
28.57633427636725
 20
11.12278582381198
 30
0.0
 10
28.57728605775157
 20
11.12392336359966
 30
0.0
 10
28.57790213453902
 20
11.12524791238646
 30
0.0
 10
28.5779793737043
 20
11.1262518719726
 30
0.0
 10
28.57801808656606
 20
11.12675506421358
 30
0.0
  0
LINE
  5
25E
330
1F
100
AcDbEntity
  8
0
  6
Continuous
 62
     7
370
    25
100
AcDbLine
 10
28.5780158418
 20
11.1272987323
 30
0.0
 11
28.5780158418
 21
11.2563730211
 31
0.0
  0
LINE
  5
25F
330
1F
100
AcDbEntity
  8
0
  6
Continuous
 62
     7
370
    25
100
AcDbLine
 10
28.5780180866
 20
11.1267550642
 30
0.0
 11
28.5780158418
 21
11.1272987323
 31
0.0
  0
LINE
  5
260
330
1F
100
AcDbEntity
  8
0
  6
Continuous
 62
     7
370
    25
100
AcDbLine
 10
28.5780158418
 20
11.2563730211
 30
0.0
 11
28.546134079
 21
11.2563730211
 31
0.0
  0
SPLINE
  5
261
330
1F
100
AcDbEntity
  8
0
  6
Continuous
 62
     7
370
    25
100
AcDbSpline
210
0.0
220
0.0
230
1.0
 70
     8
 71
     3
 72
     9
 73
     5
 74
     0
 42
0.00000001
 43
0.00000001
 40
0.0
 40
0.0
 40
0.0
 40
0.0
 40
0.5020423779574018
 40
1.0
 40
1.0
 40
1.0
 40
1.0
 10
27.53773634572367
 20
11.25637302112136
 30
0.0
 10
27.53593649395955
 20
11.25871642347006
 30
0.0
 10
27.53235143452406
 20
11.26338416159655
 30
0.0
 10
27.53252898309373
 20
11.27212471239244
 30
0.0
 10
27.53261739475728
 20
11.2764771362821
 30
0.0
  0
LINE
  5
262
330
1F
100
AcDbEntity
  8
0
  6
Continuous
 62
     7
370
    25
100
AcDbLine
 10
27.5785333019
 20
11.1503675854
 30
0.0
 11
27.5785333019
 21
11.2563730211
 31
0.0
  0
LINE
  5
263
330
1F
100
AcDbEntity
  8
0
  6
Continuous
 62
     7
370
    25
100
AcDbLine
 10
27.5784233036
 20
11.1486251584
 30
0.0
 11
27.5785333019
 21
11.1503675854
 31
0.0
  0
LINE
  5
264
330
1F
100
AcDbEntity
  8
0
  6
Continuous
 62
     7
370
    25
100
AcDbLine
 10
27.5785333019
 20
11.2563730211
 30
0.0
 11
27.5377363457
 21
11.2563730211
 31
0.0
  0
SPLINE
  5
265
330
1F
100
AcDbEntity
  8
0
  6
Continuous
 62
     7
370
    25
100
AcDbSpline
210
0.0
220
0.0
230
1.0
 70
     8
 71
     3
 72
    12
 73
     8
 74
     0
 42
0.00000001
 43
0.00000001
 40
0.0
 40
0.0
 40
0.0
 40
0.0
 40
0.2610466257360393
 40
0.5203567671405958
 40
0.8317512029539048
 40
0.9869218091725163
 40
0.9999999999999999
 40
0.9999999999999999
 40
0.9999999999999999
 40
0.9999999999999999
 10
27.57842330357134
 20
11.14862515842655
 30
0.0
 10
27.57838532837651
 20
11.14806533274682
 30
0.0
 10
27.57830963059815
 20
11.14694940535245
 30
0.0
 10
27.5786271296418
 20
11.14552092488071
 30
0.0
 10
27.57911365001307
 20
11.14459438541899
 30
0.0
 10
27.57953144921466
 20
11.14417452282324
 30
0.0
 10
27.57968831347803
 20
11.1440529143404
 30
0.0
 10
27.57970050673471
 20
11.14404346155991
 30
0.0
  0
SPLINE
  5
266
330
1F
100
AcDbEntity
  8
0
  6
Continuous
 62
     7
370
    25
100
AcDbSpline
210
0.0
220
0.0
230
1.0
 70
     8
 71
     3
 72
     9
 73
     5
 74
     0
 42
0.00000001
 43
0.00000001
 40
0.0
 40
0.0
 40
0.0
 40
0.0
 40
0.5162711822620857
 40
1.0
 40
1.0
 40
1.0
 40
1.0
 10
27.57853330187348
 20
11.15036758537629
 30
0.0
 10
27.59164188809623
 20
11.14501143223714
 30
0.0
 10
27.617032780854
 20
11.13463674288166
 30
0.0
 10
27.64395283667301
 20
11.1296910880601
 30
0.0
 10
27.65697484344778
 20
11.12729873230033
 30
0.0
  0
LINE
  5
267
330
1F
100
AcDbEntity
  8
0
  6
Continuous
 62
     7
370
    25
100
AcDbLine
 10
27.6569748434
 20
11.2563730211
 30
0.0
 11
27.5785333019
 21
11.2563730211
 31
0.0
  0
SPLINE
  5
268
330
1F
100
AcDbEntity
  8
0
  6
Continuous
 62
     7
370
    25
100
AcDbSpline
210
0.0
220
0.0
230
1.0
 70
     8
 71
     3
 72
     9
 73
     5
 74
     0
 42
0.00000001
 43
0.00000001
 40
0.0
 40
0.0
 40
0.0
 40
0.0
 40
0.4852580463207252
 40
0.9999999999999999
 40
0.9999999999999999
 40
0.9999999999999999
 40
0.9999999999999999
 10
27.53537330850433
 20
11.28484986100465
 30
0.0
 10
27.53518245031224
 20
11.27843664681193
 30
0.0
 10
27.53478913753043
 20
11.26522055644239
 30
0.0
 10
27.54121786847941
 20
11.25937960425938
 30
0.0
 10
27.54452700600776
 20
11.25637302112136
 30
0.0
  0
SPLINE
  5
269
330
1F
100
AcDbEntity
  8
0
  6
Continuous
 62
     7
370
    25
100
AcDbSpline
210
0.0
220
0.0
230
1.0
 70
     8
 71
     3
 72
     9
 73
     5
 74
     0
 42
0.00000001
 43
0.00000001
 40
0.0
 40
0.0
 40
0.0
 40
0.0
 40
0.5205564344219671
 40
1.0
 40
1.0
 40
1.0
 40
1.0
 10
27.61479198515974
 20
11.25637302112136
 30
0.0
 10
27.61154367130057
 20
11.25943578835954
 30
0.0
 10
27.60530359117787
 20
11.2653194294706
 30
0.0
 10
27.60688016928789
 20
11.27852063023855
 30
0.0
 10
27.60763604951837
 20
11.28484986100465
 30
0.0
  0
SPLINE
  5
26A
330
1F
100
AcDbEntity
  8
0
  6
Continuous
 62
     7
370
    25
100
AcDbSpline
210
0.0
220
0.0
230
1.0
 70
     8
 71
     3
 72
     9
 73
     5
 74
     0
 42
0.00000001
 43
0.00000001
 40
0.0
 40
0.0
 40
0.0
 40
0.0
 40
0.5420979896028787
 40
0.9999999999999999
 40
0.9999999999999999
 40
0.9999999999999999
 40
0.9999999999999999
 10
27.61030286836976
 20
11.27239940248297
 30
0.0
 10
27.60996264307014
 20
11.26957328507027
 30
0.0
 10
27.60933503458211
 20
11.26435998882696
 30
0.0
 10
27.61125398732571
 20
11.26155335483935
 30
0.0
 10
27.61213267964485
 20
11.26026819149397
 30
0.0
  0
SPLINE
  5
26B
330
1F
100
AcDbEntity
  8
0
  6
Continuous
 62
     7
370
    25
100
AcDbSpline
210
0.0
220
0.0
230
1.0
 70
     8
 71
     3
 72
     9
 73
     5
 74
     0
 42
0.00000001
 43
0.00000001
 40
0.0
 40
0.0
 40
0.0
 40
0.0
 40
0.7268678013185458
 40
1.0
 40
1.0
 40
1.0
 40
1.0
 10
27.61070927771311
 20
11.28203776359533
 30
0.0
 10
27.61070712320331
 20
11.28236749873742
 30
0.0
 10
27.610704159102
 20
11.2828211371315
 30
0.0
 10
27.61069017225172
 20
11.2832309270414
 30
0.0
 10
27.61068635199254
 20
11.28334285386049
 30
0.0
  0
LINE
  5
26C
330
1F
100
AcDbEntity
  8
0
  6
Continuous
 62
     7
370
    25
100
AcDbLine
 10
28.5780387675
 20
11.2833428539
 30
0.0
 11
28.5781116264
 21
11.2812636833
 31
0.0
  0
LINE
  5
26D
330
1F
100
AcDbEntity
  8
0
  6
Continuous
 62
     7
370
    25
100
AcDbLine
 10
28.5780158418
 20
11.2632205237
 30
0.0
 11
28.5747144693
 21
11.2563730211
 31
0.0
  0
SPLINE
  5
26E
330
1F
100
AcDbEntity
  8
0
  6
Continuous
 62
     7
370
    25
100
AcDbSpline
210
0.0
220
0.0
230
1.0
 70
     8
 71
     3
 72
     9
 73
     5
 74
     0
 42
0.00000001
 43
0.00000001
 40
0.0
 40
0.0
 40
0.0
 40
0.0
 40
0.7268678013118747
 40
0.9999999999999999
 40
0.9999999999999999
 40
0.9999999999999999
 40
0.9999999999999999
 10
28.57801584179778
 20
11.28203776359533
 30
0.0
 10
28.57801799630758
 20
11.28236749873742
 30
0.0
 10
28.57802096040889
 20
11.2828211371315
 30
0.0
 10
28.57803494725916
 20
11.28323092704141
 30
0.0
 10
28.57803876751833
 20
11.2833428538605
 30
0.0
  0
LINE
  5
26F
330
1F
100
AcDbEntity
  8
0
  6
Continuous
 62
     7
370
    25
100
AcDbLine
 10
28.5780158418
 20
11.2820377636
 30
0.0
 11
28.5780158418
 21
11.2563730211
 31
0.0
  0
LINE
  5
270
330
1F
100
AcDbEntity
  8
0
  6
Continuous
 62
     7
370
    25
100
AcDbLine
 10
28.6564573834
 20
11.1503675854
 30
0.0
 11
28.6564677883
 21
11.1486251584
 31
0.0
  0
SPLINE
  5
271
330
1F
100
AcDbEntity
  8
0
  6
Continuous
 62
     7
370
    25
100
AcDbSpline
210
0.0
220
0.0
230
1.0
 70
     8
 71
     3
 72
    12
 73
     8
 74
     0
 42
0.00000001
 43
0.00000001
 40
0.0
 40
0.0
 40
0.0
 40
0.0
 40
0.0130781908273669
 40
0.1682487970426357
 40
0.4796432328574219
 40
0.7389533742622841
 40
1.0
 40
1.0
 40
1.0
 40
1.0
 10
28.65359905232765
 20
11.14404346155991
 30
0.0
 10
28.65361982029975
 20
11.1440529143404
 30
0.0
 10
28.6538869968816
 20
11.14417452282324
 30
0.0
 10
28.65461705053017
 20
11.14459438541899
 30
0.0
 10
28.65555163338693
 20
11.1455209248807
 30
0.0
 10
28.6563210825638
 20
11.14694940535245
 30
0.0
 10
28.6564187777087
 20
11.14806533274682
 30
0.0
 10
28.65646778829055
 20
11.14862515842655
 30
0.0
  0
SPLINE
  5
272
330
1F
100
AcDbEntity
  8
0
  6
Continuous
 62
     7
370
    25
100
AcDbSpline
210
0.0
220
0.0
230
1.0
 70
     8
 71
     3
 72
     9
 73
     5
 74
     0
 42
0.00000001
 43
0.00000001
 40
0.0
 40
0.0
 40
0.0
 40
0.0
 40
0.4174267997215448
 40
1.0
 40
1.0
 40
1.0
 40
1.0
 10
28.57801584179778
 20
11.12729873230033
 30
0.0
 10
28.589256275905
 20
11.12931091177263
 30
0.0
 10
28.61618419264328
 20
11.13413134849026
 30
0.0
 10
28.64163210918939
 20
11.14439073926168
 30
0.0
 10
28.65645738337207
 20
11.15036758537629
 30
0.0
  0
LINE
  5
273
330
1F
100
AcDbEntity
  8
0
  6
Continuous
 62
     7
370
    25
100
AcDbLine
 10
28.656461926
 20
11.2828675615
 30
0.0
 11
28.6564573834
 21
11.2820377636
 31
0.0
  0
LINE
  5
274
330
1F
100
AcDbEntity
  8
0
  6
Continuous
 62
     7
370
    25
100
AcDbLine
 10
28.6564573834
 20
11.2820377636
 30
0.0
 11
28.5780158418
 21
11.2820377636
 31
0.0
  0
LINE
  5
275
330
1F
100
AcDbEntity
  8
0
  6
Continuous
 62
     7
370
    25
100
AcDbLine
 10
28.6564573834
 20
11.1503675854
 30
0.0
 11
28.6564573834
 21
11.2820377636
 31
0.0
  0
LINE
  5
276
330
1F
100
AcDbEntity
  8
0
  6
Continuous
 62
     7
370
    25
100
AcDbLine
 10
28.6561077248
 20
11.2764771363
 30
0.0
 11
28.656461926
 21
11.2828675615
 31
0.0
  0
LINE
  5
277
330
1F
100
AcDbEntity
  8
0
  6
Continuous
 62
     7
370
    25
100
AcDbLine
 10
28.6267197022
 20
12.6795134216
 30
0.0
 11
28.6140860439
 21
12.675974861
 31
0.0
  0
LWPOLYLINE
  5
278
330
1F
100
AcDbEntity
  8
0
  6
Continuous
 62
     7
370
    25
100
AcDbPolyline
 90
       17
 70
   128
 43
0.0
 10
28.6472316743
 20
12.722849861
 10
28.6452468664
 20
12.7369613126
 10
28.6395946117
 20
12.7489244236
 10
28.6311354148
 20
12.7569179188
 10
28.6211571117
 20
12.759724861
 10
28.6111788086
 20
12.7569179188
 10
28.6027196117
 20
12.7489244236
 10
28.5970673571
 20
12.7369613126
 10
28.5950825492
 20
12.722849861
 10
28.5970673571
 20
12.7087384094
 10
28.6027196117
 20
12.6967752984
 10
28.6111788086
 20
12.6887818032
 10
28.6211571117
 20
12.685974861
 10
28.6311354148
 20
12.6887818032
 10
28.6395946117
 20
12.6967752984
 10
28.6452468664
 20
12.7087384094
 10
28.6472316743
 20
12.722849861
  0
SPLINE
  5
279
330
1F
100
AcDbEntity
  8
0
  6
Continuous
 62
     7
370
    25
100
AcDbSpline
210
0.0
220
0.0
230
1.0
 70
    11
 71
     3
 72
    26
 73
    22
 74
     0
 42
0.00000001
 43
0.00000001
 40
0.0
 40
0.0
 40
0.0
 40
0.0
 40
0.0536235447489044
 40
0.107244781548962
 40
0.1609259535779707
 40
0.2146466086157197
 40
0.2683019801713021
 40
0.3218891771731634
 40
0.3755117052882351
 40
0.4292178703846096
 40
0.4829255826092441
 40
0.5365504508230349
 40
0.5901373908209937
 40
0.6437901403945239
 40
0.6975101730121694
 40
0.7511938685390572
 40
0.8047940694062651
 40
0.8583940411272047
 40
0.9120772624694719
 40
0.9657974298943636
 40
1.0
 40
1.0
 40
1.0
 40
1.0
 10
28.62115711173943
 20
12.67834986100465
 30
0.0
 10
28.62467058633186
 20
12.67884097169541
 30
0.0
 10
28.63169738429735
 20
12.67982317193961
 30
0.0
 10
28.64081179997537
 20
12.68747885909763
 30
0.0
 10
28.6476443665275
 20
12.69876002348622
 30
0.0
 10
28.65150922503728
 20
12.71285983825968
 30
0.0
 10
28.65204854045614
 20
12.72805503911963
 30
0.0
 10
28.64921926524405
 20
12.74265870606641
 30
0.0
 10
28.64328417614579
 20
12.75503320066106
 30
0.0
 10
28.63479815205768
 20
12.76379442722215
 30
0.0
 10
28.62461334359938
 20
12.76794153254131
 30
0.0
 10
28.6138318244725
 20
12.7670058054513
 30
0.0
 10
28.6036810366361
 20
12.76110541520904
 30
0.0
 10
28.59536929008847
 20
12.75090035236337
 30
0.0
 10
28.58994199398709
 20
12.73752624966756
 30
0.0
 10
28.58811243150432
 20
12.72249557686336
 30
0.0
 10
28.59011624867101
 20
12.70752274676901
 30
0.0
 10
28.5956850817553
 20
12.69425856390059
 30
0.0
 10
28.6040975505079
 20
12.68427795412816
 30
0.0
 10
28.6131023499833
 20
12.67907398315027
 30
0.0
 10
28.61890128484342
 20
12.67855265958039
 30
0.0
 10
28.62115711173943
 20
12.67834986100465
 30
0.0
  0
LINE
  5
27A
330
1F
100
AcDbEntity
  8
0
  6
Continuous
 62
     7
370
    25
100
AcDbLine
 10
27.5675680078
 20
13.154849861
 30
0.0
 11
27.5675680078
 21
13.6597477128
 31
0.0
  0
LINE
  5
27B
330
1F
100
AcDbEntity
  8
0
  6
Continuous
 62
     7
370
    25
100
AcDbLine
 10
27.5675680078
 20
13.154849861
 30
0.0
 11
28.8393625598
 21
13.154849861
 31
0.0
  0
LINE
  5
27C
330
1F
100
AcDbEntity
  8
0
  6
Continuous
 62
     7
370
    25
100
AcDbLine
 10
28.6211571117
 20
13.4425433459
 30
0.0
 11
28.6211571117
 21
13.154849861
 31
0.0
  0
LINE
  5
27D
330
1F
100
AcDbEntity
  8
0
  6
Continuous
 62
     7
370
    25
100
AcDbLine
 10
28.8393625598
 20
11.284849861
 30
0.0
 11
27.3493625598
 21
11.284849861
 31
0.0
  0
LWPOLYLINE
  5
27E
330
1F
100
AcDbEntity
  8
0
  6
Continuous
 62
     7
370
    25
100
AcDbPolyline
 90
       36
 70
   128
 43
0.0
 10
26.7263218975
 20
18.4796469687
 10
26.726966289
 20
18.4789390516
 10
26.7682245363
 20
18.4241263513
 10
26.7990287304
 20
18.3621644647
 10
26.8191160609
 20
18.2935820286
 10
26.8283151496
 20
18.2189641642
 10
26.8265475133
 20
18.1389474849
 10
26.8138282327
 20
18.0542146647
 10
26.7902658243
 20
17.9654886141
 10
26.7560613142
 20
17.8735263126
 10
26.7115065232
 20
17.77911235
 10
26.6569815772
 20
17.6830522331
 10
26.5929516637
 20
17.5861655129
 10
26.5199630634
 20
17.4892787926
 10
26.4386384893
 20
17.3932186757
 10
26.3496717739
 20
17.2988047131
 10
26.25382195
 20
17.2068424116
 10
26.1519067744
 20
17.1181163611
 10
26.0447957514
 20
17.0333835408
 10
25.9334027146
 20
16.9533668615
 10
25.8186780301
 20
16.8787489971
 10
25.7016004884
 20
16.810166561
 10
25.5831689538
 20
16.7482046744
 10
25.4643938424
 20
16.6933919742
 10
25.3462885016
 20
16.646196103
 10
25.2298605646
 20
16.6070197194
 10
25.1161033533
 20
16.5761970625
 10
25.0059874043
 20
16.5539911003
 10
24.900452188
 20
16.5405912862
 10
24.8003980937
 20
16.5361119428
 10
24.7066787475
 20
16.5405912862
 10
24.62009373
 20
16.5539911003
 10
24.5413817539
 20
16.5761970625
 10
24.4712143621
 20
16.6070197194
 10
24.410190198
 20
16.646196103
 10
24.371469403
 20
16.6801292098
  0
LWPOLYLINE
  5
27F
330
1F
100
AcDbEntity
  8
0
  6
Continuous
 62
     7
370
    25
100
AcDbPolyline
 90
       36
 70
   128
 43
0.0
 10
26.460400671
 20
13.7165254753
 10
26.4888298984
 20
13.6811170863
 10
26.540190198
 20
13.6339212151
 10
26.6012143621
 20
13.5947448315
 10
26.6713817539
 20
13.5639221746
 10
26.75009373
 20
13.5417162124
 10
26.8366787475
 20
13.5283163984
 10
26.9303980937
 20
13.523837055
 10
27.030452188
 20
13.5283163984
 10
27.1359874043
 20
13.5417162124
 10
27.2461033533
 20
13.5639221746
 10
27.3598605646
 20
13.5947448315
 10
27.4762885016
 20
13.6339212151
 10
27.5943938424
 20
13.6811170863
 10
27.7131689538
 20
13.7359297865
 10
27.8316004884
 20
13.7978916732
 10
27.9486780301
 20
13.8664741093
 10
28.0634027146
 20
13.9410919736
 10
28.1747957514
 20
14.021108653
 10
28.2819067744
 20
14.1058414732
 10
28.38382195
 20
14.1945675238
 10
28.4796717739
 20
14.2865298253
 10
28.5686384893
 20
14.3809437878
 10
28.6499630634
 20
14.4770039048
 10
28.7229516637
 20
14.573890625
 10
28.7869815772
 20
14.6707773453
 10
28.8415065232
 20
14.7668374622
 10
28.8860613142
 20
14.8612514247
 10
28.9202658243
 20
14.9532137262
 10
28.9438282327
 20
15.0419397768
 10
28.9565475133
 20
15.126672597
 10
28.9583151496
 20
15.2066892764
 10
28.9491160609
 20
15.2813071408
 10
28.9290287304
 20
15.3498895768
 10
28.8982245363
 20
15.4118514635
 10
28.8853955163
 20
15.4312557748
  0
LWPOLYLINE
  5
280
330
1F
100
AcDbEntity
  8
0
  6
Continuous
 62
     7
370
    25
100
AcDbPolyline
 90
       23
 70
   128
 43
0.0
 10
28.9003980937
 20
14.8956242105
 10
28.8963345645
 20
14.8843388603
 10
28.8575945239
 20
14.7916825499
 10
28.8085751491
 20
14.6969258538
 10
28.749707224
 20
14.6009014973
 10
28.6815080821
 20
14.5044533459
 10
28.6045770599
 20
14.4084289894
 10
28.51959023
 20
14.3136722933
 10
28.4272944597
 20
14.2210159829
 10
28.3285008475
 20
14.1312743251
 10
28.2240775953
 20
14.0452359729
 10
28.1149423784
 20
13.9636570344
 10
28.0020542809
 20
13.8872544282
 10
27.8864053676
 20
13.8166995832
 10
27.7690119652
 20
13.7526125379
 10
27.6509057312
 20
13.6955564916
 10
27.5331245874
 20
13.6460328548
 10
27.4167035987
 20
13.6044768431
 10
27.302665877
 20
13.5712536522
 10
27.1920135899
 20
13.5466552486
 10
27.0857191536
 20
13.5308978041
 10
26.9847166875
 20
13.5241197956
 10
26.9603980937
 20
13.523837055
  0
LINE
  5
281
330
1F
100
AcDbEntity
  8
0
  6
Continuous
 62
     7
370
    25
100
AcDbLine
 10
27.5700575529
 20
13.6607637372
 30
0.0
 11
27.7218709491
 21
13.4460671734
 31
0.0
  0
ARC
  5
282
330
1F
100
AcDbEntity
  8
0
  6
Continuous
 62
     7
370
    25
100
AcDbCircle
 10
28.118387326
 20
13.6955392673
 30
0.0
 40
0.4684672483530631
100
AcDbArc
 50
212.176445413
 51
266.6272963712
  0
LINE
  5
283
330
1F
100
AcDbEntity
  8
0
  6
Continuous
 62
     7
370
    25
100
AcDbLine
 10
28.6538645722
 20
11.1440434616
 30
0.0
 11
28.6535990523
 21
11.1440434616
 31
0.0
  0
LINE
  5
284
330
1F
100
AcDbEntity
  8
0
  6
Continuous
 62
     7
370
    25
100
AcDbLine
 10
27.5797005067
 20
11.1440434616
 30
0.0
 11
27.5348605473
 21
11.1440434616
 31
0.0
  0
LINE
  5
285
330
1F
100
AcDbEntity
  8
0
  6
Continuous
 62
     7
370
    25
100
AcDbLine
 10
28.5071782668
 20
11.1267550642
 30
0.0
 11
28.5780180866
 21
11.1267550642
 31
0.0
  0
LINE
  5
286
330
1F
100
AcDbEntity
  8
0
  6
Continuous
 62
     7
370
    25
100
AcDbLine
 10
27.5318625598
 20
11.1486251584
 30
0.0
 11
27.5784233036
 21
11.1486251584
 31
0.0
  0
LINE
  5
287
330
1F
100
AcDbEntity
  8
0
  6
Continuous
 62
     7
370
    25
100
AcDbLine
 10
28.6564677883
 20
11.1486251584
 30
0.0
 11
28.6568625598
 21
11.1486251584
 31
0.0
  0
LWPOLYLINE
  5
288
330
1F
100
AcDbEntity
  8
0
  6
Continuous
 62
     7
370
    25
100
AcDbPolyline
 90
       21
 70
   128
 43
0.0
 10
27.7218709491
 20
13.4460671734
 10
27.7938387512
 20
13.4501489699
 10
27.8710535809
 20
13.4632508018
 10
27.9521829736
 20
13.4851465763
 10
28.0358269125
 20
13.5154584468
 10
28.1205419884
 20
13.5536633338
 10
28.2048663079
 20
13.5991019513
 10
28.2873447206
 20
13.6509901836
 10
28.3665539304
 20
13.7084326166
 10
28.4411270564
 20
13.7704379899
 10
28.5097772205
 20
13.835936302
 10
28.5713197551
 20
13.9037972754
 10
28.6246926456
 20
13.972849861
 10
28.6689748582
 20
14.0419024466
 10
28.7034022326
 20
14.10976342
 10
28.7273806697
 20
14.1752617321
 10
28.7404963836
 20
14.2372671054
 10
28.7425230416
 20
14.2947095384
 10
28.7334256707
 20
14.3465977707
 10
28.7133612603
 20
14.3920363882
 10
28.7061880465
 20
14.4029758116
  0
LINE
  5
289
330
1F
100
AcDbEntity
  8
0
  6
Continuous
 62
     7
370
    25
100
AcDbLine
 10
11.1543878204
 20
4.9767213217
 30
0.0
 11
11.1543878204
 21
5.3108239658
 31
0.0
  0
LINE
  5
28A
330
1F
100
AcDbEntity
  8
0
  6
Continuous
 62
     7
370
    25
100
AcDbLine
 10
11.1543878204
 20
3.3347213217
 30
0.0
 11
11.1543878204
 21
4.8416940279
 31
0.0
  0
LINE
  5
28B
330
1F
100
AcDbEntity
  8
0
  6
Continuous
 62
     7
370
    25
100
AcDbLine
 10
11.1543878204
 20
3.0168239658
 30
0.0
 11
11.1543878204
 21
3.1996940279
 31
0.0
  0
LINE
  5
28C
330
1F
100
AcDbEntity
  8
0
  6
Continuous
 62
     7
370
    25
100
AcDbLine
 10
8.1843878204
 20
8.2808239658
 30
0.0
 11
8.1843878204
 21
3.0168239658
 31
0.0
  0
LINE
  5
28D
330
1F
100
AcDbEntity
  8
0
  6
Continuous
 62
     7
370
    25
100
AcDbLine
 10
11.1543878204
 20
5.3108239658
 30
0.0
 11
8.1843878204
 21
8.2808239658
 31
0.0
  0
SPLINE
  5
28E
330
1F
100
AcDbEntity
  8
0
  6
Continuous
 62
     7
370
    25
100
AcDbSpline
210
0.0
220
0.0
230
1.0
 70
     8
 71
     3
 72
    17
 73
    13
 74
     0
 42
0.00000001
 43
0.00000001
 40
0.0
 40
0.0
 40
0.0
 40
0.0
 40
0.0369140410714703
 40
0.1441727578000945
 40
0.2514729941470841
 40
0.3588713419172214
 40
0.4662714384589161
 40
0.5735739143471663
 40
0.6808318517915279
 40
0.7881677618600135
 40
0.8955825044580586
 40
1.0
 40
1.0
 40
1.0
 40
1.0
 10
11.15434834479578
 20
4.841694027864602
 30
0.0
 10
11.1543591378569
 20
4.841455817222734
 30
0.0
 10
11.15440129161038
 20
4.840525453486373
 30
0.0
 10
11.15411308411852
 20
4.846830256946459
 30
0.0
 10
11.15360588840429
 20
4.859946080963994
 30
0.0
 10
11.15307752503006
 20
4.87909250611644
 30
0.0
 10
11.15278803902632
 20
4.901459878610831
 30
0.0
 10
11.1528564026568
 20
4.924674342431452
 30
0.0
 10
11.15325647017866
 20
4.946127457339643
 30
0.0
 10
11.15380380320779
 20
4.963230785616347
 30
0.0
 10
11.1542874963203
 20
4.974691662839819
 30
0.0
 10
11.15435162927795
 20
4.976051180783381
 30
0.0
 10
11.15438324204321
 20
4.976721321740476
 30
0.0
  0
SPLINE
  5
28F
330
1F
100
AcDbEntity
  8
0
  6
Continuous
 62
     7
370
    25
100
AcDbSpline
210
0.0
220
0.0
230
1.0
 70
    11
 71
     3
 72
    56
 73
    52
 74
     0
 42
0.00000001
 43
0.00000001
 40
0.0
 40
0.0
 40
0.0
 40
0.0
 40
0.03125
 40
0.03125
 40
0.0624999999999999
 40
0.0624999999999999
 40
0.0937499999999999
 40
0.0937499999999999
 40
0.1249999999999999
 40
0.1249999999999999
 40
0.1874999999999996
 40
0.1874999999999996
 40
0.2499999999999993
 40
0.2499999999999993
 40
0.2812499999999991
 40
0.2812499999999991
 40
0.3124999999999989
 40
0.3124999999999989
 40
0.3437499999999987
 40
0.3437499999999987
 40
0.3749999999999985
 40
0.3749999999999985
 40
0.4062499999999983
 40
0.4062499999999983
 40
0.4374999999999981
 40
0.4374999999999981
 40
0.4687499999999979
 40
0.4687499999999979
 40
0.4999999999999977
 40
0.4999999999999977
 40
0.562499999999997
 40
0.562499999999997
 40
0.6249999999999964
 40
0.6249999999999964
 40
0.6562499999999964
 40
0.6562499999999964
 40
0.6874999999999966
 40
0.6874999999999966
 40
0.7187499999999967
 40
0.7187499999999967
 40
0.7499999999999968
 40
0.7499999999999968
 40
0.8124999999999977
 40
0.8124999999999977
 40
0.8437499999999981
 40
0.8437499999999981
 40
0.8749999999999983
 40
0.8749999999999983
 40
0.9374999999999992
 40
0.9374999999999992
 40
1.0
 40
1.0
 40
1.0
 40
1.0
 10
8.98655640749624
 20
3.266823965838315
 30
0.0
 10
8.98655640749624
 20
3.262330926778071
 30
0.0
 10
8.986164350532077
 20
3.25791308699569
 30
0.0
 10
8.98462941515791
 20
3.249221619198224
 30
0.0
 10
8.983467894866747
 20
3.244902938383325
 30
0.0
 10
8.980439584764339
 20
3.236668265699461
 30
0.0
 10
8.978587914182258
 20
3.23276275766696
 30
0.0
 10
8.974220392849027
 20
3.225371413233956
 30
0.0
 10
8.971681733628506
 20
3.221872286012011
 30
0.0
 10
8.963380218619037
 20
3.212464241648204
 30
0.0
 10
8.956709255188532
 20
3.207398144002463
 30
0.0
 10
8.942393977276431
 20
3.200615114234072
 30
0.0
 10
8.934601559503564
 20
3.198828714454604
 30
0.0
 10
8.923078141795672
 20
3.198821606085465
 30
0.0
 10
8.919186839545334
 20
3.199262977600255
 30
0.0
 10
8.911672619452899
 20
3.200997649700979
 30
0.0
 10
8.908029981235355
 20
3.202281151315922
 30
0.0
 10
8.900971649906833
 20
3.205685268427081
 30
0.0
 10
8.897566730836978
 20
3.207814073800752
 30
0.0
 10
8.89127862285154
 20
3.212735324890904
 30
0.0
 10
8.888354549580194
 20
3.215544747389193
 30
0.0
 10
8.882957705900969
 20
3.22188889900896
 30
0.0
 10
8.880567318066088
 20
3.225328648216428
 30
0.0
 10
8.87639488507053
 20
3.232691349977124
 30
0.0
 10
8.87459447398481
 20
3.236664387574856
 30
0.0
 10
8.871708869854539
 20
3.244903644828033
 30
0.0
 10
8.870623162902524
 20
3.249142261668902
 30
0.0
 10
8.869154467117465
 20
3.257854807894379
 30
0.0
 10
8.868778289852846
 20
3.262361796929371
 30
0.0
 10
8.868774288964131
 20
3.275675592225497
 30
0.0
 10
8.870272426185757
 20
3.284621880192556
 30
0.0
 10
8.875991423114543
 20
3.300993038205175
 30
0.0
 10
8.880273473039662
 20
3.308584982455092
 30
0.0
 10
8.888257612706132
 20
3.317998402637261
 30
0.0
 10
8.891231839881355
 20
3.320871860875085
 30
0.0
 10
8.8975401483532
 20
3.325817138140428
 30
0.0
 10
8.900877854975251
 20
3.327908406800963
 30
0.0
 10
8.907926617231812
 20
3.331325701560138
 30
0.0
 10
8.91164204176449
 20
3.332639790897044
 30
0.0
 10
8.919131071447408
 20
3.334375472723376
 30
0.0
 10
8.922944012371563
 20
3.334819411264763
 30
0.0
 10
8.934597409444395
 20
3.334832971408861
 30
0.0
 10
8.942285374362486
 20
3.333075282374653
 30
0.0
 10
8.953107592801699
 20
3.327960818156536
 30
0.0
 10
8.956534598312134
 20
3.325874563554884
 30
0.0
 10
8.963028482839668
 20
3.320950389166948
 30
0.0
 10
8.96611389227807
 20
3.318081235710936
 30
0.0
 10
8.974426242594662
 20
3.308674048620004
 30
0.0
 10
8.978918288023605
 20
3.301096406199833
 30
0.0
 10
8.984949163860932
 20
3.284736965186007
 30
0.0
 10
8.98655640749624
 20
3.275810043958805
 30
0.0
 10
8.98655640749624
 20
3.266823965838316
 30
0.0
  0
SPLINE
  5
290
330
1F
100
AcDbEntity
  8
0
  6
Continuous
 62
     7
370
    25
100
AcDbSpline
210
0.0
220
0.0
230
1.0
 70
     8
 71
     3
 72
    17
 73
    13
 74
     0
 42
0.00000001
 43
0.00000001
 40
0.0
 40
0.0
 40
0.0
 40
0.0
 40
0.03691404107147
 40
0.1441727578000947
 40
0.2514729941470842
 40
0.3588713419172136
 40
0.466271438458919
 40
0.5735739143471594
 40
0.6808318517915263
 40
0.7881677618600159
 40
0.8955825044580559
 40
1.0
 40
1.0
 40
1.0
 40
1.0
 10
11.15434834479578
 20
3.199694027864603
 30
0.0
 10
11.1543591378569
 20
3.199455817222734
 30
0.0
 10
11.15440129161038
 20
3.198525453486374
 30
0.0
 10
11.15411308411851
 20
3.20483025694646
 30
0.0
 10
11.15360588840429
 20
3.217946080963995
 30
0.0
 10
11.15307752503006
 20
3.237092506116439
 30
0.0
 10
11.15278803902631
 20
3.25945987861083
 30
0.0
 10
11.1528564026568
 20
3.282674342431451
 30
0.0
 10
11.15325647017866
 20
3.304127457339642
 30
0.0
 10
11.15380380320779
 20
3.321230785616348
 30
0.0
 10
11.1542874963203
 20
3.332691662839816
 30
0.0
 10
11.15435162927795
 20
3.33405118078338
 30
0.0
 10
11.15438324204321
 20
3.334721321740477
 30
0.0
  0
LINE
  5
291
330
1F
100
AcDbEntity
  8
0
  6
Continuous
 62
     7
370
    25
100
AcDbLine
 10
9.6693878204
 20
3.0168239658
 30
0.0
 11
11.1543878204
 21
3.0168239658
 31
0.0
  0
LINE
  5
292
330
1F
100
AcDbEntity
  8
0
  6
Continuous
 62
     7
370
    25
100
AcDbLine
 10
8.1843878204
 20
3.0168239658
 30
0.0
 11
9.6693878204
 21
3.0168239658
 31
0.0
  0
SPLINE
  5
293
330
1F
100
AcDbEntity
  8
0
  6
Continuous
 62
     7
370
    25
100
AcDbSpline
210
0.0
220
0.0
230
1.0
 70
     8
 71
     3
 72
    15
 73
    11
 74
     0
 42
0.00000001
 43
0.00000001
 40
0.0
 40
0.0
 40
0.0
 40
0.0
 40
0.0480351901628053
 40
0.1858631987589008
 40
0.3238319928781351
 40
0.4618033821705175
 40
0.5996346811946422
 40
0.737401991434666
 40
0.8752811478611662
 40
1.0
 40
1.0
 40
1.0
 40
1.0
 10
8.9478596761773
 20
3.330209460749528
 30
0.0
 10
8.945638605852283
 20
3.329561076134715
 30
0.0
 10
8.93704458896847
 20
3.327052272940085
 30
0.0
 10
8.924778165191132
 20
3.315309787712039
 30
0.0
 10
8.91335300622598
 20
3.296667964182526
 30
0.0
 10
8.908065866370679
 20
3.274178222642097
 30
0.0
 10
8.909259166919659
 20
3.250955078084539
 30
0.0
 10
8.916928133792403
 20
3.229663658621435
 30
0.0
 10
8.929552440604722
 20
3.212491940502628
 30
0.0
 10
8.940924926673343
 20
3.206400284803771
 30
0.0
 10
8.946326199197047
 20
3.203507100995801
 30
0.0
  0
DIMENSION
  5
294
330
1F
100
AcDbEntity
  8
0
  6
Continuous
 62
     7
370
    18
100
AcDbDimension
  2
_D_4
 10
5.5859626235
 20
3.0168239658
 30
0.0
 11
5.5859626235
 21
5.6488239658
 31
0.0
 70
   160
  1
<>
 71
     2
 42
-1.0
  3
SLDDIMSTYLE0
100
AcDbAlignedDimension
 13
8.1843878204
 23
8.2808239658
 33
0.0
 14
8.1843878204
 24
3.0168239658
 34
0.0
 50
90.0
100
AcDbRotatedDimension
  0
MTEXT
  5
2A8
330
1F
100
AcDbEntity
  8
0
  6
Continuous
 62
     7
370
     0
100
AcDbMText
 10
9.6225948634
 20
1.8793211502
 30
0.0
 40
0.4133858268
 41
0.0
 71
     2
 72
     1
  1
A/D CAP
  7
SLDTEXTSTYLE0
 73
     1
 44
1.0
  0
LINE
  5
2A9
330
1F
100
AcDbEntity
  8
0
  6
Continuous
 62
     7
370
    25
100
AcDbLine
 10
18.8315390212
 20
5.0096238159
 30
0.0
 11
18.8315390212
 21
5.84372646
 31
0.0
  0
LINE
  5
2AA
330
1F
100
AcDbEntity
  8
0
  6
Continuous
 62
     7
370
    25
100
AcDbLine
 10
18.8315390212
 20
3.3676238159
 30
0.0
 11
18.8315390212
 21
4.874596522
 31
0.0
  0
LINE
  5
2AB
330
1F
100
AcDbEntity
  8
0
  6
Continuous
 62
     7
370
    25
100
AcDbLine
 10
18.8315390212
 20
3.04972646
 30
0.0
 11
18.8315390212
 21
3.232596522
 31
0.0
  0
LINE
  5
2AC
330
1F
100
AcDbEntity
  8
0
  6
Continuous
 62
     7
370
    25
100
AcDbLine
 10
15.8615390212
 20
5.84372646
 30
0.0
 11
15.8615390212
 21
3.04972646
 31
0.0
  0
ARC
  5
2AD
330
1F
100
AcDbEntity
  8
0
  6
Continuous
 62
     7
370
    25
100
AcDbCircle
 10
15.8915390212
 20
5.84372646
 30
0.0
 40
0.0300000000000002
100
AcDbArc
 50
90.0
 51
180.0
  0
ARC
  5
2AE
330
1F
100
AcDbEntity
  8
0
  6
Continuous
 62
     7
370
    25
100
AcDbCircle
 10
18.8015390212
 20
5.84372646
 30
0.0
 40
0.0300000000000011
100
AcDbArc
 50
0.0
 51
90.0
  0
LINE
  5
2AF
330
1F
100
AcDbEntity
  8
0
  6
Continuous
 62
     7
370
    25
100
AcDbLine
 10
17.3465390212
 20
3.04972646
 30
0.0
 11
18.8315390212
 21
3.04972646
 31
0.0
  0
LINE
  5
2B0
330
1F
100
AcDbEntity
  8
0
  6
Continuous
 62
     7
370
    25
100
AcDbLine
 10
15.8615390212
 20
3.04972646
 30
0.0
 11
17.3465390212
 21
3.04972646
 31
0.0
  0
SPLINE
  5
2B1
330
1F
100
AcDbEntity
  8
0
  6
Continuous
 62
     7
370
    25
100
AcDbSpline
210
0.0
220
0.0
230
1.0
 70
     8
 71
     3
 72
    17
 73
    13
 74
     0
 42
0.00000001
 43
0.00000001
 40
0.0
 40
0.0
 40
0.0
 40
0.0
 40
0.0369140410714651
 40
0.1441727578000929
 40
0.2514729941470753
 40
0.3588713419172146
 40
0.466271438458922
 40
0.5735739143471754
 40
0.6808318517915263
 40
0.7881677618600179
 40
0.8955825044580775
 40
1.0
 40
1.0
 40
1.0
 40
1.0
 10
18.83149954566774
 20
3.232596522043736
 30
0.0
 10
18.83151033872886
 20
3.232358311401868
 30
0.0
 10
18.83155249248234
 20
3.231427947665507
 30
0.0
 10
18.83126428499047
 20
3.237732751125592
 30
0.0
 10
18.83075708927624
 20
3.250848575143131
 30
0.0
 10
18.83022872590201
 20
3.269995000295571
 30
0.0
 10
18.82993923989827
 20
3.292362372789964
 30
0.0
 10
18.83000760352876
 20
3.315576836610584
 30
0.0
 10
18.83040767105062
 20
3.337029951518775
 30
0.0
 10
18.83095500407974
 20
3.354133279795484
 30
0.0
 10
18.83143869719226
 20
3.365594157018949
 30
0.0
 10
18.8315028301499
 20
3.366953674962512
 30
0.0
 10
18.83153444291516
 20
3.367623815919608
 30
0.0
  0
SPLINE
  5
2B2
330
1F
100
AcDbEntity
  8
0
  6
Continuous
 62
     7
370
    25
100
AcDbSpline
210
0.0
220
0.0
230
1.0
 70
    11
 71
     3
 72
    56
 73
    52
 74
     0
 42
0.00000001
 43
0.00000001
 40
0.0
 40
0.0
 40
0.0
 40
0.0
 40
0.0312500000000001
 40
0.0312500000000001
 40
0.0625000000000002
 40
0.0625000000000002
 40
0.0937500000000004
 40
0.0937500000000004
 40
0.1250000000000005
 40
0.1250000000000005
 40
0.1875000000000007
 40
0.1875000000000007
 40
0.250000000000001
 40
0.250000000000001
 40
0.2812500000000006
 40
0.2812500000000006
 40
0.3125000000000002
 40
0.3125000000000002
 40
0.3437499999999999
 40
0.3437499999999999
 40
0.3749999999999995
 40
0.3749999999999995
 40
0.4062499999999991
 40
0.4062499999999991
 40
0.4374999999999987
 40
0.4374999999999987
 40
0.4687499999999984
 40
0.4687499999999984
 40
0.499999999999998
 40
0.499999999999998
 40
0.5624999999999974
 40
0.5624999999999974
 40
0.6249999999999969
 40
0.6249999999999969
 40
0.656249999999997
 40
0.656249999999997
 40
0.6874999999999968
 40
0.6874999999999968
 40
0.7187499999999966
 40
0.7187499999999966
 40
0.7499999999999963
 40
0.7499999999999963
 40
0.812499999999996
 40
0.812499999999996
 40
0.8437499999999962
 40
0.8437499999999962
 40
0.8749999999999964
 40
0.8749999999999964
 40
0.9374999999999983
 40
0.9374999999999983
 40
1.0
 40
1.0
 40
1.0
 40
1.0
 10
16.66370760836819
 20
3.299726460017447
 30
0.0
 10
16.66370760836819
 20
3.295233420957203
 30
0.0
 10
16.66331555140403
 20
3.290815581174821
 30
0.0
 10
16.66178061602986
 20
3.282124113377356
 30
0.0
 10
16.6606190957387
 20
3.277805432562455
 30
0.0
 10
16.65759078563629
 20
3.269570759878591
 30
0.0
 10
16.65573911505421
 20
3.265665251846091
 30
0.0
 10
16.65137159372098
 20
3.258273907413087
 30
0.0
 10
16.64883293450046
 20
3.254774780191141
 30
0.0
 10
16.64053141949099
 20
3.245366735827334
 30
0.0
 10
16.63386045606049
 20
3.240300638181593
 30
0.0
 10
16.61954517814839
 20
3.233517608413202
 30
0.0
 10
16.61175276037552
 20
3.231731208633734
 30
0.0
 10
16.60022934266763
 20
3.231724100264594
 30
0.0
 10
16.59633804041729
 20
3.232165471779385
 30
0.0
 10
16.58882382032485
 20
3.233900143880108
 30
0.0
 10
16.58518118210731
 20
3.23518364549505
 30
0.0
 10
16.57812285077879
 20
3.238587762606209
 30
0.0
 10
16.57471793170893
 20
3.24071656797988
 30
0.0
 10
16.56842982372349
 20
3.245637819070031
 30
0.0
 10
16.56550575045215
 20
3.248447241568321
 30
0.0
 10
16.56010890677292
 20
3.254791393188089
 30
0.0
 10
16.55771851893805
 20
3.258231142395555
 30
0.0
 10
16.55354608594248
 20
3.265593844156252
 30
0.0
 10
16.55174567485677
 20
3.269566881753982
 30
0.0
 10
16.54886007072649
 20
3.27780613900716
 30
0.0
 10
16.54777436377448
 20
3.282044755848028
 30
0.0
 10
16.54630566798942
 20
3.290757302073506
 30
0.0
 10
16.5459294907248
 20
3.295264291108498
 30
0.0
 10
16.54592548983608
 20
3.308578086404624
 30
0.0
 10
16.54742362705771
 20
3.317524374371683
 30
0.0
 10
16.5531426239865
 20
3.333895532384302
 30
0.0
 10
16.55742467391161
 20
3.34148747663422
 30
0.0
 10
16.56540881357808
 20
3.350900896816388
 30
0.0
 10
16.5683830407533
 20
3.353774355054214
 30
0.0
 10
16.57469134922515
 20
3.358719632319555
 30
0.0
 10
16.5780290558472
 20
3.36081090098009
 30
0.0
 10
16.58507781810377
 20
3.364228195739266
 30
0.0
 10
16.58879324263644
 20
3.365542285076172
 30
0.0
 10
16.59628227231936
 20
3.367277966902504
 30
0.0
 10
16.60009521324351
 20
3.367721905443892
 30
0.0
 10
16.61174861031635
 20
3.36773546558799
 30
0.0
 10
16.61943657523444
 20
3.365977776553783
 30
0.0
 10
16.63025879367365
 20
3.360863312335666
 30
0.0
 10
16.63368579918409
 20
3.358777057734014
 30
0.0
 10
16.64017968371162
 20
3.353852883346079
 30
0.0
 10
16.64326509315002
 20
3.350983729890066
 30
0.0
 10
16.65157744346661
 20
3.341576542799134
 30
0.0
 10
16.65606948889556
 20
3.333998900378963
 30
0.0
 10
16.66210036473289
 20
3.317639459365138
 30
0.0
 10
16.66370760836819
 20
3.308712538137937
 30
0.0
 10
16.66370760836819
 20
3.299726460017447
 30
0.0
  0
SPLINE
  5
2B3
330
1F
100
AcDbEntity
  8
0
  6
Continuous
 62
     7
370
    25
100
AcDbSpline
210
0.0
220
0.0
230
1.0
 70
     8
 71
     3
 72
    17
 73
    13
 74
     0
 42
0.00000001
 43
0.00000001
 40
0.0
 40
0.0
 40
0.0
 40
0.0
 40
0.036914041071455
 40
0.144172757800085
 40
0.2514729941470752
 40
0.3588713419172224
 40
0.4662714384589293
 40
0.5735739143471509
 40
0.6808318517915198
 40
0.7881677618600251
 40
0.8955825044580663
 40
1.0
 40
1.0
 40
1.0
 40
1.0
 10
18.83149954566774
 20
4.874596522043739
 30
0.0
 10
18.83151033872886
 20
4.87435831140187
 30
0.0
 10
18.83155249248234
 20
4.873427947665508
 30
0.0
 10
18.83126428499047
 20
4.879732751125598
 30
0.0
 10
18.83075708927624
 20
4.892848575143134
 30
0.0
 10
18.83022872590201
 20
4.911995000295576
 30
0.0
 10
18.82993923989826
 20
4.934362372789969
 30
0.0
 10
18.83000760352876
 20
4.957576836610586
 30
0.0
 10
18.83040767105061
 20
4.979029951518779
 30
0.0
 10
18.83095500407974
 20
4.996133279795484
 30
0.0
 10
18.83143869719226
 20
5.007594157018954
 30
0.0
 10
18.8315028301499
 20
5.008953674962518
 30
0.0
 10
18.83153444291516
 20
5.009623815919614
 30
0.0
  0
LINE
  5
2B4
330
1F
100
AcDbEntity
  8
0
  6
Continuous
 62
     7
370
    25
100
AcDbLine
 10
17.3465390212
 20
5.87372646
 30
0.0
 11
18.8015390212
 21
5.87372646
 31
0.0
  0
LINE
  5
2B5
330
1F
100
AcDbEntity
  8
0
  6
Continuous
 62
     7
370
    25
100
AcDbLine
 10
15.8915390212
 20
5.87372646
 30
0.0
 11
17.3465390212
 21
5.87372646
 31
0.0
  0
SPLINE
  5
2B6
330
1F
100
AcDbEntity
  8
0
  6
Continuous
 62
     7
370
    25
100
AcDbSpline
210
0.0
220
0.0
230
1.0
 70
     8
 71
     3
 72
    15
 73
    11
 74
     0
 42
0.00000001
 43
0.00000001
 40
0.0
 40
0.0
 40
0.0
 40
0.0
 40
0.0480351901627596
 40
0.1858631987588763
 40
0.3238319928781247
 40
0.4618033821705046
 40
0.5996346811946384
 40
0.7374019914346827
 40
0.8752811478611817
 40
1.0
 40
1.0
 40
1.0
 40
1.0
 10
16.62501087704925
 20
3.363111954928657
 30
0.0
 10
16.62278980672423
 20
3.362463570313845
 30
0.0
 10
16.61419578984042
 20
3.359954767119215
 30
0.0
 10
16.60192936606308
 20
3.348212281891174
 30
0.0
 10
16.59050420709793
 20
3.329570458361655
 30
0.0
 10
16.58521706724264
 20
3.307080716821228
 30
0.0
 10
16.58641036779161
 20
3.283857572263668
 30
0.0
 10
16.59407933466436
 20
3.262566152800568
 30
0.0
 10
16.60670364147667
 20
3.245394434681759
 30
0.0
 10
16.61807612754529
 20
3.239302778982902
 30
0.0
 10
16.62347740006899
 20
3.236409595174932
 30
0.0
  0
LINE
  5
2B7
330
1F
100
AcDbEntity
  8
0
  6
Continuous
 62
     7
370
    25
100
AcDbLine
 10
17.3465390212
 20
5.84372646
 30
0.0
 11
15.8615390212
 21
5.84372646
 31
0.0
  0
LINE
  5
2B8
330
1F
100
AcDbEntity
  8
0
  6
Continuous
 62
     7
370
    25
100
AcDbLine
 10
18.8315390212
 20
5.84372646
 30
0.0
 11
17.3465390212
 21
5.84372646
 31
0.0
  0
DIMENSION
  5
2B9
330
1F
100
AcDbEntity
  8
0
  6
Continuous
 62
     7
370
    18
100
AcDbDimension
  2
_D_5
 10
13.9717752417
 20
3.04972646
 30
0.0
 11
13.9717752417
 21
4.46172646
 31
0.0
 70
   160
  1
<>
 71
     2
 42
-1.0
  3
SLDDIMSTYLE0
100
AcDbAlignedDimension
 13
15.8915390212
 23
5.87372646
 33
0.0
 14
15.8615390212
 24
3.04972646
 34
0.0
 50
90.0
100
AcDbRotatedDimension
  0
MTEXT
  5
2CD
330
1F
100
AcDbEntity
  8
0
  6
Continuous
 62
     7
370
     0
100
AcDbMText
 10
17.318549321
 20
1.8703170922
 30
0.0
 40
0.4133858268
 41
0.0
 71
     2
 72
     1
  1
B/E CAP
  7
SLDTEXTSTYLE0
 73
     1
 44
1.0
  0
ARC
  5
2CE
330
1F
100
AcDbEntity
  8
0
  6
Continuous
 62
     7
370
    25
100
AcDbCircle
 10
23.7469178179
 20
4.84372646
 30
0.0
 40
0.0300000000000011
100
AcDbArc
 50
90.0
 51
180.0
  0
ARC
  5
2CF
330
1F
100
AcDbEntity
  8
0
  6
Continuous
 62
     7
370
    25
100
AcDbCircle
 10
26.6569178179
 20
4.84372646
 30
0.0
 40
0.0300000000000011
100
AcDbArc
 50
0.0
 51
90.0
  0
LINE
  5
2D0
330
1F
100
AcDbEntity
  8
0
  6
Continuous
 62
     7
370
    25
100
AcDbLine
 10
26.6869178179
 20
3.3676238159
 30
0.0
 11
26.6869178179
 21
4.84372646
 31
0.0
  0
LINE
  5
2D1
330
1F
100
AcDbEntity
  8
0
  6
Continuous
 62
     7
370
    25
100
AcDbLine
 10
26.6869178179
 20
3.04972646
 30
0.0
 11
26.6869178179
 21
3.232596522
 31
0.0
  0
LINE
  5
2D2
330
1F
100
AcDbEntity
  8
0
  6
Continuous
 62
     7
370
    25
100
AcDbLine
 10
23.7169178179
 20
4.84372646
 30
0.0
 11
23.7169178179
 21
3.04972646
 31
0.0
  0
LINE
  5
2D3
330
1F
100
AcDbEntity
  8
0
  6
Continuous
 62
     7
370
    25
100
AcDbLine
 10
25.2019178179
 20
4.87372646
 30
0.0
 11
26.6569178179
 21
4.87372646
 31
0.0
  0
LINE
  5
2D4
330
1F
100
AcDbEntity
  8
0
  6
Continuous
 62
     7
370
    25
100
AcDbLine
 10
23.7469178179
 20
4.87372646
 30
0.0
 11
25.2019178179
 21
4.87372646
 31
0.0
  0
LINE
  5
2D5
330
1F
100
AcDbEntity
  8
0
  6
Continuous
 62
     7
370
    25
100
AcDbLine
 10
25.2019178179
 20
3.04972646
 30
0.0
 11
26.6869178179
 21
3.04972646
 31
0.0
  0
LINE
  5
2D6
330
1F
100
AcDbEntity
  8
0
  6
Continuous
 62
     7
370
    25
100
AcDbLine
 10
23.7169178179
 20
3.04972646
 30
0.0
 11
25.2019178179
 21
3.04972646
 31
0.0
  0
SPLINE
  5
2D7
330
1F
100
AcDbEntity
  8
0
  6
Continuous
 62
     7
370
    25
100
AcDbSpline
210
0.0
220
0.0
230
1.0
 70
     8
 71
     3
 72
    17
 73
    13
 74
     0
 42
0.00000001
 43
0.00000001
 40
0.0
 40
0.0
 40
0.0
 40
0.0
 40
0.0369140410714699
 40
0.1441727578000977
 40
0.2514729941470875
 40
0.3588713419172084
 40
0.4662714384589136
 40
0.573573914347154
 40
0.6808318517915253
 40
0.7881677618600188
 40
0.8955825044580589
 40
1.0
 40
1.0
 40
1.0
 40
1.0
 10
26.68687834235333
 20
3.232596522043744
 30
0.0
 10
26.68688913541445
 20
3.232358311401876
 30
0.0
 10
26.68693128916793
 20
3.231427947665515
 30
0.0
 10
26.68664308167606
 20
3.237732751125604
 30
0.0
 10
26.68613588596184
 20
3.250848575143139
 30
0.0
 10
26.68560752258761
 20
3.26999500029558
 30
0.0
 10
26.68531803658386
 20
3.292362372789972
 30
0.0
 10
26.68538640021435
 20
3.315576836610592
 30
0.0
 10
26.6857864677362
 20
3.337029951518785
 30
0.0
 10
26.68633380076534
 20
3.354133279795492
 30
0.0
 10
26.68681749387785
 20
3.365594157018962
 30
0.0
 10
26.6868816268355
 20
3.366953674962522
 30
0.0
 10
26.68691323960076
 20
3.367623815919616
 30
0.0
  0
SPLINE
  5
2D8
330
1F
100
AcDbEntity
  8
0
  6
Continuous
 62
     7
370
    25
100
AcDbSpline
210
0.0
220
0.0
230
1.0
 70
    11
 71
     3
 72
    56
 73
    52
 74
     0
 42
0.00000001
 43
0.00000001
 40
0.0
 40
0.0
 40
0.0
 40
0.0
 40
0.0312499999999993
 40
0.0312499999999993
 40
0.0624999999999986
 40
0.0624999999999986
 40
0.0937499999999979
 40
0.0937499999999979
 40
0.1249999999999971
 40
0.1249999999999971
 40
0.1874999999999959
 40
0.1874999999999959
 40
0.2499999999999946
 40
0.2499999999999946
 40
0.2812499999999944
 40
0.2812499999999944
 40
0.3124999999999943
 40
0.3124999999999943
 40
0.3437499999999941
 40
0.3437499999999941
 40
0.3749999999999939
 40
0.3749999999999939
 40
0.4062499999999938
 40
0.4062499999999938
 40
0.4374999999999937
 40
0.4374999999999937
 40
0.4687499999999935
 40
0.4687499999999935
 40
0.4999999999999933
 40
0.4999999999999933
 40
0.5624999999999928
 40
0.5624999999999928
 40
0.6249999999999922
 40
0.6249999999999922
 40
0.6562499999999923
 40
0.6562499999999923
 40
0.6874999999999923
 40
0.6874999999999923
 40
0.7187499999999925
 40
0.7187499999999925
 40
0.7499999999999925
 40
0.7499999999999925
 40
0.8124999999999946
 40
0.8124999999999946
 40
0.8437499999999956
 40
0.8437499999999956
 40
0.8749999999999967
 40
0.8749999999999967
 40
0.9374999999999983
 40
0.9374999999999983
 40
1.0
 40
1.0
 40
1.0
 40
1.0
 10
24.51908640505378
 20
3.299726460017457
 30
0.0
 10
24.51908640505379
 20
3.295233420957211
 30
0.0
 10
24.51869434808962
 20
3.290815581174831
 30
0.0
 10
24.51715941271545
 20
3.282124113377364
 30
0.0
 10
24.51599789242429
 20
3.277805432562466
 30
0.0
 10
24.51296958232189
 20
3.269570759878601
 30
0.0
 10
24.51111791173981
 20
3.265665251846102
 30
0.0
 10
24.50675039040657
 20
3.258273907413097
 30
0.0
 10
24.50421173118605
 20
3.254774780191152
 30
0.0
 10
24.49591021617658
 20
3.245366735827345
 30
0.0
 10
24.48923925274608
 20
3.240300638181604
 30
0.0
 10
24.47492397483398
 20
3.233517608413212
 30
0.0
 10
24.46713155706111
 20
3.231731208633745
 30
0.0
 10
24.45560813935322
 20
3.231724100264606
 30
0.0
 10
24.45171683710288
 20
3.232165471779396
 30
0.0
 10
24.44420261701044
 20
3.233900143880119
 30
0.0
 10
24.4405599787929
 20
3.235183645495063
 30
0.0
 10
24.43350164746438
 20
3.238587762606223
 30
0.0
 10
24.43009672839452
 20
3.240716567979893
 30
0.0
 10
24.42380862040909
 20
3.245637819070044
 30
0.0
 10
24.42088454713774
 20
3.248447241568334
 30
0.0
 10
24.41548770345852
 20
3.254791393188102
 30
0.0
 10
24.41309731562363
 20
3.258231142395569
 30
0.0
 10
24.40892488262807
 20
3.265593844156265
 30
0.0
 10
24.40712447154236
 20
3.269566881753994
 30
0.0
 10
24.40423886741208
 20
3.277806139007172
 30
0.0
 10
24.40315316046007
 20
3.282044755848041
 30
0.0
 10
24.40168446467501
 20
3.29075730207352
 30
0.0
 10
24.40130828741039
 20
3.295264291108512
 30
0.0
 10
24.40130428652168
 20
3.308578086404639
 30
0.0
 10
24.4028024237433
 20
3.317524374371696
 30
0.0
 10
24.40852142067209
 20
3.333895532384315
 30
0.0
 10
24.4128034705972
 20
3.341487476634234
 30
0.0
 10
24.42078761026368
 20
3.350900896816401
 30
0.0
 10
24.4237618374389
 20
3.353774355054226
 30
0.0
 10
24.43007014591074
 20
3.358719632319568
 30
0.0
 10
24.4334078525328
 20
3.360810900980103
 30
0.0
 10
24.44045661478936
 20
3.364228195739277
 30
0.0
 10
24.44417203932203
 20
3.365542285076185
 30
0.0
 10
24.45166106900495
 20
3.367277966902517
 30
0.0
 10
24.45547400992911
 20
3.367721905443903
 30
0.0
 10
24.46712740700194
 20
3.367735465588002
 30
0.0
 10
24.47481537192003
 20
3.365977776553794
 30
0.0
 10
24.48563759035925
 20
3.360863312335676
 30
0.0
 10
24.48906459586968
 20
3.358777057734026
 30
0.0
 10
24.49555848039721
 20
3.35385288334609
 30
0.0
 10
24.49864388983562
 20
3.350983729890077
 30
0.0
 10
24.50695624015221
 20
3.341576542799144
 30
0.0
 10
24.51144828558115
 20
3.333998900378973
 30
0.0
 10
24.51747916141848
 20
3.317639459365147
 30
0.0
 10
24.51908640505379
 20
3.308712538137947
 30
0.0
 10
24.51908640505379
 20
3.299726460017457
 30
0.0
  0
SPLINE
  5
2D9
330
1F
100
AcDbEntity
  8
0
  6
Continuous
 62
     7
370
    25
100
AcDbSpline
210
0.0
220
0.0
230
1.0
 70
     8
 71
     3
 72
    15
 73
    11
 74
     0
 42
0.00000001
 43
0.00000001
 40
0.0
 40
0.0
 40
0.0
 40
0.0
 40
0.0466152751743121
 40
0.184648862856128
 40
0.3228234460514794
 40
0.4610006282908319
 40
0.5990375113085655
 40
0.7370103100989096
 40
0.875095121901319
 40
1.0
 40
1.0
 40
1.0
 40
1.0
 10
24.48018629713134
 20
3.36304288333173
 30
0.0
 10
24.47803483928345
 20
3.362412565925629
 30
0.0
 10
24.46951264900113
 20
3.359915800823639
 30
0.0
 10
24.45731022009675
 20
3.348206679680914
 30
0.0
 10
24.44588245225046
 20
3.329571960199998
 30
0.0
 10
24.4405960115461
 20
3.307080314854084
 30
0.0
 10
24.44178912496571
 20
3.283857679854447
 30
0.0
 10
24.44945814192916
 20
3.262566123993138
 30
0.0
 10
24.46208243580907
 20
3.245394441089588
 30
0.0
 10
24.47345492347314
 20
3.239302781046276
 30
0.0
 10
24.47885619675459
 20
3.236409595174942
 30
0.0
  0
LINE
  5
2DA
330
1F
100
AcDbEntity
  8
0
  6
Continuous
 62
     7
370
    25
100
AcDbLine
 10
25.2019178179
 20
4.84372646
 30
0.0
 11
23.7169178179
 21
4.84372646
 31
0.0
  0
LINE
  5
2DB
330
1F
100
AcDbEntity
  8
0
  6
Continuous
 62
     7
370
    25
100
AcDbLine
 10
26.6869178179
 20
4.84372646
 30
0.0
 11
25.2019178179
 21
4.84372646
 31
0.0
  0
DIMENSION
  5
2DC
330
1F
100
AcDbEntity
  8
0
  6
Continuous
 62
     7
370
    18
100
AcDbDimension
  2
_D_6
 10
21.5376993276
 20
3.04972646
 30
0.0
 11
21.5376993276
 21
3.96172646
 31
0.0
 70
   160
  1
<>
 71
     2
 42
-1.0
  3
SLDDIMSTYLE1
100
AcDbAlignedDimension
 13
23.7469178179
 23
4.87372646
 33
0.0
 14
23.7169178179
 24
3.04972646
 34
0.0
 50
90.0
100
AcDbRotatedDimension
  0
MTEXT
  5
2F1
330
1F
100
AcDbEntity
  8
0
  6
Continuous
 62
     7
370
     0
100
AcDbMText
 10
25.2946538838
 20
1.7822842066
 30
0.0
 40
0.4133858268
 41
0.0
 71
     2
 72
     1
  1
C CAP
  7
SLDTEXTSTYLE1
 73
     1
 44
1.0
  0
ENDSEC
  0
SECTION
  2
OBJECTS
  0
DICTIONARY
  5
C
330
0
100
AcDbDictionary
281
     1
  3
ACAD_GROUP
350
D
  3
ACAD_LAYOUT
350
1A
  3
ACAD_MLINESTYLE
350
17
  3
ACAD_PLOTSETTINGS
350
19
  3
ACAD_PLOTSTYLENAME
350
E
  3
ACAD_SCALELIST
350
47
  3
DWGPROPS
350
2F2
  0
DICTIONARY
  5
D
102
{ACAD_REACTORS
330
C
102
}
330
C
100
AcDbDictionary
281
     1
  0
DICTIONARY
  5
1A
102
{ACAD_REACTORS
330
C
102
}
330
C
100
AcDbDictionary
281
     1
  3
Layout1
350
1E
  3
Layout2
350
26
  3
Model
350
22
  0
DICTIONARY
  5
17
102
{ACAD_REACTORS
330
C
102
}
330
C
100
AcDbDictionary
281
     1
  3
Standard
350
18
  0
DICTIONARY
  5
19
102
{ACAD_REACTORS
330
C
102
}
330
C
100
AcDbDictionary
281
     1
  0
ACDBDICTIONARYWDFLT
  5
E
102
{ACAD_REACTORS
330
C
102
}
330
C
100
AcDbDictionary
281
     1
  3
Normal
350
F
100
AcDbDictionaryWithDefault
340
F
  0
DICTIONARY
  5
47
102
{ACAD_REACTORS
330
C
102
}
330
C
100
AcDbDictionary
281
     1
  3
A0
350
48
  3
A1
350
49
  3
A2
350
4A
  3
A3
350
4B
  3
A4
350
4C
  3
A5
350
4D
  3
A6
350
4E
  3
A7
350
4F
  3
A8
350
50
  3
A9
350
51
  3
B1
350
52
  3
B2
350
53
  3
B3
350
54
  3
B4
350
55
  3
B5
350
56
  3
B6
350
57
  3
B7
350
58
  0
XRECORD
  5
2F2
102
{ACAD_REACTORS
330
C
102
}
330
C
100
AcDbXrecord
280
     1
  1
DWGPROPS COOKIE
  2

  3

  4

  6

  7

  8
shawnd
  9

300
=
301
=
302
=
303
=
304
=
305
=
306
=
307
=
308
=
309
=
 40
0.0
 41
2460858.649176563
 42
2460858.649177246
  1

 90
        0
  0
LAYOUT
  5
1E
102
{ACAD_REACTORS
330
1A
102
}
330
1A
100
AcDbPlotSettings
  1

  2
none_device
  4

  6

 40
0.0
 41
0.0
 42
0.0
 43
0.0
 44
0.0
 45
0.0
 46
0.0
 47
0.0
 48
0.0
 49
0.0
140
0.0
141
0.0
142
1.0
143
1.0
 70
   688
 72
     0
 73
     0
 74
     5
  7

 75
    16
147
1.0
148
0.0
149
0.0
100
AcDbLayout
  1
Layout1
 70
     1
 71
     1
 10
0.0
 20
0.0
 11
12.0
 21
9.0
 12
0.0
 22
0.0
 32
0.0
 14
1.0000000000E+20
 24
1.0000000000E+20
 34
1.0000000000E+20
 15
-1.0000000000E+20
 25
-1.0000000000E+20
 35
-1.0000000000E+20
146
0.0
 13
0.0
 23
0.0
 33
0.0
 16
1.0
 26
0.0
 36
0.0
 17
0.0
 27
1.0
 37
0.0
 76
     0
330
1B
  0
LAYOUT
  5
26
102
{ACAD_REACTORS
330
1A
102
}
330
1A
100
AcDbPlotSettings
  1

  2
none_device
  4

  6

 40
0.0
 41
0.0
 42
0.0
 43
0.0
 44
0.0
 45
0.0
 46
0.0
 47
0.0
 48
0.0
 49
0.0
140
0.0
141
0.0
142
1.0
143
1.0
 70
   688
 72
     0
 73
     0
 74
     5
  7

 75
    16
147
1.0
148
0.0
149
0.0
100
AcDbLayout
  1
Layout2
 70
     1
 71
     2
 10
0.0
 20
0.0
 11
0.0
 21
0.0
 12
0.0
 22
0.0
 32
0.0
 14
0.0
 24
0.0
 34
0.0
 15
0.0
 25
0.0
 35
0.0
146
0.0
 13
0.0
 23
0.0
 33
0.0
 16
1.0
 26
0.0
 36
0.0
 17
0.0
 27
1.0
 37
0.0
 76
     0
330
23
  0
LAYOUT
  5
22
102
{ACAD_REACTORS
330
1A
102
}
330
1A
100
AcDbPlotSettings
  1

  2
none_device
  4
Letter_(8.50_x_11.00_Inches)
  6

 40
6.35
 41
6.35
 42
6.35000508
 43
6.35000508
 44
215.9
 45
279.4
 46
0.0
 47
0.0
 48
0.0
 49
0.0
140
0.0
141
0.0
142
1.0
143
1.0
 70
  1712
 72
     0
 73
     0
 74
     0
  7

 75
     0
147
1.0
148
0.0
149
0.0
100
AcDbLayout
  1
Model
 70
     1
 71
     0
 10
0.0
 20
0.0
 11
33.0
 21
25.5
 12
0.0
 22
0.0
 32
0.0
 14
0.0
 24
0.0
 34
0.0
 15
33.0
 25
25.5
 35
0.0
146
0.0
 13
0.0
 23
0.0
 33
0.0
 16
1.0
 26
0.0
 36
0.0
 17
0.0
 27
1.0
 37
0.0
 76
     0
330
1F
331
29
  0
MLINESTYLE
  5
18
102
{ACAD_REACTORS
330
17
102
}
330
17
100
AcDbMlineStyle
  2
Standard
 70
     0
  3

 62
   256
 51
90.0
 52
90.0
 71
     2
 49
0.5
 62
   256
  6
BYLAYER
 49
-0.5
 62
   256
  6
BYLAYER
  0
ACDBPLACEHOLDER
  5
F
102
{ACAD_REACTORS
330
E
102
}
330
E
  0
SCALE
  5
48
102
{ACAD_REACTORS
330
47
102
}
330
47
100
AcDbScale
 70
     0
300
1:1
140
1.0
141
1.0
290
     1
  0
SCALE
  5
49
102
{ACAD_REACTORS
330
47
102
}
330
47
100
AcDbScale
 70
     0
300
1/128" = 1'-0"
140
0.0078125
141
12.0
290
     0
  0
SCALE
  5
4A
102
{ACAD_REACTORS
330
47
102
}
330
47
100
AcDbScale
 70
     0
300
1/64" = 1'-0"
140
0.015625
141
12.0
290
     0
  0
SCALE
  5
4B
102
{ACAD_REACTORS
330
47
102
}
330
47
100
AcDbScale
 70
     0
300
1/32" = 1'-0"
140
0.03125
141
12.0
290
     0
  0
SCALE
  5
4C
102
{ACAD_REACTORS
330
47
102
}
330
47
100
AcDbScale
 70
     0
300
1/16" = 1'-0"
140
0.0625
141
12.0
290
     0
  0
SCALE
  5
4D
102
{ACAD_REACTORS
330
47
102
}
330
47
100
AcDbScale
 70
     0
300
3/32" = 1'-0"
140
0.09375
141
12.0
290
     0
  0
SCALE
  5
4E
102
{ACAD_REACTORS
330
47
102
}
330
47
100
AcDbScale
 70
     0
300
1/8" = 1'-0"
140
0.125
141
12.0
290
     0
  0
SCALE
  5
4F
102
{ACAD_REACTORS
330
47
102
}
330
47
100
AcDbScale
 70
     0
300
3/16" = 1'-0"
140
0.1875
141
12.0
290
     0
  0
SCALE
  5
50
102
{ACAD_REACTORS
330
47
102
}
330
47
100
AcDbScale
 70
     0
300
1/4" = 1'-0"
140
0.25
141
12.0
290
     0
  0
SCALE
  5
51
102
{ACAD_REACTORS
330
47
102
}
330
47
100
AcDbScale
 70
     0
300
3/8" = 1'-0"
140
0.375
141
12.0
290
     0
  0
SCALE
  5
52
102
{ACAD_REACTORS
330
47
102
}
330
47
100
AcDbScale
 70
     0
300
1/2" = 1'-0"
140
0.5
141
12.0
290
     0
  0
SCALE
  5
53
102
{ACAD_REACTORS
330
47
102
}
330
47
100
AcDbScale
 70
     0
300
3/4" = 1'-0"
140
0.75
141
12.0
290
     0
  0
SCALE
  5
54
102
{ACAD_REACTORS
330
47
102
}
330
47
100
AcDbScale
 70
     0
300
1" = 1'-0"
140
1.0
141
12.0
290
     0
  0
SCALE
  5
55
102
{ACAD_REACTORS
330
47
102
}
330
47
100
AcDbScale
 70
     0
300
1-1/2" = 1'-0"
140
1.5
141
12.0
290
     0
  0
SCALE
  5
56
102
{ACAD_REACTORS
330
47
102
}
330
47
100
AcDbScale
 70
     0
300
3" = 1'-0"
140
3.0
141
12.0
290
     0
  0
SCALE
  5
57
102
{ACAD_REACTORS
330
47
102
}
330
47
100
AcDbScale
 70
     0
300
6" = 1'-0"
140
6.0
141
12.0
290
     0
  0
SCALE
  5
58
102
{ACAD_REACTORS
330
47
102
}
330
47
100
AcDbScale
 70
     0
300
1'-0" = 1'-0"
140
12.0
141
12.0
290
     0
  0
ENDSEC
  0
EOF
