  0
SECTION
  2
HEADER
  9
$ACADVER
  1
AC1015
  9
$ACADMAINTVER
 70
     6
  9
$DWGCODEPAGE
  3
ANSI_1252
  9
$INSBASE
 10
0.0
 20
0.0
 30
0.0
  9
$EXTMIN
 10
0.0
 20
0.0
 30
0.0
  9
$EXTMAX
 10
66.0
 20
51.0
 30
0.0
  9
$LIMMIN
 10
0.0
 20
0.0
  9
$LIMMAX
 10
66.0
 20
51.0
  9
$ORTHOMODE
 70
     0
  9
$REGENMODE
 70
     1
  9
$FILLMODE
 70
     1
  9
$QTEXTMODE
 70
     0
  9
$MIRRTEXT
 70
     1
  9
$LTSCALE
 40
6.0
  9
$ATTMODE
 70
     1
  9
$TEXTSIZE
 40
0.75
  9
$TRACEWID
 40
0.05
  9
$TEXTSTYLE
  7
Standard
  9
$CLAYER
  8
0
  9
$CELTYPE
  6
ByLayer
  9
$CECOLOR
 62
   256
  9
$CELTSCALE
 40
1.0
  9
$DISPSILH
 70
     0
  9
$DIMSCALE
 40
1.0
  9
$DIMASZ
 40
0.78
  9
$DIMEXO
 40
0.3
  9
$DIMDLI
 40
0.38
  9
$DIMRND
 40
0.0
  9
$DIMDLE
 40
0.0
  9
$DIMEXE
 40
0.75
  9
$DIMTP
 40
0.0
  9
$DIMTM
 40
0.0
  9
$DIMTXT
 40
0.75
  9
$DIMCEN
 40
0.09
  9
$DIMTSZ
 40
0.0
  9
$DIMTOL
 70
     0
  9
$DIMLIM
 70
     0
  9
$DIMTIH
 70
     1
  9
$DIMTOH
 70
     1
  9
$DIMSE1
 70
     0
  9
$DIMSE2
 70
     0
  9
$DIMTAD
 70
     0
  9
$DIMZIN
 70
     1
  9
$DIMBLK
  1

  9
$DIMASO
 70
     1
  9
$DIMSHO
 70
     1
  9
$DIMPOST
  1

  9
$DIMAPOST
  1

  9
$DIMALT
 70
     0
  9
$DIMALTD
 70
     2
  9
$DIMALTF
 40
25.4
  9
$DIMLFAC
 40
1.0
  9
$DIMTOFL
 70
     0
  9
$DIMTVP
 40
0.0
  9
$DIMTIX
 70
     0
  9
$DIMSOXD
 70
     0
  9
$DIMSAH
 70
     0
  9
$DIMBLK1
  1

  9
$DIMBLK2
  1

  9
$DIMSTYLE
  2
Standard
  9
$DIMCLRD
 70
     0
  9
$DIMCLRE
 70
     0
  9
$DIMCLRT
 70
     0
  9
$DIMTFAC
 40
1.0
  9
$DIMGAP
 40
0.36
  9
$DIMJUST
 70
     0
  9
$DIMSD1
 70
     0
  9
$DIMSD2
 70
     0
  9
$DIMTOLJ
 70
     1
  9
$DIMTZIN
 70
     1
  9
$DIMALTZ
 70
     0
  9
$DIMALTTZ
 70
     0
  9
$DIMUPT
 70
     0
  9
$DIMDEC
 70
     0
  9
$DIMTDEC
 70
     0
  9
$DIMALTU
 70
     2
  9
$DIMALTTD
 70
     2
  9
$DIMTXSTY
  7
Standard
  9
$DIMAUNIT
 70
     0
  9
$DIMADEC
 70
     0
  9
$DIMALTRND
 40
0.0
  9
$DIMAZIN
 70
     0
  9
$DIMDSEP
 70
    46
  9
$DIMATFIT
 70
     3
  9
$DIMFRAC
 70
     0
  9
$DIMLDRBLK
  1

  9
$DIMLUNIT
 70
     2
  9
$DIMLWD
 70
    -2
  9
$DIMLWE
 70
    -2
  9
$DIMTMOVE
 70
     0
  9
$LUNITS
 70
     2
  9
$LUPREC
 70
     6
  9
$SKETCHINC
 40
0.1
  9
$FILLETRAD
 40
0.0
  9
$AUNITS
 70
     0
  9
$AUPREC
 70
     2
  9
$MENU
  1
.
  9
$ELEVATION
 40
0.0
  9
$PELEVATION
 40
0.0
  9
$THICKNESS
 40
0.0
  9
$LIMCHECK
 70
     0
  9
$CHAMFERA
 40
0.0
  9
$CHAMFERB
 40
0.0
  9
$CHAMFERC
 40
0.0
  9
$CHAMFERD
 40
0.0
  9
$SKPOLY
 70
     0
  9
$TDCREATE
 40
2460526.48161507
  9
$TDUCREATE
 40
2460526.773281737
  9
$TDUPDATE
 40
2460526.481616007
  9
$TDUUPDATE
 40
2460526.773282674
  9
$TDINDWG
 40
0.0000000116
  9
$TDUSRTIMER
 40
0.0000000116
  9
$USRTIMER
 70
     1
  9
$ANGBASE
 50
0.0
  9
$ANGDIR
 70
     0
  9
$PDMODE
 70
     0
  9
$PDSIZE
 40
-1.0
  9
$PLINEWID
 40
0.0
  9
$SPLFRAME
 70
     0
  9
$SPLINETYPE
 70
     6
  9
$SPLINESEGS
 70
     8
  9
$HANDSEED
  5
3D6
  9
$SURFTAB1
 70
     6
  9
$SURFTAB2
 70
     6
  9
$SURFTYPE
 70
     6
  9
$SURFU
 70
     6
  9
$SURFV
 70
     6
  9
$UCSBASE
  2

  9
$UCSNAME
  2

  9
$UCSORG
 10
0.0
 20
0.0
 30
0.0
  9
$UCSXDIR
 10
1.0
 20
0.0
 30
0.0
  9
$UCSYDIR
 10
0.0
 20
1.0
 30
0.0
  9
$UCSORTHOREF
  2

  9
$UCSORTHOVIEW
 70
     0
  9
$UCSORGTOP
 10
0.0
 20
0.0
 30
0.0
  9
$UCSORGBOTTOM
 10
0.0
 20
0.0
 30
0.0
  9
$UCSORGLEFT
 10
0.0
 20
0.0
 30
0.0
  9
$UCSORGRIGHT
 10
0.0
 20
0.0
 30
0.0
  9
$UCSORGFRONT
 10
0.0
 20
0.0
 30
0.0
  9
$UCSORGBACK
 10
0.0
 20
0.0
 30
0.0
  9
$PUCSBASE
  2

  9
$PUCSNAME
  2

  9
$PUCSORG
 10
0.0
 20
0.0
 30
0.0
  9
$PUCSXDIR
 10
1.0
 20
0.0
 30
0.0
  9
$PUCSYDIR
 10
0.0
 20
1.0
 30
0.0
  9
$PUCSORTHOREF
  2

  9
$PUCSORTHOVIEW
 70
     0
  9
$PUCSORGTOP
 10
0.0
 20
0.0
 30
0.0
  9
$PUCSORGBOTTOM
 10
0.0
 20
0.0
 30
0.0
  9
$PUCSORGLEFT
 10
0.0
 20
0.0
 30
0.0
  9
$PUCSORGRIGHT
 10
0.0
 20
0.0
 30
0.0
  9
$PUCSORGFRONT
 10
0.0
 20
0.0
 30
0.0
  9
$PUCSORGBACK
 10
0.0
 20
0.0
 30
0.0
  9
$USERI1
 70
     0
  9
$USERI2
 70
     0
  9
$USERI3
 70
     0
  9
$USERI4
 70
     0
  9
$USERI5
 70
     0
  9
$USERR1
 40
0.0
  9
$USERR2
 40
0.0
  9
$USERR3
 40
0.0
  9
$USERR4
 40
0.0
  9
$USERR5
 40
0.0
  9
$WORLDVIEW
 70
     1
  9
$SHADEDGE
 70
     3
  9
$SHADEDIF
 70
    70
  9
$TILEMODE
 70
     1
  9
$MAXACTVP
 70
    64
  9
$PINSBASE
 10
0.0
 20
0.0
 30
0.0
  9
$PLIMCHECK
 70
     0
  9
$PEXTMIN
 10
1.0000000000E+20
 20
1.0000000000E+20
 30
1.0000000000E+20
  9
$PEXTMAX
 10
-1.0000000000E+20
 20
-1.0000000000E+20
 30
-1.0000000000E+20
  9
$PLIMMIN
 10
0.0
 20
0.0
  9
$PLIMMAX
 10
12.0
 20
9.0
  9
$UNITMODE
 70
     0
  9
$VISRETAIN
 70
     1
  9
$PLINEGEN
 70
     0
  9
$PSLTSCALE
 70
     1
  9
$TREEDEPTH
 70
  3020
  9
$CMLSTYLE
  2
Standard
  9
$CMLJUST
 70
     0
  9
$CMLSCALE
 40
1.0
  9
$PROXYGRAPHICS
 70
     1
  9
$MEASUREMENT
 70
     0
  9
$CELWEIGHT
370
    -1
  9
$ENDCAPS
280
     0
  9
$JOINSTYLE
280
     0
  9
$LWDISPLAY
290
     1
  9
$INSUNITS
 70
     1
  9
$HYPERLINKBASE
  1

  9
$STYLESHEET
  1

  9
$XEDIT
290
     1
  9
$CEPSNTYPE
380
     0
  9
$PSTYLEMODE
290
     1
  9
$FINGERPRINTGUID
  2
{063781c4-43e8-4019-82ee-83c3329f6c60}
  9
$VERSIONGUID
  2
{FAEB1C32-E019-11D5-929B-00C0DF256EC4}
  9
$EXTNAMES
290
     1
  9
$PSVPSCALE
 40
0.0
  9
$OLESTARTUP
290
     0
  0
ENDSEC
  0
SECTION
  2
CLASSES
  0
CLASS
  1
ACDBDICTIONARYWDFLT
  2
AcDbDictionaryWithDefault
  3
ObjectDBX Classes
 90
        0
280
     0
281
     0
  0
CLASS
  1
VISUALSTYLE
  2
AcDbVisualStyle
  3
ObjectDBX Classes
 90
     4095
280
     0
281
     0
  0
CLASS
  1
MATERIAL
  2
AcDbMaterial
  3
ObjectDBX Classes
 90
     1153
280
     0
281
     0
  0
CLASS
  1
SCALE
  2
AcDbScale
  3
ObjectDBX Classes
 90
     1153
280
     0
281
     0
  0
CLASS
  1
TABLESTYLE
  2
AcDbTableStyle
  3
ObjectDBX Classes
 90
     4095
280
     0
281
     0
  0
CLASS
  1
MLEADERSTYLE
  2
AcDbMLeaderStyle
  3
ACDB_MLEADERSTYLE_CLASS
 90
     4095
280
     0
281
     0
  0
CLASS
  1
SUN
  2
AcDbSun
  3
SCENEOE
 90
     1153
280
     0
281
     0
  0
CLASS
  1
ACDBPLACEHOLDER
  2
AcDbPlaceHolder
  3
ObjectDBX Classes
 90
        0
280
     0
281
     0
  0
CLASS
  1
LAYOUT
  2
AcDbLayout
  3
ObjectDBX Classes
 90
        0
280
     0
281
     0
  0
ENDSEC
  0
SECTION
  2
TABLES
  0
TABLE
  2
VPORT
  5
8
330
0
100
AcDbSymbolTable
 70
     1
  0
VPORT
  5
29
330
8
100
AcDbSymbolTableRecord
100
AcDbViewportTableRecord
  2
*Active
 70
     0
 10
0.0
 20
0.0
 11
1.0
 21
1.0
 12
33.0
 22
25.5
 13
0.0
 23
0.0
 14
0.5
 24
0.5
 15
0.5
 25
0.5
 16
0.0
 26
0.0
 36
1.0
 17
0.0
 27
0.0
 37
0.0
 40
51.0
 41
1.2941176471
 42
50.0
 43
0.0
 44
0.0
 50
0.0
 51
0.0
 71
     0
 72
  2000
 73
     1
 74
     3
 75
     0
 76
     0
 77
     0
 78
     0
281
     0
 65
     1
110
0.0
120
0.0
130
0.0
111
1.0
121
0.0
131
0.0
112
0.0
122
1.0
132
0.0
 79
     0
146
0.0
  0
ENDTAB
  0
TABLE
  2
LTYPE
  5
5
330
0
100
AcDbSymbolTable
 70
     6
  0
LTYPE
  5
14
330
5
100
AcDbSymbolTableRecord
100
AcDbLinetypeTableRecord
  2
ByBlock
 70
     0
  3

 72
    65
 73
     0
 40
0.0
  0
LTYPE
  5
15
330
5
100
AcDbSymbolTableRecord
100
AcDbLinetypeTableRecord
  2
ByLayer
 70
     0
  3

 72
    65
 73
     0
 40
0.0
  0
LTYPE
  5
16
330
5
100
AcDbSymbolTableRecord
100
AcDbLinetypeTableRecord
  2
Continuous
 70
     0
  3
Solid line
 72
    65
 73
     0
 40
0.0
  0
LTYPE
  5
5E
330
5
100
AcDbSymbolTableRecord
100
AcDbLinetypeTableRecord
  2
HIDDEN
 70
     0
  3
Hidden __ __ __ __ __ __ __ __ __ __ __ __ __ __
 72
    65
 73
     2
 40
0.075
 49
0.05
 74
     0
 49
-0.025
 74
     0
  0
LTYPE
  5
5F
330
5
100
AcDbSymbolTableRecord
100
AcDbLinetypeTableRecord
  2
PHANTOM
 70
     0
  3
Phantom ______  __  __  ______  __  __  ______
 72
    65
 73
     6
 40
0.5
 49
0.25
 74
     0
 49
-0.05
 74
     0
 49
0.05
 74
     0
 49
-0.05
 74
     0
 49
0.05
 74
     0
 49
-0.05
 74
     0
  0
LTYPE
  5
60
330
5
100
AcDbSymbolTableRecord
100
AcDbLinetypeTableRecord
  2
CENTER
 70
     0
  3
Center ____ _ ____ _ ____ _ ____ _ ____ _ ____
 72
    65
 73
     4
 40
0.4
 49
0.25
 74
     0
 49
-0.05
 74
     0
 49
0.05
 74
     0
 49
-0.05
 74
     0
  0
LTYPE
  5
61
330
5
100
AcDbSymbolTableRecord
100
AcDbLinetypeTableRecord
  2
CENTERX2
 70
     0
  3
Center (2x) ________  __  ________  __  _____
 72
    65
 73
     4
 40
0.8
 49
0.5
 74
     0
 49
-0.1
 74
     0
 49
0.1
 74
     0
 49
-0.1
 74
     0
  0
LTYPE
  5
62
330
5
100
AcDbSymbolTableRecord
100
AcDbLinetypeTableRecord
  2
DOT2
 70
     0
  3
Dot (.5x) ........................................
 72
    65
 73
     2
 40
0.025
 49
0.0
 74
     0
 49
-0.025
 74
     0
  0
ENDTAB
  0
TABLE
  2
LAYER
  5
2
330
0
100
AcDbSymbolTable
 70
    12
  0
LAYER
  5
10
330
2
100
AcDbSymbolTableRecord
100
AcDbLayerTableRecord
  2
0
 70
     0
 62
     7
  6
Continuous
370
    -3
390
F
  0
LAYER
  5
63
330
2
100
AcDbSymbolTableRecord
100
AcDbLayerTableRecord
  2
SLD-0
 70
     0
 62
     7
  6
Continuous
370
    -3
390
F
  0
LAYER
  5
64
330
2
100
AcDbSymbolTableRecord
100
AcDbLayerTableRecord
  2
DIM
 70
     0
 62
     7
  6
Continuous
370
    -3
390
F
  0
LAYER
  5
65
330
2
100
AcDbSymbolTableRecord
100
AcDbLayerTableRecord
  2
CEN
 70
     0
 62
     1
  6
CENTER
370
    -3
390
F
  0
LAYER
  5
66
330
2
100
AcDbSymbolTableRecord
100
AcDbLayerTableRecord
  2
HAT
 70
     0
 62
     4
  6
Continuous
370
    -3
390
F
  0
LAYER
  5
67
330
2
100
AcDbSymbolTableRecord
100
AcDbLayerTableRecord
  2
OBJ
 70
     0
 62
     5
  6
Continuous
370
    -3
390
F
  0
LAYER
  5
68
330
2
100
AcDbSymbolTableRecord
100
AcDbLayerTableRecord
  2
SLD-DEFPOINTS
 70
     0
 62
     7
  6
Continuous
370
    -3
390
F
  0
LAYER
  5
69
330
2
100
AcDbSymbolTableRecord
100
AcDbLayerTableRecord
  2
HID
 70
     0
 62
     4
  6
HIDDEN
370
    -3
390
F
  0
LAYER
  5
6A
330
2
100
AcDbSymbolTableRecord
100
AcDbLayerTableRecord
  2
NOTE
 70
     0
 62
     7
  6
Continuous
370
    -3
390
F
  0
LAYER
  5
6B
330
2
100
AcDbSymbolTableRecord
100
AcDbLayerTableRecord
  2
VP
 70
     0
 62
    -5
  6
Continuous
290
     0
370
    -3
390
F
  0
LAYER
  5
6C
330
2
100
AcDbSymbolTableRecord
100
AcDbLayerTableRecord
  2
TITLE
 70
     0
 62
     7
  6
Continuous
370
    -3
390
F
  0
LAYER
  5
6D
330
2
100
AcDbSymbolTableRecord
100
AcDbLayerTableRecord
  2
THICK_TITLE
 70
     0
 62
     7
  6
Continuous
370
   100
390
F
  0
ENDTAB
  0
TABLE
  2
STYLE
  5
3
330
0
100
AcDbSymbolTable
 70
     3
  0
STYLE
  5
11
330
3
100
AcDbSymbolTableRecord
100
AcDbTextStyleTableRecord
  2
Standard
 70
     0
 40
0.0
 41
1.0
 50
0.0
 71
     0
 42
0.75
  3
txt
  4

  0
STYLE
  5
74
330
3
100
AcDbSymbolTableRecord
100
AcDbTextStyleTableRecord
  2
SLDTEXTSTYLE0
 70
     0
 40
0.0
 41
0.75
 50
0.0
 71
     0
 42
0.75
  3
TXT
  4

  0
STYLE
  5
85
330
3
100
AcDbSymbolTableRecord
100
AcDbTextStyleTableRecord
  2
SLDTEXTSTYLE1
 70
     0
 40
0.0
 41
0.7
 50
0.0
 71
     0
 42
0.75
  3
TXT
  4

  0
ENDTAB
  0
TABLE
  2
VIEW
  5
6
330
0
100
AcDbSymbolTable
 70
     0
  0
ENDTAB
  0
TABLE
  2
UCS
  5
7
330
0
100
AcDbSymbolTable
 70
     0
  0
ENDTAB
  0
TABLE
  2
APPID
  5
9
330
0
100
AcDbSymbolTable
 70
     1
  0
APPID
  5
12
330
9
100
AcDbSymbolTableRecord
100
AcDbRegAppTableRecord
  2
ACAD
 70
     0
  0
ENDTAB
  0
TABLE
  2
DIMSTYLE
  5
A
330
0
100
AcDbSymbolTable
 70
     8
100
AcDbDimStyleTable
  0
DIMSTYLE
105
27
330
A
100
AcDbSymbolTableRecord
100
AcDbDimStyleTableRecord
  2
Standard
 70
     0
178
     0
340
11
  0
DIMSTYLE
105
9C
102
{ACAD_REACTORS
330
9B
102
}
330
A
100
AcDbSymbolTableRecord
100
AcDbDimStyleTableRecord
  2
SLDDIMSTYLE0
 70
     0
 41
0.78
 44
0.0
 45
0.000000001
 78
    12
 79
     3
140
0.75
144
0.5
147
0.1875
148
0.000000001
170
     1
173
     1
178
     0
271
     6
272
     0
276
     2
277
     5
284
    12
340
74
  0
DIMSTYLE
105
BF
102
{ACAD_REACTORS
330
BE
330
DF
102
}
330
A
100
AcDbSymbolTableRecord
100
AcDbDimStyleTableRecord
  2
SLDDIMSTYLE1
 70
     0
 41
0.78
 44
0.0
 45
0.000000001
 78
    12
 79
     3
140
0.75
144
0.5
147
0.1875
148
0.000000001
170
     1
172
     1
173
     1
178
     0
271
     6
272
     0
276
     2
277
     5
284
    12
289
     0
340
74
  0
DIMSTYLE
105
100
102
{ACAD_REACTORS
330
FF
102
}
330
A
100
AcDbSymbolTableRecord
100
AcDbDimStyleTableRecord
  2
SLDDIMSTYLE2
 70
     0
 41
0.78
 44
0.0
 45
0.000000001
 78
    12
 79
     3
140
0.75
144
0.5
147
0.1875
148
0.000000001
170
     1
172
     1
173
     1
178
     0
271
     0
272
     0
276
     2
277
     5
284
    12
289
     0
340
74
  0
DIMSTYLE
105
15D
102
{ACAD_REACTORS
330
15C
102
}
330
A
100
AcDbSymbolTableRecord
100
AcDbDimStyleTableRecord
  2
SLDDIMSTYLE3
 70
     0
 41
0.78
 44
0.0
 45
0.000000001
 78
    12
 79
     3
140
0.75
141
0.0
144
0.6666666667
147
0.1875
148
0.000000001
170
     1
173
     1
178
     0
271
     0
272
     0
276
     2
277
     5
284
    12
340
74
  0
DIMSTYLE
105
23F
102
{ACAD_REACTORS
330
23E
330
254
330
268
330
27C
330
29E
102
}
330
A
100
AcDbSymbolTableRecord
100
AcDbDimStyleTableRecord
  2
SLDDIMSTYLE4
 70
     0
 41
0.78
 44
0.0
 45
0.000000001
 78
    12
 79
     3
140
0.75
147
0.1875
148
0.000000001
170
     1
173
     1
178
     0
271
     6
272
     0
276
     2
277
     5
284
    12
340
74
  0
DIMSTYLE
105
291
102
{ACAD_REACTORS
330
290
102
}
330
A
100
AcDbSymbolTableRecord
100
AcDbDimStyleTableRecord
  2
SLDDIMSTYLE5
 70
     0
 41
0.78
 44
0.0
 45
0.000000001
 78
    12
 79
     3
140
0.75
147
0.1875
148
0.000000001
170
     1
173
     1
178
     0
271
     0
272
     0
276
     2
277
     5
284
    12
340
74
  0
DIMSTYLE
105
2B3
102
{ACAD_REACTORS
330
2B2
102
}
330
A
100
AcDbSymbolTableRecord
100
AcDbDimStyleTableRecord
  2
SLDDIMSTYLE6
 70
     0
 41
0.78
 44
0.0
 45
0.000000001
 78
    12
 79
     3
140
0.75
147
0.1875
148
0.000000001
170
     1
172
     1
173
     1
178
     0
271
     0
272
     0
276
     2
277
     5
284
    12
289
     0
340
74
  0
ENDTAB
  0
TABLE
  2
BLOCK_RECORD
  5
1
330
0
100
AcDbSymbolTable
 70
    21
  0
BLOCK_RECORD
  5
1F
330
1
100
AcDbSymbolTableRecord
100
AcDbBlockTableRecord
  2
*Model_Space
340
22
  0
BLOCK_RECORD
  5
1B
330
1
100
AcDbSymbolTableRecord
100
AcDbBlockTableRecord
  2
*Paper_Space
340
1E
  0
BLOCK_RECORD
  5
23
330
1
100
AcDbSymbolTableRecord
100
AcDbBlockTableRecord
  2
*Paper_Space0
340
26
  0
BLOCK_RECORD
  5
6E
330
1
100
AcDbSymbolTableRecord
100
AcDbBlockTableRecord
  2
Block1
340
0
102
{BLKREFS
331
9A
102
}
  0
BLOCK_RECORD
  5
71
330
1
100
AcDbSymbolTableRecord
100
AcDbBlockTableRecord
  2
SW_NOTE_0
340
0
102
{BLKREFS
331
76
102
}
  0
BLOCK_RECORD
  5
77
330
1
100
AcDbSymbolTableRecord
100
AcDbBlockTableRecord
  2
Block2
340
0
102
{BLKREFS
331
BD
102
}
  0
BLOCK_RECORD
  5
7A
330
1
100
AcDbSymbolTableRecord
100
AcDbBlockTableRecord
  2
SW_NOTE_0_1
340
0
102
{BLKREFS
331
7E
102
}
  0
BLOCK_RECORD
  5
7F
330
1
100
AcDbSymbolTableRecord
100
AcDbBlockTableRecord
  2
Block3
340
0
102
{BLKREFS
331
DE
102
}
  0
BLOCK_RECORD
  5
82
330
1
100
AcDbSymbolTableRecord
100
AcDbBlockTableRecord
  2
SW_NOTE_0_2
340
0
102
{BLKREFS
331
87
102
}
  0
BLOCK_RECORD
  5
88
330
1
100
AcDbSymbolTableRecord
100
AcDbBlockTableRecord
  2
Block4
340
0
102
{BLKREFS
331
FE
102
}
  0
BLOCK_RECORD
  5
8B
330
1
100
AcDbSymbolTableRecord
100
AcDbBlockTableRecord
  2
SW_NOTE_0_3
340
0
102
{BLKREFS
331
8F
102
}
  0
BLOCK_RECORD
  5
9D
330
1
100
AcDbSymbolTableRecord
100
AcDbBlockTableRecord
  2
_D
340
0
  0
BLOCK_RECORD
  5
C0
330
1
100
AcDbSymbolTableRecord
100
AcDbBlockTableRecord
  2
_D_1
340
0
  0
BLOCK_RECORD
  5
E0
330
1
100
AcDbSymbolTableRecord
100
AcDbBlockTableRecord
  2
_D_2
340
0
  0
BLOCK_RECORD
  5
101
330
1
100
AcDbSymbolTableRecord
100
AcDbBlockTableRecord
  2
_D_3
340
0
  0
BLOCK_RECORD
  5
15E
330
1
100
AcDbSymbolTableRecord
100
AcDbBlockTableRecord
  2
_D_4
340
0
  0
BLOCK_RECORD
  5
240
330
1
100
AcDbSymbolTableRecord
100
AcDbBlockTableRecord
  2
_D_5
340
0
  0
BLOCK_RECORD
  5
255
330
1
100
AcDbSymbolTableRecord
100
AcDbBlockTableRecord
  2
_D_6
340
0
  0
BLOCK_RECORD
  5
269
330
1
100
AcDbSymbolTableRecord
100
AcDbBlockTableRecord
  2
_D_7
340
0
  0
BLOCK_RECORD
  5
27D
330
1
100
AcDbSymbolTableRecord
100
AcDbBlockTableRecord
  2
_D_8
340
0
  0
BLOCK_RECORD
  5
292
330
1
100
AcDbSymbolTableRecord
100
AcDbBlockTableRecord
  2
_D_9
340
0
  0
BLOCK_RECORD
  5
29F
330
1
100
AcDbSymbolTableRecord
100
AcDbBlockTableRecord
  2
_D_10
340
0
  0
BLOCK_RECORD
  5
2B4
330
1
100
AcDbSymbolTableRecord
100
AcDbBlockTableRecord
  2
_D_11
340
0
  0
ENDTAB
  0
ENDSEC
  0
SECTION
  2
BLOCKS
  0
BLOCK
  5
20
330
1F
100
AcDbEntity
  8
0
100
AcDbBlockBegin
  2
*Model_Space
 70
     0
 10
0.0
 20
0.0
 30
0.0
  3
*Model_Space
  1

  0
ENDBLK
  5
21
330
1F
100
AcDbEntity
  8
0
100
AcDbBlockEnd
  0
BLOCK
  5
1C
330
1B
100
AcDbEntity
 67
     1
  8
0
100
AcDbBlockBegin
  2
*Paper_Space
 70
     0
 10
0.0
 20
0.0
 30
0.0
  3
*Paper_Space
  1

  0
ENDBLK
  5
1D
330
1B
100
AcDbEntity
 67
     1
  8
0
100
AcDbBlockEnd
  0
BLOCK
  5
24
330
23
100
AcDbEntity
  8
0
100
AcDbBlockBegin
  2
*Paper_Space0
 70
     0
 10
0.0
 20
0.0
 30
0.0
  3
*Paper_Space0
  1

  0
ENDBLK
  5
25
330
23
100
AcDbEntity
  8
0
100
AcDbBlockEnd
  0
BLOCK
  5
6F
330
6E
100
AcDbEntity
  8
0
100
AcDbBlockBegin
  2
Block1
 70
     0
 10
0.0
 20
0.0
 30
0.0
  3
Block1
  1

  0
INSERT
  5
76
330
6E
100
AcDbEntity
  8
0
  6
Continuous
 62
     7
370
     0
100
AcDbBlockReference
  2
SW_NOTE_0
 10
0.0024644595
 20
-0.1042925805
 30
0.0
  0
ENDBLK
  5
70
330
6E
100
AcDbEntity
  8
0
100
AcDbBlockEnd
  0
BLOCK
  5
72
330
71
100
AcDbEntity
  8
0
100
AcDbBlockBegin
  2
SW_NOTE_0
 70
     0
 10
0.0
 20
0.0
 30
0.0
  3
SW_NOTE_0
  1

  0
MTEXT
  5
75
330
71
100
AcDbEntity
  8
0
  6
Continuous
 62
     0
370
     0
100
AcDbMText
 10
3.4765625
 20
1.6113346747
 30
0.0
 40
1.25
 41
0.0
 71
     2
 72
     1
  1
A/D CAP
  7
SLDTEXTSTYLE0
 73
     1
 44
1.0
  0
ENDBLK
  5
73
330
71
100
AcDbEntity
  8
0
100
AcDbBlockEnd
  0
BLOCK
  5
78
330
77
100
AcDbEntity
  8
0
100
AcDbBlockBegin
  2
Block2
 70
     0
 10
0.0
 20
0.0
 30
0.0
  3
Block2
  1

  0
INSERT
  5
7E
330
77
100
AcDbEntity
  8
0
  6
Continuous
 62
     7
370
     0
100
AcDbBlockReference
  2
SW_NOTE_0_1
 10
0.0236486254
 20
1.7050846838
 30
0.0
  0
ENDBLK
  5
79
330
77
100
AcDbEntity
  8
0
100
AcDbBlockEnd
  0
BLOCK
  5
7B
330
7A
100
AcDbEntity
  8
0
100
AcDbBlockBegin
  2
SW_NOTE_0_1
 70
     0
 10
0.0
 20
0.0
 30
0.0
  3
SW_NOTE_0_1
  1

  0
MTEXT
  5
7D
330
7A
100
AcDbEntity
  8
0
  6
Continuous
 62
     0
370
     0
100
AcDbMText
 10
3.22265625
 20
1.6113346747
 30
0.0
 40
1.25
 41
0.0
 71
     2
 72
     1
  1
B/E CAP
  7
SLDTEXTSTYLE0
 73
     1
 44
1.0
  0
ENDBLK
  5
7C
330
7A
100
AcDbEntity
  8
0
100
AcDbBlockEnd
  0
BLOCK
  5
80
330
7F
100
AcDbEntity
  8
0
100
AcDbBlockBegin
  2
Block3
 70
     0
 10
0.0
 20
0.0
 30
0.0
  3
Block3
  1

  0
INSERT
  5
87
330
7F
100
AcDbEntity
  8
0
  6
Continuous
 62
     7
370
     0
100
AcDbBlockReference
  2
SW_NOTE_0_2
 10
0.0678802992
 20
-0.0556479787
 30
0.0
  0
ENDBLK
  5
81
330
7F
100
AcDbEntity
  8
0
100
AcDbBlockEnd
  0
BLOCK
  5
83
330
82
100
AcDbEntity
  8
0
100
AcDbBlockBegin
  2
SW_NOTE_0_2
 70
     0
 10
0.0
 20
0.0
 30
0.0
  3
SW_NOTE_0_2
  1

  0
MTEXT
  5
86
330
82
100
AcDbEntity
  8
0
  6
Continuous
 62
     0
370
     0
100
AcDbMText
 10
2.6171875
 20
1.6113346747
 30
0.0
 40
1.25
 41
0.0
 71
     2
 72
     1
  1
C CAP
  7
SLDTEXTSTYLE1
 73
     1
 44
1.0
  0
ENDBLK
  5
84
330
82
100
AcDbEntity
  8
0
100
AcDbBlockEnd
  0
BLOCK
  5
89
330
88
100
AcDbEntity
  8
0
100
AcDbBlockBegin
  2
Block4
 70
     0
 10
0.0
 20
0.0
 30
0.0
  3
Block4
  1

  0
INSERT
  5
8F
330
88
100
AcDbEntity
  8
0
  6
Continuous
 62
     7
370
     0
100
AcDbBlockReference
  2
SW_NOTE_0_3
 10
0.0491174266
 20
-0.0198220018
 30
0.0
  0
ENDBLK
  5
8A
330
88
100
AcDbEntity
  8
0
100
AcDbBlockEnd
  0
BLOCK
  5
8C
330
8B
100
AcDbEntity
  8
0
100
AcDbBlockBegin
  2
SW_NOTE_0_3
 70
     0
 10
0.0
 20
0.0
 30
0.0
  3
SW_NOTE_0_3
  1

  0
MTEXT
  5
8E
330
8B
100
AcDbEntity
  8
0
  6
Continuous
 62
     0
370
     0
100
AcDbMText
 10
2.34375
 20
1.6113346747
 30
0.0
 40
1.25
 41
0.0
 71
     2
 72
     1
  1
F CAP
  7
SLDTEXTSTYLE1
 73
     1
 44
1.0
  0
ENDBLK
  5
8D
330
8B
100
AcDbEntity
  8
0
100
AcDbBlockEnd
  0
BLOCK
  5
9E
330
9D
100
AcDbEntity
  8
0
100
AcDbBlockBegin
  2
_D
 70
     0
 10
0.0
 20
0.0
 30
0.0
  3
_D
  1

  0
SOLID
  5
A0
330
9D
100
AcDbEntity
  8
0
  6
Continuous
 62
     7
370
    18
100
AcDbTrace
 10
4.0894909091
 20
14.099076164
 30
0.0
 11
3.9694909091
 21
13.319076164
 31
0.0
 12
4.2094909091
 22
13.319076164
 32
0.0
 13
4.2094909091
 23
13.319076164
 33
0.0
  0
SOLID
  5
A1
330
9D
100
AcDbEntity
  8
0
  6
Continuous
 62
     7
370
    18
100
AcDbTrace
 10
4.0894909091
 20
4.609076164
 30
0.0
 11
4.2094909091
 21
5.389076164
 31
0.0
 12
3.9694909091
 22
5.389076164
 32
0.0
 13
3.9694909091
 23
5.389076164
 33
0.0
  0
LINE
  5
A2
330
9D
100
AcDbEntity
  8
0
  6
Continuous
 62
     7
370
     0
100
AcDbLine
 10
2.3207410418
 20
9.3483468802
 30
0.0
 11
2.0922254192
 21
9.3483468802
 31
0.0
  0
LINE
  5
A3
330
9D
100
AcDbEntity
  8
0
  6
Continuous
 62
     7
370
     0
100
AcDbLine
 10
2.0922254192
 20
9.3483468802
 30
0.0
 11
2.0922254192
 21
8.1577218444
 31
0.0
  0
LINE
  5
A4
330
9D
100
AcDbEntity
  8
0
  6
Continuous
 62
     7
370
     0
100
AcDbLine
 10
2.0922254192
 20
8.1577218444
 30
0.0
 11
2.3207410418
 21
8.1577218444
 31
0.0
  0
LINE
  5
A5
330
9D
100
AcDbEntity
  8
0
  6
Continuous
 62
     7
370
     0
100
AcDbLine
 10
5.8582409963
 20
9.3483468802
 30
0.0
 11
6.086756619
 21
9.3483468802
 31
0.0
  0
LINE
  5
A6
330
9D
100
AcDbEntity
  8
0
  6
Continuous
 62
     7
370
     0
100
AcDbLine
 10
6.086756619
 20
9.3483468802
 30
0.0
 11
6.086756619
 21
8.1577218444
 31
0.0
  0
LINE
  5
A7
330
9D
100
AcDbEntity
  8
0
  6
Continuous
 62
     7
370
     0
100
AcDbLine
 10
6.086756619
 20
8.1577218444
 30
0.0
 11
5.8582409963
 21
8.1577218444
 31
0.0
  0
LINE
  5
A8
330
9D
100
AcDbEntity
  8
0
  6
Continuous
 62
     7
370
     0
100
AcDbLine
 10
7.3194277292
 20
14.099076164
 30
0.0
 11
3.3394909091
 21
14.099076164
 31
0.0
  0
LINE
  5
A9
330
9D
100
AcDbEntity
  8
0
  6
Continuous
 62
     7
370
     0
100
AcDbLine
 10
7.3194277292
 20
4.609076164
 30
0.0
 11
3.3394909091
 21
4.609076164
 31
0.0
  0
LINE
  5
AA
330
9D
100
AcDbEntity
  8
0
  6
Continuous
 62
     7
370
     0
100
AcDbLine
 10
4.0894909091
 20
14.099076164
 30
0.0
 11
4.0894909091
 21
10.7027739937
 31
0.0
  0
LINE
  5
AB
330
9D
100
AcDbEntity
  8
0
  6
Continuous
 62
     7
370
     0
100
AcDbLine
 10
4.0894909091
 20
4.609076164
 30
0.0
 11
4.0894909091
 21
8.0053783343
 31
0.0
  0
MTEXT
  5
AC
330
9D
100
AcDbEntity
  8
0
  6
Continuous
 62
     7
370
    18
100
AcDbMText
 10
1.8678764624
 20
10.4789498452
 30
0.0
 40
0.75
 41
0.0
 71
     1
 72
     1
  1

  7
SLDTEXTSTYLE0
 73
     1
 44
1.0
  0
MTEXT
  5
AD
330
9D
100
AcDbEntity
  8
0
  6
Continuous
 62
     7
370
    18
100
AcDbMText
 10
2.7462618312
 20
10.4674914564
 30
0.0
 40
0.75
 41
0.0
 71
     1
 72
     1
  1
4 3/4"
  7
SLDTEXTSTYLE0
 73
     1
 44
1.0
  0
MTEXT
  5
AE
330
9D
100
AcDbEntity
  8
0
  6
Continuous
 62
     7
370
    18
100
AcDbMText
 10
2.3207410418
 20
9.1245227317
 30
0.0
 40
0.75
 41
0.0
 71
     1
 72
     1
  1
121mm
  7
SLDTEXTSTYLE0
 73
     1
 44
1.0
  0
MTEXT
  5
AF
330
9D
100
AcDbEntity
  8
0
  6
Continuous
 62
     7
370
    18
100
AcDbMText
 10
6.5965220767
 20
10.4789498452
 30
0.0
 40
0.75
 41
0.0
 71
     1
 72
     1
  1

  7
SLDTEXTSTYLE0
 73
     1
 44
1.0
  0
ENDBLK
  5
9F
330
9D
100
AcDbEntity
  8
0
100
AcDbBlockEnd
  0
BLOCK
  5
C1
330
C0
100
AcDbEntity
  8
0
100
AcDbBlockBegin
  2
_D_1
 70
     0
 10
0.0
 20
0.0
 30
0.0
  3
_D_1
  1

  0
SOLID
  5
C3
330
C0
100
AcDbEntity
  8
0
  6
Continuous
 62
     7
370
    18
100
AcDbTrace
 10
15.9577437658
 20
9.709076164
 30
0.0
 11
16.0777437658
 21
10.489076164
 31
0.0
 12
15.8377437658
 22
10.489076164
 32
0.0
 13
15.8377437658
 23
10.489076164
 33
0.0
  0
SOLID
  5
C4
330
C0
100
AcDbEntity
  8
0
  6
Continuous
 62
     7
370
    18
100
AcDbTrace
 10
15.9577437658
 20
4.609076164
 30
0.0
 11
15.8377437658
 21
3.829076164
 31
0.0
 12
16.0777437658
 22
3.829076164
 32
0.0
 13
16.0777437658
 23
3.829076164
 33
0.0
  0
LINE
  5
C5
330
C0
100
AcDbEntity
  8
0
  6
Continuous
 62
     7
370
     0
100
AcDbLine
 10
14.4660771777
 20
7.1533468802
 30
0.0
 11
14.237561555
 21
7.1533468802
 31
0.0
  0
LINE
  5
C6
330
C0
100
AcDbEntity
  8
0
  6
Continuous
 62
     7
370
     0
100
AcDbLine
 10
14.237561555
 20
7.1533468802
 30
0.0
 11
14.237561555
 21
5.9627218444
 31
0.0
  0
LINE
  5
C7
330
C0
100
AcDbEntity
  8
0
  6
Continuous
 62
     7
370
     0
100
AcDbLine
 10
14.237561555
 20
5.9627218444
 30
0.0
 11
14.4660771777
 21
5.9627218444
 31
0.0
  0
LINE
  5
C8
330
C0
100
AcDbEntity
  8
0
  6
Continuous
 62
     7
370
     0
100
AcDbLine
 10
17.4494105739
 20
7.1533468802
 30
0.0
 11
17.6779261966
 21
7.1533468802
 31
0.0
  0
LINE
  5
C9
330
C0
100
AcDbEntity
  8
0
  6
Continuous
 62
     7
370
     0
100
AcDbLine
 10
17.6779261966
 20
7.1533468802
 30
0.0
 11
17.6779261966
 21
5.9627218444
 31
0.0
  0
LINE
  5
CA
330
C0
100
AcDbEntity
  8
0
  6
Continuous
 62
     7
370
     0
100
AcDbLine
 10
17.6779261966
 20
5.9627218444
 30
0.0
 11
17.4494105739
 21
5.9627218444
 31
0.0
  0
LINE
  5
CB
330
C0
100
AcDbEntity
  8
0
  6
Continuous
 62
     7
370
     0
100
AcDbLine
 10
18.936258891
 20
9.709076164
 30
0.0
 11
15.2077437658
 21
9.709076164
 31
0.0
  0
LINE
  5
CC
330
C0
100
AcDbEntity
  8
0
  6
Continuous
 62
     7
370
     0
100
AcDbLine
 10
18.876258891
 20
4.609076164
 30
0.0
 11
15.2077437658
 21
4.609076164
 31
0.0
  0
LINE
  5
CD
330
C0
100
AcDbEntity
  8
0
  6
Continuous
 62
     7
370
     0
100
AcDbLine
 10
15.9577437658
 20
9.709076164
 30
0.0
 11
15.9577437658
 21
11.209076164
 31
0.0
  0
LINE
  5
CE
330
C0
100
AcDbEntity
  8
0
  6
Continuous
 62
     7
370
     0
100
AcDbLine
 10
15.9577437658
 20
4.609076164
 30
0.0
 11
15.9577437658
 21
3.109076164
 31
0.0
  0
MTEXT
  5
CF
330
C0
100
AcDbEntity
  8
0
  6
Continuous
 62
     7
370
    18
100
AcDbMText
 10
14.0132125982
 20
8.2839498452
 30
0.0
 40
0.75
 41
0.0
 71
     1
 72
     1
  1

  7
SLDTEXTSTYLE0
 73
     1
 44
1.0
  0
MTEXT
  5
D0
330
C0
100
AcDbEntity
  8
0
  6
Continuous
 62
     7
370
    18
100
AcDbMText
 10
14.3374312988
 20
8.2724914564
 30
0.0
 40
0.75
 41
0.0
 71
     1
 72
     1
  1
2 9/16"
  7
SLDTEXTSTYLE0
 73
     1
 44
1.0
  0
MTEXT
  5
D1
330
C0
100
AcDbEntity
  8
0
  6
Continuous
 62
     7
370
    18
100
AcDbMText
 10
14.4660771777
 20
6.9295227317
 30
0.0
 40
0.75
 41
0.0
 71
     1
 72
     1
  1
65mm
  7
SLDTEXTSTYLE0
 73
     1
 44
1.0
  0
MTEXT
  5
D2
330
C0
100
AcDbEntity
  8
0
  6
Continuous
 62
     7
370
    18
100
AcDbMText
 10
18.1876916543
 20
8.2839498452
 30
0.0
 40
0.75
 41
0.0
 71
     1
 72
     1
  1

  7
SLDTEXTSTYLE0
 73
     1
 44
1.0
  0
ENDBLK
  5
C2
330
C0
100
AcDbEntity
  8
0
100
AcDbBlockEnd
  0
BLOCK
  5
E1
330
E0
100
AcDbEntity
  8
0
100
AcDbBlockBegin
  2
_D_2
 70
     0
 10
0.0
 20
0.0
 30
0.0
  3
_D_2
  1

  0
SOLID
  5
E3
330
E0
100
AcDbEntity
  8
0
  6
Continuous
 62
     7
370
    18
100
AcDbTrace
 10
27.7270437638
 20
7.909076164
 30
0.0
 11
27.8470437638
 21
8.689076164
 31
0.0
 12
27.6070437638
 22
8.689076164
 32
0.0
 13
27.6070437638
 23
8.689076164
 33
0.0
  0
SOLID
  5
E4
330
E0
100
AcDbEntity
  8
0
  6
Continuous
 62
     7
370
    18
100
AcDbTrace
 10
27.7270437638
 20
4.609076164
 30
0.0
 11
27.6070437638
 21
3.829076164
 31
0.0
 12
27.8470437638
 22
3.829076164
 32
0.0
 13
27.8470437638
 23
3.829076164
 33
0.0
  0
LINE
  5
E5
330
E0
100
AcDbEntity
  8
0
  6
Continuous
 62
     7
370
     0
100
AcDbLine
 10
26.2353771757
 20
6.2533468802
 30
0.0
 11
26.006861553
 21
6.2533468802
 31
0.0
  0
LINE
  5
E6
330
E0
100
AcDbEntity
  8
0
  6
Continuous
 62
     7
370
     0
100
AcDbLine
 10
26.006861553
 20
6.2533468802
 30
0.0
 11
26.006861553
 21
5.0627218444
 31
0.0
  0
LINE
  5
E7
330
E0
100
AcDbEntity
  8
0
  6
Continuous
 62
     7
370
     0
100
AcDbLine
 10
26.006861553
 20
5.0627218444
 30
0.0
 11
26.2353771757
 21
5.0627218444
 31
0.0
  0
LINE
  5
E8
330
E0
100
AcDbEntity
  8
0
  6
Continuous
 62
     7
370
     0
100
AcDbLine
 10
29.2187105719
 20
6.2533468802
 30
0.0
 11
29.4472261946
 21
6.2533468802
 31
0.0
  0
LINE
  5
E9
330
E0
100
AcDbEntity
  8
0
  6
Continuous
 62
     7
370
     0
100
AcDbLine
 10
29.4472261946
 20
6.2533468802
 30
0.0
 11
29.4472261946
 21
5.0627218444
 31
0.0
  0
LINE
  5
EA
330
E0
100
AcDbEntity
  8
0
  6
Continuous
 62
     7
370
     0
100
AcDbLine
 10
29.4472261946
 20
5.0627218444
 30
0.0
 11
29.2187105719
 21
5.0627218444
 31
0.0
  0
LINE
  5
EB
330
E0
100
AcDbEntity
  8
0
  6
Continuous
 62
     7
370
     0
100
AcDbLine
 10
30.8040220462
 20
7.909076164
 30
0.0
 11
26.9770437638
 21
7.909076164
 31
0.0
  0
LINE
  5
EC
330
E0
100
AcDbEntity
  8
0
  6
Continuous
 62
     7
370
     0
100
AcDbLine
 10
30.7440220462
 20
4.609076164
 30
0.0
 11
26.9770437638
 21
4.609076164
 31
0.0
  0
LINE
  5
ED
330
E0
100
AcDbEntity
  8
0
  6
Continuous
 62
     7
370
     0
100
AcDbLine
 10
27.7270437638
 20
7.909076164
 30
0.0
 11
27.7270437638
 21
9.409076164
 31
0.0
  0
LINE
  5
EE
330
E0
100
AcDbEntity
  8
0
  6
Continuous
 62
     7
370
     0
100
AcDbLine
 10
27.7270437638
 20
4.609076164
 30
0.0
 11
27.7270437638
 21
3.109076164
 31
0.0
  0
MTEXT
  5
EF
330
E0
100
AcDbEntity
  8
0
  6
Continuous
 62
     7
370
    18
100
AcDbMText
 10
25.7825125962
 20
7.3839498452
 30
0.0
 40
0.75
 41
0.0
 71
     1
 72
     1
  1

  7
SLDTEXTSTYLE0
 73
     1
 44
1.0
  0
MTEXT
  5
F0
330
E0
100
AcDbEntity
  8
0
  6
Continuous
 62
     7
370
    18
100
AcDbMText
 10
26.3838146859
 20
7.3724914564
 30
0.0
 40
0.75
 41
0.0
 71
     1
 72
     1
  1
1 5/8"
  7
SLDTEXTSTYLE0
 73
     1
 44
1.0
  0
MTEXT
  5
F1
330
E0
100
AcDbEntity
  8
0
  6
Continuous
 62
     7
370
    18
100
AcDbMText
 10
26.2353771757
 20
6.0295227317
 30
0.0
 40
0.75
 41
0.0
 71
     1
 72
     1
  1
42mm
  7
SLDTEXTSTYLE0
 73
     1
 44
1.0
  0
MTEXT
  5
F2
330
E0
100
AcDbEntity
  8
0
  6
Continuous
 62
     7
370
    18
100
AcDbMText
 10
29.9569916523
 20
7.3839498452
 30
0.0
 40
0.75
 41
0.0
 71
     1
 72
     1
  1

  7
SLDTEXTSTYLE0
 73
     1
 44
1.0
  0
ENDBLK
  5
E2
330
E0
100
AcDbEntity
  8
0
100
AcDbBlockEnd
  0
BLOCK
  5
102
330
101
100
AcDbEntity
  8
0
100
AcDbBlockBegin
  2
_D_3
 70
     0
 10
0.0
 20
0.0
 30
0.0
  3
_D_3
  1

  0
SOLID
  5
104
330
101
100
AcDbEntity
  8
0
  6
Continuous
 62
     7
370
    18
100
AcDbTrace
 10
39.6019038452
 20
8.609076164
 30
0.0
 11
39.7219038452
 21
9.389076164
 31
0.0
 12
39.4819038452
 22
9.389076164
 32
0.0
 13
39.4819038452
 23
9.389076164
 33
0.0
  0
SOLID
  5
105
330
101
100
AcDbEntity
  8
0
  6
Continuous
 62
     7
370
    18
100
AcDbTrace
 10
39.6019038452
 20
4.609076164
 30
0.0
 11
39.4819038452
 21
3.829076164
 31
0.0
 12
39.7219038452
 22
3.829076164
 32
0.0
 13
39.7219038452
 23
3.829076164
 33
0.0
  0
LINE
  5
106
330
101
100
AcDbEntity
  8
0
  6
Continuous
 62
     7
370
     0
100
AcDbLine
 10
38.1102372571
 20
6.6033468802
 30
0.0
 11
37.8817216344
 21
6.6033468802
 31
0.0
  0
LINE
  5
107
330
101
100
AcDbEntity
  8
0
  6
Continuous
 62
     7
370
     0
100
AcDbLine
 10
37.8817216344
 20
6.6033468802
 30
0.0
 11
37.8817216344
 21
5.4127218444
 31
0.0
  0
LINE
  5
108
330
101
100
AcDbEntity
  8
0
  6
Continuous
 62
     7
370
     0
100
AcDbLine
 10
37.8817216344
 20
5.4127218444
 30
0.0
 11
38.1102372571
 21
5.4127218444
 31
0.0
  0
LINE
  5
109
330
101
100
AcDbEntity
  8
0
  6
Continuous
 62
     7
370
     0
100
AcDbLine
 10
41.0935706533
 20
6.6033468802
 30
0.0
 11
41.322086276
 21
6.6033468802
 31
0.0
  0
LINE
  5
10A
330
101
100
AcDbEntity
  8
0
  6
Continuous
 62
     7
370
     0
100
AcDbLine
 10
41.322086276
 20
6.6033468802
 30
0.0
 11
41.322086276
 21
5.4127218444
 31
0.0
  0
LINE
  5
10B
330
101
100
AcDbEntity
  8
0
  6
Continuous
 62
     7
370
     0
100
AcDbLine
 10
41.322086276
 20
5.4127218444
 30
0.0
 11
41.0935706533
 21
5.4127218444
 31
0.0
  0
LINE
  5
10C
330
101
100
AcDbEntity
  8
0
  6
Continuous
 62
     7
370
     0
100
AcDbLine
 10
42.4023703254
 20
8.609076164
 30
0.0
 11
38.8519038452
 21
8.609076164
 31
0.0
  0
LINE
  5
10D
330
101
100
AcDbEntity
  8
0
  6
Continuous
 62
     7
370
     0
100
AcDbLine
 10
42.3423703254
 20
4.609076164
 30
0.0
 11
38.8519038452
 21
4.609076164
 31
0.0
  0
LINE
  5
10E
330
101
100
AcDbEntity
  8
0
  6
Continuous
 62
     7
370
     0
100
AcDbLine
 10
39.6019038452
 20
8.609076164
 30
0.0
 11
39.6019038452
 21
10.109076164
 31
0.0
  0
LINE
  5
10F
330
101
100
AcDbEntity
  8
0
  6
Continuous
 62
     7
370
     0
100
AcDbLine
 10
39.6019038452
 20
4.609076164
 30
0.0
 11
39.6019038452
 21
3.109076164
 31
0.0
  0
MTEXT
  5
110
330
101
100
AcDbEntity
  8
0
  6
Continuous
 62
     7
370
    18
100
AcDbMText
 10
37.6573726776
 20
7.7339498452
 30
0.0
 40
0.75
 41
0.0
 71
     1
 72
     1
  1

  7
SLDTEXTSTYLE0
 73
     1
 44
1.0
  0
MTEXT
  5
111
330
101
100
AcDbEntity
  8
0
  6
Continuous
 62
     7
370
    18
100
AcDbMText
 10
39.1701330656
 20
7.7224914564
 30
0.0
 40
0.75
 41
0.0
 71
     1
 72
     1
  1
2"
  7
SLDTEXTSTYLE0
 73
     1
 44
1.0
  0
MTEXT
  5
112
330
101
100
AcDbEntity
  8
0
  6
Continuous
 62
     7
370
    18
100
AcDbMText
 10
38.1102372571
 20
6.3795227317
 30
0.0
 40
0.75
 41
0.0
 71
     1
 72
     1
  1
51mm
  7
SLDTEXTSTYLE0
 73
     1
 44
1.0
  0
MTEXT
  5
113
330
101
100
AcDbEntity
  8
0
  6
Continuous
 62
     7
370
    18
100
AcDbMText
 10
41.8318517337
 20
7.7339498452
 30
0.0
 40
0.75
 41
0.0
 71
     1
 72
     1
  1

  7
SLDTEXTSTYLE0
 73
     1
 44
1.0
  0
ENDBLK
  5
103
330
101
100
AcDbEntity
  8
0
100
AcDbBlockEnd
  0
BLOCK
  5
15F
330
15E
100
AcDbEntity
  8
0
100
AcDbBlockBegin
  2
_D_4
 70
     0
 10
0.0
 20
0.0
 30
0.0
  3
_D_4
  1

  0
SOLID
  5
161
330
15E
100
AcDbEntity
  8
0
  6
Continuous
 62
     7
370
    18
100
AcDbTrace
 10
57.0041736551
 20
11.802037322
 30
0.0
 11
57.4980967035
 21
12.417537137
 31
0.0
 12
57.2902506066
 22
12.537537137
 32
0.0
 13
57.2902506066
 23
12.537537137
 33
0.0
  0
LINE
  5
162
330
15E
100
AcDbEntity
  8
0
  6
Continuous
 62
     7
370
     0
100
AcDbLine
 10
60.0565294888
 20
13.6991950499
 30
0.0
 11
59.8280138662
 21
13.6991950499
 31
0.0
  0
LINE
  5
163
330
15E
100
AcDbEntity
  8
0
  6
Continuous
 62
     7
370
     0
100
AcDbLine
 10
59.8280138662
 20
13.6991950499
 30
0.0
 11
59.8280138662
 21
12.5085700141
 31
0.0
  0
LINE
  5
164
330
15E
100
AcDbEntity
  8
0
  6
Continuous
 62
     7
370
     0
100
AcDbLine
 10
59.8280138662
 20
12.5085700141
 30
0.0
 11
60.0565294888
 21
12.5085700141
 31
0.0
  0
LINE
  5
165
330
15E
100
AcDbEntity
  8
0
  6
Continuous
 62
     7
370
     0
100
AcDbLine
 10
63.5940294433
 20
13.6991950499
 30
0.0
 11
63.822545066
 21
13.6991950499
 31
0.0
  0
LINE
  5
166
330
15E
100
AcDbEntity
  8
0
  6
Continuous
 62
     7
370
     0
100
AcDbLine
 10
63.822545066
 20
13.6991950499
 30
0.0
 11
63.822545066
 21
12.5085700141
 31
0.0
  0
LINE
  5
167
330
15E
100
AcDbEntity
  8
0
  6
Continuous
 62
     7
370
     0
100
AcDbLine
 10
63.822545066
 20
12.5085700141
 30
0.0
 11
63.5940294433
 21
12.5085700141
 31
0.0
  0
LINE
  5
168
330
15E
100
AcDbEntity
  8
0
  6
Continuous
 62
     7
370
     0
100
AcDbLine
 10
57.0041736551
 20
11.802037322
 30
0.0
 11
58.0994982435
 21
13.6991951599
 31
0.0
  0
LINE
  5
169
330
15E
100
AcDbEntity
  8
0
  6
Continuous
 62
     7
370
     0
100
AcDbLine
 10
58.0994982435
 20
13.6991951599
 30
0.0
 11
59.5994982435
 21
13.6991951599
 31
0.0
  0
MTEXT
  5
16A
330
15E
100
AcDbEntity
  8
0
  6
Continuous
 62
     7
370
    18
100
AcDbMText
 10
59.6394200823
 20
14.8183396811
 30
0.0
 40
0.75
 41
0.0
 71
     1
 72
     1
  1
%%c
  7
SLDTEXTSTYLE0
 73
     1
 44
1.0
  0
MTEXT
  5
16B
330
15E
100
AcDbEntity
  8
0
  6
Continuous
 62
     7
370
    18
100
AcDbMText
 10
60.7705138058
 20
14.8183396811
 30
0.0
 40
0.75
 41
0.0
 71
     1
 72
     1
  1
6 7/16"
  7
SLDTEXTSTYLE0
 73
     1
 44
1.0
  0
MTEXT
  5
16C
330
15E
100
AcDbEntity
  8
0
  6
Continuous
 62
     7
370
    18
100
AcDbMText
 10
60.0565294888
 20
13.4753709014
 30
0.0
 40
0.75
 41
0.0
 71
     1
 72
     1
  1
164mm
  7
SLDTEXTSTYLE0
 73
     1
 44
1.0
  0
ENDBLK
  5
160
330
15E
100
AcDbEntity
  8
0
100
AcDbBlockEnd
  0
BLOCK
  5
241
330
240
100
AcDbEntity
  8
0
100
AcDbBlockBegin
  2
_D_5
 70
     0
 10
0.0
 20
0.0
 30
0.0
  3
_D_5
  1

  0
SOLID
  5
243
330
240
100
AcDbEntity
  8
0
  6
Continuous
 62
     7
370
    18
100
AcDbTrace
 10
23.8905675386
 20
34.9829335733
 30
0.0
 11
23.2541714355
 21
34.5162430977
 31
0.0
 12
23.423877063
 22
34.3465374702
 32
0.0
 13
23.423877063
 23
34.3465374702
 33
0.0
  0
SOLID
  5
244
330
240
100
AcDbEntity
  8
0
  6
Continuous
 62
     7
370
    18
100
AcDbTrace
 10
22.1793691281
 20
33.2717351628
 30
0.0
 11
22.8157652312
 21
33.7384256384
 31
0.0
 12
22.6460596037
 22
33.9081312659
 32
0.0
 13
22.6460596037
 23
33.9081312659
 33
0.0
  0
LINE
  5
245
330
240
100
AcDbEntity
  8
0
  6
Continuous
 62
     7
370
     0
100
AcDbLine
 10
16.7036503535
 20
33.0077348601
 30
0.0
 11
16.4751347308
 21
33.0077348601
 31
0.0
  0
LINE
  5
246
330
240
100
AcDbEntity
  8
0
  6
Continuous
 62
     7
370
     0
100
AcDbLine
 10
16.4751347308
 20
33.0077348601
 30
0.0
 11
16.4751347308
 21
31.8171098243
 31
0.0
  0
LINE
  5
247
330
240
100
AcDbEntity
  8
0
  6
Continuous
 62
     7
370
     0
100
AcDbLine
 10
16.4751347308
 20
31.8171098243
 30
0.0
 11
16.7036503535
 21
31.8171098243
 31
0.0
  0
LINE
  5
248
330
240
100
AcDbEntity
  8
0
  6
Continuous
 62
     7
370
     0
100
AcDbLine
 10
19.6869837497
 20
33.0077348601
 30
0.0
 11
19.9154993724
 21
33.0077348601
 31
0.0
  0
LINE
  5
249
330
240
100
AcDbEntity
  8
0
  6
Continuous
 62
     7
370
     0
100
AcDbLine
 10
19.9154993724
 20
33.0077348601
 30
0.0
 11
19.9154993724
 21
31.8171098243
 31
0.0
  0
LINE
  5
24A
330
240
100
AcDbEntity
  8
0
  6
Continuous
 62
     7
370
     0
100
AcDbLine
 10
19.9154993724
 20
31.8171098243
 30
0.0
 11
19.6869837497
 21
31.8171098243
 31
0.0
  0
LINE
  5
24B
330
240
100
AcDbEntity
  8
0
  6
Continuous
 62
     7
370
     0
100
AcDbLine
 10
27.756249838
 20
31.1172512738
 30
0.0
 11
23.3602374527
 21
35.5132636592
 31
0.0
  0
LINE
  5
24C
330
240
100
AcDbEntity
  8
0
  6
Continuous
 62
     7
370
     0
100
AcDbLine
 10
25.6101807571
 20
29.8409235338
 30
0.0
 11
21.6490390422
 21
33.8020652487
 31
0.0
  0
LINE
  5
24D
330
240
100
AcDbEntity
  8
0
  6
Continuous
 62
     7
370
     0
100
AcDbLine
 10
23.8905675386
 20
34.9829335733
 30
0.0
 11
22.1793691281
 21
33.2717351628
 31
0.0
  0
LINE
  5
24E
330
240
100
AcDbEntity
  8
0
  6
Continuous
 62
     7
370
     0
100
AcDbLine
 10
22.1793691281
 20
33.2717351628
 30
0.0
 11
21.9210981092
 21
33.0134641439
 31
0.0
  0
LINE
  5
24F
330
240
100
AcDbEntity
  8
0
  6
Continuous
 62
     7
370
     0
100
AcDbLine
 10
21.9210981092
 20
33.0134641439
 30
0.0
 11
20.4210981092
 21
33.0134641439
 31
0.0
  0
MTEXT
  5
250
330
240
100
AcDbEntity
  8
0
  6
Continuous
 62
     7
370
    18
100
AcDbMText
 10
16.250785774
 20
34.1383378252
 30
0.0
 40
0.75
 41
0.0
 71
     1
 72
     1
  1

  7
SLDTEXTSTYLE0
 73
     1
 44
1.0
  0
MTEXT
  5
251
330
240
100
AcDbEntity
  8
0
  6
Continuous
 62
     7
370
    18
100
AcDbMText
 10
16.5750044746
 20
34.1268794363
 30
0.0
 40
0.75
 41
0.0
 71
     1
 72
     1
  1
2 7/16"
  7
SLDTEXTSTYLE0
 73
     1
 44
1.0
  0
MTEXT
  5
252
330
240
100
AcDbEntity
  8
0
  6
Continuous
 62
     7
370
    18
100
AcDbMText
 10
16.7036503535
 20
32.7839107116
 30
0.0
 40
0.75
 41
0.0
 71
     1
 72
     1
  1
61mm
  7
SLDTEXTSTYLE0
 73
     1
 44
1.0
  0
MTEXT
  5
253
330
240
100
AcDbEntity
  8
0
  6
Continuous
 62
     7
370
    18
100
AcDbMText
 10
20.4252648301
 20
34.1383378252
 30
0.0
 40
0.75
 41
0.0
 71
     1
 72
     1
  1

  7
SLDTEXTSTYLE0
 73
     1
 44
1.0
  0
ENDBLK
  5
242
330
240
100
AcDbEntity
  8
0
100
AcDbBlockEnd
  0
BLOCK
  5
256
330
255
100
AcDbEntity
  8
0
100
AcDbBlockBegin
  2
_D_6
 70
     0
 10
0.0
 20
0.0
 30
0.0
  3
_D_6
  1

  0
SOLID
  5
258
330
255
100
AcDbEntity
  8
0
  6
Continuous
 62
     7
370
    18
100
AcDbTrace
 10
20.1884760864
 20
23.9949547943
 30
0.0
 11
20.655166562
 21
23.3585586913
 31
0.0
 12
20.8248721895
 22
23.5282643188
 32
0.0
 13
20.8248721895
 23
23.5282643188
 33
0.0
  0
SOLID
  5
259
330
255
100
AcDbEntity
  8
0
  6
Continuous
 62
     7
370
    18
100
AcDbTrace
 10
21.7582531406
 20
22.4251777401
 30
0.0
 11
21.291562665
 21
23.0615738432
 31
0.0
 12
21.1218570376
 22
22.8918682157
 32
0.0
 13
21.1218570376
 23
22.8918682157
 33
0.0
  0
LINE
  5
25A
330
255
100
AcDbEntity
  8
0
  6
Continuous
 62
     7
370
     0
100
AcDbLine
 10
13.1950329425
 20
26.0480332966
 30
0.0
 11
12.9665173198
 21
26.0480332966
 31
0.0
  0
LINE
  5
25B
330
255
100
AcDbEntity
  8
0
  6
Continuous
 62
     7
370
     0
100
AcDbLine
 10
12.9665173198
 20
26.0480332966
 30
0.0
 11
12.9665173198
 21
24.8574082608
 31
0.0
  0
LINE
  5
25C
330
255
100
AcDbEntity
  8
0
  6
Continuous
 62
     7
370
     0
100
AcDbLine
 10
12.9665173198
 20
24.8574082608
 30
0.0
 11
13.1950329425
 21
24.8574082608
 31
0.0
  0
LINE
  5
25D
330
255
100
AcDbEntity
  8
0
  6
Continuous
 62
     7
370
     0
100
AcDbLine
 10
16.1783663388
 20
26.0480332966
 30
0.0
 11
16.4068819614
 21
26.0480332966
 31
0.0
  0
LINE
  5
25E
330
255
100
AcDbEntity
  8
0
  6
Continuous
 62
     7
370
     0
100
AcDbLine
 10
16.4068819614
 20
26.0480332966
 30
0.0
 11
16.4068819614
 21
24.8574082608
 31
0.0
  0
LINE
  5
25F
330
255
100
AcDbEntity
  8
0
  6
Continuous
 62
     7
370
     0
100
AcDbLine
 10
16.4068819614
 20
24.8574082608
 30
0.0
 11
16.1783663388
 21
24.8574082608
 31
0.0
  0
LINE
  5
260
330
255
100
AcDbEntity
  8
0
  6
Continuous
 62
     7
370
     0
100
AcDbLine
 10
23.8247361346
 20
27.6312148426
 30
0.0
 11
19.6581460005
 21
23.4646247085
 31
0.0
  0
LINE
  5
261
330
255
100
AcDbEntity
  8
0
  6
Continuous
 62
     7
370
     0
100
AcDbLine
 10
23.8247361346
 20
24.4916607341
 30
0.0
 11
21.2279230547
 21
21.8948476542
 31
0.0
  0
LINE
  5
262
330
255
100
AcDbEntity
  8
0
  6
Continuous
 62
     7
370
     0
100
AcDbLine
 10
20.1884760864
 20
23.9949547943
 30
0.0
 11
18.1353974741
 21
26.0480334066
 31
0.0
  0
LINE
  5
263
330
255
100
AcDbEntity
  8
0
  6
Continuous
 62
     7
370
     0
100
AcDbLine
 10
21.7582531406
 20
22.4251777401
 30
0.0
 11
20.1884760864
 21
23.9949547943
 31
0.0
  0
LINE
  5
264
330
255
100
AcDbEntity
  8
0
  6
Continuous
 62
     7
370
     0
100
AcDbLine
 10
18.1353974741
 20
26.0480334066
 30
0.0
 11
16.6353974741
 21
26.0480334066
 31
0.0
  0
MTEXT
  5
265
330
255
100
AcDbEntity
  8
0
  6
Continuous
 62
     7
370
    18
100
AcDbMText
 10
12.777923536
 20
27.1671779278
 30
0.0
 40
0.75
 41
0.0
 71
     1
 72
     1
  1
%%c
  7
SLDTEXTSTYLE0
 73
     1
 44
1.0
  0
MTEXT
  5
266
330
255
100
AcDbEntity
  8
0
  6
Continuous
 62
     7
370
    18
100
AcDbMText
 10
13.9090172595
 20
27.1671779278
 30
0.0
 40
0.75
 41
0.0
 71
     1
 72
     1
  1
2 1/4"
  7
SLDTEXTSTYLE0
 73
     1
 44
1.0
  0
MTEXT
  5
267
330
255
100
AcDbEntity
  8
0
  6
Continuous
 62
     7
370
    18
100
AcDbMText
 10
13.1950329425
 20
25.8242091481
 30
0.0
 40
0.75
 41
0.0
 71
     1
 72
     1
  1
56mm
  7
SLDTEXTSTYLE0
 73
     1
 44
1.0
  0
ENDBLK
  5
257
330
255
100
AcDbEntity
  8
0
100
AcDbBlockEnd
  0
BLOCK
  5
26A
330
269
100
AcDbEntity
  8
0
100
AcDbBlockBegin
  2
_D_7
 70
     0
 10
0.0
 20
0.0
 30
0.0
  3
_D_7
  1

  0
SOLID
  5
26C
330
269
100
AcDbEntity
  8
0
  6
Continuous
 62
     7
370
    18
100
AcDbTrace
 10
32.282150407
 20
26.5913507049
 30
0.0
 11
31.6457543039
 21
26.1246602293
 31
0.0
 12
31.8154599314
 22
25.9549546018
 32
0.0
 13
31.8154599314
 23
25.9549546018
 33
0.0
  0
SOLID
  5
26D
330
269
100
AcDbEntity
  8
0
  6
Continuous
 62
     7
370
    18
100
AcDbTrace
 10
27.2157303198
 20
21.5249306177
 30
0.0
 11
27.8521264228
 21
21.9916210932
 31
0.0
 12
27.6824207954
 22
22.1613267207
 32
0.0
 13
27.6824207954
 23
22.1613267207
 33
0.0
  0
LINE
  5
26E
330
269
100
AcDbEntity
  8
0
  6
Continuous
 62
     7
370
     0
100
AcDbLine
 10
27.9801904961
 20
24.0524113774
 30
0.0
 11
27.7516748735
 21
24.0524113774
 31
0.0
  0
LINE
  5
26F
330
269
100
AcDbEntity
  8
0
  6
Continuous
 62
     7
370
     0
100
AcDbLine
 10
27.7516748735
 20
24.0524113774
 30
0.0
 11
27.7516748735
 21
22.8617863417
 31
0.0
  0
LINE
  5
270
330
269
100
AcDbEntity
  8
0
  6
Continuous
 62
     7
370
     0
100
AcDbLine
 10
27.7516748735
 20
22.8617863417
 30
0.0
 11
27.9801904961
 21
22.8617863417
 31
0.0
  0
LINE
  5
271
330
269
100
AcDbEntity
  8
0
  6
Continuous
 62
     7
370
     0
100
AcDbLine
 10
31.5176904506
 20
24.0524113774
 30
0.0
 11
31.7462060733
 21
24.0524113774
 31
0.0
  0
LINE
  5
272
330
269
100
AcDbEntity
  8
0
  6
Continuous
 62
     7
370
     0
100
AcDbLine
 10
31.7462060733
 20
24.0524113774
 30
0.0
 11
31.7462060733
 21
22.8617863417
 31
0.0
  0
LINE
  5
273
330
269
100
AcDbEntity
  8
0
  6
Continuous
 62
     7
370
     0
100
AcDbLine
 10
31.7462060733
 20
22.8617863417
 30
0.0
 11
31.5176904506
 21
22.8617863417
 31
0.0
  0
LINE
  5
274
330
269
100
AcDbEntity
  8
0
  6
Continuous
 62
     7
370
     0
100
AcDbLine
 10
28.5305317634
 20
30.3429693484
 30
0.0
 11
32.8124804929
 21
26.061020619
 31
0.0
  0
LINE
  5
275
330
269
100
AcDbEntity
  8
0
  6
Continuous
 62
     7
370
     0
100
AcDbLine
 10
24.2490002033
 20
24.4916607341
 30
0.0
 11
27.7460604057
 21
20.9946005318
 31
0.0
  0
LINE
  5
276
330
269
100
AcDbEntity
  8
0
  6
Continuous
 62
     7
370
     0
100
AcDbLine
 10
32.282150407
 20
26.5913507049
 30
0.0
 11
31.0976381931
 21
25.406838491
 31
0.0
  0
LINE
  5
277
330
269
100
AcDbEntity
  8
0
  6
Continuous
 62
     7
370
     0
100
AcDbLine
 10
27.2157303198
 20
21.5249306177
 30
0.0
 11
28.4002425336
 21
22.7094428315
 31
0.0
  0
MTEXT
  5
278
330
269
100
AcDbEntity
  8
0
  6
Continuous
 62
     7
370
    18
100
AcDbMText
 10
27.5273259167
 20
25.1830143425
 30
0.0
 40
0.75
 41
0.0
 71
     1
 72
     1
  1

  7
SLDTEXTSTYLE0
 73
     1
 44
1.0
  0
MTEXT
  5
279
330
269
100
AcDbEntity
  8
0
  6
Continuous
 62
     7
370
    18
100
AcDbMText
 10
28.1286278964
 20
25.1715559536
 30
0.0
 40
0.75
 41
0.0
 71
     1
 72
     1
  1
7 3/16"
  7
SLDTEXTSTYLE0
 73
     1
 44
1.0
  0
MTEXT
  5
27A
330
269
100
AcDbEntity
  8
0
  6
Continuous
 62
     7
370
    18
100
AcDbMText
 10
27.9801904961
 20
23.828587229
 30
0.0
 40
0.75
 41
0.0
 71
     1
 72
     1
  1
182mm
  7
SLDTEXTSTYLE0
 73
     1
 44
1.0
  0
MTEXT
  5
27B
330
269
100
AcDbEntity
  8
0
  6
Continuous
 62
     7
370
    18
100
AcDbMText
 10
32.255971531
 20
25.1830143425
 30
0.0
 40
0.75
 41
0.0
 71
     1
 72
     1
  1

  7
SLDTEXTSTYLE0
 73
     1
 44
1.0
  0
ENDBLK
  5
26B
330
269
100
AcDbEntity
  8
0
100
AcDbBlockEnd
  0
BLOCK
  5
27E
330
27D
100
AcDbEntity
  8
0
100
AcDbBlockBegin
  2
_D_8
 70
     0
 10
0.0
 20
0.0
 30
0.0
  3
_D_8
  1

  0
SOLID
  5
280
330
27D
100
AcDbEntity
  8
0
  6
Continuous
 62
     7
370
    18
100
AcDbTrace
 10
13.1004579443
 20
46.1821011877
 30
0.0
 11
12.3204579443
 21
46.3021011877
 31
0.0
 12
12.3204579443
 22
46.0621011877
 32
0.0
 13
12.3204579443
 23
46.0621011877
 33
0.0
  0
SOLID
  5
281
330
27D
100
AcDbEntity
  8
0
  6
Continuous
 62
     7
370
    18
100
AcDbTrace
 10
10.8224579443
 20
46.1821011877
 30
0.0
 11
11.6024579443
 21
46.0621011877
 31
0.0
 12
11.6024579443
 22
46.3021011877
 32
0.0
 13
11.6024579443
 23
46.3021011877
 33
0.0
  0
LINE
  5
282
330
27D
100
AcDbEntity
  8
0
  6
Continuous
 62
     7
370
     0
100
AcDbLine
 10
5.5167637971
 20
46.1763719038
 30
0.0
 11
5.2882481744
 21
46.1763719038
 31
0.0
  0
LINE
  5
283
330
27D
100
AcDbEntity
  8
0
  6
Continuous
 62
     7
370
     0
100
AcDbLine
 10
5.2882481744
 20
46.1763719038
 30
0.0
 11
5.2882481744
 21
44.9857468681
 31
0.0
  0
LINE
  5
284
330
27D
100
AcDbEntity
  8
0
  6
Continuous
 62
     7
370
     0
100
AcDbLine
 10
5.2882481744
 20
44.9857468681
 30
0.0
 11
5.5167637971
 21
44.9857468681
 31
0.0
  0
LINE
  5
285
330
27D
100
AcDbEntity
  8
0
  6
Continuous
 62
     7
370
     0
100
AcDbLine
 10
8.5000971934
 20
46.1763719038
 30
0.0
 11
8.7286128161
 21
46.1763719038
 31
0.0
  0
LINE
  5
286
330
27D
100
AcDbEntity
  8
0
  6
Continuous
 62
     7
370
     0
100
AcDbLine
 10
8.7286128161
 20
46.1763719038
 30
0.0
 11
8.7286128161
 21
44.9857468681
 31
0.0
  0
LINE
  5
287
330
27D
100
AcDbEntity
  8
0
  6
Continuous
 62
     7
370
     0
100
AcDbLine
 10
8.7286128161
 20
44.9857468681
 30
0.0
 11
8.5000971934
 21
44.9857468681
 31
0.0
  0
LINE
  5
288
330
27D
100
AcDbEntity
  8
0
  6
Continuous
 62
     7
370
     0
100
AcDbLine
 10
13.1004579443
 20
39.69173489
 30
0.0
 11
13.1004579443
 21
46.9321011877
 31
0.0
  0
LINE
  5
289
330
27D
100
AcDbEntity
  8
0
  6
Continuous
 62
     7
370
     0
100
AcDbLine
 10
10.8224579443
 20
41.36673489
 30
0.0
 11
10.8224579443
 21
46.9321011877
 31
0.0
  0
LINE
  5
28A
330
27D
100
AcDbEntity
  8
0
  6
Continuous
 62
     7
370
     0
100
AcDbLine
 10
13.1004579443
 20
46.1821011877
 30
0.0
 11
10.8224579443
 21
46.1821011877
 31
0.0
  0
LINE
  5
28B
330
27D
100
AcDbEntity
  8
0
  6
Continuous
 62
     7
370
     0
100
AcDbLine
 10
10.8224579443
 20
46.1821011877
 30
0.0
 11
9.3862134161
 21
46.1821011877
 31
0.0
  0
MTEXT
  5
28C
330
27D
100
AcDbEntity
  8
0
  6
Continuous
 62
     7
370
    18
100
AcDbMText
 10
5.0638992177
 20
47.3069748689
 30
0.0
 40
0.75
 41
0.0
 71
     1
 72
     1
  1

  7
SLDTEXTSTYLE0
 73
     1
 44
1.0
  0
MTEXT
  5
28D
330
27D
100
AcDbEntity
  8
0
  6
Continuous
 62
     7
370
    18
100
AcDbMText
 10
5.6652013074
 20
47.29551648
 30
0.0
 40
0.75
 41
0.0
 71
     1
 72
     1
  1
2 1/4"
  7
SLDTEXTSTYLE0
 73
     1
 44
1.0
  0
MTEXT
  5
28E
330
27D
100
AcDbEntity
  8
0
  6
Continuous
 62
     7
370
    18
100
AcDbMText
 10
5.5167637971
 20
45.9525477554
 30
0.0
 40
0.75
 41
0.0
 71
     1
 72
     1
  1
58mm
  7
SLDTEXTSTYLE0
 73
     1
 44
1.0
  0
MTEXT
  5
28F
330
27D
100
AcDbEntity
  8
0
  6
Continuous
 62
     7
370
    18
100
AcDbMText
 10
9.2383782737
 20
47.3069748689
 30
0.0
 40
0.75
 41
0.0
 71
     1
 72
     1
  1

  7
SLDTEXTSTYLE0
 73
     1
 44
1.0
  0
ENDBLK
  5
27F
330
27D
100
AcDbEntity
  8
0
100
AcDbBlockEnd
  0
BLOCK
  5
293
330
292
100
AcDbEntity
  8
0
100
AcDbBlockBegin
  2
_D_9
 70
     0
 10
0.0
 20
0.0
 30
0.0
  3
_D_9
  1

  0
SOLID
  5
295
330
292
100
AcDbEntity
  8
0
  6
Continuous
 62
     7
370
    18
100
AcDbTrace
 10
10.8224579443
 20
46.1821011877
 30
0.0
 11
11.6024579443
 21
46.0621011877
 31
0.0
 12
11.6024579443
 22
46.3021011877
 32
0.0
 13
11.6024579443
 23
46.3021011877
 33
0.0
  0
SOLID
  5
296
330
292
100
AcDbEntity
  8
0
  6
Continuous
 62
     7
370
    18
100
AcDbTrace
 10
33.0804579443
 20
46.1821011877
 30
0.0
 11
32.3004579443
 21
46.3021011877
 31
0.0
 12
32.3004579443
 22
46.0621011877
 32
0.0
 13
32.3004579443
 23
46.0621011877
 33
0.0
  0
LINE
  5
297
330
292
100
AcDbEntity
  8
0
  6
Continuous
 62
     7
370
     0
100
AcDbLine
 10
10.8224579443
 20
41.36673489
 30
0.0
 11
10.8224579443
 21
46.9321011877
 31
0.0
  0
LINE
  5
298
330
292
100
AcDbEntity
  8
0
  6
Continuous
 62
     7
370
     0
100
AcDbLine
 10
33.0804579443
 20
37.89173489
 30
0.0
 11
33.0804579443
 21
46.9321011877
 31
0.0
  0
LINE
  5
299
330
292
100
AcDbEntity
  8
0
  6
Continuous
 62
     7
370
     0
100
AcDbLine
 10
10.8224579443
 20
46.1821011877
 30
0.0
 11
14.7129982644
 21
46.1821011877
 31
0.0
  0
LINE
  5
29A
330
292
100
AcDbEntity
  8
0
  6
Continuous
 62
     7
370
     0
100
AcDbLine
 10
33.0804579443
 20
46.1821011877
 30
0.0
 11
29.1899176242
 21
46.1821011877
 31
0.0
  0
MTEXT
  5
29B
330
292
100
AcDbEntity
  8
0
  6
Continuous
 62
     7
370
    18
100
AcDbMText
 10
14.8650001277
 20
47.7442146479
 30
0.0
 40
0.75
 41
0.0
 71
     1
 72
     1
  1
SPECIFY PROJECTION LENGTH
  7
SLDTEXTSTYLE0
 73
     1
 44
1.0
  0
MTEXT
  5
29C
330
292
100
AcDbEntity
  8
0
  6
Continuous
 62
     7
370
    18
100
AcDbMText
 10
20.3676038411
 20
46.5535896121
 30
0.0
 40
0.75
 41
0.0
 71
     1
 72
     1
  1
18"-48"
  7
SLDTEXTSTYLE0
 73
     1
 44
1.0
  0
MTEXT
  5
29D
330
292
100
AcDbEntity
  8
0
  6
Continuous
 62
     7
370
    18
100
AcDbMText
 10
17.6196873053
 20
45.3629645763
 30
0.0
 40
0.75
 41
0.0
 71
     1
 72
     1
  1
[457mm-1219mm]
  7
SLDTEXTSTYLE0
 73
     1
 44
1.0
  0
ENDBLK
  5
294
330
292
100
AcDbEntity
  8
0
100
AcDbBlockEnd
  0
BLOCK
  5
2A0
330
29F
100
AcDbEntity
  8
0
100
AcDbBlockBegin
  2
_D_10
 70
     0
 10
0.0
 20
0.0
 30
0.0
  3
_D_10
  1

  0
SOLID
  5
2A2
330
29F
100
AcDbEntity
  8
0
  6
Continuous
 62
     7
370
    18
100
AcDbTrace
 10
36.9606770007
 20
30.4879262386
 30
0.0
 11
37.0806770007
 21
31.2679262386
 31
0.0
 12
36.8406770007
 22
31.2679262386
 32
0.0
 13
36.8406770007
 23
31.2679262386
 33
0.0
  0
SOLID
  5
2A3
330
29F
100
AcDbEntity
  8
0
  6
Continuous
 62
     7
370
    18
100
AcDbTrace
 10
36.9606770007
 20
38.34173489
 30
0.0
 11
36.8406770007
 21
37.56173489
 31
0.0
 12
37.0806770007
 22
37.56173489
 32
0.0
 13
37.0806770007
 23
37.56173489
 33
0.0
  0
LINE
  5
2A4
330
29F
100
AcDbEntity
  8
0
  6
Continuous
 62
     7
370
     0
100
AcDbLine
 10
35.1919271334
 20
34.4091012804
 30
0.0
 11
34.9634115107
 21
34.4091012804
 31
0.0
  0
LINE
  5
2A5
330
29F
100
AcDbEntity
  8
0
  6
Continuous
 62
     7
370
     0
100
AcDbLine
 10
34.9634115107
 20
34.4091012804
 30
0.0
 11
34.9634115107
 21
33.2184762447
 31
0.0
  0
LINE
  5
2A6
330
29F
100
AcDbEntity
  8
0
  6
Continuous
 62
     7
370
     0
100
AcDbLine
 10
34.9634115107
 20
33.2184762447
 30
0.0
 11
35.1919271334
 21
33.2184762447
 31
0.0
  0
LINE
  5
2A7
330
29F
100
AcDbEntity
  8
0
  6
Continuous
 62
     7
370
     0
100
AcDbLine
 10
38.7294270879
 20
34.4091012804
 30
0.0
 11
38.9579427106
 21
34.4091012804
 31
0.0
  0
LINE
  5
2A8
330
29F
100
AcDbEntity
  8
0
  6
Continuous
 62
     7
370
     0
100
AcDbLine
 10
38.9579427106
 20
34.4091012804
 30
0.0
 11
38.9579427106
 21
33.2184762447
 31
0.0
  0
LINE
  5
2A9
330
29F
100
AcDbEntity
  8
0
  6
Continuous
 62
     7
370
     0
100
AcDbLine
 10
38.9579427106
 20
33.2184762447
 30
0.0
 11
38.7294270879
 21
33.2184762447
 31
0.0
  0
LINE
  5
2AA
330
29F
100
AcDbEntity
  8
0
  6
Continuous
 62
     7
370
     0
100
AcDbLine
 10
28.6855748733
 20
30.4879262386
 30
0.0
 11
37.7106770007
 21
30.4879262386
 31
0.0
  0
LINE
  5
2AB
330
29F
100
AcDbEntity
  8
0
  6
Continuous
 62
     7
370
     0
100
AcDbLine
 10
31.4004579443
 20
38.34173489
 30
0.0
 11
37.7106770007
 21
38.34173489
 31
0.0
  0
LINE
  5
2AC
330
29F
100
AcDbEntity
  8
0
  6
Continuous
 62
     7
370
     0
100
AcDbLine
 10
36.9606770007
 20
30.4879262386
 30
0.0
 11
36.9606770007
 21
33.0661327345
 31
0.0
  0
LINE
  5
2AD
330
29F
100
AcDbEntity
  8
0
  6
Continuous
 62
     7
370
     0
100
AcDbLine
 10
36.9606770007
 20
38.34173489
 30
0.0
 11
36.9606770007
 21
35.763528394
 31
0.0
  0
MTEXT
  5
2AE
330
29F
100
AcDbEntity
  8
0
  6
Continuous
 62
     7
370
    18
100
AcDbMText
 10
34.739062554
 20
35.5397042455
 30
0.0
 40
0.75
 41
0.0
 71
     1
 72
     1
  1

  7
SLDTEXTSTYLE0
 73
     1
 44
1.0
  0
MTEXT
  5
2AF
330
29F
100
AcDbEntity
  8
0
  6
Continuous
 62
     7
370
    18
100
AcDbMText
 10
35.6174479227
 20
35.5282458566
 30
0.0
 40
0.75
 41
0.0
 71
     1
 72
     1
  1
7 7/8"
  7
SLDTEXTSTYLE0
 73
     1
 44
1.0
  0
MTEXT
  5
2B0
330
29F
100
AcDbEntity
  8
0
  6
Continuous
 62
     7
370
    18
100
AcDbMText
 10
35.1919271334
 20
34.185277132
 30
0.0
 40
0.75
 41
0.0
 71
     1
 72
     1
  1
199mm
  7
SLDTEXTSTYLE0
 73
     1
 44
1.0
  0
MTEXT
  5
2B1
330
29F
100
AcDbEntity
  8
0
  6
Continuous
 62
     7
370
    18
100
AcDbMText
 10
39.4677081682
 20
35.5397042455
 30
0.0
 40
0.75
 41
0.0
 71
     1
 72
     1
  1

  7
SLDTEXTSTYLE0
 73
     1
 44
1.0
  0
ENDBLK
  5
2A1
330
29F
100
AcDbEntity
  8
0
100
AcDbBlockEnd
  0
BLOCK
  5
2B5
330
2B4
100
AcDbEntity
  8
0
100
AcDbBlockBegin
  2
_D_11
 70
     0
 10
0.0
 20
0.0
 30
0.0
  3
_D_11
  1

  0
SOLID
  5
2B7
330
2B4
100
AcDbEntity
  8
0
  6
Continuous
 62
     7
370
    18
100
AcDbTrace
 10
15.4076410465
 20
37.34173489
 30
0.0
 11
15.2876410465
 21
36.56173489
 31
0.0
 12
15.5276410465
 22
36.56173489
 32
0.0
 13
15.5276410465
 23
36.56173489
 33
0.0
  0
SOLID
  5
2B8
330
2B4
100
AcDbEntity
  8
0
  6
Continuous
 62
     7
370
    18
100
AcDbTrace
 10
15.4076410465
 20
38.34173489
 30
0.0
 11
15.5276410465
 21
39.12173489
 31
0.0
 12
15.2876410465
 22
39.12173489
 32
0.0
 13
15.2876410465
 23
39.12173489
 33
0.0
  0
LINE
  5
2B9
330
2B4
100
AcDbEntity
  8
0
  6
Continuous
 62
     7
370
     0
100
AcDbLine
 10
17.8206778816
 20
40.8663896081
 30
0.0
 11
17.592162259
 21
40.8663896081
 31
0.0
  0
LINE
  5
2BA
330
2B4
100
AcDbEntity
  8
0
  6
Continuous
 62
     7
370
     0
100
AcDbLine
 10
17.592162259
 20
40.8663896081
 30
0.0
 11
17.592162259
 21
39.6757645723
 31
0.0
  0
LINE
  5
2BB
330
2B4
100
AcDbEntity
  8
0
  6
Continuous
 62
     7
370
     0
100
AcDbLine
 10
17.592162259
 20
39.6757645723
 30
0.0
 11
17.8206778816
 21
39.6757645723
 31
0.0
  0
LINE
  5
2BC
330
2B4
100
AcDbEntity
  8
0
  6
Continuous
 62
     7
370
     0
100
AcDbLine
 10
20.8040112779
 20
40.8663896081
 30
0.0
 11
21.0325269006
 21
40.8663896081
 31
0.0
  0
LINE
  5
2BD
330
2B4
100
AcDbEntity
  8
0
  6
Continuous
 62
     7
370
     0
100
AcDbLine
 10
21.0325269006
 20
40.8663896081
 30
0.0
 11
21.0325269006
 21
39.6757645723
 31
0.0
  0
LINE
  5
2BE
330
2B4
100
AcDbEntity
  8
0
  6
Continuous
 62
     7
370
     0
100
AcDbLine
 10
21.0325269006
 20
39.6757645723
 30
0.0
 11
20.8040112779
 21
39.6757645723
 31
0.0
  0
LINE
  5
2BF
330
2B4
100
AcDbEntity
  8
0
  6
Continuous
 62
     7
370
     0
100
AcDbLine
 10
16.9076410465
 20
40.8663897181
 30
0.0
 11
15.4076410465
 21
40.8663897181
 31
0.0
  0
LINE
  5
2C0
330
2B4
100
AcDbEntity
  8
0
  6
Continuous
 62
     7
370
     0
100
AcDbLine
 10
15.4076410465
 20
40.8663897181
 30
0.0
 11
15.4076410465
 21
38.34173489
 31
0.0
  0
LINE
  5
2C1
330
2B4
100
AcDbEntity
  8
0
  6
Continuous
 62
     7
370
     0
100
AcDbLine
 10
15.4076410465
 20
37.34173489
 30
0.0
 11
15.4076410465
 21
35.84173489
 31
0.0
  0
MTEXT
  5
2C2
330
2B4
100
AcDbEntity
  8
0
  6
Continuous
 62
     7
370
    18
100
AcDbMText
 10
18.3150268559
 20
41.9855342393
 30
0.0
 40
0.75
 41
0.0
 71
     1
 72
     1
  1
%%c
  7
SLDTEXTSTYLE0
 73
     1
 44
1.0
  0
MTEXT
  5
2C3
330
2B4
100
AcDbEntity
  8
0
  6
Continuous
 62
     7
370
    18
100
AcDbMText
 10
19.4461205794
 20
41.9855342393
 30
0.0
 40
0.75
 41
0.0
 71
     1
 72
     1
  1
1"
  7
SLDTEXTSTYLE0
 73
     1
 44
1.0
  0
MTEXT
  5
2C4
330
2B4
100
AcDbEntity
  8
0
  6
Continuous
 62
     7
370
    18
100
AcDbMText
 10
17.8206778816
 20
40.6425654596
 30
0.0
 40
0.75
 41
0.0
 71
     1
 72
     1
  1
25mm
  7
SLDTEXTSTYLE0
 73
     1
 44
1.0
  0
ENDBLK
  5
2B6
330
2B4
100
AcDbEntity
  8
0
100
AcDbBlockEnd
  0
ENDSEC
  0
SECTION
  2
ENTITIES
  0
LINE
  5
90
330
1F
100
AcDbEntity
  8
0
  6
Continuous
 62
     7
370
    25
100
AcDbLine
 10
12.0594277292
 20
8.1809892162
 30
0.0
 11
12.0594277292
 21
9.659076164
 31
0.0
  0
LINE
  5
91
330
1F
100
AcDbEntity
  8
0
  6
Continuous
 62
     7
370
    25
100
AcDbLine
 10
12.0594277292
 20
5.2449892162
 30
0.0
 11
12.0594277292
 21
7.9095137023
 31
0.0
  0
LINE
  5
92
330
1F
100
AcDbEntity
  8
0
  6
Continuous
 62
     7
370
    25
100
AcDbLine
 10
12.0594277292
 20
4.609076164
 30
0.0
 11
12.0594277292
 21
4.9735137023
 31
0.0
  0
LINE
  5
93
330
1F
100
AcDbEntity
  8
0
  6
Continuous
 62
     7
370
    25
100
AcDbLine
 10
7.6194277292
 20
14.099076164
 30
0.0
 11
7.6194277292
 21
4.609076164
 31
0.0
  0
LINE
  5
94
330
1F
100
AcDbEntity
  8
0
  6
Continuous
 62
     7
370
    25
100
AcDbLine
 10
7.6194277292
 20
14.099076164
 30
0.0
 11
12.0594277292
 21
9.659076164
 31
0.0
  0
LINE
  5
95
330
1F
100
AcDbEntity
  8
0
  6
Continuous
 62
     7
370
    25
100
AcDbLine
 10
7.6194277292
 20
4.609076164
 30
0.0
 11
12.0594277292
 21
4.609076164
 31
0.0
  0
SPLINE
  5
96
330
1F
100
AcDbEntity
  8
0
  6
Continuous
 62
     7
370
    25
100
AcDbSpline
210
0.0
220
0.0
230
1.0
 70
     8
 71
     3
 72
    26
 73
    22
 74
     0
 42
0.00000001
 43
0.00000001
 40
0.0
 40
0.0
 40
0.0
 40
0.0
 40
0.0366214964885182
 40
0.0894453430017482
 40
0.1437992306353143
 40
0.1966606285712779
 40
0.2510500574717022
 40
0.3039963223031907
 40
0.3584776806048346
 40
0.411423935421197
 40
0.4659104750211616
 40
0.518771441232008
 40
0.5731678399641705
 40
0.625991469170254
 40
0.6803432448078838
 40
0.7332356294019065
 40
0.787657788596312
 40
0.8406177944134422
 40
0.8951155732593651
 40
0.9480366217047279
 40
1.0
 40
1.0
 40
1.0
 40
1.0
 10
12.05940099142904
 20
7.909513702275901
 30
0.0
 10
12.05940092995644
 20
7.909513859483156
 30
0.0
 10
12.0594007798141
 20
7.909514243450444
 30
0.0
 10
12.05913141603799
 20
7.913950334604631
 30
0.0
 10
12.05866455925468
 20
7.922029608968999
 30
0.0
 10
12.05803556977086
 20
7.933830787526403
 30
0.0
 10
12.05733611236034
 20
7.948629380937013
 30
0.0
 10
12.05663037692355
 20
7.966328726210415
 30
0.0
 10
12.05601013323854
 20
7.986103388712649
 30
0.0
 10
12.05553553916111
 20
8.007745545216443
 30
0.0
 10
12.05526822088832
 20
8.030239675691616
 30
0.0
 10
12.05523374921677
 20
8.053350690150177
 30
0.0
 10
12.05543608072635
 20
8.07600055366512
 30
0.0
 10
12.05585539060631
 20
8.097968459675034
 30
0.0
 10
12.05643764519314
 20
8.118248679367834
 30
0.0
 10
12.05712719558638
 20
8.13664077408286
 30
0.0
 10
12.0578353083489
 20
8.152292736950512
 30
0.0
 10
12.05849527634954
 20
8.165061672875586
 30
0.0
 10
12.05901542678552
 20
8.174242731396001
 30
0.0
 10
12.05936393173702
 20
8.180041897973249
 30
0.0
 10
12.05940305392011
 20
8.180675371463396
 30
0.0
 10
12.05942243640483
 20
8.180989216174492
 30
0.0
  0
SPLINE
  5
97
330
1F
100
AcDbEntity
  8
0
  6
Continuous
 62
     7
370
    25
100
AcDbSpline
210
0.0
220
0.0
230
1.0
 70
     8
 71
     3
 72
    26
 73
    22
 74
     0
 42
0.00000001
 43
0.00000001
 40
0.0
 40
0.0
 40
0.0
 40
0.0
 40
0.0366214964884872
 40
0.0894453430017155
 40
0.1437992306352946
 40
0.1966606285712422
 40
0.2510500574716661
 40
0.3039963223031777
 40
0.3584776806048557
 40
0.4114239354211802
 40
0.4659104750211134
 40
0.5187714412319947
 40
0.573167839964205
 40
0.6259914691702693
 40
0.6803432448078839
 40
0.7332356294019464
 40
0.7876577885963867
 40
0.8406177944135144
 40
0.8951155732594195
 40
0.948036621704767
 40
1.0
 40
1.0
 40
1.0
 40
1.0
 10
12.05940099142903
 20
4.973513702275887
 30
0.0
 10
12.05940092995642
 20
4.973513859483139
 30
0.0
 10
12.05940077981406
 20
4.973514243450427
 30
0.0
 10
12.05913141603798
 20
4.977950334604595
 30
0.0
 10
12.05866455925475
 20
4.986029608969015
 30
0.0
 10
12.05803556977083
 20
4.99783078752636
 30
0.0
 10
12.05733611236038
 20
5.012629380937016
 30
0.0
 10
12.05663037692352
 20
5.030328726210385
 30
0.0
 10
12.05601013323859
 20
5.050103388712639
 30
0.0
 10
12.0555355391611
 20
5.071745545216421
 30
0.0
 10
12.05526822088834
 20
5.094239675691592
 30
0.0
 10
12.05523374921677
 20
5.117350690150167
 30
0.0
 10
12.05543608072632
 20
5.140000553665113
 30
0.0
 10
12.05585539060631
 20
5.161968459675034
 30
0.0
 10
12.05643764519318
 20
5.182248679367834
 30
0.0
 10
12.0571271955864
 20
5.20064077408286
 30
0.0
 10
12.05783530834881
 20
5.216292736950541
 30
0.0
 10
12.05849527634956
 20
5.229061672875576
 30
0.0
 10
12.05901542678556
 20
5.238242731396026
 30
0.0
 10
12.05936393173701
 20
5.244041897973226
 30
0.0
 10
12.05940305392012
 20
5.244675371463382
 30
0.0
 10
12.05942243640487
 20
5.244989216174481
 30
0.0
  0
SPLINE
  5
98
330
1F
100
AcDbEntity
  8
0
  6
Continuous
 62
     7
370
    25
100
AcDbSpline
210
0.0
220
0.0
230
1.0
 70
    11
 71
     3
 72
    56
 73
    52
 74
     0
 42
0.00000001
 43
0.00000001
 40
0.0
 40
0.0
 40
0.0
 40
0.0
 40
0.0312499999999996
 40
0.0312499999999996
 40
0.0624999999999992
 40
0.0624999999999992
 40
0.0937499999999988
 40
0.0937499999999988
 40
0.1249999999999984
 40
0.1249999999999984
 40
0.1874999999999978
 40
0.1874999999999978
 40
0.2499999999999971
 40
0.2499999999999971
 40
0.2812499999999971
 40
0.2812499999999971
 40
0.3124999999999969
 40
0.3124999999999969
 40
0.3437499999999969
 40
0.3437499999999969
 40
0.3749999999999968
 40
0.3749999999999968
 40
0.4062499999999968
 40
0.4062499999999968
 40
0.4374999999999967
 40
0.4374999999999967
 40
0.4687499999999966
 40
0.4687499999999966
 40
0.4999999999999966
 40
0.4999999999999966
 40
0.5624999999999967
 40
0.5624999999999967
 40
0.6249999999999967
 40
0.6249999999999967
 40
0.6562499999999967
 40
0.6562499999999967
 40
0.6874999999999967
 40
0.6874999999999967
 40
0.7187499999999968
 40
0.7187499999999968
 40
0.7499999999999968
 40
0.7499999999999968
 40
0.8124999999999969
 40
0.8124999999999969
 40
0.8437499999999973
 40
0.8437499999999973
 40
0.8749999999999978
 40
0.8749999999999978
 40
0.9374999999999989
 40
0.9374999999999989
 40
1.0
 40
1.0
 40
1.0
 40
1.0
 10
8.849292024942196
 20
5.109076163978633
 30
0.0
 10
8.849292024942196
 20
5.100089092462677
 30
0.0
 10
8.8485008248702
 20
5.091252622430509
 30
0.0
 10
8.845404117718878
 20
5.073868437958142
 30
0.0
 10
8.843060948081122
 20
5.065230527473347
 30
0.0
 10
8.83695508935326
 20
5.048761664829749
 30
0.0
 10
8.833222699334424
 20
5.040951024790641
 30
0.0
 10
8.824424009899365
 20
5.026169054650387
 30
0.0
 10
8.81931233427891
 20
5.019171846021379
 30
0.0
 10
8.802608169036269
 20
5.000358092380412
 30
0.0
 10
8.789198687721703
 20
4.9902261616021
 30
0.0
 10
8.760471905973334
 20
4.97665949319571
 30
0.0
 10
8.744857333463761
 20
4.973085708032812
 30
0.0
 10
8.721807762966247
 20
4.973071421342615
 30
0.0
 10
8.71403099363177
 20
4.973954412637287
 30
0.0
 10
8.699028326324111
 20
4.977424187365084
 30
0.0
 10
8.691761969471093
 20
4.979991491522835
 30
0.0
 10
8.677693053468648
 20
4.986800734073432
 30
0.0
 10
8.670913903165275
 20
4.991057986368546
 30
0.0
 10
8.65840225481171
 20
5.000899949696532
 30
0.0
 10
8.652588494990152
 20
5.006518638914896
 30
0.0
 10
8.641864070395908
 20
5.019207661288647
 30
0.0
 10
8.637119843977903
 20
5.026084019236971
 30
0.0
 10
8.628838752323425
 20
5.040808413134164
 30
0.0
 10
8.625266935116505
 20
5.048755425392065
 30
0.0
 10
8.619545062375128
 20
5.065231996084594
 30
0.0
 10
8.617392737609503
 20
5.073709154680334
 30
0.0
 10
8.614481231187343
 20
5.091136316119811
 30
0.0
 10
8.613735782541788
 20
5.100151082638045
 30
0.0
 10
8.613727802188382
 20
5.126779951374767
 30
0.0
 10
8.616696133579289
 20
5.144674805912135
 30
0.0
 10
8.628037729894965
 20
5.177417148852594
 30
0.0
 10
8.63653190724613
 20
5.192598645976861
 30
0.0
 10
8.652396685258745
 20
5.211424965708906
 30
0.0
 10
8.658310410568548
 20
5.21717188916738
 30
0.0
 10
8.670860629877787
 20
5.227060583012586
 30
0.0
 10
8.677506585131354
 20
5.231243315717613
 30
0.0
 10
8.691556951880616
 20
5.238079143307511
 30
0.0
 10
8.69896705744018
 20
5.240707053673447
 30
0.0
 10
8.713918857304217
 20
5.244178817819602
 30
0.0
 10
8.721538977348436
 20
5.245067151388803
 30
0.0
 10
8.744853037976396
 20
5.245093986469172
 30
0.0
 10
8.760257345000895
 20
5.241576364094909
 30
0.0
 10
8.781970613450895
 20
5.231348542627614
 30
0.0
 10
8.78885309146313
 20
5.2271762873262
 30
0.0
 10
8.80190511625883
 20
5.217326908267257
 30
0.0
 10
8.808109741972798
 20
5.211589134955525
 30
0.0
 10
8.824833913453418
 20
5.192778891680758
 30
0.0
 10
8.833887753574588
 20
5.177623864339651
 30
0.0
 10
8.84604736256732
 20
5.144906595872812
 30
0.0
 10
8.849292024942196
 20
5.127050307010546
 30
0.0
 10
8.849292024942196
 20
5.109076163978633
 30
0.0
  0
SPLINE
  5
99
330
1F
100
AcDbEntity
  8
0
  6
Continuous
 62
     7
370
    25
100
AcDbSpline
210
0.0
220
0.0
230
1.0
 70
     8
 71
     3
 72
    23
 73
    19
 74
     0
 42
0.00000001
 43
0.00000001
 40
0.0
 40
0.0
 40
0.0
 40
0.0
 40
0.0523983360470821
 40
0.1199697790356986
 40
0.1875416299220152
 40
0.2552415804075252
 40
0.3229411077747621
 40
0.3906450207794829
 40
0.4583483330500245
 40
0.5259247207817757
 40
0.593501270447292
 40
0.661017904956118
 40
0.728535203075104
 40
0.796152867604247
 40
0.8637706647296021
 40
0.9314926032621059
 40
0.9992139322644004
 40
1.0
 40
1.0
 40
1.0
 40
1.0
 10
8.767597644107466
 20
5.237804124497581
 30
0.0
 10
8.762811420044592
 20
5.235854438291418
 30
0.0
 10
8.75185301398524
 20
5.231390490750568
 30
0.0
 10
8.736450358443136
 20
5.220191507364881
 30
0.0
 10
8.721597928094571
 20
5.205423908512189
 30
0.0
 10
8.709201473911673
 20
5.187745569036812
 30
0.0
 10
8.699434357161579
 20
5.16789594339072
 30
0.0
 10
8.692681494731254
 20
5.146328458454286
 30
0.0
 10
8.688992115487666
 20
5.123736246376078
 30
0.0
 10
8.688581561142993
 20
5.100732024488209
 30
0.0
 10
8.69132324235157
 20
5.077980884462205
 30
0.0
 10
8.697271935783045
 20
5.056140120718093
 30
0.0
 10
8.706151992792266
 20
5.035755976229293
 30
0.0
 10
8.717871646339447
 20
5.017513808473675
 30
0.0
 10
8.731993774640907
 20
5.001673983143584
 30
0.0
 10
8.748402862140075
 20
4.989388789009443
 30
0.0
 10
8.760201392125852
 20
4.982242506669164
 30
0.0
 10
8.766640622665726
 20
4.980372786833223
 30
0.0
 10
8.7667145077002
 20
4.980351333289406
 30
0.0
  0
INSERT
  5
9A
330
1F
100
AcDbEntity
  8
0
  6
Continuous
 62
     7
100
AcDbBlockReference
  2
Block1
 10
7.9572336325
 20
1.6363463453
 30
0.0
 41
0.5
 42
0.5
 43
0.5
  0
DIMENSION
  5
9B
330
1F
100
AcDbEntity
  8
0
  6
Continuous
 62
     7
370
    18
100
AcDbDimension
  2
_D
 10
4.0894909091
 20
4.609076164
 30
0.0
 11
4.0894909091
 21
9.354076164
 31
0.0
 70
   160
  1
<>
 71
     2
 42
-1.0
  3
SLDDIMSTYLE0
100
AcDbAlignedDimension
 13
7.6194277292
 23
14.099076164
 33
0.0
 14
7.6194277292
 24
4.609076164
 34
0.0
 50
90.0
100
AcDbRotatedDimension
  0
LINE
  5
B0
330
1F
100
AcDbEntity
  8
0
  6
Continuous
 62
     7
370
    25
100
AcDbLine
 10
23.616258891
 20
8.211076164
 30
0.0
 11
23.616258891
 21
9.649076164
 31
0.0
  0
LINE
  5
B1
330
1F
100
AcDbEntity
  8
0
  6
Continuous
 62
     7
370
    25
100
AcDbLine
 10
23.616258891
 20
5.2450347495
 30
0.0
 11
23.616258891
 21
7.939076164
 31
0.0
  0
LINE
  5
B2
330
1F
100
AcDbEntity
  8
0
  6
Continuous
 62
     7
370
    25
100
AcDbLine
 10
23.616258891
 20
4.609076164
 30
0.0
 11
23.616258891
 21
4.9731893449
 31
0.0
  0
LINE
  5
B3
330
1F
100
AcDbEntity
  8
0
  6
Continuous
 62
     7
370
    25
100
AcDbLine
 10
19.176258891
 20
9.649076164
 30
0.0
 11
19.176258891
 21
4.609076164
 31
0.0
  0
ARC
  5
B4
330
1F
100
AcDbEntity
  8
0
  6
Continuous
 62
     7
370
    25
100
AcDbCircle
 10
19.236258891
 20
9.649076164
 30
0.0
 40
0.0600000000000058
100
AcDbArc
 50
90.0
 51
180.0
  0
ARC
  5
B5
330
1F
100
AcDbEntity
  8
0
  6
Continuous
 62
     7
370
    25
100
AcDbCircle
 10
23.556258891
 20
9.649076164
 30
0.0
 40
0.0600000000000005
100
AcDbArc
 50
0.0
 51
90.0
  0
LINE
  5
B6
330
1F
100
AcDbEntity
  8
0
  6
Continuous
 62
     7
370
    25
100
AcDbLine
 10
19.176258891
 20
4.609076164
 30
0.0
 11
23.616258891
 21
4.609076164
 31
0.0
  0
SPLINE
  5
B7
330
1F
100
AcDbEntity
  8
0
  6
Continuous
 62
     7
370
    25
100
AcDbSpline
210
0.0
220
0.0
230
1.0
 70
     8
 71
     3
 72
    34
 73
    30
 74
     0
 42
0.00000001
 43
0.00000001
 40
0.0
 40
0.0
 40
0.0
 40
0.0
 40
0.062500000000001
 40
0.062500000000001
 40
0.1250000000000019
 40
0.1250000000000019
 40
0.1875000000000029
 40
0.1875000000000029
 40
0.2500000000000039
 40
0.2500000000000039
 40
0.3125000000000049
 40
0.3125000000000049
 40
0.3750000000000058
 40
0.3750000000000058
 40
0.4375000000000068
 40
0.4375000000000068
 40
0.5000000000000078
 40
0.5000000000000078
 40
0.6250000000000058
 40
0.6250000000000058
 40
0.7500000000000039
 40
0.7500000000000039
 40
0.8125000000000029
 40
0.8125000000000029
 40
0.8750000000000019
 40
0.8750000000000019
 40
0.937500000000001
 40
0.937500000000001
 40
1.0
 40
1.0
 40
1.0
 40
1.0
 10
23.61625889096378
 20
7.939076163978599
 30
0.0
 10
23.61625889096378
 20
7.939076163978599
 30
0.0
 10
23.61620397683725
 20
7.939964355013197
 30
0.0
 10
23.6159948939608
 20
7.943444330331468
 30
0.0
 10
23.61584189575163
 20
7.946016846014958
 30
0.0
 10
23.6154557602813
 20
7.952837310912573
 30
0.0
 10
23.6152222185631
 20
7.957099669438273
 30
0.0
 10
23.61472021219639
 20
7.966951986115765
 30
0.0
 10
23.61444960235985
 20
7.972576005781918
 30
0.0
 10
23.61389901426512
 20
7.985276571649353
 30
0.0
 10
23.6136279534651
 20
7.992155933458469
 30
0.0
 10
23.61312587790188
 20
8.00688933924304
 30
0.0
 10
23.61289244852178
 20
8.014841551428798
 30
0.0
 10
23.61250580308415
 20
8.031323957864446
 30
0.0
 10
23.61235278652558
 20
8.039804043859796
 30
0.0
 10
23.61214387383248
 20
8.0572372790796
 30
0.0
 10
23.61208899065258
 20
8.06625378493434
 30
0.0
 10
23.61208964885666
 20
8.092885216863746
 30
0.0
 10
23.61231643679006
 20
8.110780598252
 30
0.0
 10
23.61308552038523
 20
8.14351639429108
 30
0.0
 10
23.61363086308555
 20
8.158691210182555
 30
0.0
 10
23.6144465157099
 20
8.177504635981986
 30
0.0
 10
23.61472243736932
 20
8.183246524669231
 30
0.0
 10
23.6152259051508
 20
8.19312246951916
 30
0.0
 10
23.61545486576597
 20
8.197298799672554
 30
0.0
 10
23.61584104866597
 20
8.204120934843813
 30
0.0
 10
23.61599683663464
 20
8.206740592785907
 30
0.0
 10
23.61620448130912
 20
8.210196104978237
 30
0.0
 10
23.61625889096378
 20
8.211076163978596
 30
0.0
 10
23.61625889096378
 20
8.211076163978596
 30
0.0
  0
SPLINE
  5
B8
330
1F
100
AcDbEntity
  8
0
  6
Continuous
 62
     7
370
    25
100
AcDbSpline
210
0.0
220
0.0
230
1.0
 70
     8
 71
     3
 72
    45
 73
    41
 74
     0
 42
0.00000001
 43
0.00000001
 40
0.0
 40
0.0
 40
0.0
 40
0.0
 40
0.0094289094174146
 40
0.0366438128280161
 40
0.0630541983983074
 40
0.0894646038911559
 40
0.1166412925856709
 40
0.1438180124421556
 40
0.1702471250658879
 40
0.1966762613254061
 40
0.2238706913251662
 40
0.251065131499781
 40
0.2775367390964767
 40
0.3040083371713106
 40
0.3312488626646088
 40
0.3584893611680179
 40
0.3849610404740519
 40
0.4114326916497992
 40
0.438675895790992
 40
0.4659190777322867
 40
0.4923480841110489
 40
0.5187770877739
 40
0.5459751278978796
 40
0.5731731853201327
 40
0.5995834343361363
 40
0.6259937100463657
 40
0.653169310722787
 40
0.6803449408455469
 40
0.7067895569217488
 40
0.7332341874849072
 40
0.7604450162698322
 40
0.7876558408805487
 40
0.8141343516346088
 40
0.8406128419935013
 40
0.8678616249117725
 40
0.8951103762937481
 40
0.9215694560743809
 40
0.9480285123619245
 40
0.9752587923886309
 40
1.0
 40
1.0
 40
1.0
 40
1.0
 10
23.61625192540648
 20
4.973189344920566
 30
0.0
 10
23.61625378058971
 20
4.973158898794171
 30
0.0
 10
23.61626099043591
 20
4.973040575231235
 30
0.0
 10
23.61621192507754
 20
4.973843650540736
 30
0.0
 10
23.61610681266546
 20
4.975574390556623
 30
0.0
 10
23.61594473181837
 20
4.978292388375499
 30
0.0
 10
23.61573133848117
 20
4.981954406189897
 30
0.0
 10
23.61547322109253
 20
4.986534522103421
 30
0.0
 10
23.61518071169814
 20
4.991938902446737
 30
0.0
 10
23.61486045858121
 20
4.998154814915138
 30
0.0
 10
23.61451733230865
 20
5.00522445531237
 30
0.0
 10
23.6141642056942
 20
5.013044166851404
 30
0.0
 10
23.61381458071709
 20
5.02147547698807
 30
0.0
 10
23.61347463236049
 20
5.030519757900009
 30
0.0
 10
23.61315145280874
 20
5.040216397558151
 30
0.0
 10
23.61285753180999
 20
5.050410216055627
 30
0.0
 10
23.61260406229615
 20
5.060924609780543
 30
0.0
 10
23.61239389244215
 20
5.071774503334061
 30
0.0
 10
23.61223301822427
 20
5.082998768085207
 30
0.0
 10
23.61212786760083
 20
5.094405820753654
 30
0.0
 10
23.61208221617265
 20
5.10580164493275
 30
0.0
 10
23.61209418339674
 20
5.117213807946626
 30
0.0
 10
23.61216614887465
 20
5.128678122005165
 30
0.0
 10
23.61229549234375
 20
5.139998329829525
 30
0.0
 10
23.61247701754198
 20
5.150987128324932
 30
0.0
 10
23.61270510155752
 20
5.161682386542932
 30
0.0
 10
23.61297758996107
 20
5.172103848891005
 30
0.0
 10
23.61328429580095
 20
5.182076448669879
 30
0.0
 10
23.61361343106172
 20
5.19143962207979
 30
0.0
 10
23.61395810268331
 20
5.200236142747523
 30
0.0
 10
23.61431234703172
 20
5.208464099001472
 30
0.0
 10
23.61466276276834
 20
5.215980370798745
 30
0.0
 10
23.61499596060035
 20
5.222668178316738
 30
0.0
 10
23.61530663765947
 20
5.228570625817357
 30
0.0
 10
23.61558775750012
 20
5.233672131570482
 30
0.0
 10
23.61582822584842
 20
5.23787225560739
 30
0.0
 10
23.61601946686396
 20
5.241120942758172
 30
0.0
 10
23.61615842892557
 20
5.243429909597633
 30
0.0
 10
23.61624430200515
 20
5.244839853100204
 30
0.0
 10
23.61625246591484
 20
5.244971891921071
 30
0.0
 10
23.61625635237247
 20
5.245034749461392
 30
0.0
  0
SPLINE
  5
B9
330
1F
100
AcDbEntity
  8
0
  6
Continuous
 62
     7
370
    25
100
AcDbSpline
210
0.0
220
0.0
230
1.0
 70
    11
 71
     3
 72
    56
 73
    52
 74
     0
 42
0.00000001
 43
0.00000001
 40
0.0
 40
0.0
 40
0.0
 40
0.0
 40
0.03125
 40
0.03125
 40
0.0625
 40
0.0625
 40
0.0937500000000001
 40
0.0937500000000001
 40
0.1250000000000001
 40
0.1250000000000001
 40
0.1875000000000004
 40
0.1875000000000004
 40
0.2500000000000008
 40
0.2500000000000008
 40
0.2812500000000007
 40
0.2812500000000007
 40
0.3125000000000006
 40
0.3125000000000006
 40
0.3437500000000005
 40
0.3437500000000005
 40
0.3750000000000004
 40
0.3750000000000004
 40
0.4062500000000003
 40
0.4062500000000003
 40
0.4375000000000002
 40
0.4375000000000002
 40
0.4687500000000002
 40
0.4687500000000002
 40
0.5
 40
0.5
 40
0.5624999999999997
 40
0.5624999999999997
 40
0.6249999999999993
 40
0.6249999999999993
 40
0.6562499999999993
 40
0.6562499999999993
 40
0.6874999999999993
 40
0.6874999999999993
 40
0.7187499999999993
 40
0.7187499999999993
 40
0.7499999999999993
 40
0.7499999999999993
 40
0.8124999999999994
 40
0.8124999999999994
 40
0.8437499999999993
 40
0.8437499999999993
 40
0.8749999999999992
 40
0.8749999999999992
 40
0.9374999999999997
 40
0.9374999999999997
 40
1.0
 40
1.0
 40
1.0
 40
1.0
 10
20.40612318667178
 20
5.109076163978619
 30
0.0
 10
20.40612318667178
 20
5.10008909246266
 30
0.0
 10
20.40533198659979
 20
5.091252622430489
 30
0.0
 10
20.40223527944848
 20
5.073868437958112
 30
0.0
 10
20.39989210981071
 20
5.065230527473318
 30
0.0
 10
20.39378625108286
 20
5.04876166482972
 30
0.0
 10
20.39005386106403
 20
5.040951024790616
 30
0.0
 10
20.38125517162897
 20
5.02616905465036
 30
0.0
 10
20.37614349600851
 20
5.019171846021346
 30
0.0
 10
20.35943933076587
 20
5.000358092380376
 30
0.0
 10
20.34602984945129
 20
4.990226161602061
 30
0.0
 10
20.31730306770291
 20
4.976659493195661
 30
0.0
 10
20.30168849519334
 20
4.973085708032773
 30
0.0
 10
20.27863892469585
 20
4.973071421342576
 30
0.0
 10
20.27086215536137
 20
4.973954412637248
 30
0.0
 10
20.25585948805371
 20
4.977424187365044
 30
0.0
 10
20.24859313120069
 20
4.979991491522796
 30
0.0
 10
20.23452421519823
 20
4.986800734073396
 30
0.0
 10
20.22774506489487
 20
4.991057986368511
 30
0.0
 10
20.2152334165413
 20
5.000899949696495
 30
0.0
 10
20.20941965671975
 20
5.006518638914853
 30
0.0
 10
20.19869523212551
 20
5.019207661288601
 30
0.0
 10
20.1939510057075
 20
5.026084019236935
 30
0.0
 10
20.18566991405301
 20
5.040808413134132
 30
0.0
 10
20.18209809684609
 20
5.048755425392039
 30
0.0
 10
20.17637622410472
 20
5.065231996084568
 30
0.0
 10
20.1742238993391
 20
5.073709154680309
 30
0.0
 10
20.17131239291694
 20
5.091136316119784
 30
0.0
 10
20.17056694427138
 20
5.100151082638019
 30
0.0
 10
20.17055896391798
 20
5.126779951374721
 30
0.0
 10
20.17352729530888
 20
5.144674805912076
 30
0.0
 10
20.18486889162456
 20
5.177417148852561
 30
0.0
 10
20.19336306897572
 20
5.192598645976815
 30
0.0
 10
20.20922784698832
 20
5.211424965708847
 30
0.0
 10
20.21514157229812
 20
5.217171889167314
 30
0.0
 10
20.22769179160736
 20
5.227060583012531
 30
0.0
 10
20.23433774686093
 20
5.231243315717563
 30
0.0
 10
20.24838811361019
 20
5.238079143307468
 30
0.0
 10
20.25579821916977
 20
5.240707053673405
 30
0.0
 10
20.2707500190338
 20
5.244178817819563
 30
0.0
 10
20.27837013907801
 20
5.245067151388763
 30
0.0
 10
20.30168419970598
 20
5.245093986469135
 30
0.0
 10
20.31708850673047
 20
5.241576364094877
 30
0.0
 10
20.33880177518046
 20
5.231348542627587
 30
0.0
 10
20.3456842531927
 20
5.227176287326181
 30
0.0
 10
20.35873627798841
 20
5.217326908267236
 30
0.0
 10
20.36494090370238
 20
5.211589134955502
 30
0.0
 10
20.381665075183
 20
5.192778891680729
 30
0.0
 10
20.39071891530418
 20
5.177623864339611
 30
0.0
 10
20.40287852429691
 20
5.144906595872802
 30
0.0
 10
20.40612318667178
 20
5.127050307010537
 30
0.0
 10
20.40612318667178
 20
5.109076163978619
 30
0.0
  0
LINE
  5
BA
330
1F
100
AcDbEntity
  8
0
  6
Continuous
 62
     7
370
    25
100
AcDbLine
 10
19.236258891
 20
9.709076164
 30
0.0
 11
23.556258891
 21
9.709076164
 31
0.0
  0
SPLINE
  5
BB
330
1F
100
AcDbEntity
  8
0
  6
Continuous
 62
     7
370
    25
100
AcDbSpline
210
0.0
220
0.0
230
1.0
 70
     8
 71
     3
 72
    31
 73
    27
 74
     0
 42
0.00000001
 43
0.00000001
 40
0.0
 40
0.0
 40
0.0
 40
0.0
 40
0.00650217822064
 40
0.0514566712782211
 40
0.0964460754583297
 40
0.1415785428134022
 40
0.1865682288604218
 40
0.231643132406408
 40
0.2768616382938449
 40
0.3219362494546807
 40
0.3670137229794311
 40
0.4122352954009919
 40
0.457312353802974
 40
0.502304952805078
 40
0.5474413237530806
 40
0.5924340346554755
 40
0.637386931680115
 40
0.6824829621427706
 40
0.7274363177377712
 40
0.7724564849775425
 40
0.8176198319596394
 40
0.8626400908265466
 40
0.9077296039803909
 40
0.9529629537114219
 40
0.9980520456645702
 40
1.0
 40
1.0
 40
1.0
 40
1.0
 10
20.32409457878128
 20
5.237916756325651
 30
0.0
 10
20.32348889705349
 20
5.237715776479913
 30
0.0
 10
20.31869567784159
 20
5.236125270421031
 30
0.0
 10
20.31018968833347
 20
5.231604230282805
 30
0.0
 10
20.29880715052203
 20
5.224275232496242
 30
0.0
 10
20.28827927044206
 20
5.215357895224879
 30
0.0
 10
20.27866227259307
 20
5.205152332902331
 30
0.0
 10
20.27012342153985
 20
5.193687984578665
 30
0.0
 10
20.26272184758768
 20
5.181164912281537
 30
0.0
 10
20.25654471757059
 20
5.167736532254261
 30
0.0
 10
20.25170846106043
 20
5.15354691060489
 30
0.0
 10
20.24822252514431
 20
5.138802796112002
 30
0.0
 10
20.2461261437292
 20
5.123692002701347
 30
0.0
 10
20.24548994004527
 20
5.108401121220592
 30
0.0
 10
20.24626828276469
 20
5.0931315606173
 30
0.0
 10
20.24845175603277
 20
5.078062486527841
 30
0.0
 10
20.25206262888823
 20
5.063399280183097
 30
0.0
 10
20.2570099584926
 20
5.049312788607875
 30
0.0
 10
20.26324434577509
 20
5.035960516431464
 30
0.0
 10
20.27074056994211
 20
5.023546352710962
 30
0.0
 10
20.27937023908935
 20
5.012190867992604
 30
0.0
 10
20.28904494225092
 20
5.002048271218107
 30
0.0
 10
20.29966921399188
 20
4.993232447861705
 30
0.0
 10
20.31115532210758
 20
4.986052192372168
 30
0.0
 10
20.31929770295966
 20
4.981719425403696
 30
0.0
 10
20.32368724103122
 20
4.980296736622111
 30
0.0
 10
20.3238690258241
 20
4.980237818535228
 30
0.0
  0
LINE
  5
BC
330
1F
100
AcDbEntity
  8
0
  6
Continuous
 62
     7
370
    25
100
AcDbLine
 10
23.616258891
 20
9.649076164
 30
0.0
 11
19.176258891
 21
9.649076164
 31
0.0
  0
INSERT
  5
BD
330
1F
100
AcDbEntity
  8
0
  6
Continuous
 62
     7
100
AcDbBlockReference
  2
Block2
 10
19.7224473434
 20
0.7343334194
 30
0.0
 41
0.5
 42
0.5
 43
0.5
  0
DIMENSION
  5
BE
330
1F
100
AcDbEntity
  8
0
  6
Continuous
 62
     7
370
    18
100
AcDbDimension
  2
_D_1
 10
15.9577437658
 20
4.609076164
 30
0.0
 11
15.9577437658
 21
7.159076164
 31
0.0
 70
   160
  1
<>
 71
     2
 42
-1.0
  3
SLDDIMSTYLE1
100
AcDbAlignedDimension
 13
19.236258891
 23
9.709076164
 33
0.0
 14
19.176258891
 24
4.609076164
 34
0.0
 50
90.0
100
AcDbRotatedDimension
  0
LINE
  5
D3
330
1F
100
AcDbEntity
  8
0
  6
Continuous
 62
     7
370
    25
100
AcDbLine
 10
35.4840220462
 20
5.244962983
 30
0.0
 11
35.4840220462
 21
7.849076164
 31
0.0
  0
LINE
  5
D4
330
1F
100
AcDbEntity
  8
0
  6
Continuous
 62
     7
370
    25
100
AcDbLine
 10
35.4840220462
 20
4.609076164
 30
0.0
 11
35.4840220462
 21
4.9731175785
 31
0.0
  0
LINE
  5
D5
330
1F
100
AcDbEntity
  8
0
  6
Continuous
 62
     7
370
    25
100
AcDbLine
 10
31.0440220462
 20
7.849076164
 30
0.0
 11
31.0440220462
 21
4.609076164
 31
0.0
  0
ARC
  5
D6
330
1F
100
AcDbEntity
  8
0
  6
Continuous
 62
     7
370
    25
100
AcDbCircle
 10
31.1040220462
 20
7.849076164
 30
0.0
 40
0.0600000000000023
100
AcDbArc
 50
90.0
 51
180.0
  0
ARC
  5
D7
330
1F
100
AcDbEntity
  8
0
  6
Continuous
 62
     7
370
    25
100
AcDbCircle
 10
35.4240220462
 20
7.849076164
 30
0.0
 40
0.0600000000000023
100
AcDbArc
 50
0.0
 51
90.0
  0
SPLINE
  5
D8
330
1F
100
AcDbEntity
  8
0
  6
Continuous
 62
     7
370
    25
100
AcDbSpline
210
0.0
220
0.0
230
1.0
 70
     8
 71
     3
 72
    45
 73
    41
 74
     0
 42
0.00000001
 43
0.00000001
 40
0.0
 40
0.0
 40
0.0
 40
0.0
 40
0.0094289094174153
 40
0.0366438128280131
 40
0.0630541983983071
 40
0.0894646038911575
 40
0.1166412925856773
 40
0.1438180124421672
 40
0.1702471250658985
 40
0.1966762613254154
 40
0.2238706913251755
 40
0.2510651314997906
 40
0.2775367390964928
 40
0.3040083371713331
 40
0.3312488626646405
 40
0.3584893611680596
 40
0.3849610404740852
 40
0.4114326916498233
 40
0.4386758957910075
 40
0.4659190777322942
 40
0.4923480841110636
 40
0.5187770877739216
 40
0.54597512789791
 40
0.5731731853201734
 40
0.5995834343361736
 40
0.6259937100463997
 40
0.6531693107228188
 40
0.6803449408455766
 40
0.7067895569217643
 40
0.7332341874849083
 40
0.760445016269822
 40
0.7876558408805284
 40
0.8141343516345936
 40
0.8406128419934901
 40
0.8678616249117675
 40
0.8951103762937492
 40
0.9215694560743849
 40
0.9480285123619319
 40
0.9752587923886423
 40
1.0
 40
1.0
 40
1.0
 40
1.0
 10
35.48401508063813
 20
5.244962983036697
 30
0.0
 10
35.48401693582136
 20
5.244993429163087
 30
0.0
 10
35.48402414566757
 20
5.245111752726023
 30
0.0
 10
35.4839750803092
 20
5.24430867741652
 30
0.0
 10
35.48386996789711
 20
5.242577937400639
 30
0.0
 10
35.48370788705002
 20
5.239859939581765
 30
0.0
 10
35.48349449371283
 20
5.236197921767364
 30
0.0
 10
35.48323637632419
 20
5.231617805853837
 30
0.0
 10
35.48294386692979
 20
5.226213425510521
 30
0.0
 10
35.48262361381286
 20
5.219997513042123
 30
0.0
 10
35.48228048754032
 20
5.212927872644891
 30
0.0
 10
35.48192736092585
 20
5.205108161105854
 30
0.0
 10
35.48157773594874
 20
5.196676850969188
 30
0.0
 10
35.48123778759214
 20
5.187632570057246
 30
0.0
 10
35.48091460804039
 20
5.177935930399098
 30
0.0
 10
35.48062068704164
 20
5.167742111901621
 30
0.0
 10
35.4803672175278
 20
5.157227718176708
 30
0.0
 10
35.4801570476738
 20
5.146377824623194
 30
0.0
 10
35.47999617345593
 20
5.135153559872052
 30
0.0
 10
35.4798910228325
 20
5.123746507203603
 30
0.0
 10
35.47984537140431
 20
5.112350683024505
 30
0.0
 10
35.47985733862838
 20
5.100938520010629
 30
0.0
 10
35.47992930410631
 20
5.089474205952083
 30
0.0
 10
35.4800586475754
 20
5.078153998127727
 30
0.0
 10
35.48024017277363
 20
5.067165199632313
 30
0.0
 10
35.48046825678918
 20
5.056469941414317
 30
0.0
 10
35.48074074519273
 20
5.046048479066246
 30
0.0
 10
35.48104745103261
 20
5.036075879287372
 30
0.0
 10
35.48137658629337
 20
5.026712705877467
 30
0.0
 10
35.48172125791496
 20
5.017916185209739
 30
0.0
 10
35.48207550226338
 20
5.009688228955795
 30
0.0
 10
35.48242591800001
 20
5.002171957158537
 30
0.0
 10
35.482759115832
 20
4.99548414964053
 30
0.0
 10
35.48306979289111
 20
4.989581702139904
 30
0.0
 10
35.48335091273178
 20
4.984480196386777
 30
0.0
 10
35.4835913810801
 20
4.980280072349871
 30
0.0
 10
35.48378262209562
 20
4.97703138519909
 30
0.0
 10
35.48392158415722
 20
4.974722418359629
 30
0.0
 10
35.48400745723681
 20
4.973312474857058
 30
0.0
 10
35.4840156211465
 20
4.973180436036193
 30
0.0
 10
35.48401950760413
 20
4.973117578495869
 30
0.0
  0
SPLINE
  5
D9
330
1F
100
AcDbEntity
  8
0
  6
Continuous
 62
     7
370
    25
100
AcDbSpline
210
0.0
220
0.0
230
1.0
 70
    11
 71
     3
 72
    56
 73
    52
 74
     0
 42
0.00000001
 43
0.00000001
 40
0.0
 40
0.0
 40
0.0
 40
0.0
 40
0.0312499999999999
 40
0.0312499999999999
 40
0.0624999999999998
 40
0.0624999999999998
 40
0.0937499999999996
 40
0.0937499999999996
 40
0.1249999999999995
 40
0.1249999999999995
 40
0.187499999999999
 40
0.187499999999999
 40
0.2499999999999984
 40
0.2499999999999984
 40
0.2812499999999986
 40
0.2812499999999986
 40
0.3124999999999988
 40
0.3124999999999988
 40
0.3437499999999989
 40
0.3437499999999989
 40
0.3749999999999991
 40
0.3749999999999991
 40
0.4062499999999992
 40
0.4062499999999992
 40
0.4374999999999994
 40
0.4374999999999994
 40
0.4687499999999996
 40
0.4687499999999996
 40
0.4999999999999998
 40
0.4999999999999998
 40
0.5625000000000001
 40
0.5625000000000001
 40
0.6250000000000004
 40
0.6250000000000004
 40
0.6562500000000006
 40
0.6562500000000006
 40
0.6875000000000007
 40
0.6875000000000007
 40
0.7187500000000008
 40
0.7187500000000008
 40
0.7500000000000008
 40
0.7500000000000008
 40
0.812500000000001
 40
0.812500000000001
 40
0.8437500000000007
 40
0.8437500000000007
 40
0.8750000000000003
 40
0.8750000000000003
 40
0.9375000000000002
 40
0.9375000000000002
 40
1.0
 40
1.0
 40
1.0
 40
1.0
 10
32.2738863419034
 20
5.109076163978629
 30
0.0
 10
32.2738863419034
 20
5.118063235494584
 30
0.0
 10
32.2730951418314
 20
5.12689970552675
 30
0.0
 10
32.26999843468008
 20
5.144283889999119
 30
0.0
 10
32.26765526504233
 20
5.15292180048391
 30
0.0
 10
32.26154940631447
 20
5.169390663127509
 30
0.0
 10
32.25781701629563
 20
5.177201303166616
 30
0.0
 10
32.24901832686057
 20
5.191983273306872
 30
0.0
 10
32.24390665124012
 20
5.198980481935882
 30
0.0
 10
32.22720248599747
 20
5.217794235576853
 30
0.0
 10
32.21379300468291
 20
5.227926166355163
 30
0.0
 10
32.18506622293452
 20
5.241492834761561
 30
0.0
 10
32.16945165042495
 20
5.245066619924449
 30
0.0
 10
32.14640207992746
 20
5.245080906614646
 30
0.0
 10
32.13862531059299
 20
5.244197915319974
 30
0.0
 10
32.12362264328533
 20
5.24072814059218
 30
0.0
 10
32.1163562864323
 20
5.23816083643443
 30
0.0
 10
32.10228737042986
 20
5.231351593883836
 30
0.0
 10
32.09550822012649
 20
5.227094341588721
 30
0.0
 10
32.08299657177292
 20
5.217252378260737
 30
0.0
 10
32.07718281195137
 20
5.211633689042379
 30
0.0
 10
32.06645838735713
 20
5.198944666668634
 30
0.0
 10
32.06171416093913
 20
5.192068308720307
 30
0.0
 10
32.05343306928464
 20
5.17734391482311
 30
0.0
 10
32.04986125207772
 20
5.169396902565209
 30
0.0
 10
32.04413937933634
 20
5.152920331872677
 30
0.0
 10
32.04198705457072
 20
5.144443173276937
 30
0.0
 10
32.03907554814855
 20
5.127016011837457
 30
0.0
 10
32.03833009950299
 20
5.118001245319226
 30
0.0
 10
32.03832211914959
 20
5.091372376582523
 30
0.0
 10
32.04129045054049
 20
5.073477522045166
 30
0.0
 10
32.05263204685617
 20
5.040735179104677
 30
0.0
 10
32.06112622420733
 20
5.02555368198041
 30
0.0
 10
32.07699100221994
 20
5.006727362248372
 30
0.0
 10
32.08290472752974
 20
5.000980438789904
 30
0.0
 10
32.09545494683898
 20
4.991091744944688
 30
0.0
 10
32.10210090209254
 20
4.986909012239658
 30
0.0
 10
32.11615126884181
 20
4.980073184649754
 30
0.0
 10
32.12356137440138
 20
4.977445274283817
 30
0.0
 10
32.13851317426542
 20
4.973973510137663
 30
0.0
 10
32.14613329430963
 20
4.973085176568459
 30
0.0
 10
32.1694473549376
 20
4.973058341488087
 30
0.0
 10
32.18485166196209
 20
4.976575963862352
 30
0.0
 10
32.20656493041209
 20
4.986803785329649
 30
0.0
 10
32.21344740842433
 20
4.990976040631057
 30
0.0
 10
32.22649943322003
 20
5.000825419690005
 30
0.0
 10
32.232704058934
 20
5.006563193001736
 30
0.0
 10
32.24942823041462
 20
5.025373436276503
 30
0.0
 10
32.25848207053578
 20
5.04052846361761
 30
0.0
 10
32.27064167952852
 20
5.07324573208445
 30
0.0
 10
32.2738863419034
 20
5.091102020946718
 30
0.0
 10
32.2738863419034
 20
5.109076163978629
 30
0.0
  0
LINE
  5
DA
330
1F
100
AcDbEntity
  8
0
  6
Continuous
 62
     7
370
    25
100
AcDbLine
 10
35.4840220462
 20
4.609076164
 30
0.0
 11
31.0440220462
 21
4.609076164
 31
0.0
  0
LINE
  5
DB
330
1F
100
AcDbEntity
  8
0
  6
Continuous
 62
     7
370
    25
100
AcDbLine
 10
35.4240220462
 20
7.909076164
 30
0.0
 11
31.1040220462
 21
7.909076164
 31
0.0
  0
SPLINE
  5
DC
330
1F
100
AcDbEntity
  8
0
  6
Continuous
 62
     7
370
    25
100
AcDbSpline
210
0.0
220
0.0
230
1.0
 70
     8
 71
     3
 72
    31
 73
    27
 74
     0
 42
0.00000001
 43
0.00000001
 40
0.0
 40
0.0
 40
0.0
 40
0.0
 40
0.0060897437148835
 40
0.05104429113972
 40
0.096033749729306
 40
0.1411662716668729
 40
0.1861560121237096
 40
0.231230970182596
 40
0.2764495307566045
 40
0.3215241964299891
 40
0.366601724470739
 40
0.4118233515825703
 40
0.4569004645000502
 40
0.5018931179154927
 40
0.5470295434507089
 40
0.5920223087665771
 40
0.6369752601565658
 40
0.6820713451576735
 40
0.7270247551185779
 40
0.7720449768049946
 40
0.8172083784068958
 40
0.8622286917205596
 40
0.9073182594049753
 40
0.9525516638405326
 40
0.9976408103237426
 40
1.0
 40
1.0
 40
1.0
 40
1.0
 10
32.19174273471369
 20
5.237877678924271
 30
0.0
 10
32.1911755419233
 20
5.237689222851217
 30
0.0
 10
32.18642132642911
 20
5.236109582211091
 30
0.0
 10
32.17795332171789
 20
5.231602689923636
 30
0.0
 10
32.16657017712431
 20
5.224275646873036
 30
0.0
 10
32.15604246006213
 20
5.21535778444326
 30
0.0
 10
32.1464254186042
 20
5.205152362606037
 30
0.0
 10
32.13788657925312
 20
5.193687976584134
 30
0.0
 10
32.13048500215583
 20
5.181164914418938
 30
0.0
 10
32.12430787297976
 20
5.167736531682313
 30
0.0
 10
32.11947161624434
 20
5.153546910758767
 30
0.0
 10
32.11598568038863
 20
5.138802796070602
 30
0.0
 10
32.11388929895773
 20
5.123692002713296
 30
0.0
 10
32.11325309527672
 20
5.10840112121397
 30
0.0
 10
32.11403143800024
 20
5.09313156063177
 30
0.0
 10
32.11621491124902
 20
5.07806248647674
 30
0.0
 10
32.11982578417756
 20
5.063399280373115
 30
0.0
 10
32.12477311350841
 20
5.04931278789727
 30
0.0
 10
32.13100750180983
 20
5.035960519075395
 30
0.0
 10
32.13850372216721
 20
5.023546342813034
 30
0.0
 10
32.1471334055657
 20
5.012190905011703
 30
0.0
 10
32.15680805564201
 20
5.002048133473625
 30
0.0
 10
32.1674325258682
 20
4.993232963556495
 30
0.0
 10
32.17891789147375
 20
4.986050263626592
 30
0.0
 10
32.18709845348702
 20
4.981704415142804
 30
0.0
 10
32.19152703005025
 20
4.980271467289687
 30
0.0
 10
32.19174722432794
 20
4.980200219358667
 30
0.0
  0
LINE
  5
DD
330
1F
100
AcDbEntity
  8
0
  6
Continuous
 62
     7
370
    25
100
AcDbLine
 10
35.4840220462
 20
7.849076164
 30
0.0
 11
31.0440220462
 21
7.849076164
 31
0.0
  0
INSERT
  5
DE
330
1F
100
AcDbEntity
  8
0
  6
Continuous
 62
     7
100
AcDbBlockReference
  2
Block3
 10
31.9548489677
 20
1.6180603557
 30
0.0
 41
0.5
 42
0.5
 43
0.5
  0
DIMENSION
  5
DF
330
1F
100
AcDbEntity
  8
0
  6
Continuous
 62
     7
370
    18
100
AcDbDimension
  2
_D_2
 10
27.7270437638
 20
4.609076164
 30
0.0
 11
27.7270437638
 21
6.259076164
 31
0.0
 70
   160
  1
<>
 71
     2
 42
-1.0
  3
SLDDIMSTYLE1
100
AcDbAlignedDimension
 13
31.1040220462
 23
7.909076164
 33
0.0
 14
31.0440220462
 24
4.609076164
 34
0.0
 50
90.0
100
AcDbRotatedDimension
  0
LINE
  5
F3
330
1F
100
AcDbEntity
  8
0
  6
Continuous
 62
     7
370
    25
100
AcDbLine
 10
47.0823703254
 20
5.2450347495
 30
0.0
 11
47.0823703254
 21
8.549076164
 31
0.0
  0
LINE
  5
F4
330
1F
100
AcDbEntity
  8
0
  6
Continuous
 62
     7
370
    25
100
AcDbLine
 10
47.0823703254
 20
4.609076164
 30
0.0
 11
47.0823703254
 21
4.9731893449
 31
0.0
  0
LINE
  5
F5
330
1F
100
AcDbEntity
  8
0
  6
Continuous
 62
     7
370
    25
100
AcDbLine
 10
42.6423703254
 20
8.549076164
 30
0.0
 11
42.6423703254
 21
4.609076164
 31
0.0
  0
ARC
  5
F6
330
1F
100
AcDbEntity
  8
0
  6
Continuous
 62
     7
370
    25
100
AcDbCircle
 10
42.7023703254
 20
8.549076164
 30
0.0
 40
0.0599999999999969
100
AcDbArc
 50
90.0
 51
180.0
  0
ARC
  5
F7
330
1F
100
AcDbEntity
  8
0
  6
Continuous
 62
     7
370
    25
100
AcDbCircle
 10
47.0223703254
 20
8.549076164
 30
0.0
 40
0.0600000000000094
100
AcDbArc
 50
0.0
 51
90.0
  0
SPLINE
  5
F8
330
1F
100
AcDbEntity
  8
0
  6
Continuous
 62
     7
370
    25
100
AcDbSpline
210
0.0
220
0.0
230
1.0
 70
     8
 71
     3
 72
    45
 73
    41
 74
     0
 42
0.00000001
 43
0.00000001
 40
0.0
 40
0.0
 40
0.0
 40
0.0
 40
0.0094289094174222
 40
0.0366438128280221
 40
0.063054198398315
 40
0.0894646038911643
 40
0.1166412925856838
 40
0.1438180124421735
 40
0.170247125065904
 40
0.1966762613254198
 40
0.2238706913251796
 40
0.2510651314997945
 40
0.277536739096496
 40
0.3040083371713353
 40
0.331248862664642
 40
0.3584893611680606
 40
0.3849610404740855
 40
0.411432691649823
 40
0.4386758957910055
 40
0.4659190777322895
 40
0.492348084111062
 40
0.5187770877739238
 40
0.545975127897915
 40
0.5731731853201805
 40
0.5995834343361803
 40
0.6259937100464062
 40
0.6531693107228229
 40
0.6803449408455783
 40
0.7067895569217623
 40
0.7332341874849033
 40
0.7604450162698128
 40
0.7876558408805147
 40
0.8141343516345817
 40
0.8406128419934801
 40
0.8678616249117579
 40
0.8951103762937389
 40
0.9215694560743747
 40
0.9480285123619221
 40
0.9752587923886299
 40
1.0
 40
1.0
 40
1.0
 40
1.0
 10
47.08236335983677
 20
4.973189344920566
 30
0.0
 10
47.08236521502
 20
4.973158898794171
 30
0.0
 10
47.08237242486621
 20
4.973040575231235
 30
0.0
 10
47.08232335950783
 20
4.973843650540742
 30
0.0
 10
47.08221824709575
 20
4.975574390556623
 30
0.0
 10
47.08205616624867
 20
4.978292388375492
 30
0.0
 10
47.08184277291146
 20
4.981954406189893
 30
0.0
 10
47.08158465552281
 20
4.986534522103424
 30
0.0
 10
47.08129214612843
 20
4.991938902446737
 30
0.0
 10
47.08097189301151
 20
4.998154814915135
 30
0.0
 10
47.08062876673895
 20
5.00522445531237
 30
0.0
 10
47.08027564012449
 20
5.013044166851407
 30
0.0
 10
47.07992601514739
 20
5.021475476988074
 30
0.0
 10
47.07958606679079
 20
5.030519757900012
 30
0.0
 10
47.07926288723903
 20
5.040216397558163
 30
0.0
 10
47.07896896624027
 20
5.05041021605564
 30
0.0
 10
47.07871549672644
 20
5.06092460978055
 30
0.0
 10
47.07850532687245
 20
5.071774503334067
 30
0.0
 10
47.07834445265456
 20
5.08299876808521
 30
0.0
 10
47.07823930203112
 20
5.094405820753654
 30
0.0
 10
47.07819365060295
 20
5.105801644932754
 30
0.0
 10
47.07820561782704
 20
5.117213807946635
 30
0.0
 10
47.07827758330495
 20
5.128678122005178
 30
0.0
 10
47.07840692677404
 20
5.139998329829538
 30
0.0
 10
47.07858845197227
 20
5.150987128324951
 30
0.0
 10
47.07881653598783
 20
5.161682386542945
 30
0.0
 10
47.07908902439137
 20
5.172103848891019
 30
0.0
 10
47.07939573023124
 20
5.182076448669893
 30
0.0
 10
47.07972486549201
 20
5.191439622079794
 30
0.0
 10
47.08006953711361
 20
5.200236142747519
 30
0.0
 10
47.08042378146202
 20
5.208464099001462
 30
0.0
 10
47.08077419719864
 20
5.215980370798724
 30
0.0
 10
47.08110739503064
 20
5.222668178316727
 30
0.0
 10
47.08141807208977
 20
5.228570625817354
 30
0.0
 10
47.08169919193042
 20
5.233672131570482
 30
0.0
 10
47.08193966027873
 20
5.237872255607396
 30
0.0
 10
47.08213090129426
 20
5.241120942758172
 30
0.0
 10
47.08226986335587
 20
5.24342990959763
 30
0.0
 10
47.08235573643545
 20
5.244839853100204
 30
0.0
 10
47.08236390034514
 20
5.244971891921074
 30
0.0
 10
47.08236778680277
 20
5.245034749461399
 30
0.0
  0
SPLINE
  5
F9
330
1F
100
AcDbEntity
  8
0
  6
Continuous
 62
     7
370
    25
100
AcDbSpline
210
0.0
220
0.0
230
1.0
 70
    11
 71
     3
 72
    56
 73
    52
 74
     0
 42
0.00000001
 43
0.00000001
 40
0.0
 40
0.0
 40
0.0
 40
0.0
 40
0.0312500000000004
 40
0.0312500000000004
 40
0.0625000000000008
 40
0.0625000000000008
 40
0.0937500000000011
 40
0.0937500000000011
 40
0.1250000000000015
 40
0.1250000000000015
 40
0.1875000000000015
 40
0.1875000000000015
 40
0.2500000000000015
 40
0.2500000000000015
 40
0.2812500000000015
 40
0.2812500000000015
 40
0.3125000000000015
 40
0.3125000000000015
 40
0.3437500000000015
 40
0.3437500000000015
 40
0.3750000000000014
 40
0.3750000000000014
 40
0.4062500000000014
 40
0.4062500000000014
 40
0.4375000000000014
 40
0.4375000000000014
 40
0.4687500000000014
 40
0.4687500000000014
 40
0.5000000000000014
 40
0.5000000000000014
 40
0.5625000000000012
 40
0.5625000000000012
 40
0.625000000000001
 40
0.625000000000001
 40
0.6562500000000008
 40
0.6562500000000008
 40
0.6875000000000004
 40
0.6875000000000004
 40
0.71875
 40
0.71875
 40
0.7499999999999996
 40
0.7499999999999996
 40
0.8124999999999998
 40
0.8124999999999998
 40
0.84375
 40
0.84375
 40
0.8750000000000001
 40
0.8750000000000001
 40
0.9375000000000001
 40
0.9375000000000001
 40
1.0
 40
1.0
 40
1.0
 40
1.0
 10
43.87223462110205
 20
5.10907616397866
 30
0.0
 10
43.87223462110205
 20
5.100089092462703
 30
0.0
 10
43.87144342103006
 20
5.091252622430535
 30
0.0
 10
43.86834671387874
 20
5.073868437958165
 30
0.0
 10
43.86600354424098
 20
5.065230527473374
 30
0.0
 10
43.85989768551313
 20
5.048761664829772
 30
0.0
 10
43.85616529549429
 20
5.040951024790661
 30
0.0
 10
43.84736660605923
 20
5.026169054650406
 30
0.0
 10
43.84225493043877
 20
5.019171846021395
 30
0.0
 10
43.82555076519613
 20
5.000358092380425
 30
0.0
 10
43.81214128388155
 20
4.990226161602114
 30
0.0
 10
43.78341450213318
 20
4.976659493195723
 30
0.0
 10
43.76779992962361
 20
4.973085708032835
 30
0.0
 10
43.7447503591261
 20
4.973071421342642
 30
0.0
 10
43.73697358979163
 20
4.97395441263731
 30
0.0
 10
43.72197092248398
 20
4.97742418736511
 30
0.0
 10
43.71470456563095
 20
4.979991491522862
 30
0.0
 10
43.7006356496285
 20
4.986800734073461
 30
0.0
 10
43.69385649932514
 20
4.991057986368573
 30
0.0
 10
43.68134485097158
 20
5.000899949696555
 30
0.0
 10
43.67553109115002
 20
5.006518638914913
 30
0.0
 10
43.66480666655578
 20
5.019207661288656
 30
0.0
 10
43.66006244013778
 20
5.026084019236984
 30
0.0
 10
43.6517813484833
 20
5.040808413134178
 30
0.0
 10
43.64820953127638
 20
5.048755425392072
 30
0.0
 10
43.642487658535
 20
5.0652319960846
 30
0.0
 10
43.64033533376938
 20
5.073709154680341
 30
0.0
 10
43.63742382734721
 20
5.091136316119814
 30
0.0
 10
43.63667837870166
 20
5.100151082638039
 30
0.0
 10
43.63667039834825
 20
5.126779951374738
 30
0.0
 10
43.63963872973914
 20
5.144674805912095
 30
0.0
 10
43.65098032605482
 20
5.177417148852597
 30
0.0
 10
43.65947450340598
 20
5.192598645976864
 30
0.0
 10
43.67533928141859
 20
5.211424965708906
 30
0.0
 10
43.68125300672839
 20
5.217171889167374
 30
0.0
 10
43.69380322603762
 20
5.22706058301259
 30
0.0
 10
43.70044918129119
 20
5.231243315717619
 30
0.0
 10
43.71449954804045
 20
5.238079143307524
 30
0.0
 10
43.72190965360003
 20
5.240707053673463
 30
0.0
 10
43.73686145346406
 20
5.244178817819622
 30
0.0
 10
43.74448157350827
 20
5.245067151388827
 30
0.0
 10
43.76779563413624
 20
5.245093986469201
 30
0.0
 10
43.78319994116074
 20
5.241576364094939
 30
0.0
 10
43.80491320961074
 20
5.231348542627643
 30
0.0
 10
43.81179568762298
 20
5.227176287326237
 30
0.0
 10
43.82484771241868
 20
5.217326908267292
 30
0.0
 10
43.83105233813266
 20
5.211589134955561
 30
0.0
 10
43.84777650961328
 20
5.192778891680791
 30
0.0
 10
43.85683034973445
 20
5.17762386433968
 30
0.0
 10
43.86898995872718
 20
5.144906595872834
 30
0.0
 10
43.87223462110205
 20
5.127050307010572
 30
0.0
 10
43.87223462110205
 20
5.10907616397866
 30
0.0
  0
LINE
  5
FA
330
1F
100
AcDbEntity
  8
0
  6
Continuous
 62
     7
370
    25
100
AcDbLine
 10
42.6423703254
 20
4.609076164
 30
0.0
 11
47.0823703254
 21
4.609076164
 31
0.0
  0
LINE
  5
FB
330
1F
100
AcDbEntity
  8
0
  6
Continuous
 62
     7
370
    25
100
AcDbLine
 10
47.0223703254
 20
8.609076164
 30
0.0
 11
42.7023703254
 21
8.609076164
 31
0.0
  0
SPLINE
  5
FC
330
1F
100
AcDbEntity
  8
0
  6
Continuous
 62
     7
370
    25
100
AcDbSpline
210
0.0
220
0.0
230
1.0
 70
     8
 71
     3
 72
    31
 73
    27
 74
     0
 42
0.00000001
 43
0.00000001
 40
0.0
 40
0.0
 40
0.0
 40
0.0
 40
0.0060897437148477
 40
0.0510442911396729
 40
0.096033749729263
 40
0.1411662716668339
 40
0.1861560121236745
 40
0.2312309701825686
 40
0.2764495307565851
 40
0.3215241964299773
 40
0.3666017244707148
 40
0.4118233515825344
 40
0.4569004645000038
 40
0.5018931179154599
 40
0.5470295434506881
 40
0.592022308766568
 40
0.6369752601565487
 40
0.6820713451576484
 40
0.727024755118546
 40
0.7720449768049535
 40
0.8172083784068437
 40
0.8622286917204958
 40
0.9073182594049232
 40
0.9525516638404918
 40
0.9976408103237149
 40
1.0
 40
1.0
 40
1.0
 40
1.0
 10
43.79009101391232
 20
4.980274649032988
 30
0.0
 10
43.78952382112193
 20
4.980463105106038
 30
0.0
 10
43.78476960562774
 20
4.982042745746161
 30
0.0
 10
43.77630160091653
 20
4.986549638033615
 30
0.0
 10
43.76491845632294
 20
4.993876681084215
 30
0.0
 10
43.75439073926077
 20
5.002794543513995
 30
0.0
 10
43.74477369780283
 20
5.012999965351215
 30
0.0
 10
43.73623485845176
 20
5.024464351373124
 30
0.0
 10
43.72883328135447
 20
5.03698741353832
 30
0.0
 10
43.72265615217839
 20
5.050415796274945
 30
0.0
 10
43.71781989544297
 20
5.064605417198492
 30
0.0
 10
43.71433395958728
 20
5.079349531886654
 30
0.0
 10
43.71223757815638
 20
5.094460325243959
 30
0.0
 10
43.71160137447536
 20
5.109751206743288
 30
0.0
 10
43.71237971719888
 20
5.125020767325495
 30
0.0
 10
43.71456319044766
 20
5.140089841480525
 30
0.0
 10
43.7181740633762
 20
5.154753047584149
 30
0.0
 10
43.72312139270705
 20
5.168839540059992
 30
0.0
 10
43.72935578100848
 20
5.18219180888186
 30
0.0
 10
43.73685200136585
 20
5.194605985144221
 30
0.0
 10
43.74548168476434
 20
5.205961422945555
 30
0.0
 10
43.75515633484063
 20
5.216104194483636
 30
0.0
 10
43.76578080506683
 20
5.224919364400763
 30
0.0
 10
43.77726617067239
 20
5.232102064330665
 30
0.0
 10
43.78544673268567
 20
5.236447912814453
 30
0.0
 10
43.78987530924889
 20
5.237880860667572
 30
0.0
 10
43.79009550352659
 20
5.237952108598591
 30
0.0
  0
LINE
  5
FD
330
1F
100
AcDbEntity
  8
0
  6
Continuous
 62
     7
370
    25
100
AcDbLine
 10
47.0823703254
 20
8.549076164
 30
0.0
 11
42.6423703254
 21
8.549076164
 31
0.0
  0
INSERT
  5
FE
330
1F
100
AcDbEntity
  8
0
  6
Continuous
 62
     7
100
AcDbBlockReference
  2
Block4
 10
43.7456438228
 20
1.6211113723
 30
0.0
 41
0.5
 42
0.5
 43
0.5
  0
DIMENSION
  5
FF
330
1F
100
AcDbEntity
  8
0
  6
Continuous
 62
     7
370
    18
100
AcDbDimension
  2
_D_3
 10
39.6019038452
 20
4.609076164
 30
0.0
 11
39.6019038452
 21
6.609076164
 31
0.0
 70
   160
  1
<>
 71
     2
 42
-1.0
  3
SLDDIMSTYLE2
100
AcDbAlignedDimension
 13
42.7023703254
 23
8.609076164
 33
0.0
 14
42.6423703254
 24
4.609076164
 34
0.0
 50
90.0
100
AcDbRotatedDimension
  0
LINE
  5
114
330
1F
100
AcDbEntity
  8
0
  6
Continuous
 62
     7
370
    25
100
AcDbLine
 10
55.1268942187
 20
7.7926394312
 30
0.0
 11
54.0439530915
 21
7.7926394312
 31
0.0
  0
LINE
  5
115
330
1F
100
AcDbEntity
  8
0
  6
Continuous
 62
     7
370
    25
100
AcDbLine
 10
54.0610522493
 20
7.8376394312
 30
0.0
 11
55.1097950609
 21
7.8376394312
 31
0.0
  0
LINE
  5
116
330
1F
100
AcDbEntity
  8
0
  6
Continuous
 62
     7
370
    25
100
AcDbLine
 10
54.1553476487
 20
7.9876394312
 30
0.0
 11
55.0154996615
 21
7.9876394312
 31
0.0
  0
CIRCLE
  5
117
330
1F
100
AcDbEntity
  8
0
  6
Continuous
 62
     7
370
    25
100
AcDbCircle
 10
51.4034431397
 20
4.4306589159
 30
0.0
 40
0.1170000000000044
  0
CIRCLE
  5
118
330
1F
100
AcDbEntity
  8
0
  6
Continuous
 62
     7
370
    25
100
AcDbCircle
 10
51.4034431397
 20
4.4306589159
 30
0.0
 40
0.2339999999999947
  0
LINE
  5
119
330
1F
100
AcDbEntity
  8
0
  6
Continuous
 62
     7
370
    25
100
AcDbLine
 10
51.3329431397
 20
4.4713621098
 30
0.0
 11
51.4034431397
 21
4.5120653038
 31
0.0
  0
LINE
  5
11A
330
1F
100
AcDbEntity
  8
0
  6
Continuous
 62
     7
370
    25
100
AcDbLine
 10
51.3329431397
 20
4.3899557219
 30
0.0
 11
51.3329431397
 21
4.4713621098
 31
0.0
  0
LINE
  5
11B
330
1F
100
AcDbEntity
  8
0
  6
Continuous
 62
     7
370
    25
100
AcDbLine
 10
51.4034431397
 20
4.3492525279
 30
0.0
 11
51.3329431397
 21
4.3899557219
 31
0.0
  0
LINE
  5
11C
330
1F
100
AcDbEntity
  8
0
  6
Continuous
 62
     7
370
    25
100
AcDbLine
 10
51.4034431397
 20
4.5120653038
 30
0.0
 11
51.4739431397
 21
4.4713621098
 31
0.0
  0
LINE
  5
11D
330
1F
100
AcDbEntity
  8
0
  6
Continuous
 62
     7
370
    25
100
AcDbLine
 10
51.4739431397
 20
4.4713621098
 30
0.0
 11
51.4739431397
 21
4.3899557219
 31
0.0
  0
LINE
  5
11E
330
1F
100
AcDbEntity
  8
0
  6
Continuous
 62
     7
370
    25
100
AcDbLine
 10
51.4739431397
 20
4.3899557219
 30
0.0
 11
51.4034431397
 21
4.3492525279
 31
0.0
  0
ARC
  5
11F
330
1F
100
AcDbEntity
  8
0
  6
Continuous
 62
     7
370
    25
100
AcDbCircle
 10
51.4034431397
 20
4.4306589159
 30
0.0
 40
0.0705000000000022
100
AcDbArc
 50
60.0
 51
120.0
  0
ARC
  5
120
330
1F
100
AcDbEntity
  8
0
  6
Continuous
 62
     7
370
    25
100
AcDbCircle
 10
51.4034431397
 20
4.4306589159
 30
0.0
 40
0.0705000000000027
100
AcDbArc
 50
120.0
 51
180.0
  0
ARC
  5
121
330
1F
100
AcDbEntity
  8
0
  6
Continuous
 62
     7
370
    25
100
AcDbCircle
 10
51.4034431397
 20
4.4306589159
 30
0.0
 40
0.070500000000003
100
AcDbArc
 50
300.0
 51
0.0
  0
ARC
  5
122
330
1F
100
AcDbEntity
  8
0
  6
Continuous
 62
     7
370
    25
100
AcDbCircle
 10
51.4034431397
 20
4.4306589159
 30
0.0
 40
0.070500000000003
100
AcDbArc
 50
240.0
 51
300.0
  0
ARC
  5
123
330
1F
100
AcDbEntity
  8
0
  6
Continuous
 62
     7
370
    25
100
AcDbCircle
 10
51.4034431397
 20
4.4306589159
 30
0.0
 40
0.0705000000000027
100
AcDbArc
 50
180.0
 51
240.0
  0
ARC
  5
124
330
1F
100
AcDbEntity
  8
0
  6
Continuous
 62
     7
370
    25
100
AcDbCircle
 10
51.4034431397
 20
4.4306589159
 30
0.0
 40
0.0705000000000027
100
AcDbArc
 50
0.0
 51
60.0
  0
CIRCLE
  5
125
330
1F
100
AcDbEntity
  8
0
  6
Continuous
 62
     7
370
    25
100
AcDbCircle
 10
51.4034431397
 20
10.7946199465
 30
0.0
 40
0.1170000000000044
  0
CIRCLE
  5
126
330
1F
100
AcDbEntity
  8
0
  6
Continuous
 62
     7
370
    25
100
AcDbCircle
 10
51.4034431397
 20
10.7946199465
 30
0.0
 40
0.2340000000000018
  0
LINE
  5
127
330
1F
100
AcDbEntity
  8
0
  6
Continuous
 62
     7
370
    25
100
AcDbLine
 10
51.4034431397
 20
10.8760263345
 30
0.0
 11
51.4739431397
 21
10.8353231405
 31
0.0
  0
LINE
  5
128
330
1F
100
AcDbEntity
  8
0
  6
Continuous
 62
     7
370
    25
100
AcDbLine
 10
51.3329431397
 20
10.7539167526
 30
0.0
 11
51.3329431397
 21
10.8353231405
 31
0.0
  0
LINE
  5
129
330
1F
100
AcDbEntity
  8
0
  6
Continuous
 62
     7
370
    25
100
AcDbLine
 10
51.4034431397
 20
10.7132135586
 30
0.0
 11
51.3329431397
 21
10.7539167526
 31
0.0
  0
LINE
  5
12A
330
1F
100
AcDbEntity
  8
0
  6
Continuous
 62
     7
370
    25
100
AcDbLine
 10
51.4739431397
 20
10.7539167526
 30
0.0
 11
51.4034431397
 21
10.7132135586
 31
0.0
  0
LINE
  5
12B
330
1F
100
AcDbEntity
  8
0
  6
Continuous
 62
     7
370
    25
100
AcDbLine
 10
51.4739431397
 20
10.8353231405
 30
0.0
 11
51.4739431397
 21
10.7539167526
 31
0.0
  0
LINE
  5
12C
330
1F
100
AcDbEntity
  8
0
  6
Continuous
 62
     7
370
    25
100
AcDbLine
 10
51.3329431397
 20
10.8353231405
 30
0.0
 11
51.4034431397
 21
10.8760263345
 31
0.0
  0
ARC
  5
12D
330
1F
100
AcDbEntity
  8
0
  6
Continuous
 62
     7
370
    25
100
AcDbCircle
 10
51.4034431397
 20
10.7946199465
 30
0.0
 40
0.070500000000003
100
AcDbArc
 50
360.0
 51
60.0
  0
ARC
  5
12E
330
1F
100
AcDbEntity
  8
0
  6
Continuous
 62
     7
370
    25
100
AcDbCircle
 10
51.4034431397
 20
10.7946199465
 30
0.0
 40
0.0705000000000027
100
AcDbArc
 50
120.0
 51
180.0
  0
ARC
  5
12F
330
1F
100
AcDbEntity
  8
0
  6
Continuous
 62
     7
370
    25
100
AcDbCircle
 10
51.4034431397
 20
10.7946199465
 30
0.0
 40
0.070500000000003
100
AcDbArc
 50
60.0
 51
120.0
  0
ARC
  5
130
330
1F
100
AcDbEntity
  8
0
  6
Continuous
 62
     7
370
    25
100
AcDbCircle
 10
51.4034431397
 20
10.7946199465
 30
0.0
 40
0.0705000000000045
100
AcDbArc
 50
240.0
 51
300.0
  0
ARC
  5
131
330
1F
100
AcDbEntity
  8
0
  6
Continuous
 62
     7
370
    25
100
AcDbCircle
 10
51.4034431397
 20
10.7946199465
 30
0.0
 40
0.0705000000000027
100
AcDbArc
 50
180.0
 51
240.0
  0
ARC
  5
132
330
1F
100
AcDbEntity
  8
0
  6
Continuous
 62
     7
370
    25
100
AcDbCircle
 10
51.4034431397
 20
10.7946199465
 30
0.0
 40
0.0705000000000045
100
AcDbArc
 50
300.0
 51
360.0
  0
LINE
  5
133
330
1F
100
AcDbEntity
  8
0
  6
Continuous
 62
     7
370
    25
100
AcDbLine
 10
57.7674041704
 20
4.5120653038
 30
0.0
 11
57.8379041704
 21
4.4713621098
 31
0.0
  0
LINE
  5
134
330
1F
100
AcDbEntity
  8
0
  6
Continuous
 62
     7
370
    25
100
AcDbLine
 10
57.6969041704
 20
4.4713621098
 30
0.0
 11
57.7674041704
 21
4.5120653038
 31
0.0
  0
LINE
  5
135
330
1F
100
AcDbEntity
  8
0
  6
Continuous
 62
     7
370
    25
100
AcDbLine
 10
57.6969041704
 20
4.3899557219
 30
0.0
 11
57.6969041704
 21
4.4713621098
 31
0.0
  0
LINE
  5
136
330
1F
100
AcDbEntity
  8
0
  6
Continuous
 62
     7
370
    25
100
AcDbLine
 10
57.7674041704
 20
4.3492525279
 30
0.0
 11
57.6969041704
 21
4.3899557219
 31
0.0
  0
LINE
  5
137
330
1F
100
AcDbEntity
  8
0
  6
Continuous
 62
     7
370
    25
100
AcDbLine
 10
57.8379041704
 20
4.3899557219
 30
0.0
 11
57.7674041704
 21
4.3492525279
 31
0.0
  0
LINE
  5
138
330
1F
100
AcDbEntity
  8
0
  6
Continuous
 62
     7
370
    25
100
AcDbLine
 10
57.8379041704
 20
4.4713621098
 30
0.0
 11
57.8379041704
 21
4.3899557219
 31
0.0
  0
CIRCLE
  5
139
330
1F
100
AcDbEntity
  8
0
  6
Continuous
 62
     7
370
    25
100
AcDbCircle
 10
57.7674041704
 20
4.4306589159
 30
0.0
 40
0.1169999999999973
  0
CIRCLE
  5
13A
330
1F
100
AcDbEntity
  8
0
  6
Continuous
 62
     7
370
    25
100
AcDbCircle
 10
57.7674041704
 20
4.4306589159
 30
0.0
 40
0.2340000000000018
  0
ARC
  5
13B
330
1F
100
AcDbEntity
  8
0
  6
Continuous
 62
     7
370
    25
100
AcDbCircle
 10
57.7674041704
 20
4.4306589159
 30
0.0
 40
0.0705000000000027
100
AcDbArc
 50
0.0
 51
60.0
  0
ARC
  5
13C
330
1F
100
AcDbEntity
  8
0
  6
Continuous
 62
     7
370
    25
100
AcDbCircle
 10
57.7674041704
 20
4.4306589159
 30
0.0
 40
0.0705000000000027
100
AcDbArc
 50
120.0
 51
180.0
  0
ARC
  5
13D
330
1F
100
AcDbEntity
  8
0
  6
Continuous
 62
     7
370
    25
100
AcDbCircle
 10
57.7674041704
 20
4.4306589159
 30
0.0
 40
0.0705000000000027
100
AcDbArc
 50
300.0
 51
0.0
  0
ARC
  5
13E
330
1F
100
AcDbEntity
  8
0
  6
Continuous
 62
     7
370
    25
100
AcDbCircle
 10
57.7674041704
 20
4.4306589159
 30
0.0
 40
0.070500000000001
100
AcDbArc
 50
240.0
 51
300.0
  0
ARC
  5
13F
330
1F
100
AcDbEntity
  8
0
  6
Continuous
 62
     7
370
    25
100
AcDbCircle
 10
57.7674041704
 20
4.4306589159
 30
0.0
 40
0.0705000000000027
100
AcDbArc
 50
180.0
 51
240.0
  0
ARC
  5
140
330
1F
100
AcDbEntity
  8
0
  6
Continuous
 62
     7
370
    25
100
AcDbCircle
 10
57.7674041704
 20
4.4306589159
 30
0.0
 40
0.0704999999999979
100
AcDbArc
 50
60.0
 51
120.0
  0
LINE
  5
141
330
1F
100
AcDbEntity
  8
0
  6
Continuous
 62
     7
370
    25
100
AcDbLine
 10
57.7674041704
 20
10.8760263345
 30
0.0
 11
57.8379041704
 21
10.8353231405
 31
0.0
  0
LINE
  5
142
330
1F
100
AcDbEntity
  8
0
  6
Continuous
 62
     7
370
    25
100
AcDbLine
 10
57.6969041704
 20
10.8353231405
 30
0.0
 11
57.7674041704
 21
10.8760263345
 31
0.0
  0
CIRCLE
  5
143
330
1F
100
AcDbEntity
  8
0
  6
Continuous
 62
     7
370
    25
100
AcDbCircle
 10
57.7674041704
 20
10.7946199465
 30
0.0
 40
0.1169999999999973
  0
LINE
  5
144
330
1F
100
AcDbEntity
  8
0
  6
Continuous
 62
     7
370
    25
100
AcDbLine
 10
57.6969041704
 20
10.7539167526
 30
0.0
 11
57.6969041704
 21
10.8353231405
 31
0.0
  0
LINE
  5
145
330
1F
100
AcDbEntity
  8
0
  6
Continuous
 62
     7
370
    25
100
AcDbLine
 10
57.8379041704
 20
10.8353231405
 30
0.0
 11
57.8379041704
 21
10.7539167526
 31
0.0
  0
LINE
  5
146
330
1F
100
AcDbEntity
  8
0
  6
Continuous
 62
     7
370
    25
100
AcDbLine
 10
57.7674041704
 20
10.7132135586
 30
0.0
 11
57.6969041704
 21
10.7539167526
 31
0.0
  0
LINE
  5
147
330
1F
100
AcDbEntity
  8
0
  6
Continuous
 62
     7
370
    25
100
AcDbLine
 10
57.8379041704
 20
10.7539167526
 30
0.0
 11
57.7674041704
 21
10.7132135586
 31
0.0
  0
CIRCLE
  5
148
330
1F
100
AcDbEntity
  8
0
  6
Continuous
 62
     7
370
    25
100
AcDbCircle
 10
57.7674041704
 20
10.7946199465
 30
0.0
 40
0.2340000000000018
  0
ARC
  5
149
330
1F
100
AcDbEntity
  8
0
  6
Continuous
 62
     7
370
    25
100
AcDbCircle
 10
57.7674041704
 20
10.7946199465
 30
0.0
 40
0.070500000000003
100
AcDbArc
 50
120.0
 51
180.0
  0
ARC
  5
14A
330
1F
100
AcDbEntity
  8
0
  6
Continuous
 62
     7
370
    25
100
AcDbCircle
 10
57.7674041704
 20
10.7946199465
 30
0.0
 40
0.070500000000003
100
AcDbArc
 50
60.0
 51
120.0
  0
ARC
  5
14B
330
1F
100
AcDbEntity
  8
0
  6
Continuous
 62
     7
370
    25
100
AcDbCircle
 10
57.7674041704
 20
10.7946199465
 30
0.0
 40
0.0705000000000045
100
AcDbArc
 50
240.0
 51
300.0
  0
ARC
  5
14C
330
1F
100
AcDbEntity
  8
0
  6
Continuous
 62
     7
370
    25
100
AcDbCircle
 10
57.7674041704
 20
10.7946199465
 30
0.0
 40
0.0705000000000027
100
AcDbArc
 50
300.0
 51
0.0
  0
ARC
  5
14D
330
1F
100
AcDbEntity
  8
0
  6
Continuous
 62
     7
370
    25
100
AcDbCircle
 10
57.7674041704
 20
10.7946199465
 30
0.0
 40
0.0705000000000027
100
AcDbArc
 50
0.0
 51
60.0
  0
ARC
  5
14E
330
1F
100
AcDbEntity
  8
0
  6
Continuous
 62
     7
370
    25
100
AcDbCircle
 10
57.7674041704
 20
10.7946199465
 30
0.0
 40
0.0705000000000045
100
AcDbArc
 50
180.0
 51
240.0
  0
CIRCLE
  5
14F
330
1F
100
AcDbEntity
  8
0
  6
Continuous
 62
     7
370
    25
100
AcDbCircle
 10
54.5854236551
 20
7.6126394312
 30
0.0
 40
2.324999999999999
  0
CIRCLE
  5
150
330
1F
100
AcDbEntity
  8
0
  6
Continuous
 62
     7
370
    25
100
AcDbCircle
 10
54.5854236551
 20
7.6126394312
 30
0.0
 40
4.199999999999996
  0
CIRCLE
  5
151
330
1F
100
AcDbEntity
  8
0
  6
Continuous
 62
     7
370
    25
100
AcDbCircle
 10
54.5854236551
 20
7.6126394312
 30
0.0
 40
0.6225000000000023
  0
CIRCLE
  5
152
330
1F
100
AcDbEntity
  8
0
  6
Continuous
 62
     7
370
    25
100
AcDbCircle
 10
54.5854236551
 20
7.6126394312
 30
0.0
 40
4.837499999999997
  0
CIRCLE
  5
153
330
1F
100
AcDbEntity
  8
0
  6
Continuous
 62
     7
370
    25
100
AcDbCircle
 10
54.5854236551
 20
7.6126394312
 30
0.0
 40
0.5706052674608717
  0
ARC
  5
154
330
1F
100
AcDbEntity
  8
0
  6
Continuous
 62
     7
370
    25
100
AcDbCircle
 10
54.5854236551
 20
7.6126394312
 30
0.0
 40
4.290000000000002
100
AcDbArc
 50
46.3461542426
 51
133.6538457574
  0
ARC
  5
155
330
1F
100
AcDbEntity
  8
0
  6
Continuous
 62
     7
370
    25
100
AcDbCircle
 10
54.5854236551
 20
7.6126394312
 30
0.0
 40
4.290000000000004
100
AcDbArc
 50
316.3461542426
 51
43.6538457574
  0
ARC
  5
156
330
1F
100
AcDbEntity
  8
0
  6
Continuous
 62
     7
370
    25
100
AcDbCircle
 10
54.5854236551
 20
7.6126394312
 30
0.0
 40
4.290000000000005
100
AcDbArc
 50
226.3461542426
 51
313.6538457574
  0
ARC
  5
157
330
1F
100
AcDbEntity
  8
0
  6
Continuous
 62
     7
370
    25
100
AcDbCircle
 10
54.5854236551
 20
7.6126394312
 30
0.0
 40
4.289999999999999
100
AcDbArc
 50
136.3461542426
 51
223.6538457574
  0
ARC
  5
158
330
1F
100
AcDbEntity
  8
0
  6
Continuous
 62
     7
370
    25
100
AcDbCircle
 10
54.5854236551
 20
7.6126394312
 30
0.0
 40
4.650000000000004
100
AcDbArc
 50
47.2496919417
 51
132.7503080583
  0
ARC
  5
159
330
1F
100
AcDbEntity
  8
0
  6
Continuous
 62
     7
370
    25
100
AcDbCircle
 10
54.5854236551
 20
7.6126394312
 30
0.0
 40
4.650000000000007
100
AcDbArc
 50
317.2496919417
 51
42.7503080583
  0
ARC
  5
15A
330
1F
100
AcDbEntity
  8
0
  6
Continuous
 62
     7
370
    25
100
AcDbCircle
 10
54.5854236551
 20
7.6126394312
 30
0.0
 40
4.650000000000003
100
AcDbArc
 50
227.2496919417
 51
312.7503080583
  0
ARC
  5
15B
330
1F
100
AcDbEntity
  8
0
  6
Continuous
 62
     7
370
    25
100
AcDbCircle
 10
54.5854236551
 20
7.6126394312
 30
0.0
 40
4.649999999999997
100
AcDbArc
 50
137.2496919417
 51
222.7503080583
  0
DIMENSION
  5
15C
330
1F
100
AcDbEntity
  8
0
  6
Continuous
 62
     7
370
    18
100
AcDbDimension
  2
_D_4
 10
52.1666736551
 20
3.4232415404
 30
0.0
 11
61.8252794111
 21
13.6991951599
 31
0.0
 70
   163
  1
<>
 71
     1
 42
-1.0
  3
SLDDIMSTYLE3
100
AcDbDiametricDimension
 15
57.0041736551
 25
11.802037322
 35
0.0
 40
0.0
  0
LINE
  5
16D
330
1F
100
AcDbEntity
  8
0
  6
Continuous
 62
     7
370
    25
100
AcDbLine
 10
24.5594825203
 20
28.3659612282
 30
0.0
 11
24.036868169
 21
27.8433468769
 31
0.0
  0
LINE
  5
16E
330
1F
100
AcDbEntity
  8
0
  6
Continuous
 62
     7
370
    25
100
AcDbLine
 10
25.5975152751
 20
29.403993983
 30
0.0
 11
24.65497257
 21
28.4614512779
 31
0.0
  0
LINE
  5
16F
330
1F
100
AcDbEntity
  8
0
  6
Continuous
 62
     7
370
    25
100
AcDbLine
 10
25.8223127915
 20
29.6287914994
 30
0.0
 11
25.6930053247
 21
29.4994840327
 31
0.0
  0
LINE
  5
170
330
1F
100
AcDbEntity
  8
0
  6
Continuous
 62
     7
370
    25
100
AcDbLine
 10
24.036868169
 20
24.7037927685
 30
0.0
 11
27.3920898457
 21
28.0590144452
 31
0.0
  0
ARC
  5
171
330
1F
100
AcDbEntity
  8
0
  6
Continuous
 62
     7
370
    25
100
AcDbCircle
 10
11.0247079443
 20
35.7204145464
 30
0.0
 40
0.180475933298604
100
AcDbArc
 50
300.1878810736
 51
334.3933390117
  0
ARC
  5
172
330
1F
100
AcDbEntity
  8
0
  6
Continuous
 62
     7
370
    25
100
AcDbCircle
 10
11.0247079443
 20
35.7204145464
 30
0.0
 40
0.1804759332985978
100
AcDbArc
 50
25.6066609883
 51
59.8121189264
  0
LINE
  5
173
330
1F
100
AcDbEntity
  8
0
  6
Continuous
 62
     7
370
    25
100
AcDbLine
 10
11.1154579443
 20
35.8764145464
 30
0.0
 11
11.1004579443
 21
35.8764145464
 31
0.0
  0
LINE
  5
174
330
1F
100
AcDbEntity
  8
0
  6
Continuous
 62
     7
370
    25
100
AcDbLine
 10
11.1004579443
 20
35.5644145464
 30
0.0
 11
11.1154579443
 21
35.5644145464
 31
0.0
  0
LINE
  5
175
330
1F
100
AcDbEntity
  8
0
  6
Continuous
 62
     7
370
    25
100
AcDbLine
 10
10.8224579443
 20
35.7929118492
 30
0.0
 11
10.8160879443
 21
35.7838145464
 31
0.0
  0
LINE
  5
176
330
1F
100
AcDbEntity
  8
0
  6
Continuous
 62
     7
370
    25
100
AcDbLine
 10
10.8160879443
 20
35.6570145464
 30
0.0
 11
10.8224579443
 21
35.6479172436
 31
0.0
  0
LINE
  5
177
330
1F
100
AcDbEntity
  8
0
  6
Continuous
 62
     7
370
    25
100
AcDbLine
 10
10.8045029833
 20
35.6404695074
 30
0.0
 11
10.8160879443
 21
35.6570145464
 31
0.0
  0
LINE
  5
178
330
1F
100
AcDbEntity
  8
0
  6
Continuous
 62
     7
370
    25
100
AcDbLine
 10
10.8160879443
 20
35.7838145464
 30
0.0
 11
10.8045029833
 21
35.8003595854
 31
0.0
  0
LINE
  5
179
330
1F
100
AcDbEntity
  8
0
  6
Continuous
 62
     7
370
    25
100
AcDbLine
 10
10.8045029833
 20
35.8003595854
 30
0.0
 11
10.7879579443
 21
35.7838145464
 31
0.0
  0
LINE
  5
17A
330
1F
100
AcDbEntity
  8
0
  6
Continuous
 62
     7
370
    25
100
AcDbLine
 10
10.7879579443
 20
35.6570145464
 30
0.0
 11
10.8045029833
 21
35.6404695074
 31
0.0
  0
LINE
  5
17B
330
1F
100
AcDbEntity
  8
0
  6
Continuous
 62
     7
370
    25
100
AcDbLine
 10
11.1154579443
 20
40.1190552335
 30
0.0
 11
11.1004579443
 21
40.1190552335
 31
0.0
  0
LINE
  5
17C
330
1F
100
AcDbEntity
  8
0
  6
Continuous
 62
     7
370
    25
100
AcDbLine
 10
11.1004579443
 20
39.8070552335
 30
0.0
 11
11.1154579443
 21
39.8070552335
 31
0.0
  0
ARC
  5
17D
330
1F
100
AcDbEntity
  8
0
  6
Continuous
 62
     7
370
    25
100
AcDbCircle
 10
11.0247079443
 20
39.9630552335
 30
0.0
 40
0.1804759332986017
100
AcDbArc
 50
300.1878810736
 51
334.3933390117
  0
ARC
  5
17E
330
1F
100
AcDbEntity
  8
0
  6
Continuous
 62
     7
370
    25
100
AcDbCircle
 10
11.0247079443
 20
39.9630552335
 30
0.0
 40
0.1804759332986017
100
AcDbArc
 50
25.6066609883
 51
59.8121189264
  0
LINE
  5
17F
330
1F
100
AcDbEntity
  8
0
  6
Continuous
 62
     7
370
    25
100
AcDbLine
 10
10.8224579443
 20
40.0355525363
 30
0.0
 11
10.8160879443
 21
40.0264552335
 31
0.0
  0
LINE
  5
180
330
1F
100
AcDbEntity
  8
0
  6
Continuous
 62
     7
370
    25
100
AcDbLine
 10
10.8160879443
 20
39.8996552335
 30
0.0
 11
10.8224579443
 21
39.8905579307
 31
0.0
  0
LINE
  5
181
330
1F
100
AcDbEntity
  8
0
  6
Continuous
 62
     7
370
    25
100
AcDbLine
 10
10.8045029833
 20
39.8831101945
 30
0.0
 11
10.8160879443
 21
39.8996552335
 31
0.0
  0
LINE
  5
182
330
1F
100
AcDbEntity
  8
0
  6
Continuous
 62
     7
370
    25
100
AcDbLine
 10
10.8160879443
 20
40.0264552335
 30
0.0
 11
10.8045029833
 21
40.0430002725
 31
0.0
  0
LINE
  5
183
330
1F
100
AcDbEntity
  8
0
  6
Continuous
 62
     7
370
    25
100
AcDbLine
 10
10.8045029833
 20
40.0430002725
 30
0.0
 11
10.7879579443
 21
40.0264552335
 31
0.0
  0
LINE
  5
184
330
1F
100
AcDbEntity
  8
0
  6
Continuous
 62
     7
370
    25
100
AcDbLine
 10
10.7879579443
 20
39.8996552335
 30
0.0
 11
10.8045029833
 21
39.8831101945
 31
0.0
  0
LINE
  5
185
330
1F
100
AcDbEntity
  8
0
  6
Continuous
 62
     7
370
    25
100
AcDbLine
 10
10.8224579443
 20
34.61673489
 30
0.0
 11
10.9754579443
 21
34.61673489
 31
0.0
  0
LINE
  5
186
330
1F
100
AcDbEntity
  8
0
  6
Continuous
 62
     7
370
    25
100
AcDbLine
 10
10.9754579443
 20
41.06673489
 30
0.0
 11
10.8224579443
 21
41.06673489
 31
0.0
  0
ARC
  5
187
330
1F
100
AcDbEntity
  8
0
  6
Continuous
 62
     7
370
    25
100
AcDbCircle
 10
10.9754579443
 20
34.74173489
 30
0.0
 40
0.125
100
AcDbArc
 50
270.0
 51
0.0
  0
ARC
  5
188
330
1F
100
AcDbEntity
  8
0
  6
Continuous
 62
     7
370
    25
100
AcDbCircle
 10
10.9754579443
 20
40.94173489
 30
0.0
 40
0.125
100
AcDbArc
 50
0.0
 51
90.0
  0
ARC
  5
189
330
1F
100
AcDbEntity
  8
0
  6
Continuous
 62
     7
370
    25
100
AcDbCircle
 10
11.1604579443
 20
34.98173489
 30
0.0
 40
0.0600000000000023
100
AcDbArc
 50
90.0
 51
180.0
  0
ARC
  5
18A
330
1F
100
AcDbEntity
  8
0
  6
Continuous
 62
     7
370
    25
100
AcDbCircle
 10
11.1604579443
 20
40.70173489
 30
0.0
 40
0.0600000000000023
100
AcDbArc
 50
180.0
 51
270.0
  0
ARC
  5
18B
330
1F
100
AcDbEntity
  8
0
  6
Continuous
 62
     7
370
    25
100
AcDbCircle
 10
11.8504579443
 20
36.29173489
 30
0.0
 40
1.25
100
AcDbArc
 50
270.0
 51
0.0
  0
ARC
  5
18C
330
1F
100
AcDbEntity
  8
0
  6
Continuous
 62
     7
370
    25
100
AcDbCircle
 10
11.8504579443
 20
39.39173489
 30
0.0
 40
1.25
100
AcDbArc
 50
0.0
 51
90.0
  0
LINE
  5
18D
330
1F
100
AcDbEntity
  8
0
  6
Continuous
 62
     7
370
    25
100
AcDbLine
 10
11.1604579443
 20
35.04173489
 30
0.0
 11
11.8504579443
 21
35.04173489
 31
0.0
  0
LINE
  5
18E
330
1F
100
AcDbEntity
  8
0
  6
Continuous
 62
     7
370
    25
100
AcDbLine
 10
11.8504579443
 20
40.64173489
 30
0.0
 11
11.1604579443
 21
40.64173489
 31
0.0
  0
LINE
  5
18F
330
1F
100
AcDbEntity
  8
0
  6
Continuous
 62
     7
370
    25
100
AcDbLine
 10
13.1004579443
 20
37.34173489
 30
0.0
 11
31.1004579443
 21
37.34173489
 31
0.0
  0
LINE
  5
190
330
1F
100
AcDbEntity
  8
0
  6
Continuous
 62
     7
370
    25
100
AcDbLine
 10
31.1004579443
 20
38.34173489
 30
0.0
 11
13.1004579443
 21
38.34173489
 31
0.0
  0
LINE
  5
191
330
1F
100
AcDbEntity
  8
0
  6
Continuous
 62
     7
370
    25
100
AcDbLine
 10
30.7417862117
 20
31.8089921763
 30
0.0
 11
32.005132415
 21
32.9465142072
 31
0.0
  0
LINE
  5
192
330
1F
100
AcDbEntity
  8
0
  6
Continuous
 62
     7
370
    25
100
AcDbLine
 10
31.3360018086
 20
33.6896590326
 30
0.0
 11
30.0726556053
 21
32.5521370018
 31
0.0
  0
ARC
  5
193
330
1F
100
AcDbEntity
  8
0
  6
Continuous
 62
     7
370
    25
100
AcDbCircle
 10
29.8304579443
 20
35.36173489
 30
0.0
 40
2.250000000000005
100
AcDbArc
 50
312.0
 51
0.0
  0
ARC
  5
194
330
1F
100
AcDbEntity
  8
0
  6
Continuous
 62
     7
370
    25
100
AcDbCircle
 10
29.8304579443
 20
35.36173489
 30
0.0
 40
3.250000000000004
100
AcDbArc
 50
312.0
 51
0.0
  0
LINE
  5
195
330
1F
100
AcDbEntity
  8
0
  6
Continuous
 62
     7
370
    25
100
AcDbLine
 10
32.0804579443
 20
36.36173489
 30
0.0
 11
32.0804579443
 21
35.36173489
 31
0.0
  0
LINE
  5
196
330
1F
100
AcDbEntity
  8
0
  6
Continuous
 62
     7
370
    25
100
AcDbLine
 10
33.0804579443
 20
35.36173489
 30
0.0
 11
33.0804579443
 21
36.36173489
 31
0.0
  0
LINE
  5
197
330
1F
100
AcDbEntity
  8
0
  6
Continuous
 62
     7
370
    25
100
AcDbLine
 10
28.6730465252
 20
29.9798372709
 30
0.0
 11
28.7003731908
 21
29.9525106054
 31
0.0
  0
LINE
  5
198
330
1F
100
AcDbEntity
  8
0
  6
Continuous
 62
     7
370
    25
100
AcDbLine
 10
28.9209905065
 20
30.1731279211
 30
0.0
 11
28.8936651617
 21
30.2004532659
 31
0.0
  0
LINE
  5
199
330
1F
100
AcDbEntity
  8
0
  6
Continuous
 62
     7
370
    25
100
AcDbLine
 10
28.7003731908
 20
29.9525106054
 30
0.0
 11
28.7115267415
 21
29.9495220204
 31
0.0
  0
LINE
  5
19A
330
1F
100
AcDbEntity
  8
0
  6
Continuous
 62
     7
370
    25
100
AcDbLine
 10
28.9239790914
 20
30.1619743704
 30
0.0
 11
28.9209905065
 21
30.1731279211
 31
0.0
  0
LINE
  5
19B
330
1F
100
AcDbEntity
  8
0
  6
Continuous
 62
     7
370
    25
100
AcDbLine
 10
28.7037729248
 20
29.3706975243
 30
0.0
 11
28.7037729248
 21
29.4131239312
 31
0.0
  0
LINE
  5
19C
330
1F
100
AcDbEntity
  8
0
  6
Continuous
 62
     7
370
    25
100
AcDbLine
 10
27.1764222774
 20
30.9404745785
 30
0.0
 11
27.1339958706
 21
30.9404745785
 31
0.0
  0
LINE
  5
19D
330
1F
100
AcDbEntity
  8
0
  6
Continuous
 62
     7
370
    25
100
AcDbLine
 10
27.1339958706
 20
30.9404745785
 30
0.0
 11
25.8293838593
 21
29.6358625672
 31
0.0
  0
LINE
  5
19E
330
1F
100
AcDbEntity
  8
0
  6
Continuous
 62
     7
370
    25
100
AcDbLine
 10
27.3991609135
 20
28.066085513
 30
0.0
 11
28.7037729248
 21
29.3706975243
 31
0.0
  0
ARC
  5
19F
330
1F
100
AcDbEntity
  8
0
  6
Continuous
 62
     7
370
    25
100
AcDbCircle
 10
27.3920898457
 20
28.0731565808
 30
0.0
 40
0.010000000000001
100
AcDbArc
 50
225.0
 51
315.0
  0
ARC
  5
1A0
330
1F
100
AcDbEntity
  8
0
  6
Continuous
 62
     7
370
    25
100
AcDbCircle
 10
25.8364549271
 20
29.6287914994
 30
0.0
 40
0.0100000000000035
100
AcDbArc
 50
135.0
 51
225.0
  0
LINE
  5
1A1
330
1F
100
AcDbEntity
  8
0
  6
Continuous
 62
     7
370
    25
100
AcDbLine
 10
28.73559273
 20
30.8379440953
 30
0.0
 11
28.6684175857
 21
30.9051192395
 31
0.0
  0
ARC
  5
1A2
330
1F
100
AcDbEntity
  8
0
  6
Continuous
 62
     7
370
    25
100
AcDbCircle
 10
28.3183997291
 20
30.5551013828
 30
0.0
 40
0.4949999999999998
100
AcDbArc
 50
45.0
 51
135.0
  0
LINE
  5
1A3
330
1F
100
AcDbEntity
  8
0
  6
Continuous
 62
     7
370
    25
100
AcDbLine
 10
27.9683818724
 20
30.9051192395
 30
0.0
 11
27.5900797444
 21
30.5268171115
 31
0.0
  0
ARC
  5
1A4
330
1F
100
AcDbEntity
  8
0
  6
Continuous
 62
     7
370
    25
100
AcDbCircle
 10
30.0752611161
 20
32.5342985234
 30
0.0
 40
0.0100000000000043
100
AcDbArc
 50
42.0
 51
132.0
  0
ARC
  5
1A5
330
1F
100
AcDbEntity
  8
0
  6
Continuous
 62
     7
370
    25
100
AcDbCircle
 10
30.7243178043
 20
31.8134480427
 30
0.0
 40
0.0100000000000014
100
AcDbArc
 50
312.0
 51
42.0
  0
LINE
  5
1A6
330
1F
100
AcDbEntity
  8
0
  6
Continuous
 62
     7
370
    25
100
AcDbLine
 10
29.3413282867
 20
30.5547423605
 30
0.0
 11
30.7310091104
 21
31.8060165944
 31
0.0
  0
LINE
  5
1A7
330
1F
100
AcDbEntity
  8
0
  6
Continuous
 62
     7
370
    25
100
AcDbLine
 10
30.0685698101
 20
32.5417299716
 30
0.0
 11
28.6788889864
 21
31.2904557377
 31
0.0
  0
LINE
  5
1A8
330
1F
100
AcDbEntity
  8
0
  6
Continuous
 62
     7
370
    25
100
AcDbLine
 10
28.9193379094
 20
30.1747805181
 30
0.0
 11
29.3413282867
 21
30.5547423605
 31
0.0
  0
LINE
  5
1A9
330
1F
100
AcDbEntity
  8
0
  6
Continuous
 62
     7
370
    25
100
AcDbLine
 10
28.6788889864
 20
31.2904557377
 30
0.0
 11
28.4037203657
 21
31.0426927988
 31
0.0
  0
LINE
  5
1AA
330
1F
100
AcDbEntity
  8
0
  6
Continuous
 62
     7
370
    25
100
AcDbLine
 10
28.8664009345
 20
30.7016299274
 30
0.0
 11
28.8667453107
 21
30.7082010156
 31
0.0
  0
LINE
  5
1AB
330
1F
100
AcDbEntity
  8
0
  6
Continuous
 62
     7
370
    25
100
AcDbLine
 10
28.7818995498
 20
30.8024317795
 30
0.0
 11
28.7753284615
 21
30.8027761556
 31
0.0
  0
LINE
  5
1AC
330
1F
100
AcDbEntity
  8
0
  6
Continuous
 62
     7
370
    25
100
AcDbLine
 10
32.0828433995
 20
36.6025203452
 30
0.0
 11
32.0804579443
 21
36.60013489
 31
0.0
  0
LINE
  5
1AD
330
1F
100
AcDbEntity
  8
0
  6
Continuous
 62
     7
370
    25
100
AcDbLine
 10
32.0804579443
 20
36.47333489
 30
0.0
 11
32.082801272
 21
36.4709915623
 31
0.0
  0
LINE
  5
1AE
330
1F
100
AcDbEntity
  8
0
  6
Continuous
 62
     7
370
    25
100
AcDbLine
 10
31.2096724891
 20
37.3441203452
 30
0.0
 11
31.2120579443
 21
37.34173489
 31
0.0
  0
LINE
  5
1AF
330
1F
100
AcDbEntity
  8
0
  6
Continuous
 62
     7
370
    25
100
AcDbLine
 10
31.3388579443
 20
37.34173489
 30
0.0
 11
31.341201272
 21
37.3440782176
 31
0.0
  0
LINE
  5
1B0
330
1F
100
AcDbEntity
  8
0
  6
Continuous
 62
     7
370
    25
100
AcDbLine
 10
24.036868169
 20
24.7037927685
 30
0.0
 11
24.036868169
 21
27.8433468769
 31
0.0
  0
SPLINE
  5
1B1
330
1F
100
AcDbEntity
  8
0
  6
Continuous
 62
     7
370
    25
100
AcDbSpline
210
0.0
220
0.0
230
1.0
 70
     8
 71
     3
 72
    17
 73
    13
 74
     0
 42
0.00000001
 43
0.00000001
 40
0.0
 40
0.0
 40
0.0
 40
0.0
 40
0.0367829129270595
 40
0.1439469936102788
 40
0.2511849014537637
 40
0.3585983106853617
 40
0.4660155695098068
 40
0.573258129168965
 40
0.6804203613538542
 40
0.7877217257819807
 40
0.8951646959146937
 40
1.0
 40
1.0
 40
1.0
 40
1.0
 10
24.65500984069043
 20
28.46141400719197
 30
0.0
 10
24.65516801191997
 20
28.46159259108889
 30
0.0
 10
24.65578700240103
 20
28.46229146491436
 30
0.0
 10
24.65161087993457
 20
28.45757124701969
 30
0.0
 10
24.64283209296078
 20
28.44783379113235
 30
0.0
 10
24.62980484293976
 20
28.43380582268014
 30
0.0
 10
24.6142675924261
 20
28.41771885209362
 30
0.0
 10
24.59779272077909
 20
28.40137157961738
 30
0.0
 10
24.58224810889777
 20
28.38658232121114
 30
0.0
 10
24.56962665547698
 20
28.37499620111798
 30
0.0
 10
24.56103659217212
 20
28.36732382967273
 30
0.0
 10
24.55999877796825
 20
28.36640920027509
 30
0.0
 10
24.55948624521827
 20
28.36595750331563
 30
0.0
  0
SPLINE
  5
1B2
330
1F
100
AcDbEntity
  8
0
  6
Continuous
 62
     7
370
    25
100
AcDbSpline
210
0.0
220
0.0
230
1.0
 70
     8
 71
     3
 72
    17
 73
    13
 74
     0
 42
0.00000001
 43
0.00000001
 40
0.0
 40
0.0
 40
0.0
 40
0.0
 40
0.0367829129270527
 40
0.1439469936102825
 40
0.2511849014537509
 40
0.3585983106853368
 40
0.466015569509824
 40
0.5732581291689245
 40
0.680420361353841
 40
0.7877217257819913
 40
0.8951646959147024
 40
1.0
 40
1.0
 40
1.0
 40
1.0
 10
25.69304259547229
 20
29.49944676197381
 30
0.0
 10
25.69320076670183
 20
29.49962534587074
 30
0.0
 10
25.69381975718291
 20
29.5003242196962
 30
0.0
 10
25.6896436347164
 20
29.49560400180155
 30
0.0
 10
25.68086484774265
 20
29.4858665459142
 30
0.0
 10
25.66783759772163
 20
29.47183857746198
 30
0.0
 10
25.65230034720795
 20
29.45575160687548
 30
0.0
 10
25.63582547556097
 20
29.43940433439921
 30
0.0
 10
25.62028086367962
 20
29.424615075993
 30
0.0
 10
25.60765941025884
 20
29.41302895589982
 30
0.0
 10
25.59906934695397
 20
29.40535658445458
 30
0.0
 10
25.59803153275011
 20
29.40444195505695
 30
0.0
 10
25.59751900000012
 20
29.40399025809747
 30
0.0
  0
SPLINE
  5
1B3
330
1F
100
AcDbEntity
  8
0
  6
Continuous
 62
     7
370
    25
100
AcDbSpline
210
0.0
220
0.0
230
1.0
 70
    11
 71
     3
 72
    26
 73
    22
 74
     0
 42
0.00000001
 43
0.00000001
 40
0.0
 40
0.0
 40
0.0
 40
0.0
 40
0.0536200607839473
 40
0.107237682253036
 40
0.1609185883661114
 40
0.2146408563604137
 40
0.2682944511770241
 40
0.3218767096526442
 40
0.3754958818586758
 40
0.4292028051159867
 40
0.48291165317759
 40
0.5365331513009066
 40
0.5901144855235907
 40
0.6437653861511446
 40
0.6974870899191749
 40
0.7511704282073666
 40
0.8047662990509776
 40
0.8583618717573623
 40
0.912044624425264
 40
0.9657664953707781
 40
1.0
 40
1.0
 40
1.0
 40
1.0
 10
26.78049045868718
 20
28.31706044161617
 30
0.0
 10
26.78636794348213
 20
28.32198539062659
 30
0.0
 10
26.7981226456901
 20
28.33183506459881
 30
0.0
 10
26.81989894343704
 20
28.33881962532659
 30
0.0
 10
26.84165885887375
 20
28.33895082029932
 30
0.0
 10
26.86130851123522
 20
28.3318408336014
 30
0.0
 10
26.87643437639765
 20
28.31847340558715
 30
0.0
 10
26.88536056154195
 20
28.30035171329311
 30
0.0
 10
26.88713882206932
 20
28.27946798782821
 30
0.0
 10
26.88164150172267
 20
28.25806741177827
 30
0.0
 10
26.86955377726045
 20
28.23849191914312
 30
0.0
 10
26.85230007509818
 20
28.22292210375808
 30
0.0
 10
26.83182402660979
 20
28.21310867749926
 30
0.0
 10
26.81034620810449
 20
28.21020244301958
 30
0.0
 10
26.79018884027825
 20
28.21463090819974
 30
0.0
 10
26.7735714003992
 20
28.22597659080814
 30
0.0
 10
26.76235237992488
 20
28.24296008501926
 30
0.0
 10
26.75778147031514
 20
28.26366463491327
 30
0.0
 10
26.76052891007023
 20
28.28561246543213
 30
0.0
 10
26.76892534944189
 20
28.30408975656681
 30
0.0
 10
26.77725027660003
 20
28.31342646112678
 30
0.0
 10
26.78049045868718
 20
28.31706044161617
 30
0.0
  0
LINE
  5
1B4
330
1F
100
AcDbEntity
  8
0
  6
Continuous
 62
     7
370
    25
100
AcDbLine
 10
27.3920898457
 20
28.0590144452
 30
0.0
 11
25.8223127915
 21
29.6287914994
 31
0.0
  0
SPLINE
  5
1B5
330
1F
100
AcDbEntity
  8
0
  6
Continuous
 62
     7
370
    25
100
AcDbSpline
210
0.0
220
0.0
230
1.0
 70
     8
 71
     3
 72
    15
 73
    11
 74
     0
 42
0.00000001
 43
0.00000001
 40
0.0
 40
0.0
 40
0.0
 40
0.0
 40
0.057128359892388
 40
0.1925219633371504
 40
0.3281704236234366
 40
0.4638248310067146
 40
0.5992255089659104
 40
0.7345092128641227
 40
0.8699947893296993
 40
1.0
 40
1.0
 40
1.0
 40
1.0
 10
26.76361445440737
 20
28.24360870694677
 30
0.0
 10
26.76605661777663
 20
28.24225051250803
 30
0.0
 10
26.77428668227569
 20
28.23767341174
 30
0.0
 10
26.79165866005052
 20
28.23720509915074
 30
0.0
 10
26.81286831904012
 20
28.24239618897867
 30
0.0
 10
26.83247464728945
 20
28.25457003999517
 30
0.0
 10
26.84806839414397
 20
28.27180810713769
 30
0.0
 10
26.85778695028696
 20
28.29221371777485
 30
0.0
 10
26.86111023654464
 20
28.31357490838119
 30
0.0
 10
26.85730012512559
 20
28.32624233961268
 30
0.0
 10
26.85543439432922
 20
28.33244531216652
 30
0.0
  0
LINE
  5
1B6
330
1F
100
AcDbEntity
  8
0
  6
Continuous
 62
     7
370
    25
100
AcDbLine
 10
11.1874579443
 20
35.7984145464
 30
0.0
 11
11.1874579443
 21
35.6424145464
 31
0.0
  0
LINE
  5
1B7
330
1F
100
AcDbEntity
  8
0
  6
Continuous
 62
     7
370
    25
100
AcDbLine
 10
11.1154579443
 20
35.8764145464
 30
0.0
 11
11.1154579443
 21
35.5644145464
 31
0.0
  0
LINE
  5
1B8
330
1F
100
AcDbEntity
  8
0
  6
Continuous
 62
     7
370
    25
100
AcDbLine
 10
11.1004579443
 20
35.7374403395
 30
0.0
 11
11.1004579443
 21
35.5644145464
 31
0.0
  0
LINE
  5
1B9
330
1F
100
AcDbEntity
  8
0
  6
Continuous
 62
     7
370
    25
100
AcDbLine
 10
10.8160879443
 20
35.7838145464
 30
0.0
 11
10.8160879443
 21
35.6570145464
 31
0.0
  0
LINE
  5
1BA
330
1F
100
AcDbEntity
  8
0
  6
Continuous
 62
     7
370
    25
100
AcDbLine
 10
10.8045029833
 20
35.6404695074
 30
0.0
 11
10.8045029833
 21
35.8003595854
 31
0.0
  0
LINE
  5
1BB
330
1F
100
AcDbEntity
  8
0
  6
Continuous
 62
     7
370
    25
100
AcDbLine
 10
10.7879579443
 20
35.7838145464
 30
0.0
 11
10.7879579443
 21
35.6570145464
 31
0.0
  0
LINE
  5
1BC
330
1F
100
AcDbEntity
  8
0
  6
Continuous
 62
     7
370
    25
100
AcDbLine
 10
11.1004579443
 20
40.1190552335
 30
0.0
 11
11.1004579443
 21
39.9460294404
 31
0.0
  0
LINE
  5
1BD
330
1F
100
AcDbEntity
  8
0
  6
Continuous
 62
     7
370
    25
100
AcDbLine
 10
11.1154579443
 20
40.1190552335
 30
0.0
 11
11.1154579443
 21
39.8070552335
 31
0.0
  0
LINE
  5
1BE
330
1F
100
AcDbEntity
  8
0
  6
Continuous
 62
     7
370
    25
100
AcDbLine
 10
11.1874579443
 20
40.0410552335
 30
0.0
 11
11.1874579443
 21
39.8850552335
 31
0.0
  0
LINE
  5
1BF
330
1F
100
AcDbEntity
  8
0
  6
Continuous
 62
     7
370
    25
100
AcDbLine
 10
10.8160879443
 20
40.0264552335
 30
0.0
 11
10.8160879443
 21
39.8996552335
 31
0.0
  0
LINE
  5
1C0
330
1F
100
AcDbEntity
  8
0
  6
Continuous
 62
     7
370
    25
100
AcDbLine
 10
10.8045029833
 20
39.8831101945
 30
0.0
 11
10.8045029833
 21
40.0430002725
 31
0.0
  0
LINE
  5
1C1
330
1F
100
AcDbEntity
  8
0
  6
Continuous
 62
     7
370
    25
100
AcDbLine
 10
10.7879579443
 20
40.0264552335
 30
0.0
 11
10.7879579443
 21
39.8996552335
 31
0.0
  0
LINE
  5
1C2
330
1F
100
AcDbEntity
  8
0
  6
Continuous
 62
     7
370
    25
100
AcDbLine
 10
10.8224579443
 20
40.1221542593
 30
0.0
 11
10.8224579443
 21
41.06673489
 31
0.0
  0
LINE
  5
1C3
330
1F
100
AcDbEntity
  8
0
  6
Continuous
 62
     7
370
    25
100
AcDbLine
 10
10.8224579443
 20
34.61673489
 30
0.0
 11
10.8224579443
 21
40.1221542593
 31
0.0
  0
LINE
  5
1C4
330
1F
100
AcDbEntity
  8
0
  6
Continuous
 62
     7
370
    25
100
AcDbLine
 10
11.1004579443
 20
40.1190552335
 30
0.0
 11
11.1004579443
 21
40.94173489
 31
0.0
  0
LINE
  5
1C5
330
1F
100
AcDbEntity
  8
0
  6
Continuous
 62
     7
370
    25
100
AcDbLine
 10
11.1004579443
 20
34.74173489
 30
0.0
 11
11.1004579443
 21
35.5644145464
 31
0.0
  0
LINE
  5
1C6
330
1F
100
AcDbEntity
  8
0
  6
Continuous
 62
     7
370
    25
100
AcDbLine
 10
11.1004579443
 20
35.7374403395
 30
0.0
 11
11.1004579443
 21
39.9460294404
 31
0.0
  0
LINE
  5
1C7
330
1F
100
AcDbEntity
  8
0
  6
Continuous
 62
     7
370
    25
100
AcDbLine
 10
13.1004579443
 20
38.9377504008
 30
0.0
 11
13.1004579443
 21
39.39173489
 31
0.0
  0
LINE
  5
1C8
330
1F
100
AcDbEntity
  8
0
  6
Continuous
 62
     7
370
    25
100
AcDbLine
 10
13.1004579443
 20
36.29173489
 30
0.0
 11
13.1004579443
 21
38.9377504008
 31
0.0
  0
LINE
  5
1C9
330
1F
100
AcDbEntity
  8
0
  6
Continuous
 62
     7
370
    25
100
AcDbLine
 10
31.1004579443
 20
37.84173489
 30
0.0
 11
31.1004579443
 21
38.34173489
 31
0.0
  0
LINE
  5
1CA
330
1F
100
AcDbEntity
  8
0
  6
Continuous
 62
     7
370
    25
100
AcDbLine
 10
31.1004579443
 20
37.34173489
 30
0.0
 11
31.1004579443
 21
37.84173489
 31
0.0
  0
LINE
  5
1CB
330
1F
100
AcDbEntity
  8
0
  6
Continuous
 62
     7
370
    25
100
AcDbLine
 10
31.1004579443
 20
37.84173489
 30
0.0
 11
31.1934579443
 21
37.84173489
 31
0.0
  0
LINE
  5
1CC
330
1F
100
AcDbEntity
  8
0
  6
Continuous
 62
     7
370
    25
100
AcDbLine
 10
32.3304579443
 20
38.34173489
 30
0.0
 11
31.1004579443
 21
38.34173489
 31
0.0
  0
LINE
  5
1CD
330
1F
100
AcDbEntity
  8
0
  6
Continuous
 62
     7
370
    25
100
AcDbLine
 10
32.3304579443
 20
37.84173489
 30
0.0
 11
32.3304579443
 21
38.34173489
 31
0.0
  0
LINE
  5
1CE
330
1F
100
AcDbEntity
  8
0
  6
Continuous
 62
     7
370
    25
100
AcDbLine
 10
32.3304579443
 20
37.84173489
 30
0.0
 11
31.8304579443
 21
37.84173489
 31
0.0
  0
LINE
  5
1CF
330
1F
100
AcDbEntity
  8
0
  6
Continuous
 62
     7
370
    25
100
AcDbLine
 10
31.3574579443
 20
37.84173489
 30
0.0
 11
31.8304579443
 21
37.84173489
 31
0.0
  0
SPLINE
  5
1D0
330
1F
100
AcDbEntity
  8
0
  6
Continuous
 62
     7
370
    25
100
AcDbSpline
210
0.0
220
0.0
230
1.0
 70
     8
 71
     3
 72
    17
 73
    13
 74
     0
 42
0.00000001
 43
0.00000001
 40
0.0
 40
0.0
 40
0.0
 40
0.0
 40
0.1063946180160388
 40
0.2127555893101087
 40
0.3199938176750122
 40
0.4278579086555992
 40
0.5347523340569694
 40
0.6405907482997211
 40
0.7469337726868034
 40
0.8545476870951901
 40
0.9622333756770584
 40
1.0
 40
1.0
 40
1.0
 40
1.0
 10
31.19345794431106
 20
37.84173488995539
 30
0.0
 10
31.19435220435145
 20
37.85088723463279
 30
0.0
 10
31.19614044162736
 20
37.86918902960815
 30
0.0
 10
31.21006574076821
 20
37.89359294753405
 30
0.0
 10
31.23066851532003
 20
37.91230935729151
 30
0.0
 10
31.25658365928282
 20
37.92314952594386
 30
0.0
 10
31.28451504861056
 20
37.92478933823022
 30
0.0
 10
31.3112661810468
 20
37.91720037321222
 30
0.0
 10
31.33407917410067
 20
37.90128164675353
 30
0.0
 10
31.35039650302726
 20
37.87863195335935
 30
0.0
 10
31.35688743046449
 20
37.85742310032239
 30
0.0
 10
31.35734034521109
 20
37.84496867548103
 30
0.0
 10
31.35745794431105
 20
37.84173488995539
 30
0.0
  0
LINE
  5
1D1
330
1F
100
AcDbEntity
  8
0
  6
Continuous
 62
     7
370
    25
100
AcDbLine
 10
31.1004579443
 20
37.34173489
 30
0.0
 11
31.1934579443
 21
37.34173489
 31
0.0
  0
SPLINE
  5
1D2
330
1F
100
AcDbEntity
  8
0
  6
Continuous
 62
     7
370
    25
100
AcDbSpline
210
0.0
220
0.0
230
1.0
 70
     8
 71
     3
 72
    17
 73
    13
 74
     0
 42
0.00000001
 43
0.00000001
 40
0.0
 40
0.0
 40
0.0
 40
0.0
 40
0.1063946180160391
 40
0.2127555893101052
 40
0.319993817675009
 40
0.4278579086555961
 40
0.5347523340569668
 40
0.6405907482997268
 40
0.7469337726868024
 40
0.8545476870951895
 40
0.962233375677058
 40
1.0
 40
1.0
 40
1.0
 40
1.0
 10
31.35745794431105
 20
37.84173488995539
 30
0.0
 10
31.35656368427065
 20
37.83258254527798
 30
0.0
 10
31.35477544699475
 20
37.81428075030263
 30
0.0
 10
31.34085014785391
 20
37.78987683237673
 30
0.0
 10
31.32024737330209
 20
37.77116042261927
 30
0.0
 10
31.29433222933928
 20
37.76032025396692
 30
0.0
 10
31.26640084001156
 20
37.75868044168056
 30
0.0
 10
31.2396497075753
 20
37.76626940669856
 30
0.0
 10
31.21683671452145
 20
37.78218813315724
 30
0.0
 10
31.20051938559484
 20
37.80483782655142
 30
0.0
 10
31.19402845815764
 20
37.82604667958839
 30
0.0
 10
31.19357554341102
 20
37.83850110442975
 30
0.0
 10
31.19345794431106
 20
37.84173488995539
 30
0.0
  0
LINE
  5
1D3
330
1F
100
AcDbEntity
  8
0
  6
Continuous
 62
     7
370
    25
100
AcDbLine
 10
31.8304579443
 20
37.34173489
 30
0.0
 11
31.8304579443
 21
37.84173489
 31
0.0
  0
LINE
  5
1D4
330
1F
100
AcDbEntity
  8
0
  6
Continuous
 62
     7
370
    25
100
AcDbLine
 10
31.3574579443
 20
37.34173489
 30
0.0
 11
31.8304579443
 21
37.34173489
 31
0.0
  0
SPLINE
  5
1D5
330
1F
100
AcDbEntity
  8
0
  6
Continuous
 62
     7
370
    25
100
AcDbSpline
210
0.0
220
0.0
230
1.0
 70
     8
 71
     3
 72
    17
 73
    13
 74
     0
 42
0.00000001
 43
0.00000001
 40
0.0
 40
0.0
 40
0.0
 40
0.0
 40
0.1063946180160387
 40
0.2127555893101076
 40
0.3199938176750117
 40
0.4278579086555981
 40
0.5347523340569683
 40
0.6405907482997201
 40
0.7469337726868017
 40
0.85454768709519
 40
0.9622333756770574
 40
1.0
 40
1.0
 40
1.0
 40
1.0
 10
31.19345794431106
 20
37.34173488995539
 30
0.0
 10
31.19435220435146
 20
37.34188556948849
 30
0.0
 10
31.19614044162736
 20
37.3421868809031
 30
0.0
 10
31.21006574076822
 20
37.3442887838326
 30
0.0
 10
31.23066851532002
 20
37.34666039856182
 30
0.0
 10
31.25658365928282
 20
37.34840003055186
 30
0.0
 10
31.28451504861056
 20
37.34868226424391
 30
0.0
 10
31.3112661810468
 20
37.34741816080108
 30
0.0
 10
31.33407917410067
 20
37.34516264180267
 30
0.0
 10
31.35039650302726
 20
37.34289147191342
 30
0.0
 10
31.35688743046449
 20
37.34182795524384
 30
0.0
 10
31.35734034521109
 20
37.34175407335334
 30
0.0
 10
31.35745794431105
 20
37.34173488995539
 30
0.0
  0
ARC
  5
1D6
330
1F
100
AcDbEntity
  8
0
  6
Continuous
 62
     7
370
    25
100
AcDbCircle
 10
31.8304579443
 20
37.09173489
 30
0.0
 40
0.25
100
AcDbArc
 50
0.0
 51
90.0
  0
ARC
  5
1D7
330
1F
100
AcDbEntity
  8
0
  6
Continuous
 62
     7
370
    25
100
AcDbCircle
 10
31.8304579443
 20
37.09173489
 30
0.0
 40
0.75
100
AcDbArc
 50
0.0
 51
90.0
  0
LINE
  5
1D8
330
1F
100
AcDbEntity
  8
0
  6
Continuous
 62
     7
370
    25
100
AcDbLine
 10
32.0804579443
 20
37.09173489
 30
0.0
 11
32.5804579443
 21
37.09173489
 31
0.0
  0
LINE
  5
1D9
330
1F
100
AcDbEntity
  8
0
  6
Continuous
 62
     7
370
    25
100
AcDbLine
 10
32.5804579443
 20
37.09173489
 30
0.0
 11
32.5804579443
 21
37.59173489
 31
0.0
  0
ARC
  5
1DA
330
1F
100
AcDbEntity
  8
0
  6
Continuous
 62
     7
370
    25
100
AcDbCircle
 10
32.3304579443
 20
37.59173489
 30
0.0
 40
0.25
100
AcDbArc
 50
0.0
 51
90.0
  0
LINE
  5
1DB
330
1F
100
AcDbEntity
  8
0
  6
Continuous
 62
     7
370
    25
100
AcDbLine
 10
32.0804579443
 20
37.09173489
 30
0.0
 11
32.0804579443
 21
36.61873489
 31
0.0
  0
LINE
  5
1DC
330
1F
100
AcDbEntity
  8
0
  6
Continuous
 62
     7
370
    25
100
AcDbLine
 10
32.5804579443
 20
37.09173489
 30
0.0
 11
32.5804579443
 21
36.61873489
 31
0.0
  0
SPLINE
  5
1DD
330
1F
100
AcDbEntity
  8
0
  6
Continuous
 62
     7
370
    25
100
AcDbSpline
210
0.0
220
0.0
230
1.0
 70
     8
 71
     3
 72
    17
 73
    13
 74
     0
 42
0.00000001
 43
0.00000001
 40
0.0
 40
0.0
 40
0.0
 40
0.0
 40
0.1063946180160423
 40
0.2127555893101103
 40
0.3199938176750147
 40
0.4278579086555998
 40
0.5347523340569682
 40
0.6405907482997222
 40
0.7469337726868
 40
0.8545476870951914
 40
0.9622333756770582
 40
1.0
 40
1.0
 40
1.0
 40
1.0
 10
32.58045794431105
 20
36.45473488995539
 30
0.0
 10
32.57130559963365
 20
36.45562914999579
 30
0.0
 10
32.55300380465829
 20
36.4574173872717
 30
0.0
 10
32.52859988673239
 20
36.47134268641254
 30
0.0
 10
32.50988347697493
 20
36.49194546096436
 30
0.0
 10
32.49904330832259
 20
36.51786060492716
 30
0.0
 10
32.49740349603622
 20
36.54579199425488
 30
0.0
 10
32.50499246105423
 20
36.57254312669114
 30
0.0
 10
32.5209111875129
 20
36.59535611974499
 30
0.0
 10
32.54356088090709
 20
36.6116734486716
 30
0.0
 10
32.56476973394405
 20
36.61816437610883
 30
0.0
 10
32.57722415878541
 20
36.61861729085543
 30
0.0
 10
32.58045794431105
 20
36.61873488995539
 30
0.0
  0
LINE
  5
1DE
330
1F
100
AcDbEntity
  8
0
  6
Continuous
 62
     7
370
    25
100
AcDbLine
 10
32.5804579443
 20
36.45473489
 30
0.0
 11
32.5804579443
 21
36.36173489
 31
0.0
  0
LINE
  5
1DF
330
1F
100
AcDbEntity
  8
0
  6
Continuous
 62
     7
370
    25
100
AcDbLine
 10
32.5804579443
 20
36.36173489
 30
0.0
 11
32.0804579443
 21
36.36173489
 31
0.0
  0
LINE
  5
1E0
330
1F
100
AcDbEntity
  8
0
  6
Continuous
 62
     7
370
    25
100
AcDbLine
 10
32.0804579443
 20
36.45473489
 30
0.0
 11
32.0804579443
 21
36.36173489
 31
0.0
  0
SPLINE
  5
1E1
330
1F
100
AcDbEntity
  8
0
  6
Continuous
 62
     7
370
    25
100
AcDbSpline
210
0.0
220
0.0
230
1.0
 70
     8
 71
     3
 72
    17
 73
    13
 74
     0
 42
0.00000001
 43
0.00000001
 40
0.0
 40
0.0
 40
0.0
 40
0.0
 40
0.1063946180160388
 40
0.212755589310108
 40
0.3199938176750147
 40
0.4278579086555993
 40
0.5347523340569696
 40
0.6405907482997236
 40
0.746933772686801
 40
0.8545476870951912
 40
0.962233375677058
 40
1.0
 40
1.0
 40
1.0
 40
1.0
 10
32.08045794431106
 20
36.61873488995539
 30
0.0
 10
32.08060862384416
 20
36.61784062991499
 30
0.0
 10
32.08090993525876
 20
36.61605239263909
 30
0.0
 10
32.08301183818828
 20
36.60212709349823
 30
0.0
 10
32.08538345291749
 20
36.58152431894642
 30
0.0
 10
32.08712308490753
 20
36.55560917498362
 30
0.0
 10
32.08740531859958
 20
36.52767778565589
 30
0.0
 10
32.08614121515674
 20
36.50092665321964
 30
0.0
 10
32.08388569615834
 20
36.47811366016579
 30
0.0
 10
32.0816145262691
 20
36.46179633123918
 30
0.0
 10
32.0805510095995
 20
36.45530540380196
 30
0.0
 10
32.08047712770902
 20
36.45485248905535
 30
0.0
 10
32.08045794431106
 20
36.45473488995539
 30
0.0
  0
ARC
  5
1E2
330
1F
100
AcDbEntity
  8
0
  6
Continuous
 62
     7
370
    25
100
AcDbCircle
 10
32.3304579443
 20
37.59173489
 30
0.0
 40
0.75
100
AcDbArc
 50
0.0
 51
90.0
  0
LINE
  5
1E3
330
1F
100
AcDbEntity
  8
0
  6
Continuous
 62
     7
370
    25
100
AcDbLine
 10
32.5804579443
 20
37.59173489
 30
0.0
 11
33.0804579443
 21
37.59173489
 31
0.0
  0
LINE
  5
1E4
330
1F
100
AcDbEntity
  8
0
  6
Continuous
 62
     7
370
    25
100
AcDbLine
 10
33.0804579443
 20
36.36173489
 30
0.0
 11
33.0804579443
 21
37.59173489
 31
0.0
  0
SPLINE
  5
1E5
330
1F
100
AcDbEntity
  8
0
  6
Continuous
 62
     7
370
    25
100
AcDbSpline
210
0.0
220
0.0
230
1.0
 70
     8
 71
     3
 72
    17
 73
    13
 74
     0
 42
0.00000001
 43
0.00000001
 40
0.0
 40
0.0
 40
0.0
 40
0.0
 40
0.1063946180160355
 40
0.2127555893101068
 40
0.3199938176750128
 40
0.4278579086555994
 40
0.5347523340569703
 40
0.6405907482997248
 40
0.7469337726868042
 40
0.8545476870951908
 40
0.9622333756770579
 40
1.0
 40
1.0
 40
1.0
 40
1.0
 10
32.58045794431106
 20
36.61873488995539
 30
0.0
 10
32.58961028898847
 20
36.61784062991499
 30
0.0
 10
32.60791208396383
 20
36.61605239263909
 30
0.0
 10
32.63231600188971
 20
36.60212709349823
 30
0.0
 10
32.65103241164718
 20
36.58152431894642
 30
0.0
 10
32.66187258029951
 20
36.55560917498362
 30
0.0
 10
32.66351239258589
 20
36.52767778565589
 30
0.0
 10
32.65592342756788
 20
36.50092665321964
 30
0.0
 10
32.64000470110921
 20
36.47811366016579
 30
0.0
 10
32.61735500771502
 20
36.46179633123918
 30
0.0
 10
32.59614615467806
 20
36.45530540380196
 30
0.0
 10
32.58369172983669
 20
36.45485248905535
 30
0.0
 10
32.58045794431105
 20
36.45473488995539
 30
0.0
  0
LINE
  5
1E6
330
1F
100
AcDbEntity
  8
0
  6
Continuous
 62
     7
370
    25
100
AcDbLine
 10
33.0804579443
 20
36.36173489
 30
0.0
 11
32.5804579443
 21
36.36173489
 31
0.0
  0
LINE
  5
1E7
330
1F
100
AcDbEntity
  8
0
  6
Continuous
 62
     7
370
    25
100
AcDbLine
 10
32.0804579443
 20
36.45473489
 30
0.0
 11
32.0806313762
 21
36.4558217947
 31
0.0
  0
LINE
  5
1E8
330
1F
100
AcDbEntity
  8
0
  6
Continuous
 62
     7
370
    25
100
AcDbLine
 10
30.0726556053
 20
32.5521370018
 30
0.0
 11
30.7417862117
 21
31.8089921763
 31
0.0
  0
SPLINE
  5
1E9
330
1F
100
AcDbEntity
  8
0
  6
Continuous
 62
     7
370
    25
100
AcDbSpline
210
0.0
220
0.0
230
1.0
 70
    11
 71
     3
 72
    26
 73
    22
 74
     0
 42
0.00000001
 43
0.00000001
 40
0.0
 40
0.0
 40
0.0
 40
0.0
 40
0.0537251758594296
 40
0.1074609857093998
 40
0.1608938846952783
 40
0.2140522071505185
 40
0.2674739592245817
 40
0.3212955354288893
 40
0.3750323900123293
 40
0.4283227200322514
 40
0.4815049073880134
 40
0.5350819083788179
 40
0.588944060063312
 40
0.6425388798048087
 40
0.6957355291567224
 40
0.7490160057716656
 40
0.8027316091568559
 40
0.856565693439546
 40
0.9100061417794908
 40
0.9631563476588266
 40
1.0
 40
1.0
 40
1.0
 40
1.0
 10
30.56996962526593
 20
32.39510419187509
 30
0.0
 10
30.57761177680028
 20
32.39435378607508
 30
0.0
 10
30.59289759250371
 20
32.39285282594491
 30
0.0
 10
30.61324018616803
 20
32.38114289253563
 30
0.0
 10
30.62866856358643
 20
32.36393912244284
 30
0.0
 10
30.63750575857123
 20
32.34254704751746
 30
0.0
 10
30.63884110181898
 20
32.31945724304616
 30
0.0
 10
30.63245177041988
 20
32.29711318230414
 30
0.0
 10
30.61900061307166
 20
32.27813343251035
 30
0.0
 10
30.60010494366409
 20
32.26471980984591
 30
0.0
 10
30.57791520540937
 20
32.25827763546548
 30
0.0
 10
30.55477933493941
 20
32.25948887657354
 30
0.0
 10
30.53325927195858
 20
32.26831889350445
 30
0.0
 10
30.51589816257788
 20
32.28377254936783
 30
0.0
 10
30.50465596224105
 20
32.30399863037324
 30
0.0
 10
30.50068174669557
 20
32.32677086467623
 30
0.0
 10
30.50443990184387
 20
32.34966098088282
 30
0.0
 10
30.51560499802899
 20
32.37010441573878
 30
0.0
 10
30.53285050820694
 20
32.38553625074708
 30
0.0
 10
30.55197782053021
 20
32.39387490862057
 30
0.0
 10
30.56474338110727
 20
32.39474711071939
 30
0.0
 10
30.56996962526593
 20
32.39510419187509
 30
0.0
  0
LINE
  5
1EA
330
1F
100
AcDbEntity
  8
0
  6
Continuous
 62
     7
370
    25
100
AcDbLine
 10
32.0804579443
 20
36.36173489
 30
0.0
 11
33.0804579443
 21
36.36173489
 31
0.0
  0
SPLINE
  5
1EB
330
1F
100
AcDbEntity
  8
0
  6
Continuous
 62
     7
370
    25
100
AcDbSpline
210
0.0
220
0.0
230
1.0
 70
    11
 71
     3
 72
    26
 73
    22
 74
     0
 42
0.00000001
 43
0.00000001
 40
0.0
 40
0.0
 40
0.0
 40
0.0
 40
0.0533523293338618
 40
0.1066929484900626
 40
0.1603384707460851
 40
0.2141954494453042
 40
0.2677171366855054
 40
0.3208792056823304
 40
0.3742182572953174
 40
0.4279931446423997
 40
0.4817867193100491
 40
0.5351555990550553
 40
0.5883193806807318
 40
0.6418074525900637
 40
0.6956547967512755
 40
0.7493347445872661
 40
0.8025744086015796
 40
0.855790897261286
 40
0.9094334248801227
 40
0.9632905742426436
 40
1.0
 40
1.0
 40
1.0
 40
1.0
 10
32.58045794431106
 20
36.21073488995539
 30
0.0
 10
32.57285060150897
 20
36.20999013203189
 30
0.0
 10
32.55763758562262
 20
36.20850077965007
 30
0.0
 10
32.53736403543812
 20
36.19689904505819
 30
0.0
 10
32.52185781808901
 20
36.17975866586875
 30
0.0
 10
32.51291290408321
 20
36.15824785408056
 30
0.0
 10
32.51159493359305
 20
36.13506602911473
 30
0.0
 10
32.51796394050258
 20
36.11283169435873
 30
0.0
 10
32.53127442572868
 20
36.0939261473361
 30
0.0
 10
32.55015246484471
 20
36.0804056901348
 30
0.0
 10
32.57249229361321
 20
36.07389339150052
 30
0.0
 10
32.59565271375057
 20
36.07513759635862
 30
0.0
 10
32.61703906146608
 20
36.08389786830868
 30
0.0
 10
32.63439075788646
 20
36.09922192705707
 30
0.0
 10
32.64575555997867
 20
36.11950342259153
 30
0.0
 10
32.64975230935256
 20
36.14241496910132
 30
0.0
 10
32.64597458100766
 20
36.16525510646407
 30
0.0
 10
32.6349256637329
 20
36.18557589633669
 30
0.0
 10
32.6177687450411
 20
36.20106409019889
 30
0.0
 10
32.59855291729226
 20
36.20949807656638
 30
0.0
 10
32.58567696488569
 20
36.21037816355791
 30
0.0
 10
32.58045794431106
 20
36.21073488995539
 30
0.0
  0
SPLINE
  5
1EC
330
1F
100
AcDbEntity
  8
0
  6
Continuous
 62
     7
370
    25
100
AcDbSpline
210
0.0
220
0.0
230
1.0
 70
    24
 71
     3
 72
    27
 73
    23
 74
     0
 42
0.00000001
 43
0.00000001
 40
0.0
 40
0.0
 40
0.0
 40
0.0
 40
0.0038653711137698
 40
0.0665525915527714
 40
0.1298617902590839
 40
0.1825862866337599
 40
0.2353107677497666
 40
0.2895671527316004
 40
0.3438235331375177
 40
0.3965452651041499
 40
0.4492669956788955
 40
0.5035207990048519
 40
0.5577746016740959
 40
0.6104898591735901
 40
0.6632051163918146
 40
0.7174519185865905
 40
0.7716987206191873
 40
0.8244131021715714
 40
0.8771274836521077
 40
0.9313733444526269
 40
0.9856192052250808
 40
1.0
 40
1.0
 40
1.0
 40
1.0
 10
28.38348393605155
 20
30.48583530135482
 30
0.0
 10
28.38418088317961
 20
30.48653224848288
 30
0.0
 10
28.39618067212165
 20
30.49853203742497
 30
0.0
 10
28.41965088290262
 20
30.5220022482059
 30
0.0
 10
28.45159933500205
 20
30.55395070030533
 30
0.0
 10
28.48121806996155
 20
30.58356943526483
 30
0.0
 10
28.50858355734059
 20
30.61093492264387
 30
0.0
 10
28.53533121411506
 20
30.63768257941835
 30
0.0
 10
28.56099918987525
 20
30.66335055517855
 30
0.0
 10
28.58517291214259
 20
30.68752427744588
 30
0.0
 10
28.60796162343428
 20
30.71031298873756
 30
0.0
 10
28.62937407226007
 20
30.73172543756336
 30
0.0
 10
28.6490286816607
 20
30.75138004696399
 30
0.0
 10
28.6666202985022
 20
30.76897166380548
 30
0.0
 10
28.68226180662849
 20
30.78461317193178
 30
0.0
 10
28.69592446081156
 20
30.79827582611484
 30
0.0
 10
28.70735118702247
 20
30.80970255232575
 30
0.0
 10
28.71637857845112
 20
30.8187299437544
 30
0.0
 10
28.72311681108905
 20
30.82546817639233
 30
0.0
 10
28.72747603431909
 20
30.82982739962237
 30
0.0
 10
28.72897984568673
 20
30.83133121099
 30
0.0
 10
28.72906773641176
 20
30.83141910171502
 30
0.0
 10
28.72908615401449
 20
30.83143751931776
 30
0.0
  0
ARC
  5
1ED
330
1F
100
AcDbEntity
  8
0
  6
Continuous
 62
     7
370
    25
100
AcDbCircle
 10
28.4527500175
 20
30.4207510944
 30
0.0
 40
0.4950000000000243
100
AcDbArc
 50
334.3387663409
 51
56.0648072756
  0
SPLINE
  5
1EE
330
1F
100
AcDbEntity
  8
0
  6
Continuous
 62
     7
370
    25
100
AcDbSpline
210
0.0
220
0.0
230
1.0
 70
     8
 71
     3
 72
    26
 73
    22
 74
     0
 42
0.00000001
 43
0.00000001
 40
0.0
 40
0.0
 40
0.0
 40
0.0
 40
0.0539912416452066
 40
0.1095477398288076
 40
0.1635464386882019
 40
0.2191111883683931
 40
0.2731082715134191
 40
0.3286714465747199
 40
0.3826654637138164
 40
0.4382254657579006
 40
0.4922168043310531
 40
0.54777396602908
 40
0.6017641553167057
 40
0.6573200205106562
 40
0.7113110745057769
 40
0.766867733828422
 40
0.8208613018860061
 40
0.8764205115546532
 40
0.9304171736009275
 40
0.9859796061490055
 40
1.0
 40
1.0
 40
1.0
 40
1.0
 10
28.66710942909888
 20
29.9745728310482
 30
0.0
 10
28.6676887801722
 20
29.97501219111913
 30
0.0
 10
28.66886427824772
 20
29.97590364871995
 30
0.0
 10
28.67471016205117
 20
29.98134099812782
 30
0.0
 10
28.68345949547862
 20
29.9897044300875
 30
0.0
 10
28.69500485920575
 20
30.00090453889582
 30
0.0
 10
28.70914710247833
 20
30.01474549853389
 30
0.0
 10
28.7252524552344
 20
30.03060732764489
 30
0.0
 10
28.74314931414408
 20
30.04832073561441
 30
0.0
 10
28.76201015793772
 20
30.06706654351484
 30
0.0
 10
28.78164049605037
 20
30.08665133062286
 30
0.0
 10
28.80113130952763
 20
30.10616814004954
 30
0.0
 10
28.82028197521557
 20
30.12541610373327
 30
0.0
 10
28.83820589474908
 20
30.1435042062373
 30
0.0
 10
28.85471824159445
 20
30.16024607615707
 30
0.0
 10
28.86905529326921
 20
30.17486754501814
 30
0.0
 10
28.881066635944
 20
30.1872154565819
 30
0.0
 10
28.89020528143929
 20
30.19672744830778
 30
0.0
 10
28.89634263593812
 20
30.20327115010691
 30
0.0
 10
28.89859315132182
 20
30.20583972581363
 30
0.0
 10
28.8988720790429
 20
30.20629911868051
 30
0.0
 10
28.89892828079135
 20
30.20639168274063
 30
0.0
  0
ARC
  5
1EF
330
1F
100
AcDbEntity
  8
0
  6
Continuous
 62
     7
370
    25
100
AcDbCircle
 10
28.4527500175
 20
30.4207510944
 30
0.0
 40
0.4950000000000019
100
AcDbArc
 50
213.9351927244
 51
295.6612336591
  0
CIRCLE
  5
1F0
330
1F
100
AcDbEntity
  8
0
  6
Continuous
 62
     7
370
    25
100
AcDbCircle
 10
28.4527500175
 20
30.4207510944
 30
0.0
 40
0.0001000000000018
  0
SPLINE
  5
1F1
330
1F
100
AcDbEntity
  8
0
  6
Continuous
 62
     7
370
    25
100
AcDbSpline
210
0.0
220
0.0
230
1.0
 70
     8
 71
     3
 72
    10
 73
     6
 74
     0
 42
0.00000001
 43
0.00000001
 40
0.0
 40
0.0
 40
0.0
 40
0.0
 40
0.4162759594216781
 40
0.9480670833613412
 40
1.0
 40
1.0
 40
1.0
 40
1.0
 10
28.66734775483678
 20
29.9746877359005
 30
0.0
 10
28.66752209525944
 20
29.97477514614348
 30
0.0
 10
28.66791915497977
 20
29.97497422267491
 30
0.0
 10
28.67090356777548
 20
29.97636610307561
 30
0.0
 10
28.67431265982761
 20
29.97811246451585
 30
0.0
 10
28.67461596084151
 20
29.97826783526777
 30
0.0
  0
SPLINE
  5
1F2
330
1F
100
AcDbEntity
  8
0
  6
Continuous
 62
     7
370
    25
100
AcDbSpline
210
0.0
220
0.0
230
1.0
 70
     8
 71
     3
 72
     9
 73
     5
 74
     0
 42
0.00000001
 43
0.00000001
 40
0.0
 40
0.0
 40
0.0
 40
0.0
 40
0.3640029451265881
 40
0.9999999999999999
 40
0.9999999999999999
 40
0.9999999999999999
 40
0.9999999999999999
 10
28.89522779185472
 20
30.19889063571497
 30
0.0
 10
28.89610842343187
 20
30.20065395409748
 30
0.0
 10
28.89852772137694
 20
30.20549819617328
 30
0.0
 10
28.89865708833335
 20
30.20580591516698
 30
0.0
 10
28.89873936533663
 20
30.2060016235407
 30
0.0
  0
LINE
  5
1F3
330
1F
100
AcDbEntity
  8
0
  6
Continuous
 62
     7
370
    25
100
AcDbLine
 10
28.7003731908
 20
29.9525106054
 30
0.0
 11
28.9209905065
 21
30.1731279211
 31
0.0
  0
LINE
  5
1F4
330
1F
100
AcDbEntity
  8
0
  6
Continuous
 62
     7
370
    25
100
AcDbLine
 10
28.7118133399
 20
29.9498086188
 30
0.0
 11
28.7115267415
 21
29.9495220204
 31
0.0
  0
LINE
  5
1F5
330
1F
100
AcDbEntity
  8
0
  6
Continuous
 62
     7
370
    25
100
AcDbLine
 10
28.9239790914
 20
30.1619743704
 30
0.0
 11
28.7118133399
 21
29.9498086188
 31
0.0
  0
LINE
  5
1F6
330
1F
100
AcDbEntity
  8
0
  6
Continuous
 62
     7
370
    25
100
AcDbLine
 10
27.9400976011
 20
30.1767992548
 30
0.0
 11
28.7037729248
 21
29.4131239312
 31
0.0
  0
LINE
  5
1F7
330
1F
100
AcDbEntity
  8
0
  6
Continuous
 62
     7
370
    25
100
AcDbLine
 10
27.1764222774
 20
30.9404745785
 30
0.0
 11
27.9400976011
 21
30.1767992548
 31
0.0
  0
LINE
  5
1F8
330
1F
100
AcDbEntity
  8
0
  6
Continuous
 62
     7
370
    25
100
AcDbLine
 10
27.9188843977
 20
30.1555860514
 30
0.0
 11
27.1339958706
 21
30.9404745785
 31
0.0
  0
LINE
  5
1F9
330
1F
100
AcDbEntity
  8
0
  6
Continuous
 62
     7
370
    25
100
AcDbLine
 10
28.7037729248
 20
29.3706975243
 30
0.0
 11
27.9188843977
 21
30.1555860514
 31
0.0
  0
LINE
  5
1FA
330
1F
100
AcDbEntity
  8
0
  6
Continuous
 62
     7
370
    25
100
AcDbLine
 10
28.73559273
 20
30.8379440953
 30
0.0
 11
28.3855748733
 21
30.4879262386
 31
0.0
  0
LINE
  5
1FB
330
1F
100
AcDbEntity
  8
0
  6
Continuous
 62
     7
370
    25
100
AcDbLine
 10
28.3855748733
 20
30.4879262386
 30
0.0
 11
28.3183997291
 21
30.5551013828
 31
0.0
  0
LINE
  5
1FC
330
1F
100
AcDbEntity
  8
0
  6
Continuous
 62
     7
370
    25
100
AcDbLine
 10
28.3183997291
 20
30.5551013828
 30
0.0
 11
27.9400976011
 21
30.1767992548
 31
0.0
  0
LINE
  5
1FD
330
1F
100
AcDbEntity
  8
0
  6
Continuous
 62
     7
370
    25
100
AcDbLine
 10
28.3855748733
 20
30.4879262386
 30
0.0
 11
28.0072727453
 21
30.1096241106
 31
0.0
  0
LINE
  5
1FE
330
1F
100
AcDbEntity
  8
0
  6
Continuous
 62
     7
370
    25
100
AcDbLine
 10
29.0101086366
 20
30.9225990491
 30
0.0
 11
28.6788889864
 21
31.2904557377
 31
0.0
  0
LINE
  5
1FF
330
1F
100
AcDbEntity
  8
0
  6
Continuous
 62
     7
370
    25
100
AcDbLine
 10
29.3413282867
 20
30.5547423605
 30
0.0
 11
29.0101086366
 21
30.9225990491
 31
0.0
  0
SPLINE
  5
200
330
1F
100
AcDbEntity
  8
0
  6
Continuous
 62
     7
370
    25
100
AcDbSpline
210
0.0
220
0.0
230
1.0
 70
    11
 71
     3
 72
    26
 73
    22
 74
     0
 42
0.00000001
 43
0.00000001
 40
0.0
 40
0.0
 40
0.0
 40
0.0
 40
0.0533455375821067
 40
0.1066791336644352
 40
0.1603236752580234
 40
0.2141841389387581
 40
0.2677025866826822
 40
0.3208539548152589
 40
0.3741857408194015
 40
0.4279622669902511
 40
0.4817581334405016
 40
0.5351208045735462
 40
0.5882740022293425
 40
0.6417576431742008
 40
0.6956081004572612
 40
0.7492883113784639
 40
0.802519119990142
 40
0.8557257189059176
 40
0.9093668498190275
 40
0.9632275429968258
 40
1.0
 40
1.0
 40
1.0
 40
1.0
 10
29.79932844124341
 20
31.63321575307439
 30
0.0
 10
29.79479202027928
 20
31.63936676917539
 30
0.0
 10
29.78572019383745
 20
31.65166742446077
 30
0.0
 10
29.78077559411325
 20
31.67449386414926
 30
0.0
 10
29.78313541109094
 20
31.69748522482279
 30
0.0
 10
29.79313375620771
 20
31.71852701784158
 30
0.0
 10
29.80947736325782
 20
31.73501891400245
 30
0.0
 10
29.83025861544944
 20
31.74516461481418
 30
0.0
 10
29.85321112963
 20
31.74792693934279
 30
0.0
 10
29.87589067439155
 20
31.74294968923183
 30
0.0
 10
29.8956809584533
 20
31.73070942748679
 30
0.0
 10
29.91025632005756
 20
31.71266934842983
 30
0.0
 10
29.91806060756757
 20
31.69091930435368
 30
0.0
 10
29.91829001015969
 20
31.66777323858913
 30
0.0
 10
29.91082952168881
 20
31.64575468490601
 30
0.0
 10
29.89648290143431
 20
31.62744956221087
 30
0.0
 10
29.8769873400003
 20
31.61496899893439
 30
0.0
 10
29.85449809578591
 20
31.60957514066196
 30
0.0
 10
29.83150885520089
 20
31.61195186438216
 30
0.0
 10
29.81237071125878
 20
31.62058427190987
 30
0.0
 10
29.80309276782184
 20
31.62956999047199
 30
0.0
 10
29.79932844124341
 20
31.63321575307439
 30
0.0
  0
LINE
  5
201
330
1F
100
AcDbEntity
  8
0
  6
Continuous
 62
     7
370
    25
100
AcDbLine
 10
29.3413282867
 20
30.5547423605
 30
0.0
 11
28.6788889864
 21
31.2904557377
 31
0.0
  0
LWPOLYLINE
  5
202
330
1F
100
AcDbEntity
  8
0
  6
Continuous
 62
     7
370
    25
100
AcDbPolyline
 90
        3
 70
   128
 43
0.0
 10
28.0811776047
 20
30.0861857912
 10
28.0563686696
 20
30.1159858944
 10
28.0384617793
 20
30.1408131446
  0
ARC
  5
203
330
1F
100
AcDbEntity
  8
0
  6
Continuous
 62
     7
370
    25
100
AcDbCircle
 10
28.4527500175
 20
30.4207510944
 30
0.0
 40
0.5000000000000014
100
AcDbArc
 50
333.1798011901
 51
55.9527841991
  0
ARC
  5
204
330
1F
100
AcDbEntity
  8
0
  6
Continuous
 62
     7
370
    25
100
AcDbCircle
 10
28.4527500175
 20
30.4207510944
 30
0.0
 40
0.5000000000000049
100
AcDbArc
 50
222.0
 51
296.8201988114
  0
LINE
  5
205
330
1F
100
AcDbEntity
  8
0
  6
Continuous
 62
     7
370
    25
100
AcDbLine
 10
29.8471791173
 20
31.6337633187
 30
0.0
 11
29.80958999
 21
31.6585636717
 31
0.0
  0
LINE
  5
206
330
1F
100
AcDbEntity
  8
0
  6
Continuous
 62
     7
370
    25
100
AcDbLine
 10
29.8471791173
 20
31.6337633187
 30
0.0
 11
29.8874514167
 21
31.6539162813
 31
0.0
  0
LINE
  5
207
330
1F
100
AcDbEntity
  8
0
  6
Continuous
 62
     7
370
    25
100
AcDbLine
 10
29.8901345888
 20
31.698869597
 30
0.0
 11
29.8874514167
 21
31.6539162813
 31
0.0
  0
LINE
  5
208
330
1F
100
AcDbEntity
  8
0
  6
Continuous
 62
     7
370
    25
100
AcDbLine
 10
29.8901345888
 20
31.698869597
 30
0.0
 11
29.8525454615
 21
31.72366995
 31
0.0
  0
CIRCLE
  5
209
330
1F
100
AcDbEntity
  8
0
  6
Continuous
 62
     7
370
    25
100
AcDbCircle
 10
29.8498622894
 20
31.6787166343
 30
0.0
 40
0.0633999999999919
  0
LINE
  5
20A
330
1F
100
AcDbEntity
  8
0
  6
Continuous
 62
     7
370
    25
100
AcDbLine
 10
29.8525454615
 20
31.72366995
 30
0.0
 11
29.8122731621
 21
31.7035169873
 31
0.0
  0
LINE
  5
20B
330
1F
100
AcDbEntity
  8
0
  6
Continuous
 62
     7
370
    25
100
AcDbLine
 10
29.80958999
 20
31.6585636717
 30
0.0
 11
29.8122731621
 21
31.7035169873
 31
0.0
  0
LINE
  5
20C
330
1F
100
AcDbEntity
  8
0
  6
Continuous
 62
     7
370
    25
100
AcDbLine
 10
28.8545673848
 20
30.7217259724
 30
0.0
 11
28.8667453107
 21
30.7082010156
 31
0.0
  0
LINE
  5
20D
330
1F
100
AcDbEntity
  8
0
  6
Continuous
 62
     7
370
    25
100
AcDbLine
 10
28.7818995498
 20
30.8024317795
 30
0.0
 11
28.8545673848
 21
30.7217259724
 31
0.0
  0
LINE
  5
20E
330
1F
100
AcDbEntity
  8
0
  6
Continuous
 62
     7
370
    25
100
AcDbLine
 10
32.0804579443
 20
36.47333489
 30
0.0
 11
32.0804579443
 21
36.60013489
 31
0.0
  0
LINE
  5
20F
330
1F
100
AcDbEntity
  8
0
  6
Continuous
 62
     7
370
    25
100
AcDbLine
 10
32.5730877321
 20
36.5811610081
 30
0.0
 11
32.5382986913
 21
36.5525651581
 31
0.0
  0
LINE
  5
210
330
1F
100
AcDbEntity
  8
0
  6
Continuous
 62
     7
370
    25
100
AcDbLine
 10
32.5456689035
 20
36.5081390399
 30
0.0
 11
32.5382986913
 21
36.5525651581
 31
0.0
  0
LINE
  5
211
330
1F
100
AcDbEntity
  8
0
  6
Continuous
 62
     7
370
    25
100
AcDbLine
 10
32.5878281565
 20
36.4923087718
 30
0.0
 11
32.5456689035
 21
36.5081390399
 31
0.0
  0
LINE
  5
212
330
1F
100
AcDbEntity
  8
0
  6
Continuous
 62
     7
370
    25
100
AcDbLine
 10
32.5878281565
 20
36.4923087718
 30
0.0
 11
32.6226171973
 21
36.5209046219
 31
0.0
  0
LINE
  5
213
330
1F
100
AcDbEntity
  8
0
  6
Continuous
 62
     7
370
    25
100
AcDbLine
 10
32.6152469851
 20
36.56533074
 30
0.0
 11
32.6226171973
 21
36.5209046219
 31
0.0
  0
LINE
  5
214
330
1F
100
AcDbEntity
  8
0
  6
Continuous
 62
     7
370
    25
100
AcDbLine
 10
32.6152469851
 20
36.56533074
 30
0.0
 11
32.5730877321
 21
36.5811610081
 31
0.0
  0
CIRCLE
  5
215
330
1F
100
AcDbEntity
  8
0
  6
Continuous
 62
     7
370
    25
100
AcDbCircle
 10
32.5804579443
 20
36.53673489
 30
0.0
 40
0.0634000000000085
  0
CIRCLE
  5
216
330
1F
100
AcDbEntity
  8
0
  6
Continuous
 62
     7
370
    25
100
AcDbCircle
 10
32.5804579443
 20
36.53673489
 30
0.0
 40
0.0743398409205866
  0
LINE
  5
217
330
1F
100
AcDbEntity
  8
0
  6
Continuous
 62
     7
370
    25
100
AcDbLine
 10
31.2304545493
 20
37.8400934147
 30
0.0
 11
31.2543778061
 21
37.801940069
 31
0.0
  0
LINE
  5
218
330
1F
100
AcDbEntity
  8
0
  6
Continuous
 62
     7
370
    25
100
AcDbLine
 10
31.2993812011
 20
37.8035815443
 30
0.0
 11
31.2543778061
 21
37.801940069
 31
0.0
  0
LINE
  5
219
330
1F
100
AcDbEntity
  8
0
  6
Continuous
 62
     7
370
    25
100
AcDbLine
 10
31.3204613393
 20
37.8433763652
 30
0.0
 11
31.2993812011
 21
37.8035815443
 31
0.0
  0
LINE
  5
21A
330
1F
100
AcDbEntity
  8
0
  6
Continuous
 62
     7
370
    25
100
AcDbLine
 10
31.3204613393
 20
37.8433763652
 30
0.0
 11
31.2965380825
 21
37.8815297109
 31
0.0
  0
LINE
  5
21B
330
1F
100
AcDbEntity
  8
0
  6
Continuous
 62
     7
370
    25
100
AcDbLine
 10
31.2515346875
 20
37.8798882356
 30
0.0
 11
31.2965380825
 21
37.8815297109
 31
0.0
  0
LINE
  5
21C
330
1F
100
AcDbEntity
  8
0
  6
Continuous
 62
     7
370
    25
100
AcDbLine
 10
31.2515346875
 20
37.8798882356
 30
0.0
 11
31.2304545493
 21
37.8400934147
 31
0.0
  0
CIRCLE
  5
21D
330
1F
100
AcDbEntity
  8
0
  6
Continuous
 62
     7
370
    25
100
AcDbCircle
 10
31.2754579443
 20
37.84173489
 30
0.0
 40
0.0634000000000007
  0
CIRCLE
  5
21E
330
1F
100
AcDbEntity
  8
0
  6
Continuous
 62
     7
370
    25
100
AcDbCircle
 10
31.2754579443
 20
37.84173489
 30
0.0
 40
0.0743398409205894
  0
LINE
  5
21F
330
1F
100
AcDbEntity
  8
0
  6
Continuous
 62
     7
370
    25
100
AcDbLine
 10
30.5625994131
 20
32.37153031
 30
0.0
 11
30.5278103723
 21
32.34293446
 31
0.0
  0
LINE
  5
220
330
1F
100
AcDbEntity
  8
0
  6
Continuous
 62
     7
370
    25
100
AcDbLine
 10
30.5351805845
 20
32.2985083418
 30
0.0
 11
30.5278103723
 21
32.34293446
 31
0.0
  0
LINE
  5
221
330
1F
100
AcDbEntity
  8
0
  6
Continuous
 62
     7
370
    25
100
AcDbLine
 10
30.5773398374
 20
32.2826780737
 30
0.0
 11
30.5351805845
 21
32.2985083418
 31
0.0
  0
LINE
  5
222
330
1F
100
AcDbEntity
  8
0
  6
Continuous
 62
     7
370
    25
100
AcDbLine
 10
30.5773398374
 20
32.2826780737
 30
0.0
 11
30.6121288782
 21
32.3112739238
 31
0.0
  0
LINE
  5
223
330
1F
100
AcDbEntity
  8
0
  6
Continuous
 62
     7
370
    25
100
AcDbLine
 10
30.6047586661
 20
32.3557000419
 30
0.0
 11
30.6121288782
 21
32.3112739238
 31
0.0
  0
LINE
  5
224
330
1F
100
AcDbEntity
  8
0
  6
Continuous
 62
     7
370
    25
100
AcDbLine
 10
30.6047586661
 20
32.3557000419
 30
0.0
 11
30.5625994131
 21
32.37153031
 31
0.0
  0
CIRCLE
  5
225
330
1F
100
AcDbEntity
  8
0
  6
Continuous
 62
     7
370
    25
100
AcDbCircle
 10
30.5699696253
 20
32.3271041919
 30
0.0
 40
0.0634000000000018
  0
LINE
  5
226
330
1F
100
AcDbEntity
  8
0
  6
Continuous
 62
     7
370
    25
100
AcDbLine
 10
32.566519065
 20
36.1855567027
 30
0.0
 11
32.536403727
 21
36.1520743728
 31
0.0
  0
LINE
  5
227
330
1F
100
AcDbEntity
  8
0
  6
Continuous
 62
     7
370
    25
100
AcDbLine
 10
32.5503426063
 20
36.10925256
 30
0.0
 11
32.536403727
 21
36.1520743728
 31
0.0
  0
LINE
  5
228
330
1F
100
AcDbEntity
  8
0
  6
Continuous
 62
     7
370
    25
100
AcDbLine
 10
32.5943968236
 20
36.0999130772
 30
0.0
 11
32.5503426063
 21
36.10925256
 31
0.0
  0
LINE
  5
229
330
1F
100
AcDbEntity
  8
0
  6
Continuous
 62
     7
370
    25
100
AcDbLine
 10
32.5943968236
 20
36.0999130772
 30
0.0
 11
32.6245121616
 21
36.1333954071
 31
0.0
  0
LINE
  5
22A
330
1F
100
AcDbEntity
  8
0
  6
Continuous
 62
     7
370
    25
100
AcDbLine
 10
32.6105732823
 20
36.1762172199
 30
0.0
 11
32.6245121616
 21
36.1333954071
 31
0.0
  0
LINE
  5
22B
330
1F
100
AcDbEntity
  8
0
  6
Continuous
 62
     7
370
    25
100
AcDbLine
 10
32.6105732823
 20
36.1762172199
 30
0.0
 11
32.566519065
 21
36.1855567027
 31
0.0
  0
CIRCLE
  5
22C
330
1F
100
AcDbEntity
  8
0
  6
Continuous
 62
     7
370
    25
100
AcDbCircle
 10
32.5804579443
 20
36.14273489
 30
0.0
 40
0.0634000000000061
  0
LINE
  5
22D
330
1F
100
AcDbEntity
  8
0
  6
Continuous
 62
     7
370
    25
100
AcDbLine
 10
31.2696605684
 20
37.34173489
 30
0.0
 11
31.2120579443
 21
37.34173489
 31
0.0
  0
LINE
  5
22E
330
1F
100
AcDbEntity
  8
0
  6
Continuous
 62
     7
370
    25
100
AcDbLine
 10
31.3388579443
 20
37.34173489
 30
0.0
 11
31.2696605684
 21
37.34173489
 31
0.0
  0
LINE
  5
22F
330
1F
100
AcDbEntity
  8
0
  6
Continuous
 62
     7
370
    25
100
AcDbLine
 10
10.9754579443
 20
40.1221542593
 30
0.0
 11
10.9754579443
 21
41.06673489
 31
0.0
  0
LINE
  5
230
330
1F
100
AcDbEntity
  8
0
  6
Continuous
 62
     7
370
    25
100
AcDbLine
 10
10.9754579443
 20
34.61673489
 30
0.0
 11
10.9754579443
 21
40.1221542593
 31
0.0
  0
LINE
  5
231
330
1F
100
AcDbEntity
  8
0
  6
Continuous
 62
     7
370
    25
100
AcDbLine
 10
11.1604579443
 20
39.8216338773
 30
0.0
 11
11.1604579443
 21
39.8441287857
 31
0.0
  0
LINE
  5
232
330
1F
100
AcDbEntity
  8
0
  6
Continuous
 62
     7
370
    25
100
AcDbLine
 10
11.1604579443
 20
40.0819816814
 30
0.0
 11
11.1604579443
 21
40.64173489
 31
0.0
  0
LINE
  5
233
330
1F
100
AcDbEntity
  8
0
  6
Continuous
 62
     7
370
    25
100
AcDbLine
 10
11.1604579443
 20
35.04173489
 30
0.0
 11
11.1604579443
 21
35.6014880985
 31
0.0
  0
LINE
  5
234
330
1F
100
AcDbEntity
  8
0
  6
Continuous
 62
     7
370
    25
100
AcDbLine
 10
11.1604579443
 20
35.8393409943
 30
0.0
 11
11.1604579443
 21
39.8216338773
 31
0.0
  0
LINE
  5
235
330
1F
100
AcDbEntity
  8
0
  6
Continuous
 62
     7
370
    25
100
AcDbLine
 10
11.8504579443
 20
39.8216338773
 30
0.0
 11
11.8504579443
 21
40.64173489
 31
0.0
  0
LINE
  5
236
330
1F
100
AcDbEntity
  8
0
  6
Continuous
 62
     7
370
    25
100
AcDbLine
 10
11.8504579443
 20
35.04173489
 30
0.0
 11
11.8504579443
 21
39.8216338773
 31
0.0
  0
LINE
  5
237
330
1F
100
AcDbEntity
  8
0
  6
Continuous
 62
     7
370
    25
100
AcDbLine
 10
31.3360018086
 20
33.6896590326
 30
0.0
 11
32.005132415
 21
32.9465142072
 31
0.0
  0
LINE
  5
238
330
1F
100
AcDbEntity
  8
0
  6
Continuous
 62
     7
370
    25
100
AcDbLine
 10
32.0804579443
 20
35.36173489
 30
0.0
 11
33.0804579443
 21
35.36173489
 31
0.0
  0
LINE
  5
239
330
1F
100
AcDbEntity
  8
0
  6
Continuous
 62
     7
370
    25
100
AcDbLine
 10
25.8293838593
 20
29.6358625672
 30
0.0
 11
27.3991609135
 21
28.066085513
 31
0.0
  0
LINE
  5
23A
330
1F
100
AcDbEntity
  8
0
  6
Continuous
 62
     7
370
    25
100
AcDbLine
 10
28.6684175857
 20
30.9051192395
 30
0.0
 11
28.3183997291
 21
30.5551013828
 31
0.0
  0
LINE
  5
23B
330
1F
100
AcDbEntity
  8
0
  6
Continuous
 62
     7
370
    25
100
AcDbLine
 10
28.3183997291
 20
30.5551013828
 30
0.0
 11
27.9683818724
 21
30.9051192395
 31
0.0
  0
LINE
  5
23C
330
1F
100
AcDbEntity
  8
0
  6
Continuous
 62
     7
370
    25
100
AcDbLine
 10
30.7310091104
 20
31.8060165944
 30
0.0
 11
30.0685698101
 21
32.5417299716
 31
0.0
  0
LINE
  5
23D
330
1F
100
AcDbEntity
  8
VP
100
AcDbLine
 10
30.8052128656
 20
25.4740158029
 30
0.0
 11
29.6202224672
 21
26.7900809693
 31
0.0
  0
DIMENSION
  5
23E
330
1F
100
AcDbEntity
  8
0
  6
Continuous
 62
     7
370
    18
100
AcDbDimension
  2
_D_5
 10
22.1793691281
 20
33.2717351628
 30
0.0
 11
21.9210981092
 21
33.0134641439
 31
0.0
 70
   160
  1
<>
 71
     2
 42
-1.0
  3
SLDDIMSTYLE4
100
AcDbAlignedDimension
 13
27.9683818724
 23
30.9051192395
 33
0.0
 14
25.8223127915
 24
29.6287914994
 34
0.0
 50
45.0
100
AcDbRotatedDimension
  0
DIMENSION
  5
254
330
1F
100
AcDbEntity
  8
0
  6
Continuous
 62
     7
370
    18
100
AcDbDimension
  2
_D_6
 10
21.7582531406
 20
22.4251777401
 30
0.0
 11
18.1353974741
 21
26.0480334066
 31
0.0
 70
   160
  1
%%c<>
 71
     2
 42
-1.0
  3
SLDDIMSTYLE4
100
AcDbAlignedDimension
 13
24.036868169
 23
27.8433468769
 33
0.0
 14
24.036868169
 24
24.7037927685
 34
0.0
 50
-45.0
100
AcDbRotatedDimension
  0
DIMENSION
  5
268
330
1F
100
AcDbEntity
  8
0
  6
Continuous
 62
     7
370
    18
100
AcDbDimension
  2
_D_7
 10
27.2157303198
 20
21.5249306177
 30
0.0
 11
29.7489403634
 21
24.0581406613
 31
0.0
 70
   160
  1
<>
 71
     2
 42
-1.0
  3
SLDDIMSTYLE4
100
AcDbAlignedDimension
 13
28.3183997291
 23
30.5551013828
 33
0.0
 14
24.036868169
 24
24.7037927685
 34
0.0
 50
45.0
100
AcDbRotatedDimension
  0
DIMENSION
  5
27C
330
1F
100
AcDbEntity
  8
0
  6
Continuous
 62
     7
370
    18
100
AcDbDimension
  2
_D_8
 10
10.8224579443
 20
46.1821011877
 30
0.0
 11
7.0084303853
 21
46.1821011877
 31
0.0
 70
   160
  1
<>
 71
     2
 42
-1.0
  3
SLDDIMSTYLE4
100
AcDbAlignedDimension
 13
13.1004579443
 23
39.39173489
 33
0.0
 14
10.8224579443
 24
41.06673489
 34
0.0
100
AcDbRotatedDimension
  0
DIMENSION
  5
290
330
1F
100
AcDbEntity
  8
0
  6
Continuous
 62
     7
370
    18
100
AcDbDimension
  2
_D_9
 10
33.0804579443
 20
46.1821011877
 30
0.0
 11
21.9514579443
 21
46.1821011877
 31
0.0
 70
   160
  1
SPECIFY PROJECTION LENGTH\P18"-48"\P[457mm-1219mm]
 71
     2
 42
-1.0
  3
SLDDIMSTYLE5
100
AcDbAlignedDimension
 13
10.8224579443
 23
41.06673489
 33
0.0
 14
33.0804579443
 24
37.59173489
 34
0.0
100
AcDbRotatedDimension
  0
DIMENSION
  5
29E
330
1F
100
AcDbEntity
  8
0
  6
Continuous
 62
     7
370
    18
100
AcDbDimension
  2
_D_10
 10
36.9606770007
 20
38.34173489
 30
0.0
 11
36.9606770007
 21
34.4148305643
 31
0.0
 70
   160
  1
<>
 71
     2
 42
-1.0
  3
SLDDIMSTYLE4
100
AcDbAlignedDimension
 13
28.3855748733
 23
30.4879262386
 33
0.0
 14
31.1004579443
 24
38.34173489
 34
0.0
 50
90.0
100
AcDbRotatedDimension
  0
DIMENSION
  5
2B2
330
1F
100
AcDbEntity
  8
0
  6
Continuous
 62
     7
370
    18
100
AcDbDimension
  2
_D_11
 10
15.4076410465
 20
38.34173489
 30
0.0
 11
15.4076410465
 21
40.8663897181
 31
0.0
 70
   160
  1
%%c<>
 71
     2
 42
-1.0
  3
SLDDIMSTYLE6
100
AcDbAlignedDimension
 13
13.1004579443
 23
37.34173489
 33
0.0
 14
13.1004579443
 24
38.34173489
 34
0.0
 50
90.0
100
AcDbRotatedDimension
  0
LINE
  5
2C5
330
1F
100
AcDbEntity
  8
0
  6
Continuous
 62
     7
370
    25
100
AcDbLine
 10
45.3876659293
 20
26.8891891515
 30
0.0
 11
47.7601659256
 21
25.5191288185
 31
0.0
  0
LINE
  5
2C6
330
1F
100
AcDbEntity
  8
0
  6
Continuous
 62
     7
370
    25
100
AcDbLine
 10
46.5892839137
 20
28.758858429
 30
0.0
 11
46.4978463135
 21
28.8116613917
 31
0.0
  0
LINE
  5
2C7
330
1F
100
AcDbEntity
  8
0
  6
Continuous
 62
     7
370
    25
100
AcDbLine
 10
47.3232839137
 20
28.3349915013
 30
0.0
 11
46.6568125112
 21
28.7198623266
 31
0.0
  0
LINE
  5
2C8
330
1F
100
AcDbEntity
  8
0
  6
Continuous
 62
     7
370
    25
100
AcDbLine
 10
47.7603463172
 20
28.0825987245
 30
0.0
 11
47.3908125112
 21
28.2959953989
 31
0.0
  0
LINE
  5
2C9
330
1F
100
AcDbEntity
  8
0
  6
Continuous
 62
     7
370
    25
100
AcDbLine
 10
48.2754900237
 20
25.2220837871
 30
0.0
 11
50.64799002
 21
23.8520234542
 31
0.0
  0
LINE
  5
2CA
330
1F
100
AcDbEntity
  8
0
  6
Continuous
 62
     7
370
    25
100
AcDbLine
 10
49.477108008
 20
27.0917530646
 30
0.0
 11
49.3856704079
 21
27.1445560274
 31
0.0
  0
LINE
  5
2CB
330
1F
100
AcDbEntity
  8
0
  6
Continuous
 62
     7
370
    25
100
AcDbLine
 10
50.211108008
 20
26.667886137
 30
0.0
 11
49.5446366056
 21
27.0527569622
 31
0.0
  0
LINE
  5
2CC
330
1F
100
AcDbEntity
  8
0
  6
Continuous
 62
     7
370
    25
100
AcDbLine
 10
50.6481704116
 20
26.4154933601
 30
0.0
 11
50.2786366056
 21
26.6288900346
 31
0.0
  0
ARC
  5
2CD
330
1F
100
AcDbEntity
  8
0
  6
Continuous
 62
     7
370
    25
100
AcDbCircle
 10
59.9051549013
 20
41.5910196327
 30
0.0
 40
0.1804759332986022
100
AcDbArc
 50
158.0120296182
 51
261.9825938491
  0
LINE
  5
2CE
330
1F
100
AcDbEntity
  8
0
  6
Continuous
 62
     7
370
    25
100
AcDbLine
 10
59.9189786221
 20
41.4188714921
 30
0.0
 11
59.9295852238
 21
41.424994553
 31
0.0
  0
LINE
  5
2CF
330
1F
100
AcDbEntity
  8
0
  6
Continuous
 62
     7
370
    25
100
AcDbLine
 10
59.7735979015
 20
41.695201798
 30
0.0
 11
59.7629912998
 21
41.6890787372
 31
0.0
  0
ARC
  5
2D0
330
1F
100
AcDbEntity
  8
0
  6
Continuous
 62
     7
370
    25
100
AcDbCircle
 10
59.9051549013
 20
38.1267303615
 30
0.0
 40
0.1804759332985995
100
AcDbArc
 50
158.0120296182
 51
261.9825938491
  0
LINE
  5
2D1
330
1F
100
AcDbEntity
  8
0
  6
Continuous
 62
     7
370
    25
100
AcDbLine
 10
59.9189786221
 20
37.9545822209
 30
0.0
 11
59.9295852238
 21
37.9607052818
 31
0.0
  0
LINE
  5
2D2
330
1F
100
AcDbEntity
  8
0
  6
Continuous
 62
     7
370
    25
100
AcDbLine
 10
59.7720615914
 20
38.2300256338
 30
0.0
 11
59.7629912998
 21
38.224789466
 31
0.0
  0
ARC
  5
2D3
330
1F
100
AcDbEntity
  8
0
  6
Continuous
 62
     7
370
    25
100
AcDbCircle
 10
56.9051549013
 20
43.322882769
 30
0.0
 40
0.1804759332986047
100
AcDbArc
 50
158.0120296182
 51
261.9825938491
  0
LINE
  5
2D4
330
1F
100
AcDbEntity
  8
0
  6
Continuous
 62
     7
370
    25
100
AcDbLine
 10
56.9189786221
 20
43.1507346284
 30
0.0
 11
56.9280489136
 21
43.1559707962
 31
0.0
  0
LINE
  5
2D5
330
1F
100
AcDbEntity
  8
0
  6
Continuous
 62
     7
370
    25
100
AcDbLine
 10
56.7735979015
 20
43.4270649343
 30
0.0
 11
56.7629912998
 21
43.4209418734
 31
0.0
  0
SPLINE
  5
2D6
330
1F
100
AcDbEntity
  8
0
  6
Continuous
 62
     7
370
    25
100
AcDbSpline
210
0.0
220
0.0
230
1.0
 70
     8
 71
     3
 72
    45
 73
    41
 74
     0
 42
0.00000001
 43
0.00000001
 40
0.0
 40
0.0
 40
0.0
 40
0.0
 40
0.0238082204196284
 40
0.0482542361754871
 40
0.0726788439690283
 40
0.0971011332919629
 40
0.1215403901846791
 40
0.1460163323975779
 40
0.1705492048727777
 40
0.1951598548232934
 40
0.219869777609722
 40
0.2447011220882724
 40
0.2696766408781228
 40
0.2948195674019948
 40
0.3201533979211866
 40
0.3457015537346435
 40
0.3714868972978977
 40
0.3975310778942907
 40
0.4238536900112652
 40
0.4504712436960716
 40
0.4773959738936292
 40
0.5046345568197438
 40
0.532186853880185
 40
0.5600448589751151
 40
0.5881920659588394
 40
0.6166034752232497
 40
0.6452463989194325
 40
0.6740820966099427
 40
0.7030681007315518
 40
0.7321609279743666
 40
0.7613187811169866
 40
0.7904978146456929
 40
0.8196628438404606
 40
0.8487906787308789
 40
0.8778648629467704
 40
0.9068752437962971
 40
0.9358172404171553
 40
0.9646909932383336
 40
0.9935005103081336
 40
0.9999999999999999
 40
0.9999999999999999
 40
0.9999999999999999
 40
0.9999999999999999
 10
56.42115990907493
 20
42.81254454625312
 30
0.0
 10
56.39818733864011
 20
42.79887310522804
 30
0.0
 10
56.35162678855355
 20
42.77116398071324
 30
0.0
 10
56.28402592807066
 20
42.7254136362984
 30
0.0
 10
56.21794315184804
 20
42.67640324975578
 30
0.0
 10
56.1542674210594
 20
42.6243509261117
 30
0.0
 10
56.09303343032397
 20
42.56942651982547
 30
0.0
 10
56.03432927452837
 20
42.51169719546662
 30
0.0
 10
55.97822214300223
 20
42.45125512320912
 30
0.0
 10
55.92477839509483
 20
42.38818207792774
 30
0.0
 10
55.87405855063852
 20
42.32255785280002
 30
0.0
 10
55.82611922229455
 20
42.25445701664902
 30
0.0
 10
55.78101338593869
 20
42.18394899600199
 30
0.0
 10
55.73879129142815
 20
42.11109755302164
 30
0.0
 10
55.69950136614485
 20
42.03596083818255
 30
0.0
 10
55.66319123603145
 20
41.9585918395099
 30
0.0
 10
55.62990875128055
 20
41.87903942847462
 30
0.0
 10
55.59970293219392
 20
41.79735009887436
 30
0.0
 10
55.57262470308773
 20
41.71357049720176
 30
0.0
 10
55.54872725650043
 20
41.62775077914145
 30
0.0
 10
55.52806587008776
 20
41.53994872999167
 30
0.0
 10
55.51069700445915
 20
41.45023443960067
 30
0.0
 10
55.49667655590898
 20
41.35869513554394
 30
0.0
 10
55.48605723772868
 20
41.26543958094668
 30
0.0
 10
55.47888521961178
 20
41.17060129397493
 30
0.0
 10
55.47519634660852
 20
41.07433982337906
 30
0.0
 10
55.47501243776655
 20
40.97683948968091
 30
0.0
 10
55.47833826443802
 20
40.87830539480107
 30
0.0
 10
55.48515975773088
 20
40.77895703956725
 30
0.0
 10
55.49544381774368
 20
40.67902042362967
 30
0.0
 10
55.50913874306985
 20
40.57872673809898
 30
0.0
 10
55.52617649448612
 20
40.47830165545076
 30
0.0
 10
55.54647633967205
 20
40.3779532655461
 30
0.0
 10
55.56995368264553
 20
40.27786255380454
 30
0.0
 10
55.59651512272791
 20
40.17818319080906
 30
0.0
 10
55.62609431521581
 20
40.07905899424692
 30
0.0
 10
55.65852760225469
 20
39.98058786711211
 30
0.0
 10
55.69402605564218
 20
39.88296648061709
 30
0.0
 10
55.72179746680833
 20
39.81093780007262
 30
0.0
 10
55.73856883896561
 20
39.77174957633733
 30
0.0
 10
55.74165602182494
 20
39.76453602150898
 30
0.0
  0
SPLINE
  5
2D7
330
1F
100
AcDbEntity
  8
0
  6
Continuous
 62
     7
370
    25
100
AcDbSpline
210
0.0
220
0.0
230
1.0
 70
     8
 71
     3
 72
    44
 73
    40
 74
     0
 42
0.00000001
 43
0.00000001
 40
0.0
 40
0.0
 40
0.0
 40
0.0
 40
0.0045721330596967
 40
0.0334269184978795
 40
0.0623657804932653
 40
0.0913998110257944
 40
0.1205379656440801
 40
0.1497863295203567
 40
0.1791472437445885
 40
0.2086183095227695
 40
0.2381913240814523
 40
0.2678512525980641
 40
0.2975754007204969
 40
0.3273272862331196
 40
0.3570596410009419
 40
0.3867255713229016
 40
0.416274628484624
 40
0.4456558858551288
 40
0.4748213229197904
 40
0.5037289382227604
 40
0.5323450996401898
 40
0.5606458397379505
 40
0.588617063735334
 40
0.6162538573421968
 40
0.6435591998575104
 40
0.6705423999636958
 40
0.6972175121304132
 40
0.7236019040754507
 40
0.7497150627941115
 40
0.7755776640684159
 40
0.8012108909797743
 40
0.826635966859303
 40
0.8518738613794871
 40
0.8769451297084259
 40
0.901869849815716
 40
0.9266676295650613
 40
0.9513576616827113
 40
0.9759588103274157
 40
1.0
 40
1.0
 40
1.0
 40
1.0
 10
56.24156446621318
 20
38.89845776252395
 30
0.0
 10
56.24486773599735
 20
38.89403438298562
 30
0.0
 10
56.26901798018547
 20
38.86169500322951
 30
0.0
 10
56.3160852141098
 20
38.80326520342384
 30
0.0
 10
56.38288800018353
 20
38.72335854538407
 30
0.0
 10
56.45206148521813
 20
38.64563234123006
 30
0.0
 10
56.52332781582585
 20
38.56996154266901
 30
0.0
 10
56.59672492040675
 20
38.49652831512486
 30
0.0
 10
56.67219912896671
 20
38.42544510066359
 30
0.0
 10
56.74971080613113
 20
38.35685760648266
 30
0.0
 10
56.829201077081
 20
38.29091798817991
 30
0.0
 10
56.9105955024075
 20
38.22779207207424
 30
0.0
 10
56.99379245915815
 20
38.16765985993015
 30
0.0
 10
57.07865688331699
 20
38.11071393534333
 30
0.0
 10
57.16502420278005
 20
38.05714858211407
 30
0.0
 10
57.25270743310794
 20
38.00714957016469
 30
0.0
 10
57.34150504687604
 20
37.96088579061597
 30
0.0
 10
57.43120157674958
 20
37.91850618261412
 30
0.0
 10
57.52157582892065
 20
37.88013399542891
 30
0.0
 10
57.6124093828239
 20
37.84586334134494
 30
0.0
 10
57.70349393597748
 20
37.81575847853849
 30
0.0
 10
57.79463643381306
 20
37.78985563655117
 30
0.0
 10
57.88566152954868
 20
37.7681667041311
 30
0.0
 10
57.97641154290753
 20
37.75068386798882
 30
0.0
 10
58.0667445269282
 20
37.73738433602123
 30
0.0
 10
58.15653122972094
 20
37.72823450964007
 30
0.0
 10
58.24565168877711
 20
37.72319326389712
 30
0.0
 10
58.33399201675031
 20
37.72221425022176
 30
0.0
 10
58.42144171616238
 20
37.7252473217052
 30
0.0
 10
58.50789168736039
 20
37.732239241179
 30
0.0
 10
58.59323289014545
 20
37.74313397071592
 30
0.0
 10
58.67735577576145
 20
37.75787240712057
 30
0.0
 10
58.7601496782856
 20
37.77639293160377
 30
0.0
 10
58.84150461581303
 20
37.7986284208247
 30
0.0
 10
58.92130587388928
 20
37.82451630772651
 30
0.0
 10
58.99945644742049
 20
37.85396067563335
 30
0.0
 10
59.07579700674457
 20
37.88697251910167
 30
0.0
 10
59.14991123329956
 20
37.92291000250928
 30
0.0
 10
59.19755889851447
 20
37.94961664632572
 30
0.0
 10
59.22110847685536
 20
37.96281624798387
 30
0.0
  0
LINE
  5
2D8
330
1F
100
AcDbEntity
  8
0
  6
Continuous
 62
     7
370
    25
100
AcDbLine
 10
56.9092789301
 20
43.0943296793
 30
0.0
 11
56.4213752511
 21
42.8126688808
 31
0.0
  0
LINE
  5
2D9
330
1F
100
AcDbEntity
  8
0
  6
Continuous
 62
     7
370
    25
100
AcDbLine
 10
59.2211477025
 20
37.9627952514
 30
0.0
 11
59.7090513815
 21
38.24445605
 31
0.0
  0
SPLINE
  5
2DA
330
1F
100
AcDbEntity
  8
0
  6
Continuous
 62
     7
370
    25
100
AcDbSpline
210
0.0
220
0.0
230
1.0
 70
     8
 71
     3
 72
    23
 73
    19
 74
     0
 42
0.00000001
 43
0.00000001
 40
0.0
 40
0.0
 40
0.0
 40
0.0
 40
0.0358371835861486
 40
0.1001571705428501
 40
0.164491926794662
 40
0.2288851060313382
 40
0.2933800118768585
 40
0.3580149233643639
 40
0.4228215031824449
 40
0.4878236699629765
 40
0.553037002010218
 40
0.6184686938802401
 40
0.6841180366020692
 40
0.7499773427743079
 40
0.8160331976054138
 40
0.8822678936893255
 40
0.948660904943471
 40
1.0
 40
1.0
 40
1.0
 40
1.0
 10
56.82746975353984
 20
43.53783666968547
 30
0.0
 10
56.81679266063096
 20
43.53153267365413
 30
0.0
 10
56.78695249719274
 20
43.51391436935589
 30
0.0
 10
56.73950520754203
 20
43.48235490309337
 30
0.0
 10
56.68579434101191
 20
43.44225806481268
 30
0.0
 10
56.63422311325132
 20
43.39891369822334
 30
0.0
 10
56.58480932846302
 20
43.35242275635007
 30
0.0
 10
56.5376140431984
 20
43.30281085197936
 30
0.0
 10
56.49268817579264
 20
43.25012623929597
 30
0.0
 10
56.45008720632703
 20
43.19441549055504
 30
0.0
 10
56.40986658771713
 20
43.13573202173598
 30
0.0
 10
56.37208295483538
 20
43.0741346793294
 30
0.0
 10
56.33678943978414
 20
43.00969172402861
 30
0.0
 10
56.30404736525195
 20
42.94247100399352
 30
0.0
 10
56.27387731589872
 20
42.87257763202787
 30
0.0
 10
56.24643723442036
 20
42.80001213999513
 30
0.0
 10
56.22326400856709
 20
42.73090555173528
 30
0.0
 10
56.21052736481763
 20
42.6849925900345
 30
0.0
 10
56.20497333385153
 20
42.66497145918967
 30
0.0
  0
SPLINE
  5
2DB
330
1F
100
AcDbEntity
  8
0
  6
Continuous
 62
     7
370
    25
100
AcDbSpline
210
0.0
220
0.0
230
1.0
 70
     8
 71
     3
 72
    24
 73
    20
 74
     0
 42
0.00000001
 43
0.00000001
 40
0.0
 40
0.0
 40
0.0
 40
0.0
 40
0.0167642815647245
 40
0.0830636990233025
 40
0.1492622324810336
 40
0.2153371201907593
 40
0.2812651176938507
 40
0.347023609390572
 40
0.4125919616132075
 40
0.4779530400009675
 40
0.543094770766632
 40
0.6080115932112763
 40
0.672705639098448
 40
0.7371874886878588
 40
0.8014763923323943
 40
0.8655999030993959
 40
0.929592928568975
 40
0.9934962675452086
 40
1.0
 40
1.0
 40
1.0
 40
1.0
 10
58.9851010852894
 20
37.84926081032079
 30
0.0
 10
58.99173523125182
 20
37.84742450880288
 30
0.0
 10
59.02460611220021
 20
37.83832599801904
 30
0.0
 10
59.08316630030686
 20
37.82548703572054
 30
0.0
 10
59.16060937065951
 20
37.8109226540203
 30
0.0
 10
59.23717407413643
 20
37.8002579089074
 30
0.0
 10
59.3128011050983
 20
37.79315190961381
 30
0.0
 10
59.38736791457651
 20
37.78970760565308
 30
0.0
 10
59.46077022960587
 20
37.78989884303702
 30
0.0
 10
59.53290191053978
 20
37.79372316936155
 30
0.0
 10
59.60366183336728
 20
37.8011615767921
 30
0.0
 10
59.67295414961871
 20
37.81218909291583
 30
0.0
 10
59.7406874621816
 20
37.82677662073875
 30
0.0
 10
59.80678342573383
 20
37.84487933716598
 30
0.0
 10
59.87114677582156
 20
37.86648890939599
 30
0.0
 10
59.93377707447746
 20
37.89144578257075
 30
0.0
 10
59.99435128898002
 20
37.92014432845062
 30
0.0
 10
60.03600011295035
 20
37.94171098264206
 30
0.0
 10
60.05685490733241
 20
37.95465252323654
 30
0.0
 10
60.0587813331914
 20
37.95584797585043
 30
0.0
  0
LINE
  5
2DC
330
1F
100
AcDbEntity
  8
0
  6
Continuous
 62
     7
370
    25
100
AcDbLine
 10
56.9357982915
 20
43.6003734167
 30
0.0
 11
56.8276109539
 21
43.5379181962
 31
0.0
  0
LINE
  5
2DD
330
1F
100
AcDbEntity
  8
0
  6
Continuous
 62
     7
370
    25
100
AcDbLine
 10
60.0523488667
 20
37.9519030338
 30
0.0
 11
60.1605362042
 21
38.0143582544
 31
0.0
  0
LINE
  5
2DE
330
1F
100
AcDbEntity
  8
0
  6
Continuous
 62
     7
370
    25
100
AcDbLine
 10
56.6873983171
 20
40.3105014274
 30
0.0
 11
43.9594762558
 21
32.962828421
 31
0.0
  0
LINE
  5
2DF
330
1F
100
AcDbEntity
  8
0
  6
Continuous
 62
     7
370
    25
100
AcDbLine
 10
44.4594356221
 20
32.0967795586
 30
0.0
 11
57.1873576834
 21
39.444452565
 31
0.0
  0
SPLINE
  5
2E0
330
1F
100
AcDbEntity
  8
0
  6
Continuous
 62
     7
370
    25
100
AcDbSpline
210
0.0
220
0.0
230
1.0
 70
     8
 71
     3
 72
    24
 73
    20
 74
     0
 42
0.00000001
 43
0.00000001
 40
0.0
 40
0.0
 40
0.0
 40
0.0
 40
0.0464445003512663
 40
0.1048303772698923
 40
0.1637853929268763
 40
0.2234488907913953
 40
0.2835847594111329
 40
0.3439224333835273
 40
0.4043547914025098
 40
0.4648706525065886
 40
0.5255425740584473
 40
0.5864993885146945
 40
0.6478494243138774
 40
0.7097387523024571
 40
0.7722774837401887
 40
0.8354907791592655
 40
0.899275595702271
 40
0.9632800043681212
 40
1.0
 40
1.0
 40
1.0
 40
1.0
 10
43.0897349149117
 20
32.46073743221228
 30
0.0
 10
43.07805819002781
 20
32.45374085029156
 30
0.0
 10
43.05170252971073
 20
32.43794879059015
 30
0.0
 10
43.01236792863932
 20
32.41013287344949
 30
0.0
 10
42.97166312024283
 20
32.37743970117723
 30
0.0
 10
42.93262729395125
 20
32.3416667433423
 30
0.0
 10
42.89545233562693
 20
32.30308188976524
 30
0.0
 10
42.8604158055507
 20
32.26195694322131
 30
0.0
 10
42.82772435753446
 20
32.21857681229932
 30
0.0
 10
42.79752414138323
 20
32.17316060105917
 30
0.0
 10
42.76993184905319
 20
32.12587740174124
 30
0.0
 10
42.74506591339799
 20
32.07686210084186
 30
0.0
 10
42.7230596741971
 20
32.02622246207378
 30
0.0
 10
42.70407495988731
 20
31.97406089339357
 30
0.0
 10
42.68831824514409
 20
31.92049361109298
 30
0.0
 10
42.67601435057195
 20
31.86570148941753
 30
0.0
 10
42.66751823681912
 20
31.81000766039696
 30
0.0
 10
42.66346775161794
 20
31.76179956706059
 30
0.0
 10
42.66307945853949
 20
31.7322861632555
 30
0.0
 10
42.66293790277408
 20
31.72152678407266
 30
0.0
  0
SPLINE
  5
2E1
330
1F
100
AcDbEntity
  8
0
  6
Continuous
 62
     7
370
    25
100
AcDbSpline
210
0.0
220
0.0
230
1.0
 70
     8
 71
     3
 72
    30
 73
    26
 74
     0
 42
0.00000001
 43
0.00000001
 40
0.0
 40
0.0
 40
0.0
 40
0.0
 40
0.0243740982766361
 40
0.0673716165800306
 40
0.1106303131579229
 40
0.1544983122850297
 40
0.199095620181839
 40
0.2444707822433402
 40
0.290611910280675
 40
0.3374590846647731
 40
0.3849160000126884
 40
0.4328602569827693
 40
0.4811520405842071
 40
0.5296412735648932
 40
0.5781677609308765
 40
0.6265322563845138
 40
0.6745898346022897
 40
0.722210435730493
 40
0.7692864289598929
 40
0.8157420946931568
 40
0.8615451132007678
 40
0.9067197295119963
 40
0.951360661340881
 40
0.9925042894469361
 40
1.0
 40
1.0
 40
1.0
 40
1.0
 10
43.66293790277407
 20
31.31325637812979
 30
0.0
 10
43.66295978439776
 20
31.31560973901366
 30
0.0
 10
43.66302026665007
 20
31.3221145838429
 30
0.0
 10
43.66380026530128
 20
31.33546433872846
 30
0.0
 10
43.6658545829491
 20
31.35393937938696
 30
0.0
 10
43.66935028231991
 20
31.37528768834673
 30
0.0
 10
43.6744859742357
 20
31.39917652562575
 30
0.0
 10
43.6814210072035
 20
31.42528329808693
 30
0.0
 10
43.69025302490493
 20
31.45321573851283
 30
0.0
 10
43.7010199543153
 20
31.48254734567973
 30
0.0
 10
43.71369686062039
 20
31.5128197524351
 30
0.0
 10
43.72819657477467
 20
31.54355643119315
 30
0.0
 10
43.74437134409576
 20
31.57427399800385
 30
0.0
 10
43.76201507363825
 20
31.60449272799421
 30
0.0
 10
43.7808616208123
 20
31.63373970359892
 30
0.0
 10
43.80059421653662
 20
31.66157105303365
 30
0.0
 10
43.82085336097441
 20
31.68758519505048
 30
0.0
 10
43.84125076960571
 20
31.71143966287637
 30
0.0
 10
43.86137112921305
 20
31.73285138654573
 30
0.0
 10
43.88078203337278
 20
31.75160657869643
 30
0.0
 10
43.89904173083408
 20
31.76756667035098
 30
0.0
 10
43.91572028200415
 20
31.78068341676064
 30
0.0
 10
43.93003066143095
 20
31.79072993832921
 30
0.0
 10
43.93871418514954
 20
31.79615455733667
 30
0.0
 10
43.9426423155549
 20
31.7984386074265
 30
0.0
 10
43.943247671823
 20
31.79879059778727
 30
0.0
  0
LINE
  5
2E2
330
1F
100
AcDbEntity
  8
0
  6
Continuous
 62
     7
370
    25
100
AcDbLine
 10
42.6629379028
 20
31.7215267841
 30
0.0
 11
42.6629379028
 21
30.7171815855
 31
0.0
  0
LINE
  5
2E3
330
1F
100
AcDbEntity
  8
0
  6
Continuous
 62
     7
370
    25
100
AcDbLine
 10
43.9594762558
 20
32.962828421
 30
0.0
 11
43.0897349149
 21
32.4607374322
 31
0.0
  0
LINE
  5
2E4
330
1F
100
AcDbEntity
  8
0
  6
Continuous
 62
     7
370
    25
100
AcDbLine
 10
43.6629379028
 20
30.7171815855
 30
0.0
 11
43.6629379028
 21
31.3132563781
 31
0.0
  0
LINE
  5
2E5
330
1F
100
AcDbEntity
  8
0
  6
Continuous
 62
     7
370
    25
100
AcDbLine
 10
43.9432476718
 20
31.7987905978
 30
0.0
 11
44.4594356221
 21
32.0967795586
 31
0.0
  0
LINE
  5
2E6
330
1F
100
AcDbEntity
  8
0
  6
Continuous
 62
     7
370
    25
100
AcDbLine
 10
42.6629379028
 20
30.7171815855
 30
0.0
 11
42.6629379028
 21
29.9006407736
 31
0.0
  0
LINE
  5
2E7
330
1F
100
AcDbEntity
  8
0
  6
Continuous
 62
     7
370
    25
100
AcDbLine
 10
43.6629379028
 20
29.9006407736
 30
0.0
 11
43.6629379028
 21
30.7171815855
 31
0.0
  0
SPLINE
  5
2E8
330
1F
100
AcDbEntity
  8
0
  6
Continuous
 62
     7
370
    25
100
AcDbSpline
210
0.0
220
0.0
230
1.0
 70
     8
 71
     3
 72
    33
 73
    29
 74
     0
 42
0.00000001
 43
0.00000001
 40
0.0
 40
0.0
 40
0.0
 40
0.0
 40
0.0226354103407814
 40
0.0646776630546834
 40
0.1067364273695065
 40
0.1487593389732186
 40
0.1907164144944521
 40
0.2325734751226741
 40
0.2742928012937084
 40
0.3158342733921649
 40
0.3571569411417782
 40
0.3982209347057051
 40
0.4389895570319047
 40
0.4794313448194601
 40
0.5195218734287198
 40
0.5592451162798154
 40
0.5985942430881713
 40
0.6375718323620094
 40
0.6761895571534073
 40
0.7144674605283472
 40
0.7524329614453725
 40
0.790119726288593
 40
0.8275665160068144
 40
0.8648160846483033
 40
0.9019141707862972
 40
0.9389085941651248
 40
0.9758484480043481
 40
1.0
 40
1.0
 40
1.0
 40
1.0
 10
42.66293790277407
 20
29.90064077356746
 30
0.0
 10
42.66302830228021
 20
29.88308930760915
 30
0.0
 10
42.66328660680001
 20
29.83293833688333
 30
0.0
 10
42.66613220932904
 20
29.75111158356119
 30
0.0
 10
42.67248966338529
 20
29.65567488992168
 30
0.0
 10
42.68207067796037
 20
29.5617175585182
 30
0.0
 10
42.69483602858886
 20
29.469390979436
 30
0.0
 10
42.71080682410143
 20
29.37885646177761
 30
0.0
 10
42.72997448216437
 20
29.29027213962841
 30
0.0
 10
42.75232263393135
 20
29.20379913772605
 30
0.0
 10
42.77782003910356
 20
29.11959631478002
 30
0.0
 10
42.80642203477314
 20
29.03781751330332
 30
0.0
 10
42.83807064217805
 20
28.95860801641278
 30
0.0
 10
42.87269597380308
 20
28.88210157618582
 30
0.0
 10
42.91021810186498
 20
28.80841811441952
 30
0.0
 10
42.95054935327008
 20
28.73766241215259
 30
0.0
 10
42.99359671544532
 20
28.66992385300443
 30
0.0
 10
43.03926411954025
 20
28.60527714670045
 30
0.0
 10
43.08745440273749
 20
28.54378379779779
 30
0.0
 10
43.13807088485721
 20
28.4854941065925
 30
0.0
 10
43.19101842589371
 20
28.43044916071135
 30
0.0
 10
43.24620446127955
 20
28.37868352642658
 30
0.0
 10
43.30353846302643
 20
28.33022499040512
 30
0.0
 10
43.36293598158336
 20
28.28510416417968
 30
0.0
 10
43.42430491330379
 20
28.24332620599682
 30
0.0
 10
43.48759723915612
 20
28.20498169325127
 30
0.0
 10
43.54512027453394
 20
28.17389106606401
 30
0.0
 10
43.58190836348232
 20
28.15642511865792
 30
0.0
 10
43.5964519712274
 20
28.14952022375222
 30
0.0
  0
SPLINE
  5
2E9
330
1F
100
AcDbEntity
  8
0
  6
Continuous
 62
     7
370
    25
100
AcDbSpline
210
0.0
220
0.0
230
1.0
 70
     8
 71
     3
 72
    28
 73
    24
 74
     0
 42
0.00000001
 43
0.00000001
 40
0.0
 40
0.0
 40
0.0
 40
0.0
 40
0.023366761408978
 40
0.0880304854302116
 40
0.1537082099023092
 40
0.210667498473791
 40
0.2644341863901445
 40
0.3155661263679985
 40
0.3697402624916371
 40
0.4215486092509665
 40
0.471523988936657
 40
0.520148517092768
 40
0.5677812689450534
 40
0.6146909645666759
 40
0.6610809829950394
 40
0.7071067648762842
 40
0.7528879234680083
 40
0.7985168167586503
 40
0.844064747612851
 40
0.8895865483246519
 40
0.9351147477161745
 40
0.980680322781918
 40
1.0
 40
1.0
 40
1.0
 40
1.0
 10
44.01620378993975
 20
29.05715914462751
 30
0.0
 10
44.01188507702867
 20
29.05921177288806
 30
0.0
 10
43.99561502627831
 20
29.06694471709123
 30
0.0
 10
43.96861358572612
 20
29.08231022073994
 30
0.0
 10
43.93717087208648
 20
29.10418759454292
 30
0.0
 10
43.90852757065235
 20
29.12817488172455
 30
0.0
 10
43.88283872137318
 20
29.15334395612987
 30
0.0
 10
43.8580949078078
 20
29.18137586985693
 30
0.0
 10
43.8341922327466
 20
29.21263328596916
 30
0.0
 10
43.81113033188894
 20
29.24749856012757
 30
0.0
 10
43.78967735455486
 20
29.28485756366899
 30
0.0
 10
43.76975330771573
 20
29.3248015452066
 30
0.0
 10
43.75133344174944
 20
29.36741489989261
 30
0.0
 10
43.73444034941156
 20
29.41275044573749
 30
0.0
 10
43.71912672679974
 20
29.46083220629031
 30
0.0
 10
43.70546334413883
 20
29.51165878921805
 30
0.0
 10
43.69353114792312
 20
29.56520669615958
 30
0.0
 10
43.68341455782836
 20
29.62143200873087
 30
0.0
 10
43.67520130738157
 20
29.68027611729007
 30
0.0
 10
43.66896576014066
 20
29.74165060999932
 30
0.0
 10
43.66481905130082
 20
29.80549040195523
 30
0.0
 10
43.66311490207595
 20
29.85886023547332
 30
0.0
 10
43.6629785128595
 20
29.89105479665671
 30
0.0
 10
43.66293790277407
 20
29.90064077356746
 30
0.0
  0
LINE
  5
2EA
330
1F
100
AcDbEntity
  8
0
  6
Continuous
 62
     7
370
    25
100
AcDbLine
 10
44.9095244573
 20
28.6440290263
 30
0.0
 11
44.0162037899
 21
29.0571591446
 31
0.0
  0
LINE
  5
2EB
330
1F
100
AcDbEntity
  8
0
  6
Continuous
 62
     7
370
    25
100
AcDbLine
 10
43.5964519712
 20
28.1495202238
 30
0.0
 11
44.4897726386
 21
27.7363901054
 31
0.0
  0
LINE
  5
2EC
330
1F
100
AcDbEntity
  8
0
  6
Continuous
 62
     7
370
    25
100
AcDbLine
 10
45.3300918064
 20
28.5565100538
 30
0.0
 11
45.303511442
 21
28.5718545715
 31
0.0
  0
SPLINE
  5
2ED
330
1F
100
AcDbEntity
  8
0
  6
Continuous
 62
     7
370
    25
100
AcDbSpline
210
0.0
220
0.0
230
1.0
 70
     8
 71
     3
 72
    26
 73
    22
 74
     0
 42
0.00000001
 43
0.00000001
 40
0.0
 40
0.0
 40
0.0
 40
0.0
 40
0.0037134842079253
 40
0.0628095934279937
 40
0.1213689413607386
 40
0.179417811754818
 40
0.236986361816258
 40
0.294111109089296
 40
0.3508381831765907
 40
0.4072275624901382
 40
0.4633585245217233
 40
0.519336474461185
 40
0.5753010938550027
 40
0.631435212999433
 40
0.6879727206204679
 40
0.7452019193369602
 40
0.8034580042072442
 40
0.8630957619592114
 40
0.9244343118205725
 40
0.9876751656258996
 40
1.0
 40
1.0
 40
1.0
 40
1.0
 10
47.43290472267945
 20
26.23000430447527
 30
0.0
 10
47.43376058333746
 20
26.22979887429562
 30
0.0
 10
47.44823654632832
 20
26.2263242436416
 30
0.0
 10
47.47689807091822
 20
26.2228669081502
 30
0.0
 10
47.51843824111063
 20
26.21991970218821
 30
0.0
 10
47.55977653017044
 20
26.22084129072091
 30
0.0
 10
47.60054039813688
 20
26.22505143806416
 30
0.0
 10
47.64051472883912
 20
26.23257179336303
 30
0.0
 10
47.67946936995894
 20
26.24325180561108
 30
0.0
 10
47.7172066697116
 20
26.25697998394684
 30
0.0
 10
47.7535501464809
 20
26.2736358971501
 30
0.0
 10
47.78834767939521
 20
26.29311256828745
 30
0.0
 10
47.82146864522011
 20
26.31532205470602
 30
0.0
 10
47.85280022858816
 20
26.34020650465373
 30
0.0
 10
47.8822355345625
 20
26.36774846499695
 30
0.0
 10
47.90966854940176
 20
26.3979734341385
 30
0.0
 10
47.93493155130889
 20
26.4309587708222
 30
0.0
 10
47.95791719977134
 20
26.4667627751466
 30
0.0
 10
47.97796212220698
 20
26.50556757241183
 30
0.0
 10
47.99106380165389
 20
26.53536930875502
 30
0.0
 10
47.99635082455001
 20
26.55248379366052
 30
0.0
 10
47.99721314292621
 20
26.55527518214569
 30
0.0
  0
LINE
  5
2EE
330
1F
100
AcDbEntity
  8
0
  6
Continuous
 62
     7
370
    25
100
AcDbLine
 10
46.8184809217
 20
26.5541587382
 30
0.0
 11
47.1429765923
 21
26.366831375
 31
0.0
  0
LINE
  5
2EF
330
1F
100
AcDbEntity
  8
0
  6
Continuous
 62
     7
370
    25
100
AcDbLine
 10
47.3547846678
 20
27.3876797441
 30
0.0
 11
47.3134406943
 21
27.411547112
 31
0.0
  0
LINE
  5
2F0
330
1F
100
AcDbEntity
  8
0
  6
Continuous
 62
     7
370
    25
100
AcDbLine
 10
47.1373842278
 20
26.3571451153
 30
0.0
 11
47.1373842278
 21
26.34559811
 31
0.0
  0
LINE
  5
2F1
330
1F
100
AcDbEntity
  8
0
  6
Continuous
 62
     7
370
    25
100
AcDbLine
 10
47.3975841534
 20
26.1953716125
 30
0.0
 11
47.4075841534
 21
26.2011451151
 31
0.0
  0
LINE
  5
2F2
330
1F
100
AcDbEntity
  8
0
  6
Continuous
 62
     7
370
    25
100
AcDbLine
 10
47.1517586085
 20
26.3820422732
 30
0.0
 11
47.1373842279
 21
26.3571451157
 31
0.0
  0
LINE
  5
2F3
330
1F
100
AcDbEntity
  8
0
  6
Continuous
 62
     7
370
    25
100
AcDbLine
 10
47.4075841537
 20
26.2011451154
 30
0.0
 11
47.4263246829
 21
26.233604664
 31
0.0
  0
ARC
  5
2F4
330
1F
100
AcDbEntity
  8
0
  6
Continuous
 62
     7
370
    25
100
AcDbCircle
 10
44.7327561214
 20
28.5491704794
 30
0.0
 40
0.495000000000002
100
AcDbArc
 50
59.9946241226
 51
136.2863388455
  0
LINE
  5
2F5
330
1F
100
AcDbEntity
  8
0
  6
Continuous
 62
     7
370
    25
100
AcDbLine
 10
45.2477963422
 20
28.8233551665
 30
0.0
 11
44.9802963422
 21
28.9778298302
 31
0.0
  0
LINE
  5
2F6
330
1F
100
AcDbEntity
  8
0
  6
Continuous
 62
     7
370
    25
100
AcDbLine
 10
44.4601659293
 20
27.4247975649
 30
0.0
 11
45.3826659293
 21
26.8920765284
 31
0.0
  0
LINE
  5
2F7
330
1F
100
AcDbEntity
  8
0
  6
Continuous
 62
     7
370
    25
100
AcDbLine
 10
46.4928463135
 20
28.8145487686
 30
0.0
 11
45.5703463135
 21
29.3472698051
 31
0.0
  0
SPLINE
  5
2F8
330
1F
100
AcDbEntity
  8
0
  6
Continuous
 62
     7
370
    25
100
AcDbSpline
210
0.0
220
0.0
230
1.0
 70
     8
 71
     3
 72
    11
 73
     7
 74
     0
 42
0.00000001
 43
0.00000001
 40
0.0
 40
0.0
 40
0.0
 40
0.0
 40
0.060243495709225
 40
0.4027035010418227
 40
0.7452112913129124
 40
0.9999999999999999
 40
0.9999999999999999
 40
0.9999999999999999
 40
0.9999999999999999
 10
46.04673303819035
 20
26.83381349370055
 30
0.0
 10
46.05004462468712
 20
26.83477046002007
 30
0.0
 10
46.07218124641788
 20
26.84116739437306
 30
0.0
 10
46.11275567719893
 20
26.85651315820263
 30
0.0
 10
46.16358155212
 20
26.87751575113948
 30
0.0
 10
46.19523783584241
 20
26.89354352743218
 30
0.0
 10
46.20874145366961
 20
26.90038049438555
 30
0.0
  0
SPLINE
  5
2F9
330
1F
100
AcDbEntity
  8
0
  6
Continuous
 62
     7
370
    25
100
AcDbSpline
210
0.0
220
0.0
230
1.0
 70
     8
 71
     3
 72
    17
 73
    13
 74
     0
 42
0.00000001
 43
0.00000001
 40
0.0
 40
0.0
 40
0.0
 40
0.0
 40
0.0783340772602533
 40
0.1839235963526618
 40
0.2895129443430491
 40
0.3951014678609888
 40
0.5006882893905727
 40
0.606272277672615
 40
0.7118520240798014
 40
0.8174258288033086
 40
0.9229917017400914
 40
1.0
 40
1.0
 40
1.0
 40
1.0
 10
46.84728928102749
 20
27.68466984228077
 30
0.0
 10
46.85182305447401
 20
27.69997142848817
 30
0.0
 10
46.86246807572782
 20
27.73589861195158
 30
0.0
 10
46.87548860702857
 20
27.79300543554923
 30
0.0
 10
46.88688114487977
 20
27.85562809576815
 30
0.0
 10
46.89487294875526
 20
27.91826422620854
 30
0.0
 10
46.89957407331694
 20
27.98067337531334
 30
0.0
 10
46.90092093525486
 20
28.04264105983835
 30
0.0
 10
46.89895641530353
 20
28.10396692108264
 30
0.0
 10
46.89354067985343
 20
28.16437634527068
 30
0.0
 10
46.88597738880375
 20
28.21852554661738
 30
0.0
 10
46.87875851945828
 20
28.25185820805707
 30
0.0
 10
46.87571365916939
 20
28.26591765314242
 30
0.0
  0
LINE
  5
2FA
330
1F
100
AcDbEntity
  8
0
  6
Continuous
 62
     7
370
    25
100
AcDbLine
 10
47.1918976412
 20
27.1295651156
 30
0.0
 11
47.1444057674
 21
27.0473067774
 31
0.0
  0
ARC
  5
2FB
330
1F
100
AcDbEntity
  8
0
  6
Continuous
 62
     7
370
    25
100
AcDbCircle
 10
47.6205802158
 20
26.882065115
 30
0.0
 40
0.4949999999999989
100
AcDbArc
 50
59.9946241226
 51
149.9999999272
  0
LINE
  5
2FC
330
1F
100
AcDbEntity
  8
0
  6
Continuous
 62
     7
370
    25
100
AcDbLine
 10
48.1356204366
 20
27.1562498022
 30
0.0
 11
47.8681204366
 21
27.3107244659
 31
0.0
  0
LINE
  5
2FD
330
1F
100
AcDbEntity
  8
0
  6
Continuous
 62
     7
370
    25
100
AcDbLine
 10
47.3479900237
 20
25.7576922005
 30
0.0
 11
48.2704900237
 21
25.224971164
 31
0.0
  0
LINE
  5
2FE
330
1F
100
AcDbEntity
  8
0
  6
Continuous
 62
     7
370
    25
100
AcDbLine
 10
49.3806704079
 20
27.1474434043
 30
0.0
 11
48.4581704079
 21
27.6801644408
 31
0.0
  0
SPLINE
  5
2FF
330
1F
100
AcDbEntity
  8
0
  6
Continuous
 62
     7
370
    25
100
AcDbSpline
210
0.0
220
0.0
230
1.0
 70
     8
 71
     3
 72
    23
 73
    19
 74
     0
 42
0.00000001
 43
0.00000001
 40
0.0
 40
0.0
 40
0.0
 40
0.0
 40
0.0122892238794636
 40
0.082148511189106
 40
0.1520175462698544
 40
0.2218947927220913
 40
0.2917788069491319
 40
0.3616682840155003
 40
0.4315620839008198
 40
0.5014592420127705
 40
0.5713589678250832
 40
0.6412606350996847
 40
0.7111637665464393
 40
0.7810680151166901
 40
0.8509731435087644
 40
0.9208790029312146
 40
0.9871105653407419
 40
1.0
 40
1.0
 40
1.0
 40
1.0
 10
48.93455713255634
 20
25.1667081293584
 30
0.0
 10
48.93786862888522
 20
25.16766542003114
 30
0.0
 10
48.96000464787989
 20
25.17406452255476
 30
0.0
 10
49.00060033079872
 20
25.18933383789851
 30
0.0
 10
49.05607852028057
 20
25.21263614876724
 30
0.0
 10
49.11072578137094
 20
25.23964044584223
 30
0.0
 10
49.16439234861399
 20
25.26984239647676
 30
0.0
 10
49.21688107851379
 20
25.30324692495149
 30
0.0
 10
49.26801266499805
 20
25.33970835426785
 30
0.0
 10
49.31760895221833
 20
25.379107795049
 30
0.0
 10
49.36549822368123
 20
25.42130617139775
 30
0.0
 10
49.41151434734255
 20
25.46615751985348
 30
0.0
 10
49.4554983697814
 20
25.51350575435785
 30
0.0
 10
49.49729631308679
 20
25.5631874478202
 30
0.0
 10
49.53676956701928
 20
25.61502723302014
 30
0.0
 10
49.57311037990267
 20
25.66791357958609
 30
0.0
 10
49.59764631389136
 20
25.70738320313998
 30
0.0
 10
49.61003905397846
 20
25.72870872660535
 30
0.0
 10
49.612057929113
 20
25.73218282262872
 30
0.0
  0
SPLINE
  5
300
330
1F
100
AcDbEntity
  8
0
  6
Continuous
 62
     7
370
    25
100
AcDbSpline
210
0.0
220
0.0
230
1.0
 70
     8
 71
     3
 72
    22
 73
    18
 74
     0
 42
0.00000001
 43
0.00000001
 40
0.0
 40
0.0
 40
0.0
 40
0.0
 40
0.0369897252747087
 40
0.1071265416968868
 40
0.1772712663759676
 40
0.2474165698019432
 40
0.3175623891820079
 40
0.3877086041367019
 40
0.4578550123292164
 40
0.5280013068533238
 40
0.5981470536546937
 40
0.6682916697721554
 40
0.7384344036749779
 40
0.8085743195681377
 40
0.8787102882156581
 40
0.9488409875300664
 40
1.0
 40
1.0
 40
1.0
 40
1.0
 10
49.612057929113
 20
25.73218282262872
 30
0.0
 10
49.61772784184149
 20
25.74217958997231
 30
0.0
 10
49.63414856780837
 20
25.77113138957917
 30
0.0
 10
49.65920094680059
 20
25.82018658511595
 30
0.0
 10
49.6861846422681
 20
25.87960318493035
 30
0.0
 10
49.71014853859187
 20
25.94010866324978
 30
0.0
 10
49.73105466909573
 20
26.00146320453322
 30
0.0
 10
49.7488178355512
 20
26.06346193377959
 30
0.0
 10
49.7633793037961
 20
26.12588806657474
 30
0.0
 10
49.77468739334238
 20
26.18852594802937
 30
0.0
 10
49.78270182482062
 20
26.25115799999743
 30
0.0
 10
49.78739688647288
 20
26.31356824190064
 30
0.0
 10
49.78874537291165
 20
26.37553563362038
 30
0.0
 10
49.78678041765451
 20
26.43686157332559
 30
0.0
 10
49.7813647990127
 20
26.49727097645971
 30
0.0
 10
49.7738014788841
 20
26.55142018304768
 30
0.0
 10
49.76658261255292
 20
26.58475284394403
 30
0.0
 10
49.76353775353542
 20
26.59881228880021
 30
0.0
  0
LINE
  5
301
330
1F
100
AcDbEntity
  8
0
  6
Continuous
 62
     7
370
    25
100
AcDbLine
 10
45.8953332597
 20
28.1826175243
 30
0.0
 11
44.9596242573
 21
28.6153507914
 31
0.0
  0
LINE
  5
302
330
1F
100
AcDbEntity
  8
0
  6
Continuous
 62
     7
370
    25
100
AcDbLine
 10
44.5440699567
 20
27.7167882597
 30
0.0
 11
45.4797789592
 21
27.2840549926
 31
0.0
  0
LINE
  5
303
330
1F
100
AcDbEntity
  8
0
  6
Continuous
 62
     7
370
    25
100
AcDbLine
 10
46.2132503208
 20
28.0355918057
 30
0.0
 11
45.8953332597
 21
28.1826175243
 31
0.0
  0
LINE
  5
304
330
1F
100
AcDbEntity
  8
0
  6
Continuous
 62
     7
370
    25
100
AcDbLine
 10
45.4797789592
 20
27.2840549926
 30
0.0
 11
45.7976960202
 21
27.137029274
 31
0.0
  0
LINE
  5
305
330
1F
100
AcDbEntity
  8
0
  6
Continuous
 62
     7
370
    25
100
AcDbLine
 10
47.2954343945
 20
27.4277152739
 30
0.0
 11
45.367861309
 21
28.5404795303
 31
0.0
  0
LINE
  5
306
330
1F
100
AcDbEntity
  8
0
  6
Continuous
 62
     7
370
    25
100
AcDbLine
 10
46.74780617
 20
26.5891850576
 30
0.0
 11
46.7954750282
 21
26.5616664115
 31
0.0
  0
LINE
  5
307
330
1F
100
AcDbEntity
  8
0
  6
Continuous
 62
     7
370
    25
100
AcDbLine
 10
45.8028304693
 20
27.1347079178
 30
0.0
 11
46.638806328
 21
26.652109327
 31
0.0
  0
LINE
  5
308
330
1F
100
AcDbEntity
  8
0
  6
Continuous
 62
     7
370
    25
100
AcDbLine
 10
46.6488797052
 20
26.6491973353
 30
0.0
 11
46.6505073988
 21
26.6438011978
 31
0.0
  0
LINE
  5
309
330
1F
100
AcDbEntity
  8
0
  6
Continuous
 62
     7
370
    25
100
AcDbLine
 10
45.4420733458
 20
27.7531319188
 30
0.0
 11
45.44378575
 21
27.7541207901
 31
0.0
  0
LINE
  5
30A
330
1F
100
AcDbEntity
  8
0
  6
Continuous
 62
     7
370
    25
100
AcDbLine
 10
45.4886090337
 20
27.8317654078
 30
0.0
 11
45.4886090337
 21
27.8333445652
 31
0.0
  0
ELLIPSE
  5
30B
330
1F
100
AcDbEntity
  8
0
  6
Continuous
 62
     7
370
    25
100
AcDbEllipse
 10
47.7602561214
 20
26.8008637715
 30
0.0
 11
-0.3607605157528014
 21
1.346629274124911
 31
0.0
210
0.0
220
0.0
230
1.0
 40
0.5176380889
 41
5.380332804093702
 42
5.805603609421685
  0
ELLIPSE
  5
30C
330
1F
100
AcDbEntity
  8
0
  6
Continuous
 62
     7
370
    25
100
AcDbEllipse
 10
47.7602561214
 20
26.8008637715
 30
0.0
 11
-0.3607605157528014
 21
1.346629274124911
 31
0.0
210
0.0
220
0.0
230
1.0
 40
0.5176380889
 41
2.663896040431875
 42
2.692976468441935
  0
LWPOLYLINE
  5
30D
330
1F
100
AcDbEntity
  8
0
  6
Continuous
 62
     7
370
    25
100
AcDbPolyline
 90
       22
 70
   128
 43
0.0
 10
46.4977561214
 20
28.811713467
 10
46.545478763
 20
28.7816844814
 10
46.5908695877
 20
28.7480526348
 10
46.6337529874
 20
28.7109480424
 10
46.6739630544
 20
28.6705142545
 10
46.7113442239
 20
28.6269077017
 10
46.7457518752
 20
28.5802970891
 10
46.7770528921
 20
28.5308627444
 10
46.8051261768
 20
28.4787959192
 10
46.8298631192
 20
28.42429805
 10
46.8511680171
 20
28.3675799786
 10
46.8689584457
 20
28.3088611361
 10
46.8831655776
 20
28.2483686942
 10
46.8937344479
 20
28.1863366866
 10
46.9006241678
 20
28.1230051029
 10
46.9038080824
 20
28.0586189609
 10
46.9032738736
 20
27.9934273579
 10
46.8990236082
 20
27.9276825076
 10
46.8910737296
 20
27.8616387641
 10
46.8794549945
 20
27.7955516378
 10
46.8642123534
 20
27.7296768068
 10
46.8514717391
 20
27.6840094595
  0
ARC
  5
30E
330
1F
100
AcDbEntity
  8
0
  6
Continuous
 62
     7
370
    25
100
AcDbCircle
 10
45.7922979743
 20
27.6400904527
 30
0.0
 40
0.8528971869358704
100
AcDbArc
 50
241.4876249521
 51
299.5383817654
  0
LINE
  5
30F
330
1F
100
AcDbEntity
  8
0
  6
Continuous
 62
     7
370
    25
100
AcDbLine
 10
46.4953434857
 20
28.81310021
 30
0.0
 11
46.4977561214
 21
28.811713467
 31
0.0
  0
SPLINE
  5
310
330
1F
100
AcDbEntity
  8
0
  6
Continuous
 62
     7
370
    25
100
AcDbSpline
210
0.0
220
0.0
230
1.0
 70
     8
 71
     3
 72
    12
 73
     8
 74
     0
 42
0.00000001
 43
0.00000001
 40
0.0
 40
0.0
 40
0.0
 40
0.0
 40
0.2148217029340256
 40
0.4296336330746934
 40
0.6446991047965233
 40
0.8599302874412064
 40
1.0
 40
1.0
 40
1.0
 40
1.0
 10
47.40379696213434
 20
28.28609871611364
 30
0.0
 10
47.39947274816911
 20
28.28865015809785
 30
0.0
 10
47.39082451695828
 20
28.29375292599457
 30
0.0
 10
47.3726848465095
 20
28.30499125300908
 30
0.0
 10
47.35323291264496
 20
28.31704978787954
 30
0.0
 10
47.33571416885619
 20
28.32775716825234
 30
0.0
 10
47.32677952602143
 20
28.33291299890834
 30
0.0
 10
47.32325723584266
 20
28.33494557391093
 30
0.0
  0
SPLINE
  5
311
330
1F
100
AcDbEntity
  8
0
  6
Continuous
 62
     7
370
    25
100
AcDbSpline
210
0.0
220
0.0
230
1.0
 70
     8
 71
     3
 72
    14
 73
    10
 74
     0
 42
0.00000001
 43
0.00000001
 40
0.0
 40
0.0
 40
0.0
 40
0.0
 40
0.1289238875285609
 40
0.2835033188925761
 40
0.4378308905869531
 40
0.5921576038048901
 40
0.7467353488942192
 40
0.9014257337952225
 40
0.9999999999999999
 40
0.9999999999999999
 40
0.9999999999999999
 40
0.9999999999999999
 10
47.35663778031333
 20
28.31491563792444
 30
0.0
 10
47.36226232245359
 20
28.31187482537687
 30
0.0
 10
47.37463067710517
 20
28.30518808589134
 30
0.0
 10
47.3918161651211
 20
28.29550655527991
 30
0.0
 10
47.40583492821624
 20
28.28712305032852
 30
0.0
 10
47.41414338528513
 20
28.28159111438831
 30
0.0
 10
47.41583301325366
 20
28.27977212722316
 30
0.0
 10
47.41172238343525
 20
28.28160094664159
 30
0.0
 10
47.40601741743551
 20
28.2848385817071
 30
0.0
 10
47.40379696213434
 20
28.28609871611364
 30
0.0
  0
SPLINE
  5
312
330
1F
100
AcDbEntity
  8
0
  6
Continuous
 62
     7
370
    25
100
AcDbSpline
210
0.0
220
0.0
230
1.0
 70
     8
 71
     3
 72
    12
 73
     8
 74
     0
 42
0.00000001
 43
0.00000001
 40
0.0
 40
0.0
 40
0.0
 40
0.0
 40
0.2148217029340158
 40
0.4296336330745875
 40
0.6446991047964801
 40
0.8599302874411721
 40
1.0
 40
1.0
 40
1.0
 40
1.0
 10
46.66979696213433
 20
28.70996564379643
 30
0.0
 10
46.66547274816909
 20
28.71251708578063
 30
0.0
 10
46.65682451695827
 20
28.71761985367734
 30
0.0
 10
46.63868484650951
 20
28.72885818069188
 30
0.0
 10
46.61923291264496
 20
28.74091671556232
 30
0.0
 10
46.60171416885618
 20
28.75162409593514
 30
0.0
 10
46.59277952602141
 20
28.75677992659113
 30
0.0
 10
46.58925723584264
 20
28.75881250159371
 30
0.0
  0
SPLINE
  5
313
330
1F
100
AcDbEntity
  8
0
  6
Continuous
 62
     7
370
    25
100
AcDbSpline
210
0.0
220
0.0
230
1.0
 70
     8
 71
     3
 72
    14
 73
    10
 74
     0
 42
0.00000001
 43
0.00000001
 40
0.0
 40
0.0
 40
0.0
 40
0.0
 40
0.1289238875268124
 40
0.2835033188911262
 40
0.4378308905858103
 40
0.5921576038040514
 40
0.7467353488937442
 40
0.9014257337949512
 40
1.0
 40
1.0
 40
1.0
 40
1.0
 10
46.62263778031359
 20
28.73878256560708
 30
0.0
 10
46.62826232245375
 20
28.73574175305956
 30
0.0
 10
46.64063067710524
 20
28.72905501357407
 30
0.0
 10
46.65781616512108
 20
28.71937348296268
 30
0.0
 10
46.67183492821625
 20
28.71098997801133
 30
0.0
 10
46.68014338528514
 20
28.7054580420711
 30
0.0
 10
46.68183301325363
 20
28.70363905490593
 30
0.0
 10
46.67772238343525
 20
28.70546787432439
 30
0.0
 10
46.67201741743551
 20
28.70870550938988
 30
0.0
 10
46.66979696213433
 20
28.70996564379643
 30
0.0
  0
ELLIPSE
  5
314
330
1F
100
AcDbEntity
  8
0
  6
Continuous
 62
     7
370
    25
100
AcDbEllipse
 10
50.6480802158
 20
25.1337584072
 30
0.0
 11
-0.3607605157527871
 21
1.346629274124915
 31
0.0
210
0.0
220
0.0
230
1.0
 40
0.5176380889
 41
2.663896040431864
 42
5.805603609421691
  0
LWPOLYLINE
  5
315
330
1F
100
AcDbEntity
  8
0
  6
Continuous
 62
     7
370
    25
100
AcDbPolyline
 90
       53
 70
   128
 43
0.0
 10
49.3831651316
 20
27.1459962468
 10
49.3855802158
 20
27.1446081026
 10
49.4333028573
 20
27.114579117
 10
49.4786936821
 20
27.0809472705
 10
49.5215770818
 20
27.043842678
 10
49.5617871488
 20
27.0034088901
 10
49.5991683182
 20
26.9598023373
 10
49.6335759696
 20
26.9131917248
 10
49.6648769864
 20
26.86375738
 10
49.6929502711
 20
26.8116905548
 10
49.7176872136
 20
26.7571926857
 10
49.7389921114
 20
26.7004746142
 10
49.7567825401
 20
26.6417557717
 10
49.7709896719
 20
26.5812633299
 10
49.7815585423
 20
26.5192313222
 10
49.7884482622
 20
26.4558997386
 10
49.7916321767
 20
26.3915135966
 10
49.7910979679
 20
26.3263219936
 10
49.7868477025
 20
26.2605771433
 10
49.778897824
 20
26.1945333998
 10
49.7672790889
 20
26.1284462734
 10
49.7520364478
 20
26.0625714425
 10
49.7332288716
 20
25.9971637639
 10
49.710929123
 20
25.9324762873
 10
49.6852234756
 20
25.868759276
 10
49.6562113794
 20
25.8062592386
 10
49.6240050766
 20
25.7452179756
 10
49.5887291672
 20
25.685871644
 10
49.5505201268
 20
25.628449843
 10
49.5095257787
 20
25.5731747265
 10
49.4659047222
 20
25.5202601432
 10
49.4198257185
 20
25.4699108093
 10
49.3714670385
 20
25.4223215166
 10
49.3210157724
 20
25.3776763789
 10
49.2686671065
 20
25.3361481194
 10
49.2146235674
 20
25.2978974031
 10
49.1590942393
 20
25.2630722144
 10
49.1022939542
 20
25.2318072852
 10
49.0444424614
 20
25.2042235735
 10
48.9857635772
 20
25.1804277953
 10
48.9264843186
 20
25.1605120119
 10
48.8668340258
 20
25.1445532736
 10
48.8070434739
 20
25.1326133215
 10
48.7473439812
 20
25.1247383491
 10
48.6879665133
 20
25.1209588231
 10
48.6291407901
 20
25.1212893657
 10
48.5710943969
 20
25.1257286982
 10
48.5140519039
 20
25.1342596457
 10
48.4582339975
 20
25.1468492035
 10
48.4038566262
 20
25.1634486651
 10
48.3511301657
 20
25.1839938104
 10
48.3002586042
 20
25.2084051542
 10
48.2729895955
 20
25.2235342429
  0
SPLINE
  5
316
330
1F
100
AcDbEntity
  8
0
  6
Continuous
 62
     7
370
    25
100
AcDbSpline
210
0.0
220
0.0
230
1.0
 70
     8
 71
     3
 72
    12
 73
     8
 74
     0
 42
0.00000001
 43
0.00000001
 40
0.0
 40
0.0
 40
0.0
 40
0.0
 40
0.2148217029340485
 40
0.4296336330747504
 40
0.644699104796596
 40
0.8599302874413051
 40
1.0
 40
1.0
 40
1.0
 40
1.0
 10
50.2916210565004
 20
26.61899335177146
 30
0.0
 10
50.28729684253517
 20
26.62154479375566
 30
0.0
 10
50.27864861132434
 20
26.62664756165238
 30
0.0
 10
50.26050894087556
 20
26.63788588866689
 30
0.0
 10
50.24105700701102
 20
26.64994442353735
 30
0.0
 10
50.22353826322225
 20
26.66065180391017
 30
0.0
 10
50.21460362038749
 20
26.66580763456616
 30
0.0
 10
50.21108133020873
 20
26.66784020956874
 30
0.0
  0
SPLINE
  5
317
330
1F
100
AcDbEntity
  8
0
  6
Continuous
 62
     7
370
    25
100
AcDbSpline
210
0.0
220
0.0
230
1.0
 70
     8
 71
     3
 72
    14
 73
    10
 74
     0
 42
0.00000001
 43
0.00000001
 40
0.0
 40
0.0
 40
0.0
 40
0.0
 40
0.1289238875285483
 40
0.2835033188925693
 40
0.4378308905869495
 40
0.5921576038048895
 40
0.7467353488942094
 40
0.9014257337952206
 40
0.9999999999999999
 40
0.9999999999999999
 40
0.9999999999999999
 40
0.9999999999999999
 10
50.2444618746794
 20
26.64781027358226
 30
0.0
 10
50.25008641681966
 20
26.64476946103468
 30
0.0
 10
50.26245477147122
 20
26.63808272154915
 30
0.0
 10
50.27964025948716
 20
26.62840119093773
 30
0.0
 10
50.2936590225823
 20
26.62001768598634
 30
0.0
 10
50.30196747965119
 20
26.61448575004612
 30
0.0
 10
50.30365710761971
 20
26.61266676288098
 30
0.0
 10
50.29954647780131
 20
26.61449558229941
 30
0.0
 10
50.29384151180157
 20
26.61773321736491
 30
0.0
 10
50.2916210565004
 20
26.61899335177146
 30
0.0
  0
SPLINE
  5
318
330
1F
100
AcDbEntity
  8
0
  6
Continuous
 62
     7
370
    25
100
AcDbSpline
210
0.0
220
0.0
230
1.0
 70
     8
 71
     3
 72
    12
 73
     8
 74
     0
 42
0.00000001
 43
0.00000001
 40
0.0
 40
0.0
 40
0.0
 40
0.0
 40
0.2148217029340465
 40
0.4296336330746232
 40
0.644699104796554
 40
0.8599302874412699
 40
1.0
 40
1.0
 40
1.0
 40
1.0
 10
49.55762105650039
 20
27.04286027945425
 30
0.0
 10
49.55329684253515
 20
27.04541172143845
 30
0.0
 10
49.54464861132433
 20
27.05051448933517
 30
0.0
 10
49.52650894087557
 20
27.06175281634971
 30
0.0
 10
49.50705700701103
 20
27.07381135122016
 30
0.0
 10
49.48953826322225
 20
27.08451873159295
 30
0.0
 10
49.48060362038748
 20
27.08967456224895
 30
0.0
 10
49.47708133020872
 20
27.09170713725153
 30
0.0
  0
SPLINE
  5
319
330
1F
100
AcDbEntity
  8
0
  6
Continuous
 62
     7
370
    25
100
AcDbSpline
210
0.0
220
0.0
230
1.0
 70
     8
 71
     3
 72
    14
 73
    10
 74
     0
 42
0.00000001
 43
0.00000001
 40
0.0
 40
0.0
 40
0.0
 40
0.0
 40
0.1289238875267135
 40
0.283503318891045
 40
0.4378308905857468
 40
0.5921576038040054
 40
0.746735348893716
 40
0.90142573379494
 40
1.0
 40
1.0
 40
1.0
 40
1.0
 10
49.51046187467967
 20
27.07167720126489
 30
0.0
 10
49.51608641681983
 20
27.06863638871738
 30
0.0
 10
49.52845477147131
 20
27.0619496492319
 30
0.0
 10
49.54564025948716
 20
27.05226811862051
 30
0.0
 10
49.55965902258232
 20
27.04388461366915
 30
0.0
 10
49.56796747965122
 20
27.03835267772893
 30
0.0
 10
49.56965710761969
 20
27.03653369056375
 30
0.0
 10
49.56554647780131
 20
27.03836250998221
 30
0.0
 10
49.55984151180157
 20
27.04160014504771
 30
0.0
 10
49.55762105650039
 20
27.04286027945425
 30
0.0
  0
SPLINE
  5
31A
330
1F
100
AcDbEntity
  8
0
  6
Continuous
 62
     7
370
    25
100
AcDbSpline
210
0.0
220
0.0
230
1.0
 70
    11
 71
     3
 72
    26
 73
    22
 74
     0
 42
0.00000001
 43
0.00000001
 40
0.0
 40
0.0
 40
0.0
 40
0.0
 40
0.053620060783951
 40
0.1072376822530557
 40
0.1609185883661258
 40
0.2146408563604092
 40
0.2682944511770098
 40
0.3218767096526299
 40
0.3754958818586768
 40
0.4292028051159855
 40
0.4829116531776035
 40
0.5365331513008919
 40
0.5901144855235889
 40
0.6437653861511223
 40
0.6974870899191803
 40
0.7511704282073614
 40
0.8047662990509475
 40
0.8583618717573376
 40
0.9120446244252566
 40
0.9657664953707873
 40
1.0
 40
1.0
 40
1.0
 40
1.0
 10
49.30357163627336
 20
25.20260836912399
 30
0.0
 10
49.3003597976722
 20
25.20518625425596
 30
0.0
 10
49.2939362665847
 20
25.21034190724527
 30
0.0
 10
49.29320704136114
 20
25.22208172624075
 30
0.0
 10
49.29929082215258
 20
25.23538564638904
 30
0.0
 10
49.31199490718675
 20
25.24929357347144
 30
0.0
 10
49.3296651801522
 20
25.2622659013802
 30
0.0
 10
49.35032379723702
 20
25.27288377588548
 30
0.0
 10
49.37169728036955
 20
25.27985859901292
 30
0.0
 10
49.39148494845534
 20
25.28222745070084
 30
0.0
 10
49.40752428942037
 20
25.27953070469784
 30
0.0
 10
49.41803934078632
 20
25.27197807650022
 30
0.0
 10
49.42185164536684
 20
25.26045535505825
 30
0.0
 10
49.41847761616129
 20
25.24638388711435
 30
0.0
 10
49.40819157765628
 20
25.23152576006308
 30
0.0
 10
49.39207514033278
 20
25.21772660295809
 30
0.0
 10
49.37194813063439
 20
25.20661515542579
 30
0.0
 10
49.35006984045665
 20
25.19934490371456
 30
0.0
 10
49.32907489496306
 20
25.19663560074105
 30
0.0
 10
49.3131427636223
 20
25.19814994623552
 30
0.0
 10
49.30625316696469
 20
25.20135925840019
 30
0.0
 10
49.30357163627336
 20
25.20260836912399
 30
0.0
  0
LWPOLYLINE
  5
31B
330
1F
100
AcDbEntity
  8
0
  6
Continuous
 62
     7
370
    25
100
AcDbPolyline
 90
       27
 70
   128
 43
0.0
 10
59.8452276016
 20
41.4927445063
 10
59.8436249171
 20
41.5089117749
 10
59.8389100056
 20
41.5259898809
 10
59.8313568807
 20
41.5429863067
 10
59.8214045026
 20
41.5589132819
 10
59.8096312673
 20
41.5728451886
 10
59.7967213924
 20
41.583972355
 10
59.783425153
 20
41.5916481106
 10
59.7705152781
 20
41.5954263685
 10
59.7587420428
 20
41.5950875499
 10
59.7487896647
 20
41.5906513459
 10
59.7412365398
 20
41.5823755724
 10
59.7365216283
 20
41.5707411874
 10
59.7349189438
 20
41.556424339
 10
59.7365216283
 20
41.5402570704
 10
59.7412365398
 20
41.5231789644
 10
59.7487896647
 20
41.5061825386
 10
59.7587420428
 20
41.4902555634
 10
59.7705152781
 20
41.4763236567
 10
59.783425153
 20
41.4651964903
 10
59.7967213924
 20
41.4575207346
 10
59.8096312673
 20
41.4537424768
 10
59.8214045026
 20
41.4540812953
 10
59.8313568807
 20
41.4585174993
 10
59.8389100056
 20
41.4667932728
 10
59.8436249171
 20
41.4784276578
 10
59.8452276016
 20
41.4927445063
  0
LWPOLYLINE
  5
31C
330
1F
100
AcDbEntity
  8
0
  6
Continuous
 62
     7
370
    25
100
AcDbPolyline
 90
       18
 70
   128
 43
0.0
 10
59.9512936188
 20
41.4902952819
 10
59.9497069292
 20
41.5127386448
 10
59.9449925065
 20
41.5363683058
 10
59.9372859761
 20
41.5605044827
 10
59.9268090408
 20
41.5844528216
 10
59.913863103
 20
41.6075243723
 10
59.8988205937
 20
41.6290554083
 10
59.8821142586
 20
41.648426521
 10
59.8642247085
 20
41.6650804387
 10
59.8456665931
 20
41.6785380586
 10
59.8269737957
 20
41.6884122293
 10
59.8086840741
 20
41.694418889
 10
59.7913235901
 20
41.696385237
 10
59.7753917733
 20
41.6942547051
 10
59.7613469532
 20
41.6880885848
 10
59.7495931735
 20
41.6780642641
 10
59.7404685692
 20
41.6644701245
 10
59.7378063389
 20
41.6585919729
  0
LWPOLYLINE
  5
31D
330
1F
100
AcDbEntity
  8
0
  6
Continuous
 62
     7
370
    25
100
AcDbPolyline
 90
        9
 70
   128
 43
0.0
 10
59.8799832132
 20
41.4123077176
 10
59.8821142586
 20
41.412036832
 10
59.8988205937
 20
41.4121192208
 10
59.913863103
 20
41.4162825453
 10
59.9268090408
 20
41.4244070344
 10
59.9372859761
 20
41.4362589612
 10
59.9449925065
 20
41.4514973674
 10
59.9497069292
 20
41.4696838719
 10
59.9512936188
 20
41.4902952819
  0
LWPOLYLINE
  5
31E
330
1F
100
AcDbEntity
  8
0
  6
Continuous
 62
     7
370
    25
100
AcDbPolyline
 90
       15
 70
   128
 43
0.0
 10
59.9619002205
 20
41.4964183428
 10
59.9603135309
 20
41.5188617056
 10
59.9555991082
 20
41.5424913667
 10
59.9478925778
 20
41.5666275436
 10
59.9374156425
 20
41.5905758824
 10
59.9244697047
 20
41.6136474331
 10
59.9094271954
 20
41.6351784692
 10
59.8927208603
 20
41.6545495819
 10
59.8748313102
 20
41.6712034996
 10
59.8562731948
 20
41.6846611194
 10
59.8375803974
 20
41.6945352901
 10
59.8192906758
 20
41.7005419498
 10
59.8019301918
 20
41.7025082979
 10
59.7859983751
 20
41.7003777659
 10
59.7735979015
 20
41.695201798
  0
ARC
  5
31F
330
1F
100
AcDbEntity
  8
0
  6
Continuous
 62
     7
370
    25
100
AcDbCircle
 10
59.8835474014
 20
41.4888461138
 30
0.0
 40
0.0787178691196965
100
AcDbArc
 50
305.792103772
 51
5.5200766214
  0
LINE
  5
320
330
1F
100
AcDbEntity
  8
0
  6
Continuous
 62
     7
370
    25
100
AcDbLine
 10
59.7900732727
 20
41.568898848
 30
0.0
 11
59.8233072914
 21
41.5275560447
 31
0.0
  0
LINE
  5
321
330
1F
100
AcDbEntity
  8
0
  6
Continuous
 62
     7
370
    25
100
AcDbLine
 10
59.756839254
 20
41.565927226
 30
0.0
 11
59.7900732727
 21
41.568898848
 31
0.0
  0
LINE
  5
322
330
1F
100
AcDbEntity
  8
0
  6
Continuous
 62
     7
370
    25
100
AcDbLine
 10
59.756839254
 20
41.5216128006
 30
0.0
 11
59.756839254
 21
41.565927226
 31
0.0
  0
LINE
  5
323
330
1F
100
AcDbEntity
  8
0
  6
Continuous
 62
     7
370
    25
100
AcDbLine
 10
59.7900732727
 20
41.4802699972
 30
0.0
 11
59.756839254
 21
41.5216128006
 31
0.0
  0
LINE
  5
324
330
1F
100
AcDbEntity
  8
0
  6
Continuous
 62
     7
370
    25
100
AcDbLine
 10
59.8233072914
 20
41.4832416193
 30
0.0
 11
59.7900732727
 21
41.4802699972
 31
0.0
  0
LINE
  5
325
330
1F
100
AcDbEntity
  8
0
  6
Continuous
 62
     7
370
    25
100
AcDbLine
 10
59.8233072914
 20
41.5275560447
 30
0.0
 11
59.8233072914
 21
41.4832416193
 31
0.0
  0
ARC
  5
326
330
1F
100
AcDbEntity
  8
0
  6
Continuous
 62
     7
370
    25
100
AcDbCircle
 10
59.860239903
 20
41.5615148722
 30
0.0
 40
0.0636363456349273
100
AcDbArc
 50
218.1926815761
 51
234.5234451208
  0
ARC
  5
327
330
1F
100
AcDbEntity
  8
0
  6
Continuous
 62
     7
370
    25
100
AcDbCircle
 10
59.865672319
 20
41.5683185261
 30
0.0
 40
0.0721400363877836
100
AcDbArc
 50
182.6392873612
 51
219.7720723791
  0
LINE
  5
328
330
1F
100
AcDbEntity
  8
0
  6
Continuous
 62
     7
370
    25
100
AcDbLine
 10
59.8233072914
 20
41.4994555878
 30
0.0
 11
59.7900732727
 21
41.4802699972
 31
0.0
  0
LINE
  5
329
330
1F
100
AcDbEntity
  8
0
  6
Continuous
 62
     7
370
    25
100
AcDbLine
 10
59.7936088066
 20
41.5428394115
 30
0.0
 11
59.756839254
 21
41.5216128006
 31
0.0
  0
LINE
  5
32A
330
1F
100
AcDbEntity
  8
0
  6
Continuous
 62
     7
370
    25
100
AcDbLine
 10
59.7936088066
 20
41.5428394115
 30
0.0
 11
59.7936088066
 21
41.5645006775
 31
0.0
  0
LINE
  5
32B
330
1F
100
AcDbEntity
  8
0
  6
Continuous
 62
     7
370
    25
100
AcDbLine
 10
59.810225816
 20
41.5221680098
 30
0.0
 11
59.7936088066
 21
41.5428394115
 31
0.0
  0
LINE
  5
32C
330
1F
100
AcDbEntity
  8
0
  6
Continuous
 62
     7
370
    25
100
AcDbLine
 10
59.8233072914
 20
41.5058947787
 30
0.0
 11
59.810225816
 21
41.5221680098
 31
0.0
  0
LWPOLYLINE
  5
32D
330
1F
100
AcDbEntity
  8
0
  6
Continuous
 62
     7
370
    25
100
AcDbPolyline
 90
       27
 70
   128
 43
0.0
 10
59.8452276016
 20
38.0284552351
 10
59.8436249171
 20
38.0446225037
 10
59.8389100056
 20
38.0617006097
 10
59.8313568807
 20
38.0786970355
 10
59.8214045026
 20
38.0946240107
 10
59.8096312673
 20
38.1085559174
 10
59.7967213924
 20
38.1196830838
 10
59.783425153
 20
38.1273588394
 10
59.7705152781
 20
38.1311370973
 10
59.7587420428
 20
38.1307982787
 10
59.7487896647
 20
38.1263620747
 10
59.7412365398
 20
38.1180863012
 10
59.7365216283
 20
38.1064519162
 10
59.7349189438
 20
38.0921350678
 10
59.7365216283
 20
38.0759677992
 10
59.7412365398
 20
38.0588896932
 10
59.7487896647
 20
38.0418932674
 10
59.7587420428
 20
38.0259662922
 10
59.7705152781
 20
38.0120343855
 10
59.783425153
 20
38.0009072191
 10
59.7967213924
 20
37.9932314634
 10
59.8096312673
 20
37.9894532056
 10
59.8214045026
 20
37.9897920241
 10
59.8313568807
 20
37.9942282281
 10
59.8389100056
 20
38.0025040016
 10
59.8436249171
 20
38.0141383866
 10
59.8452276016
 20
38.0284552351
  0
LWPOLYLINE
  5
32E
330
1F
100
AcDbEntity
  8
0
  6
Continuous
 62
     7
370
    25
100
AcDbPolyline
 90
       18
 70
   128
 43
0.0
 10
59.9512936188
 20
38.0260060107
 10
59.9497069292
 20
38.0484493736
 10
59.9449925065
 20
38.0720790346
 10
59.9372859761
 20
38.0962152115
 10
59.9268090408
 20
38.1201635504
 10
59.913863103
 20
38.1432351011
 10
59.8988205937
 20
38.1647661371
 10
59.8821142586
 20
38.1841372498
 10
59.8642247085
 20
38.2007911675
 10
59.8456665931
 20
38.2142487874
 10
59.8269737957
 20
38.2241229581
 10
59.8086840741
 20
38.2301296178
 10
59.7913235901
 20
38.2320959658
 10
59.7753917733
 20
38.2299654339
 10
59.7613469532
 20
38.2237993136
 10
59.7495931735
 20
38.2137749929
 10
59.7404685692
 20
38.2001808533
 10
59.7378063389
 20
38.1943027017
  0
LWPOLYLINE
  5
32F
330
1F
100
AcDbEntity
  8
0
  6
Continuous
 62
     7
370
    25
100
AcDbPolyline
 90
        9
 70
   128
 43
0.0
 10
59.8799832132
 20
37.9480184464
 10
59.8821142586
 20
37.9477475608
 10
59.8988205937
 20
37.9478299496
 10
59.913863103
 20
37.9519932741
 10
59.9268090408
 20
37.9601177632
 10
59.9372859761
 20
37.97196969
 10
59.9449925065
 20
37.9872080962
 10
59.9497069292
 20
38.0053946007
 10
59.9512936188
 20
38.0260060107
  0
LWPOLYLINE
  5
330
330
1F
100
AcDbEntity
  8
0
  6
Continuous
 62
     7
370
    25
100
AcDbPolyline
 90
       15
 70
   128
 43
0.0
 10
59.9619002205
 20
38.0321290716
 10
59.9603135309
 20
38.0545724344
 10
59.9555991082
 20
38.0782020955
 10
59.9478925778
 20
38.1023382724
 10
59.9374156425
 20
38.1262866112
 10
59.9244697047
 20
38.1493581619
 10
59.9094271954
 20
38.170889198
 10
59.8927208603
 20
38.1902603107
 10
59.8748313102
 20
38.2069142284
 10
59.8562731948
 20
38.2203718482
 10
59.8375803974
 20
38.2302460189
 10
59.8192906758
 20
38.2362526786
 10
59.8019301918
 20
38.2382190267
 10
59.7859983751
 20
38.2360884947
 10
59.7735979015
 20
38.2309125268
  0
ARC
  5
331
330
1F
100
AcDbEntity
  8
0
  6
Continuous
 62
     7
370
    25
100
AcDbCircle
 10
59.8835474014
 20
38.0245568426
 30
0.0
 40
0.0787178691197247
100
AcDbArc
 50
305.792103772
 51
5.5200766214
  0
LINE
  5
332
330
1F
100
AcDbEntity
  8
0
  6
Continuous
 62
     7
370
    25
100
AcDbLine
 10
59.7900732727
 20
38.1046095768
 30
0.0
 11
59.8233072914
 21
38.0632667735
 31
0.0
  0
LINE
  5
333
330
1F
100
AcDbEntity
  8
0
  6
Continuous
 62
     7
370
    25
100
AcDbLine
 10
59.756839254
 20
38.1016379548
 30
0.0
 11
59.7900732727
 21
38.1046095768
 31
0.0
  0
LINE
  5
334
330
1F
100
AcDbEntity
  8
0
  6
Continuous
 62
     7
370
    25
100
AcDbLine
 10
59.756839254
 20
38.0573235294
 30
0.0
 11
59.756839254
 21
38.1016379548
 31
0.0
  0
LINE
  5
335
330
1F
100
AcDbEntity
  8
0
  6
Continuous
 62
     7
370
    25
100
AcDbLine
 10
59.7900732727
 20
38.015980726
 30
0.0
 11
59.756839254
 21
38.0573235294
 31
0.0
  0
LINE
  5
336
330
1F
100
AcDbEntity
  8
0
  6
Continuous
 62
     7
370
    25
100
AcDbLine
 10
59.8233072914
 20
38.0189523481
 30
0.0
 11
59.7900732727
 21
38.015980726
 31
0.0
  0
LINE
  5
337
330
1F
100
AcDbEntity
  8
0
  6
Continuous
 62
     7
370
    25
100
AcDbLine
 10
59.8233072914
 20
38.0632667735
 30
0.0
 11
59.8233072914
 21
38.0189523481
 31
0.0
  0
ARC
  5
338
330
1F
100
AcDbEntity
  8
0
  6
Continuous
 62
     7
370
    25
100
AcDbCircle
 10
59.860239903
 20
38.097225601
 30
0.0
 40
0.0636363456325208
100
AcDbArc
 50
218.1926815758
 51
234.5234451212
  0
ARC
  5
339
330
1F
100
AcDbEntity
  8
0
  6
Continuous
 62
     7
370
    25
100
AcDbCircle
 10
59.865672319
 20
38.1040292549
 30
0.0
 40
0.0721400363879434
100
AcDbArc
 50
182.6392873612
 51
219.7720723791
  0
LINE
  5
33A
330
1F
100
AcDbEntity
  8
0
  6
Continuous
 62
     7
370
    25
100
AcDbLine
 10
59.8233072914
 20
38.0351663166
 30
0.0
 11
59.7900732727
 21
38.015980726
 31
0.0
  0
LINE
  5
33B
330
1F
100
AcDbEntity
  8
0
  6
Continuous
 62
     7
370
    25
100
AcDbLine
 10
59.7936088066
 20
38.0785501403
 30
0.0
 11
59.756839254
 21
38.0573235294
 31
0.0
  0
LINE
  5
33C
330
1F
100
AcDbEntity
  8
0
  6
Continuous
 62
     7
370
    25
100
AcDbLine
 10
59.7936088066
 20
38.0785501403
 30
0.0
 11
59.7936088066
 21
38.1002114063
 31
0.0
  0
LINE
  5
33D
330
1F
100
AcDbEntity
  8
0
  6
Continuous
 62
     7
370
    25
100
AcDbLine
 10
59.810225816
 20
38.0578787386
 30
0.0
 11
59.7936088066
 21
38.0785501403
 31
0.0
  0
LINE
  5
33E
330
1F
100
AcDbEntity
  8
0
  6
Continuous
 62
     7
370
    25
100
AcDbLine
 10
59.8233072914
 20
38.0416055075
 30
0.0
 11
59.810225816
 21
38.0578787386
 31
0.0
  0
LWPOLYLINE
  5
33F
330
1F
100
AcDbEntity
  8
0
  6
Continuous
 62
     7
370
    25
100
AcDbPolyline
 90
       27
 70
   128
 43
0.0
 10
56.8452276016
 20
43.2246076425
 10
56.8436249171
 20
43.2407749112
 10
56.8389100056
 20
43.2578530171
 10
56.8313568807
 20
43.2748494429
 10
56.8214045026
 20
43.2907764182
 10
56.8096312673
 20
43.3047083248
 10
56.7967213924
 20
43.3158354912
 10
56.783425153
 20
43.3235112469
 10
56.7705152781
 20
43.3272895047
 10
56.7587420428
 20
43.3269506862
 10
56.7487896647
 20
43.3225144822
 10
56.7412365398
 20
43.3142387087
 10
56.7365216283
 20
43.3026043237
 10
56.7349189438
 20
43.2882874752
 10
56.7365216283
 20
43.2721202066
 10
56.7412365398
 20
43.2550421007
 10
56.7487896647
 20
43.2380456748
 10
56.7587420428
 20
43.2221186996
 10
56.7705152781
 20
43.2081867929
 10
56.783425153
 20
43.1970596265
 10
56.7967213924
 20
43.1893838709
 10
56.8096312673
 20
43.185605613
 10
56.8214045026
 20
43.1859444316
 10
56.8313568807
 20
43.1903806356
 10
56.8389100056
 20
43.1986564091
 10
56.8436249171
 20
43.2102907941
 10
56.8452276016
 20
43.2246076425
  0
LWPOLYLINE
  5
340
330
1F
100
AcDbEntity
  8
0
  6
Continuous
 62
     7
370
    25
100
AcDbPolyline
 90
       18
 70
   128
 43
0.0
 10
56.9512936188
 20
43.2221584182
 10
56.9497069292
 20
43.2446017811
 10
56.9449925065
 20
43.2682314421
 10
56.9372859761
 20
43.292367619
 10
56.9268090408
 20
43.3163159578
 10
56.913863103
 20
43.3393875085
 10
56.8988205937
 20
43.3609185446
 10
56.8821142586
 20
43.3802896573
 10
56.8642247085
 20
43.396943575
 10
56.8456665931
 20
43.4104011948
 10
56.8269737957
 20
43.4202753656
 10
56.8086840741
 20
43.4262820253
 10
56.7913235901
 20
43.4282483733
 10
56.7753917733
 20
43.4261178414
 10
56.7613469532
 20
43.419951721
 10
56.7495931735
 20
43.4099274004
 10
56.7404685692
 20
43.3963332608
 10
56.7378063389
 20
43.3904551091
  0
LWPOLYLINE
  5
341
330
1F
100
AcDbEntity
  8
0
  6
Continuous
 62
     7
370
    25
100
AcDbPolyline
 90
        9
 70
   128
 43
0.0
 10
56.8799832132
 20
43.1441708538
 10
56.8821142586
 20
43.1438999683
 10
56.8988205937
 20
43.143982357
 10
56.913863103
 20
43.1481456816
 10
56.9268090408
 20
43.1562701706
 10
56.9372859761
 20
43.1681220975
 10
56.9449925065
 20
43.1833605037
 10
56.9497069292
 20
43.2015470082
 10
56.9512936188
 20
43.2221584182
  0
LWPOLYLINE
  5
342
330
1F
100
AcDbEntity
  8
0
  6
Continuous
 62
     7
370
    25
100
AcDbPolyline
 90
       15
 70
   128
 43
0.0
 10
56.9619002205
 20
43.228281479
 10
56.9603135309
 20
43.2507248419
 10
56.9555991082
 20
43.2743545029
 10
56.9478925778
 20
43.2984906798
 10
56.9374156425
 20
43.3224390187
 10
56.9244697047
 20
43.3455105694
 10
56.9094271954
 20
43.3670416054
 10
56.8927208603
 20
43.3864127181
 10
56.8748313102
 20
43.4030666358
 10
56.8562731948
 20
43.4165242557
 10
56.8375803974
 20
43.4263984264
 10
56.8192906758
 20
43.4324050861
 10
56.8019301918
 20
43.4343714341
 10
56.7859983751
 20
43.4322409022
 10
56.7735979015
 20
43.4270649343
  0
ARC
  5
343
330
1F
100
AcDbEntity
  8
0
  6
Continuous
 62
     7
370
    25
100
AcDbCircle
 10
56.8835474014
 20
43.2207092501
 30
0.0
 40
0.0787178691197429
100
AcDbArc
 50
305.792103772
 51
5.5200766214
  0
LINE
  5
344
330
1F
100
AcDbEntity
  8
0
  6
Continuous
 62
     7
370
    25
100
AcDbLine
 10
56.7900732727
 20
43.3007619843
 30
0.0
 11
56.8233072914
 21
43.259419181
 31
0.0
  0
LINE
  5
345
330
1F
100
AcDbEntity
  8
0
  6
Continuous
 62
     7
370
    25
100
AcDbLine
 10
56.756839254
 20
43.2977903622
 30
0.0
 11
56.7900732727
 21
43.3007619843
 31
0.0
  0
LINE
  5
346
330
1F
100
AcDbEntity
  8
0
  6
Continuous
 62
     7
370
    25
100
AcDbLine
 10
56.756839254
 20
43.2534759368
 30
0.0
 11
56.756839254
 21
43.2977903622
 31
0.0
  0
LINE
  5
347
330
1F
100
AcDbEntity
  8
0
  6
Continuous
 62
     7
370
    25
100
AcDbLine
 10
56.7900732727
 20
43.2121331335
 30
0.0
 11
56.756839254
 21
43.2534759368
 31
0.0
  0
LINE
  5
348
330
1F
100
AcDbEntity
  8
0
  6
Continuous
 62
     7
370
    25
100
AcDbLine
 10
56.8233072914
 20
43.2151047556
 30
0.0
 11
56.7900732727
 21
43.2121331335
 31
0.0
  0
LINE
  5
349
330
1F
100
AcDbEntity
  8
0
  6
Continuous
 62
     7
370
    25
100
AcDbLine
 10
56.8233072914
 20
43.259419181
 30
0.0
 11
56.8233072914
 21
43.2151047556
 31
0.0
  0
ARC
  5
34A
330
1F
100
AcDbEntity
  8
0
  6
Continuous
 62
     7
370
    25
100
AcDbCircle
 10
56.860239903
 20
43.2933780084
 30
0.0
 40
0.0636363456353577
100
AcDbArc
 50
218.1926815762
 51
234.5234451208
  0
ARC
  5
34B
330
1F
100
AcDbEntity
  8
0
  6
Continuous
 62
     7
370
    25
100
AcDbCircle
 10
56.865672319
 20
43.3001816623
 30
0.0
 40
0.072140036388036
100
AcDbArc
 50
182.6392873612
 51
219.772072379
  0
LINE
  5
34C
330
1F
100
AcDbEntity
  8
0
  6
Continuous
 62
     7
370
    25
100
AcDbLine
 10
56.8233072914
 20
43.2313187241
 30
0.0
 11
56.7900732727
 21
43.2121331335
 31
0.0
  0
LINE
  5
34D
330
1F
100
AcDbEntity
  8
0
  6
Continuous
 62
     7
370
    25
100
AcDbLine
 10
56.7936088066
 20
43.2747025477
 30
0.0
 11
56.756839254
 21
43.2534759368
 31
0.0
  0
LINE
  5
34E
330
1F
100
AcDbEntity
  8
0
  6
Continuous
 62
     7
370
    25
100
AcDbLine
 10
56.7936088066
 20
43.2747025477
 30
0.0
 11
56.7936088066
 21
43.2963638137
 31
0.0
  0
LINE
  5
34F
330
1F
100
AcDbEntity
  8
0
  6
Continuous
 62
     7
370
    25
100
AcDbLine
 10
56.810225816
 20
43.254031146
 30
0.0
 11
56.7936088066
 21
43.2747025477
 31
0.0
  0
LINE
  5
350
330
1F
100
AcDbEntity
  8
0
  6
Continuous
 62
     7
370
    25
100
AcDbLine
 10
56.8233072914
 20
43.2377579149
 30
0.0
 11
56.810225816
 21
43.254031146
 31
0.0
  0
LWPOLYLINE
  5
351
330
1F
100
AcDbEntity
  8
0
  6
Continuous
 62
     7
370
    25
100
AcDbPolyline
 90
        3
 70
   128
 43
0.0
 10
59.7724556656
 20
38.2845347936
 10
59.7362150977
 20
38.260757955
 10
59.7090513815
 20
38.24445605
  0
LWPOLYLINE
  5
352
330
1F
100
AcDbEntity
  8
0
  6
Continuous
 62
     7
370
    25
100
AcDbPolyline
 90
        3
 70
   128
 43
0.0
 10
60.0584033915
 20
37.9554245807
 10
60.0524799103
 20
37.951978696
 10
60.0523488667
 20
37.9519030338
  0
LWPOLYLINE
  5
353
330
1F
100
AcDbEntity
  8
0
  6
Continuous
 62
     7
370
    25
100
AcDbPolyline
 90
       88
 70
   128
 43
0.0
 10
56.9356672478
 20
43.6002977546
 10
56.995634792
 20
43.6324429881
 10
57.0576738853
 20
43.660818712
 10
57.1217017488
 20
43.6853870645
 10
57.1876329498
 20
43.7061152638
 10
57.2553795161
 20
43.7229756523
 10
57.3248510534
 20
43.7359457332
 10
57.3959548654
 20
43.7450082003
 10
57.4685960782
 20
43.7501509617
 10
57.5426777663
 20
43.7513671552
 10
57.6181010823
 20
43.7486551582
 10
57.6947653886
 20
43.7420185893
 10
57.7725683918
 20
43.7314663036
 10
57.8514062791
 20
43.7170123812
 10
57.9311738568
 20
43.6986761079
 10
58.0117646908
 20
43.6764819499
 10
58.0930712485
 20
43.6504595208
 10
58.1749850422
 20
43.6206435427
 10
58.2573967742
 20
43.5870737989
 10
58.3401964822
 20
43.5497950817
 10
58.4232736863
 20
43.5088571322
 10
58.5065175362
 20
43.464314574
 10
58.5898169595
 20
43.4162268406
 10
58.6730608094
 20
43.3646580953
 10
58.7561380135
 20
43.3096771467
 10
58.8389377214
 20
43.2513573559
 10
58.9213494534
 20
43.1897765393
 10
59.0032632472
 20
43.1250168643
 10
59.0845698049
 20
43.05716474
 10
59.1651606389
 20
42.9863107017
 10
59.2449282166
 20
42.9125492902
 10
59.3237661039
 20
42.8359789255
 10
59.401569107
 20
42.7567017757
 10
59.4782334134
 20
42.6748236207
 10
59.5536567294
 20
42.5904537106
 10
59.6277384175
 20
42.5037046206
 10
59.7003796302
 20
42.4146921002
 10
59.7714834423
 20
42.3235349191
 10
59.8409549795
 20
42.2303547087
 10
59.9087015459
 20
42.1352757995
 10
59.9746327469
 20
42.0384250558
 10
60.0386606103
 20
41.9399317058
 10
60.1006997036
 20
41.8399271694
 10
60.1606672478
 20
41.7385448831
 10
60.218483228
 20
41.6359201215
 10
60.2740705001
 20
41.5321898173
 10
60.3273548939
 20
41.427492378
 10
60.3782653118
 20
41.3219675019
 10
60.4267338239
 20
41.2157559911
 10
60.4726957585
 20
41.108999564
 10
60.5160897884
 20
41.001840666
 10
60.5568580129
 20
40.8944222796
 10
60.5949460347
 20
40.7868877336
 10
60.630303033
 20
40.6793805115
 10
60.6628818306
 20
40.5720440606
 10
60.6926389577
 20
40.4650216004
 10
60.7195347092
 20
40.3584559312
 10
60.7435331981
 20
40.252489244
 10
60.7646024029
 20
40.1472629303
 10
60.7827142112
 20
40.0429173942
 10
60.7978444561
 20
39.9395918641
 10
60.8099729494
 20
39.8374242076
 10
60.819083508
 20
39.7365507474
 10
60.8251639756
 20
39.6371060793
 10
60.8282062391
 20
39.5392228926
 10
60.8282062391
 20
39.4430317931
 10
60.8251639756
 20
39.348661129
 10
60.819083508
 20
39.2562368194
 10
60.8099729494
 20
39.1658821862
 10
60.7978444561
 20
39.07771779
 10
60.7827142112
 20
38.9918612689
 10
60.7646024029
 20
38.9084271814
 10
60.7435331981
 20
38.827526854
 10
60.7195347092
 20
38.7492682321
 10
60.6926389577
 20
38.6737557366
 10
60.6628818306
 20
38.601090124
 10
60.630303033
 20
38.5313683523
 10
60.5949460347
 20
38.4646834515
 10
60.5568580129
 20
38.4011243994
 10
60.5160897884
 20
38.340776003
 10
60.4726957585
 20
38.2837187856
 10
60.4267338239
 20
38.2300288786
 10
60.3782653118
 20
38.1797779207
 10
60.3273548939
 20
38.1330329619
 10
60.2740705001
 20
38.0898563742
 10
60.218483228
 20
38.0503057683
 10
60.1606672478
 20
38.0144339166
 10
60.1605362042
 20
38.0143582544
  0
LWPOLYLINE
  5
354
330
1F
100
AcDbEntity
  8
0
  6
Continuous
 62
     7
370
    25
100
AcDbPolyline
 90
       36
 70
   128
 43
0.0
 10
43.9594762558
 20
32.962828421
 10
43.9712685599
 20
32.9690221075
 10
43.9963924199
 20
32.9786097585
 10
44.0233340628
 20
32.984368357
 10
44.0518636319
 20
32.9862487725
 10
44.081737723
 20
32.9842349621
 10
44.1127014609
 20
32.9783441068
 10
44.1444906739
 20
32.9686264655
 10
44.1768341476
 20
32.9551649454
 10
44.2094559389
 20
32.9380743957
 10
44.2420777303
 20
32.9175006269
 10
44.274421204
 20
32.893619167
 10
44.306210417
 20
32.8666337643
 10
44.3371741548
 20
32.8367746488
 10
44.3670482459
 20
32.8042965678
 10
44.395577815
 20
32.7694766129
 10
44.4225194579
 20
32.7326118557
 10
44.447643318
 20
32.6940168133
 10
44.4707350473
 20
32.654020765
 10
44.4915976354
 20
32.612964943
 10
44.51005309
 20
32.571199621
 10
44.5259439557
 20
32.5290811261
 10
44.5391346573
 20
32.4869687985
 10
44.5495126562
 20
32.4452219255
 10
44.5569894112
 20
32.404196677
 10
44.5615011331
 20
32.3642430657
 10
44.5630093295
 20
32.3257019618
 10
44.5615011331
 20
32.2889021845
 10
44.5569894112
 20
32.2541576965
 10
44.5495126562
 20
32.2217649254
 10
44.5391346573
 20
32.1920002351
 10
44.5259439557
 20
32.1651175672
 10
44.51005309
 20
32.1413462753
 10
44.4915976354
 20
32.1208891677
 10
44.4707350473
 20
32.1039207772
 10
44.4594356221
 20
32.0967795586
  0
LWPOLYLINE
  5
355
330
1F
100
AcDbEntity
  8
0
  6
Continuous
 62
     7
370
    25
100
AcDbPolyline
 90
       36
 70
   128
 43
0.0
 10
56.6873983171
 20
40.3105014274
 10
56.6991906212
 20
40.3166951139
 10
56.7243144813
 20
40.3262827649
 10
56.7512561242
 20
40.3320413634
 10
56.7797856933
 20
40.3339217789
 10
56.8096597844
 20
40.3319079685
 10
56.8406235223
 20
40.3260171132
 10
56.8724127352
 20
40.3162994719
 10
56.904756209
 20
40.3028379518
 10
56.9373780003
 20
40.2857474021
 10
56.9699997916
 20
40.2651736333
 10
57.0023432653
 20
40.2412921734
 10
57.0341324783
 20
40.2143067707
 10
57.0650962162
 20
40.1844476552
 10
57.0949703073
 20
40.1519695742
 10
57.1234998764
 20
40.1171496193
 10
57.1504415193
 20
40.0802848621
 10
57.1755653793
 20
40.0416898197
 10
57.1986571087
 20
40.0016937714
 10
57.2195196967
 20
39.9606379494
 10
57.2379751514
 20
39.9188726274
 10
57.2538660171
 20
39.8767541325
 10
57.2670567186
 20
39.8346418049
 10
57.2774347176
 20
39.7928949319
 10
57.2849114725
 20
39.7518696834
 10
57.2894231944
 20
39.7119160721
 10
57.2909313909
 20
39.6733749682
 10
57.2894231944
 20
39.6365751909
 10
57.2849114725
 20
39.6018307029
 10
57.2774347176
 20
39.5694379318
 10
57.2670567186
 20
39.5396732415
 10
57.2538660171
 20
39.5127905736
 10
57.2379751514
 20
39.4890192818
 10
57.2195196967
 20
39.4685621741
 10
57.1986571087
 20
39.4515937836
 10
57.1873576834
 20
39.444452565
  0
ARC
  5
356
330
1F
100
AcDbEntity
  8
0
  6
Continuous
 62
     7
370
    25
100
AcDbCircle
 10
43.9607965882
 20
31.4650291169
 30
0.0
 40
1.152603605679064
100
AcDbArc
 50
122.60547834
 51
177.3945215143
  0
ARC
  5
357
330
1F
100
AcDbEntity
  8
0
  6
Continuous
 62
     7
370
    25
100
AcDbCircle
 10
42.9272623349
 20
31.7896056912
 30
0.0
 40
0.7667600803033824
100
AcDbArc
 50
2.5418620993
 51
57.4581380463
  0
ARC
  5
358
330
1F
100
AcDbEntity
  8
0
  6
Continuous
 62
     7
370
    25
100
AcDbCircle
 10
43.9002953187
 20
31.4999595431
 30
0.0
 40
0.3842012018930428
100
AcDbArc
 50
122.60547834
 51
177.3945215143
  0
ARC
  5
359
330
1F
100
AcDbEntity
  8
0
  6
Continuous
 62
     7
370
    25
100
AcDbCircle
 10
43.1629379028
 20
32.197928686
 30
0.0
 40
0.7668673930846895
100
AcDbArc
 50
242.5460282286
 51
297.4539717714
  0
ARC
  5
35A
330
1F
100
AcDbEntity
  8
0
  6
Continuous
 62
     7
370
    25
100
AcDbCircle
 10
43.1629379028
 20
31.1935834874
 30
0.0
 40
0.7668673930847149
100
AcDbArc
 50
242.5460282286
 51
297.4539717714
  0
LINE
  5
35B
330
1F
100
AcDbEntity
  8
0
  6
Continuous
 62
     7
370
    25
100
AcDbLine
 10
42.8093845122
 20
30.5130795575
 30
0.0
 11
42.8093845122
 21
31.5174247561
 31
0.0
  0
LINE
  5
35C
330
1F
100
AcDbEntity
  8
0
  6
Continuous
 62
     7
370
    25
100
AcDbLine
 10
43.5164912934
 20
31.5174247561
 30
0.0
 11
43.5164912934
 21
31.1091543502
 31
0.0
  0
LINE
  5
35D
330
1F
100
AcDbEntity
  8
0
  6
Continuous
 62
     7
370
    25
100
AcDbLine
 10
43.5164912934
 20
30.5130795575
 30
0.0
 11
43.5164912934
 21
31.1091543502
 31
0.0
  0
LINE
  5
35E
330
1F
100
AcDbEntity
  8
0
  6
Continuous
 62
     7
370
    25
100
AcDbLine
 10
44.0468213793
 20
32.027713001
 30
0.0
 11
43.6932679887
 21
31.8236109731
 31
0.0
  0
LINE
  5
35F
330
1F
100
AcDbEntity
  8
0
  6
Continuous
 62
     7
370
    25
100
AcDbLine
 10
43.3397145981
 20
32.435983407
 30
0.0
 11
44.2094559389
 21
32.9380743957
 31
0.0
  0
ARC
  5
360
330
1F
100
AcDbEntity
  8
0
  6
Continuous
 62
     7
370
    25
100
AcDbCircle
 10
43.7970036758
 20
32.29169668
 30
0.0
 40
0.7667600803034049
100
AcDbArc
 50
2.5418620993
 51
57.4581380463
  0
LINE
  5
361
330
1F
100
AcDbEntity
  8
0
  6
Continuous
 62
     7
370
    25
100
AcDbLine
 10
44.0468213793
 20
32.027713001
 30
0.0
 11
44.5630093295
 21
32.3257019618
 31
0.0
  0
ARC
  5
362
330
1F
100
AcDbEntity
  8
0
  6
Continuous
 62
     7
370
    25
100
AcDbCircle
 10
44.6679033694
 20
31.056758711
 30
0.0
 40
1.152603605679072
100
AcDbArc
 50
122.60547834
 51
177.3945215143
  0
ARC
  5
363
330
1F
100
AcDbEntity
  8
0
  6
Continuous
 62
     7
370
    25
100
AcDbCircle
 10
42.9096601472
 20
30.7396189546
 30
0.0
 40
0.2477403912082277
100
AcDbArc
 50
185.1962885946
 51
246.123852363
  0
ARC
  5
364
330
1F
100
AcDbEntity
  8
0
  6
Continuous
 62
     7
370
    25
100
AcDbCircle
 10
44.0630240162
 20
32.7339175477
 30
0.0
 40
0.2512415701566632
100
AcDbArc
 50
54.3499390004
 51
114.3396025705
  0
ARC
  5
365
330
1F
100
AcDbEntity
  8
0
  6
Continuous
 62
     7
370
    25
100
AcDbCircle
 10
43.4129413184
 20
30.7419683482
 30
0.0
 40
0.2512223632945178
100
AcDbArc
 50
294.3421384431
 51
354.3377205993
  0
ARC
  5
366
330
1F
100
AcDbEntity
  8
0
  6
Continuous
 62
     7
370
    25
100
AcDbCircle
 10
44.3166206213
 20
32.2992864703
 30
0.0
 40
0.2478006733790074
100
AcDbArc
 50
305.1928371559
 51
6.1193432375
  0
ARC
  5
367
330
1F
100
AcDbEntity
  8
0
  6
Continuous
 62
     7
370
    25
100
AcDbCircle
 10
43.4162156583
 20
30.7396189546
 30
0.0
 40
0.2477403912082872
100
AcDbArc
 50
293.876147637
 51
354.8037114054
  0
LWPOLYLINE
  5
368
330
1F
100
AcDbEntity
  8
0
  6
Continuous
 62
     7
370
    25
100
AcDbPolyline
 90
       27
 70
   128
 43
0.0
 10
42.6629379028
 20
30.7171815855
 10
42.6634714154
 20
30.7038510139
 10
42.6677326873
 20
30.6773036024
 10
42.6762188756
 20
30.6510964159
 10
42.688857579
 20
30.6254530447
 10
42.7055409685
 20
30.6005922691
 10
42.7261267075
 20
30.5767261924
 10
42.7504391655
 20
30.5540584316
 10
42.7782709173
 20
30.53278238
 10
42.8093845122
 20
30.5130795575
 10
42.8435144999
 20
30.4951180615
 10
42.8803696956
 20
30.4790511332
 10
42.9196356635
 20
30.4650158499
 10
42.9609774003
 20
30.4531319558
 10
43.004042193
 20
30.44350084
 10
43.0484626278
 20
30.4362046718
 10
43.0938597253
 20
30.4313056996
 10
43.1398461735
 20
30.4288457197
 10
43.1860296321
 20
30.4288457197
 10
43.2320160803
 20
30.4313056996
 10
43.2774131777
 20
30.4362046718
 10
43.3218336126
 20
30.44350084
 10
43.3648984052
 20
30.4531319558
 10
43.4062401421
 20
30.4650158499
 10
43.44550611
 20
30.4790511332
 10
43.4823613056
 20
30.4951180615
 10
43.5164912934
 20
30.5130795575
  0
LWPOLYLINE
  5
369
330
1F
100
AcDbEntity
  8
0
  6
Continuous
 62
     7
370
    25
100
AcDbPolyline
 90
       19
 70
   128
 43
0.0
 10
45.0532019385
 20
27.9861075379
 10
45.0735219811
 20
28.0275739683
 10
45.0906522674
 20
28.0704279483
 10
45.1044466478
 20
28.1143038628
 10
45.1147874335
 20
28.158827378
 10
45.1215864007
 20
28.203618635
 10
45.1247855428
 20
28.2482954905
 10
45.124357566
 20
28.2924767774
 10
45.1203061217
 20
28.3357855565
 10
45.1126657752
 20
28.3778523326
 10
45.1015017113
 20
28.4183182067
 10
45.086909178
 20
28.4568379384
 10
45.0690126735
 20
28.4930828908
 10
45.0479648845
 20
28.5267438348
 10
45.0239453834
 20
28.557533587
 10
44.997159096
 20
28.5851894602
 10
44.9678345535
 20
28.6094755043
 10
44.9362219426
 20
28.6301845191
 10
44.9095244573
 20
28.6440290263
  0
LWPOLYLINE
  5
36A
330
1F
100
AcDbEntity
  8
0
  6
Continuous
 62
     7
370
    25
100
AcDbPolyline
 90
       18
 70
   128
 43
0.0
 10
44.4897726386
 20
27.7363901054
 10
44.496706125
 20
27.7332793088
 10
44.53206853
 20
27.720222373
 10
44.5688606685
 20
27.7111752021
 10
44.6067686431
 20
27.7062149836
 10
44.6454690364
 20
27.7053840362
 10
44.6846316701
 20
27.7086894492
 10
44.7239224225
 20
27.7161030221
 10
44.7630060788
 20
27.7275615049
 10
44.8015491909
 20
27.7429671378
 10
44.8392229227
 20
27.7621884854
 10
44.8757058552
 20
27.7850615579
 10
44.9106867288
 20
27.8113912104
 10
44.943867099
 20
27.8409528076
 10
44.9749638827
 20
27.8734941402
 10
45.003711773
 20
27.9087375772
 10
45.0298655031
 20
27.946382434
 10
45.0532019385
 20
27.9861075379
  0
ARC
  5
36B
330
1F
100
AcDbEntity
  8
0
  6
Continuous
 62
     7
370
    25
100
AcDbCircle
 10
45.2475238623
 20
28.3195086083
 30
0.0
 40
0.2505988504283598
100
AcDbArc
 50
72.2406091817
 51
119.0755431537
  0
ELLIPSE
  5
36C
330
1F
100
AcDbEntity
  8
0
  6
Continuous
 62
     7
370
    25
100
AcDbEllipse
 10
44.9943139641
 20
28.1787891919
 30
0.0
 11
0.3363253103149049
 21
0.3733858147858591
 31
0.0
210
0.0
220
0.0
230
1.0
 40
0.560229826
 41
0.1186581137715548
 42
0.8423642834999157
  0
SPLINE
  5
36D
330
1F
100
AcDbEntity
  8
0
  6
Continuous
 62
     7
370
    25
100
AcDbSpline
210
0.0
220
0.0
230
1.0
 70
     8
 71
     3
 72
    20
 73
    16
 74
     0
 42
0.00000001
 43
0.00000001
 40
0.0
 40
0.0
 40
0.0
 40
0.0
 40
0.0777865187034524
 40
0.1578281412587395
 40
0.2356254037553161
 40
0.3156789144460528
 40
0.3934738491429326
 40
0.4735250912412457
 40
0.5513156086674668
 40
0.6313622793213105
 40
0.7091489376712532
 40
0.7891915161682072
 40
0.8669765187140365
 40
0.9470172293054626
 40
1.0
 40
1.0
 40
1.0
 40
1.0
 10
47.21369078475529
 20
26.3582734633492
 30
0.0
 10
47.22041503739963
 20
26.35427726825549
 30
0.0
 10
47.2340584850548
 20
26.34616902463871
 30
0.0
 10
47.25666120461189
 20
26.3327864458248
 30
0.0
 10
47.28032079263053
 20
26.31881184230127
 30
0.0
 10
47.30414237296179
 20
26.3047765355616
 30
0.0
 10
47.32782519288457
 20
26.29085688808815
 30
0.0
 10
47.35028675764736
 20
26.27768914887407
 30
0.0
 10
47.37129086149913
 20
26.26541159952321
 30
0.0
 10
47.38986928416848
 20
26.25459005717298
 30
0.0
 10
47.40581698049905
 20
26.24534395874919
 30
0.0
 10
47.4184466770698
 20
26.23807123469728
 30
0.0
 10
47.42743757255619
 20
26.23295924158394
 30
0.0
 10
47.43249044054109
 20
26.23015519500355
 30
0.0
 10
47.432796090675
 20
26.23008673392726
 30
0.0
 10
47.43291783001607
 20
26.23005946612859
 30
0.0
  0
LWPOLYLINE
  5
36E
330
1F
100
AcDbEntity
  8
0
  6
Continuous
 62
     7
370
    25
100
AcDbPolyline
 90
       16
 70
   128
 43
0.0
 10
47.2136907848
 20
26.3582734633
 10
47.200724218
 20
26.3861710024
 10
47.1907255652
 20
26.417043731
 10
47.183785172
 20
26.4506126899
 10
47.1799657503
 20
26.4865745571
 10
47.1793018117
 20
26.5246043892
 10
47.1817993552
 20
26.5643585566
 10
47.1874358136
 20
26.6054778493
 10
47.1961602571
 20
26.6475907223
 10
47.2078938536
 20
26.6903166526
 10
47.2225305807
 20
26.7332695781
 10
47.2399381842
 20
26.7760613854
 10
47.2599593727
 20
26.8183054168
 10
47.282413239
 20
26.8596199646
 10
47.307096895
 20
26.8996317192
 10
47.3337873043
 20
26.9379791432
  0
LWPOLYLINE
  5
36F
330
1F
100
AcDbEntity
  8
0
  6
Continuous
 62
     7
370
    25
100
AcDbPolyline
 90
       17
 70
   128
 43
0.0
 10
47.8791836064
 20
26.5135048634
 10
47.8791606662
 20
26.5135093206
 10
47.8791336064
 20
26.5134999149
 10
47.8791065466
 20
26.5134780781
 10
47.8790836064
 20
26.5134471346
 10
47.8790682782
 20
26.5134117953
 10
47.8790628957
 20
26.5133774404
 10
47.8790682782
 20
26.5133493
 10
47.8790836064
 20
26.5133316583
 10
47.8791065466
 20
26.513327201
 10
47.8791336064
 20
26.5133366067
 10
47.8791606662
 20
26.5133584436
 10
47.8791836064
 20
26.5133893871
 10
47.8791989345
 20
26.5134247263
 10
47.879204317
 20
26.5134590812
 10
47.8791989345
 20
26.5134872216
 10
47.8791836064
 20
26.5135048634
  0
ELLIPSE
  5
370
330
1F
100
AcDbEntity
  8
0
  6
Continuous
 62
     7
370
    25
100
AcDbEllipse
 10
47.1690223731
 20
26.92335675
 30
0.0
 11
0.155157724098359
 21
0.4779722532572599
 31
0.0
210
0.0
220
0.0
230
1.0
 40
0.5602077592
 41
5.892204171617853
 42
7.542134059155442
  0
SPLINE
  5
371
330
1F
100
AcDbEntity
  8
0
  6
Continuous
 62
     7
370
    25
100
AcDbSpline
210
0.0
220
0.0
230
1.0
 70
     8
 71
     3
 72
    15
 73
    11
 74
     0
 42
0.00000001
 43
0.00000001
 40
0.0
 40
0.0
 40
0.0
 40
0.0
 40
0.1230223030708382
 40
0.2497383156692717
 40
0.3727288098579741
 40
0.4990717889881476
 40
0.6262167182906669
 40
0.7568222763388835
 40
0.8877450233296972
 40
1.0
 40
1.0
 40
1.0
 40
1.0
 10
47.21369078475529
 20
26.3582734633492
 30
0.0
 10
47.20752612461214
 20
26.36177641296957
 30
0.0
 10
47.19501171216498
 20
26.36888748727259
 30
0.0
 10
47.17852572488152
 20
26.37606548977672
 30
0.0
 10
47.16420955553252
 20
26.38066387110632
 30
0.0
 10
47.15278000649535
 20
26.3825469515128
 30
0.0
 10
47.14448017899448
 20
26.38200300980835
 30
0.0
 10
47.14008878242394
 20
26.37920942795363
 30
0.0
 10
47.1394924973406
 20
26.37486621696301
 30
0.0
 10
47.14276843591713
 20
26.37091434597265
 30
0.0
 10
47.14428066492785
 20
26.36909009505382
 30
0.0
  0
LWPOLYLINE
  5
372
330
1F
100
AcDbEntity
  8
0
  6
Continuous
 62
     7
370
    25
100
AcDbPolyline
 90
       35
 70
   128
 43
0.0
 10
46.818460808
 20
26.5541703515
 10
46.7963720588
 20
26.5694377149
 10
46.7766524652
 20
26.5883381861
 10
46.7594753237
 20
26.610705667
 10
46.7449915877
 20
26.6363435914
 10
46.7333285408
 20
26.6650266523
 10
46.7245886781
 20
26.6965027818
 10
46.718848806
 20
26.7304953668
 10
46.7161593667
 20
26.766705679
 10
46.716543995
 20
26.804815501
 10
46.7199993108
 20
26.8444899223
 10
46.7264949487
 20
26.8853802826
 10
46.7359738248
 20
26.927127236
 10
46.7483526384
 20
26.9693639088
 10
46.7635226039
 20
27.0117191235
 10
46.7813504073
 20
27.053820661
 10
46.8016793771
 20
27.0952985316
 10
46.8243308617
 20
27.1357882261
 10
46.8491057988
 20
27.1749339196
 10
46.8757864657
 20
27.2123915985
 10
46.9041383914
 20
27.2478320833
 10
46.9339124184
 20
27.2809439217
 10
46.9648468914
 20
27.3114361257
 10
46.9966699571
 20
27.3390407287
 10
47.0291019533
 20
27.3635151405
 10
47.0618578664
 20
27.3846442791
 10
47.0946498364
 20
27.4022424608
 10
47.1271896861
 20
27.4161550322
 10
47.1591914542
 20
27.426259729
 10
47.1903739081
 20
27.432467751
 10
47.2204630152
 20
27.4347245417
 10
47.2491943513
 20
27.4330102683
 10
47.2763154245
 20
27.4273399961
 10
47.3015878937
 20
27.4177635555
 10
47.3134406943
 20
27.411547112
  0
LINE
  5
373
330
1F
100
AcDbEntity
  8
0
  6
Continuous
 62
     7
370
    25
100
AcDbLine
 10
47.3337873043
 20
26.9379791432
 30
0.0
 11
46.9617784267
 21
27.152735297
 31
0.0
  0
LWPOLYLINE
  5
374
330
1F
100
AcDbEntity
  8
0
  6
Continuous
 62
     7
370
    25
100
AcDbPolyline
 90
       32
 70
   128
 43
0.0
 10
47.3345969402
 20
26.2317274378
 10
47.3524673147
 20
26.2214111175
 10
47.3678928795
 20
26.2125065595
 10
47.3804298691
 20
26.2052699317
 10
47.3897176172
 20
26.1999094186
 10
47.3954889322
 20
26.1965792326
 10
47.3975777838
 20
26.1953751769
 10
47.3959240796
 20
26.1963318902
 10
47.3905753936
 20
26.1994218494
 10
47.3816855979
 20
26.204556162
 10
47.3695104356
 20
26.2115871234
 10
47.354400164
 20
26.2203124654
 10
47.336789478
 20
26.2304811759
 10
47.3171850052
 20
26.2418007196
 10
47.2961507304
 20
26.2539454539
 10
47.2742917715
 20
26.2665659967
 10
47.2522369709
 20
26.2792992782
 10
47.230620805
 20
26.291778985
 10
47.2100651316
 20
26.3036460986
 10
47.1911613
 20
26.3145592238
 10
47.174453139
 20
26.3242044099
 10
47.160421312
 20
26.3323041823
 10
47.1494694891
 20
26.3386255255
 10
47.1419127342
 20
26.3429865858
 10
47.1379684416
 20
26.3452619035
 10
47.1377500813
 20
26.3453860218
 10
47.141263935
 20
26.3433553702
 10
47.1484089158
 20
26.3392283667
 10
47.1589794753
 20
26.3331237377
 10
47.172671518
 20
26.3252171022
 10
47.1890911487
 20
26.3157359199
 10
47.2000756665
 20
26.309393347
  0
LWPOLYLINE
  5
375
330
1F
100
AcDbEntity
  8
0
  6
Continuous
 62
     7
370
    25
100
AcDbPolyline
 90
       20
 70
   128
 43
0.0
 10
47.1373842278
 20
26.3571451153
 10
47.1379908941
 20
26.3567959878
 10
47.1420867737
 20
26.3544332251
 10
47.1499339497
 20
26.3499045606
 10
47.1613066729
 20
26.3433402756
 10
47.1758777709
 20
26.3349292129
 10
47.1932280597
 20
26.3249133432
 10
47.2128584031
 20
26.3135808049
 10
47.2342040718
 20
26.3012576145
 10
47.2566509899
 20
26.2882982878
 10
47.2795534003
 20
26.275075641
 10
47.3022524425
 20
26.2619700656
 10
47.3240951062
 20
26.2493585851
 10
47.3444530179
 20
26.2376040088
 10
47.3627405174
 20
26.2270444946
 10
47.3784315068
 20
26.2179838203
 10
47.3910745848
 20
26.2106826452
 10
47.400306033
 20
26.2053510107
 10
47.4058602796
 20
26.2021422982
 10
47.4075841534
 20
26.2011451151
  0
LWPOLYLINE
  5
376
330
1F
100
AcDbEntity
  8
0
  6
Continuous
 62
     7
370
    25
100
AcDbPolyline
 90
        9
 70
   128
 43
0.0
 10
47.3344119845
 20
26.2318476473
 10
47.3285790468
 20
26.2352160377
 10
47.3217007593
 20
26.2391878875
 10
47.3138948112
 20
26.2436952372
 10
47.3052947645
 20
26.2486609648
 10
47.2960477684
 20
26.2540001053
 10
47.2863120416
 20
26.2596213046
 10
47.2762541651
 20
26.2654283823
 10
47.2660462318
 20
26.2713219778
  0
LWPOLYLINE
  5
377
330
1F
100
AcDbEntity
  8
0
  6
Continuous
 62
     7
370
    25
100
AcDbPolyline
 90
        9
 70
   128
 43
0.0
 10
47.2660462318
 20
26.2713219778
 10
47.2558629024
 20
26.27720125
 10
47.2458784165
 20
26.282965603
 10
47.2362636114
 20
26.288516407
 10
47.2271829991
 20
26.2937586862
 10
47.2187919513
 20
26.2986027439
 10
47.2112340412
 20
26.3029656968
 10
47.2046385868
 20
26.3067728936
 10
47.1991184381
 20
26.3099591921
  0
LWPOLYLINE
  5
378
330
1F
100
AcDbEntity
  8
0
  6
Continuous
 62
     7
370
    25
100
AcDbPolyline
 90
        9
 70
   128
 43
0.0
 10
47.1991184381
 20
26.3099591921
 10
47.1947680464
 20
26.3124700739
 10
47.191661848
 20
26.314262577
 10
47.189852991
 20
26.3153060313
 10
47.1893724253
 20
26.315582583
 10
47.1902283736
 20
26.3150875001
 10
47.1924061904
 20
26.3138292538
 10
47.1958686125
 20
26.3118293728
 10
47.2005563971
 20
26.3091220758
  0
LWPOLYLINE
  5
379
330
1F
100
AcDbEntity
  8
0
  6
Continuous
 62
     7
370
    25
100
AcDbPolyline
 90
        9
 70
   128
 43
0.0
 10
47.2005563971
 20
26.3091220758
 10
47.2063893347
 20
26.3057536854
 10
47.2132676223
 20
26.3017818356
 10
47.2210735704
 20
26.2972744859
 10
47.229673617
 20
26.2923087583
 10
47.2389206131
 20
26.2869696178
 10
47.2486563399
 20
26.2813484185
 10
47.2587142165
 20
26.2755413408
 10
47.2689221497
 20
26.2696477453
  0
LWPOLYLINE
  5
37A
330
1F
100
AcDbEntity
  8
0
  6
Continuous
 62
     7
370
    25
100
AcDbPolyline
 90
        9
 70
   128
 43
0.0
 10
47.2689221497
 20
26.2696477453
 10
47.2791054791
 20
26.2637684731
 10
47.289089965
 20
26.2580041201
 10
47.2987047701
 20
26.2524533161
 10
47.3077853825
 20
26.2472110369
 10
47.3161764303
 20
26.2423669792
 10
47.3237343403
 20
26.2380040263
 10
47.3303297947
 20
26.2341968295
 10
47.3358499435
 20
26.231010531
  0
LWPOLYLINE
  5
37B
330
1F
100
AcDbEntity
  8
0
  6
Continuous
 62
     7
370
    25
100
AcDbPolyline
 90
        9
 70
   128
 43
0.0
 10
47.3358499435
 20
26.231010531
 10
47.3402003352
 20
26.2284996492
 10
47.3433065335
 20
26.2267071461
 10
47.3451153905
 20
26.2256636918
 10
47.3455959562
 20
26.2253871401
 10
47.3447400079
 20
26.225882223
 10
47.3425621912
 20
26.2271404693
 10
47.339099769
 20
26.2291403503
 10
47.3344119845
 20
26.2318476473
  0
LINE
  5
37C
330
1F
100
AcDbEntity
  8
0
  6
Continuous
 62
     7
370
    25
100
AcDbLine
 10
47.2005594849
 20
26.3091274242
 30
0.0
 11
47.2005563971
 21
26.3091220758
 31
0.0
  0
LINE
  5
37D
330
1F
100
AcDbEntity
  8
0
  6
Continuous
 62
     7
370
    25
100
AcDbLine
 10
47.2689281342
 20
26.2696581107
 30
0.0
 11
47.2689221497
 21
26.2696477453
 31
0.0
  0
ARC
  5
37E
330
1F
100
AcDbEntity
  8
0
  6
Continuous
 62
     7
370
    25
100
AcDbCircle
 10
45.0464883639
 20
28.4990552586
 30
0.0
 40
0.3817005795270482
100
AcDbArc
 50
0.9954255938
 51
58.1702092566
  0
LWPOLYLINE
  5
37F
330
1F
100
AcDbEntity
  8
0
  6
Continuous
 62
     7
370
    25
100
AcDbPolyline
 90
       25
 70
   128
 43
0.0
 10
44.1096728225
 20
27.9121732119
 10
44.1174099591
 20
27.8885409825
 10
44.1387753096
 20
27.8323741249
 10
44.1636095393
 20
27.7784715383
 10
44.1918126494
 20
27.7270502694
 10
44.2232710761
 20
27.6783173735
 10
44.2578581473
 20
27.6324690807
 10
44.2954345931
 20
27.589690006
 10
44.3358491065
 20
27.5501524055
 10
44.3789389524
 20
27.5140154833
 10
44.4245306233
 20
27.4814247499
 10
44.4724405375
 20
27.4525114368
 10
44.5224757789
 20
27.4273919676
 10
44.574434873
 20
27.4061674896
 10
44.628108599
 20
27.3889234663
 10
44.6832808317
 20
27.3757293333
 10
44.7397294121
 20
27.3666382187
 10
44.7972270415
 20
27.3616867291
 10
44.8555421974
 20
27.3608948026
 10
44.9144400652
 20
27.3642656278
 10
44.973683484
 20
27.3717856318
 10
45.0330339014
 20
27.383424534
 10
45.0922523342
 20
27.3991354687
 10
45.1511003308
 20
27.4188551736
 10
45.1714527347
 20
27.4266452788
  0
LWPOLYLINE
  5
380
330
1F
100
AcDbEntity
  8
0
  6
Continuous
 62
     7
370
    25
100
AcDbPolyline
 90
       45
 70
   128
 43
0.0
 10
45.8868081201
 20
28.2408979131
 10
45.9025670651
 20
28.3003165518
 10
45.9163680333
 20
28.3658132027
 10
45.9264801421
 20
28.4314261536
 10
45.9328626737
 20
28.4968912044
 10
45.9354899278
 20
28.5619447505
 10
45.9343513255
 20
28.6263248441
 10
45.9294514515
 20
28.6897722494
 10
45.9208100359
 20
28.752031486
 10
45.9084618745
 20
28.812851858
 10
45.8924566891
 20
28.8719884632
 10
45.872858927
 20
28.9292031794
 10
45.8497475013
 20
28.9842656231
 10
45.8232154736
 20
29.0369540772
 10
45.7933696791
 20
29.087056384
 10
45.7603302963
 20
29.1343707992
 10
45.724230363
 20
29.1787068043
 10
45.6852152409
 20
29.2198858738
 10
45.6434420302
 20
29.2577421942
 10
45.5990789369
 20
29.2921233314
 10
45.5523045954
 20
29.3228908448
 10
45.5033073496
 20
29.3499208444
 10
45.452284494
 20
29.37310449
 10
45.3994414798
 20
29.3923484291
 10
45.3449910869
 20
29.4075751733
 10
45.2891525681
 20
29.4187234098
 10
45.2321507652
 20
29.4257482486
 10
45.1742152044
 20
29.4286214032
 10
45.1155791718
 20
29.4273313043
 10
45.056478774
 20
29.4218831468
 10
44.9971519873
 20
29.4122988684
 10
44.9378377
 20
29.3986170617
 10
44.8787747496
 20
29.3808928185
 10
44.8202009618
 20
29.359197508
 10
44.7623521926
 20
29.3336184896
 10
44.7054613785
 20
29.304258761
 10
44.6497575989
 20
29.2712365435
 10
44.595465153
 20
29.2346848058
 10
44.5428026576
 20
29.1947507289
 10
44.4919821657
 20
29.1515951132
 10
44.4432083137
 20
29.1053917312
 10
44.3966774966
 20
29.0563266276
 10
44.3525770777
 20
29.0045973703
 10
44.3110846336
 20
28.9504122546
 10
44.2952599386
 20
28.9281052629
  0
LWPOLYLINE
  5
381
330
1F
100
AcDbEntity
  8
0
  6
Continuous
 62
     7
370
    25
100
AcDbPolyline
 90
       46
 70
   128
 43
0.0
 10
44.288561671
 20
28.9312029816
 10
44.3053096905
 20
28.9549322819
 10
44.3469759921
 20
29.0096369705
 10
44.3912277397
 20
29.0619290592
 10
44.4378937319
 20
29.11160624
 10
44.4867934271
 20
29.1584763215
 10
44.5377376417
 20
29.2023579725
 10
44.5905292825
 20
29.2430814235
 10
44.644964109
 20
29.2804891232
 10
44.7008315234
 20
29.3144363486
 10
44.7579153854
 20
29.3447917645
 10
44.8159948488
 20
29.3714379316
 10
44.8748452153
 20
29.3942717611
 10
44.9342388043
 20
29.4132049133
 10
44.9939458336
 20
29.4281641396
 10
45.0537353082
 20
29.4390915657
 10
45.1133759144
 20
29.4459449154
 10
45.1726369141
 20
29.4486976744
 10
45.2312890381
 20
29.4473391929
 10
45.2891053727
 20
29.4418747265
 10
45.3458622378
 20
29.4323254163
 10
45.4013400521
 20
29.4187282067
 10
45.4553241826
 20
29.4011357025
 10
45.5076057753
 20
29.3796159659
 10
45.5579825628
 20
29.3542522524
 10
45.6062596471
 20
29.3251426894
 10
45.6522502536
 20
29.2923998961
 10
45.6957764536
 20
29.2561505479
 10
45.7366698526
 20
29.2165348867
 10
45.774772242
 20
29.1737061777
 10
45.8099362111
 20
29.1278301168
 10
45.8420257173
 20
29.0790841896
 10
45.8709166126
 20
29.0276569847
 10
45.8964971237
 20
28.9737474639
 10
45.9186682845
 20
28.9175641926
 10
45.9373443191
 20
28.859324533
 10
45.9524529737
 20
28.7992538031
 10
45.9639357957
 20
28.7375844049
 10
45.9717483603
 20
28.6745549252
 10
45.9758604423
 20
28.6104092128
 10
45.9762561327
 20
28.5453954352
 10
45.9729339009
 20
28.4797651179
 10
45.9659065997
 20
28.4137721719
 10
45.9552014165
 20
28.347671911
 10
45.9408597676
 20
28.2817200644
 10
45.9239273826
 20
28.2194694189
  0
LWPOLYLINE
  5
382
330
1F
100
AcDbEntity
  8
0
  6
Continuous
 62
     7
370
    25
100
AcDbPolyline
 90
       26
 70
   128
 43
0.0
 10
45.2213729407
 20
27.4035588986
 10
45.1851744033
 20
27.3887301102
 10
45.1260238133
 20
27.3678365128
 10
45.0664446847
 20
27.3508821223
 10
45.0066675175
 20
27.3379325322
 10
44.9469235779
 20
27.3290378418
 10
44.8874440036
 20
27.324232463
 10
44.8284589096
 20
27.3235349869
 10
44.7701964977
 20
27.3269481118
 10
44.7128821739
 20
27.334458633
 10
44.6567376762
 20
27.3460374939
 10
44.6019802166
 20
27.3616398979
 10
44.5488216413
 20
27.3812054826
 10
44.4974676103
 20
27.4046585523
 10
44.4481168025
 20
27.4319083718
 10
44.4009601466
 20
27.4628495167
 10
44.3561800825
 20
27.4973622819
 10
44.3139498555
 20
27.535313144
 10
44.2744328462
 20
27.5765552787
 10
44.2377819382
 20
27.6209291281
 10
44.2041389268
 20
27.6682630184
 10
44.1736339703
 20
27.7183738239
 10
44.1463850864
 20
27.7710676757
 10
44.1224976957
 20
27.8261407116
 10
44.1020642139
 20
27.8833798646
 10
44.0908881671
 20
27.9208604697
  0
ARC
  5
383
330
1F
100
AcDbEntity
  8
0
  6
Continuous
 62
     7
370
    25
100
AcDbCircle
 10
46.0696641836
 20
28.1123050823
 30
0.0
 40
0.8198959141272661
100
AcDbArc
 50
10.9196683359
 51
58.9262294442
  0
ARC
  5
384
330
1F
100
AcDbEntity
  8
0
  6
Continuous
 62
     7
370
    25
100
AcDbCircle
 10
45.7794850516
 20
27.6118701569
 30
0.0
 40
0.8219296098552883
100
AcDbArc
 50
241.1322413984
 51
288.8238086187
  0
LINE
  5
385
330
1F
100
AcDbEntity
  8
0
  6
Continuous
 62
     7
370
    25
100
AcDbLine
 10
47.9230980725
 20
26.5977316942
 30
0.0
 11
47.9705980725
 21
26.6800041073
 31
0.0
  0
LWPOLYLINE
  5
386
330
1F
100
AcDbEntity
  8
0
  6
Continuous
 62
     7
370
    25
100
AcDbPolyline
 90
       20
 70
   128
 43
0.0
 10
47.9230980725
 20
26.5977316942
 10
47.8979867938
 20
26.6122325419
 10
47.8699331108
 20
26.6284319635
 10
47.8391910821
 20
26.6461832545
 10
47.8060391121
 20
26.6653256564
 10
47.7707774303
 20
26.6856858126
 10
47.7337253719
 20
26.7070793386
 10
47.6952184862
 20
26.7293124911
 10
47.6556054973
 20
26.7521839233
 10
47.6152451466
 20
26.775486508
 10
47.5745029439
 20
26.7990092134
 10
47.5337478567
 20
26.8225390141
 10
47.4933489694
 20
26.8458628207
 10
47.4536721407
 20
26.8687694092
 10
47.4150766899
 20
26.8910513339
 10
47.3779121436
 20
26.9125068064
 10
47.3425150695
 20
26.9329415224
 10
47.3092060291
 20
26.9521704222
 10
47.2782866742
 20
26.9700193656
 10
47.2630059165
 20
26.9788403687
  0
LINE
  5
387
330
1F
100
AcDbEntity
  8
0
  6
Continuous
 62
     7
370
    25
100
AcDbLine
 10
48.1905980725
 20
26.4432570305
 30
0.0
 11
47.9230980725
 21
26.5977316942
 31
0.0
  0
LINE
  5
388
330
1F
100
AcDbEntity
  8
0
  6
Continuous
 62
     7
370
    25
100
AcDbLine
 10
47.9971118106
 20
26.554954272
 30
0.0
 11
48.1905980725
 21
26.4432570305
 31
0.0
  0
LINE
  5
389
330
1F
100
AcDbEntity
  8
0
  6
Continuous
 62
     7
370
    25
100
AcDbLine
 10
48.1905980725
 20
26.4432570305
 30
0.0
 11
48.2380980725
 21
26.5255294436
 31
0.0
  0
LINE
  5
38A
330
1F
100
AcDbEntity
  8
0
  6
Continuous
 62
     7
370
    25
100
AcDbLine
 10
47.9705980725
 20
26.6800041073
 30
0.0
 11
48.2380980725
 21
26.5255294436
 31
0.0
  0
LWPOLYLINE
  5
38B
330
1F
100
AcDbEntity
  8
0
  6
Continuous
 62
     7
370
    25
100
AcDbPolyline
 90
       18
 70
   128
 43
0.0
 10
48.1356204366
 20
27.1562498022
 10
48.1519544024
 20
27.1461730231
 10
48.1828737573
 20
27.1231533748
 10
48.2111234162
 20
27.0965514474
 10
48.2364475459
 20
27.0666081521
 10
48.2586168071
 20
27.03359466
 10
48.2774304316
 20
26.9978099464
 10
48.2927180402
 20
26.9595780832
 10
48.304341186
 20
26.9192453041
 10
48.3121946079
 20
26.8771768689
 10
48.3162071843
 20
26.833753756
 10
48.3163425766
 20
26.7893692118
 10
48.3125995586
 20
26.7444251895
 10
48.3050120277
 20
26.6993287093
 10
48.2936486977
 20
26.6544881717
 10
48.2786124768
 20
26.6103096598
 10
48.2600395352
 20
26.5671932608
 10
48.2380980725
 20
26.5255294436
  0
LWPOLYLINE
  5
38C
330
1F
100
AcDbEntity
  8
0
  6
Continuous
 62
     7
370
    25
100
AcDbPolyline
 90
       86
 70
   128
 43
0.0
 10
46.9551637436
 20
26.4752534247
 10
46.9559656685
 20
26.4641050665
 10
46.9627397238
 20
26.4012200856
 10
46.9732397986
 20
26.339649283
 10
46.9874236129
 20
26.2796405826
 10
47.0052340535
 20
26.2214356181
 10
47.026599404
 20
26.1652687606
 10
47.0514336336
 20
26.111366174
 10
47.0796367438
 20
26.0599449051
 10
47.1110951704
 20
26.0112120092
 10
47.1456822417
 20
25.9653637164
 10
47.1832586875
 20
25.9225846416
 10
47.2236732009
 20
25.8830470412
 10
47.2667630468
 20
25.8469101189
 10
47.3123547176
 20
25.8143193856
 10
47.3602646319
 20
25.7854060724
 10
47.4102998732
 20
25.7602866033
 10
47.4622589673
 20
25.7390621253
 10
47.5159326933
 20
25.721818102
 10
47.5711049261
 20
25.708623969
 10
47.6275535064
 20
25.6995328543
 10
47.6850511359
 20
25.6945813648
 10
47.7433662918
 20
25.6937894382
 10
47.8022641596
 20
25.6971602635
 10
47.8615075783
 20
25.7046802674
 10
47.9208579957
 20
25.7163191697
 10
47.9800764286
 20
25.7320301044
 10
48.0389244252
 20
25.7517498093
 10
48.0971650253
 20
25.77539888
 10
48.1545637148
 20
25.8028820902
 10
48.2108893692
 20
25.8340887745
 10
48.2659151851
 20
25.8688932747
 10
48.319419593
 20
25.9071554454
 10
48.3711871494
 20
25.9487212183
 10
48.4210094047
 20
25.9934232227
 10
48.4686857423
 20
26.0410814594
 10
48.5140241863
 20
26.0915040255
 10
48.5568421749
 20
26.1444878871
 10
48.5969672951
 20
26.199819697
 10
48.6342379772
 20
26.2572766534
 10
48.6685041454
 20
26.3166273975
 10
48.6996278218
 20
26.3776329448
 10
48.7274836825
 20
26.4400476474
 10
48.7519595617
 20
26.5036201834
 10
48.7729569037
 20
26.5680945686
 10
48.7903911595
 20
26.6332111875
 10
48.8041921277
 20
26.6987078383
 10
48.8143042365
 20
26.7643207892
 10
48.820686768
 20
26.8297858401
 10
48.8233140222
 20
26.8948393861
 10
48.8221754199
 20
26.9592194798
 10
48.8172755459
 20
27.022666885
 10
48.8086341302
 20
27.0849261217
 10
48.7962859689
 20
27.1457464937
 10
48.7802807835
 20
27.2048830989
 10
48.7606830213
 20
27.2620978151
 10
48.7375715957
 20
27.3171602587
 10
48.711039568
 20
27.3698487129
 10
48.6811937735
 20
27.4199510197
 10
48.6481543906
 20
27.4672654349
 10
48.6120544573
 20
27.5116014399
 10
48.5730393353
 20
27.5527805094
 10
48.5312661246
 20
27.5906368298
 10
48.4869030312
 20
27.6250179671
 10
48.4401286898
 20
27.6557854805
 10
48.391131444
 20
27.6828154801
 10
48.3401085884
 20
27.7059991256
 10
48.2872655741
 20
27.7252430648
 10
48.2328151813
 20
27.740469809
 10
48.1769766624
 20
27.7516180455
 10
48.1199748595
 20
27.7586428843
 10
48.0620392988
 20
27.7615160388
 10
48.0034032661
 20
27.76022594
 10
47.9443028683
 20
27.7547777824
 10
47.8849760817
 20
27.7451935041
 10
47.8256617944
 20
27.7315116974
 10
47.766598844
 20
27.7137874542
 10
47.7080250562
 20
27.6920921437
 10
47.650176287
 20
27.6665131253
 10
47.5932854729
 20
27.6371533967
 10
47.5375816932
 20
27.6041311791
 10
47.4832892474
 20
27.5675794414
 10
47.4306267519
 20
27.5276453645
 10
47.3798062601
 20
27.4844897489
 10
47.3310324081
 20
27.4382863669
 10
47.3108495023
 20
27.4176443596
  0
LWPOLYLINE
  5
38D
330
1F
100
AcDbEntity
  8
0
  6
Continuous
 62
     7
370
    25
100
AcDbPolyline
 90
       88
 70
   128
 43
0.0
 10
47.3042285311
 20
27.4222681273
 10
47.3257178263
 20
27.4445008757
 10
47.3746175214
 20
27.4913709572
 10
47.4255617361
 20
27.5352526082
 10
47.4783533769
 20
27.5759760591
 10
47.5327882034
 20
27.6133837589
 10
47.5886556177
 20
27.6473309843
 10
47.6457394798
 20
27.6776864001
 10
47.7038189431
 20
27.7043325672
 10
47.7626693096
 20
27.7271663967
 10
47.8220628987
 20
27.746099549
 10
47.8817699279
 20
27.7610587753
 10
47.9415594026
 20
27.7719862013
 10
48.0012000087
 20
27.778839551
 10
48.0604610085
 20
27.78159231
 10
48.1191131325
 20
27.7802338285
 10
48.1769294671
 20
27.7747693622
 10
48.2336863322
 20
27.765220052
 10
48.2891641464
 20
27.7516228423
 10
48.3431482769
 20
27.7340303382
 10
48.3954298696
 20
27.7125106015
 10
48.4458066571
 20
27.6871468881
 10
48.4940837415
 20
27.658037325
 10
48.540074348
 20
27.6252945317
 10
48.583600548
 20
27.5890451836
 10
48.624493947
 20
27.5494295224
 10
48.6625963364
 20
27.5066008134
 10
48.6977603055
 20
27.4607247525
 10
48.7298498117
 20
27.4119788253
 10
48.758740707
 20
27.3605516204
 10
48.784321218
 20
27.3066420995
 10
48.8064923788
 20
27.2504588282
 10
48.8251684135
 20
27.1922191687
 10
48.840277068
 20
27.1321484388
 10
48.85175989
 20
27.0704790405
 10
48.8595724547
 20
27.0074495608
 10
48.8636845366
 20
26.9433038485
 10
48.8640802271
 20
26.8782900708
 10
48.8607579952
 20
26.8126597535
 10
48.8537306941
 20
26.7466668075
 10
48.8430255109
 20
26.6805665467
 10
48.8286838619
 20
26.6146147001
 10
48.8107612323
 20
26.5490664227
 10
48.7893269612
 20
26.4841753079
 10
48.7644639735
 20
26.4201924069
 10
48.7362684595
 20
26.3573652572
 10
48.704849502
 20
26.2959369247
 10
48.6703286549
 20
26.2361450637
 10
48.6328394726
 20
26.1782209974
 10
48.5925269935
 20
26.1223888227
 10
48.5495471788
 20
26.0688645434
 10
48.504066309
 20
26.0178552345
 10
48.4562603407
 20
25.9695582413
 10
48.406314226
 20
25.9241604153
 10
48.3544211967
 20
25.8818373919
 10
48.3007820168
 20
25.8427529107
 10
48.2456042059
 20
25.807058182
 10
48.1891012362
 20
25.7748913017
 10
48.1314917068
 20
25.7463767172
 10
48.0729984977
 20
25.7216247459
 10
48.0138479077
 20
25.7007311484
 10
47.9542687791
 20
25.683776758
 10
47.8944916118
 20
25.6708271679
 10
47.8347476722
 20
25.6619324775
 10
47.775268098
 20
25.6571270987
 10
47.716283004
 20
25.6564296226
 10
47.6580205921
 20
25.6598427475
 10
47.6007062683
 20
25.6673532687
 10
47.5445617705
 20
25.6789321295
 10
47.489804311
 20
25.6945345336
 10
47.4366457357
 20
25.7141001182
 10
47.3852917047
 20
25.737553188
 10
47.3359408969
 20
25.7648030074
 10
47.288784241
 20
25.7957441524
 10
47.2440041768
 20
25.8302569175
 10
47.2017739498
 20
25.8682077797
 10
47.1622569405
 20
25.9094499144
 10
47.1256060326
 20
25.9538237637
 10
47.0919630212
 20
26.001157654
 10
47.0614580647
 20
26.0512684596
 10
47.0342091807
 20
26.1039623114
 10
47.0103217901
 20
26.1590353473
 10
46.9898883083
 20
26.2162745003
 10
46.9729877886
 20
26.2754583232
 10
46.9596856158
 20
26.3363578455
 10
46.9500332535
 20
26.3987374586
 10
46.9440680447
 20
26.462355828
 10
46.942971446
 20
26.4822918883
  0
ARC
  5
38E
330
1F
100
AcDbEntity
  8
0
  6
Continuous
 62
     7
370
    25
100
AcDbCircle
 10
48.9574882779
 20
26.445199718
 30
0.0
 40
0.8198959141272318
100
AcDbArc
 50
10.9196683359
 51
58.9262294442
  0
ARC
  5
38F
330
1F
100
AcDbEntity
  8
0
  6
Continuous
 62
     7
370
    25
100
AcDbCircle
 10
48.667309146
 20
25.9447647926
 30
0.0
 40
0.821929609855247
100
AcDbArc
 50
241.1322413984
 51
288.8238086187
  0
LWPOLYLINE
  5
390
330
1F
100
AcDbEntity
  8
0
  6
Continuous
 62
     7
370
    25
100
AcDbPolyline
 90
       36
 70
   128
 43
0.0
 10
45.8953332597
 20
28.1826175243
 10
45.8965867876
 20
28.1820346115
 10
45.9299047258
 20
28.1640549296
 10
45.9610928956
 20
28.1422900766
 10
45.9898772143
 20
28.1169313226
 10
46.0160047243
 20
28.0882015215
 10
46.039245816
 20
28.0563531516
 10
46.059396246
 20
28.0216660977
 10
46.0762789314
 20
27.9844451908
 10
46.0897455068
 20
27.9450175296
 10
46.0996776272
 20
27.9037296058
 10
46.1059880089
 20
27.860944259
 10
46.1086211961
 20
27.8170374886
 10
46.1075540481
 20
27.7723951488
 10
46.1027959431
 20
27.727409558
 10
46.0943886956
 20
27.6824760513
 10
46.0824061887
 20
27.6379895059
 10
46.066953725
 20
27.5943408713
 10
46.0481671015
 20
27.551913733
 10
46.0262114156
 20
27.5110809425
 10
46.0012796147
 20
27.4722013396
 10
45.9735908004
 20
27.4356165998
 10
45.9433883029
 20
27.4016482311
 10
45.9109375429
 20
27.3705947487
 10
45.8765236988
 20
27.3427290517
 10
45.8404492008
 20
27.3182960249
 10
45.8030310727
 20
27.2975103866
 10
45.7645981466
 20
27.2805548017
 10
45.7254881722
 20
27.2675782766
 10
45.6860448496
 20
27.2586948493
 10
45.6466148079
 20
27.2539825878
 10
45.6075445599
 20
27.2534829036
 10
45.5691774562
 20
27.257200188
 10
45.5318506684
 20
27.2651017732
 10
45.4958922256
 20
27.2771182199
 10
45.4797789592
 20
27.2840549926
  0
SPLINE
  5
391
330
1F
100
AcDbEntity
  8
0
  6
Continuous
 62
     7
370
    25
100
AcDbSpline
210
0.0
220
0.0
230
1.0
 70
    11
 71
     3
 72
    26
 73
    22
 74
     0
 42
0.00000001
 43
0.00000001
 40
0.0
 40
0.0
 40
0.0
 40
0.0
 40
0.0533455375821024
 40
0.1066791336644381
 40
0.1603236752580122
 40
0.2141841389387545
 40
0.2677025866826817
 40
0.3208539548152489
 40
0.3741857408193833
 40
0.4279622669902451
 40
0.4817581334404967
 40
0.5351208045735443
 40
0.5882740022293432
 40
0.6417576431742017
 40
0.6956081004572597
 40
0.7492883113784619
 40
0.8025191199901407
 40
0.8557257189059089
 40
0.9093668498190185
 40
0.963227542996814
 40
1.0
 40
1.0
 40
1.0
 40
1.0
 10
45.47951129043842
 20
27.78936006589795
 30
0.0
 10
45.47544665070718
 20
27.78289055017653
 30
0.0
 10
45.467318281122
 20
27.76995296694706
 30
0.0
 10
45.4505955185779
 20
27.7555315451764
 30
0.0
 10
45.43308945095495
 20
27.74672267177647
 30
0.0
 10
45.41670527820521
 20
27.74456661119724
 30
0.0
 10
45.40376558554387
 20
27.74911595129056
 30
0.0
 10
45.39572033155684
 20
27.75975912293456
 30
0.0
 10
45.39319087564545
 20
27.7754210242239
 30
0.0
 10
45.39613233153406
 20
27.79467088390943
 30
0.0
 10
45.403911580241
 20
27.81554524285311
 30
0.0
 10
45.41539529701924
 20
27.83569532175613
 30
0.0
 10
45.42929269658267
 20
27.85286017495075
 30
0.0
 10
45.44438460278631
 20
27.86508319211651
 30
0.0
 10
45.4594068790819
 20
27.87074623004773
 30
0.0
 10
45.4729364251179
 20
27.868934630227
 30
0.0
 10
45.48353421356756
 20
27.85984730453103
 30
0.0
 10
45.48998181221047
 20
27.84462142202418
 30
0.0
 10
45.4911746489724
 20
27.82509324062131
 30
0.0
 10
45.48730853318546
 20
27.80567109029336
 30
0.0
 10
45.48176177046042
 20
27.794067837059
 30
0.0
 10
45.47951129043842
 20
27.78936006589795
 30
0.0
  0
LWPOLYLINE
  5
392
330
1F
100
AcDbEntity
  8
0
  6
Continuous
 62
     7
370
    25
100
AcDbPolyline
 90
       35
 70
   128
 43
0.0
 10
45.8953332597
 20
28.1826175243
 10
45.9217637702
 20
28.1689114622
 10
45.9535108509
 20
28.1480762432
 10
45.9829207119
 20
28.1235962743
 10
46.0097348981
 20
28.0956866863
 10
46.0337177656
 20
28.0645927498
 10
46.0546585519
 20
28.0305877193
 10
46.0723732288
 20
27.9939704322
 10
46.086706119
 20
27.9550626827
 10
46.0975312646
 20
27.9142063934
 10
46.1047535338
 20
27.8717606108
 10
46.108309457
 20
27.8280983501
 10
46.1081677846
 20
27.7836033167
 10
46.1043297618
 20
27.7386665346
 10
46.096829117
 20
27.6936829098
 10
46.0857317664
 20
27.64904776
 10
46.0711352338
 20
27.6051533406
 10
46.0531677941
 20
27.5623853974
 10
46.0319873457
 20
27.5211197764
 10
46.0077800233
 20
27.4817191215
 10
45.9807585615
 20
27.444529687
 10
45.9511604261
 20
27.4098782951
 10
45.9192457265
 20
27.3780694634
 10
45.8852949302
 20
27.3493827291
 10
45.849606398
 20
27.3240701921
 10
45.812493762
 20
27.3023543001
 10
45.7742831695
 20
27.2844258931
 10
45.7353104164
 20
27.2704425264
 10
45.6959179968
 20
27.2605270866
 10
45.6564520926
 20
27.2547667107
 10
45.6172595317
 20
27.2532120212
 10
45.5786847396
 20
27.2558766808
 10
45.541066713
 20
27.2627372723
 10
45.5047360404
 20
27.2737335047
 10
45.4797789592
 20
27.2840549926
  0
ARC
  5
393
330
1F
100
AcDbEntity
  8
0
  6
Continuous
 62
     7
370
    25
100
AcDbCircle
 10
46.0713437261
 20
27.7302526049
 30
0.0
 40
0.3367038894073789
100
AcDbArc
 50
42.0256540495
 51
65.073319813
  0
SPLINE
  5
394
330
1F
100
AcDbEntity
  8
0
  6
Continuous
 62
     7
370
    25
100
AcDbSpline
210
0.0
220
0.0
230
1.0
 70
     8
 71
     3
 72
    28
 73
    24
 74
     0
 42
0.00000001
 43
0.00000001
 40
0.0
 40
0.0
 40
0.0
 40
0.0
 40
0.0552922896608428
 40
0.1107127441632895
 40
0.165969111500238
 40
0.2086338607927716
 40
0.2513860830443442
 40
0.2939940208679253
 40
0.3432663050063024
 40
0.3924812974371155
 40
0.4337998963717074
 40
0.4750927281902568
 40
0.516512501292912
 40
0.557940088641801
 40
0.5974245749871536
 40
0.6369347277140468
 40
0.6917672964033387
 40
0.7466743928571997
 40
0.7969295634886051
 40
0.8473717565662251
 40
0.8977014628703984
 40
0.9488505174178897
 40
1.0
 40
1.0
 40
1.0
 40
1.0
 10
46.32146257708452
 20
27.95566349532366
 30
0.0
 10
46.32336250218036
 20
27.94636272178645
 30
0.0
 10
46.32716675630611
 20
27.92773961597077
 30
0.0
 10
46.32540446796786
 20
27.89304037971925
 30
0.0
 10
46.31966493803411
 20
27.85552144609541
 30
0.0
 10
46.31084132636067
 20
27.81586375114918
 30
0.0
 10
46.29972410314927
 20
27.77570410922834
 30
0.0
 10
46.28465825617572
 20
27.72908620246451
 30
0.0
 10
46.26478857657305
 20
27.67527177027574
 30
0.0
 10
46.24074818874846
 20
27.61729019262517
 30
0.0
 10
46.21434756949912
 20
27.55952772305318
 30
0.0
 10
46.18682335569979
 20
27.50381381439176
 30
0.0
 10
46.15717720459503
 20
27.44832099231066
 30
0.0
 10
46.12690903773876
 20
27.39559217057747
 30
0.0
 10
46.09698150527075
 20
27.34715577138259
 30
0.0
 10
46.06437362293472
 20
27.29792953084544
 30
0.0
 10
46.02963732267909
 20
27.25005047730146
 30
0.0
 10
45.99516230590325
 20
27.20759193780761
 30
0.0
 10
45.96451251650301
 20
27.17437313537572
 30
0.0
 10
45.93737839237633
 20
27.14910240235431
 30
0.0
 10
45.91250609740406
 20
27.13052464656374
 30
0.0
 10
45.88997624195002
 20
27.11773463060769
 30
0.0
 10
45.87575776220274
 20
27.11493020617951
 30
0.0
 10
45.86864849258281
 20
27.11352798809833
 30
0.0
  0
ARC
  5
395
330
1F
100
AcDbEntity
  8
0
  6
Continuous
 62
     7
370
    25
100
AcDbCircle
 10
45.936749423
 20
27.4379873087
 30
0.0
 40
0.3315291652663492
100
AcDbArc
 50
245.2013699756
 51
258.1462296789
  0
LWPOLYLINE
  5
396
330
1F
100
AcDbEntity
  8
0
  6
Continuous
 62
     7
370
    25
100
AcDbPolyline
 90
       39
 70
   128
 43
0.0
 10
46.8332445308
 20
26.5456358881
 10
46.8088813167
 20
26.5547158894
 10
46.7856477817
 20
26.567804168
 10
46.7646308278
 20
26.5845344932
 10
46.7460097642
 20
26.6047641278
 10
46.7299434594
 20
26.6283204796
 10
46.7165689853
 20
26.6550025742
 10
46.7060004482
 20
26.6845827693
 10
46.6983280153
 20
26.7168086971
 10
46.6936171449
 20
26.7514054174
 10
46.6919080286
 20
26.7880777632
 10
46.6932152479
 20
26.826512859
 10
46.6975276502
 20
26.86638279
 10
46.7048084434
 20
26.9073474
 10
46.7149955105
 20
26.9490571936
 10
46.728001939
 20
26.9911563173
 10
46.7437167626
 20
27.0332855963
 10
46.762005908
 20
27.0750855986
 10
46.7827133386
 20
27.1161997011
 10
46.805662386
 20
27.1562771329
 10
46.830657257
 20
27.1949759674
 10
46.8574847041
 20
27.2319660398
 10
46.885915845
 20
27.266931764
 10
46.9157081153
 20
27.2995748246
 10
46.9466073378
 20
27.3296167225
 10
46.9783498912
 20
27.356801151
 10
47.0106649593
 20
27.3808961819
 10
47.0432768413
 20
27.4016962451
 10
47.0759073042
 20
27.4190238817
 10
47.1082779562
 20
27.4327312584
 10
47.1401126225
 20
27.4427014288
 10
47.1711397008
 20
27.4488493308
 10
47.2010944791
 20
27.4511225127
 10
47.2297213938
 20
27.4495015805
 10
47.2567762102
 20
27.4440003635
 10
47.282028106
 20
27.434665796
 10
47.305261641
 20
27.4215775174
 10
47.3262785949
 20
27.4048471922
 10
47.3282043034
 20
27.4030242619
  0
SPLINE
  5
397
330
1F
100
AcDbEntity
  8
0
  6
Continuous
 62
     7
370
    25
100
AcDbSpline
210
0.0
220
0.0
230
1.0
 70
     8
 71
     3
 72
    15
 73
    11
 74
     0
 42
0.00000001
 43
0.00000001
 40
0.0
 40
0.0
 40
0.0
 40
0.0
 40
0.0045715697682873
 40
0.1563755810386719
 40
0.309431660061367
 40
0.4633810033558126
 40
0.6159463885806663
 40
0.7670045787519647
 40
0.9187829752461626
 40
1.0
 40
1.0
 40
1.0
 40
1.0
 10
46.74781650258595
 20
26.58920357639268
 30
0.0
 10
46.74764618387965
 20
26.58929377301255
 30
0.0
 10
46.74182024486758
 20
26.592379047777
 30
0.0
 10
46.72628085822646
 20
26.60231775195691
 30
0.0
 10
46.70333424441681
 20
26.61704020465831
 30
0.0
 10
46.68006789580433
 20
26.63186077231081
 30
0.0
 10
46.65952642736489
 20
26.64392719182782
 30
0.0
 10
46.64431627725256
 20
26.6517444323198
 30
0.0
 10
46.63586573639981
 20
26.65513491506864
 30
0.0
 10
46.63614860533101
 20
26.65445918795254
 30
0.0
 10
46.63624720715273
 20
26.65422364450014
 30
0.0
  0
SPLINE
  5
398
330
1F
100
AcDbEntity
  8
0
  6
Continuous
 62
     7
370
    25
100
AcDbSpline
210
0.0
220
0.0
230
1.0
 70
     8
 71
     3
 72
     9
 73
     5
 74
     0
 42
0.00000001
 43
0.00000001
 40
0.0
 40
0.0
 40
0.0
 40
0.0
 40
0.7275978201687135
 40
0.9999999999999999
 40
0.9999999999999999
 40
0.9999999999999999
 40
0.9999999999999999
 10
46.63592506649928
 20
26.65388982903043
 30
0.0
 10
46.6375834441291
 20
26.65278847271678
 30
0.0
 10
46.63986269453893
 20
26.65127478440833
 30
0.0
 10
46.64748658666338
 20
26.64786086646646
 30
0.0
 10
46.64956335149687
 20
26.64693090777732
 30
0.0
  0
SPLINE
  5
399
330
1F
100
AcDbEntity
  8
0
  6
Continuous
 62
     7
370
    25
100
AcDbSpline
210
0.0
220
0.0
230
1.0
 70
    11
 71
     3
 72
    26
 73
    22
 74
     0
 42
0.00000001
 43
0.00000001
 40
0.0
 40
0.0
 40
0.0
 40
0.0
 40
0.0532007753862731
 40
0.1063847263153357
 40
0.1600073343611939
 40
0.2139428941057389
 40
0.2673935894685959
 40
0.3203162448468895
 40
0.3734912217377375
 40
0.4273016850453381
 40
0.4811480377781054
 40
0.5343807310971355
 40
0.5873085574696569
 40
0.6406942334865331
 40
0.6946099718544361
 40
0.7482999487977647
 40
0.8013441886185648
 40
0.8543367660929695
 40
0.9079436071600071
 40
0.9618809478017564
 40
1.0
 40
1.0
 40
1.0
 40
1.0
 10
46.62220009927361
 20
27.2088620217692
 30
0.0
 10
46.61858121230483
 20
27.2004067588779
 30
0.0
 10
46.61134458282069
 20
27.18349890702643
 30
0.0
 10
46.61074915418872
 20
27.15582951361104
 30
0.0
 10
46.61770807398688
 20
27.13037354877438
 30
0.0
 10
46.63181828598055
 20
27.10983324488241
 30
0.0
 10
46.65094015531098
 20
27.09692025730691
 30
0.0
 10
46.67278634439072
 20
27.0929844870445
 30
0.0
 10
46.69524975350847
 20
27.09823154295398
 30
0.0
 10
46.716365719294
 20
27.11203966737692
 30
0.0
 10
46.73404553471374
 20
27.13277868831987
 30
0.0
 10
46.74639554877015
 20
27.15783097745055
 30
0.0
 10
46.7521046108167
 20
27.18434622132442
 30
0.0
 10
46.75034787874788
 20
27.20971259333363
 30
0.0
 10
46.74078897720801
 20
27.23134910358595
 30
0.0
 10
46.72409609990495
 20
27.24680748076208
 30
0.0
 10
46.70218778036071
 20
27.2543895136146
 30
0.0
 10
46.6776003945464
 20
27.25338126993348
 30
0.0
 10
46.65334846136039
 20
27.24362771966037
 30
0.0
 10
46.63402533622376
 20
27.22780474025102
 30
0.0
 10
46.62566286311841
 20
27.2144089855178
 30
0.0
 10
46.62220009927361
 20
27.2088620217692
 30
0.0
  0
ARC
  5
39A
330
1F
100
AcDbEntity
  8
0
  6
Continuous
 62
     7
370
    25
100
AcDbCircle
 10
45.2662857902
 20
28.3210319042
 30
0.0
 40
0.2418157286420701
100
AcDbArc
 50
65.1620411577
 51
120.2638400119
  0
LWPOLYLINE
  5
39B
330
1F
100
AcDbEntity
  8
0
  6
Continuous
 62
     7
370
    25
100
AcDbPolyline
 90
       25
 70
   128
 43
0.0
 10
46.6262419626
 20
27.1657579689
 10
46.6281064479
 20
27.1503653421
 10
46.6335198544
 20
27.1366780559
 10
46.6421132672
 20
27.1256288762
 10
46.6533010596
 20
27.1179707865
 10
46.6663208019
 20
27.1142256728
 10
46.6802852203
 20
27.1146487586
 10
46.6942426626
 20
27.1192112111
 10
46.7072419524
 20
27.1276021067
 10
46.7183972093
 20
27.1392496199
 10
46.7269482213
 20
27.1533599919
 10
46.7323122508
 20
27.168971624
 10
46.7341237481
 20
27.1850206094
 10
46.7322592628
 20
27.2004132363
 10
46.7268458563
 20
27.2141005225
 10
46.7182524435
 20
27.2251497021
 10
46.7070646511
 20
27.2328077919
 10
46.6940449088
 20
27.2365529055
 10
46.6800804904
 20
27.2361298198
 10
46.666123048
 20
27.2315673673
 10
46.6531237583
 20
27.2231764716
 10
46.6419685013
 20
27.2115289584
 10
46.6334174894
 20
27.1974185865
 10
46.6280534599
 20
27.1818069544
 10
46.6262419626
 20
27.1657579689
  0
LWPOLYLINE
  5
39C
330
1F
100
AcDbEntity
  8
0
  6
Continuous
 62
     7
370
    25
100
AcDbPolyline
 90
       10
 70
   128
 43
0.0
 10
46.6858115247
 20
27.243952187
 10
46.7009513787
 20
27.2445852674
 10
46.715218335
 20
27.2410424223
 10
46.72778325
 20
27.2335295491
 10
46.7379158965
 20
27.2224832685
 10
46.7450274019
 20
27.2085455504
 10
46.7487044713
 20
27.1925264041
 10
46.748733407
 20
27.1753568043
 10
46.7451125271
 20
27.1580345856
 10
46.7440914509
 20
27.1549934834
  0
LWPOLYLINE
  5
39D
330
1F
100
AcDbEntity
  8
0
  6
Continuous
 62
     7
370
    25
100
AcDbPolyline
 90
       18
 70
   128
 43
0.0
 10
46.7271153692
 20
27.1259260194
 10
46.7154308945
 20
27.1149154576
 10
46.7011844596
 20
27.1062814546
 10
46.6860515813
 20
27.1015092411
 10
46.6709117273
 20
27.1008761607
 10
46.656644771
 20
27.1044190057
 10
46.644079856
 20
27.111931879
 10
46.6339472095
 20
27.1229781595
 10
46.6268357041
 20
27.1369158777
 10
46.6231586346
 20
27.152935024
 10
46.623129699
 20
27.1701046238
 10
46.6267505788
 20
27.1874268424
 10
46.6338108418
 20
27.2038949755
 10
46.643900171
 20
27.218551955
 10
46.6564322114
 20
27.2305459705
 10
46.6706786463
 20
27.2391799734
 10
46.6858115247
 20
27.243952187
 10
46.6858115247
 20
27.243952187
  0
LINE
  5
39E
330
1F
100
AcDbEntity
  8
0
  6
Continuous
 62
     7
370
    25
100
AcDbLine
 10
46.6994030604
 20
27.1414458266
 30
0.0
 11
46.7184973276
 21
27.1822304617
 31
0.0
  0
LINE
  5
39F
330
1F
100
AcDbEntity
  8
0
  6
Continuous
 62
     7
370
    25
100
AcDbLine
 10
46.6992771225
 20
27.2161739242
 30
0.0
 11
46.7184973276
 21
27.1822304617
 31
0.0
  0
LINE
  5
3A0
330
1F
100
AcDbEntity
  8
0
  6
Continuous
 62
     7
370
    25
100
AcDbLine
 10
46.6609626502
 20
27.2093327517
 30
0.0
 11
46.6992771225
 21
27.2161739242
 31
0.0
  0
LINE
  5
3A1
330
1F
100
AcDbEntity
  8
0
  6
Continuous
 62
     7
370
    25
100
AcDbLine
 10
46.6609626502
 20
27.2093327517
 30
0.0
 11
46.6418683831
 21
27.1685481167
 31
0.0
  0
LINE
  5
3A2
330
1F
100
AcDbEntity
  8
0
  6
Continuous
 62
     7
370
    25
100
AcDbLine
 10
46.6610885882
 20
27.1346046541
 30
0.0
 11
46.6418683831
 21
27.1685481167
 31
0.0
  0
LINE
  5
3A3
330
1F
100
AcDbEntity
  8
0
  6
Continuous
 62
     7
370
    25
100
AcDbLine
 10
46.6610885882
 20
27.1346046541
 30
0.0
 11
46.6994030604
 21
27.1414458266
 31
0.0
  0
LINE
  5
3A4
330
1F
100
AcDbEntity
  8
0
  6
Continuous
 62
     7
370
    25
100
AcDbLine
 10
46.6966682519
 20
27.2462644386
 30
0.0
 11
46.6890659599
 21
27.2444389743
 31
0.0
  0
ARC
  5
3A5
330
1F
100
AcDbEntity
  8
0
  6
Continuous
 62
     7
370
    25
100
AcDbCircle
 10
46.6890486181
 20
27.1474704613
 30
0.0
 40
0.0605050802237571
100
AcDbArc
 50
202.9242268496
 51
238.5461351315
  0
LWPOLYLINE
  5
3A6
330
1F
100
AcDbEntity
  8
0
  6
Continuous
 62
     7
370
    25
100
AcDbPolyline
 90
        3
 70
   128
 43
0.0
 10
46.7273077212
 20
27.2437585689
 10
46.7127609268
 20
27.2470195971
 10
46.6966682519
 20
27.2462644386
  0
LINE
  5
3A7
330
1F
100
AcDbEntity
  8
0
  6
Continuous
 62
     7
370
    25
100
AcDbLine
 10
46.7082560973
 20
27.1874611572
 30
0.0
 11
46.7148670898
 21
27.1886415712
 31
0.0
  0
LINE
  5
3A8
330
1F
100
AcDbEntity
  8
0
  6
Continuous
 62
     7
370
    25
100
AcDbLine
 10
46.7082560973
 20
27.1874611572
 30
0.0
 11
46.6609626502
 21
27.2093327517
 31
0.0
  0
LINE
  5
3A9
330
1F
100
AcDbEntity
  8
0
  6
Continuous
 62
     7
370
    25
100
AcDbLine
 10
46.6891618302
 20
27.1466765222
 30
0.0
 11
46.6418683831
 21
27.1685481167
 31
0.0
  0
LINE
  5
3AA
330
1F
100
AcDbEntity
  8
0
  6
Continuous
 62
     7
370
    25
100
AcDbLine
 10
46.692792068
 20
27.1402654126
 30
0.0
 11
46.6891618302
 21
27.1466765222
 31
0.0
  0
LINE
  5
3AB
330
1F
100
AcDbEntity
  8
0
  6
Continuous
 62
     7
370
    25
100
AcDbLine
 10
46.7082560973
 20
27.1874611572
 30
0.0
 11
46.6891618302
 21
27.1466765222
 31
0.0
  0
ARC
  5
3AC
330
1F
100
AcDbEntity
  8
0
  6
Continuous
 62
     7
370
    25
100
AcDbCircle
 10
46.8644233031
 20
26.944511458
 30
0.0
 40
0.369034787965228
100
AcDbArc
 50
234.5731391152
 51
244.0079680507
  0
ARC
  5
3AD
330
1F
100
AcDbEntity
  8
0
  6
Continuous
 62
     7
370
    25
100
AcDbCircle
 10
47.2218834326
 20
27.5661975234
 30
0.0
 40
1.085595732017873
100
AcDbArc
 50
241.4287080942
 51
243.9151997555
  0
LWPOLYLINE
  5
3AE
330
1F
100
AcDbEntity
  8
0
  6
Continuous
 62
     7
370
    25
100
AcDbPolyline
 90
       25
 70
   128
 43
0.0
 10
45.4352493242
 20
27.7501383634
 10
45.4469310256
 20
27.7560646788
 10
45.4583978852
 20
27.7653861851
 10
45.4688684553
 20
27.7774676372
 10
45.477629184
 20
27.791485704
 10
45.484083042
 20
27.8064850775
 10
45.4877902097
 20
27.8214435752
 10
45.4884980495
 20
27.8353418001
 10
45.4861583235
 20
27.8472326112
 10
45.4809304802
 20
27.8563056694
 10
45.4731707882
 20
27.8619426607
 10
45.463408058
 20
27.8637594336
 10
45.4523076033
 20
27.8616321778
 10
45.4406259019
 20
27.8557058625
 10
45.4291590423
 20
27.8463843562
 10
45.4186884722
 20
27.8343029041
 10
45.4099277435
 20
27.8202848373
 10
45.4034738855
 20
27.8052854637
 10
45.3997667178
 20
27.7903269661
 10
45.3990588779
 20
27.7764287412
 10
45.4013986039
 20
27.7645379301
 10
45.4066264473
 20
27.7554648719
 10
45.4143861393
 20
27.7498278806
 10
45.4241488695
 20
27.7480111077
 10
45.4352493242
 20
27.7501383634
  0
LINE
  5
3AF
330
1F
100
AcDbEntity
  8
0
  6
Continuous
 62
     7
370
    25
100
AcDbLine
 10
45.4738810794
 20
27.8352544829
 30
0.0
 11
45.4498367521
 21
27.8454825635
 31
0.0
  0
LINE
  5
3B0
330
1F
100
AcDbEntity
  8
0
  6
Continuous
 62
     7
370
    25
100
AcDbLine
 10
45.4197341364
 20
27.8161133512
 30
0.0
 11
45.4498367521
 21
27.8454825635
 31
0.0
  0
LINE
  5
3B1
330
1F
100
AcDbEntity
  8
0
  6
Continuous
 62
     7
370
    25
100
AcDbLine
 10
45.4136758481
 20
27.7765160583
 30
0.0
 11
45.4197341364
 21
27.8161133512
 31
0.0
  0
LINE
  5
3B2
330
1F
100
AcDbEntity
  8
0
  6
Continuous
 62
     7
370
    25
100
AcDbLine
 10
45.4136758481
 20
27.7765160583
 30
0.0
 11
45.4377201754
 21
27.7662879778
 31
0.0
  0
LINE
  5
3B3
330
1F
100
AcDbEntity
  8
0
  6
Continuous
 62
     7
370
    25
100
AcDbLine
 10
45.467822791
 20
27.7956571901
 30
0.0
 11
45.4377201754
 21
27.7662879778
 31
0.0
  0
LINE
  5
3B4
330
1F
100
AcDbEntity
  8
0
  6
Continuous
 62
     7
370
    25
100
AcDbLine
 10
45.467822791
 20
27.7956571901
 30
0.0
 11
45.4738810794
 21
27.8352544829
 31
0.0
  0
LINE
  5
3B5
330
1F
100
AcDbEntity
  8
0
  6
Continuous
 62
     7
370
    25
100
AcDbLine
 10
45.4141893079
 20
27.7798720585
 30
0.0
 11
45.4377201754
 21
27.7662879778
 31
0.0
  0
LINE
  5
3B6
330
1F
100
AcDbEntity
  8
0
  6
Continuous
 62
     7
370
    25
100
AcDbLine
 10
45.4244380544
 20
27.8207026655
 30
0.0
 11
45.467822791
 21
27.7956571901
 31
0.0
  0
LWPOLYLINE
  5
3B7
330
1F
100
AcDbEntity
  8
0
  6
Continuous
 62
     7
370
    25
100
AcDbPolyline
 90
       85
 70
   128
 43
0.0
 10
56.1623780003
 20
41.2198163681
 10
56.2043589263
 20
41.2415649571
 10
56.248382908
 20
41.2595115882
 10
56.2943272425
 20
41.2736062411
 10
56.3420638749
 20
41.2838096314
 10
56.3914597545
 20
41.2900933203
 10
56.4423772061
 20
41.2924397942
 10
56.4946743138
 20
41.290842513
 10
56.548205316
 20
41.2853059286
 10
56.6028210123
 20
41.2758454725
 10
56.658369179
 20
41.2624875126
 10
56.7146949932
 20
41.2452692801
 10
56.771641465
 20
41.224238765
 10
56.8290498742
 20
41.1994545834
 10
56.8867602133
 20
41.1709858132
 10
56.9446116332
 20
41.1389118018
 10
57.0024428918
 20
41.1033219455
 10
57.0600928028
 20
41.0643154393
 10
57.1174006856
 20
41.0220010016
 10
57.1742068129
 20
40.9764965702
 10
57.2303528559
 20
40.9279289741
 10
57.2856823254
 20
40.87643358
 10
57.3400410082
 20
40.8221539147
 10
57.3932773971
 20
40.7652412654
 10
57.4452431125
 20
40.7058542578
 10
57.4957933168
 20
40.6441584142
 10
57.5447871174
 20
40.580325692
 10
57.5920879599
 20
40.5145340045
 10
57.6375640083
 20
40.4469667248
 10
57.6810885128
 20
40.377812175
 10
57.7225401626
 20
40.3072631014
 10
57.7618034247
 20
40.2355161369
 10
57.7987688652
 20
40.162771253
 10
57.8333334549
 20
40.0892312029
 10
57.865400856
 20
40.0151009558
 10
57.8948816911
 20
39.940587126
 10
57.9216937915
 20
39.865897397
 10
57.9457624274
 20
39.7912399425
 10
57.9670205149
 20
39.716822846
 10
57.9854088042
 20
39.6428535215
 10
58.0008760435
 20
39.5695381347
 10
58.0133791231
 20
39.4970810288
 10
58.0228831946
 20
39.4256841546
 10
58.0293617684
 20
39.3555465081
 10
58.0327967876
 20
39.2868635755
 10
58.0331786782
 20
39.2198267884
 10
58.0305063757
 20
39.1546229904
 10
58.0247873284
 20
39.0914339162
 10
58.0160374763
 20
39.030435685
 10
58.0042812067
 20
38.9717983098
 10
57.9895512866
 20
38.9156852237
 10
57.9718887707
 20
38.8622528236
 10
57.9513428878
 20
38.8116500355
 10
57.927970903
 20
38.7640178982
 10
57.901837958
 20
38.7194891712
 10
57.8730168901
 20
38.6781879639
 10
57.8415880289
 20
38.6402293902
 10
57.8076389721
 20
38.6057192476
 10
57.7712643419
 20
38.5747537219
 10
57.7325655209
 20
38.5474191196
 10
57.6916503696
 20
38.5237916271
 10
57.648632926
 20
38.5039370986
 10
57.6036330873
 20
38.4879108721
 10
57.5567762762
 20
38.4757576157
 10
57.5081930911
 20
38.4675112025
 10
57.4580189418
 20
38.4631946169
 10
57.4063936729
 20
38.46281989
 10
57.3534611732
 20
38.4663880661
 10
57.2993689751
 20
38.4738892002
 10
57.2442678432
 20
38.4853023852
 10
57.1883113542
 20
38.5005958106
 10
57.131655469
 20
38.5197268508
 10
57.0744580977
 20
38.5426421841
 10
57.0168786595
 20
38.5692779415
 10
56.9590776387
 20
38.5995598843
 10
56.9012161372
 20
38.6334036113
 10
56.8434554252
 20
38.6707147939
 10
56.7859564923
 20
38.7113894392
 10
56.7288795983
 20
38.7553141797
 10
56.6723838268
 20
38.8023665893
 10
56.6166266415
 20
38.8524155243
 10
56.5617634478
 20
38.9053214896
 10
56.5079471593
 20
38.9609370266
 10
56.4553277715
 20
39.0191071249
 10
56.4537280354
 20
39.020937184
  0
LWPOLYLINE
  5
3B8
330
1F
100
AcDbEntity
  8
0
  6
Continuous
 62
     7
370
    25
100
AcDbPolyline
 90
       25
 70
   128
 43
0.0
 10
55.9537686691
 20
39.8869860464
 10
55.9406805838
 20
39.9264023711
 10
55.9180093221
 20
40.0009656288
 10
55.8981792238
 20
40.0751847015
 10
55.8812455588
 20
40.1488527274
 10
55.8672555244
 20
40.2217643804
 10
55.8562481132
 20
40.2937164428
 10
55.8482540049
 20
40.3645083711
 10
55.8432954806
 20
40.4339428557
 10
55.8413863605
 20
40.5018263701
 10
55.8425319656
 20
40.5679697108
 10
55.846729103
 20
40.6321885245
 10
55.8539660745
 20
40.6943038218
 10
55.8642227094
 20
40.7541424762
 10
55.8774704205
 20
40.8115377067
 10
55.8936722842
 20
40.8663295425
 10
55.9127831429
 20
40.9183652688
 10
55.9347497312
 20
40.9674998529
 10
55.9595108243
 20
41.0135963477
 10
55.9869974087
 20
41.0565262742
 10
56.0171328742
 20
41.0961699788
 10
56.0498332279
 20
41.1324169675
 10
56.0850073281
 20
41.1651662135
 10
56.1225571383
 20
41.1943264386
 10
56.1623780003
 20
41.2198163681
  0
LWPOLYLINE
  5
3B9
330
1F
100
AcDbEntity
  8
0
  6
Continuous
 62
     7
370
    25
100
AcDbPolyline
 90
       82
 70
   128
 43
0.0
 10
56.4212614768
 20
42.8126031896
 10
56.4769499875
 20
42.8423000142
 10
56.534685663
 20
42.8682589367
 10
56.5943805811
 20
42.890440426
 10
56.6559438365
 20
42.9088107033
 10
56.7192816785
 20
42.9233417936
 10
56.7842976539
 20
42.9340115686
 10
56.8508927541
 20
42.94080378
 10
56.9189655659
 20
42.9437080842
 10
56.9884124254
 20
42.9427200586
 10
57.0591275768
 20
42.9378412077
 10
57.1310033323
 20
42.9290789612
 10
57.2039302371
 20
42.9164466626
 10
57.2777972356
 20
42.8999635488
 10
57.3524918405
 20
42.8796547209
 10
57.4279003042
 20
42.8555511058
 10
57.503907792
 20
42.8276894093
 10
57.5803985572
 20
42.7961120603
 10
57.6572561169
 20
42.7608671458
 10
57.7343634297
 20
42.7220083381
 10
57.8116030739
 20
42.6795948126
 10
57.8888574263
 20
42.6336911583
 10
57.9660088411
 20
42.5843672787
 10
58.0429398296
 20
42.531698286
 10
58.1195332386
 20
42.4757643864
 10
58.1956724288
 20
42.416650758
 10
58.2712414529
 20
42.3544474211
 10
58.3461252318
 20
42.2892491011
 10
58.4202097297
 20
42.2211550844
 10
58.4933821282
 20
42.1502690668
 10
58.5655309979
 20
42.0766989961
 10
58.6365464678
 20
42.0005569073
 10
58.7063203932
 20
41.9219587524
 10
58.7747465198
 20
41.8410242233
 10
58.841720646
 20
41.75787657
 10
58.9071407813
 20
41.6726424125
 10
58.9709073014
 20
41.5854515486
 10
59.0329231006
 20
41.4964367555
 10
59.093093739
 20
41.405733588
 10
59.1513275866
 20
41.3134801721
 10
59.207535963
 20
41.2198169946
 10
59.261633272
 20
41.1248866889
 10
59.3135371323
 20
41.0288338184
 10
59.363168503
 20
40.9318046557
 10
59.4104518036
 20
40.8339469601
 10
59.4553150295
 20
40.7354097529
 10
59.4976898614
 20
40.6363430898
 10
59.5375117693
 20
40.5368978333
 10
59.5747201112
 20
40.4372254218
 10
59.6092582248
 20
40.3374776402
 10
59.6410735143
 20
40.2378063877
 10
59.6701175302
 20
40.1383634473
 10
59.6963460433
 20
40.0393002542
 10
59.7197191119
 20
39.9407676653
 10
59.7402011428
 20
39.8429157294
 10
59.757760945
 20
39.7458934589
 10
59.7723717779
 20
39.6498486028
 10
59.7840113918
 20
39.5549274214
 10
59.7926620612
 20
39.4612744642
 10
59.7983106128
 20
39.369032349
 10
59.8009484446
 20
39.2783415455
 10
59.8005715397
 20
39.1893401608
 10
59.7971804721
 20
39.1021637293
 10
59.7907804058
 20
39.0169450063
 10
59.7813810871
 20
38.9338137658
 10
59.7689968295
 20
38.8528966031
 10
59.7536464922
 20
38.7743167417
 10
59.7353534513
 20
38.6981938456
 10
59.7141455641
 20
38.6246438376
 10
59.6900551266
 20
38.5537787221
 10
59.6631188247
 20
38.485706415
 10
59.6333776778
 20
38.4205305793
 10
59.6008769769
 20
38.358350467
 10
59.5656662151
 20
38.299260768
 10
59.5277990126
 20
38.2433514664
 10
59.487333035
 20
38.1907077027
 10
59.4443299052
 20
38.1414096447
 10
59.39885511
 20
38.0955323652
 10
59.3509778998
 20
38.0531457277
 10
59.3007711839
 20
38.0143142802
 10
59.2483114187
 20
37.9790971564
 10
59.2211416344
 20
37.9627917484
  0
LWPOLYLINE
  5
3BA
330
1F
100
AcDbEntity
  8
0
  6
Continuous
 62
     7
370
    25
100
AcDbPolyline
 90
       81
 70
   128
 43
0.0
 10
56.9091651558
 20
43.0942639881
 10
56.9648536666
 20
43.1239608128
 10
57.022589342
 20
43.1499197353
 10
57.0822842601
 20
43.1721012246
 10
57.1438475155
 20
43.1904715019
 10
57.2071853575
 20
43.2050025922
 10
57.2722013329
 20
43.2156723672
 10
57.3387964331
 20
43.2224645785
 10
57.4068692449
 20
43.2253688828
 10
57.4763161045
 20
43.2243808572
 10
57.5470312558
 20
43.2195020063
 10
57.6189070113
 20
43.2107397598
 10
57.6918339161
 20
43.1981074612
 10
57.7657009146
 20
43.1816243474
 10
57.8403955195
 20
43.1613155194
 10
57.9158039832
 20
43.1372119043
 10
57.9918114711
 20
43.1093502079
 10
58.0683022362
 20
43.0777728589
 10
58.1451597959
 20
43.0425279444
 10
58.2222671087
 20
43.0036691367
 10
58.2995067529
 20
42.9612556112
 10
58.3767611053
 20
42.9153519568
 10
58.4539125201
 20
42.8660280772
 10
58.5308435086
 20
42.8133590845
 10
58.6074369176
 20
42.7574251849
 10
58.6835761078
 20
42.6983115565
 10
58.759145132
 20
42.6361082197
 10
58.8340289108
 20
42.5709098997
 10
58.9081134087
 20
42.5028158829
 10
58.9812858073
 20
42.4319298654
 10
59.0534346769
 20
42.3583597947
 10
59.1244501468
 20
42.2822177059
 10
59.1942240722
 20
42.203619551
 10
59.2626501989
 20
42.1226850219
 10
59.3296243251
 20
42.0395373685
 10
59.3950444603
 20
41.9543032111
 10
59.4588109804
 20
41.8671123472
 10
59.5208267796
 20
41.7780975541
 10
59.580997418
 20
41.6873943866
 10
59.6392312657
 20
41.5951409707
 10
59.695439642
 20
41.5014777932
 10
59.749536951
 20
41.4065474875
 10
59.8014408114
 20
41.310494617
 10
59.851072182
 20
41.2134654542
 10
59.8983554826
 20
41.1156077587
 10
59.9432187085
 20
41.0170705514
 10
59.9855935404
 20
40.9180038884
 10
60.0254154483
 20
40.8185586318
 10
60.0626237902
 20
40.7188862204
 10
60.0971619038
 20
40.6191384387
 10
60.1289771933
 20
40.5194671863
 10
60.1580212092
 20
40.4200242459
 10
60.1842497223
 20
40.3209610528
 10
60.207622791
 20
40.2224284638
 10
60.2281048218
 20
40.124576528
 10
60.245664624
 20
40.0275542575
 10
60.260275457
 20
39.9315094013
 10
60.2719150708
 20
39.83658822
 10
60.2805657402
 20
39.7429352628
 10
60.2862142918
 20
39.6506931476
 10
60.2888521236
 20
39.5600023441
 10
60.2884752187
 20
39.4710009594
 10
60.2850841511
 20
39.3838245279
 10
60.2786840848
 20
39.2986058048
 10
60.2692847661
 20
39.2154745644
 10
60.2569005085
 20
39.1345574017
 10
60.2415501712
 20
39.0559775403
 10
60.2232571303
 20
38.9798546442
 10
60.2020492431
 20
38.9063046362
 10
60.1779588056
 20
38.8354395207
 10
60.1510225037
 20
38.7673672136
 10
60.1212813568
 20
38.7021913779
 10
60.0887806559
 20
38.6400112655
 10
60.0535698941
 20
38.5809215666
 10
60.0157026917
 20
38.525012265
 10
59.975236714
 20
38.4723685013
 10
59.9322335843
 20
38.4230704433
 10
59.886758789
 20
38.3771931638
 10
59.8388815788
 20
38.3348065263
 10
59.7886748629
 20
38.2959750788
 10
59.7724556656
 20
38.2845347936
  0
LWPOLYLINE
  5
3BB
330
1F
100
AcDbEntity
  8
0
  6
Continuous
 62
     7
370
    25
100
AcDbPolyline
 90
       42
 70
   128
 43
0.0
 10
56.8636306164
 20
43.411630764
 10
56.9210220792
 20
43.4376403377
 10
56.983745079
 20
43.4615095211
 10
57.0483585657
 20
43.4815535987
 10
57.1147732377
 20
43.4977448677
 10
57.1828973037
 20
43.5100609504
 10
57.2526366103
 20
43.5184848249
 10
57.3238947715
 20
43.5230048485
 10
57.3965733021
 20
43.5236147742
 10
57.4705717538
 20
43.5203137591
 10
57.5457878541
 20
43.5131063654
 10
57.6221176475
 20
43.5020025544
 10
57.6994556396
 20
43.4870176726
 10
57.7776949421
 20
43.4681724304
 10
57.8567274213
 20
43.4454928736
 10
57.9364438473
 20
43.4190103474
 10
58.0167340448
 20
43.3887614531
 10
58.0974870455
 20
43.3547879974
 10
58.1785912415
 20
43.3171369346
 10
58.2599345394
 20
43.2758603018
 10
58.3414045157
 20
43.2310151472
 10
58.4228885713
 20
43.1826634506
 10
58.5042740881
 20
43.1308720386
 10
58.5854485838
 20
43.0757124915
 10
58.6662998682
 20
43.0172610448
 10
58.7467161974
 20
42.9555984836
 10
58.8265864288
 20
42.8908100311
 10
58.9058001745
 20
42.8229852309
 10
58.9842479542
 20
42.7522178228
 10
59.0618213458
 20
42.6786056137
 10
59.1384131359
 20
42.6022503425
 10
59.2139174679
 20
42.5232575389
 10
59.288229988
 20
42.4417363781
 10
59.3612479895
 20
42.3577995296
 10
59.4328705551
 20
42.2715630018
 10
59.5029986958
 20
42.1831459813
 10
59.5715354884
 20
42.0926706683
 10
59.6383862087
 20
42.0002621078
 10
59.7034584631
 20
41.9060480169
 10
59.7666623159
 20
41.8101586079
 10
59.8279104137
 20
41.7127264084
 10
59.8395525089
 20
41.6936676233
  0
LWPOLYLINE
  5
3BC
330
1F
100
AcDbEntity
  8
0
  6
Continuous
 62
     7
370
    25
100
AcDbPolyline
 90
       42
 70
   128
 43
0.0
 10
59.9612412831
 20
41.4828964844
 10
59.9990878862
 20
41.4125292107
 10
60.0516952217
 20
41.3102909656
 10
60.101952861
 20
41.2072007922
 10
60.1497913437
 20
41.1034011704
 10
60.1951445525
 20
40.9990355606
 10
60.2379498053
 20
40.8942482053
 10
60.2781479414
 20
40.7891839303
 10
60.3156834034
 20
40.6839879437
 10
60.3505043137
 20
40.5788056359
 10
60.3825625469
 20
40.4737823783
 10
60.4118137956
 20
40.3690633225
 10
60.4382176319
 20
40.2647931995
 10
60.4617375633
 20
40.1611161202
 10
60.4823410832
 20
40.0581753755
 10
60.4999997156
 20
39.9561132389
 10
60.5146890547
 20
39.8550707693
 10
60.5263887986
 20
39.7551876165
 10
60.5350827772
 20
39.6566018281
 10
60.5407589745
 20
39.5594496585
 10
60.5434095456
 20
39.4638653807
 10
60.5430308272
 20
39.3699811007
 10
60.5396233426
 20
39.2779265752
 10
60.5331918013
 20
39.1878290316
 10
60.5237450924
 20
39.099812993
 10
60.5112962719
 20
39.0140001055
 10
60.4958625453
 20
38.93050897
 10
60.4774652433
 20
38.849454979
 10
60.4561297928
 20
38.7709501562
 10
60.4318856812
 20
38.6951030025
 10
60.404766416
 20
38.6220183454
 10
60.3748094785
 20
38.5517971945
 10
60.342056272
 20
38.4845366017
 10
60.3065520642
 20
38.4203295272
 10
60.2683459252
 20
38.359264711
 10
60.2274906593
 20
38.3014265501
 10
60.1840427322
 20
38.2468949821
 10
60.1380621927
 20
38.1957453745
 10
60.0896125902
 20
38.1480484207
 10
60.0387608864
 20
38.103870042
 10
59.9855773628
 20
38.0632712972
 10
59.9612412831
 20
38.046411723
  0
ARC
  5
3BD
330
1F
100
AcDbEntity
  8
0
  6
Continuous
 62
     7
370
    25
100
AcDbCircle
 10
59.3211108394
 20
39.1046008018
 30
0.0
 40
1.242343645866291
100
AcDbArc
 50
258.690089873
 51
293.7168547036
  0
ARC
  5
3BE
330
1F
100
AcDbEntity
  8
0
  6
Continuous
 62
     7
370
    25
100
AcDbCircle
 10
57.4681616549
 20
42.3223738802
 30
0.0
 40
1.251826934683802
100
AcDbArc
 50
126.4284467112
 51
161.1771952688
  0
LWPOLYLINE
  5
3BF
330
1F
100
AcDbEntity
  8
0
  6
Continuous
 62
     7
370
    25
100
AcDbPolyline
 90
       87
 70
   128
 43
0.0
 10
56.8274799103
 20
43.537842534
 10
56.8874474545
 20
43.5699877676
 10
56.9494865478
 20
43.5983634915
 10
57.0135144112
 20
43.6229318439
 10
57.0794456123
 20
43.6436600433
 10
57.1471921786
 20
43.6605204318
 10
57.2166637159
 20
43.6734905126
 10
57.2877675279
 20
43.6825529797
 10
57.3604087407
 20
43.6876957411
 10
57.4344904288
 20
43.6889119347
 10
57.5099137448
 20
43.6861999377
 10
57.5865780511
 20
43.6795633687
 10
57.6643810543
 20
43.6690110831
 10
57.7432189416
 20
43.6545571606
 10
57.8229865193
 20
43.6362208873
 10
57.9035773533
 20
43.6140267293
 10
57.984883911
 20
43.5880043003
 10
58.0667977047
 20
43.5581883221
 10
58.1492094367
 20
43.5246185783
 10
58.2320091447
 20
43.4873398611
 10
58.3150863487
 20
43.4464019116
 10
58.3983301987
 20
43.4018593535
 10
58.481629622
 20
43.35377162
 10
58.5648734719
 20
43.3022028748
 10
58.6479506759
 20
43.2472219262
 10
58.7307503839
 20
43.1889021354
 10
58.8131621159
 20
43.1273213188
 10
58.8950759097
 20
43.0625616438
 10
58.9763824673
 20
42.9947095195
 10
59.0569733013
 20
42.9238554812
 10
59.1367408791
 20
42.8500940696
 10
59.2155787663
 20
42.7735237049
 10
59.2933817695
 20
42.6942465552
 10
59.3700460758
 20
42.6123684001
 10
59.4454693918
 20
42.52799849
 10
59.5195510799
 20
42.4412494
 10
59.5921922927
 20
42.3522368796
 10
59.6632961047
 20
42.2610796985
 10
59.732767642
 20
42.1678994881
 10
59.8005142084
 20
42.072820579
 10
59.8664454094
 20
41.9759698353
 10
59.9304732728
 20
41.8774764852
 10
59.9925123661
 20
41.7774719489
 10
60.0524799103
 20
41.6760896625
 10
60.1102958905
 20
41.573464901
 10
60.1658831626
 20
41.4697345967
 10
60.2191675564
 20
41.3650371575
 10
60.2700779743
 20
41.2595122814
 10
60.3185464864
 20
41.1533007706
 10
60.364508421
 20
41.0465443435
 10
60.4079024509
 20
40.9393854455
 10
60.4486706754
 20
40.8319670591
 10
60.4867586972
 20
40.724432513
 10
60.5221156954
 20
40.6169252909
 10
60.5546944931
 20
40.5095888401
 10
60.5844516202
 20
40.4025663799
 10
60.6113473717
 20
40.2960007107
 10
60.6353458605
 20
40.1900340234
 10
60.6564150654
 20
40.0848077098
 10
60.6745268736
 20
39.9804621736
 10
60.6896571186
 20
39.8771366435
 10
60.7017856119
 20
39.7749689871
 10
60.7108961705
 20
39.6740955269
 10
60.7169766381
 20
39.5746508587
 10
60.7200189015
 20
39.476767672
 10
60.7200189015
 20
39.3805765726
 10
60.7169766381
 20
39.2862059085
 10
60.7108961705
 20
39.1937815988
 10
60.7017856119
 20
39.1034269657
 10
60.6896571186
 20
39.0152625695
 10
60.6745268736
 20
38.9294060484
 10
60.6564150654
 20
38.8459719609
 10
60.6353458605
 20
38.7650716334
 10
60.6113473717
 20
38.6868130116
 10
60.5844516202
 20
38.6113005161
 10
60.5546944931
 20
38.5386349035
 10
60.5221156954
 20
38.4689131318
 10
60.4867586972
 20
38.4022282309
 10
60.4486706754
 20
38.3386691788
 10
60.4079024509
 20
38.2783207825
 10
60.364508421
 20
38.221263565
 10
60.3185464864
 20
38.167573658
 10
60.2700779743
 20
38.1173227001
 10
60.2191675564
 20
38.0705777414
 10
60.1658831626
 20
38.0274011537
 10
60.1102958905
 20
37.9878505477
 10
60.0584033915
 20
37.9554245807
  0
LWPOLYLINE
  5
3C0
330
1F
100
AcDbEntity
  8
0
  6
Continuous
 62
     7
370
    25
100
AcDbPolyline
 90
       41
 70
   128
 43
0.0
 10
56.9555807364
 20
43.1894341735
 10
56.9781157715
 20
43.2008753655
 10
57.0367058184
 20
43.227262224
 10
57.0972735783
 20
43.2498386426
 10
57.1597279516
 20
43.2685706643
 10
57.223975001
 20
43.2834301143
 10
57.2899180929
 20
43.2943946427
 10
57.3574580425
 20
43.3014477577
 10
57.4264932633
 20
43.3045788508
 10
57.4969199199
 20
43.3037832125
 10
57.5686320838
 20
43.2990620396
 10
57.6415218931
 20
43.290422433
 10
57.7154797147
 20
43.2778773877
 10
57.7903943089
 20
43.2614457725
 10
57.8661529971
 20
43.2411523022
 10
57.942641831
 20
43.2170275001
 10
58.0197457641
 20
43.1891076521
 10
58.0973488249
 20
43.1574347524
 10
58.1753342909
 20
43.1220564401
 10
58.2535848645
 20
43.0830259274
 10
58.3319828496
 20
43.0404019199
 10
58.410410328
 20
42.9942485283
 10
58.4887493374
 20
42.9446351715
 10
58.5668820484
 20
42.8916364729
 10
58.6446909422
 20
42.8353321474
 10
58.7220589866
 20
42.7758068822
 10
58.7988698128
 20
42.7131502088
 10
58.8750078901
 20
42.647456369
 10
58.9503586994
 20
42.5788241724
 10
59.0248089062
 20
42.5073568483
 10
59.0982465301
 20
42.4331618906
 10
59.170561114
 20
42.3563508953
 10
59.2416438899
 20
42.2770393935
 10
59.3113879425
 20
42.1953466774
 10
59.3796883702
 20
42.1113956204
 10
59.4464424427
 20
42.0253124929
 10
59.5115497554
 20
41.9372267722
 10
59.5749123808
 20
41.8472709475
 10
59.6364350155
 20
41.7555803209
 10
59.6960251236
 20
41.6622928039
 10
59.7260761381
 20
41.6134330007
  0
LWPOLYLINE
  5
3C1
330
1F
100
AcDbEntity
  8
0
  6
Continuous
 62
     7
370
    25
100
AcDbPolyline
 90
       41
 70
   128
 43
0.0
 10
59.8350263793
 20
41.4247260583
 10
59.8623193343
 20
41.3742627829
 10
59.9133141058
 20
41.2760116705
 10
59.9619598981
 20
41.1768849846
 10
60.0081835435
 20
41.0770318209
 10
60.0519155172
 20
40.9766023682
 10
60.0930900422
 20
40.8757476819
 10
60.131645188
 20
40.774619457
 10
60.1675229641
 20
40.6733697999
 10
60.2006694069
 20
40.5721509999
 10
60.2310346609
 20
40.4711152994
 10
60.258573054
 20
40.370414666
 10
60.2832431658
 20
40.2702005628
 10
60.3050078901
 20
40.1706237214
 10
60.3238344906
 20
40.0718339149
 10
60.3396946505
 20
39.9739797324
 10
60.3525645144
 20
39.877208356
 10
60.362424725
 20
39.781665339
 10
60.3692604515
 20
39.6874943872
 10
60.3730614123
 20
39.5948371427
 10
60.3738218904
 20
39.5038329707
 10
60.371540742
 20
39.4146187501
 10
60.3662213982
 20
39.3273286677
 10
60.3578718597
 20
39.2420940159
 10
60.3465046851
 20
39.1590429959
 10
60.3321369716
 20
39.0783005242
 10
60.3147903297
 20
38.9999880452
 10
60.2944908504
 20
38.9242233483
 10
60.271269066
 20
38.8511203908
 10
60.2451599043
 20
38.7807891264
 10
60.2162026359
 20
38.7133353401
 10
60.1844408153
 20
38.6488604889
 10
60.1499222154
 20
38.5874615489
 10
60.1126987553
 20
38.52923087
 10
60.0728264228
 20
38.4742560367
 10
60.0303651894
 20
38.4226197364
 10
59.9853789211
 20
38.374399635
 10
59.9379352814
 20
38.3296682601
 10
59.8881056301
 20
38.2884928918
 10
59.8359649156
 20
38.250935462
 10
59.8147914031
 20
38.2371360439
  0
ARC
  5
3C2
330
1F
100
AcDbEntity
  8
0
  6
Continuous
 62
     7
370
    25
100
AcDbCircle
 10
59.2868208325
 20
39.0837082982
 30
0.0
 40
0.9981335918138723
100
AcDbArc
 50
279.9961036385
 51
296.8277878434
  0
ARC
  5
3C3
330
1F
100
AcDbEntity
  8
0
  6
Continuous
 62
     7
370
    25
100
AcDbCircle
 10
57.4249493287
 20
42.3089449856
 30
0.0
 40
0.9981992471188095
100
AcDbArc
 50
123.1826970618
 51
139.9981005455
  0
ARC
  5
3C4
330
1F
100
AcDbEntity
  8
0
  6
Continuous
 62
     7
370
    25
100
AcDbCircle
 10
43.1932871641
 20
32.2318390446
 30
0.0
 40
0.2512288082957961
100
AcDbArc
 50
54.3491112414
 51
114.3491589292
  0
ARC
  5
3C5
330
1F
100
AcDbEntity
  8
0
  6
Continuous
 62
     7
370
    25
100
AcDbCircle
 10
42.9129265368
 20
31.7463041451
 30
0.0
 40
0.2512105204354037
100
AcDbArc
 50
185.6534144997
 51
245.6586298205
  0
ARC
  5
3C6
330
1F
100
AcDbEntity
  8
0
  6
Continuous
 62
     7
370
    25
100
AcDbCircle
 10
43.8004215261
 20
32.0012997065
 30
0.0
 40
0.247811520609427
100
AcDbArc
 50
305.2013335526
 51
6.1185634707
  0
ARC
  5
3C7
330
1F
100
AcDbEntity
  8
0
  6
Continuous
 62
     7
370
    25
100
AcDbCircle
 10
43.4162093573
 20
31.3357009577
 30
0.0
 40
0.2477495349397278
100
AcDbArc
 50
293.8768051934
 51
354.7965488032
  0
ARC
  5
3C8
330
1F
100
AcDbEntity
  8
0
  6
Continuous
 62
     7
370
    25
100
AcDbCircle
 10
43.4162156583
 20
29.9230781427
 30
0.0
 40
0.2477403912083073
100
AcDbArc
 50
293.876147637
 51
354.8037114054
  0
LWPOLYLINE
  5
3C9
330
1F
100
AcDbEntity
  8
0
  6
Continuous
 62
     7
370
    25
100
AcDbPolyline
 90
       27
 70
   128
 43
0.0
 10
42.6629379028
 20
29.9006407736
 10
42.6634714154
 20
29.887310202
 10
42.6677326873
 20
29.8607627905
 10
42.6762188756
 20
29.834555604
 10
42.688857579
 20
29.8089122328
 10
42.7055409685
 20
29.7840514572
 10
42.7261267075
 20
29.7601853805
 10
42.7504391655
 20
29.7375176197
 10
42.7782709173
 20
29.7162415682
 10
42.8093845122
 20
29.6965387456
 10
42.8435144999
 20
29.6785772496
 10
42.8803696956
 20
29.6625103213
 10
42.9196356635
 20
29.648475038
 10
42.9609774003
 20
29.6365911439
 10
43.004042193
 20
29.6269600281
 10
43.0484626278
 20
29.6196638599
 10
43.0938597253
 20
29.6147648877
 10
43.1398461735
 20
29.6123049078
 10
43.1860296321
 20
29.6123049078
 10
43.2320160803
 20
29.6147648877
 10
43.2774131777
 20
29.6196638599
 10
43.3218336126
 20
29.6269600281
 10
43.3648984052
 20
29.6365911439
 10
43.4062401421
 20
29.648475038
 10
43.44550611
 20
29.6625103213
 10
43.4823613056
 20
29.6785772496
 10
43.5164912934
 20
29.6965387456
  0
LWPOLYLINE
  5
3CA
330
1F
100
AcDbEntity
  8
0
  6
Continuous
 62
     7
370
    25
100
AcDbPolyline
 90
       19
 70
   128
 43
0.0
 10
44.1598812712
 20
28.3992376562
 10
44.1802013138
 20
28.4407040866
 10
44.1973316
 20
28.4835580666
 10
44.2111259804
 20
28.5274339812
 10
44.2214667662
 20
28.5719574964
 10
44.2282657333
 20
28.6167487533
 10
44.2314648755
 20
28.6614256089
 10
44.2310368987
 20
28.7056068958
 10
44.2269854543
 20
28.7489156749
 10
44.2193451078
 20
28.7909824509
 10
44.208181044
 20
28.8314483251
 10
44.1935885107
 20
28.8699680568
 10
44.1756920062
 20
28.9062130091
 10
44.1546442172
 20
28.9398739531
 10
44.130624716
 20
28.9706637054
 10
44.1038384286
 20
28.9983195786
 10
44.0745138861
 20
29.0226056226
 10
44.0429012752
 20
29.0433146375
 10
44.0166724407
 20
29.0569419676
  0
LWPOLYLINE
  5
3CB
330
1F
100
AcDbEntity
  8
0
  6
Continuous
 62
     7
370
    25
100
AcDbPolyline
 90
       18
 70
   128
 43
0.0
 10
43.59612898
 20
28.1496698061
 10
43.6033854577
 20
28.1464094272
 10
43.6387478626
 20
28.1333524913
 10
43.6755400012
 20
28.1243053205
 10
43.7134479758
 20
28.119345102
 10
43.752148369
 20
28.1185141545
 10
43.7913110027
 20
28.1218195676
 10
43.8306017551
 20
28.1292331405
 10
43.8696854114
 20
28.1406916233
 10
43.9082285236
 20
28.1560972562
 10
43.9459022554
 20
28.1753186038
 10
43.9823851878
 20
28.1981916763
 10
44.0173660614
 20
28.2245213288
 10
44.0505464317
 20
28.2540829259
 10
44.0816432153
 20
28.2866242586
 10
44.1103911056
 20
28.3218676956
 10
44.1365448357
 20
28.3595125524
 10
44.1598812712
 20
28.3992376562
  0
ARC
  5
3CC
330
1F
100
AcDbEntity
  8
0
  6
Continuous
 62
     7
370
    25
100
AcDbCircle
 10
44.7652186869
 20
28.6431045733
 30
0.0
 40
0.3978685655386511
100
AcDbArc
 50
352.946599271
 51
57.2772345696
  0
ARC
  5
3CD
330
1F
100
AcDbEntity
  8
0
  6
Continuous
 62
     7
370
    25
100
AcDbCircle
 10
45.733233315
 20
28.0320868681
 30
0.0
 40
1.165528192371243
100
AcDbArc
 50
342.7724790414
 51
11.6587799621
  0
ARC
  5
3CE
330
1F
100
AcDbEntity
  8
0
  6
Continuous
 62
     7
370
    25
100
AcDbCircle
 10
45.7270389752
 20
27.8386596827
 30
0.0
 40
1.053774399317204
100
AcDbArc
 50
287.5440756441
 51
297.1427883777
  0
LWPOLYLINE
  5
3CF
330
1F
100
AcDbEntity
  8
0
  6
Continuous
 62
     7
370
    25
100
AcDbPolyline
 90
       28
 70
   128
 43
0.0
 10
47.9705980725
 20
26.6800041073
 10
47.9454867938
 20
26.6945049551
 10
47.9174331108
 20
26.7107043766
 10
47.8866910821
 20
26.7284556676
 10
47.8535391121
 20
26.7475980695
 10
47.8182774303
 20
26.7679582258
 10
47.7812253719
 20
26.7893517517
 10
47.7427184862
 20
26.8115849042
 10
47.7031054973
 20
26.8344563364
 10
47.6627451466
 20
26.8577589211
 10
47.6220029439
 20
26.8812816265
 10
47.5812478567
 20
26.9048114272
 10
47.5408489694
 20
26.9281352338
 10
47.5011721407
 20
26.9510418223
 10
47.4625766899
 20
26.9733237471
 10
47.4254121436
 20
26.9947792195
 10
47.3900150695
 20
27.0152139356
 10
47.3567060291
 20
27.0344428353
 10
47.3257866742
 20
27.0522917788
 10
47.2975370153
 20
27.0685991232
 10
47.2722128856
 20
27.0832171868
 10
47.2500436244
 20
27.0960135861
 10
47.23123
 20
27.1068724349
 10
47.2159423914
 20
27.1156953938
 10
47.2043192456
 20
27.1224025607
 10
47.1964658236
 20
27.1269331945
 10
47.1924532472
 20
27.129246265
 10
47.1918976412
 20
27.1295651156
  0
LWPOLYLINE
  5
3D0
330
1F
100
AcDbEntity
  8
0
  6
Continuous
 62
     7
370
    25
100
AcDbPolyline
 90
       18
 70
   128
 43
0.0
 10
47.8681204366
 20
27.3107244659
 10
47.8844544024
 20
27.3006476868
 10
47.9153737573
 20
27.2776280385
 10
47.9436234162
 20
27.2510261111
 10
47.9689475459
 20
27.2210828158
 10
47.9911168071
 20
27.1880693237
 10
48.0099304316
 20
27.1522846101
 10
48.0252180402
 20
27.1140527469
 10
48.036841186
 20
27.0737199678
 10
48.0446946079
 20
27.0316515326
 10
48.0487071843
 20
26.9882284197
 10
48.0488425766
 20
26.9438438755
 10
48.0450995586
 20
26.8988998532
 10
48.0375120277
 20
26.853803373
 10
48.0261486977
 20
26.8089628354
 10
48.0111124768
 20
26.7647843235
 10
47.9925395352
 20
26.7216679245
 10
47.9705980725
 20
26.6800041073
  0
ARC
  5
3D1
330
1F
100
AcDbEntity
  8
0
  6
Continuous
 62
     7
370
    25
100
AcDbCircle
 10
48.5573024712
 20
26.3647730604
 30
0.0
 40
1.228075349030319
100
AcDbArc
 50
329.0453442851
 51
11.0672020365
  0
ARC
  5
3D2
330
1F
100
AcDbEntity
  8
0
  6
Continuous
 62
     7
370
    25
100
AcDbCircle
 10
48.5371828286
 20
26.3290307353
 30
0.0
 40
1.227629896588703
100
AcDbArc
 50
288.7855221323
 51
330.9592673759
  0
ARC
  5
3D3
330
1F
100
AcDbEntity
  8
0
  6
Continuous
 62
     7
370
    25
100
AcDbCircle
 10
44.5694275992
 20
28.2385754077
 30
0.0
 40
0.5473945045310319
100
AcDbArc
 50
296.4533374065
 51
332.4883910247
  0
ARC
  5
3D4
330
1F
100
AcDbEntity
  8
0
  6
Continuous
 62
     7
370
    25
100
AcDbCircle
 10
44.5676908213
 20
28.2576308611
 30
0.0
 40
0.5579694167424335
100
AcDbArc
 50
330.8350832876
 51
13.6909694261
  0
ENDSEC
  0
SECTION
  2
OBJECTS
  0
DICTIONARY
  5
C
330
0
100
AcDbDictionary
281
     1
  3
ACAD_GROUP
350
D
  3
ACAD_LAYOUT
350
1A
  3
ACAD_MLINESTYLE
350
17
  3
ACAD_PLOTSETTINGS
350
19
  3
ACAD_PLOTSTYLENAME
350
E
  3
ACAD_SCALELIST
350
47
  3
DWGPROPS
350
3D5
  0
DICTIONARY
  5
D
102
{ACAD_REACTORS
330
C
102
}
330
C
100
AcDbDictionary
281
     1
  0
DICTIONARY
  5
1A
102
{ACAD_REACTORS
330
C
102
}
330
C
100
AcDbDictionary
281
     1
  3
Layout1
350
1E
  3
Layout2
350
26
  3
Model
350
22
  0
DICTIONARY
  5
17
102
{ACAD_REACTORS
330
C
102
}
330
C
100
AcDbDictionary
281
     1
  3
Standard
350
18
  0
DICTIONARY
  5
19
102
{ACAD_REACTORS
330
C
102
}
330
C
100
AcDbDictionary
281
     1
  0
ACDBDICTIONARYWDFLT
  5
E
102
{ACAD_REACTORS
330
C
102
}
330
C
100
AcDbDictionary
281
     1
  3
Normal
350
F
100
AcDbDictionaryWithDefault
340
F
  0
DICTIONARY
  5
47
102
{ACAD_REACTORS
330
C
102
}
330
C
100
AcDbDictionary
281
     1
  3
A0
350
48
  3
A1
350
49
  3
A2
350
4A
  3
A3
350
4B
  3
A4
350
4C
  3
A5
350
4D
  3
A6
350
4E
  3
A7
350
4F
  3
A8
350
50
  3
A9
350
51
  3
B1
350
52
  3
B2
350
53
  3
B3
350
54
  3
B4
350
55
  3
B5
350
56
  3
B6
350
57
  3
B7
350
58
  0
XRECORD
  5
3D5
102
{ACAD_REACTORS
330
C
102
}
330
C
100
AcDbXrecord
280
     1
  1
DWGPROPS COOKIE
  2

  3

  4

  6

  7

  8
gurisher.rai
  9

300
=
301
=
302
=
303
=
304
=
305
=
306
=
307
=
308
=
309
=
 40
0.0
 41
2460526.773281737
 42
2460526.773282674
  1

 90
        0
  0
LAYOUT
  5
1E
102
{ACAD_REACTORS
330
1A
102
}
330
1A
100
AcDbPlotSettings
  1

  2
none_device
  4

  6

 40
0.0
 41
0.0
 42
0.0
 43
0.0
 44
0.0
 45
0.0
 46
0.0
 47
0.0
 48
0.0
 49
0.0
140
0.0
141
0.0
142
1.0
143
1.0
 70
   688
 72
     0
 73
     0
 74
     5
  7

 75
    16
147
1.0
148
0.0
149
0.0
100
AcDbLayout
  1
Layout1
 70
     1
 71
     1
 10
0.0
 20
0.0
 11
12.0
 21
9.0
 12
0.0
 22
0.0
 32
0.0
 14
1.0000000000E+20
 24
1.0000000000E+20
 34
1.0000000000E+20
 15
-1.0000000000E+20
 25
-1.0000000000E+20
 35
-1.0000000000E+20
146
0.0
 13
0.0
 23
0.0
 33
0.0
 16
1.0
 26
0.0
 36
0.0
 17
0.0
 27
1.0
 37
0.0
 76
     0
330
1B
  0
LAYOUT
  5
26
102
{ACAD_REACTORS
330
1A
102
}
330
1A
100
AcDbPlotSettings
  1

  2
none_device
  4

  6

 40
0.0
 41
0.0
 42
0.0
 43
0.0
 44
0.0
 45
0.0
 46
0.0
 47
0.0
 48
0.0
 49
0.0
140
0.0
141
0.0
142
1.0
143
1.0
 70
   688
 72
     0
 73
     0
 74
     5
  7

 75
    16
147
1.0
148
0.0
149
0.0
100
AcDbLayout
  1
Layout2
 70
     1
 71
     2
 10
0.0
 20
0.0
 11
0.0
 21
0.0
 12
0.0
 22
0.0
 32
0.0
 14
0.0
 24
0.0
 34
0.0
 15
0.0
 25
0.0
 35
0.0
146
0.0
 13
0.0
 23
0.0
 33
0.0
 16
1.0
 26
0.0
 36
0.0
 17
0.0
 27
1.0
 37
0.0
 76
     0
330
23
  0
LAYOUT
  5
22
102
{ACAD_REACTORS
330
1A
102
}
330
1A
100
AcDbPlotSettings
  1

  2
none_device
  4
Letter_(8.50_x_11.00_Inches)
  6

 40
6.35
 41
6.35
 42
6.35000508
 43
6.35000508
 44
215.9
 45
279.4
 46
0.0
 47
0.0
 48
0.0
 49
0.0
140
0.0
141
0.0
142
1.0
143
1.0
 70
  1712
 72
     0
 73
     0
 74
     0
  7

 75
     0
147
1.0
148
0.0
149
0.0
100
AcDbLayout
  1
Model
 70
     1
 71
     0
 10
0.0
 20
0.0
 11
66.0
 21
51.0
 12
0.0
 22
0.0
 32
0.0
 14
0.0
 24
0.0
 34
0.0
 15
66.0
 25
51.0
 35
0.0
146
0.0
 13
0.0
 23
0.0
 33
0.0
 16
1.0
 26
0.0
 36
0.0
 17
0.0
 27
1.0
 37
0.0
 76
     0
330
1F
331
29
  0
MLINESTYLE
  5
18
102
{ACAD_REACTORS
330
17
102
}
330
17
100
AcDbMlineStyle
  2
Standard
 70
     0
  3

 62
   256
 51
90.0
 52
90.0
 71
     2
 49
0.5
 62
   256
  6
BYLAYER
 49
-0.5
 62
   256
  6
BYLAYER
  0
ACDBPLACEHOLDER
  5
F
102
{ACAD_REACTORS
330
E
102
}
330
E
  0
SCALE
  5
48
102
{ACAD_REACTORS
330
47
102
}
330
47
100
AcDbScale
 70
     0
300
1:1
140
1.0
141
1.0
290
     1
  0
SCALE
  5
49
102
{ACAD_REACTORS
330
47
102
}
330
47
100
AcDbScale
 70
     0
300
1/128" = 1'-0"
140
0.0078125
141
12.0
290
     0
  0
SCALE
  5
4A
102
{ACAD_REACTORS
330
47
102
}
330
47
100
AcDbScale
 70
     0
300
1/64" = 1'-0"
140
0.015625
141
12.0
290
     0
  0
SCALE
  5
4B
102
{ACAD_REACTORS
330
47
102
}
330
47
100
AcDbScale
 70
     0
300
1/32" = 1'-0"
140
0.03125
141
12.0
290
     0
  0
SCALE
  5
4C
102
{ACAD_REACTORS
330
47
102
}
330
47
100
AcDbScale
 70
     0
300
1/16" = 1'-0"
140
0.0625
141
12.0
290
     0
  0
SCALE
  5
4D
102
{ACAD_REACTORS
330
47
102
}
330
47
100
AcDbScale
 70
     0
300
3/32" = 1'-0"
140
0.09375
141
12.0
290
     0
  0
SCALE
  5
4E
102
{ACAD_REACTORS
330
47
102
}
330
47
100
AcDbScale
 70
     0
300
1/8" = 1'-0"
140
0.125
141
12.0
290
     0
  0
SCALE
  5
4F
102
{ACAD_REACTORS
330
47
102
}
330
47
100
AcDbScale
 70
     0
300
3/16" = 1'-0"
140
0.1875
141
12.0
290
     0
  0
SCALE
  5
50
102
{ACAD_REACTORS
330
47
102
}
330
47
100
AcDbScale
 70
     0
300
1/4" = 1'-0"
140
0.25
141
12.0
290
     0
  0
SCALE
  5
51
102
{ACAD_REACTORS
330
47
102
}
330
47
100
AcDbScale
 70
     0
300
3/8" = 1'-0"
140
0.375
141
12.0
290
     0
  0
SCALE
  5
52
102
{ACAD_REACTORS
330
47
102
}
330
47
100
AcDbScale
 70
     0
300
1/2" = 1'-0"
140
0.5
141
12.0
290
     0
  0
SCALE
  5
53
102
{ACAD_REACTORS
330
47
102
}
330
47
100
AcDbScale
 70
     0
300
3/4" = 1'-0"
140
0.75
141
12.0
290
     0
  0
SCALE
  5
54
102
{ACAD_REACTORS
330
47
102
}
330
47
100
AcDbScale
 70
     0
300
1" = 1'-0"
140
1.0
141
12.0
290
     0
  0
SCALE
  5
55
102
{ACAD_REACTORS
330
47
102
}
330
47
100
AcDbScale
 70
     0
300
1-1/2" = 1'-0"
140
1.5
141
12.0
290
     0
  0
SCALE
  5
56
102
{ACAD_REACTORS
330
47
102
}
330
47
100
AcDbScale
 70
     0
300
3" = 1'-0"
140
3.0
141
12.0
290
     0
  0
SCALE
  5
57
102
{ACAD_REACTORS
330
47
102
}
330
47
100
AcDbScale
 70
     0
300
6" = 1'-0"
140
6.0
141
12.0
290
     0
  0
SCALE
  5
58
102
{ACAD_REACTORS
330
47
102
}
330
47
100
AcDbScale
 70
     0
300
1'-0" = 1'-0"
140
12.0
141
12.0
290
     0
  0
ENDSEC
  0
EOF
