  0
SECTION
  2
HEADER
  9
$ACADVER
  1
AC1015
  9
$ACADMAINTVER
 70
     6
  9
$DWGCODEPAGE
  3
ANSI_1252
  9
$INSBASE
 10
0.0
 20
0.0
 30
0.0
  9
$EXTMIN
 10
0.0
 20
0.0
 30
0.0
  9
$EXTMAX
 10
66.0
 20
51.0
 30
0.0
  9
$LIMMIN
 10
0.0
 20
0.0
  9
$LIMMAX
 10
66.0
 20
51.0
  9
$ORTHOMODE
 70
     0
  9
$REGENMODE
 70
     1
  9
$FILLMODE
 70
     1
  9
$QTEXTMODE
 70
     0
  9
$MIRRTEXT
 70
     1
  9
$LTSCALE
 40
6.0
  9
$ATTMODE
 70
     1
  9
$TEXTSIZE
 40
0.75
  9
$TRACEWID
 40
0.05
  9
$TEXTSTYLE
  7
STANDARD
  9
$CLAYER
  8
0
  9
$CELTYPE
  6
ByLayer
  9
$CECOLOR
 62
   256
  9
$CELTSCALE
 40
1.0
  9
$DISPSILH
 70
     0
  9
$DIMSCALE
 40
1.0
  9
$DIMASZ
 40
0.78
  9
$DIMEXO
 40
0.3
  9
$DIMDLI
 40
0.38
  9
$DIMRND
 40
0.0
  9
$DIMDLE
 40
0.0
  9
$DIMEXE
 40
0.75
  9
$DIMTP
 40
0.0
  9
$DIMTM
 40
0.0
  9
$DIMTXT
 40
0.75
  9
$DIMCEN
 40
0.09
  9
$DIMTSZ
 40
0.0
  9
$DIMTOL
 70
     0
  9
$DIMLIM
 70
     0
  9
$DIMTIH
 70
     1
  9
$DIMTOH
 70
     1
  9
$DIMSE1
 70
     0
  9
$DIMSE2
 70
     0
  9
$DIMTAD
 70
     0
  9
$DIMZIN
 70
     1
  9
$DIMBLK
  1

  9
$DIMASO
 70
     1
  9
$DIMSHO
 70
     1
  9
$DIMPOST
  1

  9
$DIMAPOST
  1

  9
$DIMALT
 70
     0
  9
$DIMALTD
 70
     2
  9
$DIMALTF
 40
25.4
  9
$DIMLFAC
 40
1.0
  9
$DIMTOFL
 70
     0
  9
$DIMTVP
 40
0.0
  9
$DIMTIX
 70
     0
  9
$DIMSOXD
 70
     0
  9
$DIMSAH
 70
     0
  9
$DIMBLK1
  1

  9
$DIMBLK2
  1

  9
$DIMSTYLE
  2
Standard
  9
$DIMCLRD
 70
     0
  9
$DIMCLRE
 70
     0
  9
$DIMCLRT
 70
     0
  9
$DIMTFAC
 40
1.0
  9
$DIMGAP
 40
0.36
  9
$DIMJUST
 70
     0
  9
$DIMSD1
 70
     0
  9
$DIMSD2
 70
     0
  9
$DIMTOLJ
 70
     1
  9
$DIMTZIN
 70
     1
  9
$DIMALTZ
 70
     0
  9
$DIMALTTZ
 70
     0
  9
$DIMUPT
 70
     0
  9
$DIMDEC
 70
     0
  9
$DIMTDEC
 70
     0
  9
$DIMALTU
 70
     2
  9
$DIMALTTD
 70
     2
  9
$DIMTXSTY
  7
STANDARD
  9
$DIMAUNIT
 70
     0
  9
$DIMADEC
 70
     0
  9
$DIMALTRND
 40
0.0
  9
$DIMAZIN
 70
     0
  9
$DIMDSEP
 70
    46
  9
$DIMATFIT
 70
     3
  9
$DIMFRAC
 70
     0
  9
$DIMLDRBLK
  1

  9
$DIMLUNIT
 70
     2
  9
$DIMLWD
 70
    -2
  9
$DIMLWE
 70
    -2
  9
$DIMTMOVE
 70
     0
  9
$LUNITS
 70
     2
  9
$LUPREC
 70
     6
  9
$SKETCHINC
 40
0.1
  9
$FILLETRAD
 40
0.0
  9
$AUNITS
 70
     0
  9
$AUPREC
 70
     2
  9
$MENU
  1
.
  9
$ELEVATION
 40
0.0
  9
$PELEVATION
 40
0.0
  9
$THICKNESS
 40
0.0
  9
$LIMCHECK
 70
     0
  9
$CHAMFERA
 40
0.0
  9
$CHAMFERB
 40
0.0
  9
$CHAMFERC
 40
0.0
  9
$CHAMFERD
 40
0.0
  9
$SKPOLY
 70
     0
  9
$TDCREATE
 40
2460606.386188715
  9
$TDUCREATE
 40
2460606.677855382
  9
$TDUPDATE
 40
2460606.386190174
  9
$TDUUPDATE
 40
2460606.67785684
  9
$TDINDWG
 40
0.0000000116
  9
$TDUSRTIMER
 40
0.0000000116
  9
$USRTIMER
 70
     1
  9
$ANGBASE
 50
0.0
  9
$ANGDIR
 70
     0
  9
$PDMODE
 70
     0
  9
$PDSIZE
 40
-1.0
  9
$PLINEWID
 40
0.0
  9
$SPLFRAME
 70
     0
  9
$SPLINETYPE
 70
     6
  9
$SPLINESEGS
 70
     8
  9
$HANDSEED
  5
316
  9
$SURFTAB1
 70
     6
  9
$SURFTAB2
 70
     6
  9
$SURFTYPE
 70
     6
  9
$SURFU
 70
     6
  9
$SURFV
 70
     6
  9
$UCSBASE
  2

  9
$UCSNAME
  2

  9
$UCSORG
 10
0.0
 20
0.0
 30
0.0
  9
$UCSXDIR
 10
1.0
 20
0.0
 30
0.0
  9
$UCSYDIR
 10
0.0
 20
1.0
 30
0.0
  9
$UCSORTHOREF
  2

  9
$UCSORTHOVIEW
 70
     0
  9
$UCSORGTOP
 10
0.0
 20
0.0
 30
0.0
  9
$UCSORGBOTTOM
 10
0.0
 20
0.0
 30
0.0
  9
$UCSORGLEFT
 10
0.0
 20
0.0
 30
0.0
  9
$UCSORGRIGHT
 10
0.0
 20
0.0
 30
0.0
  9
$UCSORGFRONT
 10
0.0
 20
0.0
 30
0.0
  9
$UCSORGBACK
 10
0.0
 20
0.0
 30
0.0
  9
$PUCSBASE
  2

  9
$PUCSNAME
  2

  9
$PUCSORG
 10
0.0
 20
0.0
 30
0.0
  9
$PUCSXDIR
 10
1.0
 20
0.0
 30
0.0
  9
$PUCSYDIR
 10
0.0
 20
1.0
 30
0.0
  9
$PUCSORTHOREF
  2

  9
$PUCSORTHOVIEW
 70
     0
  9
$PUCSORGTOP
 10
0.0
 20
0.0
 30
0.0
  9
$PUCSORGBOTTOM
 10
0.0
 20
0.0
 30
0.0
  9
$PUCSORGLEFT
 10
0.0
 20
0.0
 30
0.0
  9
$PUCSORGRIGHT
 10
0.0
 20
0.0
 30
0.0
  9
$PUCSORGFRONT
 10
0.0
 20
0.0
 30
0.0
  9
$PUCSORGBACK
 10
0.0
 20
0.0
 30
0.0
  9
$USERI1
 70
     0
  9
$USERI2
 70
     0
  9
$USERI3
 70
     0
  9
$USERI4
 70
     0
  9
$USERI5
 70
     0
  9
$USERR1
 40
0.0
  9
$USERR2
 40
0.0
  9
$USERR3
 40
0.0
  9
$USERR4
 40
0.0
  9
$USERR5
 40
0.0
  9
$WORLDVIEW
 70
     1
  9
$SHADEDGE
 70
     3
  9
$SHADEDIF
 70
    70
  9
$TILEMODE
 70
     1
  9
$MAXACTVP
 70
    64
  9
$PINSBASE
 10
0.0
 20
0.0
 30
0.0
  9
$PLIMCHECK
 70
     0
  9
$PEXTMIN
 10
1.0000000000E+20
 20
1.0000000000E+20
 30
1.0000000000E+20
  9
$PEXTMAX
 10
-1.0000000000E+20
 20
-1.0000000000E+20
 30
-1.0000000000E+20
  9
$PLIMMIN
 10
0.0
 20
0.0
  9
$PLIMMAX
 10
12.0
 20
9.0
  9
$UNITMODE
 70
     0
  9
$VISRETAIN
 70
     1
  9
$PLINEGEN
 70
     0
  9
$PSLTSCALE
 70
     1
  9
$TREEDEPTH
 70
  3020
  9
$CMLSTYLE
  2
Standard
  9
$CMLJUST
 70
     0
  9
$CMLSCALE
 40
1.0
  9
$PROXYGRAPHICS
 70
     1
  9
$MEASUREMENT
 70
     0
  9
$CELWEIGHT
370
    -1
  9
$ENDCAPS
280
     0
  9
$JOINSTYLE
280
     0
  9
$LWDISPLAY
290
     1
  9
$INSUNITS
 70
     1
  9
$HYPERLINKBASE
  1

  9
$STYLESHEET
  1

  9
$XEDIT
290
     1
  9
$CEPSNTYPE
380
     0
  9
$PSTYLEMODE
290
     1
  9
$FINGERPRINTGUID
  2
{3812fdb1-12bc-4ca2-8202-63428c56f5b0}
  9
$VERSIONGUID
  2
{FAEB1C32-E019-11D5-929B-00C0DF256EC4}
  9
$EXTNAMES
290
     1
  9
$PSVPSCALE
 40
0.0
  9
$OLESTARTUP
290
     0
  0
ENDSEC
  0
SECTION
  2
CLASSES
  0
CLASS
  1
ACDBDICTIONARYWDFLT
  2
AcDbDictionaryWithDefault
  3
ObjectDBX Classes
 90
        0
280
     0
281
     0
  0
CLASS
  1
VISUALSTYLE
  2
AcDbVisualStyle
  3
ObjectDBX Classes
 90
     4095
280
     0
281
     0
  0
CLASS
  1
MATERIAL
  2
AcDbMaterial
  3
ObjectDBX Classes
 90
     1153
280
     0
281
     0
  0
CLASS
  1
SCALE
  2
AcDbScale
  3
ObjectDBX Classes
 90
     1153
280
     0
281
     0
  0
CLASS
  1
TABLESTYLE
  2
AcDbTableStyle
  3
ObjectDBX Classes
 90
     4095
280
     0
281
     0
  0
CLASS
  1
MLEADERSTYLE
  2
AcDbMLeaderStyle
  3
ACDB_MLEADERSTYLE_CLASS
 90
     4095
280
     0
281
     0
  0
CLASS
  1
SUN
  2
AcDbSun
  3
SCENEOE
 90
     1153
280
     0
281
     0
  0
CLASS
  1
ACDBPLACEHOLDER
  2
AcDbPlaceHolder
  3
ObjectDBX Classes
 90
        0
280
     0
281
     0
  0
CLASS
  1
LAYOUT
  2
AcDbLayout
  3
ObjectDBX Classes
 90
        0
280
     0
281
     0
  0
ENDSEC
  0
SECTION
  2
TABLES
  0
TABLE
  2
VPORT
  5
8
330
0
100
AcDbSymbolTable
 70
     1
  0
VPORT
  5
29
330
8
100
AcDbSymbolTableRecord
100
AcDbViewportTableRecord
  2
*Active
 70
     0
 10
0.0
 20
0.0
 11
1.0
 21
1.0
 12
33.0
 22
25.5
 13
0.0
 23
0.0
 14
0.5
 24
0.5
 15
0.5
 25
0.5
 16
0.0
 26
0.0
 36
1.0
 17
0.0
 27
0.0
 37
0.0
 40
51.0
 41
1.2941176471
 42
50.0
 43
0.0
 44
0.0
 50
0.0
 51
0.0
 71
     0
 72
  2000
 73
     1
 74
     3
 75
     0
 76
     0
 77
     0
 78
     0
281
     0
 65
     1
110
0.0
120
0.0
130
0.0
111
1.0
121
0.0
131
0.0
112
0.0
122
1.0
132
0.0
 79
     0
146
0.0
  0
ENDTAB
  0
TABLE
  2
LTYPE
  5
5
330
0
100
AcDbSymbolTable
 70
     6
  0
LTYPE
  5
14
330
5
100
AcDbSymbolTableRecord
100
AcDbLinetypeTableRecord
  2
ByBlock
 70
     0
  3

 72
    65
 73
     0
 40
0.0
  0
LTYPE
  5
15
330
5
100
AcDbSymbolTableRecord
100
AcDbLinetypeTableRecord
  2
ByLayer
 70
     0
  3

 72
    65
 73
     0
 40
0.0
  0
LTYPE
  5
16
330
5
100
AcDbSymbolTableRecord
100
AcDbLinetypeTableRecord
  2
Continuous
 70
     0
  3
Solid line
 72
    65
 73
     0
 40
0.0
  0
LTYPE
  5
5E
330
5
100
AcDbSymbolTableRecord
100
AcDbLinetypeTableRecord
  2
HIDDEN
 70
     0
  3
Hidden __ __ __ __ __ __ __ __ __ __ __ __ __ __
 72
    65
 73
     2
 40
0.075
 49
0.05
 74
     0
 49
-0.025
 74
     0
  0
LTYPE
  5
5F
330
5
100
AcDbSymbolTableRecord
100
AcDbLinetypeTableRecord
  2
PHANTOM
 70
     0
  3
Phantom ______  __  __  ______  __  __  ______
 72
    65
 73
     6
 40
0.5
 49
0.25
 74
     0
 49
-0.05
 74
     0
 49
0.05
 74
     0
 49
-0.05
 74
     0
 49
0.05
 74
     0
 49
-0.05
 74
     0
  0
LTYPE
  5
60
330
5
100
AcDbSymbolTableRecord
100
AcDbLinetypeTableRecord
  2
CENTER
 70
     0
  3
Center ____ _ ____ _ ____ _ ____ _ ____ _ ____
 72
    65
 73
     4
 40
0.4
 49
0.25
 74
     0
 49
-0.05
 74
     0
 49
0.05
 74
     0
 49
-0.05
 74
     0
  0
LTYPE
  5
61
330
5
100
AcDbSymbolTableRecord
100
AcDbLinetypeTableRecord
  2
CENTERX2
 70
     0
  3
Center (2x) ________  __  ________  __  _____
 72
    65
 73
     4
 40
0.8
 49
0.5
 74
     0
 49
-0.1
 74
     0
 49
0.1
 74
     0
 49
-0.1
 74
     0
  0
LTYPE
  5
62
330
5
100
AcDbSymbolTableRecord
100
AcDbLinetypeTableRecord
  2
DOT2
 70
     0
  3
Dot (.5x) ........................................
 72
    65
 73
     2
 40
0.025
 49
0.0
 74
     0
 49
-0.025
 74
     0
  0
ENDTAB
  0
TABLE
  2
LAYER
  5
2
330
0
100
AcDbSymbolTable
 70
    12
  0
LAYER
  5
10
330
2
100
AcDbSymbolTableRecord
100
AcDbLayerTableRecord
  2
0
 70
     0
 62
     7
  6
Continuous
370
    -3
390
F
  0
LAYER
  5
63
330
2
100
AcDbSymbolTableRecord
100
AcDbLayerTableRecord
  2
SLD-0
 70
     0
 62
     7
  6
Continuous
370
    -3
390
F
  0
LAYER
  5
64
330
2
100
AcDbSymbolTableRecord
100
AcDbLayerTableRecord
  2
DIM
 70
     0
 62
     7
  6
Continuous
370
    -3
390
F
  0
LAYER
  5
65
330
2
100
AcDbSymbolTableRecord
100
AcDbLayerTableRecord
  2
CEN
 70
     0
 62
     1
  6
CENTER
370
    -3
390
F
  0
LAYER
  5
66
330
2
100
AcDbSymbolTableRecord
100
AcDbLayerTableRecord
  2
HAT
 70
     0
 62
     4
  6
Continuous
370
    -3
390
F
  0
LAYER
  5
67
330
2
100
AcDbSymbolTableRecord
100
AcDbLayerTableRecord
  2
OBJ
 70
     0
 62
     5
  6
Continuous
370
    -3
390
F
  0
LAYER
  5
68
330
2
100
AcDbSymbolTableRecord
100
AcDbLayerTableRecord
  2
SLD-DEFPOINTS
 70
     0
 62
     7
  6
Continuous
370
    -3
390
F
  0
LAYER
  5
69
330
2
100
AcDbSymbolTableRecord
100
AcDbLayerTableRecord
  2
HID
 70
     0
 62
     4
  6
HIDDEN
370
    -3
390
F
  0
LAYER
  5
6A
330
2
100
AcDbSymbolTableRecord
100
AcDbLayerTableRecord
  2
NOTE
 70
     0
 62
     7
  6
Continuous
370
    -3
390
F
  0
LAYER
  5
6B
330
2
100
AcDbSymbolTableRecord
100
AcDbLayerTableRecord
  2
VP
 70
     0
 62
    -5
  6
Continuous
290
     0
370
    -3
390
F
  0
LAYER
  5
6C
330
2
100
AcDbSymbolTableRecord
100
AcDbLayerTableRecord
  2
TITLE
 70
     0
 62
     7
  6
Continuous
370
    -3
390
F
  0
LAYER
  5
6D
330
2
100
AcDbSymbolTableRecord
100
AcDbLayerTableRecord
  2
THICK_TITLE
 70
     0
 62
     7
  6
Continuous
370
   100
390
F
  0
ENDTAB
  0
TABLE
  2
STYLE
  5
3
330
0
100
AcDbSymbolTable
 70
     2
  0
STYLE
  5
11
330
3
100
AcDbSymbolTableRecord
100
AcDbTextStyleTableRecord
  2
STANDARD
 70
     0
 40
0.0
 41
1.0
 50
0.0
 71
     0
 42
0.75
  3
GOTHIC.TTF
  4

1001
ACAD
1000
CENTURY GOTHIC
1071
       34
  0
STYLE
  5
74
330
3
100
AcDbSymbolTableRecord
100
AcDbTextStyleTableRecord
  2
SLDTEXTSTYLE0
 70
     0
 40
0.0
 41
0.913
 50
0.0
 71
     0
 42
0.75
  3
GOTHIC.TTF
  4

1001
ACAD
1000
Century Gothic
1071
      290
  0
ENDTAB
  0
TABLE
  2
VIEW
  5
6
330
0
100
AcDbSymbolTable
 70
     0
  0
ENDTAB
  0
TABLE
  2
UCS
  5
7
330
0
100
AcDbSymbolTable
 70
     0
  0
ENDTAB
  0
TABLE
  2
APPID
  5
9
330
0
100
AcDbSymbolTable
 70
     1
  0
APPID
  5
12
330
9
100
AcDbSymbolTableRecord
100
AcDbRegAppTableRecord
  2
ACAD
 70
     0
  0
ENDTAB
  0
TABLE
  2
DIMSTYLE
  5
A
330
0
100
AcDbSymbolTable
 70
     8
100
AcDbDimStyleTable
  0
DIMSTYLE
105
27
330
A
100
AcDbSymbolTableRecord
100
AcDbDimStyleTableRecord
  2
Standard
 70
     0
178
     0
340
11
  0
DIMSTYLE
105
123
102
{ACAD_REACTORS
330
122
330
137
330
14B
330
184
102
}
330
A
100
AcDbSymbolTableRecord
100
AcDbDimStyleTableRecord
  2
SLDDIMSTYLE0
 70
     0
 41
0.78
 44
0.0
 45
0.000000001
 78
    12
 79
     3
140
0.75
147
0.1875
148
0.000000001
170
     1
173
     1
178
     0
271
     6
272
     0
276
     2
277
     5
284
    12
340
74
  0
DIMSTYLE
105
161
102
{ACAD_REACTORS
330
160
102
}
330
A
100
AcDbSymbolTableRecord
100
AcDbDimStyleTableRecord
  2
SLDDIMSTYLE1
 70
     0
 41
0.78
 44
0.0
 45
0.000000001
 78
    12
 79
     3
140
0.75
147
0.1875
148
0.000000001
170
     1
172
     1
173
     1
178
     0
271
     6
272
     0
276
     2
277
     5
284
    12
289
     0
340
74
  0
DIMSTYLE
105
177
102
{ACAD_REACTORS
330
176
102
}
330
A
100
AcDbSymbolTableRecord
100
AcDbDimStyleTableRecord
  2
SLDDIMSTYLE2
 70
     0
 41
0.78
 44
0.0
 45
0.000000001
 78
    12
 79
     3
140
0.75
147
0.1875
148
0.000000001
170
     1
173
     1
178
     0
271
     0
272
     0
276
     2
277
     5
284
    12
340
74
  0
DIMSTYLE
105
199
102
{ACAD_REACTORS
330
198
102
}
330
A
100
AcDbSymbolTableRecord
100
AcDbDimStyleTableRecord
  2
SLDDIMSTYLE3
 70
     0
 41
0.78
 44
0.0
 45
0.000000001
 78
    12
 79
     3
140
0.75
147
0.1875
148
0.000000001
170
     1
172
     1
173
     1
178
     0
271
     0
272
     0
276
     2
277
     5
284
    12
289
     0
340
74
  0
DIMSTYLE
105
263
102
{ACAD_REACTORS
330
262
102
}
330
A
100
AcDbSymbolTableRecord
100
AcDbDimStyleTableRecord
  2
SLDDIMSTYLE4
 70
     0
 41
0.78
 44
0.0
 45
0.000000001
 78
    12
 79
     3
140
0.75
144
0.5
147
0.1875
148
0.000000001
170
     1
173
     1
178
     0
271
     6
272
     0
276
     2
277
     5
284
    12
340
74
  0
DIMSTYLE
105
286
102
{ACAD_REACTORS
330
285
330
2A8
102
}
330
A
100
AcDbSymbolTableRecord
100
AcDbDimStyleTableRecord
  2
SLDDIMSTYLE5
 70
     0
 41
0.78
 44
0.0
 45
0.000000001
 78
    12
 79
     3
140
0.75
144
0.5
147
0.1875
148
0.000000001
170
     1
172
     1
173
     1
178
     0
271
     6
272
     0
276
     2
277
     5
284
    12
289
     0
340
74
  0
DIMSTYLE
105
305
102
{ACAD_REACTORS
330
304
102
}
330
A
100
AcDbSymbolTableRecord
100
AcDbDimStyleTableRecord
  2
SLDDIMSTYLE6
 70
     0
 41
0.78
 44
0.0
 45
0.000000001
 78
    12
 79
     3
140
0.75
141
0.0
144
0.6666666667
147
0.1875
148
0.000000001
170
     1
173
     1
178
     0
271
     0
272
     0
276
     2
277
     5
284
    12
340
74
  0
ENDTAB
  0
TABLE
  2
BLOCK_RECORD
  5
1
330
0
100
AcDbSymbolTable
 70
    18
  0
BLOCK_RECORD
  5
1F
330
1
100
AcDbSymbolTableRecord
100
AcDbBlockTableRecord
  2
*Model_Space
340
22
  0
BLOCK_RECORD
  5
1B
330
1
100
AcDbSymbolTableRecord
100
AcDbBlockTableRecord
  2
*Paper_Space
340
1E
  0
BLOCK_RECORD
  5
23
330
1
100
AcDbSymbolTableRecord
100
AcDbBlockTableRecord
  2
*Paper_Space0
340
26
  0
BLOCK_RECORD
  5
6E
330
1
100
AcDbSymbolTableRecord
100
AcDbBlockTableRecord
  2
Block1
340
0
102
{BLKREFS
331
261
102
}
  0
BLOCK_RECORD
  5
71
330
1
100
AcDbSymbolTableRecord
100
AcDbBlockTableRecord
  2
SW_NOTE_0
340
0
102
{BLKREFS
331
76
102
}
  0
BLOCK_RECORD
  5
77
330
1
100
AcDbSymbolTableRecord
100
AcDbBlockTableRecord
  2
Block2
340
0
102
{BLKREFS
331
284
102
}
  0
BLOCK_RECORD
  5
7A
330
1
100
AcDbSymbolTableRecord
100
AcDbBlockTableRecord
  2
SW_NOTE_0_1
340
0
102
{BLKREFS
331
7E
102
}
  0
BLOCK_RECORD
  5
7F
330
1
100
AcDbSymbolTableRecord
100
AcDbBlockTableRecord
  2
Block3
340
0
102
{BLKREFS
331
2A7
102
}
  0
BLOCK_RECORD
  5
82
330
1
100
AcDbSymbolTableRecord
100
AcDbBlockTableRecord
  2
SW_NOTE_0_2
340
0
102
{BLKREFS
331
86
102
}
  0
BLOCK_RECORD
  5
124
330
1
100
AcDbSymbolTableRecord
100
AcDbBlockTableRecord
  2
_D
340
0
  0
BLOCK_RECORD
  5
138
330
1
100
AcDbSymbolTableRecord
100
AcDbBlockTableRecord
  2
_D_1
340
0
  0
BLOCK_RECORD
  5
14C
330
1
100
AcDbSymbolTableRecord
100
AcDbBlockTableRecord
  2
_D_2
340
0
  0
BLOCK_RECORD
  5
162
330
1
100
AcDbSymbolTableRecord
100
AcDbBlockTableRecord
  2
_D_3
340
0
  0
BLOCK_RECORD
  5
178
330
1
100
AcDbSymbolTableRecord
100
AcDbBlockTableRecord
  2
_D_4
340
0
  0
BLOCK_RECORD
  5
185
330
1
100
AcDbSymbolTableRecord
100
AcDbBlockTableRecord
  2
_D_5
340
0
  0
BLOCK_RECORD
  5
19A
330
1
100
AcDbSymbolTableRecord
100
AcDbBlockTableRecord
  2
_D_6
340
0
  0
BLOCK_RECORD
  5
264
330
1
100
AcDbSymbolTableRecord
100
AcDbBlockTableRecord
  2
_D_7
340
0
  0
BLOCK_RECORD
  5
287
330
1
100
AcDbSymbolTableRecord
100
AcDbBlockTableRecord
  2
_D_8
340
0
  0
BLOCK_RECORD
  5
2A9
330
1
100
AcDbSymbolTableRecord
100
AcDbBlockTableRecord
  2
_D_9
340
0
  0
BLOCK_RECORD
  5
306
330
1
100
AcDbSymbolTableRecord
100
AcDbBlockTableRecord
  2
_D_10
340
0
  0
ENDTAB
  0
ENDSEC
  0
SECTION
  2
BLOCKS
  0
BLOCK
  5
20
330
1F
100
AcDbEntity
  8
0
100
AcDbBlockBegin
  2
*Model_Space
 70
     0
 10
0.0
 20
0.0
 30
0.0
  3
*Model_Space
  1

  0
ENDBLK
  5
21
330
1F
100
AcDbEntity
  8
0
100
AcDbBlockEnd
  0
BLOCK
  5
1C
330
1B
100
AcDbEntity
 67
     1
  8
0
100
AcDbBlockBegin
  2
*Paper_Space
 70
     0
 10
0.0
 20
0.0
 30
0.0
  3
*Paper_Space
  1

  0
ENDBLK
  5
1D
330
1B
100
AcDbEntity
 67
     1
  8
0
100
AcDbBlockEnd
  0
BLOCK
  5
24
330
23
100
AcDbEntity
  8
0
100
AcDbBlockBegin
  2
*Paper_Space0
 70
     0
 10
0.0
 20
0.0
 30
0.0
  3
*Paper_Space0
  1

  0
ENDBLK
  5
25
330
23
100
AcDbEntity
  8
0
100
AcDbBlockEnd
  0
BLOCK
  5
6F
330
6E
100
AcDbEntity
  8
0
100
AcDbBlockBegin
  2
Block1
 70
     0
 10
0.0
 20
0.0
 30
0.0
  3
Block1
  1

  0
INSERT
  5
76
330
6E
100
AcDbEntity
  8
0
  6
Continuous
 62
     7
370
     0
100
AcDbBlockReference
  2
SW_NOTE_0
 10
0.0024644595
 20
-0.1042925805
 30
0.0
  0
ENDBLK
  5
70
330
6E
100
AcDbEntity
  8
0
100
AcDbBlockEnd
  0
BLOCK
  5
72
330
71
100
AcDbEntity
  8
0
100
AcDbBlockBegin
  2
SW_NOTE_0
 70
     0
 10
0.0
 20
0.0
 30
0.0
  3
SW_NOTE_0
  1

  0
MTEXT
  5
75
330
71
100
AcDbEntity
  8
0
  6
Continuous
 62
     0
370
     0
100
AcDbMText
 10
3.4765625
 20
1.5966796875
 30
0.0
 40
1.25
 41
0.0
 71
     2
 72
     1
  1
A/D CAP
  7
SLDTEXTSTYLE0
 73
     1
 44
1.0
  0
ENDBLK
  5
73
330
71
100
AcDbEntity
  8
0
100
AcDbBlockEnd
  0
BLOCK
  5
78
330
77
100
AcDbEntity
  8
0
100
AcDbBlockBegin
  2
Block2
 70
     0
 10
0.0
 20
0.0
 30
0.0
  3
Block2
  1

  0
INSERT
  5
7E
330
77
100
AcDbEntity
  8
0
  6
Continuous
 62
     7
370
     0
100
AcDbBlockReference
  2
SW_NOTE_0_1
 10
0.0236486254
 20
1.7050846838
 30
0.0
  0
ENDBLK
  5
79
330
77
100
AcDbEntity
  8
0
100
AcDbBlockEnd
  0
BLOCK
  5
7B
330
7A
100
AcDbEntity
  8
0
100
AcDbBlockBegin
  2
SW_NOTE_0_1
 70
     0
 10
0.0
 20
0.0
 30
0.0
  3
SW_NOTE_0_1
  1

  0
MTEXT
  5
7D
330
7A
100
AcDbEntity
  8
0
  6
Continuous
 62
     0
370
     0
100
AcDbMText
 10
3.22265625
 20
1.5966796875
 30
0.0
 40
1.25
 41
0.0
 71
     2
 72
     1
  1
B/E CAP
  7
SLDTEXTSTYLE0
 73
     1
 44
1.0
  0
ENDBLK
  5
7C
330
7A
100
AcDbEntity
  8
0
100
AcDbBlockEnd
  0
BLOCK
  5
80
330
7F
100
AcDbEntity
  8
0
100
AcDbBlockBegin
  2
Block3
 70
     0
 10
0.0
 20
0.0
 30
0.0
  3
Block3
  1

  0
INSERT
  5
86
330
7F
100
AcDbEntity
  8
0
  6
Continuous
 62
     7
370
     0
100
AcDbBlockReference
  2
SW_NOTE_0_2
 10
0.0678802992
 20
-0.0556479787
 30
0.0
  0
ENDBLK
  5
81
330
7F
100
AcDbEntity
  8
0
100
AcDbBlockEnd
  0
BLOCK
  5
83
330
82
100
AcDbEntity
  8
0
100
AcDbBlockBegin
  2
SW_NOTE_0_2
 70
     0
 10
0.0
 20
0.0
 30
0.0
  3
SW_NOTE_0_2
  1

  0
MTEXT
  5
85
330
82
100
AcDbEntity
  8
0
  6
Continuous
 62
     0
370
     0
100
AcDbMText
 10
2.6171875
 20
1.5966796875
 30
0.0
 40
1.25
 41
0.0
 71
     2
 72
     1
  1
C CAP
  7
SLDTEXTSTYLE0
 73
     1
 44
1.0
  0
ENDBLK
  5
84
330
82
100
AcDbEntity
  8
0
100
AcDbBlockEnd
  0
BLOCK
  5
125
330
124
100
AcDbEntity
  8
0
100
AcDbBlockBegin
  2
_D
 70
     0
 10
0.0
 20
0.0
 30
0.0
  3
_D
  1

  0
SOLID
  5
127
330
124
100
AcDbEntity
  8
0
  6
Continuous
 62
     7
370
    18
100
AcDbTrace
 10
32.5319989648
 20
27.5890968418
 30
0.0
 11
31.8956028617
 21
27.1224063662
 31
0.0
 12
32.0653084892
 22
26.9527007387
 32
0.0
 13
32.0653084892
 23
26.9527007387
 33
0.0
  0
SOLID
  5
128
330
124
100
AcDbEntity
  8
0
  6
Continuous
 62
     7
370
    18
100
AcDbTrace
 10
28.3423912862
 20
23.3994891633
 30
0.0
 11
28.9787873893
 21
23.8661796388
 31
0.0
 12
28.8090817618
 22
24.0358852663
 32
0.0
 13
28.8090817618
 23
24.0358852663
 33
0.0
  0
LINE
  5
129
330
124
100
AcDbEntity
  8
0
  6
Continuous
 62
     7
370
     0
100
AcDbLine
 10
28.6684452583
 20
25.4885637187
 30
0.0
 11
28.4399296356
 21
25.4885637187
 31
0.0
  0
LINE
  5
12A
330
124
100
AcDbEntity
  8
0
  6
Continuous
 62
     7
370
     0
100
AcDbLine
 10
28.4399296356
 20
25.4885637187
 30
0.0
 11
28.4399296356
 21
24.2979386829
 31
0.0
  0
LINE
  5
12B
330
124
100
AcDbEntity
  8
0
  6
Continuous
 62
     7
370
     0
100
AcDbLine
 10
28.4399296356
 20
24.2979386829
 30
0.0
 11
28.6684452583
 21
24.2979386829
 31
0.0
  0
LINE
  5
12C
330
124
100
AcDbEntity
  8
0
  6
Continuous
 62
     7
370
     0
100
AcDbLine
 10
32.2059452128
 20
25.4885637187
 30
0.0
 11
32.4344608354
 21
25.4885637187
 31
0.0
  0
LINE
  5
12D
330
124
100
AcDbEntity
  8
0
  6
Continuous
 62
     7
370
     0
100
AcDbLine
 10
32.4344608354
 20
25.4885637187
 30
0.0
 11
32.4344608354
 21
24.2979386829
 31
0.0
  0
LINE
  5
12E
330
124
100
AcDbEntity
  8
0
  6
Continuous
 62
     7
370
     0
100
AcDbLine
 10
32.4344608354
 20
24.2979386829
 30
0.0
 11
32.2059452128
 21
24.2979386829
 31
0.0
  0
LINE
  5
12F
330
124
100
AcDbEntity
  8
0
  6
Continuous
 62
     7
370
     0
100
AcDbLine
 10
29.5909379966
 20
30.5301578099
 30
0.0
 11
33.0623290507
 21
27.0587667559
 31
0.0
  0
LINE
  5
130
330
124
100
AcDbEntity
  8
0
  6
Continuous
 62
     7
370
     0
100
AcDbLine
 10
25.9651457887
 20
25.7767346608
 30
0.0
 11
28.8727213721
 21
22.8691590774
 31
0.0
  0
LINE
  5
131
330
124
100
AcDbEntity
  8
0
  6
Continuous
 62
     7
370
     0
100
AcDbLine
 10
32.5319989648
 20
27.5890968418
 30
0.0
 11
31.7858929552
 21
26.8429908323
 31
0.0
  0
LINE
  5
132
330
124
100
AcDbEntity
  8
0
  6
Continuous
 62
     7
370
     0
100
AcDbLine
 10
28.3423912862
 20
23.3994891633
 30
0.0
 11
29.0884972958
 21
24.1455951728
 31
0.0
  0
MTEXT
  5
133
330
124
100
AcDbEntity
  8
0
  6
Continuous
 62
     7
370
    18
100
AcDbMText
 10
27.9343306788
 20
26.6103736915
 30
0.0
 40
0.75
 41
0.0
 71
     1
 72
     1
  1
 
  7
SLDTEXTSTYLE0
 73
     1
 44
1.0
  0
MTEXT
  5
134
330
124
100
AcDbEntity
  8
0
  6
Continuous
 62
     7
370
    18
100
AcDbMText
 10
28.5397993794
 20
26.5989153026
 30
0.0
 40
0.75
 41
0.0
 71
     1
 72
     1
  1
5 15/16"
  7
SLDTEXTSTYLE0
 73
     1
 44
1.0
  0
MTEXT
  5
135
330
124
100
AcDbEntity
  8
0
  6
Continuous
 62
     7
370
    18
100
AcDbMText
 10
28.6684452583
 20
25.2559465779
 30
0.0
 40
0.75
 41
0.0
 71
     1
 72
     1
  1
150mm
  7
SLDTEXTSTYLE0
 73
     1
 44
1.0
  0
MTEXT
  5
136
330
124
100
AcDbEntity
  8
0
  6
Continuous
 62
     7
370
    18
100
AcDbMText
 10
32.6629762931
 20
26.6103736915
 30
0.0
 40
0.75
 41
0.0
 71
     1
 72
     1
  1
 
  7
SLDTEXTSTYLE0
 73
     1
 44
1.0
  0
ENDBLK
  5
126
330
124
100
AcDbEntity
  8
0
100
AcDbBlockEnd
  0
BLOCK
  5
139
330
138
100
AcDbEntity
  8
0
100
AcDbBlockBegin
  2
_D_1
 70
     0
 10
0.0
 20
0.0
 30
0.0
  3
_D_1
  1

  0
SOLID
  5
13B
330
138
100
AcDbEntity
  8
0
  6
Continuous
 62
     7
370
    18
100
AcDbTrace
 10
37.6609354314
 20
38.7804256602
 30
0.0
 11
37.5409354314
 21
38.0004256602
 31
0.0
 12
37.7809354314
 22
38.0004256602
 32
0.0
 13
37.7809354314
 23
38.0004256602
 33
0.0
  0
SOLID
  5
13C
330
138
100
AcDbEntity
  8
0
  6
Continuous
 62
     7
370
    18
100
AcDbTrace
 10
37.6609354314
 20
30.7422898443
 30
0.0
 11
37.7809354314
 21
31.5222898443
 31
0.0
 12
37.5409354314
 22
31.5222898443
 32
0.0
 13
37.5409354314
 23
31.5222898443
 33
0.0
  0
LINE
  5
13D
330
138
100
AcDbEntity
  8
0
  6
Continuous
 62
     7
370
     0
100
AcDbLine
 10
35.8921855641
 20
34.7556284685
 30
0.0
 11
35.6636699414
 21
34.7556284685
 31
0.0
  0
LINE
  5
13E
330
138
100
AcDbEntity
  8
0
  6
Continuous
 62
     7
370
     0
100
AcDbLine
 10
35.6636699414
 20
34.7556284685
 30
0.0
 11
35.6636699414
 21
33.5650034327
 31
0.0
  0
LINE
  5
13F
330
138
100
AcDbEntity
  8
0
  6
Continuous
 62
     7
370
     0
100
AcDbLine
 10
35.6636699414
 20
33.5650034327
 30
0.0
 11
35.8921855641
 21
33.5650034327
 31
0.0
  0
LINE
  5
140
330
138
100
AcDbEntity
  8
0
  6
Continuous
 62
     7
370
     0
100
AcDbLine
 10
39.4296855186
 20
34.7556284685
 30
0.0
 11
39.6582011413
 21
34.7556284685
 31
0.0
  0
LINE
  5
141
330
138
100
AcDbEntity
  8
0
  6
Continuous
 62
     7
370
     0
100
AcDbLine
 10
39.6582011413
 20
34.7556284685
 30
0.0
 11
39.6582011413
 21
33.5650034327
 31
0.0
  0
LINE
  5
142
330
138
100
AcDbEntity
  8
0
  6
Continuous
 62
     7
370
     0
100
AcDbLine
 10
39.6582011413
 20
33.5650034327
 30
0.0
 11
39.4296855186
 21
33.5650034327
 31
0.0
  0
LINE
  5
143
330
138
100
AcDbEntity
  8
0
  6
Continuous
 62
     7
370
     0
100
AcDbLine
 10
31.1814078723
 20
38.7804256602
 30
0.0
 11
38.4109354314
 21
38.7804256602
 31
0.0
  0
LINE
  5
144
330
138
100
AcDbEntity
  8
0
  6
Continuous
 62
     7
370
     0
100
AcDbLine
 10
29.6788059623
 20
30.7422898443
 30
0.0
 11
38.4109354314
 21
30.7422898443
 31
0.0
  0
LINE
  5
145
330
138
100
AcDbEntity
  8
0
  6
Continuous
 62
     7
370
     0
100
AcDbLine
 10
37.6609354314
 20
38.7804256602
 30
0.0
 11
37.6609354314
 21
36.110055582
 31
0.0
  0
LINE
  5
146
330
138
100
AcDbEntity
  8
0
  6
Continuous
 62
     7
370
     0
100
AcDbLine
 10
37.6609354314
 20
30.7422898443
 30
0.0
 11
37.6609354314
 21
33.4126599225
 31
0.0
  0
MTEXT
  5
147
330
138
100
AcDbEntity
  8
0
  6
Continuous
 62
     7
370
    18
100
AcDbMText
 10
35.1580709847
 20
35.8774384412
 30
0.0
 40
0.75
 41
0.0
 71
     1
 72
     1
  1
 
  7
SLDTEXTSTYLE0
 73
     1
 44
1.0
  0
MTEXT
  5
148
330
138
100
AcDbEntity
  8
0
  6
Continuous
 62
     7
370
    18
100
AcDbMText
 10
36.0406229643
 20
35.8659800523
 30
0.0
 40
0.75
 41
0.0
 71
     1
 72
     1
  1
8 1/16"
  7
SLDTEXTSTYLE0
 73
     1
 44
1.0
  0
MTEXT
  5
149
330
138
100
AcDbEntity
  8
0
  6
Continuous
 62
     7
370
    18
100
AcDbMText
 10
35.8921855641
 20
34.5230113277
 30
0.0
 40
0.75
 41
0.0
 71
     1
 72
     1
  1
204mm
  7
SLDTEXTSTYLE0
 73
     1
 44
1.0
  0
MTEXT
  5
14A
330
138
100
AcDbEntity
  8
0
  6
Continuous
 62
     7
370
    18
100
AcDbMText
 10
39.8867165989
 20
35.8774384412
 30
0.0
 40
0.75
 41
0.0
 71
     1
 72
     1
  1
 
  7
SLDTEXTSTYLE0
 73
     1
 44
1.0
  0
ENDBLK
  5
13A
330
138
100
AcDbEntity
  8
0
100
AcDbBlockEnd
  0
BLOCK
  5
14D
330
14C
100
AcDbEntity
  8
0
100
AcDbBlockBegin
  2
_D_2
 70
     0
 10
0.0
 20
0.0
 30
0.0
  3
_D_2
  1

  0
SOLID
  5
14F
330
14C
100
AcDbEntity
  8
0
  6
Continuous
 62
     7
370
    18
100
AcDbTrace
 10
27.5430964302
 20
32.5779993763
 30
0.0
 11
26.9067003272
 21
32.1113089008
 31
0.0
 12
27.0764059546
 22
31.9416032733
 32
0.0
 13
27.0764059546
 23
31.9416032733
 33
0.0
  0
SOLID
  5
150
330
14C
100
AcDbEntity
  8
0
  6
Continuous
 62
     7
370
    18
100
AcDbTrace
 10
25.8884665622
 20
30.9233695084
 30
0.0
 11
26.5248626653
 21
31.390059984
 31
0.0
 12
26.3551570378
 22
31.5597656114
 32
0.0
 13
26.3551570378
 23
31.5597656114
 33
0.0
  0
LINE
  5
151
330
14C
100
AcDbEntity
  8
0
  6
Continuous
 62
     7
370
     0
100
AcDbLine
 10
20.1290101265
 20
30.3756315445
 30
0.0
 11
19.9004945038
 21
30.3756315445
 31
0.0
  0
LINE
  5
152
330
14C
100
AcDbEntity
  8
0
  6
Continuous
 62
     7
370
     0
100
AcDbLine
 10
19.9004945038
 20
30.3756315445
 30
0.0
 11
19.9004945038
 21
29.1850065087
 31
0.0
  0
LINE
  5
153
330
14C
100
AcDbEntity
  8
0
  6
Continuous
 62
     7
370
     0
100
AcDbLine
 10
19.9004945038
 20
29.1850065087
 30
0.0
 11
20.1290101265
 21
29.1850065087
 31
0.0
  0
LINE
  5
154
330
14C
100
AcDbEntity
  8
0
  6
Continuous
 62
     7
370
     0
100
AcDbLine
 10
23.1123435227
 20
30.3756315445
 30
0.0
 11
23.3408591454
 21
30.3756315445
 31
0.0
  0
LINE
  5
155
330
14C
100
AcDbEntity
  8
0
  6
Continuous
 62
     7
370
     0
100
AcDbLine
 10
23.3408591454
 20
30.3756315445
 30
0.0
 11
23.3408591454
 21
29.1850065087
 31
0.0
  0
LINE
  5
156
330
14C
100
AcDbEntity
  8
0
  6
Continuous
 62
     7
370
     0
100
AcDbLine
 10
23.3408591454
 20
29.1850065087
 30
0.0
 11
23.1123435227
 21
29.1850065087
 31
0.0
  0
LINE
  5
157
330
14C
100
AcDbEntity
  8
0
  6
Continuous
 62
     7
370
     0
100
AcDbLine
 10
29.1666739279
 20
30.9544218787
 30
0.0
 11
27.0127663443
 21
33.1083294622
 31
0.0
  0
LINE
  5
158
330
14C
100
AcDbEntity
  8
0
  6
Continuous
 62
     7
370
     0
100
AcDbLine
 10
26.946358635
 20
29.8654774356
 30
0.0
 11
25.3581364764
 21
31.4536995943
 31
0.0
  0
LINE
  5
159
330
14C
100
AcDbEntity
  8
0
  6
Continuous
 62
     7
370
     0
100
AcDbLine
 10
27.5430964302
 20
32.5779993763
 30
0.0
 11
25.8884665622
 21
30.9233695084
 31
0.0
  0
LINE
  5
15A
330
14C
100
AcDbEntity
  8
0
  6
Continuous
 62
     7
370
     0
100
AcDbLine
 10
25.8884665622
 20
30.9233695084
 30
0.0
 11
25.3464578822
 21
30.3813608283
 31
0.0
  0
LINE
  5
15B
330
14C
100
AcDbEntity
  8
0
  6
Continuous
 62
     7
370
     0
100
AcDbLine
 10
25.3464578822
 20
30.3813608283
 30
0.0
 11
23.8464578822
 21
30.3813608283
 31
0.0
  0
MTEXT
  5
15C
330
14C
100
AcDbEntity
  8
0
  6
Continuous
 62
     7
370
    18
100
AcDbMText
 10
19.394895547
 20
31.4974415172
 30
0.0
 40
0.75
 41
0.0
 71
     1
 72
     1
  1
 
  7
SLDTEXTSTYLE0
 73
     1
 44
1.0
  0
MTEXT
  5
15D
330
14C
100
AcDbEntity
  8
0
  6
Continuous
 62
     7
370
    18
100
AcDbMText
 10
20.0003642476
 20
31.4859831284
 30
0.0
 40
0.75
 41
0.0
 71
     1
 72
     1
  1
2 5/16"
  7
SLDTEXTSTYLE0
 73
     1
 44
1.0
  0
MTEXT
  5
15E
330
14C
100
AcDbEntity
  8
0
  6
Continuous
 62
     7
370
    18
100
AcDbMText
 10
20.1290101265
 20
30.1430144037
 30
0.0
 40
0.75
 41
0.0
 71
     1
 72
     1
  1
59mm
  7
SLDTEXTSTYLE0
 73
     1
 44
1.0
  0
MTEXT
  5
15F
330
14C
100
AcDbEntity
  8
0
  6
Continuous
 62
     7
370
    18
100
AcDbMText
 10
23.5693746031
 20
31.4974415172
 30
0.0
 40
0.75
 41
0.0
 71
     1
 72
     1
  1
 
  7
SLDTEXTSTYLE0
 73
     1
 44
1.0
  0
ENDBLK
  5
14E
330
14C
100
AcDbEntity
  8
0
100
AcDbBlockEnd
  0
BLOCK
  5
163
330
162
100
AcDbEntity
  8
0
100
AcDbBlockBegin
  2
_D_3
 70
     0
 10
0.0
 20
0.0
 30
0.0
  3
_D_3
  1

  0
SOLID
  5
165
330
162
100
AcDbEntity
  8
0
  6
Continuous
 62
     7
370
    18
100
AcDbTrace
 10
24.6622854649
 20
24.894398497
 30
0.0
 11
25.1289759405
 21
24.258002394
 31
0.0
 12
25.298681568
 22
24.4277080214
 32
0.0
 13
25.298681568
 23
24.4277080214
 33
0.0
  0
SOLID
  5
166
330
162
100
AcDbEntity
  8
0
  6
Continuous
 62
     7
370
    18
100
AcDbTrace
 10
23.5945542253
 20
25.9621297366
 30
0.0
 11
23.1278637497
 21
26.5985258397
 31
0.0
 12
22.9581581222
 22
26.4288202122
 32
0.0
 13
22.9581581222
 23
26.4288202122
 33
0.0
  0
LINE
  5
167
330
162
100
AcDbEntity
  8
0
  6
Continuous
 62
     7
370
     0
100
AcDbLine
 10
16.9516117996
 20
27.3818951228
 30
0.0
 11
16.7230961769
 21
27.3818951228
 31
0.0
  0
LINE
  5
168
330
162
100
AcDbEntity
  8
0
  6
Continuous
 62
     7
370
     0
100
AcDbLine
 10
16.7230961769
 20
27.3818951228
 30
0.0
 11
16.7230961769
 21
26.191270087
 31
0.0
  0
LINE
  5
169
330
162
100
AcDbEntity
  8
0
  6
Continuous
 62
     7
370
     0
100
AcDbLine
 10
16.7230961769
 20
26.191270087
 30
0.0
 11
16.9516117996
 21
26.191270087
 31
0.0
  0
LINE
  5
16A
330
162
100
AcDbEntity
  8
0
  6
Continuous
 62
     7
370
     0
100
AcDbLine
 10
19.9349451959
 20
27.3818951228
 30
0.0
 11
20.1634608185
 21
27.3818951228
 31
0.0
  0
LINE
  5
16B
330
162
100
AcDbEntity
  8
0
  6
Continuous
 62
     7
370
     0
100
AcDbLine
 10
20.1634608185
 20
27.3818951228
 30
0.0
 11
20.1634608185
 21
26.191270087
 31
0.0
  0
LINE
  5
16C
330
162
100
AcDbEntity
  8
0
  6
Continuous
 62
     7
370
     0
100
AcDbLine
 10
20.1634608185
 20
26.191270087
 30
0.0
 11
19.9349451959
 21
26.191270087
 31
0.0
  0
LINE
  5
16D
330
162
100
AcDbEntity
  8
0
  6
Continuous
 62
     7
370
     0
100
AcDbLine
 10
25.5427516743
 20
25.7748647065
 30
0.0
 11
24.131955379
 21
24.3640684111
 31
0.0
  0
LINE
  5
16E
330
162
100
AcDbEntity
  8
0
  6
Continuous
 62
     7
370
     0
100
AcDbLine
 10
25.7753898053
 20
28.1429653167
 30
0.0
 11
23.0642241394
 21
25.4317996507
 31
0.0
  0
LINE
  5
16F
330
162
100
AcDbEntity
  8
0
  6
Continuous
 62
     7
370
     0
100
AcDbLine
 10
24.6622854649
 20
24.894398497
 30
0.0
 11
25.7229456367
 21
23.8337383253
 31
0.0
  0
LINE
  5
170
330
162
100
AcDbEntity
  8
0
  6
Continuous
 62
     7
370
     0
100
AcDbLine
 10
23.5945542253
 20
25.9621297366
 30
0.0
 11
22.1690595553
 21
27.3876244066
 31
0.0
  0
LINE
  5
171
330
162
100
AcDbEntity
  8
0
  6
Continuous
 62
     7
370
     0
100
AcDbLine
 10
22.1690595553
 20
27.3876244066
 30
0.0
 11
20.6690595553
 21
27.3876244066
 31
0.0
  0
MTEXT
  5
172
330
162
100
AcDbEntity
  8
0
  6
Continuous
 62
     7
370
    18
100
AcDbMText
 10
16.2174972201
 20
28.5037050955
 30
0.0
 40
0.75
 41
0.0
 71
     1
 72
     1
  1
 
  7
SLDTEXTSTYLE0
 73
     1
 44
1.0
  0
MTEXT
  5
173
330
162
100
AcDbEntity
  8
0
  6
Continuous
 62
     7
370
    18
100
AcDbMText
 10
17.1000493098
 20
28.4922467067
 30
0.0
 40
0.75
 41
0.0
 71
     1
 72
     1
  1
1 1/2"
  7
SLDTEXTSTYLE0
 73
     1
 44
1.0
  0
MTEXT
  5
174
330
162
100
AcDbEntity
  8
0
  6
Continuous
 62
     7
370
    18
100
AcDbMText
 10
16.9516117996
 20
27.149277982
 30
0.0
 40
0.75
 41
0.0
 71
     1
 72
     1
  1
38mm
  7
SLDTEXTSTYLE0
 73
     1
 44
1.0
  0
MTEXT
  5
175
330
162
100
AcDbEntity
  8
0
  6
Continuous
 62
     7
370
    18
100
AcDbMText
 10
20.3919762762
 20
28.5037050955
 30
0.0
 40
0.75
 41
0.0
 71
     1
 72
     1
  1
 
  7
SLDTEXTSTYLE0
 73
     1
 44
1.0
  0
ENDBLK
  5
164
330
162
100
AcDbEntity
  8
0
100
AcDbBlockEnd
  0
BLOCK
  5
179
330
178
100
AcDbEntity
  8
0
100
AcDbBlockBegin
  2
_D_4
 70
     0
 10
0.0
 20
0.0
 30
0.0
  3
_D_4
  1

  0
SOLID
  5
17B
330
178
100
AcDbEntity
  8
0
  6
Continuous
 62
     7
370
    18
100
AcDbTrace
 10
33.8814078723
 20
45.3099532193
 30
0.0
 11
33.1014078723
 21
45.4299532193
 31
0.0
 12
33.1014078723
 22
45.1899532193
 32
0.0
 13
33.1014078723
 23
45.1899532193
 33
0.0
  0
SOLID
  5
17C
330
178
100
AcDbEntity
  8
0
  6
Continuous
 62
     7
370
    18
100
AcDbTrace
 10
9.8814078723
 20
45.3099532193
 30
0.0
 11
10.6614078723
 21
45.1899532193
 31
0.0
 12
10.6614078723
 22
45.4299532193
 32
0.0
 13
10.6614078723
 23
45.4299532193
 33
0.0
  0
LINE
  5
17D
330
178
100
AcDbEntity
  8
0
  6
Continuous
 62
     7
370
     0
100
AcDbLine
 10
33.8814078723
 20
36.0804256602
 30
0.0
 11
33.8814078723
 21
46.0599532193
 31
0.0
  0
LINE
  5
17E
330
178
100
AcDbEntity
  8
0
  6
Continuous
 62
     7
370
     0
100
AcDbLine
 10
9.8814078723
 20
40.1304256602
 30
0.0
 11
9.8814078723
 21
46.0599532193
 31
0.0
  0
LINE
  5
17F
330
178
100
AcDbEntity
  8
0
  6
Continuous
 62
     7
370
     0
100
AcDbLine
 10
33.8814078723
 20
45.3099532193
 30
0.0
 11
29.1200452361
 21
45.3099532193
 31
0.0
  0
LINE
  5
180
330
178
100
AcDbEntity
  8
0
  6
Continuous
 62
     7
370
     0
100
AcDbLine
 10
9.8814078723
 20
45.3099532193
 30
0.0
 11
14.6427705085
 21
45.3099532193
 31
0.0
  0
MTEXT
  5
181
330
178
100
AcDbEntity
  8
0
  6
Continuous
 62
     7
370
    18
100
AcDbMText
 10
14.7949500557
 20
46.8632736872
 30
0.0
 40
0.75
 41
0.0
 71
     1
 72
     1
  1
SPECIFY PROJECTION LENGTH
  7
SLDTEXTSTYLE0
 73
     1
 44
1.0
  0
MTEXT
  5
182
330
178
100
AcDbEntity
  8
0
  6
Continuous
 62
     7
370
    18
100
AcDbMText
 10
20.2975537691
 20
45.6726486514
 30
0.0
 40
0.75
 41
0.0
 71
     1
 72
     1
  1
18"-48"
  7
SLDTEXTSTYLE0
 73
     1
 44
1.0
  0
MTEXT
  5
183
330
178
100
AcDbEntity
  8
0
  6
Continuous
 62
     7
370
    18
100
AcDbMText
 10
17.5496372333
 20
44.4820236156
 30
0.0
 40
0.75
 41
0.0
 71
     1
 72
     1
  1
[457mm-1219mm]
  7
SLDTEXTSTYLE0
 73
     1
 44
1.0
  0
ENDBLK
  5
17A
330
178
100
AcDbEntity
  8
0
100
AcDbBlockEnd
  0
BLOCK
  5
186
330
185
100
AcDbEntity
  8
0
100
AcDbBlockBegin
  2
_D_5
 70
     0
 10
0.0
 20
0.0
 30
0.0
  3
_D_5
  1

  0
SOLID
  5
188
330
185
100
AcDbEntity
  8
0
  6
Continuous
 62
     7
370
    18
100
AcDbTrace
 10
9.8814078723
 20
45.3099532193
 30
0.0
 11
9.1014078723
 21
45.4299532193
 31
0.0
 12
9.1014078723
 22
45.1899532193
 32
0.0
 13
9.1014078723
 23
45.1899532193
 33
0.0
  0
SOLID
  5
189
330
185
100
AcDbEntity
  8
0
  6
Continuous
 62
     7
370
    18
100
AcDbTrace
 10
7.6034078723
 20
45.3099532193
 30
0.0
 11
8.3834078723
 21
45.1899532193
 31
0.0
 12
8.3834078723
 22
45.4299532193
 32
0.0
 13
8.3834078723
 23
45.4299532193
 33
0.0
  0
LINE
  5
18A
330
185
100
AcDbEntity
  8
0
  6
Continuous
 62
     7
370
     0
100
AcDbLine
 10
2.891938587
 20
45.3042239355
 30
0.0
 11
2.6634229643
 21
45.3042239355
 31
0.0
  0
LINE
  5
18B
330
185
100
AcDbEntity
  8
0
  6
Continuous
 62
     7
370
     0
100
AcDbLine
 10
2.6634229643
 20
45.3042239355
 30
0.0
 11
2.6634229643
 21
44.1135988997
 31
0.0
  0
LINE
  5
18C
330
185
100
AcDbEntity
  8
0
  6
Continuous
 62
     7
370
     0
100
AcDbLine
 10
2.6634229643
 20
44.1135988997
 30
0.0
 11
2.891938587
 21
44.1135988997
 31
0.0
  0
LINE
  5
18D
330
185
100
AcDbEntity
  8
0
  6
Continuous
 62
     7
370
     0
100
AcDbLine
 10
5.8752719832
 20
45.3042239355
 30
0.0
 11
6.1037876059
 21
45.3042239355
 31
0.0
  0
LINE
  5
18E
330
185
100
AcDbEntity
  8
0
  6
Continuous
 62
     7
370
     0
100
AcDbLine
 10
6.1037876059
 20
45.3042239355
 30
0.0
 11
6.1037876059
 21
44.1135988997
 31
0.0
  0
LINE
  5
18F
330
185
100
AcDbEntity
  8
0
  6
Continuous
 62
     7
370
     0
100
AcDbLine
 10
6.1037876059
 20
44.1135988997
 30
0.0
 11
5.8752719832
 21
44.1135988997
 31
0.0
  0
LINE
  5
190
330
185
100
AcDbEntity
  8
0
  6
Continuous
 62
     7
370
     0
100
AcDbLine
 10
9.8814078723
 20
40.1304256602
 30
0.0
 11
9.8814078723
 21
46.0599532193
 31
0.0
  0
LINE
  5
191
330
185
100
AcDbEntity
  8
0
  6
Continuous
 62
     7
370
     0
100
AcDbLine
 10
7.6034078723
 20
41.8054256602
 30
0.0
 11
7.6034078723
 21
46.0599532193
 31
0.0
  0
LINE
  5
192
330
185
100
AcDbEntity
  8
0
  6
Continuous
 62
     7
370
     0
100
AcDbLine
 10
9.8814078723
 20
45.3099532193
 30
0.0
 11
7.6034078723
 21
45.3099532193
 31
0.0
  0
LINE
  5
193
330
185
100
AcDbEntity
  8
0
  6
Continuous
 62
     7
370
     0
100
AcDbLine
 10
7.6034078723
 20
45.3099532193
 30
0.0
 11
6.7615658898
 21
45.3099532193
 31
0.0
  0
MTEXT
  5
194
330
185
100
AcDbEntity
  8
0
  6
Continuous
 62
     7
370
    18
100
AcDbMText
 10
2.1578240075
 20
46.4260339082
 30
0.0
 40
0.75
 41
0.0
 71
     1
 72
     1
  1
 
  7
SLDTEXTSTYLE0
 73
     1
 44
1.0
  0
MTEXT
  5
195
330
185
100
AcDbEntity
  8
0
  6
Continuous
 62
     7
370
    18
100
AcDbMText
 10
3.0403760972
 20
46.4145755194
 30
0.0
 40
0.75
 41
0.0
 71
     1
 72
     1
  1
2 1/4"
  7
SLDTEXTSTYLE0
 73
     1
 44
1.0
  0
MTEXT
  5
196
330
185
100
AcDbEntity
  8
0
  6
Continuous
 62
     7
370
    18
100
AcDbMText
 10
2.891938587
 20
45.0716067947
 30
0.0
 40
0.75
 41
0.0
 71
     1
 72
     1
  1
58mm
  7
SLDTEXTSTYLE0
 73
     1
 44
1.0
  0
MTEXT
  5
197
330
185
100
AcDbEntity
  8
0
  6
Continuous
 62
     7
370
    18
100
AcDbMText
 10
6.3323030636
 20
46.4260339082
 30
0.0
 40
0.75
 41
0.0
 71
     1
 72
     1
  1
 
  7
SLDTEXTSTYLE0
 73
     1
 44
1.0
  0
ENDBLK
  5
187
330
185
100
AcDbEntity
  8
0
100
AcDbBlockEnd
  0
BLOCK
  5
19B
330
19A
100
AcDbEntity
  8
0
100
AcDbBlockBegin
  2
_D_6
 70
     0
 10
0.0
 20
0.0
 30
0.0
  3
_D_6
  1

  0
SOLID
  5
19D
330
19A
100
AcDbEntity
  8
0
  6
Continuous
 62
     7
370
    18
100
AcDbTrace
 10
11.9713090909
 20
38.7804256602
 30
0.0
 11
12.0913090909
 21
39.5604256602
 31
0.0
 12
11.8513090909
 22
39.5604256602
 32
0.0
 13
11.8513090909
 23
39.5604256602
 33
0.0
  0
SOLID
  5
19E
330
19A
100
AcDbEntity
  8
0
  6
Continuous
 62
     7
370
    18
100
AcDbTrace
 10
11.9713090909
 20
37.7804256602
 30
0.0
 11
11.8513090909
 21
37.0004256602
 31
0.0
 12
12.0913090909
 22
37.0004256602
 32
0.0
 13
12.0913090909
 23
37.0004256602
 33
0.0
  0
LINE
  5
19F
330
19A
100
AcDbEntity
  8
0
  6
Continuous
 62
     7
370
     0
100
AcDbLine
 10
14.3848789776
 20
34.7374907991
 30
0.0
 11
14.156363355
 21
34.7374907991
 31
0.0
  0
LINE
  5
1A0
330
19A
100
AcDbEntity
  8
0
  6
Continuous
 62
     7
370
     0
100
AcDbLine
 10
14.156363355
 20
34.7374907991
 30
0.0
 11
14.156363355
 21
33.5468657633
 31
0.0
  0
LINE
  5
1A1
330
19A
100
AcDbEntity
  8
0
  6
Continuous
 62
     7
370
     0
100
AcDbLine
 10
14.156363355
 20
33.5468657633
 30
0.0
 11
14.3848789776
 21
33.5468657633
 31
0.0
  0
LINE
  5
1A2
330
19A
100
AcDbEntity
  8
0
  6
Continuous
 62
     7
370
     0
100
AcDbLine
 10
17.3682123739
 20
34.7374907991
 30
0.0
 11
17.5967279966
 21
34.7374907991
 31
0.0
  0
LINE
  5
1A3
330
19A
100
AcDbEntity
  8
0
  6
Continuous
 62
     7
370
     0
100
AcDbLine
 10
17.5967279966
 20
34.7374907991
 30
0.0
 11
17.5967279966
 21
33.5468657633
 31
0.0
  0
LINE
  5
1A4
330
19A
100
AcDbEntity
  8
0
  6
Continuous
 62
     7
370
     0
100
AcDbLine
 10
17.5967279966
 20
33.5468657633
 30
0.0
 11
17.3682123739
 21
33.5468657633
 31
0.0
  0
LINE
  5
1A5
330
19A
100
AcDbEntity
  8
0
  6
Continuous
 62
     7
370
     0
100
AcDbLine
 10
13.4713090909
 20
34.7374909091
 30
0.0
 11
11.9713090909
 21
34.7374909091
 31
0.0
  0
LINE
  5
1A6
330
19A
100
AcDbEntity
  8
0
  6
Continuous
 62
     7
370
     0
100
AcDbLine
 10
11.9713090909
 20
34.7374909091
 30
0.0
 11
11.9713090909
 21
37.7804256602
 31
0.0
  0
LINE
  5
1A7
330
19A
100
AcDbEntity
  8
0
  6
Continuous
 62
     7
370
     0
100
AcDbLine
 10
11.9713090909
 20
38.7804256602
 30
0.0
 11
11.9713090909
 21
40.2804256602
 31
0.0
  0
MTEXT
  5
1A8
330
19A
100
AcDbEntity
  8
0
  6
Continuous
 62
     7
370
    18
100
AcDbMText
 10
14.8792279519
 20
35.847842438
 30
0.0
 40
0.75
 41
0.0
 71
     1
 72
     1
  1
%%c
  7
SLDTEXTSTYLE0
 73
     1
 44
1.0
  0
MTEXT
  5
1A9
330
19A
100
AcDbEntity
  8
0
  6
Continuous
 62
     7
370
    18
100
AcDbMText
 10
16.0103216754
 20
35.847842438
 30
0.0
 40
0.75
 41
0.0
 71
     1
 72
     1
  1
1"
  7
SLDTEXTSTYLE0
 73
     1
 44
1.0
  0
MTEXT
  5
1AA
330
19A
100
AcDbEntity
  8
0
  6
Continuous
 62
     7
370
    18
100
AcDbMText
 10
14.3848789776
 20
34.5048736583
 30
0.0
 40
0.75
 41
0.0
 71
     1
 72
     1
  1
25mm
  7
SLDTEXTSTYLE0
 73
     1
 44
1.0
  0
ENDBLK
  5
19C
330
19A
100
AcDbEntity
  8
0
100
AcDbBlockEnd
  0
BLOCK
  5
265
330
264
100
AcDbEntity
  8
0
100
AcDbBlockBegin
  2
_D_7
 70
     0
 10
0.0
 20
0.0
 30
0.0
  3
_D_7
  1

  0
SOLID
  5
267
330
264
100
AcDbEntity
  8
0
  6
Continuous
 62
     7
370
    18
100
AcDbTrace
 10
7.4167079624
 20
12.5222190211
 30
0.0
 11
7.2967079624
 21
11.7422190211
 31
0.0
 12
7.5367079624
 22
11.7422190211
 32
0.0
 13
7.5367079624
 23
11.7422190211
 33
0.0
  0
SOLID
  5
268
330
264
100
AcDbEntity
  8
0
  6
Continuous
 62
     7
370
    18
100
AcDbTrace
 10
7.4167079624
 20
5.3522190211
 30
0.0
 11
7.5367079624
 21
6.1322190211
 31
0.0
 12
7.2967079624
 22
6.1322190211
 32
0.0
 13
7.2967079624
 23
6.1322190211
 33
0.0
  0
LINE
  5
269
330
264
100
AcDbEntity
  8
0
  6
Continuous
 62
     7
370
     0
100
AcDbLine
 10
5.9250413742
 20
8.9314897373
 30
0.0
 11
5.6965257516
 21
8.9314897373
 31
0.0
  0
LINE
  5
26A
330
264
100
AcDbEntity
  8
0
  6
Continuous
 62
     7
370
     0
100
AcDbLine
 10
5.6965257516
 20
8.9314897373
 30
0.0
 11
5.6965257516
 21
7.7408647015
 31
0.0
  0
LINE
  5
26B
330
264
100
AcDbEntity
  8
0
  6
Continuous
 62
     7
370
     0
100
AcDbLine
 10
5.6965257516
 20
7.7408647015
 30
0.0
 11
5.9250413742
 21
7.7408647015
 31
0.0
  0
LINE
  5
26C
330
264
100
AcDbEntity
  8
0
  6
Continuous
 62
     7
370
     0
100
AcDbLine
 10
8.9083747705
 20
8.9314897373
 30
0.0
 11
9.1368903932
 21
8.9314897373
 31
0.0
  0
LINE
  5
26D
330
264
100
AcDbEntity
  8
0
  6
Continuous
 62
     7
370
     0
100
AcDbLine
 10
9.1368903932
 20
8.9314897373
 30
0.0
 11
9.1368903932
 21
7.7408647015
 31
0.0
  0
LINE
  5
26E
330
264
100
AcDbEntity
  8
0
  6
Continuous
 62
     7
370
     0
100
AcDbLine
 10
9.1368903932
 20
7.7408647015
 30
0.0
 11
8.9083747705
 21
7.7408647015
 31
0.0
  0
LINE
  5
26F
330
264
100
AcDbEntity
  8
0
  6
Continuous
 62
     7
370
     0
100
AcDbLine
 10
10.8962355214
 20
12.5222190211
 30
0.0
 11
6.6667079624
 21
12.5222190211
 31
0.0
  0
LINE
  5
270
330
264
100
AcDbEntity
  8
0
  6
Continuous
 62
     7
370
     0
100
AcDbLine
 10
10.8962355214
 20
5.3522190211
 30
0.0
 11
6.6667079624
 21
5.3522190211
 31
0.0
  0
LINE
  5
271
330
264
100
AcDbEntity
  8
0
  6
Continuous
 62
     7
370
     0
100
AcDbLine
 10
7.4167079624
 20
12.5222190211
 30
0.0
 11
7.4167079624
 21
10.2859168508
 31
0.0
  0
LINE
  5
272
330
264
100
AcDbEntity
  8
0
  6
Continuous
 62
     7
370
     0
100
AcDbLine
 10
7.4167079624
 20
5.3522190211
 30
0.0
 11
7.4167079624
 21
7.5885211914
 31
0.0
  0
MTEXT
  5
273
330
264
100
AcDbEntity
  8
0
  6
Continuous
 62
     7
370
    18
100
AcDbMText
 10
5.1909267948
 20
10.0532997101
 30
0.0
 40
0.75
 41
0.0
 71
     1
 72
     1
  1
 
  7
SLDTEXTSTYLE0
 73
     1
 44
1.0
  0
MTEXT
  5
274
330
264
100
AcDbEntity
  8
0
  6
Continuous
 62
     7
370
    18
100
AcDbMText
 10
5.7963954954
 20
10.0418413212
 30
0.0
 40
0.75
 41
0.0
 71
     1
 72
     1
  1
3 9/16"
  7
SLDTEXTSTYLE0
 73
     1
 44
1.0
  0
MTEXT
  5
275
330
264
100
AcDbEntity
  8
0
  6
Continuous
 62
     7
370
    18
100
AcDbMText
 10
5.9250413742
 20
8.6988725965
 30
0.0
 40
0.75
 41
0.0
 71
     1
 72
     1
  1
91mm
  7
SLDTEXTSTYLE0
 73
     1
 44
1.0
  0
MTEXT
  5
276
330
264
100
AcDbEntity
  8
0
  6
Continuous
 62
     7
370
    18
100
AcDbMText
 10
9.3654058509
 20
10.0532997101
 30
0.0
 40
0.75
 41
0.0
 71
     1
 72
     1
  1
 
  7
SLDTEXTSTYLE0
 73
     1
 44
1.0
  0
ENDBLK
  5
266
330
264
100
AcDbEntity
  8
0
100
AcDbBlockEnd
  0
BLOCK
  5
288
330
287
100
AcDbEntity
  8
0
100
AcDbBlockBegin
  2
_D_8
 70
     0
 10
0.0
 20
0.0
 30
0.0
  3
_D_8
  1

  0
SOLID
  5
28A
330
287
100
AcDbEntity
  8
0
  6
Continuous
 62
     7
370
    18
100
AcDbTrace
 10
22.6051231948
 20
9.9482190211
 30
0.0
 11
22.7251231948
 21
10.7282190211
 31
0.0
 12
22.4851231948
 22
10.7282190211
 32
0.0
 13
22.4851231948
 23
10.7282190211
 33
0.0
  0
SOLID
  5
28B
330
287
100
AcDbEntity
  8
0
  6
Continuous
 62
     7
370
    18
100
AcDbTrace
 10
22.6051231948
 20
5.3522190211
 30
0.0
 11
22.4851231948
 21
4.5722190211
 31
0.0
 12
22.7251231948
 22
4.5722190211
 32
0.0
 13
22.7251231948
 23
4.5722190211
 33
0.0
  0
LINE
  5
28C
330
287
100
AcDbEntity
  8
0
  6
Continuous
 62
     7
370
     0
100
AcDbLine
 10
21.1134566067
 20
7.6444897373
 30
0.0
 11
20.884940984
 21
7.6444897373
 31
0.0
  0
LINE
  5
28D
330
287
100
AcDbEntity
  8
0
  6
Continuous
 62
     7
370
     0
100
AcDbLine
 10
20.884940984
 20
7.6444897373
 30
0.0
 11
20.884940984
 21
6.4538647015
 31
0.0
  0
LINE
  5
28E
330
287
100
AcDbEntity
  8
0
  6
Continuous
 62
     7
370
     0
100
AcDbLine
 10
20.884940984
 20
6.4538647015
 30
0.0
 11
21.1134566067
 21
6.4538647015
 31
0.0
  0
LINE
  5
28F
330
287
100
AcDbEntity
  8
0
  6
Continuous
 62
     7
370
     0
100
AcDbLine
 10
24.0967900029
 20
7.6444897373
 30
0.0
 11
24.3253056256
 21
7.6444897373
 31
0.0
  0
LINE
  5
290
330
287
100
AcDbEntity
  8
0
  6
Continuous
 62
     7
370
     0
100
AcDbLine
 10
24.3253056256
 20
7.6444897373
 30
0.0
 11
24.3253056256
 21
6.4538647015
 31
0.0
  0
LINE
  5
291
330
287
100
AcDbEntity
  8
0
  6
Continuous
 62
     7
370
     0
100
AcDbLine
 10
24.3253056256
 20
6.4538647015
 30
0.0
 11
24.0967900029
 21
6.4538647015
 31
0.0
  0
LINE
  5
292
330
287
100
AcDbEntity
  8
0
  6
Continuous
 62
     7
370
     0
100
AcDbLine
 10
26.8097835663
 20
9.9482190211
 30
0.0
 11
21.8551231948
 21
9.9482190211
 31
0.0
  0
LINE
  5
293
330
287
100
AcDbEntity
  8
0
  6
Continuous
 62
     7
370
     0
100
AcDbLine
 10
26.7497835663
 20
5.3522190211
 30
0.0
 11
21.8551231948
 21
5.3522190211
 31
0.0
  0
LINE
  5
294
330
287
100
AcDbEntity
  8
0
  6
Continuous
 62
     7
370
     0
100
AcDbLine
 10
22.6051231948
 20
9.9482190211
 30
0.0
 11
22.6051231948
 21
11.4482190211
 31
0.0
  0
LINE
  5
295
330
287
100
AcDbEntity
  8
0
  6
Continuous
 62
     7
370
     0
100
AcDbLine
 10
22.6051231948
 20
5.3522190211
 30
0.0
 11
22.6051231948
 21
3.8522190211
 31
0.0
  0
MTEXT
  5
296
330
287
100
AcDbEntity
  8
0
  6
Continuous
 62
     7
370
    18
100
AcDbMText
 10
20.3793420272
 20
8.7662997101
 30
0.0
 40
0.75
 41
0.0
 71
     1
 72
     1
  1
 
  7
SLDTEXTSTYLE0
 73
     1
 44
1.0
  0
MTEXT
  5
297
330
287
100
AcDbEntity
  8
0
  6
Continuous
 62
     7
370
    18
100
AcDbMText
 10
20.9848107278
 20
8.7548413212
 30
0.0
 40
0.75
 41
0.0
 71
     1
 72
     1
  1
2 5/16"
  7
SLDTEXTSTYLE0
 73
     1
 44
1.0
  0
MTEXT
  5
298
330
287
100
AcDbEntity
  8
0
  6
Continuous
 62
     7
370
    18
100
AcDbMText
 10
21.1134566067
 20
7.4118725965
 30
0.0
 40
0.75
 41
0.0
 71
     1
 72
     1
  1
58mm
  7
SLDTEXTSTYLE0
 73
     1
 44
1.0
  0
MTEXT
  5
299
330
287
100
AcDbEntity
  8
0
  6
Continuous
 62
     7
370
    18
100
AcDbMText
 10
24.5538210833
 20
8.7662997101
 30
0.0
 40
0.75
 41
0.0
 71
     1
 72
     1
  1
 
  7
SLDTEXTSTYLE0
 73
     1
 44
1.0
  0
ENDBLK
  5
289
330
287
100
AcDbEntity
  8
0
100
AcDbBlockEnd
  0
BLOCK
  5
2AA
330
2A9
100
AcDbEntity
  8
0
100
AcDbBlockBegin
  2
_D_9
 70
     0
 10
0.0
 20
0.0
 30
0.0
  3
_D_9
  1

  0
SOLID
  5
2AC
330
2A9
100
AcDbEntity
  8
0
  6
Continuous
 62
     7
370
    18
100
AcDbTrace
 10
37.3674477339
 20
8.6175436964
 30
0.0
 11
37.4874477339
 21
9.3975436964
 31
0.0
 12
37.2474477339
 22
9.3975436964
 32
0.0
 13
37.2474477339
 23
9.3975436964
 33
0.0
  0
SOLID
  5
2AD
330
2A9
100
AcDbEntity
  8
0
  6
Continuous
 62
     7
370
    18
100
AcDbTrace
 10
37.3674477339
 20
5.3975436964
 30
0.0
 11
37.2474477339
 21
4.6175436964
 31
0.0
 12
37.4874477339
 22
4.6175436964
 32
0.0
 13
37.4874477339
 23
4.6175436964
 33
0.0
  0
LINE
  5
2AE
330
2A9
100
AcDbEntity
  8
0
  6
Continuous
 62
     7
370
     0
100
AcDbLine
 10
35.8757811458
 20
7.0018144126
 30
0.0
 11
35.6472655231
 21
7.0018144126
 31
0.0
  0
LINE
  5
2AF
330
2A9
100
AcDbEntity
  8
0
  6
Continuous
 62
     7
370
     0
100
AcDbLine
 10
35.6472655231
 20
7.0018144126
 30
0.0
 11
35.6472655231
 21
5.8111893768
 31
0.0
  0
LINE
  5
2B0
330
2A9
100
AcDbEntity
  8
0
  6
Continuous
 62
     7
370
     0
100
AcDbLine
 10
35.6472655231
 20
5.8111893768
 30
0.0
 11
35.8757811458
 21
5.8111893768
 31
0.0
  0
LINE
  5
2B1
330
2A9
100
AcDbEntity
  8
0
  6
Continuous
 62
     7
370
     0
100
AcDbLine
 10
38.859114542
 20
7.0018144126
 30
0.0
 11
39.0876301647
 21
7.0018144126
 31
0.0
  0
LINE
  5
2B2
330
2A9
100
AcDbEntity
  8
0
  6
Continuous
 62
     7
370
     0
100
AcDbLine
 10
39.0876301647
 20
7.0018144126
 30
0.0
 11
39.0876301647
 21
5.8111893768
 31
0.0
  0
LINE
  5
2B3
330
2A9
100
AcDbEntity
  8
0
  6
Continuous
 62
     7
370
     0
100
AcDbLine
 10
39.0876301647
 20
5.8111893768
 30
0.0
 11
38.859114542
 21
5.8111893768
 31
0.0
  0
LINE
  5
2B4
330
2A9
100
AcDbEntity
  8
0
  6
Continuous
 62
     7
370
     0
100
AcDbLine
 10
40.9069752929
 20
8.6175436964
 30
0.0
 11
36.6174477339
 21
8.6175436964
 31
0.0
  0
LINE
  5
2B5
330
2A9
100
AcDbEntity
  8
0
  6
Continuous
 62
     7
370
     0
100
AcDbLine
 10
40.8469752929
 20
5.3975436964
 30
0.0
 11
36.6174477339
 21
5.3975436964
 31
0.0
  0
LINE
  5
2B6
330
2A9
100
AcDbEntity
  8
0
  6
Continuous
 62
     7
370
     0
100
AcDbLine
 10
37.3674477339
 20
8.6175436964
 30
0.0
 11
37.3674477339
 21
10.1175436964
 31
0.0
  0
LINE
  5
2B7
330
2A9
100
AcDbEntity
  8
0
  6
Continuous
 62
     7
370
     0
100
AcDbLine
 10
37.3674477339
 20
5.3975436964
 30
0.0
 11
37.3674477339
 21
3.8975436964
 31
0.0
  0
MTEXT
  5
2B8
330
2A9
100
AcDbEntity
  8
0
  6
Continuous
 62
     7
370
    18
100
AcDbMText
 10
35.1416665663
 20
8.1236243854
 30
0.0
 40
0.75
 41
0.0
 71
     1
 72
     1
  1
 
  7
SLDTEXTSTYLE0
 73
     1
 44
1.0
  0
MTEXT
  5
2B9
330
2A9
100
AcDbEntity
  8
0
  6
Continuous
 62
     7
370
    18
100
AcDbMText
 10
36.024218656
 20
8.1121659965
 30
0.0
 40
0.75
 41
0.0
 71
     1
 72
     1
  1
1 5/8"
  7
SLDTEXTSTYLE0
 73
     1
 44
1.0
  0
MTEXT
  5
2BA
330
2A9
100
AcDbEntity
  8
0
  6
Continuous
 62
     7
370
    18
100
AcDbMText
 10
35.8757811458
 20
6.7691972718
 30
0.0
 40
0.75
 41
0.0
 71
     1
 72
     1
  1
41mm
  7
SLDTEXTSTYLE0
 73
     1
 44
1.0
  0
MTEXT
  5
2BB
330
2A9
100
AcDbEntity
  8
0
  6
Continuous
 62
     7
370
    18
100
AcDbMText
 10
39.3161456224
 20
8.1236243854
 30
0.0
 40
0.75
 41
0.0
 71
     1
 72
     1
  1
 
  7
SLDTEXTSTYLE0
 73
     1
 44
1.0
  0
ENDBLK
  5
2AB
330
2A9
100
AcDbEntity
  8
0
100
AcDbBlockEnd
  0
BLOCK
  5
307
330
306
100
AcDbEntity
  8
0
100
AcDbBlockBegin
  2
_D_10
 70
     0
 10
0.0
 20
0.0
 30
0.0
  3
_D_10
  1

  0
SOLID
  5
309
330
306
100
AcDbEntity
  8
0
  6
Continuous
 62
     7
370
    18
100
AcDbTrace
 10
57.2040954545
 20
12.7592524363
 30
0.0
 11
57.698018503
 21
13.3747522512
 31
0.0
 12
57.4901724061
 22
13.4947522512
 32
0.0
 13
57.4901724061
 23
13.4947522512
 33
0.0
  0
LINE
  5
30A
330
306
100
AcDbEntity
  8
0
  6
Continuous
 62
     7
370
     0
100
AcDbLine
 10
60.2564512883
 20
14.6564101642
 30
0.0
 11
60.0279356656
 21
14.6564101642
 31
0.0
  0
LINE
  5
30B
330
306
100
AcDbEntity
  8
0
  6
Continuous
 62
     7
370
     0
100
AcDbLine
 10
60.0279356656
 20
14.6564101642
 30
0.0
 11
60.0279356656
 21
13.4657851284
 31
0.0
  0
LINE
  5
30C
330
306
100
AcDbEntity
  8
0
  6
Continuous
 62
     7
370
     0
100
AcDbLine
 10
60.0279356656
 20
13.4657851284
 30
0.0
 11
60.2564512883
 21
13.4657851284
 31
0.0
  0
LINE
  5
30D
330
306
100
AcDbEntity
  8
0
  6
Continuous
 62
     7
370
     0
100
AcDbLine
 10
63.7939512428
 20
14.6564101642
 30
0.0
 11
64.0224668655
 21
14.6564101642
 31
0.0
  0
LINE
  5
30E
330
306
100
AcDbEntity
  8
0
  6
Continuous
 62
     7
370
     0
100
AcDbLine
 10
64.0224668655
 20
14.6564101642
 30
0.0
 11
64.0224668655
 21
13.4657851284
 31
0.0
  0
LINE
  5
30F
330
306
100
AcDbEntity
  8
0
  6
Continuous
 62
     7
370
     0
100
AcDbLine
 10
64.0224668655
 20
13.4657851284
 30
0.0
 11
63.7939512428
 21
13.4657851284
 31
0.0
  0
LINE
  5
310
330
306
100
AcDbEntity
  8
0
  6
Continuous
 62
     7
370
     0
100
AcDbLine
 10
57.2040954545
 20
12.7592524363
 30
0.0
 11
58.299420043
 21
14.6564102742
 31
0.0
  0
LINE
  5
311
330
306
100
AcDbEntity
  8
0
  6
Continuous
 62
     7
370
     0
100
AcDbLine
 10
58.299420043
 20
14.6564102742
 30
0.0
 11
59.799420043
 21
14.6564102742
 31
0.0
  0
MTEXT
  5
312
330
306
100
AcDbEntity
  8
0
  6
Continuous
 62
     7
370
    18
100
AcDbMText
 10
59.8393418818
 20
15.766761803
 30
0.0
 40
0.75
 41
0.0
 71
     1
 72
     1
  1
%%c
  7
SLDTEXTSTYLE0
 73
     1
 44
1.0
  0
MTEXT
  5
313
330
306
100
AcDbEntity
  8
0
  6
Continuous
 62
     7
370
    18
100
AcDbMText
 10
60.9704356053
 20
15.766761803
 30
0.0
 40
0.75
 41
0.0
 71
     1
 72
     1
  1
6 7/16"
  7
SLDTEXTSTYLE0
 73
     1
 44
1.0
  0
MTEXT
  5
314
330
306
100
AcDbEntity
  8
0
  6
Continuous
 62
     7
370
    18
100
AcDbMText
 10
60.2564512883
 20
14.4237930234
 30
0.0
 40
0.75
 41
0.0
 71
     1
 72
     1
  1
164mm
  7
SLDTEXTSTYLE0
 73
     1
 44
1.0
  0
ENDBLK
  5
308
330
306
100
AcDbEntity
  8
0
100
AcDbBlockEnd
  0
ENDSEC
  0
SECTION
  2
ENTITIES
  0
LINE
  5
87
330
1F
100
AcDbEntity
  8
0
  6
Continuous
 62
     7
370
    25
100
AcDbLine
 10
7.8964078723
 20
36.3151053167
 30
0.0
 11
7.8814078723
 21
36.3151053167
 31
0.0
  0
LINE
  5
88
330
1F
100
AcDbEntity
  8
0
  6
Continuous
 62
     7
370
    25
100
AcDbLine
 10
7.8814078723
 20
36.0031053167
 30
0.0
 11
7.8964078723
 21
36.0031053167
 31
0.0
  0
ARC
  5
89
330
1F
100
AcDbEntity
  8
0
  6
Continuous
 62
     7
370
    25
100
AcDbCircle
 10
7.8056578723
 20
36.1591053167
 30
0.0
 40
0.1804759332985974
100
AcDbArc
 50
300.1878810736
 51
334.3933390117
  0
ARC
  5
8A
330
1F
100
AcDbEntity
  8
0
  6
Continuous
 62
     7
370
    25
100
AcDbCircle
 10
7.8056578723
 20
36.1591053167
 30
0.0
 40
0.1804759332986035
100
AcDbArc
 50
25.6066609883
 51
59.8121189264
  0
LINE
  5
8B
330
1F
100
AcDbEntity
  8
0
  6
Continuous
 62
     7
370
    25
100
AcDbLine
 10
7.6034078723
 20
36.2316026195
 30
0.0
 11
7.5970378723
 21
36.2225053167
 31
0.0
  0
LINE
  5
8C
330
1F
100
AcDbEntity
  8
0
  6
Continuous
 62
     7
370
    25
100
AcDbLine
 10
7.5970378723
 20
36.0957053167
 30
0.0
 11
7.6034078723
 21
36.0866080139
 31
0.0
  0
LINE
  5
8D
330
1F
100
AcDbEntity
  8
0
  6
Continuous
 62
     7
370
    25
100
AcDbLine
 10
7.5854529113
 20
36.2390503557
 30
0.0
 11
7.5689078723
 21
36.2225053167
 31
0.0
  0
LINE
  5
8E
330
1F
100
AcDbEntity
  8
0
  6
Continuous
 62
     7
370
    25
100
AcDbLine
 10
7.5689078723
 20
36.0957053167
 30
0.0
 11
7.5854529113
 21
36.0791602777
 31
0.0
  0
LINE
  5
8F
330
1F
100
AcDbEntity
  8
0
  6
Continuous
 62
     7
370
    25
100
AcDbLine
 10
7.5854529113
 20
36.0791602777
 30
0.0
 11
7.5970378723
 21
36.0957053167
 31
0.0
  0
LINE
  5
90
330
1F
100
AcDbEntity
  8
0
  6
Continuous
 62
     7
370
    25
100
AcDbLine
 10
7.5970378723
 20
36.2225053167
 30
0.0
 11
7.5854529113
 21
36.2390503557
 31
0.0
  0
LINE
  5
91
330
1F
100
AcDbEntity
  8
0
  6
Continuous
 62
     7
370
    25
100
AcDbLine
 10
7.8964078723
 20
40.5577460038
 30
0.0
 11
7.8814078723
 21
40.5577460038
 31
0.0
  0
LINE
  5
92
330
1F
100
AcDbEntity
  8
0
  6
Continuous
 62
     7
370
    25
100
AcDbLine
 10
7.8814078723
 20
40.2457460038
 30
0.0
 11
7.8964078723
 21
40.2457460038
 31
0.0
  0
ARC
  5
93
330
1F
100
AcDbEntity
  8
0
  6
Continuous
 62
     7
370
    25
100
AcDbCircle
 10
7.8056578723
 20
40.4017460038
 30
0.0
 40
0.1804759332985985
100
AcDbArc
 50
300.1878810736
 51
334.3933390117
  0
ARC
  5
94
330
1F
100
AcDbEntity
  8
0
  6
Continuous
 62
     7
370
    25
100
AcDbCircle
 10
7.8056578723
 20
40.4017460038
 30
0.0
 40
0.1804759332985985
100
AcDbArc
 50
25.6066609883
 51
59.8121189264
  0
LINE
  5
95
330
1F
100
AcDbEntity
  8
0
  6
Continuous
 62
     7
370
    25
100
AcDbLine
 10
7.6034078723
 20
40.4742433066
 30
0.0
 11
7.5970378723
 21
40.4651460038
 31
0.0
  0
LINE
  5
96
330
1F
100
AcDbEntity
  8
0
  6
Continuous
 62
     7
370
    25
100
AcDbLine
 10
7.5970378723
 20
40.3383460038
 30
0.0
 11
7.6034078723
 21
40.329248701
 31
0.0
  0
LINE
  5
97
330
1F
100
AcDbEntity
  8
0
  6
Continuous
 62
     7
370
    25
100
AcDbLine
 10
7.5854529113
 20
40.4816910428
 30
0.0
 11
7.5689078723
 21
40.4651460038
 31
0.0
  0
LINE
  5
98
330
1F
100
AcDbEntity
  8
0
  6
Continuous
 62
     7
370
    25
100
AcDbLine
 10
7.5689078723
 20
40.3383460038
 30
0.0
 11
7.5854529113
 21
40.3218009648
 31
0.0
  0
LINE
  5
99
330
1F
100
AcDbEntity
  8
0
  6
Continuous
 62
     7
370
    25
100
AcDbLine
 10
7.5854529113
 20
40.3218009648
 30
0.0
 11
7.5970378723
 21
40.3383460038
 31
0.0
  0
LINE
  5
9A
330
1F
100
AcDbEntity
  8
0
  6
Continuous
 62
     7
370
    25
100
AcDbLine
 10
7.5970378723
 20
40.4651460038
 30
0.0
 11
7.5854529113
 21
40.4816910428
 31
0.0
  0
LINE
  5
9B
330
1F
100
AcDbEntity
  8
0
  6
Continuous
 62
     7
370
    25
100
AcDbLine
 10
7.6034078723
 20
35.0554256602
 30
0.0
 11
7.7564078723
 21
35.0554256602
 31
0.0
  0
LINE
  5
9C
330
1F
100
AcDbEntity
  8
0
  6
Continuous
 62
     7
370
    25
100
AcDbLine
 10
7.7564078723
 20
41.5054256602
 30
0.0
 11
7.6034078723
 21
41.5054256602
 31
0.0
  0
ARC
  5
9D
330
1F
100
AcDbEntity
  8
0
  6
Continuous
 62
     7
370
    25
100
AcDbCircle
 10
7.7564078723
 20
35.1804256602
 30
0.0
 40
0.125
100
AcDbArc
 50
270.0
 51
0.0
  0
ARC
  5
9E
330
1F
100
AcDbEntity
  8
0
  6
Continuous
 62
     7
370
    25
100
AcDbCircle
 10
7.7564078723
 20
41.3804256602
 30
0.0
 40
0.125
100
AcDbArc
 50
0.0
 51
90.0
  0
ARC
  5
9F
330
1F
100
AcDbEntity
  8
0
  6
Continuous
 62
     7
370
    25
100
AcDbCircle
 10
7.9414078723
 20
35.4204256602
 30
0.0
 40
0.0600000000000014
100
AcDbArc
 50
90.0
 51
180.0
  0
ARC
  5
A0
330
1F
100
AcDbEntity
  8
0
  6
Continuous
 62
     7
370
    25
100
AcDbCircle
 10
7.9414078723
 20
41.1404256602
 30
0.0
 40
0.0600000000000014
100
AcDbArc
 50
180.0
 51
270.0
  0
LINE
  5
A1
330
1F
100
AcDbEntity
  8
0
  6
Continuous
 62
     7
370
    25
100
AcDbLine
 10
7.9414078723
 20
35.4804256602
 30
0.0
 11
8.6314078723
 21
35.4804256602
 31
0.0
  0
LINE
  5
A2
330
1F
100
AcDbEntity
  8
0
  6
Continuous
 62
     7
370
    25
100
AcDbLine
 10
8.6314078723
 20
41.0804256602
 30
0.0
 11
7.9414078723
 21
41.0804256602
 31
0.0
  0
ARC
  5
A3
330
1F
100
AcDbEntity
  8
0
  6
Continuous
 62
     7
370
    25
100
AcDbCircle
 10
8.6314078723
 20
36.7304256602
 30
0.0
 40
1.25
100
AcDbArc
 50
270.0
 51
0.0
  0
ARC
  5
A4
330
1F
100
AcDbEntity
  8
0
  6
Continuous
 62
     7
370
    25
100
AcDbCircle
 10
8.6314078723
 20
39.8304256602
 30
0.0
 40
1.250000000000007
100
AcDbArc
 50
0.0
 51
90.0
  0
LINE
  5
A5
330
1F
100
AcDbEntity
  8
0
  6
Continuous
 62
     7
370
    25
100
AcDbLine
 10
25.9239231593
 20
28.4187778912
 30
0.0
 11
25.7530137543
 21
28.2478684863
 31
0.0
  0
LINE
  5
A6
330
1F
100
AcDbEntity
  8
0
  6
Continuous
 62
     7
370
    25
100
AcDbLine
 10
26.9336716428
 20
29.4285263748
 30
0.0
 11
26.0194372356
 21
28.5142919675
 31
0.0
  0
LINE
  5
A7
330
1F
100
AcDbEntity
  8
0
  6
Continuous
 62
     7
370
    25
100
AcDbLine
 10
27.1584906693
 20
29.6533454013
 30
0.0
 11
27.0291857192
 21
29.5240404511
 31
0.0
  0
LINE
  5
A8
330
1F
100
AcDbEntity
  8
0
  6
Continuous
 62
     7
370
    25
100
AcDbLine
 10
25.7548837087
 20
25.9869967408
 30
0.0
 11
28.2898615192
 21
28.5219745514
 31
0.0
  0
LINE
  5
A9
330
1F
100
AcDbEntity
  8
0
  6
Continuous
 62
     7
370
    25
100
AcDbLine
 10
29.564100534
 20
31.6276201294
 30
0.0
 11
29.4884075134
 21
31.5519271088
 31
0.0
  0
LINE
  5
AA
330
1F
100
AcDbEntity
  8
0
  6
Continuous
 62
     7
370
    25
100
AcDbLine
 10
30.177836625
 20
32.2413562204
 30
0.0
 11
29.6596315141
 21
31.7231511095
 31
0.0
  0
LINE
  5
AB
330
1F
100
AcDbEntity
  8
0
  6
Continuous
 62
     7
370
    25
100
AcDbLine
 10
30.1884432267
 20
30.8518913954
 30
0.0
 11
30.8778723384
 21
31.541320507
 31
0.0
  0
LINE
  5
AC
330
1F
100
AcDbEntity
  8
0
  6
Continuous
 62
     7
370
    25
100
AcDbLine
 10
29.4884075134
 20
31.5519271088
 30
0.0
 11
29.025181861
 21
31.0887014564
 31
0.0
  0
LINE
  5
AD
330
1F
100
AcDbEntity
  8
0
  6
Continuous
 62
     7
370
    25
100
AcDbLine
 10
29.7252175744
 20
30.388665743
 30
0.0
 11
30.1884432267
 21
30.8518913954
 31
0.0
  0
ARC
  5
AE
330
1F
100
AcDbEntity
  8
0
  6
Continuous
 62
     7
370
    25
100
AcDbCircle
 10
29.3752704284
 20
30.738612889
 30
0.0
 40
0.4949000000000055
100
AcDbArc
 50
225.0
 51
315.0
  0
ARC
  5
AF
330
1F
100
AcDbEntity
  8
0
  6
Continuous
 62
     7
370
    25
100
AcDbCircle
 10
29.375129007
 20
30.7387543104
 30
0.0
 40
0.4949000000000005
100
AcDbArc
 50
135.0
 51
225.0
  0
LINE
  5
B0
330
1F
100
AcDbEntity
  8
0
  6
Continuous
 62
     7
370
    25
100
AcDbLine
 10
28.413605206
 20
30.9084599379
 30
0.0
 11
27.1655617372
 21
29.6604164691
 31
0.0
  0
LINE
  5
B1
330
1F
100
AcDbEntity
  8
0
  6
Continuous
 62
     7
370
    25
100
AcDbLine
 10
28.2969325871
 20
28.5290456192
 30
0.0
 11
29.5449760559
 21
29.777089088
 31
0.0
  0
ARC
  5
B2
330
1F
100
AcDbEntity
  8
0
  6
Continuous
 62
     7
370
    25
100
AcDbCircle
 10
28.2898615192
 20
28.536116687
 30
0.0
 40
0.010000000000001
100
AcDbArc
 50
225.0
 51
315.0
  0
ARC
  5
B3
330
1F
100
AcDbEntity
  8
0
  6
Continuous
 62
     7
370
    25
100
AcDbCircle
 10
27.172632805
 20
29.6533454013
 30
0.0
 40
0.010000000000001
100
AcDbArc
 50
135.0
 51
225.0
  0
LINE
  5
B4
330
1F
100
AcDbEntity
  8
0
  6
Continuous
 62
     7
370
    25
100
AcDbLine
 10
29.5449760559
 20
29.777089088
 30
0.0
 11
29.5449760559
 21
29.8195154948
 31
0.0
  0
LINE
  5
B5
330
1F
100
AcDbEntity
  8
0
  6
Continuous
 62
     7
370
    25
100
AcDbLine
 10
28.4560316128
 20
30.9084599379
 30
0.0
 11
28.413605206
 21
30.9084599379
 31
0.0
  0
LINE
  5
B6
330
1F
100
AcDbEntity
  8
0
  6
Continuous
 62
     7
370
    25
100
AcDbLine
 10
30.8814078723
 20
31.5377849731
 30
0.0
 11
33.0027282159
 21
33.6591053167
 31
0.0
  0
LINE
  5
B7
330
1F
100
AcDbEntity
  8
0
  6
Continuous
 62
     7
370
    25
100
AcDbLine
 10
32.2956214347
 20
34.3662120979
 30
0.0
 11
30.1743010911
 21
32.2448917543
 31
0.0
  0
LINE
  5
B8
330
1F
100
AcDbEntity
  8
0
  6
Continuous
 62
     7
370
    25
100
AcDbLine
 10
15.8814078723
 20
37.7804256602
 30
0.0
 11
30.8814078723
 21
37.7804256602
 31
0.0
  0
LINE
  5
B9
330
1F
100
AcDbEntity
  8
0
  6
Continuous
 62
     7
370
    25
100
AcDbLine
 10
30.8814078723
 20
38.7804256602
 30
0.0
 11
15.8814078723
 21
38.7804256602
 31
0.0
  0
ARC
  5
BA
330
1F
100
AcDbEntity
  8
0
  6
Continuous
 62
     7
370
    25
100
AcDbCircle
 10
30.8814078723
 20
35.7804256602
 30
0.0
 40
2.000000000000004
100
AcDbArc
 50
0.0
 51
90.0
  0
ARC
  5
BB
330
1F
100
AcDbEntity
  8
0
  6
Continuous
 62
     7
370
    25
100
AcDbCircle
 10
30.8814078723
 20
35.7804256602
 30
0.0
 40
2.000000000000004
100
AcDbArc
 50
315.0
 51
0.0
  0
ARC
  5
BC
330
1F
100
AcDbEntity
  8
0
  6
Continuous
 62
     7
370
    25
100
AcDbCircle
 10
30.8814078723
 20
35.7804256602
 30
0.0
 40
3.000000000000007
100
AcDbArc
 50
315.0
 51
90.0
  0
LINE
  5
BD
330
1F
100
AcDbEntity
  8
0
  6
Continuous
 62
     7
370
    25
100
AcDbLine
 10
9.8814078723
 20
38.6806613617
 30
0.0
 11
9.8789237709
 21
38.6849576408
 31
0.0
  0
LINE
  5
BE
330
1F
100
AcDbEntity
  8
0
  6
Continuous
 62
     7
370
    25
100
AcDbLine
 10
9.8814078723
 20
37.7804256602
 30
0.0
 11
15.8814078723
 21
37.7804256602
 31
0.0
  0
LINE
  5
BF
330
1F
100
AcDbEntity
  8
0
  6
Continuous
 62
     7
370
    25
100
AcDbLine
 10
15.8814078723
 20
38.7804256602
 30
0.0
 11
9.8814078723
 21
38.7804256602
 31
0.0
  0
LINE
  5
C0
330
1F
100
AcDbEntity
  8
0
  6
Continuous
 62
     7
370
    25
100
AcDbLine
 10
16.1629078723
 20
38.3321843419
 30
0.0
 11
16.1629078723
 21
38.2289879966
 31
0.0
  0
LINE
  5
C1
330
1F
100
AcDbEntity
  8
0
  6
Continuous
 62
     7
370
    25
100
AcDbLine
 10
7.8814078723
 20
36.1761311098
 30
0.0
 11
7.8814078723
 21
36.0031053167
 31
0.0
  0
LINE
  5
C2
330
1F
100
AcDbEntity
  8
0
  6
Continuous
 62
     7
370
    25
100
AcDbLine
 10
7.8964078723
 20
36.3151053167
 30
0.0
 11
7.8964078723
 21
36.0031053167
 31
0.0
  0
LINE
  5
C3
330
1F
100
AcDbEntity
  8
0
  6
Continuous
 62
     7
370
    25
100
AcDbLine
 10
7.9684078723
 20
36.2371053167
 30
0.0
 11
7.9684078723
 21
36.0811053167
 31
0.0
  0
LINE
  5
C4
330
1F
100
AcDbEntity
  8
0
  6
Continuous
 62
     7
370
    25
100
AcDbLine
 10
7.5970378723
 20
36.2225053167
 30
0.0
 11
7.5970378723
 21
36.0957053167
 31
0.0
  0
LINE
  5
C5
330
1F
100
AcDbEntity
  8
0
  6
Continuous
 62
     7
370
    25
100
AcDbLine
 10
7.5689078723
 20
36.2225053167
 30
0.0
 11
7.5689078723
 21
36.0957053167
 31
0.0
  0
LINE
  5
C6
330
1F
100
AcDbEntity
  8
0
  6
Continuous
 62
     7
370
    25
100
AcDbLine
 10
7.5854529113
 20
36.0791602777
 30
0.0
 11
7.5854529113
 21
36.2390503557
 31
0.0
  0
LINE
  5
C7
330
1F
100
AcDbEntity
  8
0
  6
Continuous
 62
     7
370
    25
100
AcDbLine
 10
7.8814078723
 20
40.5577460038
 30
0.0
 11
7.8814078723
 21
40.3847202107
 31
0.0
  0
LINE
  5
C8
330
1F
100
AcDbEntity
  8
0
  6
Continuous
 62
     7
370
    25
100
AcDbLine
 10
7.8964078723
 20
40.5577460038
 30
0.0
 11
7.8964078723
 21
40.2457460038
 31
0.0
  0
LINE
  5
C9
330
1F
100
AcDbEntity
  8
0
  6
Continuous
 62
     7
370
    25
100
AcDbLine
 10
7.9684078723
 20
40.4797460038
 30
0.0
 11
7.9684078723
 21
40.3237460038
 31
0.0
  0
LINE
  5
CA
330
1F
100
AcDbEntity
  8
0
  6
Continuous
 62
     7
370
    25
100
AcDbLine
 10
7.5970378723
 20
40.4651460038
 30
0.0
 11
7.5970378723
 21
40.3383460038
 31
0.0
  0
LINE
  5
CB
330
1F
100
AcDbEntity
  8
0
  6
Continuous
 62
     7
370
    25
100
AcDbLine
 10
7.5689078723
 20
40.4651460038
 30
0.0
 11
7.5689078723
 21
40.3383460038
 31
0.0
  0
LINE
  5
CC
330
1F
100
AcDbEntity
  8
0
  6
Continuous
 62
     7
370
    25
100
AcDbLine
 10
7.5854529113
 20
40.3218009648
 30
0.0
 11
7.5854529113
 21
40.4816910428
 31
0.0
  0
LINE
  5
CD
330
1F
100
AcDbEntity
  8
0
  6
Continuous
 62
     7
370
    25
100
AcDbLine
 10
7.6034078723
 20
40.5608450296
 30
0.0
 11
7.6034078723
 21
41.5054256602
 31
0.0
  0
LINE
  5
CE
330
1F
100
AcDbEntity
  8
0
  6
Continuous
 62
     7
370
    25
100
AcDbLine
 10
7.6034078723
 20
35.0554256602
 30
0.0
 11
7.6034078723
 21
40.5608450296
 31
0.0
  0
LINE
  5
CF
330
1F
100
AcDbEntity
  8
0
  6
Continuous
 62
     7
370
    25
100
AcDbLine
 10
7.8814078723
 20
40.5577460038
 30
0.0
 11
7.8814078723
 21
41.3804256602
 31
0.0
  0
LINE
  5
D0
330
1F
100
AcDbEntity
  8
0
  6
Continuous
 62
     7
370
    25
100
AcDbLine
 10
7.8814078723
 20
35.1804256602
 30
0.0
 11
7.8814078723
 21
36.0031053167
 31
0.0
  0
LINE
  5
D1
330
1F
100
AcDbEntity
  8
0
  6
Continuous
 62
     7
370
    25
100
AcDbLine
 10
7.8814078723
 20
36.1761311098
 30
0.0
 11
7.8814078723
 21
40.3847202107
 31
0.0
  0
LINE
  5
D2
330
1F
100
AcDbEntity
  8
0
  6
Continuous
 62
     7
370
    25
100
AcDbLine
 10
9.8814078723
 20
39.3764411711
 30
0.0
 11
9.8814078723
 21
39.8304256602
 31
0.0
  0
LINE
  5
D3
330
1F
100
AcDbEntity
  8
0
  6
Continuous
 62
     7
370
    25
100
AcDbLine
 10
9.8814078723
 20
36.7304256602
 30
0.0
 11
9.8814078723
 21
39.3764411711
 31
0.0
  0
LINE
  5
D4
330
1F
100
AcDbEntity
  8
0
  6
Continuous
 62
     7
370
    25
100
AcDbLine
 10
25.7548837087
 20
25.9869967408
 30
0.0
 11
25.7530137543
 21
25.9888666952
 31
0.0
  0
LINE
  5
D5
330
1F
100
AcDbEntity
  8
0
  6
Continuous
 62
     7
370
    25
100
AcDbLine
 10
25.7530137543
 20
25.9888666952
 30
0.0
 11
25.7530137543
 21
28.2478684863
 31
0.0
  0
LINE
  5
D6
330
1F
100
AcDbEntity
  8
0
  6
Continuous
 62
     7
370
    25
100
AcDbLine
 10
28.2898615192
 20
28.5219745514
 30
0.0
 11
27.1584906693
 21
29.6533454013
 31
0.0
  0
SPLINE
  5
D7
330
1F
100
AcDbEntity
  8
0
  6
Continuous
 62
     7
370
    25
100
AcDbSpline
210
0.0
220
0.0
230
1.0
 70
     8
 71
     3
 72
    17
 73
    13
 74
     0
 42
0.00000001
 43
0.00000001
 40
0.0
 40
0.0
 40
0.0
 40
0.0
 40
0.0365084236735815
 40
0.1434748235455459
 40
0.2505814071320603
 40
0.3580254383720957
 40
0.4654797859175579
 40
0.5725979205822538
 40
0.6795589444511533
 40
0.7867860992820408
 40
0.8942879081566346
 40
1.0
 40
1.0
 40
1.0
 40
1.0
 10
26.01948873553767
 20
28.51424046763884
 30
0.0
 10
26.01964282141173
 20
28.51442285190269
 30
0.0
 10
26.02024836504705
 20
28.51513960566636
 30
0.0
 10
26.01619680616042
 20
28.51033656122907
 30
0.0
 10
26.00763620988756
 20
28.50044855730242
 30
0.0
 10
25.99482742282454
 20
28.48624821208082
 30
0.0
 10
25.97940802687839
 20
28.47006020638015
 30
0.0
 10
25.96291934846335
 20
28.45374350065565
 30
0.0
 10
25.94723645855469
 20
28.43910410166029
 30
0.0
 10
25.93439423088904
 20
28.42769774013722
 30
0.0
 10
25.92556564628
 20
28.4201498680371
 30
0.0
 10
25.92446984619043
 20
28.41923038684861
 30
0.0
 10
25.92392654521745
 20
28.41877450531594
 30
0.0
  0
SPLINE
  5
D8
330
1F
100
AcDbEntity
  8
0
  6
Continuous
 62
     7
370
    25
100
AcDbSpline
210
0.0
220
0.0
230
1.0
 70
     8
 71
     3
 72
    17
 73
    13
 74
     0
 42
0.00000001
 43
0.00000001
 40
0.0
 40
0.0
 40
0.0
 40
0.0
 40
0.0365084236735795
 40
0.1434748235455467
 40
0.2505814071320603
 40
0.3580254383720968
 40
0.4654797859175661
 40
0.5725979205822471
 40
0.6795589444511504
 40
0.7867860992820267
 40
0.8942879081566346
 40
1.0
 40
1.0
 40
1.0
 40
1.0
 10
27.02923721907206
 20
29.52398895117323
 30
0.0
 10
27.02939130494612
 20
29.52417133543709
 30
0.0
 10
27.02999684858143
 20
29.52488808920076
 30
0.0
 10
27.02594528969481
 20
29.52008504476346
 30
0.0
 10
27.01738469342195
 20
29.51019704083682
 30
0.0
 10
27.00457590635894
 20
29.49599669561522
 30
0.0
 10
26.98915651041277
 20
29.47980868991454
 30
0.0
 10
26.97266783199774
 20
29.46349198419004
 30
0.0
 10
26.95698494208908
 20
29.44885258519468
 30
0.0
 10
26.94414271442344
 20
29.4374462236716
 30
0.0
 10
26.93531412981438
 20
29.4298983515715
 30
0.0
 10
26.93421832972481
 20
29.42897887038301
 30
0.0
 10
26.93367502875184
 20
29.42852298885033
 30
0.0
  0
SPLINE
  5
D9
330
1F
100
AcDbEntity
  8
0
  6
Continuous
 62
     7
370
    25
100
AcDbSpline
210
0.0
220
0.0
230
1.0
 70
    11
 71
     3
 72
    26
 73
    22
 74
     0
 42
0.00000001
 43
0.00000001
 40
0.0
 40
0.0
 40
0.0
 40
0.0
 40
0.0535564828348895
 40
0.1071082711636936
 40
0.1607818162352111
 40
0.2145352797903754
 40
0.2681567907943645
 40
0.3216411016456219
 40
0.3751955058100431
 40
0.4289186373058486
 40
0.4826469270615138
 40
0.5362071068849956
 40
0.5896887296788856
 40
0.6433034207177145
 40
0.6970554416308581
 40
0.7507351198247817
 40
0.8042463682269874
 40
0.8577550645061989
 40
0.9114304564221641
 40
0.9651836128791458
 40
1.0
 40
1.0
 40
1.0
 40
1.0
 10
27.78757716428199
 20
28.67070551574123
 30
0.0
 10
27.79345508141111
 20
28.67561955564651
 30
0.0
 10
27.80521040043915
 20
28.68544720471573
 30
0.0
 10
27.82705222815789
 20
28.69234501905293
 30
0.0
 10
27.84890308955812
 20
28.69239450633298
 30
0.0
 10
27.86863344021585
 20
28.68522992441176
 30
0.0
 10
27.8837777164587
 20
28.67186913583458
 30
0.0
 10
27.89266104823511
 20
28.65383492711694
 30
0.0
 10
27.89437643427918
 20
28.63308019996781
 30
0.0
 10
27.88882470434108
 20
28.61178081196255
 30
0.0
 10
27.87671513739916
 20
28.59224372551441
 30
0.0
 10
27.8595077236536
 20
28.57664467442942
 30
0.0
 10
27.83914554510785
 20
28.56672795664157
 30
0.0
 10
27.81778866929677
 20
28.56366324532894
 30
0.0
 10
27.79769915485311
 20
28.56794236171723
 30
0.0
 10
27.78107902813489
 20
28.57920092841682
 30
0.0
 10
27.76978256359148
 20
28.59616163306011
 30
0.0
 10
27.76505802363815
 20
28.61689985088727
 30
0.0
 10
27.76762004203599
 20
28.63893245376429
 30
0.0
 10
27.77591670055692
 20
28.65758241037529
 30
0.0
 10
27.78428687650962
 20
28.66700250751282
 30
0.0
 10
27.78757716428199
 20
28.67070551574123
 30
0.0
  0
LINE
  5
DA
330
1F
100
AcDbEntity
  8
0
  6
Continuous
 62
     7
370
    25
100
AcDbLine
 10
29.83842537
 20
31.2019092521
 30
0.0
 11
29.4884075134
 21
31.5519271088
 31
0.0
  0
LINE
  5
DB
330
1F
100
AcDbEntity
  8
0
  6
Continuous
 62
     7
370
    25
100
AcDbLine
 10
30.1884432267
 20
30.8518913954
 30
0.0
 11
29.83842537
 21
31.2019092521
 31
0.0
  0
SPLINE
  5
DC
330
1F
100
AcDbEntity
  8
0
  6
Continuous
 62
     7
370
    25
100
AcDbSpline
210
0.0
220
0.0
230
1.0
 70
     8
 71
     3
 72
    18
 73
    14
 74
     0
 42
0.00000001
 43
0.00000001
 40
0.0
 40
0.0
 40
0.0
 40
0.0
 40
0.0355919054510813
 40
0.1419025306222475
 40
0.2485625961004321
 40
0.3560999181054659
 40
0.4636896469577048
 40
0.5704025898238235
 40
0.6766836078946051
 40
0.7836444514933611
 40
0.8913400670886176
 40
0.9986845231648714
 40
1.0
 40
1.0
 40
1.0
 40
1.0
 10
29.65971357277944
 20
31.72306905091235
 30
0.0
 10
29.65985843711903
 20
31.7232594892918
 30
0.0
 10
29.66043600148718
 20
31.72401875428837
 30
0.0
 10
29.65667572350437
 20
31.71906243409124
 30
0.0
 10
29.64862961486086
 20
31.70888601480976
 30
0.0
 10
29.63633431933244
 20
31.6943258578743
 30
0.0
 10
29.62120078033879
 20
31.67791697867509
 30
0.0
 10
29.60468240535287
 20
31.66165335709166
 30
0.0
 10
29.5887770858116
 20
31.64739389671974
 30
0.0
 10
29.57517938139951
 20
31.6361725573231
 30
0.0
 10
29.56671824637626
 20
31.62958771109444
 30
0.0
 10
29.56307603344368
 20
31.62682965925971
 30
0.0
 10
29.56409258723082
 20
31.62760636637202
 30
0.0
 10
29.56410489400226
 20
31.627615769472
 30
0.0
  0
SPLINE
  5
DD
330
1F
100
AcDbEntity
  8
0
  6
Continuous
 62
     7
370
    25
100
AcDbSpline
210
0.0
220
0.0
230
1.0
 70
     8
 71
     3
 72
    18
 73
    14
 74
     0
 42
0.00000001
 43
0.00000001
 40
0.0
 40
0.0
 40
0.0
 40
0.0
 40
0.0355944504161282
 40
0.1419066884880159
 40
0.2485683721684829
 40
0.3561073256851761
 40
0.4636986868441469
 40
0.5704132487147813
 40
0.676695879237103
 40
0.7836583456014237
 40
0.8913555951098902
 40
0.9987016797717064
 40
1.0
 40
1.0
 40
1.0
 40
1.0
 10
30.0102523178744
 20
31.37373619989426
 30
0.0
 10
30.01197715125107
 20
31.37188868907279
 30
0.0
 10
30.01885365558855
 20
31.36452309866314
 30
0.0
 10
30.02747482376686
 20
31.34866655846835
 30
0.0
 10
30.03146673365077
 20
31.32593943409877
 30
0.0
 10
30.02767365000694
 20
31.30301702715535
 30
0.0
 10
30.01648817259757
 20
31.28261760139923
 30
0.0
 10
29.99923485407882
 20
31.26711842331943
 30
0.0
 10
29.97792628121916
 20
31.25818660375426
 30
0.0
 10
29.95482054402459
 20
31.25674847634444
 30
0.0
 10
29.93245759190939
 20
31.26303382565039
 30
0.0
 10
29.91961010867034
 20
31.27206011479927
 30
0.0
 10
29.91415103257667
 20
31.27750461489504
 30
0.0
 10
29.91408579563303
 20
31.27756967765289
 30
0.0
  0
SPLINE
  5
DE
330
1F
100
AcDbEntity
  8
0
  6
Continuous
 62
     7
370
    25
100
AcDbSpline
210
0.0
220
0.0
230
1.0
 70
     8
 71
     3
 72
    17
 73
    13
 74
     0
 42
0.00000001
 43
0.00000001
 40
0.0
 40
0.0
 40
0.0
 40
0.0
 40
0.1051616269070496
 40
0.2115559451632837
 40
0.3187997045662205
 40
0.42649134212254
 40
0.5000066286076503
 40
0.606660786055057
 40
0.7132904524995236
 40
0.8205546495933209
 40
0.9282413136661779
 40
1.0
 40
1.0
 40
1.0
 40
1.0
 10
29.91408579563303
 20
31.27756967765289
 30
0.0
 10
29.90929526239249
 20
31.28338380078109
 30
0.0
 10
29.89965804188397
 20
31.29508019945671
 30
0.0
 10
29.89344445761632
 20
31.31745816091534
 30
0.0
 10
29.89446282281026
 20
31.34052482139389
 30
0.0
 10
29.90233699316265
 20
31.35988117797699
 30
0.0
 10
29.91511931876872
 20
31.37601664231265
 30
0.0
 10
29.93204212929816
 20
31.38804912729792
 30
0.0
 10
29.95428265763802
 20
31.39450094032352
 30
0.0
 10
29.97737880264891
 20
31.39320478197
 30
0.0
 10
29.99677797596204
 20
31.38552067109078
 30
0.0
 10
30.00640325124558
 20
31.37710253979538
 30
0.0
 10
30.0102523178744
 20
31.37373619989426
 30
0.0
  0
LINE
  5
DF
330
1F
100
AcDbEntity
  8
0
  6
Continuous
 62
     7
370
    25
100
AcDbLine
 10
30.7250674171
 20
31.9769681408
 30
0.0
 11
30.6129878113
 21
32.0890477466
 31
0.0
  0
LINE
  5
E0
330
1F
100
AcDbEntity
  8
0
  6
Continuous
 62
     7
370
    25
100
AcDbLine
 10
30.6998954975
 20
31.9667847214
 30
0.0
 11
30.6026311686
 21
32.0640490503
 31
0.0
  0
LINE
  5
E1
330
1F
100
AcDbEntity
  8
0
  6
Continuous
 62
     7
370
    25
100
AcDbLine
 10
30.7578585475
 20
32.0148876885
 30
0.0
 11
30.6515092035
 21
32.1212370325
 31
0.0
  0
LINE
  5
E2
330
1F
100
AcDbEntity
  8
0
  6
Continuous
 62
     7
370
    25
100
AcDbLine
 10
30.744387121
 20
31.9930037759
 30
0.0
 11
30.6293477327
 21
32.1080431643
 31
0.0
  0
LINE
  5
E3
330
1F
100
AcDbEntity
  8
0
  6
Continuous
 62
     7
370
    25
100
AcDbLine
 10
30.665148846
 20
31.9661760338
 30
0.0
 11
30.6037960914
 21
32.0275287884
 31
0.0
  0
LINE
  5
E4
330
1F
100
AcDbEntity
  8
0
  6
Continuous
 62
     7
370
    25
100
AcDbLine
 10
30.7639180689
 20
32.0441835062
 30
0.0
 11
30.68025558
 21
32.1278459951
 31
0.0
  0
SPLINE
  5
E5
330
1F
100
AcDbEntity
  8
0
  6
Continuous
 62
     7
370
    25
100
AcDbSpline
210
0.0
220
0.0
230
1.0
 70
     8
 71
     3
 72
    26
 73
    22
 74
     0
 42
0.00000001
 43
0.00000001
 40
0.0
 40
0.0
 40
0.0
 40
0.0
 40
0.0504687417288017
 40
0.1009445062268003
 40
0.1513301542932027
 40
0.2017273923175639
 40
0.2538204835606135
 40
0.3059130597576879
 40
0.3596512755081204
 40
0.413375613913169
 40
0.4654997910368445
 40
0.5176184291593352
 40
0.5675497389404259
 40
0.6174893098938268
 40
0.6677911708587265
 40
0.718102319985917
 40
0.7707315033152173
 40
0.8233571659837434
 40
0.8770404608837121
 40
0.9307077128646303
 40
1.0
 40
1.0
 40
1.0
 40
1.0
 10
29.49110914353698
 20
30.6227741738644
 30
0.0
 10
29.49730153831631
 20
30.62918196100344
 30
0.0
 10
29.50968718955209
 20
30.64199842693066
 30
0.0
 10
29.52402121126148
 20
30.6646172005713
 30
0.0
 10
29.53462654975295
 20
30.68895371597756
 30
0.0
 10
29.54124596553614
 20
30.71486464734228
 30
0.0
 10
29.54353042356903
 20
30.74172706976615
 30
0.0
 10
29.54138761422154
 20
30.76919457892921
 30
0.0
 10
29.53448947032225
 20
30.7962653685141
 30
0.0
 10
29.52309773582496
 20
30.82193019732364
 30
0.0
 10
29.50752697534238
 20
30.84509640948274
 30
0.0
 10
29.4887976051849
 20
30.86495868714625
 30
0.0
 10
29.46734435295528
 20
30.88114043839821
 30
0.0
 10
29.44398530231896
 20
30.89356649895447
 30
0.0
 10
29.4189683484708
 20
30.90199719375282
 30
0.0
 10
29.39257876118274
 20
30.90646114211447
 30
0.0
 10
29.36545396627423
 20
30.90648399741252
 30
0.0
 10
29.33805592577424
 20
30.90198978784794
 30
0.0
 10
29.31162398879495
 20
30.89268212813992
 30
0.0
 10
29.28412090225904
 20
30.87786335905238
 30
0.0
 10
29.26823985461403
 20
30.8629802261455
 30
0.0
 10
29.25929029184453
 20
30.85459302555685
 30
0.0
  0
LINE
  5
E6
330
1F
100
AcDbEntity
  8
0
  6
Continuous
 62
     7
370
    25
100
AcDbLine
 10
29.0253232824
 20
30.388665743
 30
0.0
 11
29.025181861
 21
30.3888071644
 31
0.0
  0
SPLINE
  5
E7
330
1F
100
AcDbEntity
  8
0
  6
Continuous
 62
     7
370
    25
100
AcDbSpline
210
0.0
220
0.0
230
1.0
 70
     8
 71
     3
 72
    26
 73
    22
 74
     0
 42
0.00000001
 43
0.00000001
 40
0.0
 40
0.0
 40
0.0
 40
0.0
 40
0.0547738368222111
 40
0.1095476674174244
 40
0.1643293601338544
 40
0.2191110393583812
 40
0.2738911370806856
 40
0.3286712199630178
 40
0.3834481955473173
 40
0.4382251613161517
 40
0.4929993730666531
 40
0.547773584177198
 40
0.6025465687528211
 40
0.6573195621301954
 40
0.7120933737501715
 40
0.7668671998942621
 40
0.8216435442966948
 40
0.8764199027259382
 40
0.9311994089023391
 40
0.9859789224803686
 40
1.0
 40
1.0
 40
1.0
 40
1.0
 10
29.49110914353698
 20
30.6227741738644
 30
0.0
 10
29.48407650919845
 20
30.61679622455213
 30
0.0
 10
29.4700112413209
 20
30.60484032660718
 30
0.0
 10
29.44550505752811
 20
30.59165423110409
 30
0.0
 10
29.41929871220537
 20
30.58258289626948
 30
0.0
 10
29.39190261230781
 20
30.57801846975008
 30
0.0
 10
29.36414380844552
 20
30.5781959204273
 30
0.0
 10
29.33678870130559
 20
30.58294070274759
 30
0.0
 10
29.31065247448321
 20
30.59230102584493
 30
0.0
 10
29.28641150789742
 20
30.60583145328209
 30
0.0
 10
29.26484771327962
 20
30.62331492965691
 30
0.0
 10
29.24645245472373
 20
30.64410553129265
 30
0.0
 10
29.23189154039887
 20
30.66774018390889
 30
0.0
 10
29.22141476408106
 20
30.69344707457395
 30
0.0
 10
29.21549745476879
 20
30.72056861621434
 30
0.0
 10
29.21411946586942
 20
30.74829482542423
 30
0.0
 10
29.2175138797759
 20
30.77584518690027
 30
0.0
 10
29.22538627121308
 20
30.80247103149676
 30
0.0
 10
29.23772635124254
 20
30.82732515272669
 30
0.0
 10
29.24989131144736
 20
30.8443176516616
 30
0.0
 10
29.25769911606947
 20
30.85285348303937
 30
0.0
 10
29.25929029184453
 20
30.85459302555685
 30
0.0
  0
LWPOLYLINE
  5
E8
330
1F
100
AcDbEntity
  8
0
  6
Continuous
 62
     7
370
    25
100
AcDbPolyline
 90
       28
 70
   128
 43
0.0
 10
27.7914176991
 20
28.666864981
 10
27.7821255752
 20
28.655479823
 10
27.7754274263
 20
28.6426154077
 10
27.7716843512
 20
28.6289652591
 10
27.7710981401
 20
28.6152652601
 10
27.7737003959
 20
28.6022539813
 10
27.7793508302
 20
28.5906328642
 10
27.7877448266
 20
28.581028406
 10
27.7984298626
 20
28.5739583857
 10
27.8108299053
 20
28.5698039499
 10
27.8242764649
 20
28.5687890653
 10
27.8380446342
 20
28.5709684445
 10
27.8513921674
 20
28.5762245967
 10
27.8635994956
 20
28.5842741614
 10
27.8740085186
 20
28.5946831844
 10
27.8820580833
 20
28.6068905126
 10
27.8873142355
 20
28.6202380458
 10
27.8894936147
 20
28.6340062151
 10
27.8884787301
 20
28.6474527748
 10
27.8843242943
 20
28.6598528174
 10
27.877254274
 20
28.6705378534
 10
27.8676498158
 20
28.6789318498
 10
27.8560286987
 20
28.6845822841
 10
27.8430174199
 20
28.6871845399
 10
27.829317421
 20
28.6865983288
 10
27.8156672723
 20
28.6828552538
 10
27.802802857
 20
28.6761571048
 10
27.7914176991
 20
28.666864981
  0
LINE
  5
E9
330
1F
100
AcDbEntity
  8
0
  6
Continuous
 62
     7
370
    25
100
AcDbLine
 10
27.8164535292
 20
28.5866748218
 30
0.0
 11
27.8578192759
 21
28.6004634041
 31
0.0
  0
LINE
  5
EA
330
1F
100
AcDbEntity
  8
0
  6
Continuous
 62
     7
370
    25
100
AcDbLine
 10
27.8716078582
 20
28.6418291508
 30
0.0
 11
27.8578192759
 21
28.6004634041
 31
0.0
  0
LINE
  5
EB
330
1F
100
AcDbEntity
  8
0
  6
Continuous
 62
     7
370
    25
100
AcDbLine
 10
27.8440306937
 20
28.6694063152
 30
0.0
 11
27.8716078582
 21
28.6418291508
 31
0.0
  0
LINE
  5
EC
330
1F
100
AcDbEntity
  8
0
  6
Continuous
 62
     7
370
    25
100
AcDbLine
 10
27.8440306937
 20
28.6694063152
 30
0.0
 11
27.802664947
 21
28.655617733
 31
0.0
  0
LINE
  5
ED
330
1F
100
AcDbEntity
  8
0
  6
Continuous
 62
     7
370
    25
100
AcDbLine
 10
27.7888763648
 20
28.6142519863
 30
0.0
 11
27.802664947
 21
28.655617733
 31
0.0
  0
LINE
  5
EE
330
1F
100
AcDbEntity
  8
0
  6
Continuous
 62
     7
370
    25
100
AcDbLine
 10
27.7888763648
 20
28.6142519863
 30
0.0
 11
27.8164535292
 21
28.5866748218
 31
0.0
  0
LINE
  5
EF
330
1F
100
AcDbEntity
  8
0
  6
Continuous
 62
     7
370
    25
100
AcDbLine
 10
27.7909976851
 20
28.6206159473
 30
0.0
 11
27.8259994708
 21
28.6322832092
 31
0.0
  0
LINE
  5
F0
330
1F
100
AcDbEntity
  8
0
  6
Continuous
 62
     7
370
    25
100
AcDbLine
 10
27.8259994708
 20
28.6322832092
 30
0.0
 11
27.8578192759
 21
28.6004634041
 31
0.0
  0
LINE
  5
F1
330
1F
100
AcDbEntity
  8
0
  6
Continuous
 62
     7
370
    25
100
AcDbLine
 10
27.8376667327
 20
28.6672849949
 30
0.0
 11
27.8259994708
 21
28.6322832092
 31
0.0
  0
LINE
  5
F2
330
1F
100
AcDbEntity
  8
0
  6
Continuous
 62
     7
370
    25
100
AcDbLine
 10
29.5673206301
 20
31.6308402255
 30
0.0
 11
29.65698177
 21
31.7205013654
 31
0.0
  0
CIRCLE
  5
F3
330
1F
100
AcDbEntity
  8
0
  6
Continuous
 62
     7
370
    25
100
AcDbCircle
 10
29.9621690568
 20
31.3256529388
 30
0.0
 40
0.0633999999999977
  0
LINE
  5
F4
330
1F
100
AcDbEntity
  8
0
  6
Continuous
 62
     7
370
    25
100
AcDbLine
 10
30.0057742576
 20
31.3144018739
 30
0.0
 11
29.9937153652
 21
31.357790618
 31
0.0
  0
LINE
  5
F5
330
1F
100
AcDbEntity
  8
0
  6
Continuous
 62
     7
370
    25
100
AcDbLine
 10
29.9501101643
 20
31.3690416829
 30
0.0
 11
29.9937153652
 21
31.357790618
 31
0.0
  0
LINE
  5
F6
330
1F
100
AcDbEntity
  8
0
  6
Continuous
 62
     7
370
    25
100
AcDbLine
 10
29.9185638559
 20
31.3369040036
 30
0.0
 11
29.9501101643
 21
31.3690416829
 31
0.0
  0
LINE
  5
F7
330
1F
100
AcDbEntity
  8
0
  6
Continuous
 62
     7
370
    25
100
AcDbLine
 10
29.9185638559
 20
31.3369040036
 30
0.0
 11
29.9306227484
 21
31.2935152595
 31
0.0
  0
LINE
  5
F8
330
1F
100
AcDbEntity
  8
0
  6
Continuous
 62
     7
370
    25
100
AcDbLine
 10
29.9742279492
 20
31.2822641947
 30
0.0
 11
29.9306227484
 21
31.2935152595
 31
0.0
  0
LINE
  5
F9
330
1F
100
AcDbEntity
  8
0
  6
Continuous
 62
     7
370
    25
100
AcDbLine
 10
29.9742279492
 20
31.2822641947
 30
0.0
 11
30.0057742576
 21
31.3144018739
 31
0.0
  0
LINE
  5
FA
330
1F
100
AcDbEntity
  8
0
  6
Continuous
 62
     7
370
    25
100
AcDbLine
 10
26.9368834041
 20
29.431738136
 30
0.0
 11
27.026544544
 21
29.5213992759
 31
0.0
  0
SPLINE
  5
FB
330
1F
100
AcDbEntity
  8
0
  6
Continuous
 62
     7
370
    25
100
AcDbSpline
210
0.0
220
0.0
230
1.0
 70
    24
 71
     3
 72
    11
 73
     7
 74
     0
 42
0.00000001
 43
0.00000001
 40
0.0
 40
0.0
 40
0.0
 40
0.0
 40
0.2164526223540021
 40
0.4403054153412689
 40
0.7518959130284782
 40
1.0
 40
1.0
 40
1.0
 40
1.0
 10
29.32559158934446
 20
30.81513386496191
 30
0.0
 10
29.32309287179041
 20
30.80948212823882
 30
0.0
 10
29.31801000950632
 20
30.79798543090988
 30
0.0
 10
29.30857751903722
 20
30.77665050544382
 30
0.0
 10
29.29845935539281
 20
30.75376468669805
 30
0.0
 10
29.29198429782354
 20
30.73911904554135
 30
0.0
 10
29.28911400339806
 20
30.73262685582415
 30
0.0
  0
ARC
  5
FC
330
1F
100
AcDbEntity
  8
0
  6
Continuous
 62
     7
370
    25
100
AcDbCircle
 10
29.3788059623
 20
30.7422898443
 30
0.0
 40
0.0902109795609036
100
AcDbArc
 50
126.1490596584
 51
186.1490596584
  0
ARC
  5
FD
330
1F
100
AcDbEntity
  8
0
  6
Continuous
 62
     7
370
    25
100
AcDbCircle
 10
29.3788059623
 20
30.7422898443
 30
0.0
 40
0.0902109795609036
100
AcDbArc
 50
66.1490596585
 51
126.1490596584
  0
SPLINE
  5
FE
330
1F
100
AcDbEntity
  8
0
  6
Continuous
 62
     7
370
    25
100
AcDbSpline
210
0.0
220
0.0
230
1.0
 70
    24
 71
     3
 72
    11
 73
     7
 74
     0
 42
0.00000001
 43
0.00000001
 40
0.0
 40
0.0
 40
0.0
 40
0.0
 40
0.2164526223537801
 40
0.4403054153406755
 40
0.7518959130275883
 40
1.0
 40
1.0
 40
1.0
 40
1.0
 10
29.41528354822124
 20
30.82479685343247
 30
0.0
 10
29.40913964186652
 20
30.82413493794961
 30
0.0
 10
29.39664177877801
 20
30.82278847714707
 30
0.0
 10
29.37344894610201
 20
30.82028979078152
 30
0.0
 10
29.34857016385958
 20
30.81760946816403
 30
0.0
 10
29.33264913777851
 20
30.81589421193169
 30
0.0
 10
29.32559158934446
 20
30.81513386496191
 30
0.0
  0
ARC
  5
FF
330
1F
100
AcDbEntity
  8
0
  6
Continuous
 62
     7
370
    25
100
AcDbCircle
 10
29.3788059623
 20
30.7422898443
 30
0.0
 40
0.0902109795608665
100
AcDbArc
 50
246.1490596584
 51
306.1490596585
  0
SPLINE
  5
100
330
1F
100
AcDbEntity
  8
0
  6
Continuous
 62
     7
370
    25
100
AcDbSpline
210
0.0
220
0.0
230
1.0
 70
    24
 71
     3
 72
    11
 73
     7
 74
     0
 42
0.00000001
 43
0.00000001
 40
0.0
 40
0.0
 40
0.0
 40
0.0
 40
0.2164526223537572
 40
0.4403054153410225
 40
0.7518959130281005
 40
1.0
 40
1.0
 40
1.0
 40
1.0
 10
29.34232837632844
 20
30.65978283515697
 30
0.0
 10
29.34847228268313
 20
30.66044475063987
 30
0.0
 10
29.36097014577161
 20
30.66179121144247
 30
0.0
 10
29.3841629784477
 20
30.66428989780786
 30
0.0
 10
29.4090417606901
 20
30.66697022042537
 30
0.0
 10
29.42496278677115
 20
30.66868547665776
 30
0.0
 10
29.43202033520519
 20
30.66944582362756
 30
0.0
  0
ARC
  5
101
330
1F
100
AcDbEntity
  8
0
  6
Continuous
 62
     7
370
    25
100
AcDbCircle
 10
29.3788059623
 20
30.7422898443
 30
0.0
 40
0.0902109795608696
100
AcDbArc
 50
306.1490596585
 51
6.1490596584
  0
SPLINE
  5
102
330
1F
100
AcDbEntity
  8
0
  6
Continuous
 62
     7
370
    25
100
AcDbSpline
210
0.0
220
0.0
230
1.0
 70
    24
 71
     3
 72
    11
 73
     7
 74
     0
 42
0.00000001
 43
0.00000001
 40
0.0
 40
0.0
 40
0.0
 40
0.0
 40
0.216452622353476
 40
0.440305415340275
 40
0.7518959130279479
 40
1.0
 40
1.0
 40
1.0
 40
1.0
 10
29.43202033520519
 20
30.66944582362756
 30
0.0
 10
29.43451905275921
 20
30.67509756035064
 30
0.0
 10
29.43960191504325
 20
30.68659425767955
 30
0.0
 10
29.44903440551263
 20
30.70792918314548
 30
0.0
 10
29.45915256915688
 20
30.73081500189132
 30
0.0
 10
29.46562762672615
 20
30.74546064304804
 30
0.0
 10
29.4684979211516
 20
30.75195283276526
 30
0.0
  0
SPLINE
  5
103
330
1F
100
AcDbEntity
  8
0
  6
Continuous
 62
     7
370
    25
100
AcDbSpline
210
0.0
220
0.0
230
1.0
 70
    24
 71
     3
 72
    12
 73
     8
 74
     0
 42
0.00000001
 43
0.00000001
 40
0.0
 40
0.0
 40
0.0
 40
0.0
 40
0.1751826627112382
 40
0.4922436022067259
 40
0.6558551807040576
 40
0.8197780239870416
 40
1.0
 40
1.0
 40
1.0
 40
1.0
 10
29.4684979211516
 20
30.75195283276526
 30
0.0
 10
29.46556130788872
 20
30.75597270005737
 30
0.0
 10
29.45730975451901
 20
30.76726807555651
 30
0.0
 10
29.44512730201691
 20
30.78394437507814
 30
0.0
 10
29.43320095451769
 20
30.80027009792097
 30
0.0
 10
29.42408714699972
 20
30.81274579474191
 30
0.0
 10
29.4183092965754
 20
30.82065497101411
 30
0.0
 10
29.41528354822124
 20
30.82479685343247
 30
0.0
  0
ARC
  5
104
330
1F
100
AcDbEntity
  8
0
  6
Continuous
 62
     7
370
    25
100
AcDbCircle
 10
29.3788059623
 20
30.7422898443
 30
0.0
 40
0.0902109795608915
100
AcDbArc
 50
6.1490596584
 51
66.1490596585
  0
SPLINE
  5
105
330
1F
100
AcDbEntity
  8
0
  6
Continuous
 62
     7
370
    25
100
AcDbSpline
210
0.0
220
0.0
230
1.0
 70
    24
 71
     3
 72
    12
 73
     8
 74
     0
 42
0.00000001
 43
0.00000001
 40
0.0
 40
0.0
 40
0.0
 40
0.0
 40
0.1802219760132262
 40
0.3441448192959446
 40
0.5077563977929503
 40
0.824817337288987
 40
1.0
 40
1.0
 40
1.0
 40
1.0
 10
29.28911400339806
 20
30.73262685582415
 30
0.0
 10
29.29213975175223
 20
30.72848497340579
 30
0.0
 10
29.29791760217655
 20
30.72057579713358
 30
0.0
 10
29.30703140969451
 20
30.70810010031266
 30
0.0
 10
29.31895775719374
 20
30.69177437746983
 30
0.0
 10
29.33114020969583
 20
30.6750980779482
 30
0.0
 10
29.33939176306556
 20
30.66380270244907
 30
0.0
 10
29.34232837632844
 20
30.65978283515697
 30
0.0
  0
ARC
  5
106
330
1F
100
AcDbEntity
  8
0
  6
Continuous
 62
     7
370
    25
100
AcDbCircle
 10
29.3788059623
 20
30.7422898443
 30
0.0
 40
0.0902109795608983
100
AcDbArc
 50
186.1490596584
 51
246.1490596584
  0
CIRCLE
  5
107
330
1F
100
AcDbEntity
  8
0
  6
Continuous
 62
     7
370
    25
100
AcDbCircle
 10
29.3788059623
 20
30.7422898443
 30
0.0
 40
0.1502264973081091
  0
CIRCLE
  5
108
330
1F
100
AcDbEntity
  8
0
  6
Continuous
 62
     7
370
    25
100
AcDbCircle
 10
29.3788059623
 20
30.7422898443
 30
0.0
 40
0.1560000000000041
  0
LINE
  5
109
330
1F
100
AcDbEntity
  8
0
  6
Continuous
 62
     7
370
    25
100
AcDbLine
 10
29.5449760559
 20
29.777089088
 30
0.0
 11
28.413605206
 21
30.9084599379
 31
0.0
  0
LINE
  5
10A
330
1F
100
AcDbEntity
  8
0
  6
Continuous
 62
     7
370
    25
100
AcDbLine
 10
28.4560316128
 20
30.9084599379
 30
0.0
 11
29.5449760559
 21
29.8195154948
 31
0.0
  0
LINE
  5
10B
330
1F
100
AcDbEntity
  8
0
  6
Continuous
 62
     7
370
    25
100
AcDbLine
 10
29.350521691
 20
30.0139698597
 30
0.0
 11
29.728823819
 21
30.3922719876
 31
0.0
  0
LINE
  5
10C
330
1F
100
AcDbEntity
  8
0
  6
Continuous
 62
     7
370
    25
100
AcDbLine
 10
29.0287881056
 20
31.092307701
 30
0.0
 11
28.6504859777
 21
30.714005573
 31
0.0
  0
SPLINE
  5
10D
330
1F
100
AcDbEntity
  8
0
  6
Continuous
 62
     7
370
    25
100
AcDbSpline
210
0.0
220
0.0
230
1.0
 70
    11
 71
     3
 72
    26
 73
    22
 74
     0
 42
0.00000001
 43
0.00000001
 40
0.0
 40
0.0
 40
0.0
 40
0.0
 40
0.0536635800867935
 40
0.1073446618760228
 40
0.1605627007432927
 40
0.2134930750979946
 40
0.2668934401892064
 40
0.3208137562246898
 40
0.3744904685338934
 40
0.4275244443524792
 40
0.4805256761659683
 40
0.5341466146472106
 40
0.5880816942209474
 40
0.6415394246420308
 40
0.6944815009075564
 40
0.747652942175498
 40
0.8014489212027257
 40
0.8553078811836172
 40
0.9085469960890763
 40
0.9614561446221065
 40
1.0
 40
1.0
 40
1.0
 40
1.0
 10
30.60071086678281
 20
32.04619474880267
 30
0.0
 10
30.60161233536179
 20
32.03699381460303
 30
0.0
 10
30.60341556652239
 20
32.01858894543464
 30
0.0
 10
30.61749792919271
 20
31.99408385724145
 30
0.0
 10
30.63816894494064
 20
31.97550309743452
 30
0.0
 10
30.66385216182275
 20
31.96481832958375
 30
0.0
 10
30.69164135734944
 20
31.96311150017662
 30
0.0
 10
30.71861605629228
 20
31.97072115249318
 30
0.0
 10
30.74154192806559
 20
31.98685814618173
 30
0.0
 10
30.75775919443892
 20
32.00951535752004
 30
0.0
 10
30.76564582998784
 20
32.03614698575898
 30
0.0
 10
30.76435760994507
 20
32.06402588352883
 30
0.0
 10
30.75385931196071
 20
32.09004430890507
 30
0.0
 10
30.73536819483223
 20
32.11105968986636
 30
0.0
 10
30.7111479315662
 20
32.12473699635678
 30
0.0
 10
30.68379726170605
 20
32.12973846786098
 30
0.0
 10
30.65616855004904
 20
32.12544305343097
 30
0.0
 10
30.63140716904976
 20
32.11218013257189
 30
0.0
 10
30.6126665933392
 20
32.09158210425851
 30
0.0
 10
30.60229473599613
 20
32.06842230647925
 30
0.0
 10
30.6011804814045
 20
32.0527851831653
 30
0.0
 10
30.60071086678281
 20
32.04619474880267
 30
0.0
  0
LINE
  5
10E
330
1F
100
AcDbEntity
  8
0
  6
Continuous
 62
     7
370
    25
100
AcDbLine
 10
30.1743010911
 20
32.2448917543
 30
0.0
 11
30.8814078723
 21
31.5377849731
 31
0.0
  0
SPLINE
  5
10F
330
1F
100
AcDbEntity
  8
0
  6
Continuous
 62
     7
370
    25
100
AcDbSpline
210
0.0
220
0.0
230
1.0
 70
    11
 71
     3
 72
    26
 73
    22
 74
     0
 42
0.00000001
 43
0.00000001
 40
0.0
 40
0.0
 40
0.0
 40
0.0
 40
0.0532007753862718
 40
0.1063847263153342
 40
0.1600073343611953
 40
0.2139428941057425
 40
0.2673935894686
 40
0.3203162448468938
 40
0.3734912217377446
 40
0.4273016850453453
 40
0.4811480377781146
 40
0.5343807310971367
 40
0.5873085574696523
 40
0.6406942334865282
 40
0.694609971854435
 40
0.7482999487977646
 40
0.8013441886185627
 40
0.8543367660929718
 40
0.9079436071600083
 40
0.9618809478017593
 40
1.0
 40
1.0
 40
1.0
 40
1.0
 10
16.01840787229622
 20
38.28042566024883
 30
0.0
 10
16.01930213054344
 20
38.2895780053124
 30
0.0
 10
16.02109036423355
 20
38.30787980105995
 30
0.0
 10
16.03501569033519
 20
38.33228371317983
 30
0.0
 10
16.0556183614253
 20
38.35100014521784
 30
0.0
 10
16.08153389368641
 20
38.36184023024986
 30
0.0
 10
16.10946384939965
 20
38.36348035126613
 30
0.0
 10
16.13622027911185
 20
38.35589024547596
 30
0.0
 10
16.15901337190532
 20
38.3399758045526
 30
0.0
 10
16.17540592722315
 20
38.31730991110123
 30
0.0
 10
16.18337819608153
 20
38.29040458181319
 30
0.0
 10
16.18200258529569
 20
38.26250772922847
 30
0.0
 10
16.17160944888756
 20
38.23674090949357
 30
0.0
 10
16.15331373460494
 20
38.2157459668954
 30
0.0
 10
16.12896517884308
 20
38.20187679092891
 30
0.0
 10
16.10137448415861
 20
38.19687265368719
 30
0.0
 10
16.07385828510723
 20
38.20122653908189
 30
0.0
 10
16.04932406234807
 20
38.21430581160695
 30
0.0
 10
16.03049286663866
 20
38.23478169874814
 30
0.0
 10
16.01999160999659
 20
38.25809141070629
 30
0.0
 10
16.01887163548943
 20
38.27388556027935
 30
0.0
 10
16.01840787229622
 20
38.28042566024883
 30
0.0
  0
LINE
  5
110
330
1F
100
AcDbEntity
  8
0
  6
Continuous
 62
     7
370
    25
100
AcDbLine
 10
15.8814078723
 20
37.7804256602
 30
0.0
 11
15.8814078723
 21
38.7804256602
 31
0.0
  0
LINE
  5
111
330
1F
100
AcDbEntity
  8
0
  6
Continuous
 62
     7
370
    25
100
AcDbLine
 10
15.8814078723
 20
38.7723249272
 30
0.0
 11
15.8814078723
 21
38.7804256602
 31
0.0
  0
LINE
  5
112
330
1F
100
AcDbEntity
  8
0
  6
Continuous
 62
     7
370
    25
100
AcDbLine
 10
15.8814078723
 20
37.7804256602
 30
0.0
 11
15.8814078723
 21
38.7723249272
 31
0.0
  0
LINE
  5
113
330
1F
100
AcDbEntity
  8
0
  6
Continuous
 62
     7
370
    25
100
AcDbLine
 10
16.1514078723
 20
38.3436443653
 30
0.0
 11
16.1514078723
 21
38.2162312328
 31
0.0
  0
LINE
  5
114
330
1F
100
AcDbEntity
  8
0
  6
Continuous
 62
     7
370
    25
100
AcDbLine
 10
7.7564078723
 20
40.5608450296
 30
0.0
 11
7.7564078723
 21
41.5054256602
 31
0.0
  0
LINE
  5
115
330
1F
100
AcDbEntity
  8
0
  6
Continuous
 62
     7
370
    25
100
AcDbLine
 10
7.7564078723
 20
35.0554256602
 30
0.0
 11
7.7564078723
 21
40.5608450296
 31
0.0
  0
LINE
  5
116
330
1F
100
AcDbEntity
  8
0
  6
Continuous
 62
     7
370
    25
100
AcDbLine
 10
7.9414078723
 20
40.2603246476
 30
0.0
 11
7.9414078723
 21
40.282819556
 31
0.0
  0
LINE
  5
117
330
1F
100
AcDbEntity
  8
0
  6
Continuous
 62
     7
370
    25
100
AcDbLine
 10
7.9414078723
 20
40.5206724517
 30
0.0
 11
7.9414078723
 21
41.0804256602
 31
0.0
  0
LINE
  5
118
330
1F
100
AcDbEntity
  8
0
  6
Continuous
 62
     7
370
    25
100
AcDbLine
 10
7.9414078723
 20
35.4804256602
 30
0.0
 11
7.9414078723
 21
36.0401788688
 31
0.0
  0
LINE
  5
119
330
1F
100
AcDbEntity
  8
0
  6
Continuous
 62
     7
370
    25
100
AcDbLine
 10
7.9414078723
 20
36.2780317645
 30
0.0
 11
7.9414078723
 21
40.2603246476
 31
0.0
  0
LINE
  5
11A
330
1F
100
AcDbEntity
  8
0
  6
Continuous
 62
     7
370
    25
100
AcDbLine
 10
8.6314078723
 20
40.2603246476
 30
0.0
 11
8.6314078723
 21
41.0804256602
 31
0.0
  0
LINE
  5
11B
330
1F
100
AcDbEntity
  8
0
  6
Continuous
 62
     7
370
    25
100
AcDbLine
 10
8.6314078723
 20
35.4804256602
 30
0.0
 11
8.6314078723
 21
40.2603246476
 31
0.0
  0
LINE
  5
11C
330
1F
100
AcDbEntity
  8
0
  6
Continuous
 62
     7
370
    25
100
AcDbLine
 10
29.025181861
 20
31.0887014564
 30
0.0
 11
29.2592902918
 21
30.8545930256
 31
0.0
  0
LINE
  5
11D
330
1F
100
AcDbEntity
  8
0
  6
Continuous
 62
     7
370
    25
100
AcDbLine
 10
29.4911091435
 20
30.6227741739
 30
0.0
 11
29.7252175744
 21
30.388665743
 31
0.0
  0
LINE
  5
11E
330
1F
100
AcDbEntity
  8
0
  6
Continuous
 62
     7
370
    25
100
AcDbLine
 10
27.1655617372
 20
29.6604164691
 30
0.0
 11
28.2969325871
 21
28.5290456192
 31
0.0
  0
LINE
  5
11F
330
1F
100
AcDbEntity
  8
0
  6
Continuous
 62
     7
370
    25
100
AcDbLine
 10
32.2956214347
 20
34.3662120979
 30
0.0
 11
33.0027282159
 21
33.6591053167
 31
0.0
  0
LINE
  5
120
330
1F
100
AcDbEntity
  8
0
  6
Continuous
 62
     7
370
    25
100
AcDbLine
 10
30.8814078723
 20
37.7804256602
 30
0.0
 11
30.8814078723
 21
38.7804256602
 31
0.0
  0
LINE
  5
121
330
1F
100
AcDbEntity
  8
VP
100
AcDbLine
 10
25.03399756
 20
26.7078828895
 30
0.0
 11
25.7530137543
 21
25.9888666952
 31
0.0
  0
DIMENSION
  5
122
330
1F
100
AcDbEntity
  8
0
  6
Continuous
 62
     7
370
    18
100
AcDbDimension
  2
_D
 10
28.3423912862
 20
23.3994891633
 30
0.0
 11
30.4371951255
 21
25.4942930025
 31
0.0
 70
   160
  1
<>
 71
     2
 42
-1.0
  3
SLDDIMSTYLE0
100
AcDbAlignedDimension
 13
29.3788059623
 23
30.7422898443
 33
0.0
 14
25.7530137543
 24
25.9888666952
 34
0.0
 50
45.0
100
AcDbRotatedDimension
  0
DIMENSION
  5
137
330
1F
100
AcDbEntity
  8
0
  6
Continuous
 62
     7
370
    18
100
AcDbDimension
  2
_D_1
 10
37.6609354314
 20
30.7422898443
 30
0.0
 11
37.6609354314
 21
34.7613577523
 31
0.0
 70
   160
  1
<>
 71
     2
 42
-1.0
  3
SLDDIMSTYLE0
100
AcDbAlignedDimension
 13
30.8814078723
 23
38.7804256602
 33
0.0
 14
29.3788059623
 24
30.7422898443
 34
0.0
 50
90.0
100
AcDbRotatedDimension
  0
DIMENSION
  5
14B
330
1F
100
AcDbEntity
  8
0
  6
Continuous
 62
     7
370
    18
100
AcDbDimension
  2
_D_2
 10
25.8884665622
 20
30.9233695084
 30
0.0
 11
25.3464578822
 21
30.3813608283
 31
0.0
 70
   160
  1
<>
 71
     2
 42
-1.0
  3
SLDDIMSTYLE0
100
AcDbAlignedDimension
 13
29.3788059623
 23
30.7422898443
 33
0.0
 14
27.1584906693
 24
29.6533454013
 34
0.0
 50
45.0
100
AcDbRotatedDimension
  0
DIMENSION
  5
160
330
1F
100
AcDbEntity
  8
0
  6
Continuous
 62
     7
370
    18
100
AcDbDimension
  2
_D_3
 10
23.5945542253
 20
25.9621297366
 30
0.0
 11
22.1690595553
 21
27.3876244066
 31
0.0
 70
   160
  1
<>
 71
     2
 42
-1.0
  3
SLDDIMSTYLE1
100
AcDbAlignedDimension
 13
25.7548837087
 23
25.9869967408
 33
0.0
 14
25.9875218397
 24
28.355097351
 34
0.0
 50
-45.0
100
AcDbRotatedDimension
  0
DIMENSION
  5
176
330
1F
100
AcDbEntity
  8
0
  6
Continuous
 62
     7
370
    18
100
AcDbDimension
  2
_D_4
 10
9.8814078723
 20
45.3099532193
 30
0.0
 11
21.8814078723
 21
45.3099532193
 31
0.0
 70
   160
  1
SPECIFY PROJECTION LENGTH\P18"-48"\P[457mm-1219mm]
 71
     2
 42
-1.0
  3
SLDDIMSTYLE2
100
AcDbAlignedDimension
 13
33.8814078723
 23
35.7804256602
 33
0.0
 14
9.8814078723
 24
39.8304256602
 34
0.0
100
AcDbRotatedDimension
  0
DIMENSION
  5
184
330
1F
100
AcDbEntity
  8
0
  6
Continuous
 62
     7
370
    18
100
AcDbDimension
  2
_D_5
 10
7.6034078723
 20
45.3099532193
 30
0.0
 11
4.3836051751
 21
45.3099532193
 31
0.0
 70
   160
  1
<>
 71
     2
 42
-1.0
  3
SLDDIMSTYLE0
100
AcDbAlignedDimension
 13
9.8814078723
 23
39.8304256602
 33
0.0
 14
7.6034078723
 24
41.5054256602
 34
0.0
100
AcDbRotatedDimension
  0
DIMENSION
  5
198
330
1F
100
AcDbEntity
  8
0
  6
Continuous
 62
     7
370
    18
100
AcDbDimension
  2
_D_6
 10
11.9713090909
 20
37.7804256602
 30
0.0
 11
11.9713090909
 21
34.7374909091
 31
0.0
 70
   160
  1
%%c<>
 71
     2
 42
-1.0
  3
SLDDIMSTYLE3
100
AcDbAlignedDimension
 13
9.8814078723
 23
38.7804256602
 33
0.0
 14
9.8814078723
 24
37.7804256602
 34
0.0
 50
90.0
100
AcDbRotatedDimension
  0
ARC
  5
1AB
330
1F
100
AcDbEntity
  8
0
  6
Continuous
 62
     7
370
    25
100
AcDbCircle
 10
62.3843642284
 20
46.7647318827
 30
0.0
 40
0.1804759332986047
100
AcDbArc
 50
158.0120296182
 51
261.9825938491
  0
LINE
  5
1AC
330
1F
100
AcDbEntity
  8
0
  6
Continuous
 62
     7
370
    25
100
AcDbLine
 10
62.3981879492
 20
46.592583742
 30
0.0
 11
62.4087945509
 21
46.5987068029
 31
0.0
  0
LINE
  5
1AD
330
1F
100
AcDbEntity
  8
0
  6
Continuous
 62
     7
370
    25
100
AcDbLine
 10
62.2528072286
 20
46.8689140479
 30
0.0
 11
62.2422006269
 21
46.8627909871
 31
0.0
  0
ARC
  5
1AE
330
1F
100
AcDbEntity
  8
0
  6
Continuous
 62
     7
370
    25
100
AcDbCircle
 10
59.3843642284
 20
48.4965950189
 30
0.0
 40
0.1804759332985977
100
AcDbArc
 50
158.0120296182
 51
261.9825938491
  0
LINE
  5
1AF
330
1F
100
AcDbEntity
  8
0
  6
Continuous
 62
     7
370
    25
100
AcDbLine
 10
59.3981879492
 20
48.3244468783
 30
0.0
 11
59.4072582407
 21
48.3296830462
 31
0.0
  0
LINE
  5
1B0
330
1F
100
AcDbEntity
  8
0
  6
Continuous
 62
     7
370
    25
100
AcDbLine
 10
59.2528072286
 20
48.6007771842
 30
0.0
 11
59.2422006269
 21
48.5946541234
 31
0.0
  0
ARC
  5
1B1
330
1F
100
AcDbEntity
  8
0
  6
Continuous
 62
     7
370
    25
100
AcDbCircle
 10
62.3843642284
 20
43.3004426115
 30
0.0
 40
0.1804759332986022
100
AcDbArc
 50
158.0120296182
 51
261.9825938491
  0
LINE
  5
1B2
330
1F
100
AcDbEntity
  8
0
  6
Continuous
 62
     7
370
    25
100
AcDbLine
 10
62.3981879492
 20
43.1282944708
 30
0.0
 11
62.4087945509
 21
43.1344175317
 31
0.0
  0
LINE
  5
1B3
330
1F
100
AcDbEntity
  8
0
  6
Continuous
 62
     7
370
    25
100
AcDbLine
 10
62.2512709184
 20
43.4037378838
 30
0.0
 11
62.2422006269
 21
43.3985017159
 31
0.0
  0
SPLINE
  5
1B4
330
1F
100
AcDbEntity
  8
0
  6
Continuous
 62
     7
370
    25
100
AcDbSpline
210
0.0
220
0.0
230
1.0
 70
     8
 71
     3
 72
    43
 73
    39
 74
     0
 42
0.00000001
 43
0.00000001
 40
0.0
 40
0.0
 40
0.0
 40
0.0
 40
0.0250930257132553
 40
0.0508562007608617
 40
0.0765943910588836
 40
0.1023300527276252
 40
0.1280859090147349
 40
0.1538852371028035
 40
0.179751986817632
 40
0.2057108691120299
 40
0.2317874008844246
 40
0.2580078886538607
 40
0.2843993285778683
 40
0.3109891948396359
 40
0.3378050832529804
 40
0.3648741733505119
 40
0.3922224724301058
 40
0.419873812382887
 40
0.4478485891291225
 40
0.4761622702163
 40
0.5048237523287431
 40
0.5338337258394801
 40
0.5631832865684941
 40
0.5928530994336543
 40
0.6228134256689913
 40
0.6530252368556638
 40
0.6834424446369239
 40
0.714015015968852
 40
0.7446925112191938
 40
0.7754274755524659
 40
0.8061665304033805
 40
0.8368778057648532
 40
0.8675382560348882
 40
0.898132891581677
 40
0.9286539705196267
 40
0.9590999409598311
 40
0.9894743275307138
 40
1.0
 40
1.0
 40
1.0
 40
1.0
 10
58.90036923614998
 20
47.98625679617759
 30
0.0
 10
58.87616708896959
 20
47.97183036834844
 30
0.0
 10
58.82711643760872
 20
47.94259223189073
 30
0.0
 10
58.75605712041659
 20
47.89410235350645
 30
0.0
 10
58.68673910807215
 20
47.8420285923976
 30
0.0
 10
58.62011785463796
 20
47.78659977616722
 30
0.0
 10
58.55623430914071
 20
47.72801075715355
 30
0.0
 10
58.49518802202713
 20
47.66634180082679
 30
0.0
 10
58.43705468523821
 20
47.60170023313118
 30
0.0
 10
58.38190853875666
 20
47.53418096345314
 30
0.0
 10
58.32981695541865
 20
47.46387571095926
 30
0.0
 10
58.28084277820408
 20
47.39086933520532
 30
0.0
 10
58.23504484441087
 20
47.31523994722473
 30
0.0
 10
58.19247924470665
 20
47.23705846864871
 30
0.0
 10
58.15320057672486
 20
47.15638899095478
 30
0.0
 10
58.11726330081423
 20
47.0732897787655
 30
0.0
 10
58.08472302750313
 20
46.98781517649843
 30
0.0
 10
58.05563758377593
 20
46.90001854309033
 30
0.0
 10
58.0300676413443
 20
46.80995630320729
 30
0.0
 10
58.00807666076805
 20
46.71769306761735
 30
0.0
 10
57.98972990209201
 20
46.62330757668909
 30
0.0
 10
57.97509230862828
 20
46.52689895231776
 30
0.0
 10
57.96422520715235
 20
46.42859245004926
 30
0.0
 10
57.95718199257951
 20
46.32854367231863
 30
0.0
 10
57.95400324766995
 20
46.22694016113631
 30
0.0
 10
57.95471201368235
 20
46.12399955061018
 30
0.0
 10
57.95931005588002
 20
46.01996405215463
 30
0.0
 10
57.96777590051172
 20
45.91509185449521
 30
0.0
 10
57.98006500303109
 20
45.80964674442297
 30
0.0
 10
57.99611022859596
 20
45.70390111322775
 30
0.0
 10
58.01582568812687
 20
45.59811092201388
 30
0.0
 10
58.0391145859013
 20
45.49250943171616
 30
0.0
 10
58.06587055109147
 20
45.38728847083623
 30
0.0
 10
58.09601036872112
 20
45.28262376720056
 30
0.0
 10
58.12936228320685
 20
45.17864351312282
 30
0.0
 10
58.16609515736543
 20
45.07555879947066
 30
0.0
 10
58.19665717528886
 20
44.99541755717995
 30
0.0
 10
58.21598647212332
 20
44.94999338250308
 30
0.0
 10
58.22096088664291
 20
44.93830342419846
 30
0.0
  0
SPLINE
  5
1B5
330
1F
100
AcDbEntity
  8
0
  6
Continuous
 62
     7
370
    25
100
AcDbSpline
210
0.0
220
0.0
230
1.0
 70
     8
 71
     3
 72
    42
 73
    38
 74
     0
 42
0.00000001
 43
0.00000001
 40
0.0
 40
0.0
 40
0.0
 40
0.0
 40
0.0160903620847046
 40
0.046541130141776
 40
0.0770915388158916
 40
0.1077536779499917
 40
0.13853662334694
 40
0.1694453932857791
 40
0.2004797198592567
 40
0.2316326854445697
 40
0.2628893419420991
 40
0.2942255178101029
 40
0.3256027799406389
 40
0.3569649018297052
 40
0.3882572889790932
 40
0.4194207353160253
 40
0.4503954014225887
 40
0.4811252234273655
 40
0.5115619164081294
 40
0.541667878289027
 40
0.5714176174294208
 40
0.60079772043423
 40
0.6298056837783532
 40
0.6584480692098046
 40
0.6867384211739177
 40
0.7146952716760285
 40
0.7423404231612286
 40
0.769697586448643
 40
0.7967913740407485
 40
0.823646607068252
 40
0.8502878774556089
 40
0.8767393057981085
 40
0.9030244423187037
 40
0.9291662681410344
 40
0.9551872641325351
 40
0.9811095233454674
 40
1.0
 40
1.0
 40
1.0
 40
1.0
 10
58.72095268862142
 20
44.07227328652601
 30
0.0
 10
58.73268595458352
 20
44.05680594033939
 30
0.0
 10
58.76662424977263
 20
44.01206687430537
 30
0.0
 10
58.82534657421448
 20
43.94042570549944
 30
0.0
 10
58.89694142948581
 20
43.85726007466577
 30
0.0
 10
58.97105310570827
 20
43.77648207868924
 30
0.0
 10
59.04750195386048
 20
43.69808444793103
 30
0.0
 10
59.12629032667127
 20
43.62225102574606
 30
0.0
 10
59.20736081448707
 20
43.54913132481525
 30
0.0
 10
59.29065549424203
 20
43.47890284552614
 30
0.0
 10
59.37609323232644
 20
43.41175479108039
 30
0.0
 10
59.46356478072109
 20
43.34789420843823
 30
0.0
 10
59.55291866319107
 20
43.28754578120969
 30
0.0
 10
59.643967082496
 20
43.2309377374468
 30
0.0
 10
59.73649129610961
 20
43.17829026846493
 30
0.0
 10
59.83025544255285
 20
43.12980227531651
 30
0.0
 10
59.92500618502891
 20
43.08564804117815
 30
0.0
 10
60.02048335443384
 20
43.04596983460916
 30
0.0
 10
60.11643091292938
 20
43.01087366631425
 30
0.0
 10
60.21260620324498
 20
42.98042877124823
 30
0.0
 10
60.30878605685565
 20
42.9546704487506
 30
0.0
 10
60.40476926310841
 20
42.93360520545573
 30
0.0
 10
60.5003758001054
 20
42.9172168833931
 30
0.0
 10
60.59544379923282
 20
42.90547260644835
 30
0.0
 10
60.68982537349018
 20
42.8983277723309
 30
0.0
 10
60.78338228585977
 20
42.89572974820203
 30
0.0
 10
60.87598211794948
 20
42.89762028830839
 30
0.0
 10
60.96749531536205
 20
42.9039368386988
 30
0.0
 10
61.05779311092035
 20
42.91461319319047
 30
0.0
 10
61.14674662030021
 20
42.92957916430093
 30
0.0
 10
61.23422563976519
 20
42.94876182469148
 30
0.0
 10
61.3201018386666
 20
42.97207998278575
 30
0.0
 10
61.40423819462842
 20
42.99946346444214
 30
0.0
 10
61.48653097517729
 20
43.03078104038031
 30
0.0
 10
61.56675821982213
 20
43.06610718938244
 30
0.0
 10
61.63813742628348
 20
43.10128032434116
 30
0.0
 10
61.68177964148848
 20
43.12633068158826
 30
0.0
 10
61.7001766938336
 20
43.13689047401343
 30
0.0
  0
LINE
  5
1B6
330
1F
100
AcDbEntity
  8
0
  6
Continuous
 62
     7
370
    25
100
AcDbLine
 10
59.3884882572
 20
48.2680419293
 30
0.0
 11
58.9005845782
 21
47.9863811307
 31
0.0
  0
LINE
  5
1B7
330
1F
100
AcDbEntity
  8
0
  6
Continuous
 62
     7
370
    25
100
AcDbLine
 10
61.7003570295
 20
43.1365075013
 30
0.0
 11
62.1882607086
 21
43.4181682999
 31
0.0
  0
SPLINE
  5
1B8
330
1F
100
AcDbEntity
  8
0
  6
Continuous
 62
     7
370
    25
100
AcDbSpline
210
0.0
220
0.0
230
1.0
 70
     8
 71
     3
 72
    22
 73
    18
 74
     0
 42
0.00000001
 43
0.00000001
 40
0.0
 40
0.0
 40
0.0
 40
0.0
 40
0.0377691580522811
 40
0.1055575319136668
 40
0.1733631971097355
 40
0.2412371378000103
 40
0.3092295489144652
 40
0.3773841506336699
 40
0.4457362095559533
 40
0.5143112157630284
 40
0.5831242990099199
 40
0.6521803952616775
 40
0.7214750978254677
 40
0.7909960562689011
 40
0.860724734956506
 40
0.9306383219025798
 40
1.0
 40
1.0
 40
1.0
 40
1.0
 10
59.3066790806149
 20
48.71154891960994
 30
0.0
 10
59.29542877855013
 20
48.70489857525858
 30
0.0
 10
59.26398634825829
 20
48.68631214198054
 30
0.0
 10
59.21408212499204
 20
48.65287235591607
 30
0.0
 10
59.15771287819829
 20
48.61023409722165
 30
0.0
 10
59.10373122988903
 20
48.56399673711573
 30
0.0
 10
59.05215964978672
 20
48.51427537526915
 30
0.0
 10
59.00306873629711
 20
48.46110158445957
 30
0.0
 10
58.9565180534853
 20
48.40453259220573
 30
0.0
 10
58.91257212780445
 20
48.34462470873619
 30
0.0
 10
58.87129605472535
 20
48.28144231527669
 30
0.0
 10
58.83275326970206
 20
48.2150590127287
 30
0.0
 10
58.79701259127742
 20
48.14555217105931
 30
0.0
 10
58.76411410675179
 20
48.0730287724062
 30
0.0
 10
58.73419046956506
 20
47.99752858591613
 30
0.0
 10
58.70709798076625
 20
47.91965031124995
 30
0.0
 10
58.69162756220321
 20
47.86564826473003
 30
0.0
 10
58.68392300538856
 20
47.83875423895921
 30
0.0
  0
SPLINE
  5
1B9
330
1F
100
AcDbEntity
  8
0
  6
Continuous
 62
     7
370
    25
100
AcDbSpline
210
0.0
220
0.0
230
1.0
 70
     8
 71
     3
 72
    23
 73
    19
 74
     0
 42
0.00000001
 43
0.00000001
 40
0.0
 40
0.0
 40
0.0
 40
0.0
 40
0.008159257884448
 40
0.0787706907149215
 40
0.1492720876439804
 40
0.219636618249881
 40
0.2898367611343194
 40
0.3598457487435585
 40
0.4296393475522716
 40
0.4991978603843422
 40
0.5685081717685129
 40
0.6375656101356972
 40
0.7063753880742799
 40
0.7749534115997238
 40
0.8433263174800425
 40
0.9115306893051834
 40
0.97961149833539
 40
1.0
 40
1.0
 40
1.0
 40
1.0
 10
61.46388473857277
 20
43.02295667685998
 30
0.0
 10
61.4670833353381
 20
43.02205435983879
 30
0.0
 10
61.49796306485408
 20
43.01334325694075
 30
0.0
 10
61.55595623757335
 20
43.00054829570077
 30
0.0
 10
61.63764896644981
 20
42.98490642497286
 30
0.0
 10
61.71835986094901
 20
42.97367961771883
 30
0.0
 10
61.79802981164836
 20
42.96638570911961
 30
0.0
 10
61.87651245107581
 20
42.96316717523277
 30
0.0
 10
61.95368647751772
 20
42.96398655269352
 30
0.0
 10
62.02942761751846
 20
42.96884132083117
 30
0.0
 10
62.10361868136068
 20
42.97770624469435
 30
0.0
 10
62.17614726860417
 20
42.99055259309331
 30
0.0
 10
62.24691384200376
 20
43.00733456786745
 30
0.0
 10
62.31580861514542
 20
43.02803287127128
 30
0.0
 10
62.38279924643521
 20
43.05250533527901
 30
0.0
 10
62.44760455143241
 20
43.08105026506267
 30
0.0
 10
62.49614974963404
 20
43.10503122823216
 30
0.0
 10
62.52234757962929
 20
43.12069722623303
 30
0.0
 10
62.52838509135254
 20
43.12430758810666
 30
0.0
  0
LINE
  5
1BA
330
1F
100
AcDbEntity
  8
0
  6
Continuous
 62
     7
370
    25
100
AcDbLine
 10
59.4150076185
 20
48.7740856667
 30
0.0
 11
59.306820281
 21
48.7116304461
 31
0.0
  0
LINE
  5
1BB
330
1F
100
AcDbEntity
  8
0
  6
Continuous
 62
     7
370
    25
100
AcDbLine
 10
62.5315581938
 20
43.1256152838
 30
0.0
 11
62.6397455313
 21
43.1880705043
 31
0.0
  0
LINE
  5
1BC
330
1F
100
AcDbEntity
  8
0
  6
Continuous
 62
     7
370
    25
100
AcDbLine
 10
46.5561863176
 20
29.478356253
 30
0.0
 11
48.3486863176
 21
28.4432316373
 31
0.0
  0
LINE
  5
1BD
330
1F
100
AcDbEntity
  8
0
  6
Continuous
 62
     7
370
    25
100
AcDbLine
 10
47.4477512272
 20
30.8111204263
 30
0.0
 11
47.3563163243
 21
30.8639218315
 31
0.0
  0
LINE
  5
1BE
330
1F
100
AcDbEntity
  8
0
  6
Continuous
 62
     7
370
    25
100
AcDbLine
 10
48.1617512272
 20
30.3988030062
 30
0.0
 11
47.5361595072
 21
30.7600668214
 31
0.0
  0
LINE
  5
1BF
330
1F
100
AcDbEntity
  8
0
  6
Continuous
 62
     7
370
    25
100
AcDbLine
 10
48.3501385843
 20
30.2900139459
 30
0.0
 11
48.2292949708
 21
30.3597981574
 31
0.0
  0
LINE
  5
1C0
330
1F
100
AcDbEntity
  8
0
  6
Continuous
 62
     7
370
    25
100
AcDbLine
 10
44.619675492
 20
30.9488169673
 30
0.0
 11
45.0573047016
 21
30.6960968739
 31
0.0
  0
LINE
  5
1C1
330
1F
100
AcDbEntity
  8
0
  6
Continuous
 62
     7
370
    25
100
AcDbLine
 10
45.4313131094
 20
31.6233316942
 30
0.0
 11
45.1147559336
 21
31.806135669
 31
0.0
  0
LINE
  5
1C2
330
1F
100
AcDbEntity
  8
0
  6
Continuous
 62
     7
370
    25
100
AcDbLine
 10
45.5523851433
 20
31.5534155756
 30
0.0
 11
45.5197531094
 21
31.5722597717
 31
0.0
  0
LINE
  5
1C3
330
1F
100
AcDbEntity
  8
0
  6
Continuous
 62
     7
370
    25
100
AcDbLine
 10
45.0573047016
 20
30.6960968739
 30
0.0
 11
45.3848547016
 21
30.5069448137
 31
0.0
  0
LINE
  5
1C4
330
1F
100
AcDbEntity
  8
0
  6
Continuous
 62
     7
370
    25
100
AcDbLine
 10
45.8799351433
 20
31.3642635155
 30
0.0
 11
45.5523851433
 21
31.5534155756
 31
0.0
  0
SPLINE
  5
1C5
330
1F
100
AcDbEntity
  8
0
  6
Continuous
 62
     7
370
    25
100
AcDbSpline
210
0.0
220
0.0
230
1.0
 70
     8
 71
     3
 72
     9
 73
     5
 74
     0
 42
0.00000001
 43
0.00000001
 40
0.0
 40
0.0
 40
0.0
 40
0.0
 40
0.4404208638412924
 40
1.0
 40
1.0
 40
1.0
 40
1.0
 10
45.38502851277486
 20
30.50739359846939
 30
0.0
 10
45.39391032680862
 20
30.50220727387621
 30
0.0
 10
45.41407697821627
 20
30.49043143621959
 30
0.0
 10
45.43569068537609
 20
30.4815640239825
 30
0.0
 10
45.44778526495777
 20
30.47660200510291
 30
0.0
  0
SPLINE
  5
1C6
330
1F
100
AcDbEntity
  8
0
  6
Continuous
 62
     7
370
    25
100
AcDbSpline
210
0.0
220
0.0
230
1.0
 70
     8
 71
     3
 72
     9
 73
     5
 74
     0
 42
0.00000001
 43
0.00000001
 40
0.0
 40
0.0
 40
0.0
 40
0.0
 40
0.6400680587448849
 40
0.9999999999999999
 40
0.9999999999999999
 40
0.9999999999999999
 40
0.9999999999999999
 10
45.93819984506384
 20
31.32476388108801
 30
0.0
 10
45.92624683539731
 20
31.33388431886454
 30
0.0
 10
45.90757224368286
 20
31.3481334876083
 30
0.0
 10
45.8871087682425
 20
31.35962328923327
 30
0.0
 10
45.87974330980242
 20
31.36375883583678
 30
0.0
  0
LINE
  5
1C7
330
1F
100
AcDbEntity
  8
0
  6
Continuous
 62
     7
370
    25
100
AcDbLine
 10
45.52084019
 20
31.5682027318
 30
0.0
 11
45.519750933
 21
31.5722678942
 31
0.0
  0
LINE
  5
1C8
330
1F
100
AcDbEntity
  8
0
  6
Continuous
 62
     7
370
    25
100
AcDbLine
 10
47.3210432693
 20
29.4334434629
 30
0.0
 11
47.3272757038
 21
29.4322855968
 31
0.0
  0
LINE
  5
1C9
330
1F
100
AcDbEntity
  8
0
  6
Continuous
 62
     7
370
    25
100
AcDbLine
 10
47.3293220881
 20
29.431905418
 30
0.0
 11
47.3317977729
 21
29.4314454836
 31
0.0
  0
LINE
  5
1CA
330
1F
100
AcDbEntity
  8
0
  6
Continuous
 62
     7
370
    25
100
AcDbLine
 10
47.4258219643
 20
29.4747647101
 30
0.0
 11
47.4281218397
 21
29.4787478587
 31
0.0
  0
LINE
  5
1CB
330
1F
100
AcDbEntity
  8
0
  6
Continuous
 62
     7
370
    25
100
AcDbLine
 10
47.5368058425
 20
30.7576546651
 30
0.0
 11
47.5361573315
 21
30.7600749412
 31
0.0
  0
LINE
  5
1CC
330
1F
100
AcDbEntity
  8
0
  6
Continuous
 62
     7
370
    25
100
AcDbLine
 10
45.6686863176
 20
29.9908656512
 30
0.0
 11
46.5511863176
 21
29.4812436299
 31
0.0
  0
LINE
  5
1CD
330
1F
100
AcDbEntity
  8
0
  6
Continuous
 62
     7
370
    25
100
AcDbLine
 10
47.3513163243
 20
30.8668092084
 30
0.0
 11
46.4688163243
 21
31.3764312298
 31
0.0
  0
SPLINE
  5
1CE
330
1F
100
AcDbEntity
  8
0
  6
Continuous
 62
     7
370
    25
100
AcDbSpline
210
0.0
220
0.0
230
1.0
 70
     8
 71
     3
 72
    68
 73
    64
 74
     0
 42
0.00000001
 43
0.00000001
 40
0.0
 40
0.0
 40
0.0
 40
0.0
 40
0.0092131042422407
 40
0.0262252316038057
 40
0.0432250816154823
 40
0.0602159734040506
 40
0.0771918922611046
 40
0.0941486106291625
 40
0.1110834023446567
 40
0.1279947802145661
 40
0.1448822580253387
 40
0.16174614378281
 40
0.1785873657669675
 40
0.1954073298403621
 40
0.2122078047940944
 40
0.2289908318476257
 40
0.2457586543498065
 40
0.2625136639851019
 40
0.2792583601928814
 40
0.2959953199482713
 40
0.3127271754693262
 40
0.3294565977731202
 40
0.3461862842888587
 40
0.3629183544328648
 40
0.3796552214230698
 40
0.3963996093446579
 40
0.4131542331014016
 40
0.4299217852170858
 40
0.446704918169712
 40
0.4635062203162585
 40
0.4803281831672921
 40
0.4971731573595929
 40
0.5140432941948312
 40
0.5309404690982842
 40
0.5478661828647381
 40
0.5648214362153545
 40
0.581806573178013
 40
0.5988210894206863
 40
0.6158634033417323
 40
0.6329305910234211
 40
0.6500180917598856
 40
0.6671193994076758
 40
0.6842238454934902
 40
0.7013177992344657
 40
0.7183865719610386
 40
0.735412998081984
 40
0.7523778236110094
 40
0.7692603986317079
 40
0.7860396614793175
 40
0.8026953438135529
 40
0.8192092663840446
 40
0.8355665594915251
 40
0.8517566462995672
 40
0.867773872750252
 40
0.8836177395224574
 40
0.8992927647532812
 40
0.9148080596473808
 40
0.9301767226648183
 40
0.9454151540643656
 40
0.9605423708964057
 40
0.9755793740056685
 40
0.9905485913781917
 40
0.9999999999999999
 40
0.9999999999999999
 40
0.9999999999999999
 40
0.9999999999999999
 10
44.31736523928658
 20
36.91192850317365
 30
0.0
 10
44.30185579922701
 20
36.90285765374036
 30
0.0
 10
44.25770795861725
 20
36.87703735246335
 30
0.0
 10
44.18546317560562
 20
36.8316927462454
 30
0.0
 10
44.10094503717963
 20
36.77490105710362
 30
0.0
 10
44.01733058763141
 20
36.71471972345226
 30
0.0
 10
43.93470081761093
 20
36.65132103605612
 30
0.0
 10
43.85316168787584
 20
36.58480896243814
 30
0.0
 10
43.77280962428872
 20
36.5153084198799
 30
0.0
 10
43.69373725759604
 20
36.44293783319443
 30
0.0
 10
43.61603322776516
 20
36.36781655235091
 30
0.0
 10
43.53978334360648
 20
36.29006308744954
 30
0.0
 10
43.46507114950898
 20
36.20979587033253
 30
0.0
 10
43.39197843724617
 20
36.12713335698876
 30
0.0
 10
43.32058558653996
 20
36.04219428672278
 30
0.0
 10
43.25097179683236
 20
35.95509785811102
 30
0.0
 10
43.18321522459154
 20
35.86596387442224
 30
0.0
 10
43.11739305080141
 20
35.77491284008392
 30
0.0
 10
43.05358149700982
 20
35.68206601356717
 30
0.0
 10
42.99185580627776
 20
35.5875454187853
 30
0.0
 10
42.93229020239396
 20
35.49147381986614
 30
0.0
 10
42.87495783849253
 20
35.39397466475314
 30
0.0
 10
42.81993139568925
 20
35.29517317349933
 30
0.0
 10
42.76728258084407
 20
35.19519574436622
 30
0.0
 10
42.7170816825812
 20
35.09416922306788
 30
0.0
 10
42.66939701646455
 20
34.99221952664777
 30
0.0
 10
42.62429532070802
 20
34.88947204447274
 30
0.0
 10
42.58184210742852
 20
34.78605214717276
 30
0.0
 10
42.54210171400955
 20
34.68208509960625
 30
0.0
 10
42.50513738002663
 20
34.57769600641937
 30
0.0
 10
42.47101134878555
 20
34.47300980414754
 30
0.0
 10
42.4397849901903
 20
34.36815131592221
 30
0.0
 10
42.41151893857355
 20
34.26324538725604
 30
0.0
 10
42.3862732349389
 20
34.15841712370958
 30
0.0
 10
42.36410745749094
 20
34.05379225306313
 30
0.0
 10
42.34508081708304
 20
33.94949763519169
 30
0.0
 10
42.32925218512809
 20
33.8456619410246
 30
0.0
 10
42.31668001069931
 20
33.74241651609267
 30
0.0
 10
42.30742207163606
 20
33.63989643202768
 30
0.0
 10
42.30153499300969
 20
33.53824170813331
 30
0.0
 10
42.2990734581912
 20
33.43759865266951
 30
0.0
 10
42.30008899965733
 20
33.33812495151949
 30
0.0
 10
42.30462761705304
 20
33.23999154034399
 30
0.0
 10
42.31272700266753
 20
33.14338011954131
 30
0.0
 10
42.32441432640979
 20
33.04847951357802
 30
0.0
 10
42.33970410564968
 20
32.95548392205586
 30
0.0
 10
42.35859542325117
 20
32.86459352247391
 30
0.0
 10
42.38106972041569
 20
32.77601085702072
 30
0.0
 10
42.40708941419589
 20
32.68993615493112
 30
0.0
 10
42.4365976556677
 20
32.60656205998831
 30
0.0
 10
42.46951937846951
 20
32.52606843442451
 30
0.0
 10
42.50576355495287
 20
32.44861797196037
 30
0.0
 10
42.54522635366225
 20
32.37435323709739
 30
0.0
 10
42.5877947272476
 20
32.30339544010774
 30
0.0
 10
42.63334998893535
 20
32.23584500521984
 30
0.0
 10
42.6817708270547
 20
32.17178332714993
 30
0.0
 10
42.73293611833014
 20
32.11127624205594
 30
0.0
 10
42.78672534564289
 20
32.05437489156684
 30
0.0
 10
42.84302461919545
 20
32.00112746923165
 30
0.0
 10
42.90170933850706
 20
31.95155022060853
 30
0.0
 10
42.96271117947904
 20
31.90574703416014
 30
0.0
 10
43.01809007998953
 20
31.86862624919209
 30
0.0
 10
43.05357191510689
 20
31.84762667117458
 30
0.0
 10
43.06730429536706
 20
31.83949929586589
 30
0.0
  0
SPLINE
  5
1CF
330
1F
100
AcDbEntity
  8
0
  6
Continuous
 62
     7
370
    25
100
AcDbSpline
210
0.0
220
0.0
230
1.0
 70
     8
 71
     3
 72
    62
 73
    58
 74
     0
 42
0.00000001
 43
0.00000001
 40
0.0
 40
0.0
 40
0.0
 40
0.0
 40
0.0090173108952204
 40
0.0360272992443248
 40
0.0582391468446567
 40
0.0788656119479462
 40
0.0983162007789067
 40
0.1189353271410926
 40
0.1385629149468927
 40
0.1574718050511586
 40
0.1758816137749313
 40
0.193945264622815
 40
0.2117719654280405
 40
0.2294413865177046
 40
0.2470124623291859
 40
0.2645291008404651
 40
0.2820240445304735
 40
0.2995186220191124
 40
0.3170280709353034
 40
0.3345667033091293
 40
0.3521445602318399
 40
0.3697683445883197
 40
0.3874421485936446
 40
0.4051680241270398
 40
0.4229464330950806
 40
0.4407766045267238
 40
0.4586568180981768
 40
0.4765846289945344
 40
0.4945570456432208
 40
0.512570669411271
 40
0.5306218035387584
 40
0.5487065371919957
 40
0.566820809436018
 40
0.5849604570681864
 40
0.6031212495687092
 40
0.6212989138727995
 40
0.6394891512296949
 40
0.657687648066236
 40
0.6758900825060424
 40
0.6940918524256662
 40
0.7122874624667254
 40
0.7304725841380205
 40
0.7486428930940378
 40
0.766794074711711
 40
0.7849218339450797
 40
0.8030219108410628
 40
0.8210901035690565
 40
0.8391223011410921
 40
0.8571145284065873
 40
0.8750630064085868
 40
0.8929642318016376
 40
0.9108150797762175
 40
0.9286129358393161
 40
0.946355862907288
 40
0.9640428115373898
 40
0.9816738828545424
 40
1.0
 40
1.0
 40
1.0
 40
1.0
 10
43.56738554952411
 20
32.70547778245821
 30
0.0
 10
43.56378319614139
 20
32.70761465837612
 30
0.0
 10
43.54939053908308
 20
32.71615222229482
 30
0.0
 10
43.52709891672493
 20
32.73207054007189
 30
0.0
 10
43.50098719249378
 20
32.75483973158184
 30
0.0
 10
43.47802911268462
 20
32.7786797267935
 30
0.0
 10
43.4559066667696
 20
32.8055689134885
 30
0.0
 10
43.43449224025593
 20
32.83600994419594
 30
0.0
 10
43.41382308057008
 20
32.87047160879312
 30
0.0
 10
43.39468561164958
 20
32.90780071782288
 30
0.0
 10
43.37705013334651
 20
32.94811047789172
 30
0.0
 10
43.36094897259151
 20
32.99148775797622
 30
0.0
 10
43.34645990763911
 20
33.03797306978278
 30
0.0
 10
43.3336854172127
 20
33.08756870456119
 30
0.0
 10
43.32273970079485
 20
33.14024487241014
 30
0.0
 10
43.31374037785121
 20
33.19594431683781
 30
0.0
 10
43.30680338210597
 20
33.25458266999678
 30
0.0
 10
43.30203854139348
 20
33.3160510947914
 30
0.0
 10
43.29954617423054
 20
33.38022338576577
 30
0.0
 10
43.29941588536118
 20
33.4469624891841
 30
0.0
 10
43.30172647348125
 20
33.51612278675023
 30
0.0
 10
43.30654554014093
 20
33.58754663289826
 30
0.0
 10
43.31392902687774
 20
33.66106606883003
 30
0.0
 10
43.32392100798887
 20
33.73650438914041
 30
0.0
 10
43.33655367347265
 20
33.81367756717631
 30
0.0
 10
43.35184745179653
 20
33.892395549935
 30
0.0
 10
43.36981123342056
 20
33.97246343200285
 30
0.0
 10
43.39044266447301
 20
34.0536825179337
 30
0.0
 10
43.41372848660625
 20
34.13585128265228
 30
0.0
 10
43.43964490436727
 20
34.21876623973569
 30
0.0
 10
43.46815796572594
 20
34.30222272758712
 30
0.0
 10
43.49922394491808
 20
34.38601562351295
 30
0.0
 10
43.53278971962381
 20
34.46993999553794
 30
0.0
 10
43.56879313682298
 20
34.55379170146731
 30
0.0
 10
43.60716336353828
 20
34.63736794426974
 30
0.0
 10
43.64782122017157
 20
34.72046779235708
 30
0.0
 10
43.69067949532773
 20
34.80289267281276
 30
0.0
 10
43.73564324198387
 20
34.88444684512559
 30
0.0
 10
43.78260981856625
 20
34.96493745625983
 30
0.0
 10
43.83146830083027
 20
35.04417373852089
 30
0.0
 10
43.88210060738419
 20
35.12196930627333
 30
0.0
 10
43.93438205330486
 20
35.19814305312738
 30
0.0
 10
43.98818256980352
 20
35.2725207916451
 30
0.0
 10
44.0433658877314
 20
35.34493405494887
 30
0.0
 10
44.09978976397447
 20
35.41522061401634
 30
0.0
 10
44.15730621421212
 20
35.48322502687471
 30
0.0
 10
44.21576175674237
 20
35.54879921835978
 30
0.0
 10
44.27499768079441
 20
35.61180311707014
 30
0.0
 10
44.3348503277995
 20
35.6721052728084
 30
0.0
 10
44.39515147387721
 20
35.72958375930595
 30
0.0
 10
44.45572853909954
 20
35.78412624429047
 30
0.0
 10
44.5164057071698
 20
35.83563339244287
 30
0.0
 10
44.57700200251048
 20
35.88401012062941
 30
0.0
 10
44.63734109988267
 20
35.92920221600973
 30
0.0
 10
44.697218076956
 20
35.97106463461537
 30
0.0
 10
44.75736695941909
 20
36.0104047264243
 30
0.0
 10
44.79708282343137
 20
36.03390326188305
 30
0.0
 10
44.8173246056046
 20
36.04587964079297
 30
0.0
  0
LINE
  5
1D0
330
1F
100
AcDbEntity
  8
0
  6
Continuous
 62
     7
370
    25
100
AcDbLine
 10
54.9239669571
 20
43.0349893418
 30
0.0
 11
44.3173652393
 21
36.9119285032
 31
0.0
  0
LINE
  5
1D1
330
1F
100
AcDbEntity
  8
0
  6
Continuous
 62
     7
370
    25
100
AcDbLine
 10
44.8173246056
 20
36.0458796408
 30
0.0
 11
55.4239263234
 21
42.1689404795
 31
0.0
  0
LINE
  5
1D2
330
1F
100
AcDbEntity
  8
0
  6
Continuous
 62
     7
370
    25
100
AcDbLine
 10
45.0673855495
 20
31.839264715
 30
0.0
 11
43.5673855495
 21
32.7054777825
 31
0.0
  0
LINE
  5
1D3
330
1F
100
AcDbEntity
  8
0
  6
Continuous
 62
     7
370
    25
100
AcDbLine
 10
43.0673042954
 20
31.8394992959
 30
0.0
 11
44.5673042954
 21
30.9732862284
 31
0.0
  0
LINE
  5
1D4
330
1F
100
AcDbEntity
  8
0
  6
Continuous
 62
     7
370
    25
100
AcDbLine
 10
59.1666076442
 20
45.4842136773
 30
0.0
 11
54.9239669571
 21
43.0349893418
 31
0.0
  0
LINE
  5
1D5
330
1F
100
AcDbEntity
  8
0
  6
Continuous
 62
     7
370
    25
100
AcDbLine
 10
55.4239263234
 20
42.1689404795
 30
0.0
 11
59.6665670105
 21
44.6181648149
 31
0.0
  0
LWPOLYLINE
  5
1D6
330
1F
100
AcDbEntity
  8
0
  6
Continuous
 62
     7
370
    25
100
AcDbPolyline
 90
       26
 70
   128
 43
0.0
 10
62.3244369287
 20
46.6664567562
 10
62.322704154
 20
46.6832961702
 10
62.3176147066
 20
46.701078121
 10
62.3094883752
 20
46.7186853031
 10
62.2988357671
 20
46.7350113926
 10
62.2863262247
 20
46.7490305612
 10
62.2727457687
 20
46.759861933
 10
62.2589477091
 20
46.766824933
 10
62.2457990287
 20
46.7694820504
 10
62.2341259074
 20
46.7676663288
 10
62.2246618104
 20
46.7614918565
 10
62.2180014016
 20
46.7513465983
 10
62.2145631792
 20
46.7378680183
 10
62.2145631792
 20
46.721903025
 10
62.2180014016
 20
46.7044547578
 10
62.2246618104
 20
46.6866195555
 10
62.2341259074
 20
46.6695180694
 10
62.2457990287
 20
46.6542248487
 10
62.2589477091
 20
46.6417008229
 10
62.2727457687
 20
46.6327329224
 10
62.2863262247
 20
46.6278846334
 10
62.2988357671
 20
46.6274605919
 10
62.3094883752
 20
46.6314874418
 10
62.3176147066
 20
46.6397121613
 10
62.322704154
 20
46.6516179612
 10
62.3244369287
 20
46.6664567562
  0
LWPOLYLINE
  5
1D7
330
1F
100
AcDbEntity
  8
0
  6
Continuous
 62
     7
370
    25
100
AcDbPolyline
 90
       17
 70
   128
 43
0.0
 10
62.4305029459
 20
46.6640075319
 10
62.4288271095
 20
46.6870943401
 10
62.4238505198
 20
46.7114145469
 10
62.415724388
 20
46.7362291951
 10
62.4046956224
 20
46.760784304
 10
62.3910993265
 20
46.7843337792
 10
62.375348617
 20
46.8061620817
 10
62.357922071
 20
46.8256059696
 10
62.3393491854
 20
46.8420746503
 10
62.320194288
 20
46.8550677312
 10
62.3010393906
 20
46.8641904241
 10
62.282466505
 20
46.8691655407
 10
62.2650399591
 20
46.8698419144
 10
62.2492892495
 20
46.8661989941
 10
62.2356929536
 20
46.858347468
 10
62.224664188
 20
46.8465259008
 10
62.217015666
 20
46.8323042228
  0
LWPOLYLINE
  5
1D8
330
1F
100
AcDbEntity
  8
0
  6
Continuous
 62
     7
370
    25
100
AcDbPolyline
 90
        8
 70
   128
 43
0.0
 10
62.3591925402
 20
46.5860199675
 10
62.375348617
 20
46.5855328148
 10
62.3910993265
 20
46.5891757351
 10
62.4046956224
 20
46.5970272612
 10
62.415724388
 20
46.6088488284
 10
62.4238505198
 20
46.6242812444
 10
62.4288271095
 20
46.6428556031
 10
62.4305029459
 20
46.6640075319
  0
LWPOLYLINE
  5
1D9
330
1F
100
AcDbEntity
  8
0
  6
Continuous
 62
     7
370
    25
100
AcDbPolyline
 90
       15
 70
   128
 43
0.0
 10
62.4411095476
 20
46.6701305927
 10
62.4394337112
 20
46.693217401
 10
62.4344571215
 20
46.7175376078
 10
62.4263309897
 20
46.7423522559
 10
62.4153022241
 20
46.7669073648
 10
62.4017059283
 20
46.79045684
 10
62.3859552187
 20
46.8122851425
 10
62.3685286727
 20
46.8317290305
 10
62.3499557872
 20
46.8481977112
 10
62.3308008897
 20
46.8611907921
 10
62.3116459923
 20
46.870313485
 10
62.2930731068
 20
46.8752886015
 10
62.2756465608
 20
46.8759649752
 10
62.2598958512
 20
46.8723220549
 10
62.2528072286
 20
46.8689140479
  0
ARC
  5
1DA
330
1F
100
AcDbEntity
  8
0
  6
Continuous
 62
     7
370
    25
100
AcDbCircle
 10
62.3631130207
 20
46.6623971628
 30
0.0
 40
0.0783789777464148
100
AcDbArc
 50
305.6497565293
 51
5.6624238641
  0
LINE
  5
1DB
330
1F
100
AcDbEntity
  8
0
  6
Continuous
 62
     7
370
    25
100
AcDbLine
 10
62.2692825998
 20
46.742611098
 30
0.0
 11
62.3025166185
 21
46.7012682946
 31
0.0
  0
LINE
  5
1DC
330
1F
100
AcDbEntity
  8
0
  6
Continuous
 62
     7
370
    25
100
AcDbLine
 10
62.2360485811
 20
46.7396394759
 30
0.0
 11
62.2692825998
 21
46.742611098
 31
0.0
  0
LINE
  5
1DD
330
1F
100
AcDbEntity
  8
0
  6
Continuous
 62
     7
370
    25
100
AcDbLine
 10
62.2360485811
 20
46.6953250505
 30
0.0
 11
62.2360485811
 21
46.7396394759
 31
0.0
  0
LINE
  5
1DE
330
1F
100
AcDbEntity
  8
0
  6
Continuous
 62
     7
370
    25
100
AcDbLine
 10
62.2692825998
 20
46.6539822471
 30
0.0
 11
62.2360485811
 21
46.6953250505
 31
0.0
  0
LINE
  5
1DF
330
1F
100
AcDbEntity
  8
0
  6
Continuous
 62
     7
370
    25
100
AcDbLine
 10
62.3025166185
 20
46.6569538692
 30
0.0
 11
62.2692825998
 21
46.6539822471
 31
0.0
  0
LINE
  5
1E0
330
1F
100
AcDbEntity
  8
0
  6
Continuous
 62
     7
370
    25
100
AcDbLine
 10
62.3025166185
 20
46.7012682946
 30
0.0
 11
62.3025166185
 21
46.6569538692
 31
0.0
  0
ARC
  5
1E1
330
1F
100
AcDbEntity
  8
0
  6
Continuous
 62
     7
370
    25
100
AcDbCircle
 10
62.3394492301
 20
46.7352271221
 30
0.0
 40
0.0636363456353896
100
AcDbArc
 50
218.1926815762
 51
234.5234451208
  0
ARC
  5
1E2
330
1F
100
AcDbEntity
  8
0
  6
Continuous
 62
     7
370
    25
100
AcDbCircle
 10
62.3448816461
 20
46.742030776
 30
0.0
 40
0.0721400363880417
100
AcDbArc
 50
182.6392873612
 51
219.7720723791
  0
LINE
  5
1E3
330
1F
100
AcDbEntity
  8
0
  6
Continuous
 62
     7
370
    25
100
AcDbLine
 10
62.3025166185
 20
46.6731678378
 30
0.0
 11
62.2692825998
 21
46.6539822471
 31
0.0
  0
LINE
  5
1E4
330
1F
100
AcDbEntity
  8
0
  6
Continuous
 62
     7
370
    25
100
AcDbLine
 10
62.2728181337
 20
46.7165516614
 30
0.0
 11
62.2360485811
 21
46.6953250505
 31
0.0
  0
LINE
  5
1E5
330
1F
100
AcDbEntity
  8
0
  6
Continuous
 62
     7
370
    25
100
AcDbLine
 10
62.2728181337
 20
46.7165516614
 30
0.0
 11
62.2728181337
 21
46.7382129274
 31
0.0
  0
LINE
  5
1E6
330
1F
100
AcDbEntity
  8
0
  6
Continuous
 62
     7
370
    25
100
AcDbLine
 10
62.289435143
 20
46.6958802597
 30
0.0
 11
62.2728181337
 21
46.7165516614
 31
0.0
  0
LINE
  5
1E7
330
1F
100
AcDbEntity
  8
0
  6
Continuous
 62
     7
370
    25
100
AcDbLine
 10
62.3025166185
 20
46.6796070286
 30
0.0
 11
62.289435143
 21
46.6958802597
 31
0.0
  0
LWPOLYLINE
  5
1E8
330
1F
100
AcDbEntity
  8
0
  6
Continuous
 62
     7
370
    25
100
AcDbPolyline
 90
       26
 70
   128
 43
0.0
 10
59.3244369287
 20
48.3983198924
 10
59.322704154
 20
48.4151593065
 10
59.3176147066
 20
48.4329412572
 10
59.3094883752
 20
48.4505484394
 10
59.2988357671
 20
48.4668745288
 10
59.2863262247
 20
48.4808936974
 10
59.2727457687
 20
48.4917250692
 10
59.2589477091
 20
48.4986880693
 10
59.2457990287
 20
48.5013451867
 10
59.2341259074
 20
48.499529465
 10
59.2246618104
 20
48.4933549927
 10
59.2180014016
 20
48.4832097346
 10
59.2145631792
 20
48.4697311545
 10
59.2145631792
 20
48.4537661613
 10
59.2180014016
 20
48.4363178941
 10
59.2246618104
 20
48.4184826918
 10
59.2341259074
 20
48.4013812056
 10
59.2457990287
 20
48.386087985
 10
59.2589477091
 20
48.3735639591
 10
59.2727457687
 20
48.3645960586
 10
59.2863262247
 20
48.3597477697
 10
59.2988357671
 20
48.3593237281
 10
59.3094883752
 20
48.363350578
 10
59.3176147066
 20
48.3715752976
 10
59.322704154
 20
48.3834810975
 10
59.3244369287
 20
48.3983198924
  0
LWPOLYLINE
  5
1E9
330
1F
100
AcDbEntity
  8
0
  6
Continuous
 62
     7
370
    25
100
AcDbPolyline
 90
       17
 70
   128
 43
0.0
 10
59.4305029459
 20
48.3958706681
 10
59.4288271095
 20
48.4189574764
 10
59.4238505198
 20
48.4432776832
 10
59.415724388
 20
48.4680923313
 10
59.4046956224
 20
48.4926474402
 10
59.3910993265
 20
48.5161969154
 10
59.375348617
 20
48.5380252179
 10
59.357922071
 20
48.5574691059
 10
59.3393491854
 20
48.5739377866
 10
59.320194288
 20
48.5869308675
 10
59.3010393906
 20
48.5960535604
 10
59.282466505
 20
48.6010286769
 10
59.2650399591
 20
48.6017050507
 10
59.2492892495
 20
48.5980621303
 10
59.2356929536
 20
48.5902106042
 10
59.224664188
 20
48.578389037
 10
59.217015666
 20
48.5641673591
  0
LWPOLYLINE
  5
1EA
330
1F
100
AcDbEntity
  8
0
  6
Continuous
 62
     7
370
    25
100
AcDbPolyline
 90
        8
 70
   128
 43
0.0
 10
59.3591925402
 20
48.3178831038
 10
59.375348617
 20
48.317395951
 10
59.3910993265
 20
48.3210388713
 10
59.4046956224
 20
48.3288903974
 10
59.415724388
 20
48.3407119647
 10
59.4238505198
 20
48.3561443807
 10
59.4288271095
 20
48.3747187393
 10
59.4305029459
 20
48.3958706681
  0
LWPOLYLINE
  5
1EB
330
1F
100
AcDbEntity
  8
0
  6
Continuous
 62
     7
370
    25
100
AcDbPolyline
 90
       15
 70
   128
 43
0.0
 10
59.4411095476
 20
48.401993729
 10
59.4394337112
 20
48.4250805372
 10
59.4344571215
 20
48.449400744
 10
59.4263309897
 20
48.4742153922
 10
59.4153022241
 20
48.4987705011
 10
59.4017059283
 20
48.5223199762
 10
59.3859552187
 20
48.5441482788
 10
59.3685286727
 20
48.5635921667
 10
59.3499557872
 20
48.5800608474
 10
59.3308008897
 20
48.5930539283
 10
59.3116459923
 20
48.6021766212
 10
59.2930731068
 20
48.6071517378
 10
59.2756465608
 20
48.6078281115
 10
59.2598958512
 20
48.6041851912
 10
59.2528072286
 20
48.6007771842
  0
ARC
  5
1EC
330
1F
100
AcDbEntity
  8
0
  6
Continuous
 62
     7
370
    25
100
AcDbCircle
 10
59.3631130207
 20
48.3942602991
 30
0.0
 40
0.0783789777465378
100
AcDbArc
 50
305.6497565294
 51
5.662423864
  0
LINE
  5
1ED
330
1F
100
AcDbEntity
  8
0
  6
Continuous
 62
     7
370
    25
100
AcDbLine
 10
59.2692825998
 20
48.4744742342
 30
0.0
 11
59.3025166185
 21
48.4331314309
 31
0.0
  0
LINE
  5
1EE
330
1F
100
AcDbEntity
  8
0
  6
Continuous
 62
     7
370
    25
100
AcDbLine
 10
59.2360485811
 20
48.4715026121
 30
0.0
 11
59.2692825998
 21
48.4744742342
 31
0.0
  0
LINE
  5
1EF
330
1F
100
AcDbEntity
  8
0
  6
Continuous
 62
     7
370
    25
100
AcDbLine
 10
59.2360485811
 20
48.4271881867
 30
0.0
 11
59.2360485811
 21
48.4715026121
 31
0.0
  0
LINE
  5
1F0
330
1F
100
AcDbEntity
  8
0
  6
Continuous
 62
     7
370
    25
100
AcDbLine
 10
59.2692825998
 20
48.3858453834
 30
0.0
 11
59.2360485811
 21
48.4271881867
 31
0.0
  0
LINE
  5
1F1
330
1F
100
AcDbEntity
  8
0
  6
Continuous
 62
     7
370
    25
100
AcDbLine
 10
59.3025166185
 20
48.3888170055
 30
0.0
 11
59.2692825998
 21
48.3858453834
 31
0.0
  0
LINE
  5
1F2
330
1F
100
AcDbEntity
  8
0
  6
Continuous
 62
     7
370
    25
100
AcDbLine
 10
59.3025166185
 20
48.4331314309
 30
0.0
 11
59.3025166185
 21
48.3888170055
 31
0.0
  0
ARC
  5
1F3
330
1F
100
AcDbEntity
  8
0
  6
Continuous
 62
     7
370
    25
100
AcDbCircle
 10
59.3394492301
 20
48.4670902584
 30
0.0
 40
0.0636363456352966
100
AcDbArc
 50
218.1926815762
 51
234.5234451208
  0
ARC
  5
1F4
330
1F
100
AcDbEntity
  8
0
  6
Continuous
 62
     7
370
    25
100
AcDbCircle
 10
59.3448816461
 20
48.4738939122
 30
0.0
 40
0.0721400363879934
100
AcDbArc
 50
182.6392873612
 51
219.7720723791
  0
LINE
  5
1F5
330
1F
100
AcDbEntity
  8
0
  6
Continuous
 62
     7
370
    25
100
AcDbLine
 10
59.3025166185
 20
48.405030974
 30
0.0
 11
59.2692825998
 21
48.3858453834
 31
0.0
  0
LINE
  5
1F6
330
1F
100
AcDbEntity
  8
0
  6
Continuous
 62
     7
370
    25
100
AcDbLine
 10
59.2728181337
 20
48.4484147976
 30
0.0
 11
59.2360485811
 21
48.4271881867
 31
0.0
  0
LINE
  5
1F7
330
1F
100
AcDbEntity
  8
0
  6
Continuous
 62
     7
370
    25
100
AcDbLine
 10
59.2728181337
 20
48.4484147976
 30
0.0
 11
59.2728181337
 21
48.4700760637
 31
0.0
  0
LINE
  5
1F8
330
1F
100
AcDbEntity
  8
0
  6
Continuous
 62
     7
370
    25
100
AcDbLine
 10
59.289435143
 20
48.427743396
 30
0.0
 11
59.2728181337
 21
48.4484147976
 31
0.0
  0
LINE
  5
1F9
330
1F
100
AcDbEntity
  8
0
  6
Continuous
 62
     7
370
    25
100
AcDbLine
 10
59.3025166185
 20
48.4114701649
 30
0.0
 11
59.289435143
 21
48.427743396
 31
0.0
  0
LWPOLYLINE
  5
1FA
330
1F
100
AcDbEntity
  8
0
  6
Continuous
 62
     7
370
    25
100
AcDbPolyline
 90
       26
 70
   128
 43
0.0
 10
62.3244369287
 20
43.202167485
 10
62.322704154
 20
43.219006899
 10
62.3176147066
 20
43.2367888498
 10
62.3094883752
 20
43.2543960319
 10
62.2988357671
 20
43.2707221214
 10
62.2863262247
 20
43.28474129
 10
62.2727457687
 20
43.2955726618
 10
62.2589477091
 20
43.3025356618
 10
62.2457990287
 20
43.3051927792
 10
62.2341259074
 20
43.3033770576
 10
62.2246618104
 20
43.2972025853
 10
62.2180014016
 20
43.2870573271
 10
62.2145631792
 20
43.2735787471
 10
62.2145631792
 20
43.2576137538
 10
62.2180014016
 20
43.2401654866
 10
62.2246618104
 20
43.2223302843
 10
62.2341259074
 20
43.2052287982
 10
62.2457990287
 20
43.1899355775
 10
62.2589477091
 20
43.1774115517
 10
62.2727457687
 20
43.1684436512
 10
62.2863262247
 20
43.1635953622
 10
62.2988357671
 20
43.1631713207
 10
62.3094883752
 20
43.1671981706
 10
62.3176147066
 20
43.1754228901
 10
62.322704154
 20
43.18732869
 10
62.3244369287
 20
43.202167485
  0
LWPOLYLINE
  5
1FB
330
1F
100
AcDbEntity
  8
0
  6
Continuous
 62
     7
370
    25
100
AcDbPolyline
 90
       17
 70
   128
 43
0.0
 10
62.4305029459
 20
43.1997182607
 10
62.4288271095
 20
43.2228050689
 10
62.4238505198
 20
43.2471252757
 10
62.415724388
 20
43.2719399239
 10
62.4046956224
 20
43.2964950328
 10
62.3910993265
 20
43.320044508
 10
62.375348617
 20
43.3418728105
 10
62.357922071
 20
43.3613166984
 10
62.3393491854
 20
43.3777853791
 10
62.320194288
 20
43.39077846
 10
62.3010393906
 20
43.3999011529
 10
62.282466505
 20
43.4048762695
 10
62.2650399591
 20
43.4055526432
 10
62.2492892495
 20
43.4019097229
 10
62.2356929536
 20
43.3940581968
 10
62.224664188
 20
43.3822366296
 10
62.217015666
 20
43.3680149516
  0
LWPOLYLINE
  5
1FC
330
1F
100
AcDbEntity
  8
0
  6
Continuous
 62
     7
370
    25
100
AcDbPolyline
 90
        8
 70
   128
 43
0.0
 10
62.3591925402
 20
43.1217306963
 10
62.375348617
 20
43.1212435436
 10
62.3910993265
 20
43.1248864639
 10
62.4046956224
 20
43.13273799
 10
62.415724388
 20
43.1445595572
 10
62.4238505198
 20
43.1599919732
 10
62.4288271095
 20
43.1785663319
 10
62.4305029459
 20
43.1997182607
  0
LWPOLYLINE
  5
1FD
330
1F
100
AcDbEntity
  8
0
  6
Continuous
 62
     7
370
    25
100
AcDbPolyline
 90
       15
 70
   128
 43
0.0
 10
62.4411095476
 20
43.2058413215
 10
62.4394337112
 20
43.2289281298
 10
62.4344571215
 20
43.2532483366
 10
62.4263309897
 20
43.2780629847
 10
62.4153022241
 20
43.3026180936
 10
62.4017059283
 20
43.3261675688
 10
62.3859552187
 20
43.3479958713
 10
62.3685286727
 20
43.3674397593
 10
62.3499557872
 20
43.38390844
 10
62.3308008897
 20
43.3969015209
 10
62.3116459923
 20
43.4060242138
 10
62.2930731068
 20
43.4109993303
 10
62.2756465608
 20
43.411675704
 10
62.2598958512
 20
43.4080327837
 10
62.2528072286
 20
43.4046247767
  0
ARC
  5
1FE
330
1F
100
AcDbEntity
  8
0
  6
Continuous
 62
     7
370
    25
100
AcDbCircle
 10
62.3631130207
 20
43.1981078916
 30
0.0
 40
0.0783789777465039
100
AcDbArc
 50
305.6497565294
 51
5.662423864
  0
LINE
  5
1FF
330
1F
100
AcDbEntity
  8
0
  6
Continuous
 62
     7
370
    25
100
AcDbLine
 10
62.2692825998
 20
43.2783218268
 30
0.0
 11
62.3025166185
 21
43.2369790234
 31
0.0
  0
LINE
  5
200
330
1F
100
AcDbEntity
  8
0
  6
Continuous
 62
     7
370
    25
100
AcDbLine
 10
62.2360485811
 20
43.2753502047
 30
0.0
 11
62.2692825998
 21
43.2783218268
 31
0.0
  0
LINE
  5
201
330
1F
100
AcDbEntity
  8
0
  6
Continuous
 62
     7
370
    25
100
AcDbLine
 10
62.2360485811
 20
43.2310357793
 30
0.0
 11
62.2360485811
 21
43.2753502047
 31
0.0
  0
LINE
  5
202
330
1F
100
AcDbEntity
  8
0
  6
Continuous
 62
     7
370
    25
100
AcDbLine
 10
62.2692825998
 20
43.1896929759
 30
0.0
 11
62.2360485811
 21
43.2310357793
 31
0.0
  0
LINE
  5
203
330
1F
100
AcDbEntity
  8
0
  6
Continuous
 62
     7
370
    25
100
AcDbLine
 10
62.3025166185
 20
43.192664598
 30
0.0
 11
62.2692825998
 21
43.1896929759
 31
0.0
  0
LINE
  5
204
330
1F
100
AcDbEntity
  8
0
  6
Continuous
 62
     7
370
    25
100
AcDbLine
 10
62.3025166185
 20
43.2369790234
 30
0.0
 11
62.3025166185
 21
43.192664598
 31
0.0
  0
ARC
  5
205
330
1F
100
AcDbEntity
  8
0
  6
Continuous
 62
     7
370
    25
100
AcDbCircle
 10
62.3394492301
 20
43.2709378509
 30
0.0
 40
0.0636363456345683
100
AcDbArc
 50
218.1926815761
 51
234.5234451209
  0
ARC
  5
206
330
1F
100
AcDbEntity
  8
0
  6
Continuous
 62
     7
370
    25
100
AcDbCircle
 10
62.3448816461
 20
43.2777415048
 30
0.0
 40
0.0721400363879479
100
AcDbArc
 50
182.6392873612
 51
219.7720723791
  0
LINE
  5
207
330
1F
100
AcDbEntity
  8
0
  6
Continuous
 62
     7
370
    25
100
AcDbLine
 10
62.3025166185
 20
43.2088785666
 30
0.0
 11
62.2692825998
 21
43.1896929759
 31
0.0
  0
LINE
  5
208
330
1F
100
AcDbEntity
  8
0
  6
Continuous
 62
     7
370
    25
100
AcDbLine
 10
62.2728181337
 20
43.2522623902
 30
0.0
 11
62.2360485811
 21
43.2310357793
 31
0.0
  0
LINE
  5
209
330
1F
100
AcDbEntity
  8
0
  6
Continuous
 62
     7
370
    25
100
AcDbLine
 10
62.2728181337
 20
43.2522623902
 30
0.0
 11
62.2728181337
 21
43.2739236562
 31
0.0
  0
LINE
  5
20A
330
1F
100
AcDbEntity
  8
0
  6
Continuous
 62
     7
370
    25
100
AcDbLine
 10
62.289435143
 20
43.2315909885
 30
0.0
 11
62.2728181337
 21
43.2522623902
 31
0.0
  0
LINE
  5
20B
330
1F
100
AcDbEntity
  8
0
  6
Continuous
 62
     7
370
    25
100
AcDbLine
 10
62.3025166185
 20
43.2153177574
 30
0.0
 11
62.289435143
 21
43.2315909885
 31
0.0
  0
LWPOLYLINE
  5
20C
330
1F
100
AcDbEntity
  8
0
  6
Continuous
 62
     7
370
    25
100
AcDbPolyline
 90
        4
 70
   128
 43
0.0
 10
62.2557242872
 20
43.4610623917
 10
62.2450335086
 20
43.4537152341
 10
62.1883744829
 20
43.4182339911
 10
62.1882607086
 20
43.4181682999
  0
LINE
  5
20D
330
1F
100
AcDbEntity
  8
0
  6
Continuous
 62
     7
370
    25
100
AcDbLine
 10
62.5315581938
 20
43.1256152838
 30
0.0
 11
62.5288135602
 21
43.1240362247
 31
0.0
  0
LWPOLYLINE
  5
20E
330
1F
100
AcDbEntity
  8
0
  6
Continuous
 62
     7
370
    25
100
AcDbPolyline
 90
       83
 70
   128
 43
0.0
 10
59.4148765749
 20
48.7740100045
 10
59.4782163055
 20
48.8078206859
 10
59.5438576216
 20
48.8374316795
 10
59.6117029999
 20
48.8627989922
 10
59.6816516426
 20
48.8838849358
 10
59.7535996272
 20
48.9006581829
 10
59.8274400605
 20
48.9130938136
 10
59.903063238
 20
48.9211733523
 10
59.9803568064
 20
48.9248847951
 10
60.0592059307
 20
48.9242226281
 10
60.1394934649
 20
48.919187835
 10
60.2211001259
 20
48.909787896
 10
60.3039046708
 20
48.8960367765
 10
60.387784077
 20
48.8779549066
 10
60.472613725
 20
48.8555691505
 10
60.5582675834
 20
48.8289127667
 10
60.6446183965
 20
48.7980253585
 10
60.7315378729
 20
48.7629528154
 10
60.8188968764
 20
48.7237472445
 10
60.906565618
 20
48.6804668935
 10
60.9944138483
 20
48.633176064
 10
61.0823110513
 20
48.5819450159
 10
61.1701266382
 20
48.5268498632
 10
61.2577301414
 20
48.4679724605
 10
61.3449914087
 20
48.405400282
 10
61.4317807961
 20
48.3392262912
 10
61.5179693606
 20
48.2695488025
 10
61.603429052
 20
48.1964713358
 10
61.688032903
 20
48.1201024622
 10
61.7716552177
 20
48.0405556428
 10
61.8541717586
 20
47.9579490602
 10
61.935459931
 20
47.8724054429
 10
62.015398965
 20
47.7840518829
 10
62.0938700955
 20
47.6930196471
 10
62.1707567378
 20
47.5994439819
 10
62.2459446618
 20
47.5034639125
 10
62.3193221606
 20
47.4052220364
 10
62.3907802176
 20
47.3048643115
 10
62.4602126675
 20
47.2025398391
 10
62.5275163546
 20
47.0984006425
 10
62.592591286
 20
46.9926014412
 10
62.6553407799
 20
46.8852994209
 10
62.7156716094
 20
46.7766540002
 10
62.7734941412
 20
46.6668265933
 10
62.8287224683
 20
46.5559803707
 10
62.8812745381
 20
46.4442800166
 10
62.931072274
 20
46.3318914839
 10
62.9780416917
 20
46.2189817482
 10
63.0221130087
 20
46.1057185594
 10
63.0632207483
 20
45.9922701923
 10
63.1013038368
 20
45.8788051972
 10
63.1363056942
 20
45.7654921487
 10
63.1681743184
 20
45.652499396
 10
63.196862362
 20
45.5399948122
 10
63.2223272033
 20
45.4281455453
 10
63.2445310093
 20
45.3171177696
 10
63.2634407918
 20
45.2070764389
 10
63.2790284565
 20
45.0981850414
 10
63.2912708449
 20
44.990605357
 10
63.3001497685
 20
44.8844972167
 10
63.3056520358
 20
44.7800182651
 10
63.3077694721
 20
44.6773237266
 10
63.3064989317
 20
44.5765661744
 10
63.301842302
 20
44.4778953036
 10
63.2938065015
 20
44.3814577096
 10
63.282403469
 20
44.2873966696
 10
63.2676501458
 20
44.1958519299
 10
63.2495684511
 20
44.1069594984
 10
63.2281852487
 20
44.0208514426
 10
63.2035323077
 20
43.9376556929
 10
63.1756462549
 20
43.8574958533
 10
63.1445685205
 20
43.7804910171
 10
63.1103452768
 20
43.7067555904
 10
63.0730273691
 20
43.6363991216
 10
63.0326702406
 20
43.5695261394
 10
62.9893338499
 20
43.5062359969
 10
62.9430825818
 20
43.4466227241
 10
62.8939851517
 20
43.3907748884
 10
62.8421145036
 20
43.3387754629
 10
62.7875477016
 20
43.290701703
 10
62.7303658157
 20
43.2466250319
 10
62.6706538008
 20
43.2066109343
 10
62.6397455313
 20
43.1880705043
  0
ARC
  5
20F
330
1F
100
AcDbEntity
  8
0
  6
Continuous
 62
     7
370
    25
100
AcDbCircle
 10
48.6157124537
 20
28.9056581953
 30
0.0
 40
0.5339862160156182
100
AcDbArc
 50
239.9959078201
 51
245.7072840483
  0
ELLIPSE
  5
210
330
1F
100
AcDbEntity
  8
0
  6
Continuous
 62
     7
370
    25
100
AcDbEllipse
 10
48.3500735783
 20
29.3662410068
 30
0.0
 11
-0.2600075789209342
 21
0.9705436209909309
 31
0.0
210
0.0
220
0.0
230
1.0
 40
0.5176380889
 41
2.745343191948279
 42
5.805488694021678
  0
LWPOLYLINE
  5
211
330
1F
100
AcDbEntity
  8
0
  6
Continuous
 62
     7
370
    25
100
AcDbPolyline
 90
       43
 70
   128
 43
0.0
 10
47.3538233062
 20
30.8653525432
 10
47.356251321
 20
30.8639593632
 10
47.3988848303
 20
30.8365698354
 10
47.4388562897
 20
30.8051783285
 10
47.475925306
 20
30.7699736348
 10
47.5098689418
 20
30.7311674793
 10
47.5404830561
 20
30.6889932469
 10
47.567583532
 20
30.6437045784
 10
47.5910073841
 20
30.5955738452
 10
47.6106137385
 20
30.5448905111
 10
47.6262846803
 20
30.4919593917
 10
47.6379259627
 20
30.437098821
 10
47.6454675736
 20
30.3806387369
 10
47.6488641568
 20
30.3229186969
 10
47.6480952849
 20
30.2642858363
 10
47.643165582
 20
30.2050927799
 10
47.634104696
 20
30.1456955217
 10
47.62096712
 20
30.0864512838
 10
47.6038318649
 20
30.0277163681
 10
47.5828019843
 20
29.9698440132
 10
47.5580039542
 20
29.9131822703
 10
47.529586913
 20
29.8580719097
 10
47.4977217641
 20
29.8048443718
 10
47.4626001483
 20
29.7538197731
 10
47.424433291
 20
29.7053049816
 10
47.3834507322
 20
29.6595917709
 10
47.339898946
 20
29.6169550657
 10
47.2940398577
 20
29.5776512882
 10
47.2461492695
 20
29.5419168159
 10
47.1965152009
 20
29.50996656
 10
47.145436157
 20
29.4819926733
 10
47.0932193333
 20
29.4581633939
 10
47.0401787679
 20
29.4386220339
 10
46.9866334529
 20
29.4234861175
 10
46.9329054162
 20
29.4128466737
 10
46.8793177845
 20
29.4067676894
 10
46.8261928401
 20
29.4052857244
 10
46.7738500828
 20
29.4084096913
 10
46.7226043079
 20
29.4161208023
 10
46.6727637137
 20
29.4283726818
 10
46.6246280473
 20
29.4450916457
 10
46.5784868023
 20
29.466177144
 10
46.5537032516
 20
29.4797990915
  0
SPLINE
  5
212
330
1F
100
AcDbEntity
  8
0
  6
Continuous
 62
     7
370
    25
100
AcDbSpline
210
0.0
220
0.0
230
1.0
 70
     8
 71
     3
 72
    12
 73
     8
 74
     0
 42
0.00000001
 43
0.00000001
 40
0.0
 40
0.0
 40
0.0
 40
0.0
 40
0.2144955010966898
 40
0.4289722005398343
 40
0.6439365398010326
 40
0.8592209552562792
 40
0.9999999999999999
 40
0.9999999999999999
 40
0.9999999999999999
 40
0.9999999999999999
 10
48.24188696256858
 20
30.34919229449845
 30
0.0
 10
48.23757651309702
 20
30.35175687692668
 30
0.0
 10
48.22895599198736
 20
30.35688581698404
 30
0.0
 10
48.21096829790685
 20
30.3683322739309
 30
0.0
 10
48.19166760460509
 20
30.38062484274642
 30
0.0
 10
48.17422134748094
 20
30.39152242698389
 30
0.0
 10
48.16525818970455
 20
30.39669471189198
 30
0.0
 10
48.16171436976598
 20
30.39873971063489
 30
0.0
  0
SPLINE
  5
213
330
1F
100
AcDbEntity
  8
0
  6
Continuous
 62
     7
370
    25
100
AcDbSpline
210
0.0
220
0.0
230
1.0
 70
     8
 71
     3
 72
    14
 73
    10
 74
     0
 42
0.00000001
 43
0.00000001
 40
0.0
 40
0.0
 40
0.0
 40
0.0
 40
0.127860605950087
 40
0.2823976679949527
 40
0.4364498417906718
 40
0.5904946683443345
 40
0.7450193907324502
 40
0.8997679874824301
 40
0.9999999999999999
 40
0.9999999999999999
 40
0.9999999999999999
 40
0.9999999999999999
 10
48.1949670735954
 20
30.37849052404396
 30
0.0
 10
48.20058083171937
 20
30.37553441728739
 30
0.0
 10
48.21297958574622
 20
30.36900545046296
 30
0.0
 10
48.23018435017327
 20
30.35941031589717
 30
0.0
 10
48.2441862579214
 20
30.35093087729716
 30
0.0
 10
48.25242516399898
 20
30.34515901492507
 30
0.0
 10
48.25404762915115
 20
30.34304991584427
 30
0.0
 10
48.24989367323948
 20
30.34468144035476
 30
0.0
 10
48.24414625369442
 20
30.34791944561509
 30
0.0
 10
48.24188696256858
 20
30.34919229449845
 30
0.0
  0
SPLINE
  5
214
330
1F
100
AcDbEntity
  8
0
  6
Continuous
 62
     7
370
    25
100
AcDbSpline
210
0.0
220
0.0
230
1.0
 70
     8
 71
     3
 72
    12
 73
     8
 74
     0
 42
0.00000001
 43
0.00000001
 40
0.0
 40
0.0
 40
0.0
 40
0.0
 40
0.2144955010967476
 40
0.42897220053987
 40
0.6439365398010377
 40
0.8592209552562825
 40
1.0
 40
1.0
 40
1.0
 40
1.0
 10
47.52788696256858
 20
30.76150971461496
 30
0.0
 10
47.52357651309702
 20
30.76407429704317
 30
0.0
 10
47.51495599198736
 20
30.76920323710054
 30
0.0
 10
47.49696829790686
 20
30.7806496940474
 30
0.0
 10
47.4776676046051
 20
30.79294226286292
 30
0.0
 10
47.46022134748095
 20
30.80383984710039
 30
0.0
 10
47.45125818970455
 20
30.80901213200849
 30
0.0
 10
47.44771436976598
 20
30.8110571307514
 30
0.0
  0
SPLINE
  5
215
330
1F
100
AcDbEntity
  8
0
  6
Continuous
 62
     7
370
    25
100
AcDbSpline
210
0.0
220
0.0
230
1.0
 70
     8
 71
     3
 72
    11
 73
     7
 74
     0
 42
0.00000001
 43
0.00000001
 40
0.0
 40
0.0
 40
0.0
 40
0.0
 40
0.0346034721884807
 40
0.398890867059238
 40
0.763706039018329
 40
0.9999999999999999
 40
0.9999999999999999
 40
0.9999999999999999
 40
0.9999999999999999
 10
47.53654554845218
 20
30.75862609590394
 30
0.0
 10
47.53681044789511
 20
30.75844371774245
 30
0.0
 10
47.53986407118181
 20
30.75634135695702
 30
0.0
 10
47.53962990222441
 20
30.75558728097708
 30
0.0
 10
47.53595653336659
 20
30.75696576284025
 30
0.0
 10
47.5301639912315
 20
30.76022752641772
 30
0.0
 10
47.52788696256858
 20
30.76150971461496
 30
0.0
  0
SPLINE
  5
216
330
1F
100
AcDbEntity
  8
0
  6
Continuous
 62
     7
370
    25
100
AcDbSpline
210
0.0
220
0.0
230
1.0
 70
    11
 71
     3
 72
    26
 73
    22
 74
     0
 42
0.00000001
 43
0.00000001
 40
0.0
 40
0.0
 40
0.0
 40
0.0
 40
0.0535564828348869
 40
0.1071082711636846
 40
0.1607818162352143
 40
0.2145352797903707
 40
0.2681567907943669
 40
0.3216411016456258
 40
0.3751955058100545
 40
0.4289186373058371
 40
0.4826469270615091
 40
0.5362071068849877
 40
0.5896887296788725
 40
0.6433034207176989
 40
0.6970554416308452
 40
0.7507351198247759
 40
0.8042463682269834
 40
0.85775506450619
 40
0.9114304564221665
 40
0.9651836128791353
 40
1.0
 40
1.0
 40
1.0
 40
1.0
 10
47.31661362040792
 20
29.43488851753632
 30
0.0
 10
47.31341108520321
 20
29.43744909231106
 30
0.0
 10
47.30700629551275
 20
29.44257001741276
 30
0.0
 10
47.30635899109441
 20
29.45409268556645
 30
0.0
 10
47.31252434460527
 20
29.46716272430871
 30
0.0
 10
47.32528725470466
 20
29.48091011888432
 30
0.0
 10
47.34295328812313
 20
29.49385747111511
 30
0.0
 10
47.36352636308418
 20
29.50459378469293
 30
0.0
 10
47.38477806849934
 20
29.51179469164247
 30
0.0
 10
47.40447438037028
 20
29.514405267464
 30
0.0
 10
47.42048344343324
 20
29.51185641498379
 30
0.0
 10
47.43103805453509
 20
29.5043059301315
 30
0.0
 10
47.43496746666695
 20
29.49265858770995
 30
0.0
 10
47.43175991065566
 20
29.47838882560526
 30
0.0
 10
47.42161965235309
 20
29.46334039011309
 30
0.0
 10
47.40558033695083
 20
29.44945425360258
 30
0.0
 10
47.38546221212921
 20
29.43840061558861
 30
0.0
 10
47.36352826082556
 20
29.43128912170494
 30
0.0
 10
47.34242151810428
 20
29.42875276089729
 30
0.0
 10
47.32630630781848
 20
29.43037263209126
 30
0.0
 10
47.31934865150276
 20
29.43361424894704
 30
0.0
 10
47.31661362040792
 20
29.43488851753632
 30
0.0
  0
LWPOLYLINE
  5
217
330
1F
100
AcDbEntity
  8
0
  6
Continuous
 62
     7
370
    25
100
AcDbPolyline
 90
       34
 70
   128
 43
0.0
 10
45.5523851433
 20
31.5534155756
 10
45.5854608917
 20
31.5315691325
 10
45.6158743757
 20
31.5057816359
 10
45.6432924761
 20
31.4763246563
 10
45.6674511415
 20
31.4434818805
 10
45.6881177108
 20
31.4075696024
 10
45.7050931537
 20
31.3689336769
 10
45.7182139873
 20
31.3279461891
 10
45.7273538508
 20
31.2850018708
 10
45.7324247224
 20
31.2405142994
 10
45.7333777667
 20
31.1949119144
 10
45.7302038055
 20
31.1486338917
 10
45.7229334058
 20
31.1021259141
 10
45.7116365854
 20
31.0558358788
 10
45.6964221389
 20
31.010209584
 10
45.6774365897
 20
30.965686436
 10
45.6548627791
 20
30.9226952171
 10
45.6289181053
 20
30.8816499561
 10
45.5998524295
 20
30.8429459414
 10
45.5679456701
 20
30.8069559137
 10
45.5335051067
 20
30.7740264768
 10
45.4968624208
 20
30.7444747591
 10
45.4583705014
 20
30.7185853597
 10
45.4184000467
 20
30.6966076079
 10
45.3773359941
 20
30.6787531612
 10
45.3355738129
 20
30.6651939679
 10
45.2935156956
 20
30.6560606104
 10
45.251566685
 20
30.6514410478
 10
45.2101307729
 20
30.6513797691
 10
45.1696070099
 20
30.6558773644
 10
45.1303856619
 20
30.6648905195
 10
45.092844452
 20
30.6783324328
 10
45.0573449224
 20
30.6960736511
 10
45.0573047016
 20
30.6960968739
  0
SPLINE
  5
218
330
1F
100
AcDbEntity
  8
0
  6
Continuous
 62
     7
370
    25
100
AcDbSpline
210
0.0
220
0.0
230
1.0
 70
     8
 71
     3
 72
    12
 73
     8
 74
     0
 42
0.00000001
 43
0.00000001
 40
0.0
 40
0.0
 40
0.0
 40
0.0
 40
0.2135710678801668
 40
0.4270930934184593
 40
0.6418857434839207
 40
0.8575243682963847
 40
1.0
 40
1.0
 40
1.0
 40
1.0
 10
45.51058170689401
 20
31.57214580137461
 30
0.0
 10
45.50630698942
 20
31.57473628795315
 30
0.0
 10
45.4977585360757
 20
31.57991666625657
 30
0.0
 10
45.48013283750341
 20
31.59180538079424
 30
0.0
 10
45.4611814788979
 20
31.60460726185613
 30
0.0
 10
45.44388885194804
 20
31.6159355132517
 30
0.0
 10
45.43485024191234
 20
31.621154722427
 30
0.0
 10
45.43125423407091
 20
31.62323118297196
 30
0.0
  0
SPLINE
  5
219
330
1F
100
AcDbEntity
  8
0
  6
Continuous
 62
     7
370
    25
100
AcDbSpline
210
0.0
220
0.0
230
1.0
 70
     8
 71
     3
 72
    10
 73
     6
 74
     0
 42
0.00000001
 43
0.00000001
 40
0.0
 40
0.0
 40
0.0
 40
0.0
 40
0.3663583028133143
 40
0.7429328313805214
 40
1.0
 40
1.0
 40
1.0
 40
1.0
 10
45.52041648141347
 20
31.56978403382609
 30
0.0
 10
45.5213782424583
 20
31.56862851359099
 30
0.0
 10
45.52332858410649
 20
31.56628525041559
 30
0.0
 10
45.5187972858406
 20
31.56760000472708
 30
0.0
 10
45.51295280220859
 20
31.57083384062272
 30
0.0
 10
45.51058170689401
 20
31.57214580137461
 30
0.0
  0
LWPOLYLINE
  5
21A
330
1F
100
AcDbEntity
  8
0
  6
Continuous
 62
     7
370
    25
100
AcDbPolyline
 90
       34
 70
   128
 43
0.0
 10
45.0573047016
 20
30.6960968739
 10
45.0573449224
 20
30.6960736511
 10
45.092844452
 20
30.6783324328
 10
45.1303856619
 20
30.6648905195
 10
45.1696070099
 20
30.6558773644
 10
45.2101307729
 20
30.6513797691
 10
45.251566685
 20
30.6514410478
 10
45.2935156956
 20
30.6560606104
 10
45.3355738129
 20
30.6651939679
 10
45.3773359941
 20
30.6787531612
 10
45.4184000467
 20
30.6966076079
 10
45.4583705014
 20
30.7185853597
 10
45.4968624208
 20
30.7444747591
 10
45.5335051067
 20
30.7740264768
 10
45.5679456701
 20
30.8069559137
 10
45.5998524295
 20
30.8429459414
 10
45.6289181053
 20
30.8816499561
 10
45.6548627791
 20
30.9226952171
 10
45.6774365897
 20
30.965686436
 10
45.6964221389
 20
31.010209584
 10
45.7116365854
 20
31.0558358788
 10
45.7229334058
 20
31.1021259141
 10
45.7302038055
 20
31.1486338917
 10
45.7333777667
 20
31.1949119144
 10
45.7324247224
 20
31.2405142994
 10
45.7273538508
 20
31.2850018708
 10
45.7182139873
 20
31.3279461891
 10
45.7050931537
 20
31.3689336769
 10
45.6881177108
 20
31.4075696024
 10
45.6674511415
 20
31.4434818805
 10
45.6432924761
 20
31.4763246563
 10
45.6158743757
 20
31.5057816359
 10
45.5854608917
 20
31.5315691325
 10
45.5523851433
 20
31.5534155756
  0
LINE
  5
21B
330
1F
100
AcDbEntity
  8
0
  6
Continuous
 62
     7
370
    25
100
AcDbLine
 10
45.6794192227
 20
31.4694433557
 30
0.0
 11
45.9144643766
 21
31.3337105665
 31
0.0
  0
ELLIPSE
  5
21C
330
1F
100
AcDbEntity
  8
0
  6
Continuous
 62
     7
370
    25
100
AcDbEllipse
 10
45.377720454
 20
31.0826723996
 30
0.0
 11
0.2475299703954619
 21
0.4286652701404314
 31
0.0
210
0.0
220
0.0
230
1.0
 40
0.7146665171
 41
3.334807797484806
 42
6.090165814960377
  0
LINE
  5
21D
330
1F
100
AcDbEntity
  8
0
  6
Continuous
 62
     7
370
    25
100
AcDbLine
 10
45.4286843942
 20
30.4922726253
 30
0.0
 11
45.1936209106
 21
30.6280159994
 31
0.0
  0
LWPOLYLINE
  5
21E
330
1F
100
AcDbEntity
  8
0
  6
Continuous
 62
     7
370
    25
100
AcDbPolyline
 90
        8
 70
   128
 43
0.0
 10
45.4440873868
 20
31.6159567596
 10
45.459248972
 20
31.6072035495
 10
45.4748639077
 20
31.5981882059
 10
45.4896671649
 20
31.5896410983
 10
45.5024594716
 20
31.5822546624
 10
45.5122044713
 20
31.5766273034
 10
45.5181126819
 20
31.5732149165
 10
45.519750933
 20
31.5722678942
  0
LWPOLYLINE
  5
21F
330
1F
100
AcDbEntity
  8
0
  6
Continuous
 62
     7
370
    25
100
AcDbPolyline
 90
       23
 70
   128
 43
0.0
 10
47.3212809792
 20
29.4351224623
 10
47.3322319174
 20
29.4313670201
 10
47.3463357081
 20
29.4307197123
 10
47.3624497459
 20
29.4332329799
 10
47.3792685673
 20
29.438703213
 10
47.3954296116
 20
29.4466872457
 10
47.4096236069
 20
29.4565382592
 10
47.4207006402
 20
29.4674581831
 10
47.4277633162
 20
29.4785623499
 10
47.4302394588
 20
29.4889511662
 10
47.4279284657
 20
29.4977829919
 10
47.4210175598
 20
29.5043423249
 10
47.4100666216
 20
29.508097767
 10
47.395962831
 20
29.5087450748
 10
47.3798487932
 20
29.5062318072
 10
47.3630299717
 20
29.5007615742
 10
47.3468689275
 20
29.4927775415
 10
47.3326749321
 20
29.4829265279
 10
47.3215978988
 20
29.4720066041
 10
47.3145352228
 20
29.4609024372
 10
47.3120590802
 20
29.4505136209
 10
47.3143700733
 20
29.4416817953
 10
47.3212809792
 20
29.4351224623
  0
LINE
  5
220
330
1F
100
AcDbEntity
  8
0
  6
Continuous
 62
     7
370
    25
100
AcDbLine
 10
47.4083601112
 20
29.4707634229
 30
0.0
 11
47.4065709528
 21
29.4943159921
 31
0.0
  0
LINE
  5
221
330
1F
100
AcDbEntity
  8
0
  6
Continuous
 62
     7
370
    25
100
AcDbLine
 10
47.3693601112
 20
29.4932849627
 30
0.0
 11
47.4065709528
 21
29.4943159921
 31
0.0
  0
LINE
  5
222
330
1F
100
AcDbEntity
  8
0
  6
Continuous
 62
     7
370
    25
100
AcDbLine
 10
47.3339384278
 20
29.4687013642
 30
0.0
 11
47.3693601112
 21
29.4932849627
 31
0.0
  0
LINE
  5
223
330
1F
100
AcDbEntity
  8
0
  6
Continuous
 62
     7
370
    25
100
AcDbLine
 10
47.3339384278
 20
29.4687013642
 30
0.0
 11
47.3357275862
 21
29.4451487951
 31
0.0
  0
LINE
  5
224
330
1F
100
AcDbEntity
  8
0
  6
Continuous
 62
     7
370
    25
100
AcDbLine
 10
47.3729384278
 20
29.4461798244
 30
0.0
 11
47.3357275862
 21
29.4451487951
 31
0.0
  0
LINE
  5
225
330
1F
100
AcDbEntity
  8
0
  6
Continuous
 62
     7
370
    25
100
AcDbLine
 10
47.3729384278
 20
29.4461798244
 30
0.0
 11
47.4083601112
 21
29.4707634229
 31
0.0
  0
LINE
  5
226
330
1F
100
AcDbEntity
  8
0
  6
Continuous
 62
     7
370
    25
100
AcDbLine
 10
47.3976230962
 20
29.4940680669
 30
0.0
 11
47.4083601112
 21
29.4707634229
 31
0.0
  0
LINE
  5
227
330
1F
100
AcDbEntity
  8
0
  6
Continuous
 62
     7
370
    25
100
AcDbLine
 10
47.3556271353
 20
29.483753909
 30
0.0
 11
47.3729384278
 21
29.4461798244
 31
0.0
  0
LWPOLYLINE
  5
228
330
1F
100
AcDbEntity
  8
0
  6
Continuous
 62
     7
370
    25
100
AcDbPolyline
 90
        4
 70
   128
 43
0.0
 10
47.5260818909
 20
30.7658948038
 10
47.5331968599
 20
30.7617857436
 10
47.5361035102
 20
30.7601062298
 10
47.5361573315
 20
30.7600749412
  0
LWPOLYLINE
  5
229
330
1F
100
AcDbEntity
  8
0
  6
Continuous
 62
     7
370
    25
100
AcDbPolyline
 90
       10
 70
   128
 43
0.0
 10
47.4263453107
 20
30.8234749412
 10
47.4279362795
 20
30.8225575552
 10
47.4337926949
 20
30.819177634
 10
47.4434939259
 20
30.8135777096
 10
47.4562540366
 20
30.8062114545
 10
47.4710392785
 20
30.797675639
 10
47.4866518394
 20
30.788661784
 10
47.5018268824
 20
30.7799001384
 10
47.5153350157
 20
30.7721005188
 10
47.5260818909
 20
30.7658948038
  0
LWPOLYLINE
  5
22A
330
1F
100
AcDbEntity
  8
0
  6
Continuous
 62
     7
370
    25
100
AcDbPolyline
 90
       33
 70
   128
 43
0.0
 10
46.033751321
 20
31.2754678085
 10
46.0668672902
 20
31.2535981426
 10
46.0972807742
 20
31.227810646
 10
46.1246988746
 20
31.1983536664
 10
46.14885754
 20
31.1655108906
 10
46.1695241094
 20
31.1295986125
 10
46.1864995522
 20
31.090962687
 10
46.1996203858
 20
31.0499751992
 10
46.2087602493
 20
31.0070308809
 10
46.2138311209
 20
30.9625433095
 10
46.2147841652
 20
30.9169409245
 10
46.211610204
 20
30.8706629018
 10
46.2043398043
 20
30.8241549242
 10
46.1930429839
 20
30.7778648889
 10
46.1778285374
 20
30.7322385941
 10
46.1588429882
 20
30.6877154461
 10
46.1362691776
 20
30.6447242272
 10
46.1103245038
 20
30.6036789662
 10
46.081258828
 20
30.5649749515
 10
46.0493520686
 20
30.5289849238
 10
46.0149115052
 20
30.4960554869
 10
45.9782688193
 20
30.4665037692
 10
45.9397768999
 20
30.4406143698
 10
45.8998064452
 20
30.418636618
 10
45.8587423926
 20
30.4007821713
 10
45.8169802114
 20
30.387222978
 10
45.7749220941
 20
30.3780896205
 10
45.7329730835
 20
30.3734700579
 10
45.6915371714
 20
30.3734087792
 10
45.6510134084
 20
30.3779063745
 10
45.6117920604
 20
30.3869195296
 10
45.5742508505
 20
30.4003614429
 10
45.538751321
 20
30.4181026612
  0
LINE
  5
22B
330
1F
100
AcDbEntity
  8
0
  6
Continuous
 62
     7
370
    25
100
AcDbLine
 10
45.4715761767
 20
30.4568820466
 30
0.0
 11
45.538751321
 21
30.4181026612
 31
0.0
  0
ARC
  5
22C
330
1F
100
AcDbEntity
  8
0
  6
Continuous
 62
     7
370
    25
100
AcDbCircle
 10
45.6043851743
 20
30.6484259807
 30
0.0
 40
0.2330821927049646
100
AcDbArc
 50
183.0360242958
 51
235.2640893442
  0
ARC
  5
22D
330
1F
100
AcDbEntity
  8
0
  6
Continuous
 62
     7
370
    25
100
AcDbCircle
 10
45.8669178844
 20
31.114541585
 30
0.0
 40
0.2231907377496443
100
AcDbArc
 50
63.4796108172
 51
118.1983237836
  0
LINE
  5
22E
330
1F
100
AcDbEntity
  8
0
  6
Continuous
 62
     7
370
    25
100
AcDbLine
 10
45.9665761767
 20
31.3142471938
 30
0.0
 11
46.033751321
 21
31.2754678085
 31
0.0
  0
LINE
  5
22F
330
1F
100
AcDbEntity
  8
0
  6
Continuous
 62
     7
370
    25
100
AcDbLine
 10
46.033751321
 20
31.2754678085
 30
0.0
 11
46.301251321
 21
31.1209931448
 31
0.0
  0
LWPOLYLINE
  5
230
330
1F
100
AcDbEntity
  8
0
  6
Continuous
 62
     7
370
    25
100
AcDbPolyline
 90
       33
 70
   128
 43
0.0
 10
46.301251321
 20
31.1209931448
 10
46.3343672902
 20
31.0991234789
 10
46.3647807742
 20
31.0733359823
 10
46.3921988746
 20
31.0438790027
 10
46.41635754
 20
31.0110362269
 10
46.4370241094
 20
30.9751239488
 10
46.4539995522
 20
30.9364880233
 10
46.4671203858
 20
30.8955005355
 10
46.4762602493
 20
30.8525562172
 10
46.4813311209
 20
30.8080686458
 10
46.4822841652
 20
30.7624662608
 10
46.479110204
 20
30.7161882381
 10
46.4718398043
 20
30.6696802605
 10
46.4605429839
 20
30.6233902252
 10
46.4453285374
 20
30.5777639304
 10
46.4263429882
 20
30.5332407824
 10
46.4037691776
 20
30.4902495635
 10
46.3778245038
 20
30.4492043025
 10
46.348758828
 20
30.4105002878
 10
46.3168520686
 20
30.3745102601
 10
46.2824115052
 20
30.3415808232
 10
46.2457688193
 20
30.3120291055
 10
46.2072768999
 20
30.2861397061
 10
46.1673064452
 20
30.2641619543
 10
46.1262423926
 20
30.2463075076
 10
46.0844802114
 20
30.2327483143
 10
46.0424220941
 20
30.2236149568
 10
46.0004730835
 20
30.2189953942
 10
45.9590371714
 20
30.2189341155
 10
45.9185134084
 20
30.2234317108
 10
45.8792920604
 20
30.2324448659
 10
45.8417508505
 20
30.2458867792
 10
45.806251321
 20
30.2636279975
  0
LINE
  5
231
330
1F
100
AcDbEntity
  8
0
  6
Continuous
 62
     7
370
    25
100
AcDbLine
 10
45.538751321
 20
30.4181026612
 30
0.0
 11
45.806251321
 21
30.2636279975
 31
0.0
  0
ARC
  5
232
330
1F
100
AcDbEntity
  8
0
  6
Continuous
 62
     7
370
    25
100
AcDbCircle
 10
46.1590455313
 20
30.8346124942
 30
0.0
 40
0.5944535812062192
100
AcDbArc
 50
61.9315625658
 51
117.4212253168
  0
LWPOLYLINE
  5
233
330
1F
100
AcDbEntity
  8
0
  6
Continuous
 62
     7
370
    25
100
AcDbPolyline
 90
       54
 70
   128
 43
0.0
 10
45.3892777058
 20
30.5033072961
 10
45.389693897
 20
30.4982415365
 10
45.3965152102
 20
30.4430395662
 10
45.4073886026
 20
30.3893744346
 10
45.422247036
 20
30.3375770049
 10
45.4409989034
 20
30.2879666257
 10
45.4635285932
 20
30.2408491613
 10
45.4896972024
 20
30.1965151067
 10
45.5193433928
 20
30.1552377959
 10
45.5522843857
 20
30.1172717175
 10
45.5883170891
 20
30.0828509447
 10
45.6272193493
 20
30.0521876933
 10
45.668751321
 20
30.0254710122
 10
45.7126569456
 20
30.0028656188
 10
45.7586655305
 20
29.9845108827
 10
45.8064934175
 20
29.9705199671
 10
45.8558457316
 20
29.9609791306
 10
45.9064181995
 20
29.9559471957
 10
45.9578990251
 20
29.9554551858
 10
46.0099708119
 20
29.9595061344
 10
46.0623125202
 20
29.968075066
 10
46.1146014458
 20
29.9811091503
 10
46.1665152102
 20
29.9985280279
 10
46.2177337477
 20
30.0202243056
 10
46.267941279
 20
30.0460642186
 10
46.316828258
 20
30.0758884553
 10
46.3640932802
 20
30.1095131392
 10
46.409444941
 20
30.1467309632
 10
46.4526036323
 20
30.1873124669
 10
46.4933032666
 20
30.2310074518
 10
46.5312929169
 20
30.2775465238
 10
46.5663383645
 20
30.3266427541
 10
46.5982235425
 20
30.3779934481
 10
46.6267518682
 20
30.4312820117
 10
46.651747455
 20
30.4861799031
 10
46.6730561967
 20
30.5423486587
 10
46.690546718
 20
30.5994419793
 10
46.7041111839
 20
30.6571078657
 10
46.713665965
 20
30.7149907885
 10
46.7191521528
 20
30.7727338802
 10
46.7205359233
 20
30.8299811354
 10
46.7178087449
 20
30.8863796058
 10
46.7109874317
 20
30.9415815761
 10
46.7001140393
 20
30.9952467078
 10
46.6852556059
 20
31.0470441374
 10
46.6665037385
 20
31.0966545166
 10
46.6439740487
 20
31.143771981
 10
46.6178054395
 20
31.1881060357
 10
46.5881592491
 20
31.2293833464
 10
46.5552182562
 20
31.2673494249
 10
46.5191855528
 20
31.3017701976
 10
46.4802832926
 20
31.3324334491
 10
46.438751321
 20
31.3591501301
 10
46.438751321
 20
31.3591501301
  0
LWPOLYLINE
  5
234
330
1F
100
AcDbEntity
  8
0
  6
Continuous
 62
     7
370
    25
100
AcDbPolyline
 90
       54
 70
   128
 43
0.0
 10
46.468751321
 20
31.3764687615
 10
46.5113848303
 20
31.3490792337
 10
46.5513562897
 20
31.3176877268
 10
46.588425306
 20
31.282483033
 10
46.6223689418
 20
31.2436768776
 10
46.6529830561
 20
31.2015026452
 10
46.680083532
 20
31.1562139767
 10
46.7035073841
 20
31.1080832435
 10
46.7231137385
 20
31.0573999094
 10
46.7387846803
 20
31.00446879
 10
46.7504259627
 20
30.9496082192
 10
46.7579675736
 20
30.8931481351
 10
46.7613641568
 20
30.8354280952
 10
46.7605952849
 20
30.7767952345
 10
46.755665582
 20
30.7176021781
 10
46.746604696
 20
30.6582049199
 10
46.73346712
 20
30.598960682
 10
46.7163318649
 20
30.5402257663
 10
46.6953019843
 20
30.4823534114
 10
46.6705039542
 20
30.4256916685
 10
46.642086913
 20
30.370581308
 10
46.6102217641
 20
30.3173537701
 10
46.5751001483
 20
30.2663291714
 10
46.536933291
 20
30.2178143798
 10
46.4959507322
 20
30.1721011692
 10
46.452398946
 20
30.129464464
 10
46.4065398577
 20
30.0901606865
 10
46.3586492695
 20
30.0544262141
 10
46.3090152009
 20
30.0224759583
 10
46.257936157
 20
29.9945020715
 10
46.2057193333
 20
29.9706727921
 10
46.1526787679
 20
29.9511314322
 10
46.0991334529
 20
29.9359955157
 10
46.0454054162
 20
29.9253560719
 10
45.9918177845
 20
29.9192770876
 10
45.9386928401
 20
29.9177951226
 10
45.8863500828
 20
29.9209190896
 10
45.8351043079
 20
29.9286302006
 10
45.7852637137
 20
29.9408820801
 10
45.7371280473
 20
29.9576010439
 10
45.6909868023
 20
29.9786865422
 10
45.6471174776
 20
30.0040117643
 10
45.6057839084
 20
30.0334244014
 10
45.5672346797
 20
30.0667475623
 10
45.5317016311
 20
30.1037808377
 10
45.4993984625
 20
30.1443015051
 10
45.470519449
 20
30.1880658684
 10
45.4452382724
 20
30.2348107236
 10
45.4237069766
 20
30.2842549417
 10
45.4060550534
 20
30.3361011592
 10
45.3923886635
 20
30.390037567
 10
45.3827899983
 20
30.4457397852
 10
45.3773167851
 20
30.502872814
 10
45.3768530011
 20
30.5115655988
  0
ARC
  5
235
330
1F
100
AcDbEntity
  8
0
  6
Continuous
 62
     7
370
    25
100
AcDbCircle
 10
46.1772307948
 20
30.8283255089
 30
0.0
 40
0.6208423652899394
100
AcDbArc
 50
61.994492544
 51
119.4584702678
  0
LINE
  5
236
330
1F
100
AcDbEntity
  8
0
  6
Continuous
 62
     7
370
    25
100
AcDbLine
 10
45.7390761767
 20
30.3024073829
 30
0.0
 11
45.806251321
 21
30.2636279975
 31
0.0
  0
LWPOLYLINE
  5
237
330
1F
100
AcDbEntity
  8
0
  6
Continuous
 62
     7
370
    25
100
AcDbPolyline
 90
       42
 70
   128
 43
0.0
 10
46.551251321
 20
29.4812060981
 10
46.5962904774
 20
29.4579832733
 10
46.6434644101
 20
29.4390668161
 10
46.6924894096
 20
29.4245704925
 10
46.7430706336
 20
29.414581485
 10
46.7949038807
 20
29.4091598687
 10
46.8476774198
 20
29.4083382499
 10
46.9010738645
 20
29.4121215698
 10
46.9547720823
 20
29.4204870751
 10
47.0084491258
 20
29.4333844547
 10
47.0617821751
 20
29.4507361422
 10
47.1144504787
 20
29.4724377825
 10
47.1661372834
 20
29.4983588594
 10
47.2165317387
 20
29.5283434806
 10
47.2653307663
 20
29.5622113149
 10
47.3122408832
 20
29.5997586773
 10
47.3569799663
 20
29.6407597534
 10
47.3992789497
 20
29.684967958
 10
47.4388834421
 20
29.7321174177
 10
47.4755552577
 20
29.7819245701
 10
47.5090738476
 20
29.8340898692
 10
47.5392376273
 20
29.8882995868
 10
47.5658651881
 20
29.9442276991
 10
47.5887963888
 20
30.0015378479
 10
47.6078933184
 20
30.0598853633
 10
47.6230411258
 20
30.1189193365
 10
47.6341487103
 20
30.1782847301
 10
47.6411492695
 20
30.2376245137
 10
47.6440007013
 20
30.296581811
 10
47.6426858568
 20
30.3548020456
 10
47.6372126436
 20
30.4119350744
 10
47.6276139784
 20
30.4676372926
 10
47.6139475885
 20
30.5215737004
 10
47.5962956653
 20
30.5734199179
 10
47.5747643695
 20
30.622864136
 10
47.5494831929
 20
30.6696089912
 10
47.5206041794
 20
30.7133733545
 10
47.4883010108
 20
30.7538940219
 10
47.4527679622
 20
30.7909272973
 10
47.4142187335
 20
30.8242504582
 10
47.3728851643
 20
30.8536630953
 10
47.3513163243
 20
30.8668092084
  0
LINE
  5
238
330
1F
100
AcDbEntity
  8
0
  6
Continuous
 62
     7
370
    25
100
AcDbLine
 10
45.7390761767
 20
30.3024073829
 30
0.0
 11
45.4715761767
 21
30.4568820466
 31
0.0
  0
ARC
  5
239
330
1F
100
AcDbEntity
  8
0
  6
Continuous
 62
     7
370
    25
100
AcDbCircle
 10
55.283877031
 20
42.3701960734
 30
0.0
 40
0.2451889442241081
100
AcDbArc
 50
304.8331983864
 51
6.478982007
  0
LWPOLYLINE
  5
23A
330
1F
100
AcDbEntity
  8
0
  6
Continuous
 62
     7
370
    25
100
AcDbPolyline
 90
       25
 70
   128
 43
0.0
 10
54.9239669571
 20
43.0349893418
 10
54.9496547437
 20
43.0470431581
 10
54.9775229006
 20
43.054822358
 10
55.0072827256
 20
43.0582402932
 10
55.0386476152
 20
43.057264047
 10
55.0713155084
 20
43.0519030213
 10
55.1049717954
 20
43.0422088456
 10
55.1392923479
 20
43.0282748801
 10
55.1739466402
 20
43.0102353166
 10
55.2086009325
 20
42.9882638859
 10
55.2429214851
 20
42.9625721849
 10
55.2765777721
 20
42.9334076387
 10
55.3092456653
 20
42.9010511178
 10
55.3406105549
 20
42.8658142333
 10
55.3703703798
 20
42.8280363356
 10
55.3982385368
 20
42.7880812464
 10
55.4239466402
 20
42.7463337552
 10
55.447247107
 20
42.7031959131
 10
55.4679155408
 20
42.6590831612
 10
55.4857528935
 20
42.6144203292
 10
55.5005873815
 20
42.5696375448
 10
55.5122761405
 20
42.5251660905
 10
55.5207066016
 20
42.4814342509
 10
55.5257975746
 20
42.4388631874
 10
55.5275000308
 20
42.3978628827
  0
LWPOLYLINE
  5
23B
330
1F
100
AcDbEntity
  8
0
  6
Continuous
 62
     7
370
    25
100
AcDbPolyline
 90
       17
 70
   128
 43
0.0
 10
45.170898313
 20
31.2021734437
 10
45.1937001419
 20
31.2455989174
 10
45.2128774643
 20
31.2905717942
 10
45.2282455921
 20
31.3366589606
 10
45.2396565218
 20
31.383416572
 10
45.2470003599
 20
31.4303943272
 10
45.2502063813
 20
31.4771398046
 10
45.2492437102
 20
31.5232028198
 10
45.2441216177
 20
31.5681397606
 10
45.2348894324
 20
31.6115178599
 10
45.2216360651
 20
31.6529193628
 10
45.2044891532
 20
31.6919455501
 10
45.1836138306
 20
31.7282205785
 10
45.1592111383
 20
31.7613950995
 10
45.1315160874
 20
31.7911496243
 10
45.1007953964
 20
31.8171976007
 10
45.0673855495
 20
31.839264715
  0
LWPOLYLINE
  5
23C
330
1F
100
AcDbEntity
  8
0
  6
Continuous
 62
     7
370
    25
100
AcDbPolyline
 90
       18
 70
   128
 43
0.0
 10
44.5673042954
 20
30.9732862284
 10
44.5673449224
 20
30.9732627711
 10
44.6032030331
 20
30.9553423485
 10
44.6411234472
 20
30.9417646583
 10
44.6807409704
 20
30.9326604613
 10
44.7216740644
 20
30.9281174357
 10
44.763528521
 20
30.9281793333
 10
44.805901259
 20
30.9328455582
 10
44.8483842057
 20
30.9420711719
 10
44.8905682271
 20
30.9557673267
 10
44.9320470682
 20
30.9738021213
 10
44.9724212648
 20
30.9960018707
 10
45.0113019915
 20
31.0221527791
 10
45.0483148056
 20
31.052002999
 10
45.0831032534
 20
31.0852650565
 10
45.1153323033
 20
31.1216186198
 10
45.1446915717
 20
31.1607135841
 10
45.170898313
 20
31.2021734437
  0
LWPOLYLINE
  5
23D
330
1F
100
AcDbEntity
  8
0
  6
Continuous
 62
     7
370
    25
100
AcDbPolyline
 90
       27
 70
   128
 43
0.0
 10
55.1105624498
 20
43.0402116517
 10
55.1449605039
 20
43.0255942346
 10
55.1796377104
 20
43.0068970356
 10
55.2142601088
 20
42.9843001188
 10
55.2484942665
 20
42.9580211049
 10
55.2820104897
 20
42.9283130753
 10
55.314485999
 20
42.8954621345
 10
55.3456080375
 20
42.8597846549
 10
55.3750768828
 20
42.8216242302
 10
55.402608734
 20
42.7813483663
 10
55.4279384442
 20
42.7393449416
 10
55.4508220745
 20
42.6960184721
 10
55.471039243
 20
42.6517862153
 10
55.4883952473
 20
42.6070741522
 10
55.5027229397
 20
42.5623128843
 10
55.5138843365
 20
42.5179334871
 10
55.5217719475
 20
42.4743633584
 10
55.5263098107
 20
42.4320221025
 10
55.5274542239
 20
42.3913174887
 10
55.5251941659
 20
42.3526415247
 10
55.5195514021
 20
42.3163666812
 10
55.5105802756
 20
42.2828423047
 10
55.4983671831
 20
42.2523912535
 10
55.4830297435
 20
42.2253067876
 10
55.4647156646
 20
42.2018497454
 10
55.4436013211
 20
42.1822460309
 10
55.4239263234
 20
42.1689404795
  0
ARC
  5
23E
330
1F
100
AcDbEntity
  8
0
  6
Continuous
 62
     7
370
    25
100
AcDbCircle
 10
55.0228397395
 20
42.8384019389
 30
0.0
 40
0.2200509806773136
100
AcDbArc
 50
66.5063635258
 51
116.699911431
  0
LWPOLYLINE
  5
23F
330
1F
100
AcDbEntity
  8
0
  6
Continuous
 62
     7
370
    25
100
AcDbPolyline
 90
       27
 70
   128
 43
0.0
 10
59.3532031369
 20
45.4894359872
 10
59.3876011911
 20
45.4748185701
 10
59.4222783976
 20
45.456121371
 10
59.4569007959
 20
45.4335244543
 10
59.4911349536
 20
45.4072454404
 10
59.5246511768
 20
45.3775374108
 10
59.5571266861
 20
45.3446864699
 10
59.5882487246
 20
45.3090089904
 10
59.6177175699
 20
45.2708485657
 10
59.6452494211
 20
45.2305727017
 10
59.6705791313
 20
45.188569277
 10
59.6934627616
 20
45.1452428075
 10
59.7136799301
 20
45.1010105508
 10
59.7310359344
 20
45.0562984877
 10
59.7453636268
 20
45.0115372198
 10
59.7565250237
 20
44.9671578226
 10
59.7644126347
 20
44.9235876939
 10
59.7689504978
 20
44.8812464379
 10
59.770094911
 20
44.8405418241
 10
59.767834853
 20
44.8018658601
 10
59.7621920892
 20
44.7655910166
 10
59.7532209627
 20
44.7320666402
 10
59.7410078702
 20
44.7016155889
 10
59.7256704306
 20
44.6745311231
 10
59.7073563517
 20
44.6510740808
 10
59.6862420082
 20
44.6314703664
 10
59.6665670105
 20
44.6181648149
  0
ARC
  5
240
330
1F
100
AcDbEntity
  8
0
  6
Continuous
 62
     7
370
    25
100
AcDbCircle
 10
59.2654804266
 20
45.2876262744
 30
0.0
 40
0.2200509806772813
100
AcDbArc
 50
66.5063635258
 51
116.699911431
  0
LWPOLYLINE
  5
241
330
1F
100
AcDbEntity
  8
0
  6
Continuous
 62
     7
370
    25
100
AcDbPolyline
 90
       80
 70
   128
 43
0.0
 10
58.6415873274
 20
46.393528618
 10
58.6858555085
 20
46.4163261901
 10
58.7323823398
 20
46.4349042021
 10
58.7810240095
 20
46.4492052305
 10
58.831630169
 20
46.4591850716
 10
58.8840443975
 20
46.4648128783
 10
58.9381046857
 20
46.4660712553
 10
58.9936439364
 20
46.4629563132
 10
59.0504904808
 20
46.4554776799
 10
59.1084686096
 20
46.4436584716
 10
59.1673991157
 20
46.4275352207
 10
59.2270998483
 20
46.4071577632
 10
59.2873862758
 20
46.3825890848
 10
59.3480720564
 20
46.3539051258
 10
59.4089696137
 20
46.3211945466
 10
59.469890717
 20
46.2845584539
 10
59.5306470625
 20
46.2441100876
 10
59.591050856
 20
46.1999744713
 10
59.6509153926
 20
46.1522880258
 10
59.7100556347
 20
46.101198147
 10
59.768288783
 20
46.0468627509
 10
59.8254348423
 20
45.9894497851
 10
59.8813171773
 20
45.9291367096
 10
59.935763059
 20
45.8661099489
 10
59.9886041983
 20
45.800564315
 10
60.0396772662
 20
45.7327024057
 10
60.0888243988
 20
45.6627339783
 10
60.1358936852
 20
45.5908753012
 10
60.1807396368
 20
45.5173484854
 10
60.2232236374
 20
45.4423807981
 10
60.2632143715
 20
45.3662039601
 10
60.3005882298
 20
45.2890534297
 10
60.335229692
 20
45.2111676748
 10
60.3670316833
 20
45.1327874357
 10
60.3958959056
 20
45.0541549812
 10
60.4217331412
 20
44.9755133599
 10
60.4444635286
 20
44.8971056483
 10
60.4640168097
 20
44.8191742004
 10
60.4803325462
 20
44.7419598976
 10
60.4933603072
 20
44.6657014051
 10
60.5030598247
 20
44.5906344334
 10
60.5094011179
 20
44.5169910102
 10
60.5123645863
 20
44.4449987631
 10
60.51194107
 20
44.3748802161
 10
60.5081318781
 20
44.3068521015
 10
60.5009487845
 20
44.2411246904
 10
60.4904139918
 20
44.1779011424
 10
60.4765600624
 20
44.1173768779
 10
60.459429818
 20
44.059738974
 10
60.4390762073
 20
44.0051655859
 10
60.415562142
 20
43.9538253971
 10
60.3889603028
 20
43.9058770971
 10
60.3593529145
 20
43.8614688912
 10
60.3268314918
 20
43.8207380428
 10
60.2914965565
 20
43.7838104486
 10
60.2534573269
 20
43.7508002496
 10
60.2128313802
 20
43.7218094784
 10
60.1697442887
 20
43.696927744
 10
60.1243292322
 20
43.6762319542
 10
60.076726586
 20
43.6597860786
 10
60.0270834872
 20
43.6476409505
 10
59.9755533797
 20
43.6398341097
 10
59.9222955403
 20
43.6363896867
 10
59.8674745857
 20
43.6373183282
 10
59.8112599644
 20
43.6426171636
 10
59.7538254326
 20
43.6522698146
 10
59.6953485172
 20
43.6662464454
 10
59.6360099669
 20
43.684503855
 10
59.5759931939
 20
43.7069856108
 10
59.5154837064
 20
43.733622223
 10
59.4546685358
 20
43.7643313594
 10
59.3937356585
 20
43.7990180998
 10
59.3328734143
 20
43.8375752295
 10
59.2722699251
 20
43.8798835705
 10
59.2121125126
 20
43.9258123502
 10
59.1525871202
 20
43.9752196054
 10
59.0938777372
 20
44.0279526212
 10
59.036165831
 20
44.0838484026
 10
58.9796297859
 20
44.1427341792
 10
58.9329373625
 20
44.1946494339
  0
LWPOLYLINE
  5
242
330
1F
100
AcDbEntity
  8
0
  6
Continuous
 62
     7
370
    25
100
AcDbPolyline
 90
       24
 70
   128
 43
0.0
 10
58.4329779962
 20
45.0606982963
 10
58.4239765444
 20
45.0875583763
 10
58.3996833449
 20
45.1661133997
 10
58.3785333374
 20
45.2443131992
 10
58.3605918953
 20
45.3219160636
 10
58.3459144745
 20
45.3986821269
 10
58.3345464422
 20
45.4743741096
 10
58.3265229362
 20
45.5487580522
 10
58.3218687568
 20
45.6216040381
 10
58.3205982898
 20
45.6926869046
 10
58.3227154621
 20
45.7617869386
 10
58.3282137296
 20
45.8286905558
 10
58.3370760976
 20
45.8931909611
 10
58.3492751728
 20
45.9550887872
 10
58.3647732488
 20
46.0141927118
 10
58.3835224219
 20
46.0703200478
 10
58.4054647393
 20
46.1232973088
 10
58.4305323788
 20
46.1729607453
 10
58.4586478575
 20
46.2191568504
 10
58.4897242723
 20
46.2617428346
 10
58.5236655677
 20
46.300587067
 10
58.560366833
 20
46.3355694823
 10
58.5997146268
 20
46.3665819519
 10
58.6415873274
 20
46.393528618
  0
LWPOLYLINE
  5
243
330
1F
100
AcDbEntity
  8
0
  6
Continuous
 62
     7
370
    25
100
AcDbPolyline
 90
       78
 70
   128
 43
0.0
 10
58.9004708038
 20
47.9863154395
 10
58.9595217061
 20
48.0176538309
 10
59.0208635973
 20
48.0447958295
 10
59.084391676
 20
48.0676950637
 10
59.1499974055
 20
48.0863124106
 10
59.2175686995
 20
48.1006160626
 10
59.2869901135
 20
48.1105815824
 10
59.3581430424
 20
48.1161919438
 10
59.4309059224
 20
48.1174375618
 10
59.5051544394
 20
48.1143163083
 10
59.580761741
 20
48.1068335157
 10
59.6575986536
 20
48.0950019684
 10
59.7355339024
 20
48.0788418804
 10
59.8144343365
 20
48.0583808608
 10
59.8941651557
 20
48.033653867
 10
59.9745901412
 20
48.0047031447
 10
60.0555718885
 20
47.9715781557
 10
60.1369720414
 20
47.9343354934
 10
60.2186515292
 20
47.8930387864
 10
60.3004708038
 20
47.8477585893
 10
60.3822900785
 20
47.7985722626
 10
60.4639695663
 20
47.7455638404
 10
60.5453697192
 20
47.6888238866
 10
60.6263514665
 20
47.6284493405
 10
60.706776452
 20
47.5645433509
 10
60.7865072712
 20
47.4972151003
 10
60.8654077053
 20
47.4265796178
 10
60.9433429541
 20
47.3527575828
 10
61.0201798666
 20
47.2758751193
 10
61.0957871683
 20
47.1960635794
 10
61.1700356853
 20
47.1134593199
 10
61.2427985653
 20
47.0282034689
 10
61.3139514942
 20
46.9404416844
 10
61.3833729082
 20
46.8503239061
 10
61.4509442022
 20
46.7580040986
 10
61.5165499317
 20
46.6636399888
 10
61.5800780104
 20
46.5673927962
 10
61.6414199016
 20
46.4694269575
 10
61.7004708038
 20
46.3699098457
 10
61.7571298295
 20
46.269011484
 10
61.8113001777
 20
46.1669042557
 10
61.8628892993
 20
46.0637626093
 10
61.911809055
 20
45.9597627605
 10
61.9579758664
 20
45.8550823914
 10
62.0013108582
 20
45.7499003464
 10
62.0417399932
 20
45.6443963276
 10
62.0791941991
 20
45.5387505866
 10
62.1136094859
 20
45.4331436174
 10
62.1449270557
 20
45.3277558479
 10
62.1730934029
 20
45.2227673312
 10
62.1980604058
 20
45.1183574384
 10
62.2197854087
 20
45.0147045521
 10
62.2382312948
 20
44.9119857616
 10
62.2533665496
 20
44.8103765601
 10
62.2651653148
 20
44.7100505452
 10
62.2736074323
 20
44.6111791224
 10
62.2786784791
 20
44.5139312116
 10
62.2803697912
 20
44.4184729595
 10
62.2786784791
 20
44.3249674547
 10
62.2736074323
 20
44.2335744499
 10
62.2651653148
 20
44.1444500885
 10
62.2533665496
 20
44.0577466379
 10
62.2382312948
 20
43.9736122297
 10
62.2197854087
 20
43.8921906059
 10
62.1980604058
 20
43.813620874
 10
62.1730934029
 20
43.7380372692
 10
62.1449270557
 20
43.6655689248
 10
62.1136094859
 20
43.5963396517
 10
62.0791941991
 20
43.5304677269
 10
62.0417399932
 20
43.4680656915
 10
62.0013108582
 20
43.4092401584
 10
61.9579758664
 20
43.35409163
 10
61.911809055
 20
43.3027143267
 10
61.8628892993
 20
43.2551960256
 10
61.8113001777
 20
43.2116179111
 10
61.7571298295
 20
43.1720544355
 10
61.7004708038
 20
43.1365731925
 10
61.7003732427
 20
43.1365168612
  0
LWPOLYLINE
  5
244
330
1F
100
AcDbEntity
  8
0
  6
Continuous
 62
     7
370
    25
100
AcDbPolyline
 90
       76
 70
   128
 43
0.0
 10
59.3883744829
 20
48.2679762381
 10
59.4474253851
 20
48.2993146294
 10
59.5087672763
 20
48.3264566281
 10
59.572295355
 20
48.3493558623
 10
59.6379010845
 20
48.3679732091
 10
59.7054723785
 20
48.3822768612
 10
59.7748937925
 20
48.3922423809
 10
59.8460467214
 20
48.3978527424
 10
59.9188096014
 20
48.3990983604
 10
59.9930581184
 20
48.3959771068
 10
60.0686654201
 20
48.3884943143
 10
60.1455023326
 20
48.376662767
 10
60.2234375814
 20
48.3605026789
 10
60.3023380155
 20
48.3400416594
 10
60.3820688347
 20
48.3153146656
 10
60.4624938202
 20
48.2863639433
 10
60.5434755675
 20
48.2532389543
 10
60.6248757204
 20
48.215996292
 10
60.7065552082
 20
48.174699585
 10
60.7883744829
 20
48.1294193879
 10
60.8701937575
 20
48.0802330612
 10
60.9518732453
 20
48.027224639
 10
61.0332733983
 20
47.9704846852
 10
61.1142551455
 20
47.910110139
 10
61.1946801311
 20
47.8462041495
 10
61.2744109503
 20
47.7788758989
 10
61.3533113843
 20
47.7082404163
 10
61.4312466331
 20
47.6344183814
 10
61.5080835457
 20
47.5575359178
 10
61.5836908473
 20
47.477724378
 10
61.6579393644
 20
47.3951201185
 10
61.7307022444
 20
47.3098642675
 10
61.8018551732
 20
47.222102483
 10
61.8712765872
 20
47.1319847047
 10
61.9388478812
 20
47.0396648972
 10
62.0044536107
 20
46.9453007874
 10
62.0679816894
 20
46.8490535948
 10
62.1293235807
 20
46.7510877561
 10
62.1883744829
 20
46.6515706442
 10
62.2450335086
 20
46.5506722826
 10
62.2992038567
 20
46.4485650543
 10
62.3507929783
 20
46.3454234079
 10
62.399712734
 20
46.2414235591
 10
62.4458795454
 20
46.1367431899
 10
62.4892145372
 20
46.031561145
 10
62.5296436723
 20
45.9260571262
 10
62.5670978781
 20
45.8204113852
 10
62.6015131649
 20
45.714804416
 10
62.6328307347
 20
45.6094166465
 10
62.6609970819
 20
45.5044281298
 10
62.6859640848
 20
45.400018237
 10
62.7076890877
 20
45.2963653507
 10
62.7261349738
 20
45.1936465602
 10
62.7412702286
 20
45.0920373587
 10
62.7530689938
 20
44.9917113438
 10
62.7615111114
 20
44.8928399209
 10
62.7665821581
 20
44.7955920102
 10
62.7682734702
 20
44.700133758
 10
62.7665821581
 20
44.6066282533
 10
62.7615111114
 20
44.5152352485
 10
62.7530689938
 20
44.4261108871
 10
62.7412702286
 20
44.3394074365
 10
62.7261349738
 20
44.2552730282
 10
62.7076890877
 20
44.1738514045
 10
62.6859640848
 20
44.0952816726
 10
62.6609970819
 20
44.0196980678
 10
62.6328307347
 20
43.9472297234
 10
62.6015131649
 20
43.8780004502
 10
62.5670978781
 20
43.8121285254
 10
62.5296436723
 20
43.7497264901
 10
62.4892145372
 20
43.690900957
 10
62.4458795454
 20
43.6357524286
 10
62.399712734
 20
43.5843751253
 10
62.3507929783
 20
43.5368568242
 10
62.2992038567
 20
43.4932787097
 10
62.2557242872
 20
43.4610623917
  0
LWPOLYLINE
  5
245
330
1F
100
AcDbEntity
  8
0
  6
Continuous
 62
     7
370
    25
100
AcDbPolyline
 90
       41
 70
   128
 43
0.0
 10
59.3428399435
 20
48.5853430139
 10
59.342848598
 20
48.5853472561
 10
59.4071906208
 20
48.614227837
 10
59.4737277475
 20
48.6388733128
 10
59.5423573826
 20
48.6592456819
 10
59.6129737042
 20
48.6753135317
 10
59.6854678271
 20
48.6870520866
 10
59.7597279705
 20
48.6944432467
 10
59.8356396308
 20
48.6974756153
 10
59.9130857575
 20
48.6961445168
 10
59.9919469345
 20
48.6904520036
 10
60.0721015635
 20
48.6804068531
 10
60.1534260518
 20
48.6660245542
 10
60.2357950031
 20
48.6473272835
 10
60.3190814103
 20
48.6243438706
 10
60.4031568518
 20
48.5971097545
 10
60.4878916895
 20
48.5656669281
 10
60.5731552683
 20
48.530063874
 10
60.658816118
 20
48.4903554895
 10
60.7447421557
 20
48.446603002
 10
60.8308008897
 20
48.3988738748
 10
60.9168596238
 20
48.3472417026
 10
61.0027856615
 20
48.2917860987
 10
61.0884465112
 20
48.2325925713
 10
61.17371009
 20
48.1697523928
 10
61.2584449276
 20
48.1033624581
 10
61.3425203692
 20
48.0335251356
 10
61.4258067764
 20
47.9603481095
 10
61.5081757276
 20
47.8839442134
 10
61.589500216
 20
47.8044312567
 10
61.669654845
 20
47.7219318424
 10
61.7485160219
 20
47.6365731788
 10
61.8259621487
 20
47.5484868826
 10
61.9018738089
 20
47.4578087767
 10
61.9761339524
 20
47.36467868
 10
62.0486280752
 20
47.2692401924
 10
62.1192443968
 20
47.1716404732
 10
62.187874032
 20
47.072030014
 10
62.2544111586
 20
46.9705624069
 10
62.3187531815
 20
46.8673941077
 10
62.318761836
 20
46.8673798732
  0
LWPOLYLINE
  5
246
330
1F
100
AcDbEntity
  8
0
  6
Continuous
 62
     7
370
    25
100
AcDbPolyline
 90
       41
 70
   128
 43
0.0
 10
62.4404506101
 20
46.6566087343
 10
62.4404586103
 20
46.656594122
 10
62.4976343554
 20
46.5492874738
 10
62.5522399641
 20
46.4409297088
 10
62.6041912385
 20
46.331687907
 10
62.6534080735
 20
46.2217305111
 10
62.6998145803
 20
46.1112270676
 10
62.7433392035
 20
46.0003479647
 10
62.7839148313
 20
45.8892641701
 10
62.8214788989
 20
45.7781469667
 10
62.8559734853
 20
45.6671676894
 10
62.8873454023
 20
45.5564974601
 10
62.9155462768
 20
45.4463069243
 10
62.940532625
 20
45.3367659878
 10
62.9622659198
 20
45.2280435548
 10
62.98071265
 20
45.1203072675
 10
62.9958443721
 20
45.0137232472
 10
63.007637754
 20
44.908455839
 10
63.0160746113
 20
44.8046673575
 10
63.0211419349
 20
44.702517837
 10
63.0228319114
 20
44.6021647846
 10
63.0211419349
 20
44.5037629376
 10
63.0160746113
 20
44.4074640244
 10
63.007637754
 20
44.3134165309
 10
62.9958443721
 20
44.2217654717
 10
62.98071265
 20
44.1326521659
 10
62.9622659198
 20
44.0462140199
 10
62.940532625
 20
43.9625843149
 10
62.9155462768
 20
43.881892002
 10
62.8873454023
 20
43.8042615028
 10
62.8559734853
 20
43.7298125179
 10
62.8214788989
 20
43.6586598424
 10
62.7839148313
 20
43.5909131883
 10
62.7433392035
 20
43.5266770163
 10
62.6998145803
 20
43.4660503737
 10
62.6534080735
 20
43.4091267425
 10
62.6041912385
 20
43.3559938948
 10
62.5522399641
 20
43.3067337576
 10
62.4976343554
 20
43.2614222865
 10
62.4404586103
 20
43.2201293484
 10
62.4404506101
 20
43.2201239729
  0
ARC
  5
247
330
1F
100
AcDbEntity
  8
0
  6
Continuous
 62
     7
370
    25
100
AcDbCircle
 10
61.7981814304
 20
44.2970241189
 30
0.0
 40
1.260346991681578
100
AcDbArc
 50
258.8284596326
 51
293.4637397275
  0
ARC
  5
248
330
1F
100
AcDbEntity
  8
0
  6
Continuous
 62
     7
370
    25
100
AcDbCircle
 10
59.9373790602
 20
47.5034067667
 30
0.0
 40
1.240008867324416
100
AcDbArc
 50
126.2578373917
 51
161.3415680671
  0
LWPOLYLINE
  5
249
330
1F
100
AcDbEntity
  8
0
  6
Continuous
 62
     7
370
    25
100
AcDbPolyline
 90
       83
 70
   128
 43
0.0
 10
59.3066892374
 20
48.7115547839
 10
59.370028968
 20
48.7453654654
 10
59.4356702841
 20
48.774976459
 10
59.5035156624
 20
48.8003437716
 10
59.5734643051
 20
48.8214297152
 10
59.6454122897
 20
48.8382029623
 10
59.719252723
 20
48.850638593
 10
59.7948759005
 20
48.8587181317
 10
59.8721694689
 20
48.8624295746
 10
59.9510185932
 20
48.8617674076
 10
60.0313061274
 20
48.8567326144
 10
60.1129127884
 20
48.8473326754
 10
60.1957173333
 20
48.833581556
 10
60.2795967395
 20
48.8154996861
 10
60.3644263875
 20
48.79311393
 10
60.4500802459
 20
48.7664575462
 10
60.536431059
 20
48.735570138
 10
60.6233505353
 20
48.7004975948
 10
60.7107095389
 20
48.6612920239
 10
60.7983782805
 20
48.618011673
 10
60.8862265108
 20
48.5707208435
 10
60.9741237138
 20
48.5194897954
 10
61.0619393006
 20
48.4643946426
 10
61.1495428039
 20
48.40551724
 10
61.2368040712
 20
48.3429450615
 10
61.3235934586
 20
48.2767710706
 10
61.4097820231
 20
48.207093582
 10
61.4952417145
 20
48.1340161153
 10
61.5798455655
 20
48.0576472416
 10
61.6634678802
 20
47.9781004222
 10
61.7459844211
 20
47.8954938396
 10
61.8272725934
 20
47.8099502223
 10
61.9072116275
 20
47.7215966624
 10
61.9856827579
 20
47.6305644265
 10
62.0625694003
 20
47.5369887613
 10
62.1377573242
 20
47.4410086919
 10
62.2111348231
 20
47.3427668159
 10
62.2825928801
 20
47.242409091
 10
62.35202533
 20
47.1400846185
 10
62.4193290171
 20
47.0359454219
 10
62.4844039485
 20
46.9301462206
 10
62.5471534424
 20
46.8228442004
 10
62.6074842719
 20
46.7141987796
 10
62.6653068037
 20
46.6043713728
 10
62.7205351308
 20
46.4935251502
 10
62.7730872006
 20
46.381824796
 10
62.8228849365
 20
46.2694362634
 10
62.8698543542
 20
46.1565265277
 10
62.9139256712
 20
46.0432633388
 10
62.9550334108
 20
45.9298149718
 10
62.9931164993
 20
45.8163499766
 10
63.0281183567
 20
45.7030369281
 10
63.0599869808
 20
45.5900441754
 10
63.0886750245
 20
45.4775395917
 10
63.1141398658
 20
45.3656903248
 10
63.1363436718
 20
45.254662549
 10
63.1552534543
 20
45.1446212183
 10
63.170841119
 20
45.0357298208
 10
63.1830835074
 20
44.9281501364
 10
63.191962431
 20
44.8220419961
 10
63.1974646983
 20
44.7175630446
 10
63.1995821346
 20
44.6148685061
 10
63.1983115941
 20
44.5141109538
 10
63.1936549645
 20
44.4154400831
 10
63.185619164
 20
44.3190024891
 10
63.1742161314
 20
44.2249414491
 10
63.1594628083
 20
44.1333967094
 10
63.1413811136
 20
44.0445042779
 10
63.1199979112
 20
43.958396222
 10
63.0953449702
 20
43.8752004724
 10
63.0674589173
 20
43.7950406327
 10
63.036381183
 20
43.7180357966
 10
63.0021579393
 20
43.6443003698
 10
62.9648400316
 20
43.5739439011
 10
62.9244829031
 20
43.5070709189
 10
62.8811465124
 20
43.4437807763
 10
62.8348952443
 20
43.3841675036
 10
62.7857978142
 20
43.3283196679
 10
62.7339271661
 20
43.2763202424
 10
62.6793603641
 20
43.2282464825
 10
62.6221784782
 20
43.1841698114
 10
62.5624664633
 20
43.1441557137
 10
62.5315581938
 20
43.1256152838
  0
LWPOLYLINE
  5
24A
330
1F
100
AcDbEntity
  8
0
  6
Continuous
 62
     7
370
    25
100
AcDbPolyline
 90
       39
 70
   128
 43
0.0
 10
59.4347900635
 20
48.3631464235
 10
59.4603186147
 20
48.3760515817
 10
59.5221173722
 20
48.4034980834
 10
59.5860943043
 20
48.4267238286
 10
59.6521429276
 20
48.4456901604
 10
59.7201533108
 20
48.4603655111
 10
59.7900122573
 20
48.4707254551
 10
59.8616034938
 20
48.4767527493
 10
59.9348078636
 20
48.4784373619
 10
60.0095035254
 20
48.4757764889
 10
60.0855661557
 20
48.4687745591
 10
60.1628691556
 20
48.4574432266
 10
60.2412838619
 20
48.4418013513
 10
60.3206797612
 20
48.4218749674
 10
60.4009247067
 20
48.3976972406
 10
60.4818851388
 20
48.3693084122
 10
60.5634263066
 20
48.3367557326
 10
60.6454124931
 20
48.3000933826
 10
60.7277072403
 20
48.259382383
 10
60.8101735766
 20
48.2146904933
 10
60.8926742451
 20
48.1660920987
 10
60.9750719315
 20
48.1136680864
 10
61.057229493
 20
48.0575057111
 10
61.1390101864
 20
47.9976984494
 10
61.2202778959
 20
47.9343458447
 10
61.3008973593
 20
47.8675533411
 10
61.3807343936
 20
47.7974321082
 10
61.4596561178
 20
47.7240988557
 10
61.5375311745
 20
47.6476756398
 10
61.6142299484
 20
47.5682896592
 10
61.689624782
 20
47.4860730441
 10
61.763590188
 20
47.4011626359
 10
61.8360030582
 20
47.3136997597
 10
61.9067428686
 20
47.2238299888
 10
61.9756918798
 20
47.1317029025
 10
62.0427353329
 20
47.0374718372
 10
62.1077616407
 20
46.9412936314
 10
62.1706625734
 20
46.843328364
 10
62.2052854652
 20
46.7871452506
  0
LWPOLYLINE
  5
24B
330
1F
100
AcDbEntity
  8
0
  6
Continuous
 62
     7
370
    25
100
AcDbPolyline
 90
       39
 70
   128
 43
0.0
 10
62.3142357064
 20
46.5984383082
 10
62.3455849234
 20
46.5403539674
 10
62.3989753827
 20
46.4368966359
 10
62.4497557704
 20
46.3324917619
 10
62.4978415674
 20
46.227313117
 10
62.5431527397
 20
46.1215357608
 10
62.5856138714
 20
46.0153357491
 10
62.62515429
 20
45.9088898415
 10
62.6617081845
 20
45.8023752066
 10
62.6952147145
 20
45.6959691276
 10
62.7256181117
 20
45.5898487068
 10
62.7528677726
 20
45.4841905712
 10
62.7769183429
 20
45.3791705784
 10
62.7977297927
 20
45.2749635237
 10
62.8152674835
 20
45.1717428496
 10
62.8295022255
 20
45.0696803566
 10
62.8404103263
 20
44.9689459178
 10
62.8479736306
 20
44.8697071956
 10
62.8521795499
 20
44.772129363
 10
62.853021084
 20
44.6763748289
 10
62.8504968321
 20
44.582602967
 10
62.8446109956
 20
44.4909698516
 10
62.8353733709
 20
44.4016279967
 10
62.8227993332
 20
44.3147261032
 10
62.8069098106
 20
44.2304088106
 10
62.7877312498
 20
44.1488164568
 10
62.7652955715
 20
44.0700848442
 10
62.7396401178
 20
43.9943450137
 10
62.7108075895
 20
43.921723027
 10
62.6788459756
 20
43.852339756
 10
62.643808473
 20
43.7863106824
 10
62.6057533983
 20
43.723745705
 10
62.5647440903
 20
43.6647489572
 10
62.5208488049
 20
43.6094186331
 10
62.4741406015
 20
43.5578468247
 10
62.4246972214
 20
43.5101193681
 10
62.3726009582
 20
43.4663157009
 10
62.3179385209
 20
43.4265087301
 10
62.2940007301
 20
43.4108482938
  0
ARC
  5
24C
330
1F
100
AcDbEntity
  8
0
  6
Continuous
 62
     7
370
    25
100
AcDbCircle
 10
61.7655343503
 20
44.258909969
 30
0.0
 40
0.9996864922220976
100
AcDbArc
 50
280.0092713134
 51
296.8146201688
  0
ARC
  5
24D
330
1F
100
AcDbEntity
  8
0
  6
Continuous
 62
     7
370
    25
100
AcDbCircle
 10
59.9052015985
 20
47.4814821442
 30
0.0
 40
0.9997535557735798
100
AcDbArc
 50
123.1958628617
 51
139.9849347457
  0
LWPOLYLINE
  5
24E
330
1F
100
AcDbEntity
  8
0
  6
Continuous
 62
     7
370
    25
100
AcDbPolyline
 90
        3
 70
   128
 43
0.0
 10
45.9280406255
 20
31.3304500146
 10
45.9107543196
 20
31.344094983
 10
45.8799351433
 20
31.3642635155
  0
LWPOLYLINE
  5
24F
330
1F
100
AcDbEntity
  8
0
  6
Continuous
 62
     7
370
    25
100
AcDbPolyline
 90
        3
 70
   128
 43
0.0
 10
45.3848547016
 20
30.5069448137
 10
45.4178129216
 20
30.490295439
 10
45.4383015467
 20
30.4821393824
  0
ARC
  5
250
330
1F
100
AcDbEntity
  8
0
  6
Continuous
 62
     7
370
    25
100
AcDbCircle
 10
45.6981867672
 20
30.6283522577
 30
0.0
 40
0.2638646515392044
100
AcDbArc
 50
172.5086727609
 51
232.8264080026
  0
ARC
  5
251
330
1F
100
AcDbEntity
  8
0
  6
Continuous
 62
     7
370
    25
100
AcDbCircle
 10
45.9307648289
 20
31.037009786
 30
0.0
 40
0.2597468884165798
100
AcDbArc
 50
66.6411985729
 51
128.0063700239
  0
LWPOLYLINE
  5
252
330
1F
100
AcDbEntity
  8
0
  6
Continuous
 62
     7
370
    25
100
AcDbPolyline
 90
       17
 70
   128
 43
0.0
 10
43.670898313
 20
32.0683865112
 10
43.6937001419
 20
32.1118119849
 10
43.7128774643
 20
32.1567848616
 10
43.7282455921
 20
32.2028720281
 10
43.7396565218
 20
32.2496296395
 10
43.7470003599
 20
32.2966073947
 10
43.7502063813
 20
32.3433528721
 10
43.7492437102
 20
32.3894158872
 10
43.7441216177
 20
32.4343528281
 10
43.7348894324
 20
32.4777309274
 10
43.7216360651
 20
32.5191324302
 10
43.7044891532
 20
32.5581586176
 10
43.6836138306
 20
32.594433646
 10
43.6592111383
 20
32.627608167
 10
43.6315160874
 20
32.6573626918
 10
43.6007953964
 20
32.6834106682
 10
43.5674007125
 20
32.7054690257
  0
LWPOLYLINE
  5
253
330
1F
100
AcDbEntity
  8
0
  6
Continuous
 62
     7
370
    25
100
AcDbPolyline
 90
       18
 70
   128
 43
0.0
 10
43.0672765035
 20
31.8395153468
 10
43.0673449224
 20
31.8394758385
 10
43.1032030331
 20
31.8215554159
 10
43.1411234472
 20
31.8079777258
 10
43.1807409704
 20
31.7988735287
 10
43.2216740644
 20
31.7943305031
 10
43.263528521
 20
31.7943924008
 10
43.305901259
 20
31.7990586256
 10
43.3483842057
 20
31.8082842393
 10
43.3905682271
 20
31.8219803942
 10
43.4320470682
 20
31.8400151888
 10
43.4724212648
 20
31.8622149381
 10
43.5113019915
 20
31.8883658465
 10
43.5483148056
 20
31.9182160665
 10
43.5831032534
 20
31.951478124
 10
43.6153323033
 20
31.9878316872
 10
43.6446915717
 20
32.0269266516
 10
43.670898313
 20
32.0683865112
  0
ARC
  5
254
330
1F
100
AcDbEntity
  8
0
  6
Continuous
 62
     7
370
    25
100
AcDbCircle
 10
44.670522744
 20
36.2501753681
 30
0.0
 40
0.2515837807045218
100
AcDbArc
 50
305.7312646693
 51
5.6174833069
  0
LWPOLYLINE
  5
255
330
1F
100
AcDbEntity
  8
0
  6
Continuous
 62
     7
370
    25
100
AcDbPolyline
 90
       25
 70
   128
 43
0.0
 10
44.3173501219
 20
36.911919775
 10
44.3430530259
 20
36.9239823194
 10
44.3709211828
 20
36.9317615194
 10
44.4006810078
 20
36.9351794545
 10
44.4320458974
 20
36.9342032084
 10
44.4647137906
 20
36.9288421826
 10
44.4983700776
 20
36.9191480069
 10
44.5326906301
 20
36.9052140414
 10
44.5673449224
 20
36.8871744779
 10
44.6019992147
 20
36.8652030472
 10
44.6363197673
 20
36.8395113462
 10
44.6699760543
 20
36.8103468
 10
44.7026439475
 20
36.7779902792
 10
44.7340088371
 20
36.7427533946
 10
44.763768662
 20
36.7049754969
 10
44.791636819
 20
36.6650204078
 10
44.8173449224
 20
36.6232729166
 10
44.8406453892
 20
36.5801350745
 10
44.8613138231
 20
36.5360223225
 10
44.8791511757
 20
36.4913594905
 10
44.8939856637
 20
36.4465767061
 10
44.9056744227
 20
36.4021052518
 10
44.9141048838
 20
36.3583734122
 10
44.9191958568
 20
36.3158023488
 10
44.920898313
 20
36.274802044
  0
LINE
  5
256
330
1F
100
AcDbEntity
  8
0
  6
Continuous
 62
     7
370
    25
100
AcDbLine
 10
14.3962355214
 20
8.8441911539
 30
0.0
 11
14.3962355214
 21
9.3275080507
 31
0.0
  0
LINE
  5
257
330
1F
100
AcDbEntity
  8
0
  6
Continuous
 62
     7
370
    25
100
AcDbLine
 10
14.3962355214
 20
5.9881911539
 30
0.0
 11
14.3962355214
 21
8.5723306674
 31
0.0
  0
LINE
  5
258
330
1F
100
AcDbEntity
  8
0
  6
Continuous
 62
     7
370
    25
100
AcDbLine
 10
14.3962355214
 20
5.3522190211
 30
0.0
 11
14.3962355214
 21
5.7163306674
 31
0.0
  0
LINE
  5
259
330
1F
100
AcDbEntity
  8
0
  6
Continuous
 62
     7
370
    25
100
AcDbLine
 10
11.1962355214
 20
12.5222190211
 30
0.0
 11
11.1962355214
 21
5.3522190211
 31
0.0
  0
LINE
  5
25A
330
1F
100
AcDbEntity
  8
0
  6
Continuous
 62
     7
370
    25
100
AcDbLine
 10
11.1962355214
 20
12.5222190211
 30
0.0
 11
11.201524551
 21
12.5222190211
 31
0.0
  0
LINE
  5
25B
330
1F
100
AcDbEntity
  8
0
  6
Continuous
 62
     7
370
    25
100
AcDbLine
 10
11.201524551
 20
12.5222190211
 30
0.0
 11
14.3962355214
 21
9.3275080507
 31
0.0
  0
LINE
  5
25C
330
1F
100
AcDbEntity
  8
0
  6
Continuous
 62
     7
370
    25
100
AcDbLine
 10
11.1962355214
 20
5.3522190211
 30
0.0
 11
14.3962355214
 21
5.3522190211
 31
0.0
  0
SPLINE
  5
25D
330
1F
100
AcDbEntity
  8
0
  6
Continuous
 62
     7
370
    25
100
AcDbSpline
210
0.0
220
0.0
230
1.0
 70
     8
 71
     3
 72
    45
 73
    41
 74
     0
 42
0.00000001
 43
0.00000001
 40
0.0
 40
0.0
 40
0.0
 40
0.0
 40
0.009169305048849
 40
0.036369154962711
 40
0.0627314875299427
 40
0.0890938580403252
 40
0.116220223592224
 40
0.1433466486594056
 40
0.1697445574790709
 40
0.1961425117731148
 40
0.2233025319007778
 40
0.2504625719979429
 40
0.276942208197015
 40
0.3034218265176286
 40
0.3306704434771455
 40
0.3579190086148793
 40
0.3843994833903244
 40
0.4108799036712042
 40
0.4381344472568632
 40
0.4653889474497976
 40
0.4917872856944889
 40
0.5181856183116166
 40
0.5453532599661214
 40
0.5725209346111648
 40
0.5988825550486296
 40
0.6252442266077464
 40
0.6523680381981495
 40
0.6794919063633753
 40
0.7059192824831607
 40
0.7323466868571097
 40
0.7595378481936197
 40
0.7867290021038104
 40
0.8132221426270906
 40
0.8397152442144319
 40
0.8669799782560625
 40
0.8942446515160412
 40
0.9207011149783333
 40
0.9471575328927535
 40
0.9743874504784372
 40
1.0
 40
1.0
 40
1.0
 40
1.0
 10
14.39622598675492
 20
8.57233066736716
 30
0.0
 10
14.39622855774312
 20
8.572300262491353
 30
0.0
 10
14.39623875531726
 20
8.572179664514312
 30
0.0
 10
14.39617142689344
 20
8.572973873452701
 30
0.0
 10
14.3960266597892
 20
8.574691551970222
 30
0.0
 10
14.39580301809895
 20
8.57739358873309
 30
0.0
 10
14.39550835214507
 20
8.581036060333577
 30
0.0
 10
14.39515161313098
 20
8.58559447032734
 30
0.0
 10
14.39474700400684
 20
8.590975941915024
 30
0.0
 10
14.39430366133109
 20
8.597168288510575
 30
0.0
 10
14.39382836565351
 20
8.604212316795486
 30
0.0
 10
14.39333864070005
 20
8.612008960850783
 30
0.0
 10
14.39285313053845
 20
8.620421940283933
 30
0.0
 10
14.39238042918375
 20
8.629454032703704
 30
0.0
 10
14.39193063825452
 20
8.639140406230204
 30
0.0
 10
14.39152115293504
 20
8.649326444681332
 30
0.0
 10
14.39116759495375
 20
8.659835842606428
 30
0.0
 10
14.3908739875656
 20
8.670683798999772
 30
0.0
 10
14.39064873712944
 20
8.681909116009473
 30
0.0
 10
14.39050095955601
 20
8.693314157409759
 30
0.0
 10
14.3904358622216
 20
8.704703973703113
 30
0.0
 10
14.39045071898246
 20
8.71610590848453
 30
0.0
 10
14.39054883521112
 20
8.727561770130329
 30
0.0
 10
14.39072658922906
 20
8.738872679211436
 30
0.0
 10
14.39097675537581
 20
8.749851398148586
 30
0.0
 10
14.39129148555824
 20
8.76053583878449
 30
0.0
 10
14.39166787714338
 20
8.770948830120215
 30
0.0
 10
14.39209204875286
 20
8.78092001736711
 30
0.0
 10
14.3925477874723
 20
8.790288905979352
 30
0.0
 10
14.39302558837699
 20
8.799097536656618
 30
0.0
 10
14.39351702668699
 20
8.807340583568399
 30
0.0
 10
14.39400375597276
 20
8.814878210157067
 30
0.0
 10
14.39446720947781
 20
8.821592656376898
 30
0.0
 10
14.39489997281994
 20
8.827525945018007
 30
0.0
 10
14.39529206406346
 20
8.8326595392296
 30
0.0
 10
14.39562794598877
 20
8.836891442583697
 30
0.0
 10
14.39589562348461
 20
8.840170896668576
 30
0.0
 10
14.39609104302191
 20
8.842512347591821
 30
0.0
 10
14.39621371560487
 20
8.843964370172294
 30
0.0
 10
14.39622680666696
 20
8.844117117703744
 30
0.0
 10
14.39623315185662
 20
8.844191153870634
 30
0.0
  0
SPLINE
  5
25E
330
1F
100
AcDbEntity
  8
0
  6
Continuous
 62
     7
370
    25
100
AcDbSpline
210
0.0
220
0.0
230
1.0
 70
     8
 71
     3
 72
    45
 73
    41
 74
     0
 42
0.00000001
 43
0.00000001
 40
0.0
 40
0.0
 40
0.0
 40
0.0
 40
0.0091693050488472
 40
0.0363691549627086
 40
0.0627314875299409
 40
0.0890938580403244
 40
0.1162202235922239
 40
0.1433466486594059
 40
0.1697445574790708
 40
0.1961425117731149
 40
0.2233025319007781
 40
0.2504625719979436
 40
0.2769422081970147
 40
0.3034218265176283
 40
0.3306704434771455
 40
0.3579190086148785
 40
0.3843994833903241
 40
0.4108799036712044
 40
0.4381344472568638
 40
0.4653889474497979
 40
0.4917872856944889
 40
0.5181856183116166
 40
0.545353259966122
 40
0.5725209346111639
 40
0.5988825550486282
 40
0.6252442266077463
 40
0.6523680381981506
 40
0.6794919063633755
 40
0.7059192824831603
 40
0.7323466868571091
 40
0.7595378481936189
 40
0.7867290021038087
 40
0.813222142627089
 40
0.8397152442144303
 40
0.8669799782560607
 40
0.8942446515160402
 40
0.9207011149783327
 40
0.9471575328927528
 40
0.9743874504784367
 40
1.0
 40
1.0
 40
1.0
 40
1.0
 10
14.39622598675492
 20
5.716330667367159
 30
0.0
 10
14.39622855774312
 20
5.716300262491353
 30
0.0
 10
14.39623875531726
 20
5.716179664514312
 30
0.0
 10
14.39617142689344
 20
5.716973873452704
 30
0.0
 10
14.3960266597892
 20
5.718691551970222
 30
0.0
 10
14.39580301809895
 20
5.721393588733089
 30
0.0
 10
14.39550835214507
 20
5.725036060333577
 30
0.0
 10
14.39515161313098
 20
5.729594470327339
 30
0.0
 10
14.39474700400684
 20
5.734975941915025
 30
0.0
 10
14.39430366133109
 20
5.741168288510577
 30
0.0
 10
14.39382836565351
 20
5.748212316795486
 30
0.0
 10
14.39333864070005
 20
5.756008960850787
 30
0.0
 10
14.39285313053845
 20
5.764421940283933
 30
0.0
 10
14.39238042918375
 20
5.773454032703701
 30
0.0
 10
14.39193063825452
 20
5.783140406230206
 30
0.0
 10
14.39152115293504
 20
5.793326444681331
 30
0.0
 10
14.39116759495375
 20
5.803835842606428
 30
0.0
 10
14.3908739875656
 20
5.814683798999772
 30
0.0
 10
14.39064873712944
 20
5.825909116009473
 30
0.0
 10
14.39050095955601
 20
5.837314157409758
 30
0.0
 10
14.3904358622216
 20
5.848703973703117
 30
0.0
 10
14.39045071898246
 20
5.860105908484528
 30
0.0
 10
14.39054883521112
 20
5.871561770130328
 30
0.0
 10
14.39072658922906
 20
5.882872679211436
 30
0.0
 10
14.39097675537581
 20
5.893851398148586
 30
0.0
 10
14.39129148555824
 20
5.90453583878449
 30
0.0
 10
14.39166787714338
 20
5.914948830120214
 30
0.0
 10
14.39209204875286
 20
5.92492001736711
 30
0.0
 10
14.3925477874723
 20
5.934288905979352
 30
0.0
 10
14.39302558837699
 20
5.943097536656617
 30
0.0
 10
14.39351702668699
 20
5.951340583568395
 30
0.0
 10
14.39400375597276
 20
5.958878210157066
 30
0.0
 10
14.39446720947781
 20
5.965592656376895
 30
0.0
 10
14.39489997281994
 20
5.971525945018002
 30
0.0
 10
14.39529206406346
 20
5.976659539229598
 30
0.0
 10
14.39562794598877
 20
5.980891442583697
 30
0.0
 10
14.39589562348461
 20
5.984170896668576
 30
0.0
 10
14.39609104302191
 20
5.986512347591817
 30
0.0
 10
14.39621371560487
 20
5.987964370172294
 30
0.0
 10
14.39622680666696
 20
5.988117117703744
 30
0.0
 10
14.39623315185662
 20
5.988191153870633
 30
0.0
  0
SPLINE
  5
25F
330
1F
100
AcDbEntity
  8
0
  6
Continuous
 62
     7
370
    25
100
AcDbSpline
210
0.0
220
0.0
230
1.0
 70
    11
 71
     3
 72
    58
 73
    54
 74
     0
 42
0.00000001
 43
0.00000001
 40
0.0
 40
0.0
 40
0.0
 40
0.0
 40
0.0312499999999996
 40
0.0312499999999996
 40
0.0624999999999993
 40
0.0624999999999993
 40
0.0937499999999989
 40
0.0937499999999989
 40
0.1249999999999986
 40
0.1249999999999986
 40
0.1874999999999979
 40
0.1874999999999979
 40
0.2499999999999972
 40
0.2499999999999972
 40
0.2812499999999973
 40
0.2812499999999973
 40
0.3124999999999973
 40
0.3124999999999973
 40
0.3437499999999974
 40
0.3437499999999974
 40
0.3749999999999975
 40
0.3749999999999975
 40
0.4062499999999976
 40
0.4062499999999976
 40
0.4374999999999977
 40
0.4374999999999977
 40
0.4687499999999978
 40
0.4687499999999978
 40
0.4999999999999979
 40
0.4999999999999979
 40
0.5624999999999981
 40
0.5624999999999981
 40
0.6249999999999982
 40
0.6249999999999982
 40
0.6562499999999983
 40
0.6562499999999983
 40
0.6874999999999986
 40
0.6874999999999986
 40
0.7187499999999988
 40
0.7187499999999988
 40
0.7499999999999989
 40
0.7499999999999989
 40
0.7812499999999991
 40
0.7812499999999991
 40
0.8124999999999993
 40
0.8124999999999993
 40
0.8437499999999996
 40
0.8437499999999996
 40
0.8749999999999997
 40
0.8749999999999997
 40
0.9374999999999998
 40
0.9374999999999998
 40
1.0
 40
1.0
 40
1.0
 40
1.0
 10
12.11691021536221
 20
5.852219021121483
 30
0.0
 10
12.11691021536222
 20
5.843229861984812
 30
0.0
 10
12.11610799608493
 20
5.834391731944988
 30
0.0
 10
12.11296965002672
 20
5.81700492667698
 30
0.0
 10
12.11059523737328
 20
5.808365870741188
 30
0.0
 10
12.10441341704117
 20
5.791898025769822
 30
0.0
 10
12.1006362941401
 20
5.784088177537479
 30
0.0
 10
12.09173971157182
 20
5.769307719660265
 30
0.0
 10
12.08657554315202
 20
5.762312720009465
 30
0.0
 10
12.06971707568675
 20
5.743503851170215
 30
0.0
 10
12.05620456780808
 20
5.733372480311038
 30
0.0
 10
12.02733044394276
 20
5.719804518130433
 30
0.0
 10
12.0116695613428
 20
5.716228663552545
 30
0.0
 10
11.98861429035097
 20
5.716214229890471
 30
0.0
 10
11.98084590026334
 20
5.717097740746387
 30
0.0
 10
11.96588247510705
 20
5.720568423142764
 30
0.0
 10
11.95864495449722
 20
5.723136362941477
 30
0.0
 10
11.94464882777962
 20
5.729947733701408
 30
0.0
 10
11.93791750182071
 20
5.734204214234243
 30
0.0
 10
11.92550565562821
 20
5.744045074675961
 30
0.0
 10
11.91974484015249
 20
5.749663450700239
 30
0.0
 10
11.90912672891712
 20
5.762354002672245
 30
0.0
 10
11.90443993782624
 20
5.769223715650667
 30
0.0
 10
11.89625707080817
 20
5.78394603005503
 30
0.0
 10
11.89272964922451
 20
5.791894927092988
 30
0.0
 10
11.88708389190533
 20
5.808367442647127
 30
0.0
 10
11.88496079732873
 20
5.816844457415995
 30
0.0
 10
11.88208882262029
 20
5.834276006118134
 30
0.0
 10
11.88135397106127
 20
5.843292357484113
 30
0.0
 10
11.88134599669031
 20
5.869923972457902
 30
0.0
 10
11.88427159713062
 20
5.88782353929261
 30
0.0
 10
11.89546522829314
 20
5.920566059147126
 30
0.0
 10
11.90385123738197
 20
5.935742425606517
 30
0.0
 10
11.91955677749224
 20
5.954567753066759
 30
0.0
 10
11.9254170550841
 20
5.96031453769602
 30
0.0
 10
11.9378638819218
 20
5.970199403998111
 30
0.0
 10
11.94446435598596
 20
5.974382572011534
 30
0.0
 10
11.95844333685891
 20
5.981221031992499
 30
0.0
 10
11.96582087034621
 20
5.983848310925603
 30
0.0
 10
11.9807324806453
 20
5.987320931849507
 30
0.0
 10
11.98834445016702
 20
5.988210224570318
 30
0.0
 10
12.00389753840199
 20
5.988227689073639
 30
0.0
 10
12.01160855374844
 20
5.987352140448428
 30
0.0
 10
12.02681032565788
 20
5.983911109162483
 30
0.0
 10
12.03439386698854
 20
5.981305666069529
 30
0.0
 10
12.04893834520821
 20
5.974488594346131
 30
0.0
 10
12.05586434943228
 20
5.970316822866981
 30
0.0
 10
12.0690156579793
 20
5.960465167794743
 30
0.0
 10
12.07527133747925
 20
5.954728760262829
 30
0.0
 10
12.09214644556176
 20
5.935926934375057
 30
0.0
 10
12.10130787529963
 20
5.920772720016656
 30
0.0
 10
12.11361846421403
 20
5.888058479714346
 30
0.0
 10
12.11691021536222
 20
5.870197339394823
 30
0.0
 10
12.11691021536222
 20
5.852219021121482
 30
0.0
  0
SPLINE
  5
260
330
1F
100
AcDbEntity
  8
0
  6
Continuous
 62
     7
370
    25
100
AcDbSpline
210
0.0
220
0.0
230
1.0
 70
     8
 71
     3
 72
    36
 73
    32
 74
     0
 42
0.00000001
 43
0.00000001
 40
0.0
 40
0.0
 40
0.0
 40
0.0
 40
0.0328487058317822
 40
0.067374355411104
 40
0.1019000794662489
 40
0.1374209174544742
 40
0.1729417884819847
 40
0.2076012628994031
 40
0.2422607084166263
 40
0.2779265723230044
 40
0.3135923514520043
 40
0.3482538015829275
 40
0.3829151621409503
 40
0.4185913971162962
 40
0.454267560431848
 40
0.4887944577223383
 40
0.5233213454491732
 40
0.5588552465578842
 40
0.5943892014507162
 40
0.6288554209112105
 40
0.6633217238964436
 40
0.6987832743095742
 40
0.7342449173127803
 40
0.7688185176004654
 40
0.8033921644876657
 40
0.8389636530914079
 40
0.8745351300490576
 40
0.909216912004901
 40
0.9438986304546351
 40
0.9795910870956388
 40
1.0
 40
1.0
 40
1.0
 40
1.0
 10
12.03898964208618
 20
5.978942201809833
 30
0.0
 10
12.0361848139559
 20
5.977584028397265
 30
0.0
 10
12.03043196974084
 20
5.974798346103517
 30
0.0
 10
12.02220187160655
 20
5.969504737620242
 30
0.0
 10
12.01416257744267
 20
5.963340777466109
 30
0.0
 10
12.00655623913218
 20
5.956305741596513
 30
0.0
 10
11.99949102596548
 20
5.948522387116453
 30
0.0
 10
11.99307568359394
 20
5.94011873729483
 30
0.0
 10
11.98726865037548
 20
5.931093174758907
 30
0.0
 10
11.98208020170169
 20
5.921412231626944
 30
0.0
 10
11.977601017492
 20
5.911230324929035
 30
0.0
 10
11.97389175705412
 20
5.900723555294894
 30
0.0
 10
11.9709137519924
 20
5.88987658215787
 30
0.0
 10
11.96868222331313
 20
5.878650673133119
 30
0.0
 10
11.96724501966922
 20
5.867246636242657
 30
0.0
 10
11.96661046701652
 20
5.855859914410731
 30
0.0
 10
11.96674579592056
 20
5.844463282767477
 30
0.0
 10
11.96767736560975
 20
5.833011791531456
 30
0.0
 10
11.96940038114909
 20
5.821705733808686
 30
0.0
 10
11.97187539393063
 20
5.810732317093152
 30
0.0
 10
11.97508390246464
 20
5.800053607180213
 30
0.0
 10
11.97906430829087
 20
5.789645119579076
 30
0.0
 10
11.98376922595671
 20
5.779674777063633
 30
0.0
 10
11.98911840392477
 20
5.770302960749731
 30
0.0
 10
11.99511105825299
 20
5.761488278249407
 30
0.0
 10
12.0017840297366
 20
5.753236803186739
 30
0.0
 10
12.00904931772003
 20
5.74569047787316
 30
0.0
 10
12.0167817384904
 20
5.738953387713076
 30
0.0
 10
12.02501223891805
 20
5.733036718857297
 30
0.0
 10
12.03244748490828
 20
5.728520836327119
 30
0.0
 10
12.0372939050179
 20
5.726350681354963
 30
0.0
 10
12.03905696653881
 20
5.725561208581401
 30
0.0
  0
INSERT
  5
261
330
1F
100
AcDbEntity
  8
0
  6
Continuous
 62
     7
100
AcDbBlockReference
  2
Block1
 10
10.9140414247
 20
2.3794892024
 30
0.0
 41
0.5
 42
0.5
 43
0.5
  0
DIMENSION
  5
262
330
1F
100
AcDbEntity
  8
0
  6
Continuous
 62
     7
370
    18
100
AcDbDimension
  2
_D_7
 10
7.4167079624
 20
5.3522190211
 30
0.0
 11
7.4167079624
 21
8.9372190211
 31
0.0
 70
   160
  1
<>
 71
     2
 42
-1.0
  3
SLDDIMSTYLE4
100
AcDbAlignedDimension
 13
11.1962355214
 23
12.5222190211
 33
0.0
 14
11.1962355214
 24
5.3522190211
 34
0.0
 50
90.0
100
AcDbRotatedDimension
  0
LINE
  5
277
330
1F
100
AcDbEntity
  8
0
  6
Continuous
 62
     7
370
    25
100
AcDbLine
 10
30.2497835663
 20
8.8441911539
 30
0.0
 11
30.2497835663
 21
9.8882190211
 31
0.0
  0
LINE
  5
278
330
1F
100
AcDbEntity
  8
0
  6
Continuous
 62
     7
370
    25
100
AcDbLine
 10
30.2497835663
 20
5.9881911539
 30
0.0
 11
30.2497835663
 21
8.5723306674
 31
0.0
  0
LINE
  5
279
330
1F
100
AcDbEntity
  8
0
  6
Continuous
 62
     7
370
    25
100
AcDbLine
 10
30.2497835663
 20
5.3522190211
 30
0.0
 11
30.2497835663
 21
5.7163306674
 31
0.0
  0
LINE
  5
27A
330
1F
100
AcDbEntity
  8
0
  6
Continuous
 62
     7
370
    25
100
AcDbLine
 10
27.0497835663
 20
9.8882190211
 30
0.0
 11
27.0497835663
 21
5.3522190211
 31
0.0
  0
ARC
  5
27B
330
1F
100
AcDbEntity
  8
0
  6
Continuous
 62
     7
370
    25
100
AcDbCircle
 10
27.1097835663
 20
9.8882190211
 30
0.0
 40
0.0600000000000005
100
AcDbArc
 50
90.0000000001
 51
180.0
  0
ARC
  5
27C
330
1F
100
AcDbEntity
  8
0
  6
Continuous
 62
     7
370
    25
100
AcDbCircle
 10
30.1897835663
 20
9.8882190211
 30
0.0
 40
0.0600000000000023
100
AcDbArc
 50
0.0
 51
89.9999999999
  0
LINE
  5
27D
330
1F
100
AcDbEntity
  8
0
  6
Continuous
 62
     7
370
    25
100
AcDbLine
 10
27.0497835663
 20
5.3522190211
 30
0.0
 11
30.2497835663
 21
5.3522190211
 31
0.0
  0
SPLINE
  5
27E
330
1F
100
AcDbEntity
  8
0
  6
Continuous
 62
     7
370
    25
100
AcDbSpline
210
0.0
220
0.0
230
1.0
 70
     8
 71
     3
 72
    45
 73
    41
 74
     0
 42
0.00000001
 43
0.00000001
 40
0.0
 40
0.0
 40
0.0
 40
0.0
 40
0.0091693050488479
 40
0.0363691549627085
 40
0.0627314875299397
 40
0.0890938580403229
 40
0.1162202235922172
 40
0.143346648659394
 40
0.1697445574790642
 40
0.1961425117731145
 40
0.2233025319007796
 40
0.2504625719979476
 40
0.2769422081970135
 40
0.3034218265176212
 40
0.3306704434771257
 40
0.3579190086148448
 40
0.3843994833903008
 40
0.4108799036711924
 40
0.4381344472568588
 40
0.4653889474497998
 40
0.4917872856944884
 40
0.518185618311612
 40
0.5453532599661131
 40
0.5725209346111508
 40
0.5988825550486203
 40
0.6252442266077428
 40
0.652368038198152
 40
0.679491906363382
 40
0.7059192824831421
 40
0.732346686857067
 40
0.7595378481935645
 40
0.786729002103746
 40
0.813222142627035
 40
0.83971524421438
 40
0.8669799782560293
 40
0.8942446515160303
 40
0.9207011149783171
 40
0.9471575328927285
 40
0.9743874504784229
 40
0.9999999999999999
 40
0.9999999999999999
 40
0.9999999999999999
 40
0.9999999999999999
 10
30.24977403160139
 20
8.572330667367165
 30
0.0
 10
30.24977660258959
 20
8.57230026249136
 30
0.0
 10
30.24978680016372
 20
8.57217966451432
 30
0.0
 10
30.2497194717399
 20
8.572973873452701
 30
0.0
 10
30.24957470463567
 20
8.57469155197023
 30
0.0
 10
30.24935106294541
 20
8.577393588733102
 30
0.0
 10
30.24905639699155
 20
8.581036060333577
 30
0.0
 10
30.24869965797748
 20
8.585594470327333
 30
0.0
 10
30.24829504885333
 20
8.590975941915028
 30
0.0
 10
30.24785170617755
 20
8.597168288510584
 30
0.0
 10
30.24737641049999
 20
8.604212316795493
 30
0.0
 10
30.24688668554654
 20
8.612008960850787
 30
0.0
 10
30.24640117538493
 20
8.62042194028394
 30
0.0
 10
30.24592847403022
 20
8.629454032703702
 30
0.0
 10
30.245478683101
 20
8.639140406230197
 30
0.0
 10
30.24506919778152
 20
8.649326444681316
 30
0.0
 10
30.24471563980023
 20
8.659835842606418
 30
0.0
 10
30.24442203241206
 20
8.670683798999766
 30
0.0
 10
30.24419678197592
 20
8.681909116009468
 30
0.0
 10
30.24404900440249
 20
8.693314157409755
 30
0.0
 10
30.24398390706808
 20
8.704703973703113
 30
0.0
 10
30.24399876382892
 20
8.716105908484522
 30
0.0
 10
30.2440968800576
 20
8.727561770130318
 30
0.0
 10
30.24427463407556
 20
8.738872679211427
 30
0.0
 10
30.24452480022229
 20
8.749851398148575
 30
0.0
 10
30.2448395304047
 20
8.760535838784483
 30
0.0
 10
30.24521592198985
 20
8.770948830120211
 30
0.0
 10
30.24564009359934
 20
8.7809200173671
 30
0.0
 10
30.24609583231877
 20
8.790288905979342
 30
0.0
 10
30.24657363322346
 20
8.79909753665661
 30
0.0
 10
30.24706507153348
 20
8.807340583568363
 30
0.0
 10
30.24755180081931
 20
8.814878210157001
 30
0.0
 10
30.24801525432431
 20
8.821592656376865
 30
0.0
 10
30.24844801766639
 20
8.82752594501801
 30
0.0
 10
30.24884010890995
 20
8.832659539229585
 30
0.0
 10
30.24917599083529
 20
8.836891442583664
 30
0.0
 10
30.2494436683311
 20
8.840170896668567
 30
0.0
 10
30.24963908786836
 20
8.842512347591844
 30
0.0
 10
30.24976176045137
 20
8.843964370172271
 30
0.0
 10
30.24977485151347
 20
8.844117117703702
 30
0.0
 10
30.24978119670314
 20
8.84419115387058
 30
0.0
  0
SPLINE
  5
27F
330
1F
100
AcDbEntity
  8
0
  6
Continuous
 62
     7
370
    25
100
AcDbSpline
210
0.0
220
0.0
230
1.0
 70
     8
 71
     3
 72
    45
 73
    41
 74
     0
 42
0.00000001
 43
0.00000001
 40
0.0
 40
0.0
 40
0.0
 40
0.0
 40
0.0091693050488777
 40
0.036369154962698
 40
0.0627314875299431
 40
0.0890938580403504
 40
0.1162202235922595
 40
0.1433466486594522
 40
0.1697445574790833
 40
0.1961425117730927
 40
0.223302531900697
 40
0.2504625719977955
 40
0.2769422081968697
 40
0.3034218265174927
 40
0.3306704434769914
 40
0.357919008614701
 40
0.3843994833901997
 40
0.4108799036711364
 40
0.4381344472568437
 40
0.4653889474498258
 40
0.4917872856944629
 40
0.5181856183115365
 40
0.5453532599659884
 40
0.572520934610979
 40
0.5988825550484396
 40
0.6252442266075494
 40
0.6523680381979614
 40
0.6794919063631999
 40
0.7059192824830284
 40
0.7323466868570144
 40
0.759537848193572
 40
0.7867290021038104
 40
0.8132221426270911
 40
0.8397152442144321
 40
0.8669799782560631
 40
0.8942446515160434
 40
0.9207011149783365
 40
0.9471575328927571
 40
0.9743874504784401
 40
1.0
 40
1.0
 40
1.0
 40
1.0
 10
30.24977403160143
 20
5.716330667367109
 30
0.0
 10
30.24977660258963
 20
5.716300262491298
 30
0.0
 10
30.2497868001638
 20
5.716179664514237
 30
0.0
 10
30.24971947174006
 20
5.716973873452553
 30
0.0
 10
30.24957470463573
 20
5.718691551970164
 30
0.0
 10
30.2493510629454
 20
5.721393588733085
 30
0.0
 10
30.24905639699154
 20
5.725036060333564
 30
0.0
 10
30.24869965797744
 20
5.729594470327339
 30
0.0
 10
30.24829504885332
 20
5.734975941915009
 30
0.0
 10
30.24785170617755
 20
5.741168288510558
 30
0.0
 10
30.24737641050004
 20
5.748212316795414
 30
0.0
 10
30.24688668554667
 20
5.756008960850655
 30
0.0
 10
30.24640117538498
 20
5.764421940283834
 30
0.0
 10
30.24592847403019
 20
5.773454032703628
 30
0.0
 10
30.24547868310106
 20
5.783140406230102
 30
0.0
 10
30.24506919778166
 20
5.793326444681214
 30
0.0
 10
30.24471563980028
 20
5.803835842606336
 30
0.0
 10
30.24442203241205
 20
5.814683798999703
 30
0.0
 10
30.24419678197593
 20
5.825909116009421
 30
0.0
 10
30.2440490044025
 20
5.837314157409716
 30
0.0
 10
30.24398390706808
 20
5.848703973703064
 30
0.0
 10
30.24399876382891
 20
5.860105908484453
 30
0.0
 10
30.24409688005765
 20
5.871561770130231
 30
0.0
 10
30.24427463407569
 20
5.882872679211318
 30
0.0
 10
30.24452480022234
 20
5.893851398148464
 30
0.0
 10
30.24483953040468
 20
5.904535838784385
 30
0.0
 10
30.24521592198992
 20
5.914948830120099
 30
0.0
 10
30.2456400935995
 20
5.924920017366979
 30
0.0
 10
30.24609583231882
 20
5.934288905979266
 30
0.0
 10
30.24657363322345
 20
5.943097536656574
 30
0.0
 10
30.24706507153346
 20
5.951340583568359
 30
0.0
 10
30.24755180081923
 20
5.958878210157033
 30
0.0
 10
30.24801525432428
 20
5.965592656376875
 30
0.0
 10
30.24844801766641
 20
5.971525945017989
 30
0.0
 10
30.24884010890992
 20
5.976659539229582
 30
0.0
 10
30.24917599083525
 20
5.980891442583677
 30
0.0
 10
30.24944366833109
 20
5.984170896668563
 30
0.0
 10
30.24963908786837
 20
5.986512347591805
 30
0.0
 10
30.24976176045134
 20
5.987964370172284
 30
0.0
 10
30.24977485151343
 20
5.988117117703735
 30
0.0
 10
30.2497811967031
 20
5.988191153870623
 30
0.0
  0
SPLINE
  5
280
330
1F
100
AcDbEntity
  8
0
  6
Continuous
 62
     7
370
    25
100
AcDbSpline
210
0.0
220
0.0
230
1.0
 70
    11
 71
     3
 72
    58
 73
    54
 74
     0
 42
0.00000001
 43
0.00000001
 40
0.0
 40
0.0
 40
0.0
 40
0.0
 40
0.03125
 40
0.03125
 40
0.0625
 40
0.0625
 40
0.09375
 40
0.09375
 40
0.125
 40
0.125
 40
0.1875000000000001
 40
0.1875000000000001
 40
0.2500000000000003
 40
0.2500000000000003
 40
0.2812500000000004
 40
0.2812500000000004
 40
0.3125000000000005
 40
0.3125000000000005
 40
0.3437500000000006
 40
0.3437500000000006
 40
0.3750000000000007
 40
0.3750000000000007
 40
0.4062500000000008
 40
0.4062500000000008
 40
0.4375000000000009
 40
0.4375000000000009
 40
0.468750000000001
 40
0.468750000000001
 40
0.5000000000000011
 40
0.5000000000000011
 40
0.5625000000000012
 40
0.5625000000000012
 40
0.6250000000000014
 40
0.6250000000000014
 40
0.6562500000000012
 40
0.6562500000000012
 40
0.6875000000000011
 40
0.6875000000000011
 40
0.718750000000001
 40
0.718750000000001
 40
0.7500000000000008
 40
0.7500000000000008
 40
0.7812500000000007
 40
0.7812500000000007
 40
0.8125000000000006
 40
0.8125000000000006
 40
0.8437500000000004
 40
0.8437500000000004
 40
0.8750000000000003
 40
0.8750000000000003
 40
0.9375000000000002
 40
0.9375000000000002
 40
1.0
 40
1.0
 40
1.0
 40
1.0
 10
27.97045826020869
 20
5.852219021121476
 30
0.0
 10
27.97045826020869
 20
5.843229861984806
 30
0.0
 10
27.96965604093139
 20
5.834391731944981
 30
0.0
 10
27.96651769487319
 20
5.817004926676974
 30
0.0
 10
27.96414328221974
 20
5.808365870741185
 30
0.0
 10
27.95796146188764
 20
5.791898025769819
 30
0.0
 10
27.95418433898655
 20
5.784088177537476
 30
0.0
 10
27.94528775641829
 20
5.769307719660259
 30
0.0
 10
27.94012358799848
 20
5.762312720009458
 30
0.0
 10
27.92326512053321
 20
5.743503851170211
 30
0.0
 10
27.90975261265454
 20
5.733372480311036
 30
0.0
 10
27.88087848878922
 20
5.71980451813043
 30
0.0
 10
27.86521760618927
 20
5.716228663552542
 30
0.0
 10
27.84216233519743
 20
5.716214229890471
 30
0.0
 10
27.83439394510981
 20
5.717097740746387
 30
0.0
 10
27.81943051995352
 20
5.720568423142764
 30
0.0
 10
27.81219299934368
 20
5.723136362941474
 30
0.0
 10
27.79819687262609
 20
5.729947733701408
 30
0.0
 10
27.79146554666718
 20
5.734204214234243
 30
0.0
 10
27.77905370047468
 20
5.744045074675958
 30
0.0
 10
27.77329288499896
 20
5.749663450700233
 30
0.0
 10
27.7626747737636
 20
5.762354002672239
 30
0.0
 10
27.75798798267271
 20
5.769223715650661
 30
0.0
 10
27.74980511565464
 20
5.783946030055026
 30
0.0
 10
27.74627769407098
 20
5.791894927092988
 30
0.0
 10
27.7406319367518
 20
5.80836744264712
 30
0.0
 10
27.73850884217519
 20
5.816844457415985
 30
0.0
 10
27.73563686746675
 20
5.834276006118114
 30
0.0
 10
27.73490201590773
 20
5.843292357484094
 30
0.0
 10
27.73489404153678
 20
5.869923972457892
 30
0.0
 10
27.73781964197708
 20
5.887823539292607
 30
0.0
 10
27.7490132731396
 20
5.920566059147123
 30
0.0
 10
27.75739928222843
 20
5.935742425606514
 30
0.0
 10
27.7731048223387
 20
5.954567753066756
 30
0.0
 10
27.77896509993057
 20
5.96031453769602
 30
0.0
 10
27.79141192676826
 20
5.970199403998111
 30
0.0
 10
27.79801240083242
 20
5.974382572011531
 30
0.0
 10
27.81199138170538
 20
5.981221031992496
 30
0.0
 10
27.81936891519267
 20
5.983848310925603
 30
0.0
 10
27.83428052549176
 20
5.987320931849504
 30
0.0
 10
27.84189249501348
 20
5.988210224570318
 30
0.0
 10
27.85744558324845
 20
5.988227689073639
 30
0.0
 10
27.86515659859491
 20
5.987352140448424
 30
0.0
 10
27.88035837050435
 20
5.983911109162479
 30
0.0
 10
27.88794191183501
 20
5.981305666069527
 30
0.0
 10
27.90248639005468
 20
5.974488594346124
 30
0.0
 10
27.90941239427875
 20
5.970316822866978
 30
0.0
 10
27.92256370282577
 20
5.960465167794739
 30
0.0
 10
27.92881938232572
 20
5.954728760262829
 30
0.0
 10
27.94569449040823
 20
5.935926934375053
 30
0.0
 10
27.9548559201461
 20
5.920772720016652
 30
0.0
 10
27.9671665090605
 20
5.88805847971434
 30
0.0
 10
27.97045826020869
 20
5.870197339394814
 30
0.0
 10
27.97045826020869
 20
5.852219021121475
 30
0.0
  0
LINE
  5
281
330
1F
100
AcDbEntity
  8
0
  6
Continuous
 62
     7
370
    25
100
AcDbLine
 10
27.1097835663
 20
9.9482190211
 30
0.0
 11
30.1897835663
 21
9.9482190211
 31
0.0
  0
SPLINE
  5
282
330
1F
100
AcDbEntity
  8
0
  6
Continuous
 62
     7
370
    25
100
AcDbSpline
210
0.0
220
0.0
230
1.0
 70
     8
 71
     3
 72
    36
 73
    32
 74
     0
 42
0.00000001
 43
0.00000001
 40
0.0
 40
0.0
 40
0.0
 40
0.0
 40
0.0328464335000952
 40
0.0673696947440402
 40
0.1018930304586559
 40
0.1374114112687079
 40
0.1729298251157768
 40
0.2075869019404311
 40
0.242243949866872
 40
0.2779073465628533
 40
0.3135706584873371
 40
0.3482297108887602
 40
0.3828886737234642
 40
0.4185624407708718
 40
0.4542361361634401
 40
0.4887606450322783
 40
0.5232851443381253
 40
0.5588165873650027
 40
0.5943480841722806
 40
0.6288119194086407
 40
0.6632758381639619
 40
0.6987349355002662
 40
0.7341941254202431
 40
0.7687653340554511
 40
0.8033365892869516
 40
0.8389056172086026
 40
0.874474633484964
 40
0.9091540163050251
 40
0.9438333356233716
 40
0.9795233232144583
 40
1.0
 40
1.0
 40
1.0
 40
1.0
 10
27.89253768693264
 20
5.978942201809807
 30
0.0
 10
27.88973285880236
 20
5.977584028397246
 30
0.0
 10
27.88398001458729
 20
5.974798346103498
 30
0.0
 10
27.87574991645304
 20
5.969504737620229
 30
0.0
 10
27.86771062228917
 20
5.963340777466115
 30
0.0
 10
27.86010428397871
 20
5.956305741596457
 30
0.0
 10
27.85303907081207
 20
5.948522387116316
 30
0.0
 10
27.84662372844047
 20
5.940118737294764
 30
0.0
 10
27.84081669522194
 20
5.931093174758893
 30
0.0
 10
27.83562824654822
 20
5.921412231626858
 30
0.0
 10
27.8311490623386
 20
5.911230324928908
 30
0.0
 10
27.82743980190065
 20
5.900723555294809
 30
0.0
 10
27.82446179683888
 20
5.889876582157821
 30
0.0
 10
27.8222302681596
 20
5.87865067313309
 30
0.0
 10
27.82079306451566
 20
5.867246636242643
 30
0.0
 10
27.820158511863
 20
5.855859914410725
 30
0.0
 10
27.82029384076707
 20
5.844463282767454
 30
0.0
 10
27.82122541045625
 20
5.833011791531489
 30
0.0
 10
27.82294842599549
 20
5.821705733808493
 30
0.0
 10
27.82542343877737
 20
5.810732317093722
 30
0.0
 10
27.82863194731023
 20
5.80005360717783
 30
0.0
 10
27.83261235314103
 20
5.789645119587887
 30
0.0
 10
27.83731727078995
 20
5.779674777030681
 30
0.0
 10
27.84266644881965
 20
5.770302960868829
 30
0.0
 10
27.84865910291679
 20
5.76148827779874
 30
0.0
 10
27.85533207528709
 20
5.753236804922659
 30
0.0
 10
27.86259735996939
 20
5.745690471469022
 30
0.0
 10
27.87032979275933
 20
5.738953410947463
 30
0.0
 10
27.8785602481367
 20
5.733036631003832
 30
0.0
 10
27.8860013082102
 20
5.728517672423597
 30
0.0
 10
27.8908537668468
 20
5.726344994848353
 30
0.0
 10
27.89262282734237
 20
5.725552901941264
 30
0.0
  0
LINE
  5
283
330
1F
100
AcDbEntity
  8
0
  6
Continuous
 62
     7
370
    25
100
AcDbLine
 10
30.2497835663
 20
9.8882190211
 30
0.0
 11
27.0497835663
 21
9.8882190211
 31
0.0
  0
INSERT
  5
284
330
1F
100
AcDbEntity
  8
0
  6
Continuous
 62
     7
100
AcDbBlockReference
  2
Block2
 10
26.9759720187
 20
1.4774762765
 30
0.0
 41
0.5
 42
0.5
 43
0.5
  0
DIMENSION
  5
285
330
1F
100
AcDbEntity
  8
0
  6
Continuous
 62
     7
370
    18
100
AcDbDimension
  2
_D_8
 10
22.6051231948
 20
5.3522190211
 30
0.0
 11
22.6051231948
 21
7.6502190211
 31
0.0
 70
   160
  1
<>
 71
     2
 42
-1.0
  3
SLDDIMSTYLE5
100
AcDbAlignedDimension
 13
27.1097835663
 23
9.9482190211
 33
0.0
 14
27.0497835663
 24
5.3522190211
 34
0.0
 50
90.0
100
AcDbRotatedDimension
  0
LINE
  5
29A
330
1F
100
AcDbEntity
  8
0
  6
Continuous
 62
     7
370
    25
100
AcDbLine
 10
41.1469752929
 20
5.7615436964
 30
0.0
 11
41.1469752929
 21
5.3975436964
 31
0.0
  0
LINE
  5
29B
330
1F
100
AcDbEntity
  8
0
  6
Continuous
 62
     7
370
    25
100
AcDbLine
 10
41.1469752929
 20
8.5575436964
 30
0.0
 11
41.1469752929
 21
6.0335436964
 31
0.0
  0
LINE
  5
29C
330
1F
100
AcDbEntity
  8
0
  6
Continuous
 62
     7
370
    25
100
AcDbLine
 10
44.3469752929
 20
5.3975436964
 30
0.0
 11
44.3469752929
 21
8.5575436964
 31
0.0
  0
ARC
  5
29D
330
1F
100
AcDbEntity
  8
0
  6
Continuous
 62
     7
370
    25
100
AcDbCircle
 10
41.2069752929
 20
8.5575436964
 30
0.0
 40
0.0600000000000023
100
AcDbArc
 50
90.0
 51
180.0
  0
ARC
  5
29E
330
1F
100
AcDbEntity
  8
0
  6
Continuous
 62
     7
370
    25
100
AcDbCircle
 10
44.2869752929
 20
8.5575436964
 30
0.0
 40
0.0600000000000023
100
AcDbArc
 50
0.0
 51
90.0
  0
LINE
  5
29F
330
1F
100
AcDbEntity
  8
0
  6
Continuous
 62
     7
370
    25
100
AcDbLine
 10
41.1469752929
 20
5.3975436964
 30
0.0
 11
44.3469752929
 21
5.3975436964
 31
0.0
  0
SPLINE
  5
2A0
330
1F
100
AcDbEntity
  8
0
  6
Continuous
 62
     7
370
    25
100
AcDbSpline
210
0.0
220
0.0
230
1.0
 70
     8
 71
     3
 72
    30
 73
    26
 74
     0
 42
0.00000001
 43
0.00000001
 40
0.0
 40
0.0
 40
0.0
 40
0.0
 40
0.0625000000000004
 40
0.0625000000000004
 40
0.1250000000000007
 40
0.1250000000000007
 40
0.1875000000000011
 40
0.1875000000000011
 40
0.2500000000000014
 40
0.2500000000000014
 40
0.3750000000000021
 40
0.3750000000000021
 40
0.5000000000000028
 40
0.5000000000000028
 40
0.5625000000000031
 40
0.5625000000000031
 40
0.6250000000000034
 40
0.6250000000000034
 40
0.6875000000000039
 40
0.6875000000000039
 40
0.7500000000000042
 40
0.7500000000000042
 40
0.8750000000000021
 40
0.8750000000000021
 40
1.0
 40
1.0
 40
1.0
 40
1.0
 10
41.14697529294867
 20
5.761543696446157
 30
0.0
 10
41.14697529294867
 20
5.761543696446156
 30
0.0
 10
41.14705108947074
 20
5.762427362904232
 30
0.0
 10
41.14733931932841
 20
5.765884231099538
 30
0.0
 10
41.14755501209029
 20
5.768497864891286
 30
0.0
 10
41.14809161849996
 20
5.775328328185163
 30
0.0
 10
41.14840949419546
 20
5.779506346155764
 30
0.0
 10
41.1491075711447
 20
5.789370411837166
 30
0.0
 10
41.14949068938441
 20
5.795112024162511
 30
0.0
 10
41.1506234874833
 20
5.813926459823473
 30
0.0
 10
41.15138046130945
 20
5.829087569097718
 30
0.0
 10
41.15244914071751
 20
5.861808213143426
 30
0.0
 10
41.15276693478896
 20
5.879673649617091
 30
0.0
 10
41.15276518400299
 20
5.90663401005015
 30
0.0
 10
41.15268867117204
 20
5.915469865687535
 30
0.0
 10
41.15239849207272
 20
5.932852180688617
 30
0.0
 10
41.1521814026562
 20
5.941489220216678
 30
0.0
 10
41.15164300351569
 20
5.957948747996028
 30
0.0
 10
41.15132423486477
 20
5.965754653023997
 30
0.0
 10
41.15062450302968
 20
5.980527308731879
 30
0.0
 10
41.15024108258503
 20
5.987517248524861
 30
0.0
 10
41.14910863120066
 20
6.006310763327392
 30
0.0
 10
41.14835314550572
 20
6.016431734200688
 30
0.0
 10
41.14728864420135
 20
6.02997847060495
 30
0.0
 10
41.14697529294867
 20
6.033543696446155
 30
0.0
 10
41.14697529294867
 20
6.033543696446155
 30
0.0
  0
SPLINE
  5
2A1
330
1F
100
AcDbEntity
  8
0
  6
Continuous
 62
     7
370
    25
100
AcDbSpline
210
0.0
220
0.0
230
1.0
 70
     8
 71
     3
 72
    30
 73
    26
 74
     0
 42
0.00000001
 43
0.00000001
 40
0.0
 40
0.0
 40
0.0
 40
0.0
 40
0.0625000000000014
 40
0.0625000000000014
 40
0.1250000000000027
 40
0.1250000000000027
 40
0.1875000000000041
 40
0.1875000000000041
 40
0.2500000000000054
 40
0.2500000000000054
 40
0.3750000000000054
 40
0.3750000000000054
 40
0.5000000000000054
 40
0.5000000000000054
 40
0.5625000000000054
 40
0.5625000000000054
 40
0.6250000000000054
 40
0.6250000000000054
 40
0.6875000000000056
 40
0.6875000000000056
 40
0.7500000000000056
 40
0.7500000000000056
 40
0.8750000000000028
 40
0.8750000000000028
 40
1.0
 40
1.0
 40
1.0
 40
1.0
 10
43.54697529294867
 20
5.761543696446155
 30
0.0
 10
43.55475242590417
 20
5.761543696446151
 30
0.0
 10
43.56238333528853
 20
5.762427362904229
 30
0.0
 10
43.57729301191971
 20
5.765884231099533
 30
0.0
 10
43.58465937134918
 20
5.768497864891281
 30
0.0
 10
43.59865880670563
 20
5.775328328185157
 30
0.0
 10
43.60526288799594
 20
5.779506346155761
 30
0.0
 10
43.61770798066243
 20
5.789370411837159
 30
0.0
 10
43.62357518129807
 20
5.795112024162504
 30
0.0
 10
43.63930041718363
 20
5.813926459823469
 30
0.0
 10
43.6476929954817
 20
5.829087569097713
 30
0.0
 10
43.65890962906723
 20
5.861808213143422
 30
0.0
 10
43.66187074174621
 20
5.879673649617084
 30
0.0
 10
43.66185384374783
 20
5.906634010050147
 30
0.0
 10
43.66112244128973
 20
5.915469865687529
 30
0.0
 10
43.65826321900757
 20
5.932852180688613
 30
0.0
 10
43.65610028543747
 20
5.941489220216672
 30
0.0
 10
43.65044779696377
 20
5.957948747996022
 30
0.0
 10
43.64698528153843
 20
5.965754653023995
 30
0.0
 10
43.638780302828
 20
5.980527308731875
 30
0.0
 10
43.63399635302032
 20
5.987517248524854
 30
0.0
 10
43.61826267666668
 20
6.006310763327384
 30
0.0
 10
43.60550195100125
 20
6.016431734200685
 30
0.0
 10
43.57768984200889
 20
6.029978470604947
 30
0.0
 10
43.56234346580071
 20
6.033543696446152
 30
0.0
 10
43.54697529294867
 20
6.033543696446152
 30
0.0
  0
SPLINE
  5
2A2
330
1F
100
AcDbEntity
  8
0
  6
Continuous
 62
     7
370
    25
100
AcDbSpline
210
0.0
220
0.0
230
1.0
 70
     8
 71
     3
 72
    34
 73
    30
 74
     0
 42
0.00000001
 43
0.00000001
 40
0.0
 40
0.0
 40
0.0
 40
0.0
 40
0.0624999999999996
 40
0.0624999999999996
 40
0.1249999999999992
 40
0.1249999999999992
 40
0.1874999999999988
 40
0.1874999999999988
 40
0.2499999999999983
 40
0.2499999999999983
 40
0.3124999999999979
 40
0.3124999999999979
 40
0.3749999999999975
 40
0.3749999999999975
 40
0.4374999999999971
 40
0.4374999999999971
 40
0.4999999999999967
 40
0.4999999999999967
 40
0.6249999999999958
 40
0.6249999999999958
 40
0.749999999999995
 40
0.749999999999995
 40
0.8124999999999962
 40
0.8124999999999962
 40
0.8749999999999974
 40
0.8749999999999974
 40
0.9374999999999988
 40
0.9374999999999988
 40
1.0
 40
1.0
 40
1.0
 40
1.0
 10
43.54697529294867
 20
6.033543696446152
 30
0.0
 10
43.53928915196213
 20
6.033543696446152
 30
0.0
 10
43.53144384062895
 20
6.032654953779988
 30
0.0
 10
43.51619107748979
 20
6.029174043570044
 30
0.0
 10
43.50874164446146
 20
6.026600894676025
 30
0.0
 10
43.49421053061929
 20
6.01977833510103
 30
0.0
 10
43.48715730882633
 20
6.015516804845142
 30
0.0
 10
43.474052696927
 20
6.005665687396532
 30
0.0
 10
43.46791825630677
 20
6.00004204027679
 30
0.0
 10
43.45654008640555
 20
5.987340085056332
 30
0.0
 10
43.45148173967132
 20
5.980467482732132
 30
0.0
 10
43.44260859843451
 20
5.965736317057366
 30
0.0
 10
43.43876047677571
 20
5.957782362397926
 30
0.0
 10
43.43258686744842
 20
5.941304171981777
 30
0.0
 10
43.43025571468932
 20
5.932824312496459
 30
0.0
 10
43.42710315256463
 20
5.915386859945387
 30
0.0
 10
43.42629747734445
 20
5.906368904052062
 30
0.0
 10
43.42630687031885
 20
5.879734931817691
 30
0.0
 10
43.42955967810661
 20
5.86183503269499
 30
0.0
 10
43.44184543821517
 20
5.829099150080208
 30
0.0
 10
43.45100022555127
 20
5.813929504979942
 30
0.0
 10
43.46785515123753
 20
5.795116898222535
 30
0.0
 10
43.47410413302374
 20
5.789375141021423
 30
0.0
 10
43.48725814626285
 20
5.77950277607208
 30
0.0
 10
43.49418076010989
 20
5.775325882182948
 30
0.0
 10
43.50870507978951
 20
5.768500832083828
 30
0.0
 10
43.51630114066565
 20
5.765881655437221
 30
0.0
 10
43.53150597561837
 20
5.762424909684154
 30
0.0
 10
43.539196080554
 20
5.761543696446155
 30
0.0
 10
43.54697529294867
 20
5.761543696446155
 30
0.0
  0
LINE
  5
2A3
330
1F
100
AcDbEntity
  8
0
  6
Continuous
 62
     7
370
    25
100
AcDbLine
 10
41.2069752929
 20
8.6175436964
 30
0.0
 11
44.2869752929
 21
8.6175436964
 31
0.0
  0
SPLINE
  5
2A4
330
1F
100
AcDbEntity
  8
0
  6
Continuous
 62
     7
370
    25
100
AcDbSpline
210
0.0
220
0.0
230
1.0
 70
     8
 71
     3
 72
    22
 73
    18
 74
     0
 42
0.00000001
 43
0.00000001
 40
0.0
 40
0.0
 40
0.0
 40
0.0
 40
0.0690369905577022
 40
0.138074039394584
 40
0.2091220699018733
 40
0.2801702690475449
 40
0.3492051896998691
 40
0.4182402863303161
 40
0.4892698188259913
 40
0.5602994910750858
 40
0.6295301962779294
 40
0.6987609216873817
 40
0.769995022529386
 40
0.8412290180210207
 40
0.9105824444250421
 40
0.9799357022961906
 40
1.0
 40
1.0
 40
1.0
 40
1.0
 10
43.57651383631956
 20
5.897543696446149
 30
0.0
 10
43.57643979462878
 20
5.901302787148667
 30
0.0
 10
43.57629171118472
 20
5.908820971727031
 30
0.0
 10
43.57509259960012
 20
5.920129139119609
 30
0.0
 10
43.57315179952003
 20
5.931384407725396
 30
0.0
 10
43.57041811751417
 20
5.942395173395854
 30
0.0
 10
43.56696435833513
 20
5.952980787211177
 30
0.0
 10
43.5627979927023
 20
5.963181377662778
 30
0.0
 10
43.55788077298497
 20
5.973010344499713
 30
0.0
 10
43.55227458818703
 20
5.982306759522113
 30
0.0
 10
43.54607366247734
 20
5.990921856086569
 30
0.0
 10
43.53927556777439
 20
5.998899814456143
 30
0.0
 10
43.53184023564672
 20
6.00622351596535
 30
0.0
 10
43.52388254316259
 20
6.012788850529853
 30
0.0
 10
43.51550225328494
 20
6.018406786677869
 30
0.0
 10
43.50893038150321
 20
6.02221629571032
 30
0.0
 10
43.50503510957675
 20
6.023854095202517
 30
0.0
 10
43.50416105419615
 20
6.02422159905989
 30
0.0
  0
SPLINE
  5
2A5
330
1F
100
AcDbEntity
  8
0
  6
Continuous
 62
     7
370
    25
100
AcDbSpline
210
0.0
220
0.0
230
1.0
 70
     8
 71
     3
 72
    21
 73
    17
 74
     0
 42
0.00000001
 43
0.00000001
 40
0.0
 40
0.0
 40
0.0
 40
0.0
 40
0.0432761676276985
 40
0.1122524347252788
 40
0.1832171736488897
 40
0.2541820505065561
 40
0.3234241193391431
 40
0.3926662078670481
 40
0.4639120987744212
 40
0.5351578833712912
 40
0.6045210202921577
 40
0.673883987062696
 40
0.7452743641795954
 40
0.8166645502416311
 40
0.9077709200296241
 40
1.0
 40
1.0
 40
1.0
 40
1.0
 10
43.50416994231256
 20
5.770878645747363
 30
0.0
 10
43.50603575925999
 20
5.77172497432491
 30
0.0
 10
43.51087543214649
 20
5.7739202344095
 30
0.0
 10
43.51837626021902
 20
5.778476891488717
 30
0.0
 10
43.52663108342406
 20
5.784430797772434
 30
0.0
 10
43.53439388096918
 20
5.791237560455316
 30
0.0
 10
43.54156438251953
 20
5.798729906256393
 30
0.0
 10
43.54817902010934
 20
5.806919141748239
 30
0.0
 10
43.5542324078648
 20
5.81583659759341
 30
0.0
 10
43.55962354624245
 20
5.825348494712542
 30
0.0
 10
43.56427624220073
 20
5.835290290544805
 30
0.0
 10
43.56822836536841
 20
5.845673715163232
 30
0.0
 10
43.57147252878628
 20
5.856534282405377
 30
0.0
 10
43.57417524855211
 20
5.868836290953403
 30
0.0
 10
43.57612155882748
 20
5.882537944839211
 30
0.0
 10
43.57638254441409
 20
5.89252140033883
 30
0.0
 10
43.57651383631956
 20
5.897543696446149
 30
0.0
  0
LINE
  5
2A6
330
1F
100
AcDbEntity
  8
0
  6
Continuous
 62
     7
370
    25
100
AcDbLine
 10
44.3469752929
 20
8.5575436964
 30
0.0
 11
41.1469752929
 21
8.5575436964
 31
0.0
  0
INSERT
  5
2A7
330
1F
100
AcDbEntity
  8
0
  6
Continuous
 62
     7
100
AcDbBlockReference
  2
Block3
 10
41.4263844932
 20
2.4068740981
 30
0.0
 41
0.5
 42
0.5
 43
0.5
  0
DIMENSION
  5
2A8
330
1F
100
AcDbEntity
  8
0
  6
Continuous
 62
     7
370
    18
100
AcDbDimension
  2
_D_9
 10
37.3674477339
 20
5.3975436964
 30
0.0
 11
37.3674477339
 21
7.0075436964
 31
0.0
 70
   160
  1
<>
 71
     2
 42
-1.0
  3
SLDDIMSTYLE5
100
AcDbAlignedDimension
 13
41.2069752929
 23
8.6175436964
 33
0.0
 14
41.1469752929
 24
5.3975436964
 34
0.0
 50
90.0
100
AcDbRotatedDimension
  0
CIRCLE
  5
2BC
330
1F
100
AcDbEntity
  8
0
  6
Continuous
 62
     7
370
    25
100
AcDbCircle
 10
54.7853454545
 20
8.5698545455
 30
0.0
 40
0.5706052674608273
  0
LINE
  5
2BD
330
1F
100
AcDbEntity
  8
0
  6
Continuous
 62
     7
370
    25
100
AcDbLine
 10
55.3268160182
 20
8.7498545455
 30
0.0
 11
54.2438748909
 21
8.7498545455
 31
0.0
  0
LINE
  5
2BE
330
1F
100
AcDbEntity
  8
0
  6
Continuous
 62
     7
370
    25
100
AcDbLine
 10
54.2609740487
 20
8.7948545455
 30
0.0
 11
55.3097168604
 21
8.7948545455
 31
0.0
  0
LINE
  5
2BF
330
1F
100
AcDbEntity
  8
0
  6
Continuous
 62
     7
370
    25
100
AcDbLine
 10
54.3552694482
 20
8.9448545455
 30
0.0
 11
55.2154214609
 21
8.9448545455
 31
0.0
  0
LINE
  5
2C0
330
1F
100
AcDbEntity
  8
0
  6
Continuous
 62
     7
370
    25
100
AcDbLine
 10
57.8968259699
 20
5.3471708361
 30
0.0
 11
57.8968259699
 21
5.4285772241
 31
0.0
  0
CIRCLE
  5
2C1
330
1F
100
AcDbEntity
  8
0
  6
Continuous
 62
     7
370
    25
100
AcDbCircle
 10
57.9673259699
 20
5.3878740301
 30
0.0
 40
0.1169999999999973
  0
LINE
  5
2C2
330
1F
100
AcDbEntity
  8
0
  6
Continuous
 62
     7
370
    25
100
AcDbLine
 10
58.0378259699
 20
5.3471708361
 30
0.0
 11
57.9673259699
 21
5.3064676422
 31
0.0
  0
LINE
  5
2C3
330
1F
100
AcDbEntity
  8
0
  6
Continuous
 62
     7
370
    25
100
AcDbLine
 10
57.9673259699
 20
5.3064676422
 30
0.0
 11
57.8968259699
 21
5.3471708361
 31
0.0
  0
LINE
  5
2C4
330
1F
100
AcDbEntity
  8
0
  6
Continuous
 62
     7
370
    25
100
AcDbLine
 10
57.8968259699
 20
5.4285772241
 30
0.0
 11
57.9673259699
 21
5.4692804181
 31
0.0
  0
LINE
  5
2C5
330
1F
100
AcDbEntity
  8
0
  6
Continuous
 62
     7
370
    25
100
AcDbLine
 10
58.0378259699
 20
5.4285772241
 30
0.0
 11
58.0378259699
 21
5.3471708361
 31
0.0
  0
LINE
  5
2C6
330
1F
100
AcDbEntity
  8
0
  6
Continuous
 62
     7
370
    25
100
AcDbLine
 10
57.9673259699
 20
5.4692804181
 30
0.0
 11
58.0378259699
 21
5.4285772241
 31
0.0
  0
CIRCLE
  5
2C7
330
1F
100
AcDbEntity
  8
0
  6
Continuous
 62
     7
370
    25
100
AcDbCircle
 10
57.9673259699
 20
5.3878740301
 30
0.0
 40
0.2340000000000018
  0
ARC
  5
2C8
330
1F
100
AcDbEntity
  8
0
  6
Continuous
 62
     7
370
    25
100
AcDbCircle
 10
57.9673259699
 20
5.3878740301
 30
0.0
 40
0.0705000000000027
100
AcDbArc
 50
180.0
 51
240.0
  0
ARC
  5
2C9
330
1F
100
AcDbEntity
  8
0
  6
Continuous
 62
     7
370
    25
100
AcDbCircle
 10
57.9673259699
 20
5.3878740301
 30
0.0
 40
0.0705000000000027
100
AcDbArc
 50
120.0
 51
180.0
  0
ARC
  5
2CA
330
1F
100
AcDbEntity
  8
0
  6
Continuous
 62
     7
370
    25
100
AcDbCircle
 10
57.9673259699
 20
5.3878740301
 30
0.0
 40
0.070500000000001
100
AcDbArc
 50
240.0
 51
300.0
  0
ARC
  5
2CB
330
1F
100
AcDbEntity
  8
0
  6
Continuous
 62
     7
370
    25
100
AcDbCircle
 10
57.9673259699
 20
5.3878740301
 30
0.0
 40
0.0705000000000027
100
AcDbArc
 50
300.0
 51
0.0
  0
ARC
  5
2CC
330
1F
100
AcDbEntity
  8
0
  6
Continuous
 62
     7
370
    25
100
AcDbCircle
 10
57.9673259699
 20
5.3878740301
 30
0.0
 40
0.0704999999999987
100
AcDbArc
 50
60.0
 51
120.0
  0
ARC
  5
2CD
330
1F
100
AcDbEntity
  8
0
  6
Continuous
 62
     7
370
    25
100
AcDbCircle
 10
57.9673259699
 20
5.3878740301
 30
0.0
 40
0.0705000000000027
100
AcDbArc
 50
0.0
 51
60.0
  0
CIRCLE
  5
2CE
330
1F
100
AcDbEntity
  8
0
  6
Continuous
 62
     7
370
    25
100
AcDbCircle
 10
57.9673259699
 20
11.7518350608
 30
0.0
 40
0.1169999999999973
  0
LINE
  5
2CF
330
1F
100
AcDbEntity
  8
0
  6
Continuous
 62
     7
370
    25
100
AcDbLine
 10
58.0378259699
 20
11.7111318668
 30
0.0
 11
57.9673259699
 21
11.6704286728
 31
0.0
  0
LINE
  5
2D0
330
1F
100
AcDbEntity
  8
0
  6
Continuous
 62
     7
370
    25
100
AcDbLine
 10
58.0378259699
 20
11.7925382548
 30
0.0
 11
58.0378259699
 21
11.7111318668
 31
0.0
  0
LINE
  5
2D1
330
1F
100
AcDbEntity
  8
0
  6
Continuous
 62
     7
370
    25
100
AcDbLine
 10
57.8968259699
 20
11.7925382548
 30
0.0
 11
57.9673259699
 21
11.8332414487
 31
0.0
  0
LINE
  5
2D2
330
1F
100
AcDbEntity
  8
0
  6
Continuous
 62
     7
370
    25
100
AcDbLine
 10
57.9673259699
 20
11.6704286728
 30
0.0
 11
57.8968259699
 21
11.7111318668
 31
0.0
  0
LINE
  5
2D3
330
1F
100
AcDbEntity
  8
0
  6
Continuous
 62
     7
370
    25
100
AcDbLine
 10
57.9673259699
 20
11.8332414487
 30
0.0
 11
58.0378259699
 21
11.7925382548
 31
0.0
  0
LINE
  5
2D4
330
1F
100
AcDbEntity
  8
0
  6
Continuous
 62
     7
370
    25
100
AcDbLine
 10
57.8968259699
 20
11.7111318668
 30
0.0
 11
57.8968259699
 21
11.7925382548
 31
0.0
  0
CIRCLE
  5
2D5
330
1F
100
AcDbEntity
  8
0
  6
Continuous
 62
     7
370
    25
100
AcDbCircle
 10
57.9673259699
 20
11.7518350608
 30
0.0
 40
0.2340000000000018
  0
ARC
  5
2D6
330
1F
100
AcDbEntity
  8
0
  6
Continuous
 62
     7
370
    25
100
AcDbCircle
 10
57.9673259699
 20
11.7518350608
 30
0.0
 40
0.0705000000000027
100
AcDbArc
 50
0.0
 51
60.0
  0
ARC
  5
2D7
330
1F
100
AcDbEntity
  8
0
  6
Continuous
 62
     7
370
    25
100
AcDbCircle
 10
57.9673259699
 20
11.7518350608
 30
0.0
 40
0.0705000000000015
100
AcDbArc
 50
60.0
 51
120.0
  0
ARC
  5
2D8
330
1F
100
AcDbEntity
  8
0
  6
Continuous
 62
     7
370
    25
100
AcDbCircle
 10
57.9673259699
 20
11.7518350608
 30
0.0
 40
0.0705000000000045
100
AcDbArc
 50
180.0
 51
240.0
  0
ARC
  5
2D9
330
1F
100
AcDbEntity
  8
0
  6
Continuous
 62
     7
370
    25
100
AcDbCircle
 10
57.9673259699
 20
11.7518350608
 30
0.0
 40
0.0705000000000027
100
AcDbArc
 50
300.0
 51
0.0
  0
ARC
  5
2DA
330
1F
100
AcDbEntity
  8
0
  6
Continuous
 62
     7
370
    25
100
AcDbCircle
 10
57.9673259699
 20
11.7518350608
 30
0.0
 40
0.0705000000000045
100
AcDbArc
 50
240.0
 51
300.0
  0
ARC
  5
2DB
330
1F
100
AcDbEntity
  8
0
  6
Continuous
 62
     7
370
    25
100
AcDbCircle
 10
57.9673259699
 20
11.7518350608
 30
0.0
 40
0.0705000000000027
100
AcDbArc
 50
120.0
 51
180.0
  0
LINE
  5
2DC
330
1F
100
AcDbEntity
  8
0
  6
Continuous
 62
     7
370
    25
100
AcDbLine
 10
51.6033649392
 20
5.4692804181
 30
0.0
 11
51.6738649392
 21
5.4285772241
 31
0.0
  0
LINE
  5
2DD
330
1F
100
AcDbEntity
  8
0
  6
Continuous
 62
     7
370
    25
100
AcDbLine
 10
51.5328649392
 20
5.4285772241
 30
0.0
 11
51.6033649392
 21
5.4692804181
 31
0.0
  0
LINE
  5
2DE
330
1F
100
AcDbEntity
  8
0
  6
Continuous
 62
     7
370
    25
100
AcDbLine
 10
51.5328649392
 20
5.3471708361
 30
0.0
 11
51.5328649392
 21
5.4285772241
 31
0.0
  0
CIRCLE
  5
2DF
330
1F
100
AcDbEntity
  8
0
  6
Continuous
 62
     7
370
    25
100
AcDbCircle
 10
51.6033649392
 20
5.3878740301
 30
0.0
 40
0.1170000000000044
  0
LINE
  5
2E0
330
1F
100
AcDbEntity
  8
0
  6
Continuous
 62
     7
370
    25
100
AcDbLine
 10
51.6738649392
 20
5.3471708361
 30
0.0
 11
51.6033649392
 21
5.3064676422
 31
0.0
  0
LINE
  5
2E1
330
1F
100
AcDbEntity
  8
0
  6
Continuous
 62
     7
370
    25
100
AcDbLine
 10
51.6738649392
 20
5.4285772241
 30
0.0
 11
51.6738649392
 21
5.3471708361
 31
0.0
  0
LINE
  5
2E2
330
1F
100
AcDbEntity
  8
0
  6
Continuous
 62
     7
370
    25
100
AcDbLine
 10
51.6033649392
 20
5.3064676422
 30
0.0
 11
51.5328649392
 21
5.3471708361
 31
0.0
  0
CIRCLE
  5
2E3
330
1F
100
AcDbEntity
  8
0
  6
Continuous
 62
     7
370
    25
100
AcDbCircle
 10
51.6033649392
 20
5.3878740301
 30
0.0
 40
0.2339999999999947
  0
ARC
  5
2E4
330
1F
100
AcDbEntity
  8
0
  6
Continuous
 62
     7
370
    25
100
AcDbCircle
 10
51.6033649392
 20
5.3878740301
 30
0.0
 40
0.0705000000000015
100
AcDbArc
 50
60.0
 51
120.0
  0
ARC
  5
2E5
330
1F
100
AcDbEntity
  8
0
  6
Continuous
 62
     7
370
    25
100
AcDbCircle
 10
51.6033649392
 20
5.3878740301
 30
0.0
 40
0.070500000000003
100
AcDbArc
 50
300.0
 51
0.0
  0
ARC
  5
2E6
330
1F
100
AcDbEntity
  8
0
  6
Continuous
 62
     7
370
    25
100
AcDbCircle
 10
51.6033649392
 20
5.3878740301
 30
0.0
 40
0.070500000000003
100
AcDbArc
 50
240.0
 51
300.0
  0
ARC
  5
2E7
330
1F
100
AcDbEntity
  8
0
  6
Continuous
 62
     7
370
    25
100
AcDbCircle
 10
51.6033649392
 20
5.3878740301
 30
0.0
 40
0.0705000000000027
100
AcDbArc
 50
180.0
 51
240.0
  0
ARC
  5
2E8
330
1F
100
AcDbEntity
  8
0
  6
Continuous
 62
     7
370
    25
100
AcDbCircle
 10
51.6033649392
 20
5.3878740301
 30
0.0
 40
0.0705000000000027
100
AcDbArc
 50
120.0
 51
180.0
  0
ARC
  5
2E9
330
1F
100
AcDbEntity
  8
0
  6
Continuous
 62
     7
370
    25
100
AcDbCircle
 10
51.6033649392
 20
5.3878740301
 30
0.0
 40
0.0705000000000027
100
AcDbArc
 50
0.0
 51
60.0
  0
CIRCLE
  5
2EA
330
1F
100
AcDbEntity
  8
0
  6
Continuous
 62
     7
370
    25
100
AcDbCircle
 10
51.6033649392
 20
11.7518350608
 30
0.0
 40
0.1170000000000044
  0
CIRCLE
  5
2EB
330
1F
100
AcDbEntity
  8
0
  6
Continuous
 62
     7
370
    25
100
AcDbCircle
 10
51.6033649392
 20
11.7518350608
 30
0.0
 40
0.2340000000000018
  0
LINE
  5
2EC
330
1F
100
AcDbEntity
  8
0
  6
Continuous
 62
     7
370
    25
100
AcDbLine
 10
51.6033649392
 20
11.8332414487
 30
0.0
 11
51.6738649392
 21
11.7925382548
 31
0.0
  0
LINE
  5
2ED
330
1F
100
AcDbEntity
  8
0
  6
Continuous
 62
     7
370
    25
100
AcDbLine
 10
51.5328649392
 20
11.7925382548
 30
0.0
 11
51.6033649392
 21
11.8332414487
 31
0.0
  0
LINE
  5
2EE
330
1F
100
AcDbEntity
  8
0
  6
Continuous
 62
     7
370
    25
100
AcDbLine
 10
51.6738649392
 20
11.7111318668
 30
0.0
 11
51.6033649392
 21
11.6704286728
 31
0.0
  0
LINE
  5
2EF
330
1F
100
AcDbEntity
  8
0
  6
Continuous
 62
     7
370
    25
100
AcDbLine
 10
51.5328649392
 20
11.7111318668
 30
0.0
 11
51.5328649392
 21
11.7925382548
 31
0.0
  0
LINE
  5
2F0
330
1F
100
AcDbEntity
  8
0
  6
Continuous
 62
     7
370
    25
100
AcDbLine
 10
51.6738649392
 20
11.7925382548
 30
0.0
 11
51.6738649392
 21
11.7111318668
 31
0.0
  0
LINE
  5
2F1
330
1F
100
AcDbEntity
  8
0
  6
Continuous
 62
     7
370
    25
100
AcDbLine
 10
51.6033649392
 20
11.6704286728
 30
0.0
 11
51.5328649392
 21
11.7111318668
 31
0.0
  0
ARC
  5
2F2
330
1F
100
AcDbEntity
  8
0
  6
Continuous
 62
     7
370
    25
100
AcDbCircle
 10
51.6033649392
 20
11.7518350608
 30
0.0
 40
0.0705000000000045
100
AcDbArc
 50
240.0
 51
300.0
  0
ARC
  5
2F3
330
1F
100
AcDbEntity
  8
0
  6
Continuous
 62
     7
370
    25
100
AcDbCircle
 10
51.6033649392
 20
11.7518350608
 30
0.0
 40
0.0705000000000045
100
AcDbArc
 50
300.0
 51
360.0
  0
ARC
  5
2F4
330
1F
100
AcDbEntity
  8
0
  6
Continuous
 62
     7
370
    25
100
AcDbCircle
 10
51.6033649392
 20
11.7518350608
 30
0.0
 40
0.0705000000000027
100
AcDbArc
 50
180.0
 51
240.0
  0
ARC
  5
2F5
330
1F
100
AcDbEntity
  8
0
  6
Continuous
 62
     7
370
    25
100
AcDbCircle
 10
51.6033649392
 20
11.7518350608
 30
0.0
 40
0.0705000000000027
100
AcDbArc
 50
120.0
 51
180.0
  0
ARC
  5
2F6
330
1F
100
AcDbEntity
  8
0
  6
Continuous
 62
     7
370
    25
100
AcDbCircle
 10
51.6033649392
 20
11.7518350608
 30
0.0
 40
0.0705000000000015
100
AcDbArc
 50
60.0
 51
120.0
  0
ARC
  5
2F7
330
1F
100
AcDbEntity
  8
0
  6
Continuous
 62
     7
370
    25
100
AcDbCircle
 10
51.6033649392
 20
11.7518350608
 30
0.0
 40
0.0705000000000027
100
AcDbArc
 50
360.0
 51
60.0
  0
CIRCLE
  5
2F8
330
1F
100
AcDbEntity
  8
0
  6
Continuous
 62
     7
370
    25
100
AcDbCircle
 10
54.7853454545
 20
8.5698545455
 30
0.0
 40
2.325000000000003
  0
CIRCLE
  5
2F9
330
1F
100
AcDbEntity
  8
0
  6
Continuous
 62
     7
370
    25
100
AcDbCircle
 10
54.7853454545
 20
8.5698545455
 30
0.0
 40
4.199999999999999
  0
CIRCLE
  5
2FA
330
1F
100
AcDbEntity
  8
0
  6
Continuous
 62
     7
370
    25
100
AcDbCircle
 10
54.7853454545
 20
8.5698545455
 30
0.0
 40
0.6224999999999979
  0
CIRCLE
  5
2FB
330
1F
100
AcDbEntity
  8
0
  6
Continuous
 62
     7
370
    25
100
AcDbCircle
 10
54.7853454545
 20
8.5698545455
 30
0.0
 40
4.837500000000001
  0
ARC
  5
2FC
330
1F
100
AcDbEntity
  8
0
  6
Continuous
 62
     7
370
    25
100
AcDbCircle
 10
54.7853454545
 20
8.5698545455
 30
0.0
 40
4.29
100
AcDbArc
 50
46.3461542426
 51
133.6538457574
  0
ARC
  5
2FD
330
1F
100
AcDbEntity
  8
0
  6
Continuous
 62
     7
370
    25
100
AcDbCircle
 10
54.7853454545
 20
8.5698545455
 30
0.0
 40
4.289999999999998
100
AcDbArc
 50
316.3461542426
 51
43.6538457574
  0
ARC
  5
2FE
330
1F
100
AcDbEntity
  8
0
  6
Continuous
 62
     7
370
    25
100
AcDbCircle
 10
54.7853454545
 20
8.5698545455
 30
0.0
 40
4.290000000000003
100
AcDbArc
 50
226.3461542426
 51
313.6538457574
  0
ARC
  5
2FF
330
1F
100
AcDbEntity
  8
0
  6
Continuous
 62
     7
370
    25
100
AcDbCircle
 10
54.7853454545
 20
8.5698545455
 30
0.0
 40
4.290000000000005
100
AcDbArc
 50
136.3461542426
 51
223.6538457574
  0
ARC
  5
300
330
1F
100
AcDbEntity
  8
0
  6
Continuous
 62
     7
370
    25
100
AcDbCircle
 10
54.7853454545
 20
8.5698545455
 30
0.0
 40
4.650000000000002
100
AcDbArc
 50
47.2496919417
 51
132.7503080583
  0
ARC
  5
301
330
1F
100
AcDbEntity
  8
0
  6
Continuous
 62
     7
370
    25
100
AcDbCircle
 10
54.7853454545
 20
8.5698545455
 30
0.0
 40
4.65
100
AcDbArc
 50
317.2496919417
 51
42.7503080583
  0
ARC
  5
302
330
1F
100
AcDbEntity
  8
0
  6
Continuous
 62
     7
370
    25
100
AcDbCircle
 10
54.7853454545
 20
8.5698545455
 30
0.0
 40
4.650000000000004
100
AcDbArc
 50
227.2496919417
 51
312.7503080583
  0
ARC
  5
303
330
1F
100
AcDbEntity
  8
0
  6
Continuous
 62
     7
370
    25
100
AcDbCircle
 10
54.7853454545
 20
8.5698545455
 30
0.0
 40
4.650000000000002
100
AcDbArc
 50
137.2496919417
 51
222.7503080583
  0
DIMENSION
  5
304
330
1F
100
AcDbEntity
  8
0
  6
Continuous
 62
     7
370
    18
100
AcDbDimension
  2
_D_10
 10
52.3665954545
 20
4.3804566546
 30
0.0
 11
62.0252012105
 21
14.6564102742
 31
0.0
 70
   163
  1
<>
 71
     1
 42
-1.0
  3
SLDDIMSTYLE6
100
AcDbDiametricDimension
 15
57.2040954545
 25
12.7592524363
 35
0.0
 40
0.0
  0
ENDSEC
  0
SECTION
  2
OBJECTS
  0
DICTIONARY
  5
C
330
0
100
AcDbDictionary
281
     1
  3
ACAD_GROUP
350
D
  3
ACAD_LAYOUT
350
1A
  3
ACAD_MLINESTYLE
350
17
  3
ACAD_PLOTSETTINGS
350
19
  3
ACAD_PLOTSTYLENAME
350
E
  3
ACAD_SCALELIST
350
47
  3
DWGPROPS
350
315
  0
DICTIONARY
  5
D
102
{ACAD_REACTORS
330
C
102
}
330
C
100
AcDbDictionary
281
     1
  0
DICTIONARY
  5
1A
102
{ACAD_REACTORS
330
C
102
}
330
C
100
AcDbDictionary
281
     1
  3
Layout1
350
1E
  3
Layout2
350
26
  3
Model
350
22
  0
DICTIONARY
  5
17
102
{ACAD_REACTORS
330
C
102
}
330
C
100
AcDbDictionary
281
     1
  3
Standard
350
18
  0
DICTIONARY
  5
19
102
{ACAD_REACTORS
330
C
102
}
330
C
100
AcDbDictionary
281
     1
  0
ACDBDICTIONARYWDFLT
  5
E
102
{ACAD_REACTORS
330
C
102
}
330
C
100
AcDbDictionary
281
     1
  3
Normal
350
F
100
AcDbDictionaryWithDefault
340
F
  0
DICTIONARY
  5
47
102
{ACAD_REACTORS
330
C
102
}
330
C
100
AcDbDictionary
281
     1
  3
A0
350
48
  3
A1
350
49
  3
A2
350
4A
  3
A3
350
4B
  3
A4
350
4C
  3
A5
350
4D
  3
A6
350
4E
  3
A7
350
4F
  3
A8
350
50
  3
A9
350
51
  3
B1
350
52
  3
B2
350
53
  3
B3
350
54
  3
B4
350
55
  3
B5
350
56
  3
B6
350
57
  3
B7
350
58
  0
XRECORD
  5
315
102
{ACAD_REACTORS
330
C
102
}
330
C
100
AcDbXrecord
280
     1
  1
DWGPROPS COOKIE
  2

  3

  4

  6

  7

  8
stevend
  9

300
=
301
=
302
=
303
=
304
=
305
=
306
=
307
=
308
=
309
=
 40
0.0
 41
2460606.677855382
 42
2460606.67785684
  1

 90
        0
  0
LAYOUT
  5
1E
102
{ACAD_REACTORS
330
1A
102
}
330
1A
100
AcDbPlotSettings
  1

  2
none_device
  4

  6

 40
0.0
 41
0.0
 42
0.0
 43
0.0
 44
0.0
 45
0.0
 46
0.0
 47
0.0
 48
0.0
 49
0.0
140
0.0
141
0.0
142
1.0
143
1.0
 70
   688
 72
     0
 73
     0
 74
     5
  7

 75
    16
147
1.0
148
0.0
149
0.0
100
AcDbLayout
  1
Layout1
 70
     1
 71
     1
 10
0.0
 20
0.0
 11
12.0
 21
9.0
 12
0.0
 22
0.0
 32
0.0
 14
1.0000000000E+20
 24
1.0000000000E+20
 34
1.0000000000E+20
 15
-1.0000000000E+20
 25
-1.0000000000E+20
 35
-1.0000000000E+20
146
0.0
 13
0.0
 23
0.0
 33
0.0
 16
1.0
 26
0.0
 36
0.0
 17
0.0
 27
1.0
 37
0.0
 76
     0
330
1B
  0
LAYOUT
  5
26
102
{ACAD_REACTORS
330
1A
102
}
330
1A
100
AcDbPlotSettings
  1

  2
none_device
  4

  6

 40
0.0
 41
0.0
 42
0.0
 43
0.0
 44
0.0
 45
0.0
 46
0.0
 47
0.0
 48
0.0
 49
0.0
140
0.0
141
0.0
142
1.0
143
1.0
 70
   688
 72
     0
 73
     0
 74
     5
  7

 75
    16
147
1.0
148
0.0
149
0.0
100
AcDbLayout
  1
Layout2
 70
     1
 71
     2
 10
0.0
 20
0.0
 11
0.0
 21
0.0
 12
0.0
 22
0.0
 32
0.0
 14
0.0
 24
0.0
 34
0.0
 15
0.0
 25
0.0
 35
0.0
146
0.0
 13
0.0
 23
0.0
 33
0.0
 16
1.0
 26
0.0
 36
0.0
 17
0.0
 27
1.0
 37
0.0
 76
     0
330
23
  0
LAYOUT
  5
22
102
{ACAD_REACTORS
330
1A
102
}
330
1A
100
AcDbPlotSettings
  1

  2
none_device
  4
Letter_(8.50_x_11.00_Inches)
  6

 40
6.35
 41
6.35
 42
6.35000508
 43
6.35000508
 44
215.9
 45
279.4
 46
0.0
 47
0.0
 48
0.0
 49
0.0
140
0.0
141
0.0
142
1.0
143
1.0
 70
  1712
 72
     0
 73
     0
 74
     0
  7

 75
     0
147
1.0
148
0.0
149
0.0
100
AcDbLayout
  1
Model
 70
     1
 71
     0
 10
0.0
 20
0.0
 11
66.0
 21
51.0
 12
0.0
 22
0.0
 32
0.0
 14
0.0
 24
0.0
 34
0.0
 15
66.0
 25
51.0
 35
0.0
146
0.0
 13
0.0
 23
0.0
 33
0.0
 16
1.0
 26
0.0
 36
0.0
 17
0.0
 27
1.0
 37
0.0
 76
     0
330
1F
331
29
  0
MLINESTYLE
  5
18
102
{ACAD_REACTORS
330
17
102
}
330
17
100
AcDbMlineStyle
  2
Standard
 70
     0
  3

 62
   256
 51
90.0
 52
90.0
 71
     2
 49
0.5
 62
   256
  6
BYLAYER
 49
-0.5
 62
   256
  6
BYLAYER
  0
ACDBPLACEHOLDER
  5
F
102
{ACAD_REACTORS
330
E
102
}
330
E
  0
SCALE
  5
48
102
{ACAD_REACTORS
330
47
102
}
330
47
100
AcDbScale
 70
     0
300
1:1
140
1.0
141
1.0
290
     1
  0
SCALE
  5
49
102
{ACAD_REACTORS
330
47
102
}
330
47
100
AcDbScale
 70
     0
300
1/128" = 1'-0"
140
0.0078125
141
12.0
290
     0
  0
SCALE
  5
4A
102
{ACAD_REACTORS
330
47
102
}
330
47
100
AcDbScale
 70
     0
300
1/64" = 1'-0"
140
0.015625
141
12.0
290
     0
  0
SCALE
  5
4B
102
{ACAD_REACTORS
330
47
102
}
330
47
100
AcDbScale
 70
     0
300
1/32" = 1'-0"
140
0.03125
141
12.0
290
     0
  0
SCALE
  5
4C
102
{ACAD_REACTORS
330
47
102
}
330
47
100
AcDbScale
 70
     0
300
1/16" = 1'-0"
140
0.0625
141
12.0
290
     0
  0
SCALE
  5
4D
102
{ACAD_REACTORS
330
47
102
}
330
47
100
AcDbScale
 70
     0
300
3/32" = 1'-0"
140
0.09375
141
12.0
290
     0
  0
SCALE
  5
4E
102
{ACAD_REACTORS
330
47
102
}
330
47
100
AcDbScale
 70
     0
300
1/8" = 1'-0"
140
0.125
141
12.0
290
     0
  0
SCALE
  5
4F
102
{ACAD_REACTORS
330
47
102
}
330
47
100
AcDbScale
 70
     0
300
3/16" = 1'-0"
140
0.1875
141
12.0
290
     0
  0
SCALE
  5
50
102
{ACAD_REACTORS
330
47
102
}
330
47
100
AcDbScale
 70
     0
300
1/4" = 1'-0"
140
0.25
141
12.0
290
     0
  0
SCALE
  5
51
102
{ACAD_REACTORS
330
47
102
}
330
47
100
AcDbScale
 70
     0
300
3/8" = 1'-0"
140
0.375
141
12.0
290
     0
  0
SCALE
  5
52
102
{ACAD_REACTORS
330
47
102
}
330
47
100
AcDbScale
 70
     0
300
1/2" = 1'-0"
140
0.5
141
12.0
290
     0
  0
SCALE
  5
53
102
{ACAD_REACTORS
330
47
102
}
330
47
100
AcDbScale
 70
     0
300
3/4" = 1'-0"
140
0.75
141
12.0
290
     0
  0
SCALE
  5
54
102
{ACAD_REACTORS
330
47
102
}
330
47
100
AcDbScale
 70
     0
300
1" = 1'-0"
140
1.0
141
12.0
290
     0
  0
SCALE
  5
55
102
{ACAD_REACTORS
330
47
102
}
330
47
100
AcDbScale
 70
     0
300
1-1/2" = 1'-0"
140
1.5
141
12.0
290
     0
  0
SCALE
  5
56
102
{ACAD_REACTORS
330
47
102
}
330
47
100
AcDbScale
 70
     0
300
3" = 1'-0"
140
3.0
141
12.0
290
     0
  0
SCALE
  5
57
102
{ACAD_REACTORS
330
47
102
}
330
47
100
AcDbScale
 70
     0
300
6" = 1'-0"
140
6.0
141
12.0
290
     0
  0
SCALE
  5
58
102
{ACAD_REACTORS
330
47
102
}
330
47
100
AcDbScale
 70
     0
300
1'-0" = 1'-0"
140
12.0
141
12.0
290
     0
  0
ENDSEC
  0
EOF
