  0
SECTION
  2
HEADER
  9
$ACADVER
  1
AC1015
  9
$ACADMAINTVER
 70
     6
  9
$DWGCODEPAGE
  3
ANSI_1252
  9
$INSBASE
 10
0.0
 20
0.0
 30
0.0
  9
$EXTMIN
 10
0.0
 20
0.0
 30
0.0
  9
$EXTMAX
 10
66.0
 20
51.0
 30
0.0
  9
$LIMMIN
 10
0.0
 20
0.0
  9
$LIMMAX
 10
66.0
 20
51.0
  9
$ORTHOMODE
 70
     0
  9
$REGENMODE
 70
     1
  9
$FILLMODE
 70
     1
  9
$QTEXTMODE
 70
     0
  9
$MIRRTEXT
 70
     1
  9
$LTSCALE
 40
6.0
  9
$ATTMODE
 70
     1
  9
$TEXTSIZE
 40
0.75
  9
$TRACEWID
 40
0.05
  9
$TEXTSTYLE
  7
STANDARD
  9
$CLAYER
  8
0
  9
$CELTYPE
  6
ByLayer
  9
$CECOLOR
 62
   256
  9
$CELTSCALE
 40
1.0
  9
$DISPSILH
 70
     0
  9
$DIMSCALE
 40
1.0
  9
$DIMASZ
 40
0.78
  9
$DIMEXO
 40
0.3
  9
$DIMDLI
 40
0.38
  9
$DIMRND
 40
0.0
  9
$DIMDLE
 40
0.0
  9
$DIMEXE
 40
0.75
  9
$DIMTP
 40
0.0
  9
$DIMTM
 40
0.0
  9
$DIMTXT
 40
0.75
  9
$DIMCEN
 40
0.09
  9
$DIMTSZ
 40
0.0
  9
$DIMTOL
 70
     0
  9
$DIMLIM
 70
     0
  9
$DIMTIH
 70
     1
  9
$DIMTOH
 70
     1
  9
$DIMSE1
 70
     0
  9
$DIMSE2
 70
     0
  9
$DIMTAD
 70
     0
  9
$DIMZIN
 70
     1
  9
$DIMBLK
  1

  9
$DIMASO
 70
     1
  9
$DIMSHO
 70
     1
  9
$DIMPOST
  1

  9
$DIMAPOST
  1

  9
$DIMALT
 70
     0
  9
$DIMALTD
 70
     2
  9
$DIMALTF
 40
25.4
  9
$DIMLFAC
 40
1.0
  9
$DIMTOFL
 70
     0
  9
$DIMTVP
 40
0.0
  9
$DIMTIX
 70
     0
  9
$DIMSOXD
 70
     0
  9
$DIMSAH
 70
     0
  9
$DIMBLK1
  1

  9
$DIMBLK2
  1

  9
$DIMSTYLE
  2
Standard
  9
$DIMCLRD
 70
     0
  9
$DIMCLRE
 70
     0
  9
$DIMCLRT
 70
     0
  9
$DIMTFAC
 40
1.0
  9
$DIMGAP
 40
0.36
  9
$DIMJUST
 70
     0
  9
$DIMSD1
 70
     0
  9
$DIMSD2
 70
     0
  9
$DIMTOLJ
 70
     1
  9
$DIMTZIN
 70
     1
  9
$DIMALTZ
 70
     0
  9
$DIMALTTZ
 70
     0
  9
$DIMUPT
 70
     0
  9
$DIMDEC
 70
     0
  9
$DIMTDEC
 70
     0
  9
$DIMALTU
 70
     2
  9
$DIMALTTD
 70
     2
  9
$DIMTXSTY
  7
STANDARD
  9
$DIMAUNIT
 70
     0
  9
$DIMADEC
 70
     0
  9
$DIMALTRND
 40
0.0
  9
$DIMAZIN
 70
     0
  9
$DIMDSEP
 70
    46
  9
$DIMATFIT
 70
     3
  9
$DIMFRAC
 70
     0
  9
$DIMLDRBLK
  1

  9
$DIMLUNIT
 70
     2
  9
$DIMLWD
 70
    -2
  9
$DIMLWE
 70
    -2
  9
$DIMTMOVE
 70
     0
  9
$LUNITS
 70
     2
  9
$LUPREC
 70
     6
  9
$SKETCHINC
 40
0.1
  9
$FILLETRAD
 40
0.0
  9
$AUNITS
 70
     0
  9
$AUPREC
 70
     2
  9
$MENU
  1
.
  9
$ELEVATION
 40
0.0
  9
$PELEVATION
 40
0.0
  9
$THICKNESS
 40
0.0
  9
$LIMCHECK
 70
     0
  9
$CHAMFERA
 40
0.0
  9
$CHAMFERB
 40
0.0
  9
$CHAMFERC
 40
0.0
  9
$CHAMFERD
 40
0.0
  9
$SKPOLY
 70
     0
  9
$TDCREATE
 40
2460606.448718507
  9
$TDUCREATE
 40
2460606.740385174
  9
$TDUPDATE
 40
2460606.448719908
  9
$TDUUPDATE
 40
2460606.740386574
  9
$TDINDWG
 40
0.0000000116
  9
$TDUSRTIMER
 40
0.0000000116
  9
$USRTIMER
 70
     1
  9
$ANGBASE
 50
0.0
  9
$ANGDIR
 70
     0
  9
$PDMODE
 70
     0
  9
$PDSIZE
 40
-1.0
  9
$PLINEWID
 40
0.0
  9
$SPLFRAME
 70
     0
  9
$SPLINETYPE
 70
     6
  9
$SPLINESEGS
 70
     8
  9
$HANDSEED
  5
38F
  9
$SURFTAB1
 70
     6
  9
$SURFTAB2
 70
     6
  9
$SURFTYPE
 70
     6
  9
$SURFU
 70
     6
  9
$SURFV
 70
     6
  9
$UCSBASE
  2

  9
$UCSNAME
  2

  9
$UCSORG
 10
0.0
 20
0.0
 30
0.0
  9
$UCSXDIR
 10
1.0
 20
0.0
 30
0.0
  9
$UCSYDIR
 10
0.0
 20
1.0
 30
0.0
  9
$UCSORTHOREF
  2

  9
$UCSORTHOVIEW
 70
     0
  9
$UCSORGTOP
 10
0.0
 20
0.0
 30
0.0
  9
$UCSORGBOTTOM
 10
0.0
 20
0.0
 30
0.0
  9
$UCSORGLEFT
 10
0.0
 20
0.0
 30
0.0
  9
$UCSORGRIGHT
 10
0.0
 20
0.0
 30
0.0
  9
$UCSORGFRONT
 10
0.0
 20
0.0
 30
0.0
  9
$UCSORGBACK
 10
0.0
 20
0.0
 30
0.0
  9
$PUCSBASE
  2

  9
$PUCSNAME
  2

  9
$PUCSORG
 10
0.0
 20
0.0
 30
0.0
  9
$PUCSXDIR
 10
1.0
 20
0.0
 30
0.0
  9
$PUCSYDIR
 10
0.0
 20
1.0
 30
0.0
  9
$PUCSORTHOREF
  2

  9
$PUCSORTHOVIEW
 70
     0
  9
$PUCSORGTOP
 10
0.0
 20
0.0
 30
0.0
  9
$PUCSORGBOTTOM
 10
0.0
 20
0.0
 30
0.0
  9
$PUCSORGLEFT
 10
0.0
 20
0.0
 30
0.0
  9
$PUCSORGRIGHT
 10
0.0
 20
0.0
 30
0.0
  9
$PUCSORGFRONT
 10
0.0
 20
0.0
 30
0.0
  9
$PUCSORGBACK
 10
0.0
 20
0.0
 30
0.0
  9
$USERI1
 70
     0
  9
$USERI2
 70
     0
  9
$USERI3
 70
     0
  9
$USERI4
 70
     0
  9
$USERI5
 70
     0
  9
$USERR1
 40
0.0
  9
$USERR2
 40
0.0
  9
$USERR3
 40
0.0
  9
$USERR4
 40
0.0
  9
$USERR5
 40
0.0
  9
$WORLDVIEW
 70
     1
  9
$SHADEDGE
 70
     3
  9
$SHADEDIF
 70
    70
  9
$TILEMODE
 70
     1
  9
$MAXACTVP
 70
    64
  9
$PINSBASE
 10
0.0
 20
0.0
 30
0.0
  9
$PLIMCHECK
 70
     0
  9
$PEXTMIN
 10
1.0000000000E+20
 20
1.0000000000E+20
 30
1.0000000000E+20
  9
$PEXTMAX
 10
-1.0000000000E+20
 20
-1.0000000000E+20
 30
-1.0000000000E+20
  9
$PLIMMIN
 10
0.0
 20
0.0
  9
$PLIMMAX
 10
12.0
 20
9.0
  9
$UNITMODE
 70
     0
  9
$VISRETAIN
 70
     1
  9
$PLINEGEN
 70
     0
  9
$PSLTSCALE
 70
     1
  9
$TREEDEPTH
 70
  3020
  9
$CMLSTYLE
  2
Standard
  9
$CMLJUST
 70
     0
  9
$CMLSCALE
 40
1.0
  9
$PROXYGRAPHICS
 70
     1
  9
$MEASUREMENT
 70
     0
  9
$CELWEIGHT
370
    -1
  9
$ENDCAPS
280
     0
  9
$JOINSTYLE
280
     0
  9
$LWDISPLAY
290
     1
  9
$INSUNITS
 70
     1
  9
$HYPERLINKBASE
  1

  9
$STYLESHEET
  1

  9
$XEDIT
290
     1
  9
$CEPSNTYPE
380
     0
  9
$PSTYLEMODE
290
     1
  9
$FINGERPRINTGUID
  2
{c1b9a970-fdea-4381-a4a3-e785add59f8e}
  9
$VERSIONGUID
  2
{FAEB1C32-E019-11D5-929B-00C0DF256EC4}
  9
$EXTNAMES
290
     1
  9
$PSVPSCALE
 40
0.0
  9
$OLESTARTUP
290
     0
  0
ENDSEC
  0
SECTION
  2
CLASSES
  0
CLASS
  1
ACDBDICTIONARYWDFLT
  2
AcDbDictionaryWithDefault
  3
ObjectDBX Classes
 90
        0
280
     0
281
     0
  0
CLASS
  1
VISUALSTYLE
  2
AcDbVisualStyle
  3
ObjectDBX Classes
 90
     4095
280
     0
281
     0
  0
CLASS
  1
MATERIAL
  2
AcDbMaterial
  3
ObjectDBX Classes
 90
     1153
280
     0
281
     0
  0
CLASS
  1
SCALE
  2
AcDbScale
  3
ObjectDBX Classes
 90
     1153
280
     0
281
     0
  0
CLASS
  1
TABLESTYLE
  2
AcDbTableStyle
  3
ObjectDBX Classes
 90
     4095
280
     0
281
     0
  0
CLASS
  1
MLEADERSTYLE
  2
AcDbMLeaderStyle
  3
ACDB_MLEADERSTYLE_CLASS
 90
     4095
280
     0
281
     0
  0
CLASS
  1
SUN
  2
AcDbSun
  3
SCENEOE
 90
     1153
280
     0
281
     0
  0
CLASS
  1
ACDBPLACEHOLDER
  2
AcDbPlaceHolder
  3
ObjectDBX Classes
 90
        0
280
     0
281
     0
  0
CLASS
  1
LAYOUT
  2
AcDbLayout
  3
ObjectDBX Classes
 90
        0
280
     0
281
     0
  0
ENDSEC
  0
SECTION
  2
TABLES
  0
TABLE
  2
VPORT
  5
8
330
0
100
AcDbSymbolTable
 70
     1
  0
VPORT
  5
29
330
8
100
AcDbSymbolTableRecord
100
AcDbViewportTableRecord
  2
*Active
 70
     0
 10
0.0
 20
0.0
 11
1.0
 21
1.0
 12
33.0
 22
25.5
 13
0.0
 23
0.0
 14
0.5
 24
0.5
 15
0.5
 25
0.5
 16
0.0
 26
0.0
 36
1.0
 17
0.0
 27
0.0
 37
0.0
 40
51.0
 41
1.2941176471
 42
50.0
 43
0.0
 44
0.0
 50
0.0
 51
0.0
 71
     0
 72
  2000
 73
     1
 74
     3
 75
     0
 76
     0
 77
     0
 78
     0
281
     0
 65
     1
110
0.0
120
0.0
130
0.0
111
1.0
121
0.0
131
0.0
112
0.0
122
1.0
132
0.0
 79
     0
146
0.0
  0
ENDTAB
  0
TABLE
  2
LTYPE
  5
5
330
0
100
AcDbSymbolTable
 70
     6
  0
LTYPE
  5
14
330
5
100
AcDbSymbolTableRecord
100
AcDbLinetypeTableRecord
  2
ByBlock
 70
     0
  3

 72
    65
 73
     0
 40
0.0
  0
LTYPE
  5
15
330
5
100
AcDbSymbolTableRecord
100
AcDbLinetypeTableRecord
  2
ByLayer
 70
     0
  3

 72
    65
 73
     0
 40
0.0
  0
LTYPE
  5
16
330
5
100
AcDbSymbolTableRecord
100
AcDbLinetypeTableRecord
  2
Continuous
 70
     0
  3
Solid line
 72
    65
 73
     0
 40
0.0
  0
LTYPE
  5
5E
330
5
100
AcDbSymbolTableRecord
100
AcDbLinetypeTableRecord
  2
HIDDEN
 70
     0
  3
Hidden __ __ __ __ __ __ __ __ __ __ __ __ __ __
 72
    65
 73
     2
 40
0.075
 49
0.05
 74
     0
 49
-0.025
 74
     0
  0
LTYPE
  5
5F
330
5
100
AcDbSymbolTableRecord
100
AcDbLinetypeTableRecord
  2
PHANTOM
 70
     0
  3
Phantom ______  __  __  ______  __  __  ______
 72
    65
 73
     6
 40
0.5
 49
0.25
 74
     0
 49
-0.05
 74
     0
 49
0.05
 74
     0
 49
-0.05
 74
     0
 49
0.05
 74
     0
 49
-0.05
 74
     0
  0
LTYPE
  5
60
330
5
100
AcDbSymbolTableRecord
100
AcDbLinetypeTableRecord
  2
CENTER
 70
     0
  3
Center ____ _ ____ _ ____ _ ____ _ ____ _ ____
 72
    65
 73
     4
 40
0.4
 49
0.25
 74
     0
 49
-0.05
 74
     0
 49
0.05
 74
     0
 49
-0.05
 74
     0
  0
LTYPE
  5
61
330
5
100
AcDbSymbolTableRecord
100
AcDbLinetypeTableRecord
  2
CENTERX2
 70
     0
  3
Center (2x) ________  __  ________  __  _____
 72
    65
 73
     4
 40
0.8
 49
0.5
 74
     0
 49
-0.1
 74
     0
 49
0.1
 74
     0
 49
-0.1
 74
     0
  0
LTYPE
  5
62
330
5
100
AcDbSymbolTableRecord
100
AcDbLinetypeTableRecord
  2
DOT2
 70
     0
  3
Dot (.5x) ........................................
 72
    65
 73
     2
 40
0.025
 49
0.0
 74
     0
 49
-0.025
 74
     0
  0
ENDTAB
  0
TABLE
  2
LAYER
  5
2
330
0
100
AcDbSymbolTable
 70
    12
  0
LAYER
  5
10
330
2
100
AcDbSymbolTableRecord
100
AcDbLayerTableRecord
  2
0
 70
     0
 62
     7
  6
Continuous
370
    -3
390
F
  0
LAYER
  5
63
330
2
100
AcDbSymbolTableRecord
100
AcDbLayerTableRecord
  2
SLD-0
 70
     0
 62
     7
  6
Continuous
370
    -3
390
F
  0
LAYER
  5
64
330
2
100
AcDbSymbolTableRecord
100
AcDbLayerTableRecord
  2
DIM
 70
     0
 62
     7
  6
Continuous
370
    -3
390
F
  0
LAYER
  5
65
330
2
100
AcDbSymbolTableRecord
100
AcDbLayerTableRecord
  2
CEN
 70
     0
 62
     1
  6
CENTER
370
    -3
390
F
  0
LAYER
  5
66
330
2
100
AcDbSymbolTableRecord
100
AcDbLayerTableRecord
  2
HAT
 70
     0
 62
     4
  6
Continuous
370
    -3
390
F
  0
LAYER
  5
67
330
2
100
AcDbSymbolTableRecord
100
AcDbLayerTableRecord
  2
OBJ
 70
     0
 62
     5
  6
Continuous
370
    -3
390
F
  0
LAYER
  5
68
330
2
100
AcDbSymbolTableRecord
100
AcDbLayerTableRecord
  2
SLD-DEFPOINTS
 70
     0
 62
     7
  6
Continuous
370
    -3
390
F
  0
LAYER
  5
69
330
2
100
AcDbSymbolTableRecord
100
AcDbLayerTableRecord
  2
HID
 70
     0
 62
     4
  6
HIDDEN
370
    -3
390
F
  0
LAYER
  5
6A
330
2
100
AcDbSymbolTableRecord
100
AcDbLayerTableRecord
  2
NOTE
 70
     0
 62
     7
  6
Continuous
370
    -3
390
F
  0
LAYER
  5
6B
330
2
100
AcDbSymbolTableRecord
100
AcDbLayerTableRecord
  2
VP
 70
     0
 62
    -5
  6
Continuous
290
     0
370
    -3
390
F
  0
LAYER
  5
6C
330
2
100
AcDbSymbolTableRecord
100
AcDbLayerTableRecord
  2
TITLE
 70
     0
 62
     7
  6
Continuous
370
    -3
390
F
  0
LAYER
  5
6D
330
2
100
AcDbSymbolTableRecord
100
AcDbLayerTableRecord
  2
THICK_TITLE
 70
     0
 62
     7
  6
Continuous
370
   100
390
F
  0
ENDTAB
  0
TABLE
  2
STYLE
  5
3
330
0
100
AcDbSymbolTable
 70
     2
  0
STYLE
  5
11
330
3
100
AcDbSymbolTableRecord
100
AcDbTextStyleTableRecord
  2
STANDARD
 70
     0
 40
0.0
 41
1.0
 50
0.0
 71
     0
 42
0.75
  3
GOTHIC.TTF
  4

1001
ACAD
1000
CENTURY GOTHIC
1071
       34
  0
STYLE
  5
74
330
3
100
AcDbSymbolTableRecord
100
AcDbTextStyleTableRecord
  2
SLDTEXTSTYLE0
 70
     0
 40
0.0
 41
0.913
 50
0.0
 71
     0
 42
0.75
  3
GOTHIC.TTF
  4

1001
ACAD
1000
Century Gothic
1071
      290
  0
ENDTAB
  0
TABLE
  2
VIEW
  5
6
330
0
100
AcDbSymbolTable
 70
     0
  0
ENDTAB
  0
TABLE
  2
UCS
  5
7
330
0
100
AcDbSymbolTable
 70
     0
  0
ENDTAB
  0
TABLE
  2
APPID
  5
9
330
0
100
AcDbSymbolTable
 70
     1
  0
APPID
  5
12
330
9
100
AcDbSymbolTableRecord
100
AcDbRegAppTableRecord
  2
ACAD
 70
     0
  0
ENDTAB
  0
TABLE
  2
DIMSTYLE
  5
A
330
0
100
AcDbSymbolTable
 70
     8
100
AcDbDimStyleTable
  0
DIMSTYLE
105
27
330
A
100
AcDbSymbolTableRecord
100
AcDbDimStyleTableRecord
  2
Standard
 70
     0
178
     0
340
11
  0
DIMSTYLE
105
15E
102
{ACAD_REACTORS
330
15D
330
180
330
194
330
1BE
102
}
330
A
100
AcDbSymbolTableRecord
100
AcDbDimStyleTableRecord
  2
SLDDIMSTYLE0
 70
     0
 41
0.78
 44
0.0
 45
0.000000001
 78
    12
 79
     3
140
0.75
147
0.1875
148
0.000000001
170
     1
173
     1
178
     0
271
     6
272
     0
276
     2
277
     5
284
    12
340
74
  0
DIMSTYLE
105
173
102
{ACAD_REACTORS
330
172
330
1D2
102
}
330
A
100
AcDbSymbolTableRecord
100
AcDbDimStyleTableRecord
  2
SLDDIMSTYLE1
 70
     0
 41
0.78
 44
0.0
 45
0.000000001
 78
    12
 79
     3
140
0.75
147
0.1875
148
0.000000001
170
     1
173
     1
178
     0
271
     0
272
     0
276
     2
277
     5
284
    12
340
74
  0
DIMSTYLE
105
1AA
102
{ACAD_REACTORS
330
1A9
102
}
330
A
100
AcDbSymbolTableRecord
100
AcDbDimStyleTableRecord
  2
SLDDIMSTYLE2
 70
     0
 41
0.78
 44
0.0
 45
0.000000001
 78
    12
 79
     3
140
0.75
147
0.1875
148
0.000000001
170
     1
172
     1
173
     1
178
     0
271
     6
272
     0
276
     2
277
     5
284
    12
289
     0
340
74
  0
DIMSTYLE
105
1E7
102
{ACAD_REACTORS
330
1E6
102
}
330
A
100
AcDbSymbolTableRecord
100
AcDbDimStyleTableRecord
  2
SLDDIMSTYLE3
 70
     0
 41
0.78
 44
0.0
 45
0.000000001
 78
    12
 79
     3
140
0.75
147
0.1875
148
0.000000001
170
     1
172
     1
173
     1
178
     0
271
     0
272
     0
276
     2
277
     5
284
    12
289
     0
340
74
  0
DIMSTYLE
105
2DC
102
{ACAD_REACTORS
330
2DB
102
}
330
A
100
AcDbSymbolTableRecord
100
AcDbDimStyleTableRecord
  2
SLDDIMSTYLE4
 70
     0
 41
0.78
 44
0.0
 45
0.000000001
 78
    12
 79
     3
140
0.75
144
0.5
147
0.1875
148
0.000000001
170
     1
173
     1
178
     0
271
     6
272
     0
276
     2
277
     5
284
    12
340
74
  0
DIMSTYLE
105
2FF
102
{ACAD_REACTORS
330
2FE
330
321
102
}
330
A
100
AcDbSymbolTableRecord
100
AcDbDimStyleTableRecord
  2
SLDDIMSTYLE5
 70
     0
 41
0.78
 44
0.0
 45
0.000000001
 78
    12
 79
     3
140
0.75
144
0.5
147
0.1875
148
0.000000001
170
     1
172
     1
173
     1
178
     0
271
     6
272
     0
276
     2
277
     5
284
    12
289
     0
340
74
  0
DIMSTYLE
105
37E
102
{ACAD_REACTORS
330
37D
102
}
330
A
100
AcDbSymbolTableRecord
100
AcDbDimStyleTableRecord
  2
SLDDIMSTYLE6
 70
     0
 41
0.78
 44
0.0
 45
0.000000001
 78
    12
 79
     3
140
0.75
141
0.0
144
0.6666666667
147
0.1875
148
0.000000001
170
     1
173
     1
178
     0
271
     0
272
     0
276
     2
277
     5
284
    12
340
74
  0
ENDTAB
  0
TABLE
  2
BLOCK_RECORD
  5
1
330
0
100
AcDbSymbolTable
 70
    19
  0
BLOCK_RECORD
  5
1F
330
1
100
AcDbSymbolTableRecord
100
AcDbBlockTableRecord
  2
*Model_Space
340
22
  0
BLOCK_RECORD
  5
1B
330
1
100
AcDbSymbolTableRecord
100
AcDbBlockTableRecord
  2
*Paper_Space
340
1E
  0
BLOCK_RECORD
  5
23
330
1
100
AcDbSymbolTableRecord
100
AcDbBlockTableRecord
  2
*Paper_Space0
340
26
  0
BLOCK_RECORD
  5
6E
330
1
100
AcDbSymbolTableRecord
100
AcDbBlockTableRecord
  2
Block1
340
0
102
{BLKREFS
331
2DA
102
}
  0
BLOCK_RECORD
  5
71
330
1
100
AcDbSymbolTableRecord
100
AcDbBlockTableRecord
  2
SW_NOTE_0
340
0
102
{BLKREFS
331
76
102
}
  0
BLOCK_RECORD
  5
77
330
1
100
AcDbSymbolTableRecord
100
AcDbBlockTableRecord
  2
Block2
340
0
102
{BLKREFS
331
2FD
102
}
  0
BLOCK_RECORD
  5
7A
330
1
100
AcDbSymbolTableRecord
100
AcDbBlockTableRecord
  2
SW_NOTE_0_1
340
0
102
{BLKREFS
331
7E
102
}
  0
BLOCK_RECORD
  5
7F
330
1
100
AcDbSymbolTableRecord
100
AcDbBlockTableRecord
  2
Block3
340
0
102
{BLKREFS
331
320
102
}
  0
BLOCK_RECORD
  5
82
330
1
100
AcDbSymbolTableRecord
100
AcDbBlockTableRecord
  2
SW_NOTE_0_2
340
0
102
{BLKREFS
331
86
102
}
  0
BLOCK_RECORD
  5
15F
330
1
100
AcDbSymbolTableRecord
100
AcDbBlockTableRecord
  2
_D
340
0
  0
BLOCK_RECORD
  5
174
330
1
100
AcDbSymbolTableRecord
100
AcDbBlockTableRecord
  2
_D_1
340
0
  0
BLOCK_RECORD
  5
181
330
1
100
AcDbSymbolTableRecord
100
AcDbBlockTableRecord
  2
_D_2
340
0
  0
BLOCK_RECORD
  5
195
330
1
100
AcDbSymbolTableRecord
100
AcDbBlockTableRecord
  2
_D_3
340
0
  0
BLOCK_RECORD
  5
1AB
330
1
100
AcDbSymbolTableRecord
100
AcDbBlockTableRecord
  2
_D_4
340
0
  0
BLOCK_RECORD
  5
1BF
330
1
100
AcDbSymbolTableRecord
100
AcDbBlockTableRecord
  2
_D_5
340
0
  0
BLOCK_RECORD
  5
1D3
330
1
100
AcDbSymbolTableRecord
100
AcDbBlockTableRecord
  2
_D_6
340
0
  0
BLOCK_RECORD
  5
1E8
330
1
100
AcDbSymbolTableRecord
100
AcDbBlockTableRecord
  2
_D_7
340
0
  0
BLOCK_RECORD
  5
2DD
330
1
100
AcDbSymbolTableRecord
100
AcDbBlockTableRecord
  2
_D_8
340
0
  0
BLOCK_RECORD
  5
300
330
1
100
AcDbSymbolTableRecord
100
AcDbBlockTableRecord
  2
_D_9
340
0
  0
BLOCK_RECORD
  5
322
330
1
100
AcDbSymbolTableRecord
100
AcDbBlockTableRecord
  2
_D_10
340
0
  0
BLOCK_RECORD
  5
37F
330
1
100
AcDbSymbolTableRecord
100
AcDbBlockTableRecord
  2
_D_11
340
0
  0
ENDTAB
  0
ENDSEC
  0
SECTION
  2
BLOCKS
  0
BLOCK
  5
20
330
1F
100
AcDbEntity
  8
0
100
AcDbBlockBegin
  2
*Model_Space
 70
     0
 10
0.0
 20
0.0
 30
0.0
  3
*Model_Space
  1

  0
ENDBLK
  5
21
330
1F
100
AcDbEntity
  8
0
100
AcDbBlockEnd
  0
BLOCK
  5
1C
330
1B
100
AcDbEntity
 67
     1
  8
0
100
AcDbBlockBegin
  2
*Paper_Space
 70
     0
 10
0.0
 20
0.0
 30
0.0
  3
*Paper_Space
  1

  0
ENDBLK
  5
1D
330
1B
100
AcDbEntity
 67
     1
  8
0
100
AcDbBlockEnd
  0
BLOCK
  5
24
330
23
100
AcDbEntity
  8
0
100
AcDbBlockBegin
  2
*Paper_Space0
 70
     0
 10
0.0
 20
0.0
 30
0.0
  3
*Paper_Space0
  1

  0
ENDBLK
  5
25
330
23
100
AcDbEntity
  8
0
100
AcDbBlockEnd
  0
BLOCK
  5
6F
330
6E
100
AcDbEntity
  8
0
100
AcDbBlockBegin
  2
Block1
 70
     0
 10
0.0
 20
0.0
 30
0.0
  3
Block1
  1

  0
INSERT
  5
76
330
6E
100
AcDbEntity
  8
0
  6
Continuous
 62
     7
370
     0
100
AcDbBlockReference
  2
SW_NOTE_0
 10
0.0024644595
 20
-0.1042925805
 30
0.0
  0
ENDBLK
  5
70
330
6E
100
AcDbEntity
  8
0
100
AcDbBlockEnd
  0
BLOCK
  5
72
330
71
100
AcDbEntity
  8
0
100
AcDbBlockBegin
  2
SW_NOTE_0
 70
     0
 10
0.0
 20
0.0
 30
0.0
  3
SW_NOTE_0
  1

  0
MTEXT
  5
75
330
71
100
AcDbEntity
  8
0
  6
Continuous
 62
     0
370
     0
100
AcDbMText
 10
3.4765625
 20
1.5966796875
 30
0.0
 40
1.25
 41
0.0
 71
     2
 72
     1
  1
A/D CAP
  7
SLDTEXTSTYLE0
 73
     1
 44
1.0
  0
ENDBLK
  5
73
330
71
100
AcDbEntity
  8
0
100
AcDbBlockEnd
  0
BLOCK
  5
78
330
77
100
AcDbEntity
  8
0
100
AcDbBlockBegin
  2
Block2
 70
     0
 10
0.0
 20
0.0
 30
0.0
  3
Block2
  1

  0
INSERT
  5
7E
330
77
100
AcDbEntity
  8
0
  6
Continuous
 62
     7
370
     0
100
AcDbBlockReference
  2
SW_NOTE_0_1
 10
0.0236486254
 20
1.7050846838
 30
0.0
  0
ENDBLK
  5
79
330
77
100
AcDbEntity
  8
0
100
AcDbBlockEnd
  0
BLOCK
  5
7B
330
7A
100
AcDbEntity
  8
0
100
AcDbBlockBegin
  2
SW_NOTE_0_1
 70
     0
 10
0.0
 20
0.0
 30
0.0
  3
SW_NOTE_0_1
  1

  0
MTEXT
  5
7D
330
7A
100
AcDbEntity
  8
0
  6
Continuous
 62
     0
370
     0
100
AcDbMText
 10
3.22265625
 20
1.5966796875
 30
0.0
 40
1.25
 41
0.0
 71
     2
 72
     1
  1
B/E CAP
  7
SLDTEXTSTYLE0
 73
     1
 44
1.0
  0
ENDBLK
  5
7C
330
7A
100
AcDbEntity
  8
0
100
AcDbBlockEnd
  0
BLOCK
  5
80
330
7F
100
AcDbEntity
  8
0
100
AcDbBlockBegin
  2
Block3
 70
     0
 10
0.0
 20
0.0
 30
0.0
  3
Block3
  1

  0
INSERT
  5
86
330
7F
100
AcDbEntity
  8
0
  6
Continuous
 62
     7
370
     0
100
AcDbBlockReference
  2
SW_NOTE_0_2
 10
0.0678802992
 20
-0.0556479787
 30
0.0
  0
ENDBLK
  5
81
330
7F
100
AcDbEntity
  8
0
100
AcDbBlockEnd
  0
BLOCK
  5
83
330
82
100
AcDbEntity
  8
0
100
AcDbBlockBegin
  2
SW_NOTE_0_2
 70
     0
 10
0.0
 20
0.0
 30
0.0
  3
SW_NOTE_0_2
  1

  0
MTEXT
  5
85
330
82
100
AcDbEntity
  8
0
  6
Continuous
 62
     0
370
     0
100
AcDbMText
 10
2.6171875
 20
1.5966796875
 30
0.0
 40
1.25
 41
0.0
 71
     2
 72
     1
  1
C CAP
  7
SLDTEXTSTYLE0
 73
     1
 44
1.0
  0
ENDBLK
  5
84
330
82
100
AcDbEntity
  8
0
100
AcDbBlockEnd
  0
BLOCK
  5
160
330
15F
100
AcDbEntity
  8
0
100
AcDbBlockBegin
  2
_D
 70
     0
 10
0.0
 20
0.0
 30
0.0
  3
_D
  1

  0
SOLID
  5
162
330
15F
100
AcDbEntity
  8
0
  6
Continuous
 62
     7
370
    18
100
AcDbTrace
 10
34.0949117215
 20
27.8531017153
 30
0.0
 11
33.4349630848
 21
27.4203572214
 31
0.0
 12
33.5955544303
 22
27.2420024633
 32
0.0
 13
33.5955544303
 23
27.2420024633
 33
0.0
  0
SOLID
  5
163
330
15F
100
AcDbEntity
  8
0
  6
Continuous
 62
     7
370
    18
100
AcDbTrace
 10
29.6917786305
 20
23.8885028727
 30
0.0
 11
30.3517272671
 21
24.3212473666
 31
0.0
 12
30.1911359216
 22
24.4996021247
 32
0.0
 13
30.1911359216
 23
24.4996021247
 33
0.0
  0
LINE
  5
164
330
15F
100
AcDbEntity
  8
0
  6
Continuous
 62
     7
370
     0
100
AcDbLine
 10
30.1245953087
 20
25.8650730102
 30
0.0
 11
29.8960796861
 21
25.8650730102
 31
0.0
  0
LINE
  5
165
330
15F
100
AcDbEntity
  8
0
  6
Continuous
 62
     7
370
     0
100
AcDbLine
 10
29.8960796861
 20
25.8650730102
 30
0.0
 11
29.8960796861
 21
24.6744479744
 31
0.0
  0
LINE
  5
166
330
15F
100
AcDbEntity
  8
0
  6
Continuous
 62
     7
370
     0
100
AcDbLine
 10
29.8960796861
 20
24.6744479744
 30
0.0
 11
30.1245953087
 21
24.6744479744
 31
0.0
  0
LINE
  5
167
330
15F
100
AcDbEntity
  8
0
  6
Continuous
 62
     7
370
     0
100
AcDbLine
 10
33.6620952632
 20
25.8650730102
 30
0.0
 11
33.8906108859
 21
25.8650730102
 31
0.0
  0
LINE
  5
168
330
15F
100
AcDbEntity
  8
0
  6
Continuous
 62
     7
370
     0
100
AcDbLine
 10
33.8906108859
 20
25.8650730102
 30
0.0
 11
33.8906108859
 21
24.6744479744
 31
0.0
  0
LINE
  5
169
330
15F
100
AcDbEntity
  8
0
  6
Continuous
 62
     7
370
     0
100
AcDbLine
 10
33.8906108859
 20
24.6744479744
 30
0.0
 11
33.6620952632
 21
24.6744479744
 31
0.0
  0
LINE
  5
16A
330
15F
100
AcDbEntity
  8
0
  6
Continuous
 62
     7
370
     0
100
AcDbLine
 10
30.9246728591
 20
31.3740086709
 30
0.0
 11
34.5967596762
 21
27.2957430962
 31
0.0
  0
LINE
  5
16B
330
15F
100
AcDbEntity
  8
0
  6
Continuous
 62
     7
370
     0
100
AcDbLine
 10
27.0550747274
 20
26.8168592253
 30
0.0
 11
30.1936265853
 21
23.3311442536
 31
0.0
  0
LINE
  5
16C
330
15F
100
AcDbEntity
  8
0
  6
Continuous
 62
     7
370
     0
100
AcDbLine
 10
34.0949117215
 20
27.8531017153
 30
0.0
 11
33.3912258644
 21
27.2195001237
 31
0.0
  0
LINE
  5
16D
330
15F
100
AcDbEntity
  8
0
  6
Continuous
 62
     7
370
     0
100
AcDbLine
 10
29.6917786305
 20
23.8885028727
 30
0.0
 11
30.3954644876
 21
24.5221044643
 31
0.0
  0
MTEXT
  5
16E
330
15F
100
AcDbEntity
  8
0
  6
Continuous
 62
     7
370
    18
100
AcDbMText
 10
29.3904807293
 20
26.9868829829
 30
0.0
 40
0.75
 41
0.0
 71
     1
 72
     1
  1
 
  7
SLDTEXTSTYLE0
 73
     1
 44
1.0
  0
MTEXT
  5
16F
330
15F
100
AcDbEntity
  8
0
  6
Continuous
 62
     7
370
    18
100
AcDbMText
 10
29.9959494299
 20
26.975424594
 30
0.0
 40
0.75
 41
0.0
 71
     1
 72
     1
  1
5 15/16"
  7
SLDTEXTSTYLE0
 73
     1
 44
1.0
  0
MTEXT
  5
170
330
15F
100
AcDbEntity
  8
0
  6
Continuous
 62
     7
370
    18
100
AcDbMText
 10
30.1245953087
 20
25.6324558694
 30
0.0
 40
0.75
 41
0.0
 71
     1
 72
     1
  1
150mm
  7
SLDTEXTSTYLE0
 73
     1
 44
1.0
  0
MTEXT
  5
171
330
15F
100
AcDbEntity
  8
0
  6
Continuous
 62
     7
370
    18
100
AcDbMText
 10
34.1191263436
 20
26.9868829829
 30
0.0
 40
0.75
 41
0.0
 71
     1
 72
     1
  1
 
  7
SLDTEXTSTYLE0
 73
     1
 44
1.0
  0
ENDBLK
  5
161
330
15F
100
AcDbEntity
  8
0
100
AcDbBlockEnd
  0
BLOCK
  5
175
330
174
100
AcDbEntity
  8
0
100
AcDbBlockBegin
  2
_D_1
 70
     0
 10
0.0
 20
0.0
 30
0.0
  3
_D_1
  1

  0
SOLID
  5
177
330
174
100
AcDbEntity
  8
0
  6
Continuous
 62
     7
370
    18
100
AcDbTrace
 10
8.6247810544
 20
45.3749872138
 30
0.0
 11
9.4047810544
 21
45.2549872138
 31
0.0
 12
9.4047810544
 22
45.4949872138
 32
0.0
 13
9.4047810544
 23
45.4949872138
 33
0.0
  0
SOLID
  5
178
330
174
100
AcDbEntity
  8
0
  6
Continuous
 62
     7
370
    18
100
AcDbTrace
 10
32.6247810544
 20
45.3749872138
 30
0.0
 11
31.8447810544
 21
45.4949872138
 31
0.0
 12
31.8447810544
 22
45.2549872138
 32
0.0
 13
31.8447810544
 23
45.2549872138
 33
0.0
  0
LINE
  5
179
330
174
100
AcDbEntity
  8
0
  6
Continuous
 62
     7
370
     0
100
AcDbLine
 10
8.6247810544
 20
40.1954596547
 30
0.0
 11
8.6247810544
 21
46.1249872138
 31
0.0
  0
LINE
  5
17A
330
174
100
AcDbEntity
  8
0
  6
Continuous
 62
     7
370
     0
100
AcDbLine
 10
32.6247810544
 20
39.1454596547
 30
0.0
 11
32.6247810544
 21
46.1249872138
 31
0.0
  0
LINE
  5
17B
330
174
100
AcDbEntity
  8
0
  6
Continuous
 62
     7
370
     0
100
AcDbLine
 10
8.6247810544
 20
45.3749872138
 30
0.0
 11
13.3861049572
 21
45.3749872138
 31
0.0
  0
LINE
  5
17C
330
174
100
AcDbEntity
  8
0
  6
Continuous
 62
     7
370
     0
100
AcDbLine
 10
32.6247810544
 20
45.3749872138
 30
0.0
 11
27.8634571516
 21
45.3749872138
 31
0.0
  0
MTEXT
  5
17D
330
174
100
AcDbEntity
  8
0
  6
Continuous
 62
     7
370
    18
100
AcDbMText
 10
13.5383232378
 20
46.9283076817
 30
0.0
 40
0.75
 41
0.0
 71
     1
 72
     1
  1
SPECIFY PROJECTION LENGTH
  7
SLDTEXTSTYLE0
 73
     1
 44
1.0
  0
MTEXT
  5
17E
330
174
100
AcDbEntity
  8
0
  6
Continuous
 62
     7
370
    18
100
AcDbMText
 10
19.0409269512
 20
45.7376826459
 30
0.0
 40
0.75
 41
0.0
 71
     1
 72
     1
  1
18"-48"
  7
SLDTEXTSTYLE0
 73
     1
 44
1.0
  0
MTEXT
  5
17F
330
174
100
AcDbEntity
  8
0
  6
Continuous
 62
     7
370
    18
100
AcDbMText
 10
16.2930104154
 20
44.5470576101
 30
0.0
 40
0.75
 41
0.0
 71
     1
 72
     1
  1
[457mm-1219mm]
  7
SLDTEXTSTYLE0
 73
     1
 44
1.0
  0
ENDBLK
  5
176
330
174
100
AcDbEntity
  8
0
100
AcDbBlockEnd
  0
BLOCK
  5
182
330
181
100
AcDbEntity
  8
0
100
AcDbBlockBegin
  2
_D_2
 70
     0
 10
0.0
 20
0.0
 30
0.0
  3
_D_2
  1

  0
SOLID
  5
184
330
181
100
AcDbEntity
  8
0
  6
Continuous
 62
     7
370
    18
100
AcDbTrace
 10
37.8980361987
 20
31.5969521185
 30
0.0
 11
38.0180361987
 21
32.3769521185
 31
0.0
 12
37.7780361987
 22
32.3769521185
 32
0.0
 13
37.7780361987
 23
32.3769521185
 33
0.0
  0
SOLID
  5
185
330
181
100
AcDbEntity
  8
0
  6
Continuous
 62
     7
370
    18
100
AcDbTrace
 10
37.8980361987
 20
38.8454596547
 30
0.0
 11
37.7780361987
 21
38.0654596547
 31
0.0
 12
38.0180361987
 22
38.0654596547
 32
0.0
 13
38.0180361987
 23
38.0654596547
 33
0.0
  0
LINE
  5
186
330
181
100
AcDbEntity
  8
0
  6
Continuous
 62
     7
370
     0
100
AcDbLine
 10
36.1292863315
 20
35.2154766028
 30
0.0
 11
35.9007707088
 21
35.2154766028
 31
0.0
  0
LINE
  5
187
330
181
100
AcDbEntity
  8
0
  6
Continuous
 62
     7
370
     0
100
AcDbLine
 10
35.9007707088
 20
35.2154766028
 30
0.0
 11
35.9007707088
 21
34.024851567
 31
0.0
  0
LINE
  5
188
330
181
100
AcDbEntity
  8
0
  6
Continuous
 62
     7
370
     0
100
AcDbLine
 10
35.9007707088
 20
34.024851567
 30
0.0
 11
36.1292863315
 21
34.024851567
 31
0.0
  0
LINE
  5
189
330
181
100
AcDbEntity
  8
0
  6
Continuous
 62
     7
370
     0
100
AcDbLine
 10
39.666786286
 20
35.2154766028
 30
0.0
 11
39.8953019087
 21
35.2154766028
 31
0.0
  0
LINE
  5
18A
330
181
100
AcDbEntity
  8
0
  6
Continuous
 62
     7
370
     0
100
AcDbLine
 10
39.8953019087
 20
35.2154766028
 30
0.0
 11
39.8953019087
 21
34.024851567
 31
0.0
  0
LINE
  5
18B
330
181
100
AcDbEntity
  8
0
  6
Continuous
 62
     7
370
     0
100
AcDbLine
 10
39.8953019087
 20
34.024851567
 30
0.0
 11
39.666786286
 21
34.024851567
 31
0.0
  0
LINE
  5
18C
330
181
100
AcDbEntity
  8
0
  6
Continuous
 62
     7
370
     0
100
AcDbLine
 10
31.0239336772
 20
31.5969521185
 30
0.0
 11
38.6480361987
 21
31.5969521185
 31
0.0
  0
LINE
  5
18D
330
181
100
AcDbEntity
  8
0
  6
Continuous
 62
     7
370
     0
100
AcDbLine
 10
34.1547810544
 20
38.8454596547
 30
0.0
 11
38.6480361987
 21
38.8454596547
 31
0.0
  0
LINE
  5
18E
330
181
100
AcDbEntity
  8
0
  6
Continuous
 62
     7
370
     0
100
AcDbLine
 10
37.8980361987
 20
31.5969521185
 30
0.0
 11
37.8980361987
 21
33.8725080569
 31
0.0
  0
LINE
  5
18F
330
181
100
AcDbEntity
  8
0
  6
Continuous
 62
     7
370
     0
100
AcDbLine
 10
37.8980361987
 20
38.8454596547
 30
0.0
 11
37.8980361987
 21
36.5699037164
 31
0.0
  0
MTEXT
  5
190
330
181
100
AcDbEntity
  8
0
  6
Continuous
 62
     7
370
    18
100
AcDbMText
 10
35.395171752
 20
36.3372865756
 30
0.0
 40
0.75
 41
0.0
 71
     1
 72
     1
  1
 
  7
SLDTEXTSTYLE0
 73
     1
 44
1.0
  0
MTEXT
  5
191
330
181
100
AcDbEntity
  8
0
  6
Continuous
 62
     7
370
    18
100
AcDbMText
 10
36.5548071208
 20
36.3258281867
 30
0.0
 40
0.75
 41
0.0
 71
     1
 72
     1
  1
7 1/4"
  7
SLDTEXTSTYLE0
 73
     1
 44
1.0
  0
MTEXT
  5
192
330
181
100
AcDbEntity
  8
0
  6
Continuous
 62
     7
370
    18
100
AcDbMText
 10
36.1292863315
 20
34.982859462
 30
0.0
 40
0.75
 41
0.0
 71
     1
 72
     1
  1
184mm
  7
SLDTEXTSTYLE0
 73
     1
 44
1.0
  0
MTEXT
  5
193
330
181
100
AcDbEntity
  8
0
  6
Continuous
 62
     7
370
    18
100
AcDbMText
 10
40.1238173663
 20
36.3372865756
 30
0.0
 40
0.75
 41
0.0
 71
     1
 72
     1
  1
 
  7
SLDTEXTSTYLE0
 73
     1
 44
1.0
  0
ENDBLK
  5
183
330
181
100
AcDbEntity
  8
0
100
AcDbBlockEnd
  0
BLOCK
  5
196
330
195
100
AcDbEntity
  8
0
100
AcDbBlockBegin
  2
_D_3
 70
     0
 10
0.0
 20
0.0
 30
0.0
  3
_D_3
  1

  0
SOLID
  5
198
330
195
100
AcDbEntity
  8
0
  6
Continuous
 62
     7
370
    18
100
AcDbTrace
 10
29.2105220037
 20
33.2777660631
 30
0.0
 11
28.5505733671
 21
32.8450215692
 31
0.0
 12
28.7111647126
 22
32.6666668111
 32
0.0
 13
28.7111647126
 23
32.6666668111
 33
0.0
  0
SOLID
  5
199
330
195
100
AcDbEntity
  8
0
  6
Continuous
 62
     7
370
    18
100
AcDbTrace
 10
27.4715631121
 20
31.7120004443
 30
0.0
 11
28.1315117488
 21
32.1447449382
 31
0.0
 12
27.9709204032
 22
32.3230996963
 32
0.0
 13
27.9709204032
 23
32.3230996963
 33
0.0
  0
LINE
  5
19A
330
195
100
AcDbEntity
  8
0
  6
Continuous
 62
     7
370
     0
100
AcDbLine
 10
21.0045245776
 20
30.5811345695
 30
0.0
 11
20.7760089549
 21
30.5811345695
 31
0.0
  0
LINE
  5
19B
330
195
100
AcDbEntity
  8
0
  6
Continuous
 62
     7
370
     0
100
AcDbLine
 10
20.7760089549
 20
30.5811345695
 30
0.0
 11
20.7760089549
 21
29.3905095337
 31
0.0
  0
LINE
  5
19C
330
195
100
AcDbEntity
  8
0
  6
Continuous
 62
     7
370
     0
100
AcDbLine
 10
20.7760089549
 20
29.3905095337
 30
0.0
 11
21.0045245776
 21
29.3905095337
 31
0.0
  0
LINE
  5
19D
330
195
100
AcDbEntity
  8
0
  6
Continuous
 62
     7
370
     0
100
AcDbLine
 10
23.9878579739
 20
30.5811345695
 30
0.0
 11
24.2163735966
 21
30.5811345695
 31
0.0
  0
LINE
  5
19E
330
195
100
AcDbEntity
  8
0
  6
Continuous
 62
     7
370
     0
100
AcDbLine
 10
24.2163735966
 20
30.5811345695
 30
0.0
 11
24.2163735966
 21
29.3905095337
 31
0.0
  0
LINE
  5
19F
330
195
100
AcDbEntity
  8
0
  6
Continuous
 62
     7
370
     0
100
AcDbLine
 10
24.2163735966
 20
29.3905095337
 30
0.0
 11
23.9878579739
 21
29.3905095337
 31
0.0
  0
LINE
  5
1A0
330
195
100
AcDbEntity
  8
0
  6
Continuous
 62
     7
370
     0
100
AcDbLine
 10
30.5231944953
 20
31.8198955662
 30
0.0
 11
28.708674049
 21
33.8351246822
 31
0.0
  0
LINE
  5
1A1
330
195
100
AcDbEntity
  8
0
  6
Continuous
 62
     7
370
     0
100
AcDbLine
 10
28.2489311186
 20
30.8486458077
 30
0.0
 11
26.9697151574
 21
32.2693590634
 31
0.0
  0
LINE
  5
1A2
330
195
100
AcDbEntity
  8
0
  6
Continuous
 62
     7
370
     0
100
AcDbLine
 10
29.2105220037
 20
33.2777660631
 30
0.0
 11
27.4715631121
 21
31.7120004443
 31
0.0
  0
LINE
  5
1A3
330
195
100
AcDbEntity
  8
0
  6
Continuous
 62
     7
370
     0
100
AcDbLine
 10
27.4715631121
 20
31.7120004443
 30
0.0
 11
26.2219723333
 21
30.5868638533
 31
0.0
  0
LINE
  5
1A4
330
195
100
AcDbEntity
  8
0
  6
Continuous
 62
     7
370
     0
100
AcDbLine
 10
26.2219723333
 20
30.5868638533
 30
0.0
 11
24.7219723333
 21
30.5868638533
 31
0.0
  0
MTEXT
  5
1A5
330
195
100
AcDbEntity
  8
0
  6
Continuous
 62
     7
370
    18
100
AcDbMText
 10
20.2704099982
 20
31.7029445423
 30
0.0
 40
0.75
 41
0.0
 71
     1
 72
     1
  1
 
  7
SLDTEXTSTYLE0
 73
     1
 44
1.0
  0
MTEXT
  5
1A6
330
195
100
AcDbEntity
  8
0
  6
Continuous
 62
     7
370
    18
100
AcDbMText
 10
20.8758786987
 20
31.6914861534
 30
0.0
 40
0.75
 41
0.0
 71
     1
 72
     1
  1
2 5/16"
  7
SLDTEXTSTYLE0
 73
     1
 44
1.0
  0
MTEXT
  5
1A7
330
195
100
AcDbEntity
  8
0
  6
Continuous
 62
     7
370
    18
100
AcDbMText
 10
21.0045245776
 20
30.3485174287
 30
0.0
 40
0.75
 41
0.0
 71
     1
 72
     1
  1
59mm
  7
SLDTEXTSTYLE0
 73
     1
 44
1.0
  0
MTEXT
  5
1A8
330
195
100
AcDbEntity
  8
0
  6
Continuous
 62
     7
370
    18
100
AcDbMText
 10
24.4448890542
 20
31.7029445423
 30
0.0
 40
0.75
 41
0.0
 71
     1
 72
     1
  1
 
  7
SLDTEXTSTYLE0
 73
     1
 44
1.0
  0
ENDBLK
  5
197
330
195
100
AcDbEntity
  8
0
100
AcDbBlockEnd
  0
BLOCK
  5
1AC
330
1AB
100
AcDbEntity
  8
0
100
AcDbBlockBegin
  2
_D_4
 70
     0
 10
0.0
 20
0.0
 30
0.0
  3
_D_4
  1

  0
SOLID
  5
1AE
330
1AB
100
AcDbEntity
  8
0
  6
Continuous
 62
     7
370
    18
100
AcDbTrace
 10
23.6918118239
 20
26.3417073455
 30
0.0
 11
23.25906733
 21
27.0016559822
 31
0.0
 12
23.0807125719
 22
26.8410646366
 32
0.0
 13
23.0807125719
 23
26.8410646366
 33
0.0
  0
SOLID
  5
1AF
330
1AB
100
AcDbEntity
  8
0
  6
Continuous
 62
     7
370
    18
100
AcDbTrace
 10
24.7624207941
 20
25.1526756248
 30
0.0
 11
25.195165288
 21
24.4927269881
 31
0.0
 12
25.3735200461
 22
24.6533183337
 32
0.0
 13
25.3735200461
 23
24.6533183337
 33
0.0
  0
LINE
  5
1B0
330
1AB
100
AcDbEntity
  8
0
  6
Continuous
 62
     7
370
     0
100
AcDbLine
 10
17.4841503946
 20
27.7491830301
 30
0.0
 11
17.255634772
 21
27.7491830301
 31
0.0
  0
LINE
  5
1B1
330
1AB
100
AcDbEntity
  8
0
  6
Continuous
 62
     7
370
     0
100
AcDbLine
 10
17.255634772
 20
27.7491830301
 30
0.0
 11
17.255634772
 21
26.5585579943
 31
0.0
  0
LINE
  5
1B2
330
1AB
100
AcDbEntity
  8
0
  6
Continuous
 62
     7
370
     0
100
AcDbLine
 10
17.255634772
 20
26.5585579943
 30
0.0
 11
17.4841503946
 21
26.5585579943
 31
0.0
  0
LINE
  5
1B3
330
1AB
100
AcDbEntity
  8
0
  6
Continuous
 62
     7
370
     0
100
AcDbLine
 10
20.4674837909
 20
27.7491830301
 30
0.0
 11
20.6959994136
 21
27.7491830301
 31
0.0
  0
LINE
  5
1B4
330
1AB
100
AcDbEntity
  8
0
  6
Continuous
 62
     7
370
     0
100
AcDbLine
 10
20.6959994136
 20
27.7491830301
 30
0.0
 11
20.6959994136
 21
26.5585579943
 31
0.0
  0
LINE
  5
1B5
330
1AB
100
AcDbEntity
  8
0
  6
Continuous
 62
     7
370
     0
100
AcDbLine
 10
20.6959994136
 20
26.5585579943
 30
0.0
 11
20.4674837909
 21
26.5585579943
 31
0.0
  0
LINE
  5
1B6
330
1AB
100
AcDbEntity
  8
0
  6
Continuous
 62
     7
370
     0
100
AcDbLine
 10
26.7496191168
 20
29.0949693987
 30
0.0
 11
23.1344532048
 21
25.8398593908
 31
0.0
  0
LINE
  5
1B7
330
1AB
100
AcDbEntity
  8
0
  6
Continuous
 62
     7
370
     0
100
AcDbLine
 10
26.6331616237
 20
26.8370982336
 30
0.0
 11
24.2050621749
 21
24.65082767
 31
0.0
  0
LINE
  5
1B8
330
1AB
100
AcDbEntity
  8
0
  6
Continuous
 62
     7
370
     0
100
AcDbLine
 10
23.6918118239
 20
26.3417073455
 30
0.0
 11
22.4245149262
 21
27.7491831401
 31
0.0
  0
LINE
  5
1B9
330
1AB
100
AcDbEntity
  8
0
  6
Continuous
 62
     7
370
     0
100
AcDbLine
 10
24.7624207941
 20
25.1526756248
 30
0.0
 11
25.7661167036
 21
24.0379583866
 31
0.0
  0
LINE
  5
1BA
330
1AB
100
AcDbEntity
  8
0
  6
Continuous
 62
     7
370
     0
100
AcDbLine
 10
22.4245149262
 20
27.7491831401
 30
0.0
 11
20.9245149262
 21
27.7491831401
 31
0.0
  0
MTEXT
  5
1BB
330
1AB
100
AcDbEntity
  8
0
  6
Continuous
 62
     7
370
    18
100
AcDbMText
 10
17.0670409881
 20
28.8595346689
 30
0.0
 40
0.75
 41
0.0
 71
     1
 72
     1
  1
%%c
  7
SLDTEXTSTYLE0
 73
     1
 44
1.0
  0
MTEXT
  5
1BC
330
1AB
100
AcDbEntity
  8
0
  6
Continuous
 62
     7
370
    18
100
AcDbMText
 10
18.1981347116
 20
28.8595346689
 30
0.0
 40
0.75
 41
0.0
 71
     1
 72
     1
  1
1 5/8"
  7
SLDTEXTSTYLE0
 73
     1
 44
1.0
  0
MTEXT
  5
1BD
330
1AB
100
AcDbEntity
  8
0
  6
Continuous
 62
     7
370
    18
100
AcDbMText
 10
17.4841503946
 20
27.5165658893
 30
0.0
 40
0.75
 41
0.0
 71
     1
 72
     1
  1
41mm
  7
SLDTEXTSTYLE0
 73
     1
 44
1.0
  0
ENDBLK
  5
1AD
330
1AB
100
AcDbEntity
  8
0
100
AcDbBlockEnd
  0
BLOCK
  5
1C0
330
1BF
100
AcDbEntity
  8
0
100
AcDbBlockBegin
  2
_D_5
 70
     0
 10
0.0
 20
0.0
 30
0.0
  3
_D_5
  1

  0
SOLID
  5
1C2
330
1BF
100
AcDbEntity
  8
0
  6
Continuous
 62
     7
370
    18
100
AcDbTrace
 10
8.6247810544
 20
45.3749872138
 30
0.0
 11
7.8447810544
 21
45.4949872138
 31
0.0
 12
7.8447810544
 22
45.2549872138
 32
0.0
 13
7.8447810544
 23
45.2549872138
 33
0.0
  0
SOLID
  5
1C3
330
1BF
100
AcDbEntity
  8
0
  6
Continuous
 62
     7
370
    18
100
AcDbTrace
 10
6.3467810544
 20
45.3749872138
 30
0.0
 11
7.1267810544
 21
45.2549872138
 31
0.0
 12
7.1267810544
 22
45.4949872138
 32
0.0
 13
7.1267810544
 23
45.4949872138
 33
0.0
  0
LINE
  5
1C4
330
1BF
100
AcDbEntity
  8
0
  6
Continuous
 62
     7
370
     0
100
AcDbLine
 10
1.5481471003
 20
45.36925793
 30
0.0
 11
1.3196314777
 21
45.36925793
 31
0.0
  0
LINE
  5
1C5
330
1BF
100
AcDbEntity
  8
0
  6
Continuous
 62
     7
370
     0
100
AcDbLine
 10
1.3196314777
 20
45.36925793
 30
0.0
 11
1.3196314777
 21
44.1786328942
 31
0.0
  0
LINE
  5
1C6
330
1BF
100
AcDbEntity
  8
0
  6
Continuous
 62
     7
370
     0
100
AcDbLine
 10
1.3196314777
 20
44.1786328942
 30
0.0
 11
1.5481471003
 21
44.1786328942
 31
0.0
  0
LINE
  5
1C7
330
1BF
100
AcDbEntity
  8
0
  6
Continuous
 62
     7
370
     0
100
AcDbLine
 10
4.5314804966
 20
45.36925793
 30
0.0
 11
4.7599961193
 21
45.36925793
 31
0.0
  0
LINE
  5
1C8
330
1BF
100
AcDbEntity
  8
0
  6
Continuous
 62
     7
370
     0
100
AcDbLine
 10
4.7599961193
 20
45.36925793
 30
0.0
 11
4.7599961193
 21
44.1786328942
 31
0.0
  0
LINE
  5
1C9
330
1BF
100
AcDbEntity
  8
0
  6
Continuous
 62
     7
370
     0
100
AcDbLine
 10
4.7599961193
 20
44.1786328942
 30
0.0
 11
4.5314804966
 21
44.1786328942
 31
0.0
  0
LINE
  5
1CA
330
1BF
100
AcDbEntity
  8
0
  6
Continuous
 62
     7
370
     0
100
AcDbLine
 10
8.6247810544
 20
40.1954596547
 30
0.0
 11
8.6247810544
 21
46.1249872138
 31
0.0
  0
LINE
  5
1CB
330
1BF
100
AcDbEntity
  8
0
  6
Continuous
 62
     7
370
     0
100
AcDbLine
 10
6.3467810544
 20
41.8704596547
 30
0.0
 11
6.3467810544
 21
46.1249872138
 31
0.0
  0
LINE
  5
1CC
330
1BF
100
AcDbEntity
  8
0
  6
Continuous
 62
     7
370
     0
100
AcDbLine
 10
8.6247810544
 20
45.3749872138
 30
0.0
 11
6.3467810544
 21
45.3749872138
 31
0.0
  0
LINE
  5
1CD
330
1BF
100
AcDbEntity
  8
0
  6
Continuous
 62
     7
370
     0
100
AcDbLine
 10
6.3467810544
 20
45.3749872138
 30
0.0
 11
5.4178131367
 21
45.3749872138
 31
0.0
  0
MTEXT
  5
1CE
330
1BF
100
AcDbEntity
  8
0
  6
Continuous
 62
     7
370
    18
100
AcDbMText
 10
0.8140325209
 20
46.4910679027
 30
0.0
 40
0.75
 41
0.0
 71
     1
 72
     1
  1
 
  7
SLDTEXTSTYLE0
 73
     1
 44
1.0
  0
MTEXT
  5
1CF
330
1BF
100
AcDbEntity
  8
0
  6
Continuous
 62
     7
370
    18
100
AcDbMText
 10
1.6965846106
 20
46.4796095139
 30
0.0
 40
0.75
 41
0.0
 71
     1
 72
     1
  1
2 1/4"
  7
SLDTEXTSTYLE0
 73
     1
 44
1.0
  0
MTEXT
  5
1D0
330
1BF
100
AcDbEntity
  8
0
  6
Continuous
 62
     7
370
    18
100
AcDbMText
 10
1.5481471003
 20
45.1366407892
 30
0.0
 40
0.75
 41
0.0
 71
     1
 72
     1
  1
58mm
  7
SLDTEXTSTYLE0
 73
     1
 44
1.0
  0
MTEXT
  5
1D1
330
1BF
100
AcDbEntity
  8
0
  6
Continuous
 62
     7
370
    18
100
AcDbMText
 10
4.988511577
 20
46.4910679027
 30
0.0
 40
0.75
 41
0.0
 71
     1
 72
     1
  1
 
  7
SLDTEXTSTYLE0
 73
     1
 44
1.0
  0
ENDBLK
  5
1C1
330
1BF
100
AcDbEntity
  8
0
100
AcDbBlockEnd
  0
BLOCK
  5
1D4
330
1D3
100
AcDbEntity
  8
0
100
AcDbBlockBegin
  2
_D_6
 70
     0
 10
0.0
 20
0.0
 30
0.0
  3
_D_6
  1

  0
SOLID
  5
1D6
330
1D3
100
AcDbEntity
  8
0
  6
Continuous
 62
     7
370
    18
100
AcDbTrace
 10
32.6247810544
 20
45.3749872138
 30
0.0
 11
33.4047810544
 21
45.2549872138
 31
0.0
 12
33.4047810544
 22
45.4949872138
 32
0.0
 13
33.4047810544
 23
45.4949872138
 33
0.0
  0
SOLID
  5
1D7
330
1D3
100
AcDbEntity
  8
0
  6
Continuous
 62
     7
370
    18
100
AcDbTrace
 10
34.6047810544
 20
45.3749872138
 30
0.0
 11
33.8247810544
 21
45.4949872138
 31
0.0
 12
33.8247810544
 22
45.2549872138
 32
0.0
 13
33.8247810544
 23
45.2549872138
 33
0.0
  0
LINE
  5
1D8
330
1D3
100
AcDbEntity
  8
0
  6
Continuous
 62
     7
370
     0
100
AcDbLine
 10
36.2751196564
 20
45.36925793
 30
0.0
 11
36.0466040337
 21
45.36925793
 31
0.0
  0
LINE
  5
1D9
330
1D3
100
AcDbEntity
  8
0
  6
Continuous
 62
     7
370
     0
100
AcDbLine
 10
36.0466040337
 20
45.36925793
 30
0.0
 11
36.0466040337
 21
44.1786328942
 31
0.0
  0
LINE
  5
1DA
330
1D3
100
AcDbEntity
  8
0
  6
Continuous
 62
     7
370
     0
100
AcDbLine
 10
36.0466040337
 20
44.1786328942
 30
0.0
 11
36.2751196564
 21
44.1786328942
 31
0.0
  0
LINE
  5
1DB
330
1D3
100
AcDbEntity
  8
0
  6
Continuous
 62
     7
370
     0
100
AcDbLine
 10
39.2584530527
 20
45.36925793
 30
0.0
 11
39.4869686753
 21
45.36925793
 31
0.0
  0
LINE
  5
1DC
330
1D3
100
AcDbEntity
  8
0
  6
Continuous
 62
     7
370
     0
100
AcDbLine
 10
39.4869686753
 20
45.36925793
 30
0.0
 11
39.4869686753
 21
44.1786328942
 31
0.0
  0
LINE
  5
1DD
330
1D3
100
AcDbEntity
  8
0
  6
Continuous
 62
     7
370
     0
100
AcDbLine
 10
39.4869686753
 20
44.1786328942
 30
0.0
 11
39.2584530527
 21
44.1786328942
 31
0.0
  0
LINE
  5
1DE
330
1D3
100
AcDbEntity
  8
0
  6
Continuous
 62
     7
370
     0
100
AcDbLine
 10
32.6247810544
 20
39.1454596547
 30
0.0
 11
32.6247810544
 21
46.1249872138
 31
0.0
  0
LINE
  5
1DF
330
1D3
100
AcDbEntity
  8
0
  6
Continuous
 62
     7
370
     0
100
AcDbLine
 10
34.6047810544
 20
38.3954596547
 30
0.0
 11
34.6047810544
 21
46.1249872138
 31
0.0
  0
LINE
  5
1E0
330
1D3
100
AcDbEntity
  8
0
  6
Continuous
 62
     7
370
     0
100
AcDbLine
 10
32.6247810544
 20
45.3749872138
 30
0.0
 11
34.6047810544
 21
45.3749872138
 31
0.0
  0
LINE
  5
1E1
330
1D3
100
AcDbEntity
  8
0
  6
Continuous
 62
     7
370
     0
100
AcDbLine
 10
34.6047810544
 20
45.3749872138
 30
0.0
 11
35.3887867963
 21
45.3749872138
 31
0.0
  0
MTEXT
  5
1E2
330
1D3
100
AcDbEntity
  8
0
  6
Continuous
 62
     7
370
    18
100
AcDbMText
 10
35.5410050769
 20
46.4910679027
 30
0.0
 40
0.75
 41
0.0
 71
     1
 72
     1
  1
 
  7
SLDTEXTSTYLE0
 73
     1
 44
1.0
  0
MTEXT
  5
1E3
330
1D3
100
AcDbEntity
  8
0
  6
Continuous
 62
     7
370
    18
100
AcDbMText
 10
37.3350154649
 20
46.4796095139
 30
0.0
 40
0.75
 41
0.0
 71
     1
 72
     1
  1
2"
  7
SLDTEXTSTYLE0
 73
     1
 44
1.0
  0
MTEXT
  5
1E4
330
1D3
100
AcDbEntity
  8
0
  6
Continuous
 62
     7
370
    18
100
AcDbMText
 10
36.2751196564
 20
45.1366407892
 30
0.0
 40
0.75
 41
0.0
 71
     1
 72
     1
  1
50mm
  7
SLDTEXTSTYLE0
 73
     1
 44
1.0
  0
MTEXT
  5
1E5
330
1D3
100
AcDbEntity
  8
0
  6
Continuous
 62
     7
370
    18
100
AcDbMText
 10
39.715484133
 20
46.4910679027
 30
0.0
 40
0.75
 41
0.0
 71
     1
 72
     1
  1
 
  7
SLDTEXTSTYLE0
 73
     1
 44
1.0
  0
ENDBLK
  5
1D5
330
1D3
100
AcDbEntity
  8
0
100
AcDbBlockEnd
  0
BLOCK
  5
1E9
330
1E8
100
AcDbEntity
  8
0
100
AcDbBlockBegin
  2
_D_7
 70
     0
 10
0.0
 20
0.0
 30
0.0
  3
_D_7
  1

  0
SOLID
  5
1EB
330
1E8
100
AcDbEntity
  8
0
  6
Continuous
 62
     7
370
    18
100
AcDbTrace
 10
11.4719279176
 20
38.8454596547
 30
0.0
 11
11.5919279176
 21
39.6254596547
 31
0.0
 12
11.3519279176
 22
39.6254596547
 32
0.0
 13
11.3519279176
 23
39.6254596547
 33
0.0
  0
SOLID
  5
1EC
330
1E8
100
AcDbEntity
  8
0
  6
Continuous
 62
     7
370
    18
100
AcDbTrace
 10
11.4719279176
 20
37.8454596547
 30
0.0
 11
11.3519279176
 21
37.0654596547
 31
0.0
 12
11.5919279176
 22
37.0654596547
 32
0.0
 13
11.5919279176
 23
37.0654596547
 33
0.0
  0
LINE
  5
1ED
330
1E8
100
AcDbEntity
  8
0
  6
Continuous
 62
     7
370
     0
100
AcDbLine
 10
13.8856140047
 20
35.5613361003
 30
0.0
 11
13.6570983821
 21
35.5613361003
 31
0.0
  0
LINE
  5
1EE
330
1E8
100
AcDbEntity
  8
0
  6
Continuous
 62
     7
370
     0
100
AcDbLine
 10
13.6570983821
 20
35.5613361003
 30
0.0
 11
13.6570983821
 21
34.3707110645
 31
0.0
  0
LINE
  5
1EF
330
1E8
100
AcDbEntity
  8
0
  6
Continuous
 62
     7
370
     0
100
AcDbLine
 10
13.6570983821
 20
34.3707110645
 30
0.0
 11
13.8856140047
 21
34.3707110645
 31
0.0
  0
LINE
  5
1F0
330
1E8
100
AcDbEntity
  8
0
  6
Continuous
 62
     7
370
     0
100
AcDbLine
 10
16.868947401
 20
35.5613361003
 30
0.0
 11
17.0974630237
 21
35.5613361003
 31
0.0
  0
LINE
  5
1F1
330
1E8
100
AcDbEntity
  8
0
  6
Continuous
 62
     7
370
     0
100
AcDbLine
 10
17.0974630237
 20
35.5613361003
 30
0.0
 11
17.0974630237
 21
34.3707110645
 31
0.0
  0
LINE
  5
1F2
330
1E8
100
AcDbEntity
  8
0
  6
Continuous
 62
     7
370
     0
100
AcDbLine
 10
17.0974630237
 20
34.3707110645
 30
0.0
 11
16.868947401
 21
34.3707110645
 31
0.0
  0
LINE
  5
1F3
330
1E8
100
AcDbEntity
  8
0
  6
Continuous
 62
     7
370
     0
100
AcDbLine
 10
12.9719279176
 20
35.5613362103
 30
0.0
 11
11.4719279176
 21
35.5613362103
 31
0.0
  0
LINE
  5
1F4
330
1E8
100
AcDbEntity
  8
0
  6
Continuous
 62
     7
370
     0
100
AcDbLine
 10
11.4719279176
 20
35.5613362103
 30
0.0
 11
11.4719279176
 21
37.8454596547
 31
0.0
  0
LINE
  5
1F5
330
1E8
100
AcDbEntity
  8
0
  6
Continuous
 62
     7
370
     0
100
AcDbLine
 10
11.4719279176
 20
38.8454596547
 30
0.0
 11
11.4719279176
 21
40.3454596547
 31
0.0
  0
MTEXT
  5
1F6
330
1E8
100
AcDbEntity
  8
0
  6
Continuous
 62
     7
370
    18
100
AcDbMText
 10
14.379962979
 20
36.6716877392
 30
0.0
 40
0.75
 41
0.0
 71
     1
 72
     1
  1
%%c
  7
SLDTEXTSTYLE0
 73
     1
 44
1.0
  0
MTEXT
  5
1F7
330
1E8
100
AcDbEntity
  8
0
  6
Continuous
 62
     7
370
    18
100
AcDbMText
 10
15.5110567025
 20
36.6716877392
 30
0.0
 40
0.75
 41
0.0
 71
     1
 72
     1
  1
1"
  7
SLDTEXTSTYLE0
 73
     1
 44
1.0
  0
MTEXT
  5
1F8
330
1E8
100
AcDbEntity
  8
0
  6
Continuous
 62
     7
370
    18
100
AcDbMText
 10
13.8856140047
 20
35.3287189595
 30
0.0
 40
0.75
 41
0.0
 71
     1
 72
     1
  1
25mm
  7
SLDTEXTSTYLE0
 73
     1
 44
1.0
  0
ENDBLK
  5
1EA
330
1E8
100
AcDbEntity
  8
0
100
AcDbBlockEnd
  0
BLOCK
  5
2DE
330
2DD
100
AcDbEntity
  8
0
100
AcDbBlockBegin
  2
_D_8
 70
     0
 10
0.0
 20
0.0
 30
0.0
  3
_D_8
  1

  0
SOLID
  5
2E0
330
2DD
100
AcDbEntity
  8
0
  6
Continuous
 62
     7
370
    18
100
AcDbTrace
 10
7.1664484423
 20
11.9682398003
 30
0.0
 11
7.0464484423
 21
11.1882398003
 31
0.0
 12
7.2864484423
 22
11.1882398003
 32
0.0
 13
7.2864484423
 23
11.1882398003
 33
0.0
  0
SOLID
  5
2E1
330
2DD
100
AcDbEntity
  8
0
  6
Continuous
 62
     7
370
    18
100
AcDbTrace
 10
7.1664484423
 20
4.7982398003
 30
0.0
 11
7.2864484423
 21
5.5782398003
 31
0.0
 12
7.0464484423
 22
5.5782398003
 32
0.0
 13
7.0464484423
 23
5.5782398003
 33
0.0
  0
LINE
  5
2E2
330
2DD
100
AcDbEntity
  8
0
  6
Continuous
 62
     7
370
     0
100
AcDbLine
 10
5.6747818542
 20
8.3775105165
 30
0.0
 11
5.4462662315
 21
8.3775105165
 31
0.0
  0
LINE
  5
2E3
330
2DD
100
AcDbEntity
  8
0
  6
Continuous
 62
     7
370
     0
100
AcDbLine
 10
5.4462662315
 20
8.3775105165
 30
0.0
 11
5.4462662315
 21
7.1868854807
 31
0.0
  0
LINE
  5
2E4
330
2DD
100
AcDbEntity
  8
0
  6
Continuous
 62
     7
370
     0
100
AcDbLine
 10
5.4462662315
 20
7.1868854807
 30
0.0
 11
5.6747818542
 21
7.1868854807
 31
0.0
  0
LINE
  5
2E5
330
2DD
100
AcDbEntity
  8
0
  6
Continuous
 62
     7
370
     0
100
AcDbLine
 10
8.6581152504
 20
8.3775105165
 30
0.0
 11
8.8866308731
 21
8.3775105165
 31
0.0
  0
LINE
  5
2E6
330
2DD
100
AcDbEntity
  8
0
  6
Continuous
 62
     7
370
     0
100
AcDbLine
 10
8.8866308731
 20
8.3775105165
 30
0.0
 11
8.8866308731
 21
7.1868854807
 31
0.0
  0
LINE
  5
2E7
330
2DD
100
AcDbEntity
  8
0
  6
Continuous
 62
     7
370
     0
100
AcDbLine
 10
8.8866308731
 20
7.1868854807
 30
0.0
 11
8.6581152504
 21
7.1868854807
 31
0.0
  0
LINE
  5
2E8
330
2DD
100
AcDbEntity
  8
0
  6
Continuous
 62
     7
370
     0
100
AcDbLine
 10
10.9660459111
 20
11.9682398003
 30
0.0
 11
6.4164484423
 21
11.9682398003
 31
0.0
  0
LINE
  5
2E9
330
2DD
100
AcDbEntity
  8
0
  6
Continuous
 62
     7
370
     0
100
AcDbLine
 10
10.9660459111
 20
4.7982398003
 30
0.0
 11
6.4164484423
 21
4.7982398003
 31
0.0
  0
LINE
  5
2EA
330
2DD
100
AcDbEntity
  8
0
  6
Continuous
 62
     7
370
     0
100
AcDbLine
 10
7.1664484423
 20
11.9682398003
 30
0.0
 11
7.1664484423
 21
9.7319376301
 31
0.0
  0
LINE
  5
2EB
330
2DD
100
AcDbEntity
  8
0
  6
Continuous
 62
     7
370
     0
100
AcDbLine
 10
7.1664484423
 20
4.7982398003
 30
0.0
 11
7.1664484423
 21
7.0345419706
 31
0.0
  0
MTEXT
  5
2EC
330
2DD
100
AcDbEntity
  8
0
  6
Continuous
 62
     7
370
    18
100
AcDbMText
 10
4.9406672747
 20
9.4993204893
 30
0.0
 40
0.75
 41
0.0
 71
     1
 72
     1
  1
 
  7
SLDTEXTSTYLE0
 73
     1
 44
1.0
  0
MTEXT
  5
2ED
330
2DD
100
AcDbEntity
  8
0
  6
Continuous
 62
     7
370
    18
100
AcDbMText
 10
5.5461359753
 20
9.4878621004
 30
0.0
 40
0.75
 41
0.0
 71
     1
 72
     1
  1
3 9/16"
  7
SLDTEXTSTYLE0
 73
     1
 44
1.0
  0
MTEXT
  5
2EE
330
2DD
100
AcDbEntity
  8
0
  6
Continuous
 62
     7
370
    18
100
AcDbMText
 10
5.6747818542
 20
8.1448933757
 30
0.0
 40
0.75
 41
0.0
 71
     1
 72
     1
  1
91mm
  7
SLDTEXTSTYLE0
 73
     1
 44
1.0
  0
MTEXT
  5
2EF
330
2DD
100
AcDbEntity
  8
0
  6
Continuous
 62
     7
370
    18
100
AcDbMText
 10
9.1151463308
 20
9.4993204893
 30
0.0
 40
0.75
 41
0.0
 71
     1
 72
     1
  1
 
  7
SLDTEXTSTYLE0
 73
     1
 44
1.0
  0
ENDBLK
  5
2DF
330
2DD
100
AcDbEntity
  8
0
100
AcDbBlockEnd
  0
BLOCK
  5
301
330
300
100
AcDbEntity
  8
0
100
AcDbBlockBegin
  2
_D_9
 70
     0
 10
0.0
 20
0.0
 30
0.0
  3
_D_9
  1

  0
SOLID
  5
303
330
300
100
AcDbEntity
  8
0
  6
Continuous
 62
     7
370
    18
100
AcDbTrace
 10
22.1533793588
 20
9.3942398003
 30
0.0
 11
22.2733793588
 21
10.1742398003
 31
0.0
 12
22.0333793588
 22
10.1742398003
 32
0.0
 13
22.0333793588
 23
10.1742398003
 33
0.0
  0
SOLID
  5
304
330
300
100
AcDbEntity
  8
0
  6
Continuous
 62
     7
370
    18
100
AcDbTrace
 10
22.1533793588
 20
4.7982398003
 30
0.0
 11
22.0333793588
 21
4.0182398003
 31
0.0
 12
22.2733793588
 22
4.0182398003
 32
0.0
 13
22.2733793588
 23
4.0182398003
 33
0.0
  0
LINE
  5
305
330
300
100
AcDbEntity
  8
0
  6
Continuous
 62
     7
370
     0
100
AcDbLine
 10
20.6617127707
 20
7.0905105165
 30
0.0
 11
20.433197148
 21
7.0905105165
 31
0.0
  0
LINE
  5
306
330
300
100
AcDbEntity
  8
0
  6
Continuous
 62
     7
370
     0
100
AcDbLine
 10
20.433197148
 20
7.0905105165
 30
0.0
 11
20.433197148
 21
5.8998854807
 31
0.0
  0
LINE
  5
307
330
300
100
AcDbEntity
  8
0
  6
Continuous
 62
     7
370
     0
100
AcDbLine
 10
20.433197148
 20
5.8998854807
 30
0.0
 11
20.6617127707
 21
5.8998854807
 31
0.0
  0
LINE
  5
308
330
300
100
AcDbEntity
  8
0
  6
Continuous
 62
     7
370
     0
100
AcDbLine
 10
23.645046167
 20
7.0905105165
 30
0.0
 11
23.8735617896
 21
7.0905105165
 31
0.0
  0
LINE
  5
309
330
300
100
AcDbEntity
  8
0
  6
Continuous
 62
     7
370
     0
100
AcDbLine
 10
23.8735617896
 20
7.0905105165
 30
0.0
 11
23.8735617896
 21
5.8998854807
 31
0.0
  0
LINE
  5
30A
330
300
100
AcDbEntity
  8
0
  6
Continuous
 62
     7
370
     0
100
AcDbLine
 10
23.8735617896
 20
5.8998854807
 30
0.0
 11
23.645046167
 21
5.8998854807
 31
0.0
  0
LINE
  5
30B
330
300
100
AcDbEntity
  8
0
  6
Continuous
 62
     7
370
     0
100
AcDbLine
 10
26.5899537583
 20
9.3942398003
 30
0.0
 11
21.4033793588
 21
9.3942398003
 31
0.0
  0
LINE
  5
30C
330
300
100
AcDbEntity
  8
0
  6
Continuous
 62
     7
370
     0
100
AcDbLine
 10
26.4099537583
 20
4.7982398003
 30
0.0
 11
21.4033793588
 21
4.7982398003
 31
0.0
  0
LINE
  5
30D
330
300
100
AcDbEntity
  8
0
  6
Continuous
 62
     7
370
     0
100
AcDbLine
 10
22.1533793588
 20
9.3942398003
 30
0.0
 11
22.1533793588
 21
10.8942398003
 31
0.0
  0
LINE
  5
30E
330
300
100
AcDbEntity
  8
0
  6
Continuous
 62
     7
370
     0
100
AcDbLine
 10
22.1533793588
 20
4.7982398003
 30
0.0
 11
22.1533793588
 21
3.2982398003
 31
0.0
  0
MTEXT
  5
30F
330
300
100
AcDbEntity
  8
0
  6
Continuous
 62
     7
370
    18
100
AcDbMText
 10
19.9275981912
 20
8.2123204893
 30
0.0
 40
0.75
 41
0.0
 71
     1
 72
     1
  1
 
  7
SLDTEXTSTYLE0
 73
     1
 44
1.0
  0
MTEXT
  5
310
330
300
100
AcDbEntity
  8
0
  6
Continuous
 62
     7
370
    18
100
AcDbMText
 10
20.5330668918
 20
8.2008621004
 30
0.0
 40
0.75
 41
0.0
 71
     1
 72
     1
  1
2 5/16"
  7
SLDTEXTSTYLE0
 73
     1
 44
1.0
  0
MTEXT
  5
311
330
300
100
AcDbEntity
  8
0
  6
Continuous
 62
     7
370
    18
100
AcDbMText
 10
20.6617127707
 20
6.8578933757
 30
0.0
 40
0.75
 41
0.0
 71
     1
 72
     1
  1
58mm
  7
SLDTEXTSTYLE0
 73
     1
 44
1.0
  0
MTEXT
  5
312
330
300
100
AcDbEntity
  8
0
  6
Continuous
 62
     7
370
    18
100
AcDbMText
 10
24.1020772473
 20
8.2123204893
 30
0.0
 40
0.75
 41
0.0
 71
     1
 72
     1
  1
 
  7
SLDTEXTSTYLE0
 73
     1
 44
1.0
  0
ENDBLK
  5
302
330
300
100
AcDbEntity
  8
0
100
AcDbBlockEnd
  0
BLOCK
  5
323
330
322
100
AcDbEntity
  8
0
100
AcDbBlockBegin
  2
_D_10
 70
     0
 10
0.0
 20
0.0
 30
0.0
  3
_D_10
  1

  0
SOLID
  5
325
330
322
100
AcDbEntity
  8
0
  6
Continuous
 62
     7
370
    18
100
AcDbTrace
 10
36.6490763053
 20
7.9798414952
 30
0.0
 11
36.7690763053
 21
8.7598414952
 31
0.0
 12
36.5290763053
 22
8.7598414952
 32
0.0
 13
36.5290763053
 23
8.7598414952
 33
0.0
  0
SOLID
  5
326
330
322
100
AcDbEntity
  8
0
  6
Continuous
 62
     7
370
    18
100
AcDbTrace
 10
36.6490763053
 20
4.7598414952
 30
0.0
 11
36.5290763053
 21
3.9798414952
 31
0.0
 12
36.7690763053
 22
3.9798414952
 32
0.0
 13
36.7690763053
 23
3.9798414952
 33
0.0
  0
LINE
  5
327
330
322
100
AcDbEntity
  8
0
  6
Continuous
 62
     7
370
     0
100
AcDbLine
 10
35.1574097172
 20
6.3641122114
 30
0.0
 11
34.9288940945
 21
6.3641122114
 31
0.0
  0
LINE
  5
328
330
322
100
AcDbEntity
  8
0
  6
Continuous
 62
     7
370
     0
100
AcDbLine
 10
34.9288940945
 20
6.3641122114
 30
0.0
 11
34.9288940945
 21
5.1734871756
 31
0.0
  0
LINE
  5
329
330
322
100
AcDbEntity
  8
0
  6
Continuous
 62
     7
370
     0
100
AcDbLine
 10
34.9288940945
 20
5.1734871756
 30
0.0
 11
35.1574097172
 21
5.1734871756
 31
0.0
  0
LINE
  5
32A
330
322
100
AcDbEntity
  8
0
  6
Continuous
 62
     7
370
     0
100
AcDbLine
 10
38.1407431135
 20
6.3641122114
 30
0.0
 11
38.3692587361
 21
6.3641122114
 31
0.0
  0
LINE
  5
32B
330
322
100
AcDbEntity
  8
0
  6
Continuous
 62
     7
370
     0
100
AcDbLine
 10
38.3692587361
 20
6.3641122114
 30
0.0
 11
38.3692587361
 21
5.1734871756
 31
0.0
  0
LINE
  5
32C
330
322
100
AcDbEntity
  8
0
  6
Continuous
 62
     7
370
     0
100
AcDbLine
 10
38.3692587361
 20
5.1734871756
 30
0.0
 11
38.1407431135
 21
5.1734871756
 31
0.0
  0
LINE
  5
32D
330
322
100
AcDbEntity
  8
0
  6
Continuous
 62
     7
370
     0
100
AcDbLine
 10
40.4486038644
 20
7.9798414952
 30
0.0
 11
35.8990763053
 21
7.9798414952
 31
0.0
  0
LINE
  5
32E
330
322
100
AcDbEntity
  8
0
  6
Continuous
 62
     7
370
     0
100
AcDbLine
 10
40.1286038644
 20
4.7598414952
 30
0.0
 11
35.8990763053
 21
4.7598414952
 31
0.0
  0
LINE
  5
32F
330
322
100
AcDbEntity
  8
0
  6
Continuous
 62
     7
370
     0
100
AcDbLine
 10
36.6490763053
 20
7.9798414952
 30
0.0
 11
36.6490763053
 21
9.4798414952
 31
0.0
  0
LINE
  5
330
330
322
100
AcDbEntity
  8
0
  6
Continuous
 62
     7
370
     0
100
AcDbLine
 10
36.6490763053
 20
4.7598414952
 30
0.0
 11
36.6490763053
 21
3.2598414952
 31
0.0
  0
MTEXT
  5
331
330
322
100
AcDbEntity
  8
0
  6
Continuous
 62
     7
370
    18
100
AcDbMText
 10
34.4232951377
 20
7.4859221841
 30
0.0
 40
0.75
 41
0.0
 71
     1
 72
     1
  1
 
  7
SLDTEXTSTYLE0
 73
     1
 44
1.0
  0
MTEXT
  5
332
330
322
100
AcDbEntity
  8
0
  6
Continuous
 62
     7
370
    18
100
AcDbMText
 10
35.3058472274
 20
7.4744637952
 30
0.0
 40
0.75
 41
0.0
 71
     1
 72
     1
  1
1 5/8"
  7
SLDTEXTSTYLE0
 73
     1
 44
1.0
  0
MTEXT
  5
333
330
322
100
AcDbEntity
  8
0
  6
Continuous
 62
     7
370
    18
100
AcDbMText
 10
35.1574097172
 20
6.1314950706
 30
0.0
 40
0.75
 41
0.0
 71
     1
 72
     1
  1
41mm
  7
SLDTEXTSTYLE0
 73
     1
 44
1.0
  0
MTEXT
  5
334
330
322
100
AcDbEntity
  8
0
  6
Continuous
 62
     7
370
    18
100
AcDbMText
 10
38.5977741938
 20
7.4859221841
 30
0.0
 40
0.75
 41
0.0
 71
     1
 72
     1
  1
 
  7
SLDTEXTSTYLE0
 73
     1
 44
1.0
  0
ENDBLK
  5
324
330
322
100
AcDbEntity
  8
0
100
AcDbBlockEnd
  0
BLOCK
  5
380
330
37F
100
AcDbEntity
  8
0
100
AcDbBlockBegin
  2
_D_11
 70
     0
 10
0.0
 20
0.0
 30
0.0
  3
_D_11
  1

  0
SOLID
  5
382
330
37F
100
AcDbEntity
  8
0
  6
Continuous
 62
     7
370
    18
100
AcDbTrace
 10
56.8888227273
 20
11.8764887999
 30
0.0
 11
57.3827457757
 21
12.4919886149
 31
0.0
 12
57.1748996788
 22
12.6119886148
 32
0.0
 13
57.1748996788
 23
12.6119886148
 33
0.0
  0
LINE
  5
383
330
37F
100
AcDbEntity
  8
0
  6
Continuous
 62
     7
370
     0
100
AcDbLine
 10
59.941178561
 20
13.7736465278
 30
0.0
 11
59.7126629383
 21
13.7736465278
 31
0.0
  0
LINE
  5
384
330
37F
100
AcDbEntity
  8
0
  6
Continuous
 62
     7
370
     0
100
AcDbLine
 10
59.7126629383
 20
13.7736465278
 30
0.0
 11
59.7126629383
 21
12.583021492
 31
0.0
  0
LINE
  5
385
330
37F
100
AcDbEntity
  8
0
  6
Continuous
 62
     7
370
     0
100
AcDbLine
 10
59.7126629383
 20
12.583021492
 30
0.0
 11
59.941178561
 21
12.583021492
 31
0.0
  0
LINE
  5
386
330
37F
100
AcDbEntity
  8
0
  6
Continuous
 62
     7
370
     0
100
AcDbLine
 10
63.4786785155
 20
13.7736465278
 30
0.0
 11
63.7071941382
 21
13.7736465278
 31
0.0
  0
LINE
  5
387
330
37F
100
AcDbEntity
  8
0
  6
Continuous
 62
     7
370
     0
100
AcDbLine
 10
63.7071941382
 20
13.7736465278
 30
0.0
 11
63.7071941382
 21
12.583021492
 31
0.0
  0
LINE
  5
388
330
37F
100
AcDbEntity
  8
0
  6
Continuous
 62
     7
370
     0
100
AcDbLine
 10
63.7071941382
 20
12.583021492
 30
0.0
 11
63.4786785155
 21
12.583021492
 31
0.0
  0
LINE
  5
389
330
37F
100
AcDbEntity
  8
0
  6
Continuous
 62
     7
370
     0
100
AcDbLine
 10
56.8888227273
 20
11.8764887999
 30
0.0
 11
57.9841473157
 21
13.7736466378
 31
0.0
  0
LINE
  5
38A
330
37F
100
AcDbEntity
  8
0
  6
Continuous
 62
     7
370
     0
100
AcDbLine
 10
57.9841473157
 20
13.7736466378
 30
0.0
 11
59.4841473157
 21
13.7736466378
 31
0.0
  0
MTEXT
  5
38B
330
37F
100
AcDbEntity
  8
0
  6
Continuous
 62
     7
370
    18
100
AcDbMText
 10
59.5240691545
 20
14.8839981667
 30
0.0
 40
0.75
 41
0.0
 71
     1
 72
     1
  1
%%c
  7
SLDTEXTSTYLE0
 73
     1
 44
1.0
  0
MTEXT
  5
38C
330
37F
100
AcDbEntity
  8
0
  6
Continuous
 62
     7
370
    18
100
AcDbMText
 10
60.655162878
 20
14.8839981667
 30
0.0
 40
0.75
 41
0.0
 71
     1
 72
     1
  1
6 7/16"
  7
SLDTEXTSTYLE0
 73
     1
 44
1.0
  0
MTEXT
  5
38D
330
37F
100
AcDbEntity
  8
0
  6
Continuous
 62
     7
370
    18
100
AcDbMText
 10
59.941178561
 20
13.541029387
 30
0.0
 40
0.75
 41
0.0
 71
     1
 72
     1
  1
164mm
  7
SLDTEXTSTYLE0
 73
     1
 44
1.0
  0
ENDBLK
  5
381
330
37F
100
AcDbEntity
  8
0
100
AcDbBlockEnd
  0
ENDSEC
  0
SECTION
  2
ENTITIES
  0
ARC
  5
87
330
1F
100
AcDbEntity
  8
0
  6
Continuous
 62
     7
370
    25
100
AcDbCircle
 10
6.5490310544
 20
36.2241393112
 30
0.0
 40
0.1804759332985985
100
AcDbArc
 50
300.1878810736
 51
334.3933390117
  0
ARC
  5
88
330
1F
100
AcDbEntity
  8
0
  6
Continuous
 62
     7
370
    25
100
AcDbCircle
 10
6.5490310544
 20
36.2241393112
 30
0.0
 40
0.1804759332985985
100
AcDbArc
 50
25.6066609883
 51
59.8121189264
  0
LINE
  5
89
330
1F
100
AcDbEntity
  8
0
  6
Continuous
 62
     7
370
    25
100
AcDbLine
 10
6.6397810544
 20
36.3801393112
 30
0.0
 11
6.6247810544
 21
36.3801393112
 31
0.0
  0
LINE
  5
8A
330
1F
100
AcDbEntity
  8
0
  6
Continuous
 62
     7
370
    25
100
AcDbLine
 10
6.6247810544
 20
36.0681393112
 30
0.0
 11
6.6397810544
 21
36.0681393112
 31
0.0
  0
LINE
  5
8B
330
1F
100
AcDbEntity
  8
0
  6
Continuous
 62
     7
370
    25
100
AcDbLine
 10
6.3467810544
 20
36.296636614
 30
0.0
 11
6.3404110544
 21
36.2875393112
 31
0.0
  0
LINE
  5
8C
330
1F
100
AcDbEntity
  8
0
  6
Continuous
 62
     7
370
    25
100
AcDbLine
 10
6.3404110544
 20
36.1607393112
 30
0.0
 11
6.3467810544
 21
36.1516420084
 31
0.0
  0
LINE
  5
8D
330
1F
100
AcDbEntity
  8
0
  6
Continuous
 62
     7
370
    25
100
AcDbLine
 10
6.3288260934
 20
36.1441942722
 30
0.0
 11
6.3404110544
 21
36.1607393112
 31
0.0
  0
LINE
  5
8E
330
1F
100
AcDbEntity
  8
0
  6
Continuous
 62
     7
370
    25
100
AcDbLine
 10
6.3404110544
 20
36.2875393112
 30
0.0
 11
6.3288260934
 21
36.3040843502
 31
0.0
  0
LINE
  5
8F
330
1F
100
AcDbEntity
  8
0
  6
Continuous
 62
     7
370
    25
100
AcDbLine
 10
6.3288260934
 20
36.3040843502
 30
0.0
 11
6.3122810544
 21
36.2875393112
 31
0.0
  0
LINE
  5
90
330
1F
100
AcDbEntity
  8
0
  6
Continuous
 62
     7
370
    25
100
AcDbLine
 10
6.3122810544
 20
36.1607393112
 30
0.0
 11
6.3288260934
 21
36.1441942722
 31
0.0
  0
ARC
  5
91
330
1F
100
AcDbEntity
  8
0
  6
Continuous
 62
     7
370
    25
100
AcDbCircle
 10
6.5490310544
 20
40.4667799983
 30
0.0
 40
0.1804759332986013
100
AcDbArc
 50
300.1878810736
 51
334.3933390117
  0
ARC
  5
92
330
1F
100
AcDbEntity
  8
0
  6
Continuous
 62
     7
370
    25
100
AcDbCircle
 10
6.5490310544
 20
40.4667799983
 30
0.0
 40
0.1804759332985952
100
AcDbArc
 50
25.6066609883
 51
59.8121189264
  0
LINE
  5
93
330
1F
100
AcDbEntity
  8
0
  6
Continuous
 62
     7
370
    25
100
AcDbLine
 10
6.6397810544
 20
40.6227799983
 30
0.0
 11
6.6247810544
 21
40.6227799983
 31
0.0
  0
LINE
  5
94
330
1F
100
AcDbEntity
  8
0
  6
Continuous
 62
     7
370
    25
100
AcDbLine
 10
6.6247810544
 20
40.3107799983
 30
0.0
 11
6.6397810544
 21
40.3107799983
 31
0.0
  0
LINE
  5
95
330
1F
100
AcDbEntity
  8
0
  6
Continuous
 62
     7
370
    25
100
AcDbLine
 10
6.3467810544
 20
40.5392773011
 30
0.0
 11
6.3404110544
 21
40.5301799983
 31
0.0
  0
LINE
  5
96
330
1F
100
AcDbEntity
  8
0
  6
Continuous
 62
     7
370
    25
100
AcDbLine
 10
6.3404110544
 20
40.4033799983
 30
0.0
 11
6.3467810544
 21
40.3942826955
 31
0.0
  0
LINE
  5
97
330
1F
100
AcDbEntity
  8
0
  6
Continuous
 62
     7
370
    25
100
AcDbLine
 10
6.3288260934
 20
40.3868349593
 30
0.0
 11
6.3404110544
 21
40.4033799983
 31
0.0
  0
LINE
  5
98
330
1F
100
AcDbEntity
  8
0
  6
Continuous
 62
     7
370
    25
100
AcDbLine
 10
6.3404110544
 20
40.5301799983
 30
0.0
 11
6.3288260934
 21
40.5467250373
 31
0.0
  0
LINE
  5
99
330
1F
100
AcDbEntity
  8
0
  6
Continuous
 62
     7
370
    25
100
AcDbLine
 10
6.3288260934
 20
40.5467250373
 30
0.0
 11
6.3122810544
 21
40.5301799983
 31
0.0
  0
LINE
  5
9A
330
1F
100
AcDbEntity
  8
0
  6
Continuous
 62
     7
370
    25
100
AcDbLine
 10
6.3122810544
 20
40.4033799983
 30
0.0
 11
6.3288260934
 21
40.3868349593
 31
0.0
  0
LINE
  5
9B
330
1F
100
AcDbEntity
  8
0
  6
Continuous
 62
     7
370
    25
100
AcDbLine
 10
6.3467810544
 20
35.1204596547
 30
0.0
 11
6.4997810544
 21
35.1204596547
 31
0.0
  0
LINE
  5
9C
330
1F
100
AcDbEntity
  8
0
  6
Continuous
 62
     7
370
    25
100
AcDbLine
 10
6.4997810544
 20
41.5704596547
 30
0.0
 11
6.3467810544
 21
41.5704596547
 31
0.0
  0
ARC
  5
9D
330
1F
100
AcDbEntity
  8
0
  6
Continuous
 62
     7
370
    25
100
AcDbCircle
 10
6.4997810544
 20
35.2454596547
 30
0.0
 40
0.125
100
AcDbArc
 50
270.0
 51
0.0
  0
ARC
  5
9E
330
1F
100
AcDbEntity
  8
0
  6
Continuous
 62
     7
370
    25
100
AcDbCircle
 10
6.4997810544
 20
41.4454596547
 30
0.0
 40
0.125
100
AcDbArc
 50
0.0
 51
90.0
  0
ARC
  5
9F
330
1F
100
AcDbEntity
  8
0
  6
Continuous
 62
     7
370
    25
100
AcDbCircle
 10
6.6847810544
 20
35.4854596547
 30
0.0
 40
0.0600000000000023
100
AcDbArc
 50
90.0
 51
180.0
  0
ARC
  5
A0
330
1F
100
AcDbEntity
  8
0
  6
Continuous
 62
     7
370
    25
100
AcDbCircle
 10
6.6847810544
 20
41.2054596547
 30
0.0
 40
0.0600000000000014
100
AcDbArc
 50
180.0
 51
270.0
  0
ARC
  5
A1
330
1F
100
AcDbEntity
  8
0
  6
Continuous
 62
     7
370
    25
100
AcDbCircle
 10
7.3747810544
 20
36.7954596547
 30
0.0
 40
1.25
100
AcDbArc
 50
270.0
 51
0.0
  0
ARC
  5
A2
330
1F
100
AcDbEntity
  8
0
  6
Continuous
 62
     7
370
    25
100
AcDbCircle
 10
7.3747810544
 20
39.8954596547
 30
0.0
 40
1.25
100
AcDbArc
 50
0.0
 51
90.0
  0
LINE
  5
A3
330
1F
100
AcDbEntity
  8
0
  6
Continuous
 62
     7
370
    25
100
AcDbLine
 10
6.6847810544
 20
35.5454596547
 30
0.0
 11
7.3747810544
 21
35.5454596547
 31
0.0
  0
LINE
  5
A4
330
1F
100
AcDbEntity
  8
0
  6
Continuous
 62
     7
370
    25
100
AcDbLine
 10
7.3747810544
 20
41.1454596547
 30
0.0
 11
6.6847810544
 21
41.1454596547
 31
0.0
  0
LINE
  5
A5
330
1F
100
AcDbEntity
  8
0
  6
Continuous
 62
     7
370
    25
100
AcDbLine
 10
27.1521824511
 20
29.4574390531
 30
0.0
 11
26.9725625644
 21
29.2957085806
 31
0.0
  0
LINE
  5
A6
330
1F
100
AcDbEntity
  8
0
  6
Continuous
 62
     7
370
    25
100
AcDbLine
 10
28.2133932619
 20
30.4129575589
 30
0.0
 11
27.2525644492
 21
29.5478234101
 31
0.0
  0
LINE
  5
A7
330
1F
100
AcDbEntity
  8
0
  6
Continuous
 62
     7
370
    25
100
AcDbLine
 10
28.4496703005
 20
30.62570236
 30
0.0
 11
28.31377526
 21
30.503341916
 31
0.0
  0
LINE
  5
A8
330
1F
100
AcDbEntity
  8
0
  6
Continuous
 62
     7
370
    25
100
AcDbLine
 10
26.8561050713
 20
27.0378374155
 30
0.0
 11
29.5202792706
 21
29.4366706393
 31
0.0
  0
LINE
  5
A9
330
1F
100
AcDbEntity
  8
0
  6
Continuous
 62
     7
370
    25
100
AcDbLine
 10
30.9553089162
 20
32.4713715207
 30
0.0
 11
30.8757581636
 21
32.3997437013
 31
0.0
  0
LINE
  5
AA
330
1F
100
AcDbEntity
  8
0
  6
Continuous
 62
     7
370
    25
100
AcDbLine
 10
31.6003243684
 20
33.0521460425
 30
0.0
 11
31.0557086796
 21
32.5617718737
 31
0.0
  0
LINE
  5
AB
330
1F
100
AcDbEntity
  8
0
  6
Continuous
 62
     7
370
    25
100
AcDbLine
 10
31.5381974639
 20
31.6640303241
 30
0.0
 11
32.2627636687
 21
32.3164326653
 31
0.0
  0
LINE
  5
AC
330
1F
100
AcDbEntity
  8
0
  6
Continuous
 62
     7
370
    25
100
AcDbLine
 10
30.8757581636
 20
32.3997437013
 30
0.0
 11
30.3889239884
 21
31.9613962411
 31
0.0
  0
LINE
  5
AD
330
1F
100
AcDbEntity
  8
0
  6
Continuous
 62
     7
370
    25
100
AcDbLine
 10
31.0513632887
 20
31.2256828638
 30
0.0
 11
31.5381974639
 21
31.6640303241
 31
0.0
  0
ARC
  5
AE
330
1F
100
AcDbEntity
  8
0
  6
Continuous
 62
     7
370
    25
100
AcDbCircle
 10
30.7202105516
 20
31.593465238
 30
0.0
 40
0.4949000000000093
100
AcDbArc
 50
222.0
 51
312.0
  0
ARC
  5
AF
330
1F
100
AcDbEntity
  8
0
  6
Continuous
 62
     7
370
    25
100
AcDbCircle
 10
30.7200767255
 20
31.5936138669
 30
0.0
 40
0.4949000000000029
100
AcDbArc
 50
132.0
 51
222.0
  0
LINE
  5
B0
330
1F
100
AcDbEntity
  8
0
  6
Continuous
 62
     7
370
    25
100
AcDbLine
 10
29.7687523657
 20
31.8134091863
 30
0.0
 11
28.4571017487
 21
30.6323936661
 31
0.0
  0
LINE
  5
B1
330
1F
100
AcDbEntity
  8
0
  6
Continuous
 62
     7
370
    25
100
AcDbLine
 10
29.5277107189
 20
29.4433619453
 30
0.0
 11
30.8393613359
 21
30.6243774656
 31
0.0
  0
LINE
  5
B2
330
1F
100
AcDbEntity
  8
0
  6
Continuous
 62
     7
370
    25
100
AcDbLine
 10
30.8393613359
 20
30.6243774656
 30
0.0
 11
30.8415817624
 21
30.6667457285
 31
0.0
  0
LINE
  5
B3
330
1F
100
AcDbEntity
  8
0
  6
Continuous
 62
     7
370
    25
100
AcDbLine
 10
29.8111206286
 20
31.8111887598
 30
0.0
 11
29.7687523657
 21
31.8134091863
 31
0.0
  0
ARC
  5
B4
330
1F
100
AcDbEntity
  8
0
  6
Continuous
 62
     7
370
    25
100
AcDbCircle
 10
29.5210194128
 20
29.4507933936
 30
0.0
 40
0.0100000000000014
100
AcDbArc
 50
222.0
 51
312.0
  0
ARC
  5
B5
330
1F
100
AcDbEntity
  8
0
  6
Continuous
 62
     7
370
    25
100
AcDbCircle
 10
28.4637930548
 20
30.6249622179
 30
0.0
 40
0.0100000000000014
100
AcDbArc
 50
132.0
 51
222.0
  0
LINE
  5
B6
330
1F
100
AcDbEntity
  8
0
  6
Continuous
 62
     7
370
    25
100
AcDbLine
 10
32.2661093217
 20
32.3127169411
 30
0.0
 11
33.5294555251
 21
33.4502389719
 31
0.0
  0
LINE
  5
B7
330
1F
100
AcDbEntity
  8
0
  6
Continuous
 62
     7
370
    25
100
AcDbLine
 10
32.8603249187
 20
34.1933837974
 30
0.0
 11
31.5969787154
 21
33.0558617666
 31
0.0
  0
LINE
  5
B8
330
1F
100
AcDbEntity
  8
0
  6
Continuous
 62
     7
370
    25
100
AcDbLine
 10
33.6047810544
 20
36.8654596547
 30
0.0
 11
33.6047810544
 21
35.8654596547
 31
0.0
  0
LINE
  5
B9
330
1F
100
AcDbEntity
  8
0
  6
Continuous
 62
     7
370
    25
100
AcDbLine
 10
34.6047810544
 20
35.8654596547
 30
0.0
 11
34.6047810544
 21
36.8654596547
 31
0.0
  0
ARC
  5
BA
330
1F
100
AcDbEntity
  8
0
  6
Continuous
 62
     7
370
    25
100
AcDbCircle
 10
31.3547810544
 20
35.8654596547
 30
0.0
 40
2.25
100
AcDbArc
 50
312.0
 51
0.0
  0
ARC
  5
BB
330
1F
100
AcDbEntity
  8
0
  6
Continuous
 62
     7
370
    25
100
AcDbCircle
 10
31.3547810544
 20
35.8654596547
 30
0.0
 40
3.250000000000004
100
AcDbArc
 50
312.0
 51
0.0
  0
LINE
  5
BC
330
1F
100
AcDbEntity
  8
0
  6
Continuous
 62
     7
370
    25
100
AcDbLine
 10
32.7339955992
 20
37.84784511
 30
0.0
 11
32.7363810544
 21
37.8454596547
 31
0.0
  0
LINE
  5
BD
330
1F
100
AcDbEntity
  8
0
  6
Continuous
 62
     7
370
    25
100
AcDbLine
 10
32.8631810544
 20
37.8454596547
 30
0.0
 11
32.8655243821
 21
37.8478029824
 31
0.0
  0
LINE
  5
BE
330
1F
100
AcDbEntity
  8
0
  6
Continuous
 62
     7
370
    25
100
AcDbLine
 10
33.6071665096
 20
37.10624511
 30
0.0
 11
33.6047810544
 21
37.1038596548
 31
0.0
  0
LINE
  5
BF
330
1F
100
AcDbEntity
  8
0
  6
Continuous
 62
     7
370
    25
100
AcDbLine
 10
33.6047810544
 20
36.9770596548
 30
0.0
 11
33.6071243821
 21
36.9747163271
 31
0.0
  0
LINE
  5
C0
330
1F
100
AcDbEntity
  8
0
  6
Continuous
 62
     7
370
    25
100
AcDbLine
 10
8.6247810544
 20
37.8454596547
 30
0.0
 11
32.6247810544
 21
37.8454596547
 31
0.0
  0
LINE
  5
C1
330
1F
100
AcDbEntity
  8
0
  6
Continuous
 62
     7
370
    25
100
AcDbLine
 10
32.6247810544
 20
38.8454596547
 30
0.0
 11
8.6247810544
 21
38.8454596547
 31
0.0
  0
LINE
  5
C2
330
1F
100
AcDbEntity
  8
0
  6
Continuous
 62
     7
370
    25
100
AcDbLine
 10
8.6247810544
 20
38.7456953562
 30
0.0
 11
8.622296953
 21
38.7499916353
 31
0.0
  0
LINE
  5
C3
330
1F
100
AcDbEntity
  8
0
  6
Continuous
 62
     7
370
    25
100
AcDbLine
 10
6.7117810544
 20
36.3021393112
 30
0.0
 11
6.7117810544
 21
36.1461393112
 31
0.0
  0
LINE
  5
C4
330
1F
100
AcDbEntity
  8
0
  6
Continuous
 62
     7
370
    25
100
AcDbLine
 10
6.6397810544
 20
36.3801393112
 30
0.0
 11
6.6397810544
 21
36.0681393112
 31
0.0
  0
LINE
  5
C5
330
1F
100
AcDbEntity
  8
0
  6
Continuous
 62
     7
370
    25
100
AcDbLine
 10
6.6247810544
 20
36.2411651043
 30
0.0
 11
6.6247810544
 21
36.0681393112
 31
0.0
  0
LINE
  5
C6
330
1F
100
AcDbEntity
  8
0
  6
Continuous
 62
     7
370
    25
100
AcDbLine
 10
6.3404110544
 20
36.2875393112
 30
0.0
 11
6.3404110544
 21
36.1607393112
 31
0.0
  0
LINE
  5
C7
330
1F
100
AcDbEntity
  8
0
  6
Continuous
 62
     7
370
    25
100
AcDbLine
 10
6.3288260934
 20
36.1441942722
 30
0.0
 11
6.3288260934
 21
36.3040843502
 31
0.0
  0
LINE
  5
C8
330
1F
100
AcDbEntity
  8
0
  6
Continuous
 62
     7
370
    25
100
AcDbLine
 10
6.3122810544
 20
36.2875393112
 30
0.0
 11
6.3122810544
 21
36.1607393112
 31
0.0
  0
LINE
  5
C9
330
1F
100
AcDbEntity
  8
0
  6
Continuous
 62
     7
370
    25
100
AcDbLine
 10
6.7117810544
 20
40.5447799983
 30
0.0
 11
6.7117810544
 21
40.3887799983
 31
0.0
  0
LINE
  5
CA
330
1F
100
AcDbEntity
  8
0
  6
Continuous
 62
     7
370
    25
100
AcDbLine
 10
6.6397810544
 20
40.6227799983
 30
0.0
 11
6.6397810544
 21
40.3107799983
 31
0.0
  0
LINE
  5
CB
330
1F
100
AcDbEntity
  8
0
  6
Continuous
 62
     7
370
    25
100
AcDbLine
 10
6.6247810544
 20
40.6227799983
 30
0.0
 11
6.6247810544
 21
40.4497542052
 31
0.0
  0
LINE
  5
CC
330
1F
100
AcDbEntity
  8
0
  6
Continuous
 62
     7
370
    25
100
AcDbLine
 10
6.3404110544
 20
40.5301799983
 30
0.0
 11
6.3404110544
 21
40.4033799983
 31
0.0
  0
LINE
  5
CD
330
1F
100
AcDbEntity
  8
0
  6
Continuous
 62
     7
370
    25
100
AcDbLine
 10
6.3288260934
 20
40.3868349593
 30
0.0
 11
6.3288260934
 21
40.5467250373
 31
0.0
  0
LINE
  5
CE
330
1F
100
AcDbEntity
  8
0
  6
Continuous
 62
     7
370
    25
100
AcDbLine
 10
6.3122810544
 20
40.5301799983
 30
0.0
 11
6.3122810544
 21
40.4033799983
 31
0.0
  0
LINE
  5
CF
330
1F
100
AcDbEntity
  8
0
  6
Continuous
 62
     7
370
    25
100
AcDbLine
 10
6.3467810544
 20
40.6258790241
 30
0.0
 11
6.3467810544
 21
41.5704596547
 31
0.0
  0
LINE
  5
D0
330
1F
100
AcDbEntity
  8
0
  6
Continuous
 62
     7
370
    25
100
AcDbLine
 10
6.3467810544
 20
35.1204596547
 30
0.0
 11
6.3467810544
 21
40.6258790241
 31
0.0
  0
LINE
  5
D1
330
1F
100
AcDbEntity
  8
0
  6
Continuous
 62
     7
370
    25
100
AcDbLine
 10
6.6247810544
 20
40.6227799983
 30
0.0
 11
6.6247810544
 21
41.4454596547
 31
0.0
  0
LINE
  5
D2
330
1F
100
AcDbEntity
  8
0
  6
Continuous
 62
     7
370
    25
100
AcDbLine
 10
6.6247810544
 20
35.2454596547
 30
0.0
 11
6.6247810544
 21
36.0681393112
 31
0.0
  0
LINE
  5
D3
330
1F
100
AcDbEntity
  8
0
  6
Continuous
 62
     7
370
    25
100
AcDbLine
 10
6.6247810544
 20
36.2411651043
 30
0.0
 11
6.6247810544
 21
40.4497542052
 31
0.0
  0
LINE
  5
D4
330
1F
100
AcDbEntity
  8
0
  6
Continuous
 62
     7
370
    25
100
AcDbLine
 10
8.6247810544
 20
39.4414751656
 30
0.0
 11
8.6247810544
 21
39.8954596547
 31
0.0
  0
LINE
  5
D5
330
1F
100
AcDbEntity
  8
0
  6
Continuous
 62
     7
370
    25
100
AcDbLine
 10
8.6247810544
 20
36.7954596547
 30
0.0
 11
8.6247810544
 21
39.4414751656
 31
0.0
  0
LINE
  5
D6
330
1F
100
AcDbEntity
  8
0
  6
Continuous
 62
     7
370
    25
100
AcDbLine
 10
26.8561050713
 20
27.0378374155
 30
0.0
 11
26.8543355455
 21
27.039802673
 31
0.0
  0
LINE
  5
D7
330
1F
100
AcDbEntity
  8
0
  6
Continuous
 62
     7
370
    25
100
AcDbLine
 10
26.8543355455
 20
27.039802673
 30
0.0
 11
26.9725625644
 21
29.2957085806
 31
0.0
  0
LINE
  5
D8
330
1F
100
AcDbEntity
  8
0
  6
Continuous
 62
     7
370
    25
100
AcDbLine
 10
29.5202792706
 20
29.4366706393
 30
0.0
 11
28.4496703005
 21
30.62570236
 31
0.0
  0
SPLINE
  5
D9
330
1F
100
AcDbEntity
  8
0
  6
Continuous
 62
     7
370
    25
100
AcDbSpline
210
0.0
220
0.0
230
1.0
 70
     8
 71
     3
 72
    17
 73
    13
 74
     0
 42
0.00000001
 43
0.00000001
 40
0.0
 40
0.0
 40
0.0
 40
0.0
 40
0.0365084236735815
 40
0.143474823545545
 40
0.2505814071320623
 40
0.3580254383720837
 40
0.4654797859175654
 40
0.5725979205822487
 40
0.6795589444511462
 40
0.7867860992820402
 40
0.8942879081566315
 40
1.0
 40
1.0
 40
1.0
 40
1.0
 10
27.25261318325217
 20
29.54776928550767
 30
0.0
 10
27.25277660321174
 20
29.54794335558866
 30
0.0
 10
27.25341882896416
 20
29.54862743536101
 30
0.0
 10
27.24912145067468
 20
29.54404301553779
 30
0.0
 10
27.24005508826064
 20
29.53461658976883
 30
0.0
 10
27.22652066654898
 20
29.52110606574609
 30
0.0
 10
27.21027518759108
 20
29.50574723397613
 30
0.0
 10
27.19295515593992
 20
29.49031584048179
 30
0.0
 10
27.17652759194158
 20
29.47651728331399
 30
0.0
 10
27.16310600126506
 20
29.46579866407813
 30
0.0
 10
27.15389449082043
 20
29.4587231884922
 30
0.0
 10
27.15275207055955
 20
29.45786231716626
 30
0.0
 10
27.15218565516573
 20
29.45743549457933
 30
0.0
  0
SPLINE
  5
DA
330
1F
100
AcDbEntity
  8
0
  6
Continuous
 62
     7
370
    25
100
AcDbSpline
210
0.0
220
0.0
230
1.0
 70
     8
 71
     3
 72
    17
 73
    13
 74
     0
 42
0.00000001
 43
0.00000001
 40
0.0
 40
0.0
 40
0.0
 40
0.0
 40
0.0365084236735794
 40
0.1434748235455443
 40
0.250581407132048
 40
0.3580254383720867
 40
0.4654797859175638
 40
0.5725979205822475
 40
0.6795589444511333
 40
0.7867860992820337
 40
0.8942879081566352
 40
0.9999999999999999
 40
0.9999999999999999
 40
0.9999999999999999
 40
0.9999999999999999
 10
28.31382399403387
 20
30.50328779138812
 30
0.0
 10
28.31398741399344
 20
30.50346186146912
 30
0.0
 10
28.31462963974587
 20
30.50414594124146
 30
0.0
 10
28.31033226145638
 20
30.49956152141825
 30
0.0
 10
28.30126589904237
 20
30.49013509564928
 30
0.0
 10
28.28773147733069
 20
30.47662457162654
 30
0.0
 10
28.27148599837278
 20
30.46126573985659
 30
0.0
 10
28.25416596672162
 20
30.44583434636225
 30
0.0
 10
28.23773840272331
 20
30.43203578919444
 30
0.0
 10
28.22431681204677
 20
30.42131716995858
 30
0.0
 10
28.21510530160214
 20
30.41424169437265
 30
0.0
 10
28.21396288134126
 20
30.41338082304672
 30
0.0
 10
28.21339646594744
 20
30.41295400045978
 30
0.0
  0
SPLINE
  5
DB
330
1F
100
AcDbEntity
  8
0
  6
Continuous
 62
     7
370
    25
100
AcDbSpline
210
0.0
220
0.0
230
1.0
 70
    11
 71
     3
 72
    26
 73
    22
 74
     0
 42
0.00000001
 43
0.00000001
 40
0.0
 40
0.0
 40
0.0
 40
0.0
 40
0.0535564828349
 40
0.1071082711636794
 40
0.1607818162352117
 40
0.2145352797903734
 40
0.2681567907943669
 40
0.3216411016456198
 40
0.3751955058100511
 40
0.4289186373058544
 40
0.482646927061516
 40
0.5362071068850007
 40
0.5896887296788801
 40
0.6433034207177156
 40
0.6970554416308541
 40
0.7507351198247846
 40
0.8042463682269834
 40
0.8577550645062018
 40
0.9114304564221654
 40
0.9651836128791418
 40
1.0
 40
1.0
 40
1.0
 40
1.0
 10
29.02646725616508
 20
29.6114853050591
 30
0.0
 10
29.03259429879053
 20
29.6160849840298
 30
0.0
 10
29.04484784697404
 20
29.62528393878526
 30
0.0
 10
29.06702074493632
 20
29.63102918696789
 30
0.0
 10
29.08884425045454
 20
29.62993502070122
 30
0.0
 10
29.10817259610648
 20
29.62174765082184
 30
0.0
 10
29.12259686799872
 20
29.60761258256229
 30
0.0
 10
29.13052418791933
 20
29.58913817143778
 30
0.0
 10
29.13115100459457
 20
29.56832211155193
 30
0.0
 10
29.12449215927072
 20
29.54734246871281
 30
0.0
 10
29.111376695968
 20
29.52846592292822
 30
0.0
 10
29.0933764731299
 20
29.51378881625346
 30
0.0
 10
29.07252319933398
 20
29.50495136306806
 30
0.0
 10
29.05103519778178
 20
29.50300858435371
 30
0.0
 10
29.03119716696752
 20
29.50833324031057
 30
0.0
 10
29.01518904540949
 20
29.52044620776047
 30
0.0
 10
29.00479571697421
 20
29.53797487962154
 30
0.0
 10
29.00116300629942
 20
29.55893193975819
 30
0.0
 10
29.0048746108802
 20
29.58080026203594
 30
0.0
 10
29.01413596243209
 20
29.59899044597227
 30
0.0
 10
29.02298767714114
 20
29.60795957203164
 30
0.0
 10
29.02646725616508
 20
29.6114853050591
 30
0.0
  0
LINE
  5
DC
330
1F
100
AcDbEntity
  8
0
  6
Continuous
 62
     7
370
    25
100
AcDbLine
 10
31.2069778137
 20
32.0318870127
 30
0.0
 11
30.8757581636
 21
32.3997437013
 31
0.0
  0
LINE
  5
DD
330
1F
100
AcDbEntity
  8
0
  6
Continuous
 62
     7
370
    25
100
AcDbLine
 10
31.5381974639
 20
31.6640303241
 30
0.0
 11
31.2069778137
 21
32.0318870127
 31
0.0
  0
SPLINE
  5
DE
330
1F
100
AcDbEntity
  8
0
  6
Continuous
 62
     7
370
    25
100
AcDbSpline
210
0.0
220
0.0
230
1.0
 70
     8
 71
     3
 72
    18
 73
    14
 74
     0
 42
0.00000001
 43
0.00000001
 40
0.0
 40
0.0
 40
0.0
 40
0.0
 40
0.0355919054510804
 40
0.1419025306222442
 40
0.2485625961004259
 40
0.3560999181054637
 40
0.4636896469577005
 40
0.5704025898238386
 40
0.6766836078946187
 40
0.783644451493365
 40
0.8913400670886156
 40
0.9986845231648703
 40
1.0
 40
1.0
 40
1.0
 40
1.0
 10
31.05578633119424
 20
32.56168563293294
 30
0.0
 10
31.05594096377698
 20
32.56186822870946
 30
0.0
 10
31.05655747347287
 20
32.56259622577624
 30
0.0
 10
31.05254295506339
 20
32.55784349578764
 30
0.0
 10
31.04397528069793
 20
32.54810212372502
 30
0.0
 10
31.03093481570845
 20
32.53420540702737
 30
0.0
 10
31.01496324232025
 20
32.5186110438614
 30
0.0
 10
30.99761633300562
 20
32.50323421595658
 30
0.0
 10
30.98098652865793
 20
32.48982671778706
 30
0.0
 10
30.96682017989946
 20
32.47933240570918
 30
0.0
 10
30.95802601634379
 20
32.47319940537577
 30
0.0
 10
30.95424444965685
 20
32.47063575205189
 30
0.0
 10
30.95530026000212
 20
32.47135819239957
 30
0.0
 10
30.95531304202778
 20
32.47136693852629
 30
0.0
  0
SPLINE
  5
DF
330
1F
100
AcDbEntity
  8
0
  6
Continuous
 62
     7
370
    25
100
AcDbSpline
210
0.0
220
0.0
230
1.0
 70
     8
 71
     3
 72
    18
 73
    14
 74
     0
 42
0.00000001
 43
0.00000001
 40
0.0
 40
0.0
 40
0.0
 40
0.0
 40
0.0355944504161192
 40
0.1419066884880152
 40
0.2485683721684712
 40
0.3561073256851624
 40
0.463698686844139
 40
0.5704132487147776
 40
0.6766958792370814
 40
0.7836583456014016
 40
0.8913555951098786
 40
0.9987016797717102
 40
1.0
 40
1.0
 40
1.0
 40
1.0
 10
31.38756200631677
 20
32.19448575002149
 30
0.0
 10
31.38918778462373
 20
32.19255050034526
 30
0.0
 10
31.39566937973365
 20
32.18483511579118
 30
0.0
 10
31.40344886570676
 20
32.16854910935309
 30
0.0
 10
31.4062458590304
 20
32.14564421129658
 30
0.0
 10
31.4012583075891
 20
32.12295173337483
 30
0.0
 10
31.38902053603402
 20
32.10316566697899
 30
0.0
 10
31.37097969828288
 20
32.08859069890713
 30
0.0
 10
31.34923287276382
 20
32.08078632462702
 30
0.0
 10
31.3260835354058
 20
32.08055942897163
 30
0.0
 10
31.30408018070579
 20
32.08800655090809
 30
0.0
 10
31.29172270396923
 20
32.09769285516219
 30
0.0
 10
31.28655605246888
 20
32.10341559972726
 30
0.0
 10
31.28649431005184
 20
32.10348398755669
 30
0.0
  0
SPLINE
  5
E0
330
1F
100
AcDbEntity
  8
0
  6
Continuous
 62
     7
370
    25
100
AcDbSpline
210
0.0
220
0.0
230
1.0
 70
     8
 71
     3
 72
    17
 73
    13
 74
     0
 42
0.00000001
 43
0.00000001
 40
0.0
 40
0.0
 40
0.0
 40
0.0
 40
0.1051616269070387
 40
0.2115559451632844
 40
0.3187997045662282
 40
0.4264913421225396
 40
0.5000066286076502
 40
0.6066607860550441
 40
0.7132904524995206
 40
0.8205546495933257
 40
0.9282413136661588
 40
1.0
 40
1.0
 40
1.0
 40
1.0
 10
31.28649431005184
 20
32.10348398755669
 30
0.0
 10
31.28201462976425
 20
32.10954085976927
 30
0.0
 10
31.2730027589408
 20
32.12172560208785
 30
0.0
 10
31.26796886218611
 20
32.14439808920238
 30
0.0
 10
31.27019304747944
 20
32.16737984050818
 30
0.0
 10
31.27906945998618
 20
32.18629756764228
 30
0.0
 10
31.29267873281469
 20
32.20174194365127
 30
0.0
 10
31.31020808282812
 20
32.21287226706267
 30
0.0
 10
31.33275579310104
 20
32.21815125878474
 30
0.0
 10
31.35575244996104
 20
32.21564811793651
 30
0.0
 10
31.3747228820906
 20
32.20695926357853
 30
0.0
 10
31.38389439531775
 20
32.19804892105343
 30
0.0
 10
31.38756200631677
 20
32.19448575002149
 30
0.0
  0
SPLINE
  5
E1
330
1F
100
AcDbEntity
  8
0
  6
Continuous
 62
     7
370
    25
100
AcDbSpline
210
0.0
220
0.0
230
1.0
 70
     8
 71
     3
 72
    26
 73
    22
 74
     0
 42
0.00000001
 43
0.00000001
 40
0.0
 40
0.0
 40
0.0
 40
0.0
 40
0.0504687417288066
 40
0.1009445062268078
 40
0.1513301542932117
 40
0.201727392317572
 40
0.2538204835606221
 40
0.3059130597576937
 40
0.3596512755081258
 40
0.413375613913174
 40
0.4654997910368483
 40
0.5176184291593329
 40
0.5675497389404304
 40
0.6174893098938334
 40
0.6677911708587349
 40
0.7181023199859271
 40
0.7707315033152189
 40
0.8233571659837442
 40
0.8770404608837061
 40
0.9307077128646235
 40
1.0
 40
1.0
 40
1.0
 40
1.0
 10
30.82982798392279
 20
31.47172274580489
 30
0.0
 10
30.83634724990762
 20
31.47779766639214
 30
0.0
 10
30.84938668903879
 20
31.48994835289711
 30
0.0
 10
30.86488484161713
 20
31.51178594356162
 30
0.0
 10
30.87674932066619
 20
31.53553406608809
 30
0.0
 10
30.8847157381402
 20
31.56106305396712
 30
0.0
 10
30.88840293596731
 20
31.587769103079
 30
0.0
 10
30.88770060162321
 20
31.61531111495163
 30
0.0
 10
30.88222868704958
 20
31.64270582591749
 30
0.0
 10
30.87219575788605
 20
31.66893167928931
 30
0.0
 10
30.85785876245545
 20
31.69288105359905
 30
0.0
 10
30.84019457154352
 20
31.71369633019835
 30
0.0
 10
30.81961760767594
 20
31.73097868139257
 30
0.0
 10
30.79694089956821
 20
31.74461023071668
 30
0.0
 10
30.77239945905992
 20
31.75433865774273
 30
0.0
 10
30.7462796627902
 20
31.76017761270387
 30
0.0
 10
30.71919323762428
 20
31.76162003875897
 30
0.0
 10
30.69159753643148
 20
31.75856589100115
 30
0.0
 10
30.66471469823199
 20
31.75065432781444
 30
0.0
 10
30.63647374926976
 20
31.73729526766841
 30
0.0
 10
30.61983554305604
 20
31.72326368139257
 30
0.0
 10
30.61045929318828
 20
31.71535635909632
 30
0.0
  0
LINE
  5
E2
330
1F
100
AcDbEntity
  8
0
  6
Continuous
 62
     7
370
    25
100
AcDbLine
 10
30.3524281775
 20
31.2623125009
 30
0.0
 11
30.3522943514
 21
31.2624611298
 31
0.0
  0
SPLINE
  5
E3
330
1F
100
AcDbEntity
  8
0
  6
Continuous
 62
     7
370
    25
100
AcDbSpline
210
0.0
220
0.0
230
1.0
 70
     8
 71
     3
 72
    26
 73
    22
 74
     0
 42
0.00000001
 43
0.00000001
 40
0.0
 40
0.0
 40
0.0
 40
0.0
 40
0.0547738368222023
 40
0.1095476674174179
 40
0.1643293601338471
 40
0.2191110393583857
 40
0.2738911370806865
 40
0.3286712199630235
 40
0.383448195547321
 40
0.4382251613161509
 40
0.4929993730666604
 40
0.5477735841772146
 40
0.6025465687528335
 40
0.6573195621302023
 40
0.7120933737501778
 40
0.7668671998942665
 40
0.8216435442967004
 40
0.8764199027259483
 40
0.9311994089023483
 40
0.985978922480374
 40
0.9999999999999999
 40
0.9999999999999999
 40
0.9999999999999999
 40
0.9999999999999999
 10
30.82982798392279
 20
31.47172274580489
 30
0.0
 10
30.82249212587157
 20
31.4661210487074
 30
0.0
 10
30.80782041060312
 20
31.45491765514924
 30
0.0
 10
30.78265770476626
 20
31.44303218529442
 30
0.0
 10
30.75601251734603
 20
31.43534481655104
 30
0.0
 10
30.72841507922464
 20
31.43222044650501
 30
0.0
 10
30.70070360488917
 20
31.43385043753654
 30
0.0
 10
30.67363430969277
 20
31.44002037298786
 30
0.0
 10
30.64802378312092
 20
31.45073573251104
 30
0.0
 10
30.62452416579565
 20
31.46551629113416
 30
0.0
 10
30.60390493806347
 20
31.4841043688238
 30
0.0
 10
30.58662298558756
 20
31.50582921110942
 30
0.0
 10
30.57331896863491
 20
31.53019353263062
 30
0.0
 10
30.5642019450799
 20
31.5564135050024
 30
0.0
 10
30.55971217705091
 20
31.5838075655538
 30
0.0
 10
30.55978715430943
 20
31.61156789532433
 30
0.0
 10
30.56461879080231
 20
31.63890285008979
 30
0.0
 10
30.57387388243836
 20
31.66508019575784
 30
0.0
 10
30.58749781501817
 20
31.68925442538997
 30
0.0
 10
30.60053542224854
 20
31.70558697187065
 30
0.0
 10
30.60877925744324
 20
31.71370247626714
 30
0.0
 10
30.61045929318828
 20
31.71535635909632
 30
0.0
  0
SPLINE
  5
E4
330
1F
100
AcDbEntity
  8
0
  6
Continuous
 62
     7
370
    25
100
AcDbSpline
210
0.0
220
0.0
230
1.0
 70
    24
 71
     3
 72
    11
 73
     7
 74
     0
 42
0.00000001
 43
0.00000001
 40
0.0
 40
0.0
 40
0.0
 40
0.0
 40
0.2164526223540169
 40
0.4403054153413079
 40
0.7518959130285028
 40
1.0
 40
1.0
 40
1.0
 40
1.0
 10
30.67460459416198
 20
31.67248133410478
 30
0.0
 10
30.67181351196766
 20
31.66696811566302
 30
0.0
 10
30.66613592492132
 20
31.6557531906163
 30
0.0
 10
30.65559977762695
 20
31.63494116233255
 30
0.0
 10
30.6442977293657
 20
31.61261625157574
 30
0.0
 10
30.63706505200306
 20
31.59832956009087
 30
0.0
 10
30.63385891625938
 20
31.5919964872975
 30
0.0
  0
ARC
  5
E5
330
1F
100
AcDbEntity
  8
0
  6
Continuous
 62
     7
370
    25
100
AcDbCircle
 10
30.7239336772
 20
31.5969521185
 30
0.0
 40
0.0902109795608977
100
AcDbArc
 50
123.1490596584
 51
183.1490596584
  0
ARC
  5
E6
330
1F
100
AcDbEntity
  8
0
  6
Continuous
 62
     7
370
    25
100
AcDbCircle
 10
30.7239336772
 20
31.5969521185
 30
0.0
 40
0.0902109795608977
100
AcDbArc
 50
63.1490596585
 51
123.1490596584
  0
SPLINE
  5
E7
330
1F
100
AcDbEntity
  8
0
  6
Continuous
 62
     7
370
    25
100
AcDbSpline
210
0.0
220
0.0
230
1.0
 70
    24
 71
     3
 72
    11
 73
     7
 74
     0
 42
0.00000001
 43
0.00000001
 40
0.0
 40
0.0
 40
0.0
 40
0.0
 40
0.2164526223537408
 40
0.4403054153407111
 40
0.7518959130276477
 40
1.0
 40
1.0
 40
1.0
 40
1.0
 10
30.76467935506808
 20
31.67743696535036
 30
0.0
 10
30.75850922674376
 20
31.67709750421379
 30
0.0
 10
30.7459580232286
 20
31.67640697630472
 30
0.0
 10
30.72266620438343
 20
31.67512553337809
 30
0.0
 10
30.69768124040021
 20
31.67375093890839
 30
0.0
 10
30.68169226395693
 20
31.67287127549944
 30
0.0
 10
30.67460459416199
 20
31.67248133410478
 30
0.0
  0
ARC
  5
E8
330
1F
100
AcDbEntity
  8
0
  6
Continuous
 62
     7
370
    25
100
AcDbCircle
 10
30.7239336772
 20
31.5969521185
 30
0.0
 40
0.0902109795608656
100
AcDbArc
 50
243.1490596584
 51
303.1490596585
  0
SPLINE
  5
E9
330
1F
100
AcDbEntity
  8
0
  6
Continuous
 62
     7
370
    25
100
AcDbSpline
210
0.0
220
0.0
230
1.0
 70
    24
 71
     3
 72
    11
 73
     7
 74
     0
 42
0.00000001
 43
0.00000001
 40
0.0
 40
0.0
 40
0.0
 40
0.0
 40
0.2164526223538147
 40
0.4403054153410697
 40
0.7518959130280752
 40
1.0
 40
1.0
 40
1.0
 40
1.0
 10
30.68318799926291
 20
31.5164672717358
 30
0.0
 10
30.68935812758722
 20
31.51680673287239
 30
0.0
 10
30.70190933110235
 20
31.51749726078151
 30
0.0
 10
30.72520114994759
 20
31.518778703708
 30
0.0
 10
30.75018611393079
 20
31.5201532981777
 30
0.0
 10
30.76617509037407
 20
31.52103296158672
 30
0.0
 10
30.773262760169
 20
31.5214229029814
 30
0.0
  0
ARC
  5
EA
330
1F
100
AcDbEntity
  8
0
  6
Continuous
 62
     7
370
    25
100
AcDbCircle
 10
30.7239336772
 20
31.5969521185
 30
0.0
 40
0.0902109795608765
100
AcDbArc
 50
303.1490596585
 51
3.1490596584
  0
SPLINE
  5
EB
330
1F
100
AcDbEntity
  8
0
  6
Continuous
 62
     7
370
    25
100
AcDbSpline
210
0.0
220
0.0
230
1.0
 70
    24
 71
     3
 72
    11
 73
     7
 74
     0
 42
0.00000001
 43
0.00000001
 40
0.0
 40
0.0
 40
0.0
 40
0.0
 40
0.2164526223534866
 40
0.4403054153402791
 40
0.7518959130279425
 40
1.0
 40
1.0
 40
1.0
 40
1.0
 10
30.773262760169
 20
31.5214229029814
 30
0.0
 10
30.77605384236329
 20
31.52693612142314
 30
0.0
 10
30.78173142940956
 20
31.53815104646985
 30
0.0
 10
30.79226757670421
 20
31.55896307475344
 30
0.0
 10
30.80356962496532
 20
31.58128798551033
 30
0.0
 10
30.81080230232793
 20
31.59557467699524
 30
0.0
 10
30.8140084380716
 20
31.60190774978863
 30
0.0
  0
ARC
  5
EC
330
1F
100
AcDbEntity
  8
0
  6
Continuous
 62
     7
370
    25
100
AcDbCircle
 10
30.7239336772
 20
31.5969521185
 30
0.0
 40
0.0902109795608877
100
AcDbArc
 50
3.1490596584
 51
63.1490596585
  0
SPLINE
  5
ED
330
1F
100
AcDbEntity
  8
0
  6
Continuous
 62
     7
370
    25
100
AcDbSpline
210
0.0
220
0.0
230
1.0
 70
    24
 71
     3
 72
    11
 73
     7
 74
     0
 42
0.00000001
 43
0.00000001
 40
0.0
 40
0.0
 40
0.0
 40
0.0
 40
0.1753973659310131
 40
0.4928468941344432
 40
0.8195571446036161
 40
1.0
 40
1.0
 40
1.0
 40
1.0
 10
30.8140084380716
 20
31.60190774978863
 30
0.0
 10
30.81128540685392
 20
31.60607706329089
 30
0.0
 10
30.80363399503747
 20
31.61779236585179
 30
0.0
 10
30.78956822195331
 20
31.63932888635109
 30
0.0
 10
30.77535742988502
 20
31.66108744969905
 30
0.0
 10
30.76748155638783
 20
31.6731464321671
 30
0.0
 10
30.76467935506808
 20
31.67743696535036
 30
0.0
  0
ARC
  5
EE
330
1F
100
AcDbEntity
  8
0
  6
Continuous
 62
     7
370
    25
100
AcDbCircle
 10
30.7239336772
 20
31.5969521185
 30
0.0
 40
0.0902109795608905
100
AcDbArc
 50
183.1490596584
 51
243.1490596584
  0
SPLINE
  5
EF
330
1F
100
AcDbEntity
  8
0
  6
Continuous
 62
     7
370
    25
100
AcDbSpline
210
0.0
220
0.0
230
1.0
 70
    24
 71
     3
 72
    11
 73
     7
 74
     0
 42
0.00000001
 43
0.00000001
 40
0.0
 40
0.0
 40
0.0
 40
0.0
 40
0.1804428553966175
 40
0.5071531058652378
 40
0.8246026340692809
 40
1.0
 40
1.0
 40
1.0
 40
1.0
 10
30.63385891625938
 20
31.5919964872975
 30
0.0
 10
30.63666111757914
 20
31.58770595411422
 30
0.0
 10
30.6445369910763
 20
31.57564697164617
 30
0.0
 10
30.65874778314462
 20
31.55388840829824
 30
0.0
 10
30.67281355622876
 20
31.53235188779892
 30
0.0
 10
30.68046496804524
 20
31.52063658523805
 30
0.0
 10
30.68318799926291
 20
31.5164672717358
 30
0.0
  0
CIRCLE
  5
F0
330
1F
100
AcDbEntity
  8
0
  6
Continuous
 62
     7
370
    25
100
AcDbCircle
 10
30.7239336772
 20
31.5969521185
 30
0.0
 40
0.150226497308107
  0
CIRCLE
  5
F1
330
1F
100
AcDbEntity
  8
0
  6
Continuous
 62
     7
370
    25
100
AcDbCircle
 10
30.7239336772
 20
31.5969521185
 30
0.0
 40
0.155999999999998
  0
LINE
  5
F2
330
1F
100
AcDbEntity
  8
0
  6
Continuous
 62
     7
370
    25
100
AcDbLine
 10
30.8393613359
 20
30.6243774656
 30
0.0
 11
29.7687523657
 21
31.8134091863
 31
0.0
  0
LINE
  5
F3
330
1F
100
AcDbEntity
  8
0
  6
Continuous
 62
     7
370
    25
100
AcDbLine
 10
29.8111206286
 20
31.8111887598
 30
0.0
 11
30.8415817624
 21
30.6667457285
 31
0.0
  0
LINE
  5
F4
330
1F
100
AcDbEntity
  8
0
  6
Continuous
 62
     7
370
    25
100
AcDbLine
 10
30.6575708457
 20
30.8711105555
 30
0.0
 11
31.0551533273
 21
31.2290954299
 31
0.0
  0
LINE
  5
F5
330
1F
100
AcDbEntity
  8
0
  6
Continuous
 62
     7
370
    25
100
AcDbLine
 10
30.392714027
 20
31.9648088072
 30
0.0
 11
29.9951315454
 21
31.6068239328
 31
0.0
  0
ARC
  5
F6
330
1F
100
AcDbEntity
  8
0
  6
Continuous
 62
     7
370
    25
100
AcDbCircle
 10
33.8547810544
 20
38.0954596547
 30
0.0
 40
0.25
100
AcDbArc
 50
0.0
 51
90.0
  0
LINE
  5
F7
330
1F
100
AcDbEntity
  8
0
  6
Continuous
 62
     7
370
    25
100
AcDbLine
 10
33.8547810544
 20
38.3454596547
 30
0.0
 11
33.8547810544
 21
38.8454596547
 31
0.0
  0
ARC
  5
F8
330
1F
100
AcDbEntity
  8
0
  6
Continuous
 62
     7
370
    25
100
AcDbCircle
 10
33.8547810544
 20
38.0954596547
 30
0.0
 40
0.7500000000000071
100
AcDbArc
 50
0.0
 51
90.0
  0
LINE
  5
F9
330
1F
100
AcDbEntity
  8
0
  6
Continuous
 62
     7
370
    25
100
AcDbLine
 10
34.1047810544
 20
38.0954596547
 30
0.0
 11
34.6047810544
 21
38.0954596547
 31
0.0
  0
ARC
  5
FA
330
1F
100
AcDbEntity
  8
0
  6
Continuous
 62
     7
370
    25
100
AcDbCircle
 10
33.3547810544
 20
37.5954596547
 30
0.0
 40
0.25
100
AcDbArc
 50
0.0
 51
90.0
  0
LINE
  5
FB
330
1F
100
AcDbEntity
  8
0
  6
Continuous
 62
     7
370
    25
100
AcDbLine
 10
33.3547810544
 20
37.8454596547
 30
0.0
 11
33.3547810544
 21
38.3454596547
 31
0.0
  0
ARC
  5
FC
330
1F
100
AcDbEntity
  8
0
  6
Continuous
 62
     7
370
    25
100
AcDbCircle
 10
33.3547810544
 20
37.5954596547
 30
0.0
 40
0.7499999999999929
100
AcDbArc
 50
0.0
 51
90.0
  0
LINE
  5
FD
330
1F
100
AcDbEntity
  8
0
  6
Continuous
 62
     7
370
    25
100
AcDbLine
 10
33.6047810544
 20
37.5954596547
 30
0.0
 11
34.1047810544
 21
37.5954596547
 31
0.0
  0
LINE
  5
FE
330
1F
100
AcDbEntity
  8
0
  6
Continuous
 62
     7
370
    25
100
AcDbLine
 10
34.1047810544
 20
37.5954596547
 30
0.0
 11
34.1047810544
 21
38.0954596547
 31
0.0
  0
LINE
  5
FF
330
1F
100
AcDbEntity
  8
0
  6
Continuous
 62
     7
370
    25
100
AcDbLine
 10
33.8547810544
 20
38.3454596547
 30
0.0
 11
33.3547810544
 21
38.3454596547
 31
0.0
  0
LINE
  5
100
330
1F
100
AcDbEntity
  8
0
  6
Continuous
 62
     7
370
    25
100
AcDbLine
 10
32.6247810544
 20
38.3454596547
 30
0.0
 11
32.7177810544
 21
38.3454596547
 31
0.0
  0
LINE
  5
101
330
1F
100
AcDbEntity
  8
0
  6
Continuous
 62
     7
370
    25
100
AcDbLine
 10
32.6247810544
 20
38.3454596547
 30
0.0
 11
32.6247810544
 21
38.8454596547
 31
0.0
  0
LINE
  5
102
330
1F
100
AcDbEntity
  8
0
  6
Continuous
 62
     7
370
    25
100
AcDbLine
 10
33.8547810544
 20
38.8454596547
 30
0.0
 11
32.6247810544
 21
38.8454596547
 31
0.0
  0
LINE
  5
103
330
1F
100
AcDbEntity
  8
0
  6
Continuous
 62
     7
370
    25
100
AcDbLine
 10
32.8817810544
 20
38.3454596547
 30
0.0
 11
33.3547810544
 21
38.3454596547
 31
0.0
  0
SPLINE
  5
104
330
1F
100
AcDbEntity
  8
0
  6
Continuous
 62
     7
370
    25
100
AcDbSpline
210
0.0
220
0.0
230
1.0
 70
     8
 71
     3
 72
    17
 73
    13
 74
     0
 42
0.00000001
 43
0.00000001
 40
0.0
 40
0.0
 40
0.0
 40
0.0
 40
0.1063946180160393
 40
0.2127555893101097
 40
0.3199938176750136
 40
0.4278579086556089
 40
0.5347523340569798
 40
0.6405907482997236
 40
0.7469337726867994
 40
0.8545476870951916
 40
0.9622333756770579
 40
1.0
 40
1.0
 40
1.0
 40
1.0
 10
32.71778105439092
 20
38.34545965474907
 30
0.0
 10
32.71867531443132
 20
38.35461199942648
 30
0.0
 10
32.72046355170721
 20
38.37291379440184
 30
0.0
 10
32.73438885084808
 20
38.39731771232773
 30
0.0
 10
32.75499162539988
 20
38.41603412208519
 30
0.0
 10
32.78090676936269
 20
38.42687429073754
 30
0.0
 10
32.80883815869041
 20
38.4285141030239
 30
0.0
 10
32.83558929112667
 20
38.4209251380059
 30
0.0
 10
32.85840228418052
 20
38.40500641154722
 30
0.0
 10
32.87471961310713
 20
38.38235671815304
 30
0.0
 10
32.88121054054436
 20
38.36114786511607
 30
0.0
 10
32.88166345529095
 20
38.34869344027471
 30
0.0
 10
32.88178105439091
 20
38.34545965474907
 30
0.0
  0
LINE
  5
105
330
1F
100
AcDbEntity
  8
0
  6
Continuous
 62
     7
370
    25
100
AcDbLine
 10
34.1047810544
 20
37.5954596547
 30
0.0
 11
34.1047810544
 21
37.1224596547
 31
0.0
  0
LINE
  5
106
330
1F
100
AcDbEntity
  8
0
  6
Continuous
 62
     7
370
    25
100
AcDbLine
 10
34.6047810544
 20
36.8654596547
 30
0.0
 11
34.6047810544
 21
38.0954596547
 31
0.0
  0
LINE
  5
107
330
1F
100
AcDbEntity
  8
0
  6
Continuous
 62
     7
370
    25
100
AcDbLine
 10
34.6047810544
 20
36.8654596547
 30
0.0
 11
34.1047810544
 21
36.8654596547
 31
0.0
  0
LINE
  5
108
330
1F
100
AcDbEntity
  8
0
  6
Continuous
 62
     7
370
    25
100
AcDbLine
 10
34.1047810544
 20
36.9584596547
 30
0.0
 11
34.1047810544
 21
36.8654596547
 31
0.0
  0
SPLINE
  5
109
330
1F
100
AcDbEntity
  8
0
  6
Continuous
 62
     7
370
    25
100
AcDbSpline
210
0.0
220
0.0
230
1.0
 70
     8
 71
     3
 72
    17
 73
    13
 74
     0
 42
0.00000001
 43
0.00000001
 40
0.0
 40
0.0
 40
0.0
 40
0.0
 40
0.1063946180160423
 40
0.2127555893101097
 40
0.3199938176750139
 40
0.4278579086555999
 40
0.5347523340569681
 40
0.6405907482997186
 40
0.7469337726868012
 40
0.854547687095193
 40
0.9622333756770585
 40
1.0
 40
1.0
 40
1.0
 40
1.0
 10
34.10478105439091
 20
37.12245965474907
 30
0.0
 10
34.11393339906833
 20
37.12156539470868
 30
0.0
 10
34.13223519404367
 20
37.11977715743277
 30
0.0
 10
34.15663911196959
 20
37.10585185829192
 30
0.0
 10
34.17535552172703
 20
37.0852490837401
 30
0.0
 10
34.18619569037938
 20
37.05933393977731
 30
0.0
 10
34.18783550266574
 20
37.03140255044958
 30
0.0
 10
34.18024653764775
 20
37.00465141801332
 30
0.0
 10
34.16432781118906
 20
36.98183842495947
 30
0.0
 10
34.14167811779489
 20
36.96552109603286
 30
0.0
 10
34.12046926475792
 20
36.95903016859564
 30
0.0
 10
34.10801483991656
 20
36.95857725384904
 30
0.0
 10
34.10478105439091
 20
36.95845965474908
 30
0.0
  0
LINE
  5
10A
330
1F
100
AcDbEntity
  8
0
  6
Continuous
 62
     7
370
    25
100
AcDbLine
 10
32.6247810544
 20
37.8454596547
 30
0.0
 11
32.7177810544
 21
37.8454596547
 31
0.0
  0
LINE
  5
10B
330
1F
100
AcDbEntity
  8
0
  6
Continuous
 62
     7
370
    25
100
AcDbLine
 10
32.6247810544
 20
37.8454596547
 30
0.0
 11
32.6247810544
 21
38.3454596547
 31
0.0
  0
SPLINE
  5
10C
330
1F
100
AcDbEntity
  8
0
  6
Continuous
 62
     7
370
    25
100
AcDbSpline
210
0.0
220
0.0
230
1.0
 70
     8
 71
     3
 72
    17
 73
    13
 74
     0
 42
0.00000001
 43
0.00000001
 40
0.0
 40
0.0
 40
0.0
 40
0.0
 40
0.1063946180160387
 40
0.2127555893101004
 40
0.3199938176750163
 40
0.4278579086555954
 40
0.5347523340569657
 40
0.6405907482997254
 40
0.7469337726868006
 40
0.8545476870951922
 40
0.962233375677058
 40
1.0
 40
1.0
 40
1.0
 40
1.0
 10
32.88178105439091
 20
38.34545965474907
 30
0.0
 10
32.88088679435052
 20
38.33630731007167
 30
0.0
 10
32.87909855707463
 20
38.31800551509631
 30
0.0
 10
32.86517325793375
 20
38.2936015971704
 30
0.0
 10
32.84457048338196
 20
38.27488518741296
 30
0.0
 10
32.81865533941914
 20
38.2640450187606
 30
0.0
 10
32.79072395009143
 20
38.26240520647424
 30
0.0
 10
32.76397281765516
 20
38.26999417149224
 30
0.0
 10
32.74115982460131
 20
38.28591289795093
 30
0.0
 10
32.7248424956747
 20
38.30856259134511
 30
0.0
 10
32.71835156823749
 20
38.32977144438208
 30
0.0
 10
32.71789865349088
 20
38.34222586922343
 30
0.0
 10
32.71778105439092
 20
38.34545965474907
 30
0.0
  0
LINE
  5
10D
330
1F
100
AcDbEntity
  8
0
  6
Continuous
 62
     7
370
    25
100
AcDbLine
 10
32.8817810544
 20
37.8454596547
 30
0.0
 11
33.3547810544
 21
37.8454596547
 31
0.0
  0
SPLINE
  5
10E
330
1F
100
AcDbEntity
  8
0
  6
Continuous
 62
     7
370
    25
100
AcDbSpline
210
0.0
220
0.0
230
1.0
 70
     8
 71
     3
 72
    17
 73
    13
 74
     0
 42
0.00000001
 43
0.00000001
 40
0.0
 40
0.0
 40
0.0
 40
0.0
 40
0.1063946180160394
 40
0.2127555893101089
 40
0.3199938176750137
 40
0.4278579086556086
 40
0.5347523340569794
 40
0.6405907482997233
 40
0.7469337726867984
 40
0.8545476870951918
 40
0.9622333756770572
 40
1.0
 40
1.0
 40
1.0
 40
1.0
 10
32.71778105439092
 20
37.84545965474908
 30
0.0
 10
32.71867531443132
 20
37.84561033428217
 30
0.0
 10
32.72046355170722
 20
37.84591164569678
 30
0.0
 10
32.73438885084808
 20
37.84801354862628
 30
0.0
 10
32.75499162539988
 20
37.8503851633555
 30
0.0
 10
32.78090676936269
 20
37.85212479534555
 30
0.0
 10
32.80883815869041
 20
37.85240702903759
 30
0.0
 10
32.83558929112667
 20
37.85114292559476
 30
0.0
 10
32.85840228418052
 20
37.84888740659636
 30
0.0
 10
32.87471961310714
 20
37.84661623670711
 30
0.0
 10
32.88121054054434
 20
37.84555272003752
 30
0.0
 10
32.88166345529095
 20
37.84547883814703
 30
0.0
 10
32.88178105439091
 20
37.84545965474908
 30
0.0
  0
LINE
  5
10F
330
1F
100
AcDbEntity
  8
0
  6
Continuous
 62
     7
370
    25
100
AcDbLine
 10
33.6047810544
 20
37.5954596547
 30
0.0
 11
33.6047810544
 21
37.1224596547
 31
0.0
  0
SPLINE
  5
110
330
1F
100
AcDbEntity
  8
0
  6
Continuous
 62
     7
370
    25
100
AcDbSpline
210
0.0
220
0.0
230
1.0
 70
     8
 71
     3
 72
    17
 73
    13
 74
     0
 42
0.00000001
 43
0.00000001
 40
0.0
 40
0.0
 40
0.0
 40
0.0
 40
0.1063946180160286
 40
0.2127555893100998
 40
0.3199938176750073
 40
0.4278579086555955
 40
0.5347523340569671
 40
0.6405907482997218
 40
0.7469337726868076
 40
0.8545476870951885
 40
0.9622333756770572
 40
1.0
 40
1.0
 40
1.0
 40
1.0
 10
34.10478105439092
 20
36.95845965474908
 30
0.0
 10
34.09562870971351
 20
36.95935391478947
 30
0.0
 10
34.07732691473816
 20
36.96114215206538
 30
0.0
 10
34.05292299681225
 20
36.97506745120623
 30
0.0
 10
34.03420658705481
 20
36.99567022575804
 30
0.0
 10
34.02336641840245
 20
37.02158536972085
 30
0.0
 10
34.02172660611609
 20
37.04951675904857
 30
0.0
 10
34.02931557113408
 20
37.07626789148483
 30
0.0
 10
34.04523429759278
 20
37.09908088453868
 30
0.0
 10
34.06788399098695
 20
37.11539821346529
 30
0.0
 10
34.08909284402391
 20
37.1218891409025
 30
0.0
 10
34.10154726886527
 20
37.12234205564911
 30
0.0
 10
34.10478105439091
 20
37.12245965474907
 30
0.0
  0
LINE
  5
111
330
1F
100
AcDbEntity
  8
0
  6
Continuous
 62
     7
370
    25
100
AcDbLine
 10
33.6047810544
 20
36.9584596547
 30
0.0
 11
33.6047810544
 21
36.8654596547
 31
0.0
  0
SPLINE
  5
112
330
1F
100
AcDbEntity
  8
0
  6
Continuous
 62
     7
370
    25
100
AcDbSpline
210
0.0
220
0.0
230
1.0
 70
     8
 71
     3
 72
    17
 73
    13
 74
     0
 42
0.00000001
 43
0.00000001
 40
0.0
 40
0.0
 40
0.0
 40
0.0
 40
0.1063946180160391
 40
0.2127555893101071
 40
0.3199938176750131
 40
0.4278579086555981
 40
0.5347523340569688
 40
0.6405907482997226
 40
0.7469337726867996
 40
0.8545476870951906
 40
0.9622333756770579
 40
1.0
 40
1.0
 40
1.0
 40
1.0
 10
33.60478105439091
 20
37.12245965474907
 30
0.0
 10
33.60493173392401
 20
37.12156539470868
 30
0.0
 10
33.60523304533861
 20
37.11977715743277
 30
0.0
 10
33.60733494826815
 20
37.10585185829192
 30
0.0
 10
33.60970656299734
 20
37.0852490837401
 30
0.0
 10
33.61144619498739
 20
37.05933393977731
 30
0.0
 10
33.61172842867943
 20
37.03140255044958
 30
0.0
 10
33.6104643252366
 20
37.00465141801332
 30
0.0
 10
33.6082088062382
 20
36.98183842495947
 30
0.0
 10
33.60593763634893
 20
36.96552109603286
 30
0.0
 10
33.60487411967937
 20
36.95903016859564
 30
0.0
 10
33.60480023778888
 20
36.95857725384904
 30
0.0
 10
33.60478105439091
 20
36.95845965474908
 30
0.0
  0
LINE
  5
113
330
1F
100
AcDbEntity
  8
0
  6
Continuous
 62
     7
370
    25
100
AcDbLine
 10
34.1047810544
 20
36.8654596547
 30
0.0
 11
33.6047810544
 21
36.8654596547
 31
0.0
  0
LINE
  5
114
330
1F
100
AcDbEntity
  8
0
  6
Continuous
 62
     7
370
    25
100
AcDbLine
 10
32.8817810544
 20
37.8454596547
 30
0.0
 11
32.8806941497
 21
37.8456330866
 31
0.0
  0
LINE
  5
115
330
1F
100
AcDbEntity
  8
0
  6
Continuous
 62
     7
370
    25
100
AcDbLine
 10
31.5969787154
 20
33.0558617666
 30
0.0
 11
32.2661093217
 21
32.3127169411
 31
0.0
  0
SPLINE
  5
116
330
1F
100
AcDbEntity
  8
0
  6
Continuous
 62
     7
370
    25
100
AcDbSpline
210
0.0
220
0.0
230
1.0
 70
    11
 71
     3
 72
    26
 73
    22
 74
     0
 42
0.00000001
 43
0.00000001
 40
0.0
 40
0.0
 40
0.0
 40
0.0
 40
0.0537251758594344
 40
0.1074609857094003
 40
0.1608938846952809
 40
0.2140522071505189
 40
0.2674739592245823
 40
0.3212955354288901
 40
0.3750323900123281
 40
0.4283227200322505
 40
0.4815049073880127
 40
0.5350819083788171
 40
0.5889440600633058
 40
0.6425388798048044
 40
0.6957355291567185
 40
0.7490160057716653
 40
0.8027316091568574
 40
0.8565656934395475
 40
0.9100061417794908
 40
0.9631563476588269
 40
1.0
 40
1.0
 40
1.0
 40
1.0
 10
32.09429273534577
 20
32.89882895666878
 30
0.0
 10
32.10193488688012
 20
32.89807855086877
 30
0.0
 10
32.11722070258354
 20
32.89657759073859
 30
0.0
 10
32.13756329624786
 20
32.88486765732932
 30
0.0
 10
32.15299167366628
 20
32.86766388723653
 30
0.0
 10
32.16182886865106
 20
32.84627181231114
 30
0.0
 10
32.16316421189882
 20
32.82318200783984
 30
0.0
 10
32.15677488049973
 20
32.80083794709782
 30
0.0
 10
32.14332372315149
 20
32.78185819730405
 30
0.0
 10
32.12442805374392
 20
32.7684445746396
 30
0.0
 10
32.10223831548922
 20
32.76200240025917
 30
0.0
 10
32.07910244501923
 20
32.76321364136722
 30
0.0
 10
32.05758238203841
 20
32.77204365829814
 30
0.0
 10
32.04022127265772
 20
32.78749731416152
 30
0.0
 10
32.02897907232089
 20
32.80772339516692
 30
0.0
 10
32.0250048567754
 20
32.83049562946992
 30
0.0
 10
32.02876301192372
 20
32.8533857456765
 30
0.0
 10
32.03992810810882
 20
32.87382918053246
 30
0.0
 10
32.05717361828678
 20
32.88926101554076
 30
0.0
 10
32.07630093061006
 20
32.89759967341426
 30
0.0
 10
32.0890664911871
 20
32.89847187551307
 30
0.0
 10
32.09429273534577
 20
32.89882895666878
 30
0.0
  0
LINE
  5
117
330
1F
100
AcDbEntity
  8
0
  6
Continuous
 62
     7
370
    25
100
AcDbLine
 10
33.6047810544
 20
36.8654596547
 30
0.0
 11
34.6047810544
 21
36.8654596547
 31
0.0
  0
SPLINE
  5
118
330
1F
100
AcDbEntity
  8
0
  6
Continuous
 62
     7
370
    25
100
AcDbSpline
210
0.0
220
0.0
230
1.0
 70
    11
 71
     3
 72
    26
 73
    22
 74
     0
 42
0.00000001
 43
0.00000001
 40
0.0
 40
0.0
 40
0.0
 40
0.0
 40
0.0533523293338618
 40
0.1066929484900669
 40
0.1603384707460855
 40
0.2141954494453032
 40
0.2677171366855046
 40
0.3208792056823281
 40
0.3742182572953146
 40
0.4279931446424051
 40
0.4817867193100497
 40
0.5351555990550558
 40
0.5883193806807369
 40
0.6418074525900653
 40
0.6956547967512765
 40
0.7493347445872669
 40
0.8025744086015804
 40
0.8557908972612897
 40
0.9094334248801225
 40
0.9632905742426385
 40
0.9999999999999999
 40
0.9999999999999999
 40
0.9999999999999999
 40
0.9999999999999999
 10
34.10478105439091
 20
36.71445965474907
 30
0.0
 10
34.09717371158882
 20
36.71371489682557
 30
0.0
 10
34.08196069570248
 20
36.71222554444374
 30
0.0
 10
34.06168714551798
 20
36.70062380985186
 30
0.0
 10
34.04618092816887
 20
36.68348343066243
 30
0.0
 10
34.03723601416306
 20
36.66197261887424
 30
0.0
 10
34.03591804367291
 20
36.63879079390841
 30
0.0
 10
34.04228705058242
 20
36.61655645915241
 30
0.0
 10
34.05559753580853
 20
36.59765091212978
 30
0.0
 10
34.07447557492458
 20
36.58413045492848
 30
0.0
 10
34.09681540369308
 20
36.5776181562942
 30
0.0
 10
34.11997582383042
 20
36.5788623611523
 30
0.0
 10
34.14136217154594
 20
36.58762263310236
 30
0.0
 10
34.1587138679663
 20
36.60294669185075
 30
0.0
 10
34.17007867005854
 20
36.62322818738521
 30
0.0
 10
34.17407541943242
 20
36.64613973389501
 30
0.0
 10
34.17029769108751
 20
36.66897987125775
 30
0.0
 10
34.15924877381276
 20
36.68930066113037
 30
0.0
 10
34.14209185512097
 20
36.70478885499257
 30
0.0
 10
34.12287602737212
 20
36.71322284136006
 30
0.0
 10
34.11000007496555
 20
36.71410292835159
 30
0.0
 10
34.10478105439091
 20
36.71445965474907
 30
0.0
  0
LINE
  5
119
330
1F
100
AcDbEntity
  8
0
  6
Continuous
 62
     7
370
    25
100
AcDbLine
 10
30.9586931261
 20
32.474418677
 30
0.0
 11
31.05292389
 21
32.5592644378
 31
0.0
  0
LINE
  5
11A
330
1F
100
AcDbEntity
  8
0
  6
Continuous
 62
     7
370
    25
100
AcDbLine
 10
28.2167687122
 20
30.415996828
 30
0.0
 11
28.310999476
 21
30.5008425889
 31
0.0
  0
CIRCLE
  5
11B
330
1F
100
AcDbEntity
  8
0
  6
Continuous
 62
     7
370
    25
100
AcDbCircle
 10
32.0942927353
 20
32.8308289567
 30
0.0
 40
0.0634000000000005
  0
LINE
  5
11C
330
1F
100
AcDbEntity
  8
0
  6
Continuous
 62
     7
370
    25
100
AcDbLine
 10
32.0492985447
 20
32.8327058717
 30
0.0
 11
32.070170184
 21
32.7928013021
 31
0.0
  0
LINE
  5
11D
330
1F
100
AcDbEntity
  8
0
  6
Continuous
 62
     7
370
    25
100
AcDbLine
 10
32.1151643746
 20
32.7909243871
 30
0.0
 11
32.070170184
 21
32.7928013021
 31
0.0
  0
LINE
  5
11E
330
1F
100
AcDbEntity
  8
0
  6
Continuous
 62
     7
370
    25
100
AcDbLine
 10
32.139286926
 20
32.8289520417
 30
0.0
 11
32.1151643746
 21
32.7909243871
 31
0.0
  0
LINE
  5
11F
330
1F
100
AcDbEntity
  8
0
  6
Continuous
 62
     7
370
    25
100
AcDbLine
 10
32.139286926
 20
32.8289520417
 30
0.0
 11
32.1184152867
 21
32.8688566113
 31
0.0
  0
LINE
  5
120
330
1F
100
AcDbEntity
  8
0
  6
Continuous
 62
     7
370
    25
100
AcDbLine
 10
32.0734210961
 20
32.8707335263
 30
0.0
 11
32.1184152867
 21
32.8688566113
 31
0.0
  0
LINE
  5
121
330
1F
100
AcDbEntity
  8
0
  6
Continuous
 62
     7
370
    25
100
AcDbLine
 10
32.0734210961
 20
32.8707335263
 30
0.0
 11
32.0492985447
 21
32.8327058717
 31
0.0
  0
CIRCLE
  5
122
330
1F
100
AcDbEntity
  8
0
  6
Continuous
 62
     7
370
    25
100
AcDbCircle
 10
31.3370281582
 20
32.1489848688
 30
0.0
 40
0.063399999999999
  0
LINE
  5
123
330
1F
100
AcDbEntity
  8
0
  6
Continuous
 62
     7
370
    25
100
AcDbLine
 10
31.3799847644
 20
32.1354671032
 30
0.0
 11
31.3702131896
 21
32.1794274982
 31
0.0
  0
LINE
  5
124
330
1F
100
AcDbEntity
  8
0
  6
Continuous
 62
     7
370
    25
100
AcDbLine
 10
31.3272565835
 20
32.1929452638
 30
0.0
 11
31.3702131896
 21
32.1794274982
 31
0.0
  0
LINE
  5
125
330
1F
100
AcDbEntity
  8
0
  6
Continuous
 62
     7
370
    25
100
AcDbLine
 10
31.294071552
 20
32.1625026343
 30
0.0
 11
31.3272565835
 21
32.1929452638
 31
0.0
  0
LINE
  5
126
330
1F
100
AcDbEntity
  8
0
  6
Continuous
 62
     7
370
    25
100
AcDbLine
 10
31.294071552
 20
32.1625026343
 30
0.0
 11
31.3038431267
 21
32.1185422393
 31
0.0
  0
LINE
  5
127
330
1F
100
AcDbEntity
  8
0
  6
Continuous
 62
     7
370
    25
100
AcDbLine
 10
31.3467997329
 20
32.1050244738
 30
0.0
 11
31.3038431267
 21
32.1185422393
 31
0.0
  0
LINE
  5
128
330
1F
100
AcDbEntity
  8
0
  6
Continuous
 62
     7
370
    25
100
AcDbLine
 10
31.3467997329
 20
32.1050244738
 30
0.0
 11
31.3799847644
 21
32.1354671032
 31
0.0
  0
LINE
  5
129
330
1F
100
AcDbEntity
  8
0
  6
Continuous
 62
     7
370
    25
100
AcDbLine
 10
34.1302960608
 20
37.0775673958
 30
0.0
 11
34.0854023112
 21
37.081110169
 31
0.0
  0
LINE
  5
12A
330
1F
100
AcDbEntity
  8
0
  6
Continuous
 62
     7
370
    25
100
AcDbLine
 10
34.0598873047
 20
37.044002428
 30
0.0
 11
34.0854023112
 21
37.081110169
 31
0.0
  0
LINE
  5
12B
330
1F
100
AcDbEntity
  8
0
  6
Continuous
 62
     7
370
    25
100
AcDbLine
 10
34.079266048
 20
37.0033519137
 30
0.0
 11
34.0598873047
 21
37.044002428
 31
0.0
  0
LINE
  5
12C
330
1F
100
AcDbEntity
  8
0
  6
Continuous
 62
     7
370
    25
100
AcDbLine
 10
34.079266048
 20
37.0033519137
 30
0.0
 11
34.1241597976
 21
36.9998091405
 31
0.0
  0
LINE
  5
12D
330
1F
100
AcDbEntity
  8
0
  6
Continuous
 62
     7
370
    25
100
AcDbLine
 10
34.149674804
 20
37.0369168815
 30
0.0
 11
34.1241597976
 21
36.9998091405
 31
0.0
  0
LINE
  5
12E
330
1F
100
AcDbEntity
  8
0
  6
Continuous
 62
     7
370
    25
100
AcDbLine
 10
34.149674804
 20
37.0369168815
 30
0.0
 11
34.1302960608
 21
37.0775673958
 31
0.0
  0
CIRCLE
  5
12F
330
1F
100
AcDbEntity
  8
0
  6
Continuous
 62
     7
370
    25
100
AcDbCircle
 10
34.1047810544
 20
37.0404596547
 30
0.0
 40
0.0634000000000004
  0
CIRCLE
  5
130
330
1F
100
AcDbEntity
  8
0
  6
Continuous
 62
     7
370
    25
100
AcDbCircle
 10
34.1047810544
 20
37.0404596547
 30
0.0
 40
0.074339840920591
  0
LWPOLYLINE
  5
131
330
1F
100
AcDbEntity
  8
0
  6
Continuous
 62
     7
370
    25
100
AcDbPolyline
 90
       28
 70
   128
 43
0.0
 10
29.0301015296
 20
29.6074490355
 10
29.0202262871
 20
29.5965657927
 10
29.0128640463
 20
29.5840695617
 10
29.0084117074
 20
29.5706340175
 10
29.0071092972
 20
29.5569834739
 10
29.0090270289
 20
29.5438538351
 10
29.0140615172
 20
29.5319529233
 10
29.0219413514
 20
29.5219223199
 10
29.0322417277
 20
29.5143027773
 10
29.0444073501
 20
29.5095050669
 10
29.0577823668
 20
29.5077878346
 10
29.0716457271
 20
29.5092436567
 10
29.0852500538
 20
29.5137940497
 10
29.0978619339
 20
29.5211937005
 10
29.1088014579
 20
29.5310436921
 10
29.1174788731
 20
29.542813009
 10
29.1234263779
 20
29.5558671641
 10
29.1263233407
 20
29.5695024046
 10
29.1260135855
 20
29.5829836512
 10
29.1225138112
 20
29.5955841264
 10
29.1160126917
 20
29.6066245352
 10
29.106860704
 20
29.6155096865
 10
29.0955512341
 20
29.6217605793
 10
29.0826939783
 20
29.6250402265
 10
29.0689820748
 20
29.6251718213
 10
29.0551547358
 20
29.6221482696
 10
29.0419573968
 20
29.6161325717
 10
29.0301015296
 20
29.6074490355
  0
LINE
  5
132
330
1F
100
AcDbEntity
  8
0
  6
Continuous
 62
     7
370
    25
100
AcDbLine
 10
29.0509062204
 20
29.5260585001
 30
0.0
 11
29.0929369154
 21
29.5376632697
 31
0.0
  0
LINE
  5
133
330
1F
100
AcDbEntity
  8
0
  6
Continuous
 62
     7
370
    25
100
AcDbLine
 10
29.1088715167
 20
29.5782506874
 30
0.0
 11
29.0929369154
 21
29.5376632697
 31
0.0
  0
LINE
  5
134
330
1F
100
AcDbEntity
  8
0
  6
Continuous
 62
     7
370
    25
100
AcDbLine
 10
29.0827754231
 20
29.6072333356
 30
0.0
 11
29.1088715167
 21
29.5782506874
 31
0.0
  0
LINE
  5
135
330
1F
100
AcDbEntity
  8
0
  6
Continuous
 62
     7
370
    25
100
AcDbLine
 10
29.0827754231
 20
29.6072333356
 30
0.0
 11
29.0407447281
 21
29.5956285661
 31
0.0
  0
LINE
  5
136
330
1F
100
AcDbEntity
  8
0
  6
Continuous
 62
     7
370
    25
100
AcDbLine
 10
29.0248101267
 20
29.5550411483
 30
0.0
 11
29.0407447281
 21
29.5956285661
 31
0.0
  0
LINE
  5
137
330
1F
100
AcDbEntity
  8
0
  6
Continuous
 62
     7
370
    25
100
AcDbLine
 10
29.0248101267
 20
29.5550411483
 30
0.0
 11
29.0509062204
 21
29.5260585001
 31
0.0
  0
LINE
  5
138
330
1F
100
AcDbEntity
  8
0
  6
Continuous
 62
     7
370
    25
100
AcDbLine
 10
29.0272616038
 20
29.5612853664
 30
0.0
 11
29.0628260381
 21
29.5711047868
 31
0.0
  0
LINE
  5
139
330
1F
100
AcDbEntity
  8
0
  6
Continuous
 62
     7
370
    25
100
AcDbLine
 10
29.0628260381
 20
29.5711047868
 30
0.0
 11
29.0929369154
 21
29.5376632697
 31
0.0
  0
LINE
  5
13A
330
1F
100
AcDbEntity
  8
0
  6
Continuous
 62
     7
370
    25
100
AcDbLine
 10
29.0763091623
 20
29.6054479865
 30
0.0
 11
29.0628260381
 21
29.5711047868
 31
0.0
  0
LINE
  5
13B
330
1F
100
AcDbEntity
  8
0
  6
Continuous
 62
     7
370
    25
100
AcDbLine
 10
32.7915903327
 20
37.8454596547
 30
0.0
 11
32.7363810544
 21
37.8454596547
 31
0.0
  0
LINE
  5
13C
330
1F
100
AcDbEntity
  8
0
  6
Continuous
 62
     7
370
    25
100
AcDbLine
 10
32.8631810544
 20
37.8454596547
 30
0.0
 11
32.7915903327
 21
37.8454596547
 31
0.0
  0
CIRCLE
  5
13D
330
1F
100
AcDbEntity
  8
0
  6
Continuous
 62
     7
370
    25
100
AcDbCircle
 10
32.7997810544
 20
38.3454596547
 30
0.0
 40
0.0633999999999934
  0
CIRCLE
  5
13E
330
1F
100
AcDbEntity
  8
0
  6
Continuous
 62
     7
370
    25
100
AcDbCircle
 10
32.7997810544
 20
38.3454596547
 30
0.0
 40
0.0743398409205915
  0
LINE
  5
13F
330
1F
100
AcDbEntity
  8
0
  6
Continuous
 62
     7
370
    25
100
AcDbLine
 10
32.821408481
 20
38.3059595988
 30
0.0
 11
32.8448028196
 21
38.3444395277
 31
0.0
  0
LINE
  5
140
330
1F
100
AcDbEntity
  8
0
  6
Continuous
 62
     7
370
    25
100
AcDbLine
 10
32.823175393
 20
38.3839395836
 30
0.0
 11
32.8448028196
 21
38.3444395277
 31
0.0
  0
LINE
  5
141
330
1F
100
AcDbEntity
  8
0
  6
Continuous
 62
     7
370
    25
100
AcDbLine
 10
32.7781536278
 20
38.3849597107
 30
0.0
 11
32.823175393
 21
38.3839395836
 31
0.0
  0
LINE
  5
142
330
1F
100
AcDbEntity
  8
0
  6
Continuous
 62
     7
370
    25
100
AcDbLine
 10
32.7781536278
 20
38.3849597107
 30
0.0
 11
32.7547592892
 21
38.3464797818
 31
0.0
  0
LINE
  5
143
330
1F
100
AcDbEntity
  8
0
  6
Continuous
 62
     7
370
    25
100
AcDbLine
 10
32.7763867158
 20
38.3069797259
 30
0.0
 11
32.7547592892
 21
38.3464797818
 31
0.0
  0
LINE
  5
144
330
1F
100
AcDbEntity
  8
0
  6
Continuous
 62
     7
370
    25
100
AcDbLine
 10
32.7763867158
 20
38.3069797259
 30
0.0
 11
32.821408481
 21
38.3059595988
 31
0.0
  0
LINE
  5
145
330
1F
100
AcDbEntity
  8
0
  6
Continuous
 62
     7
370
    25
100
AcDbLine
 10
33.6047810544
 20
36.9770596548
 30
0.0
 11
33.6047810544
 21
37.1038596548
 31
0.0
  0
LINE
  5
146
330
1F
100
AcDbEntity
  8
0
  6
Continuous
 62
     7
370
    25
100
AcDbLine
 10
34.0623674742
 20
36.6313239944
 30
0.0
 11
34.0966821306
 21
36.6021605867
 31
0.0
  0
LINE
  5
147
330
1F
100
AcDbEntity
  8
0
  6
Continuous
 62
     7
370
    25
100
AcDbLine
 10
34.1390957108
 20
36.617296247
 30
0.0
 11
34.0966821306
 21
36.6021605867
 31
0.0
  0
LINE
  5
148
330
1F
100
AcDbEntity
  8
0
  6
Continuous
 62
     7
370
    25
100
AcDbLine
 10
34.1471946346
 20
36.6615953151
 30
0.0
 11
34.1390957108
 21
36.617296247
 31
0.0
  0
LINE
  5
149
330
1F
100
AcDbEntity
  8
0
  6
Continuous
 62
     7
370
    25
100
AcDbLine
 10
34.1471946346
 20
36.6615953151
 30
0.0
 11
34.1128799782
 21
36.6907587228
 31
0.0
  0
LINE
  5
14A
330
1F
100
AcDbEntity
  8
0
  6
Continuous
 62
     7
370
    25
100
AcDbLine
 10
34.0704663979
 20
36.6756230625
 30
0.0
 11
34.1128799782
 21
36.6907587228
 31
0.0
  0
LINE
  5
14B
330
1F
100
AcDbEntity
  8
0
  6
Continuous
 62
     7
370
    25
100
AcDbLine
 10
34.0704663979
 20
36.6756230625
 30
0.0
 11
34.0623674742
 21
36.6313239944
 31
0.0
  0
CIRCLE
  5
14C
330
1F
100
AcDbEntity
  8
0
  6
Continuous
 62
     7
370
    25
100
AcDbCircle
 10
34.1047810544
 20
36.6464596547
 30
0.0
 40
0.0634000000000046
  0
LINE
  5
14D
330
1F
100
AcDbEntity
  8
0
  6
Continuous
 62
     7
370
    25
100
AcDbLine
 10
32.6247810544
 20
38.318059358
 30
0.0
 11
32.6247810544
 21
38.8454596547
 31
0.0
  0
LINE
  5
14E
330
1F
100
AcDbEntity
  8
0
  6
Continuous
 62
     7
370
    25
100
AcDbLine
 10
32.6247810544
 20
37.8454596547
 30
0.0
 11
32.6247810544
 21
38.318059358
 31
0.0
  0
LINE
  5
14F
330
1F
100
AcDbEntity
  8
0
  6
Continuous
 62
     7
370
    25
100
AcDbLine
 10
6.4997810544
 20
40.6258790241
 30
0.0
 11
6.4997810544
 21
41.5704596547
 31
0.0
  0
LINE
  5
150
330
1F
100
AcDbEntity
  8
0
  6
Continuous
 62
     7
370
    25
100
AcDbLine
 10
6.4997810544
 20
35.1204596547
 30
0.0
 11
6.4997810544
 21
40.6258790241
 31
0.0
  0
LINE
  5
151
330
1F
100
AcDbEntity
  8
0
  6
Continuous
 62
     7
370
    25
100
AcDbLine
 10
6.6847810544
 20
40.3253586421
 30
0.0
 11
6.6847810544
 21
40.3478535505
 31
0.0
  0
LINE
  5
152
330
1F
100
AcDbEntity
  8
0
  6
Continuous
 62
     7
370
    25
100
AcDbLine
 10
6.6847810544
 20
40.5857064462
 30
0.0
 11
6.6847810544
 21
41.1454596547
 31
0.0
  0
LINE
  5
153
330
1F
100
AcDbEntity
  8
0
  6
Continuous
 62
     7
370
    25
100
AcDbLine
 10
6.6847810544
 20
35.5454596547
 30
0.0
 11
6.6847810544
 21
36.1052128633
 31
0.0
  0
LINE
  5
154
330
1F
100
AcDbEntity
  8
0
  6
Continuous
 62
     7
370
    25
100
AcDbLine
 10
6.6847810544
 20
36.343065759
 30
0.0
 11
6.6847810544
 21
40.3253586421
 31
0.0
  0
LINE
  5
155
330
1F
100
AcDbEntity
  8
0
  6
Continuous
 62
     7
370
    25
100
AcDbLine
 10
7.3747810544
 20
40.3253586421
 30
0.0
 11
7.3747810544
 21
41.1454596547
 31
0.0
  0
LINE
  5
156
330
1F
100
AcDbEntity
  8
0
  6
Continuous
 62
     7
370
    25
100
AcDbLine
 10
7.3747810544
 20
35.5454596547
 30
0.0
 11
7.3747810544
 21
40.3253586421
 31
0.0
  0
LINE
  5
157
330
1F
100
AcDbEntity
  8
0
  6
Continuous
 62
     7
370
    25
100
AcDbLine
 10
30.3889239884
 20
31.9613962411
 30
0.0
 11
30.6104592932
 21
31.7153563591
 31
0.0
  0
LINE
  5
158
330
1F
100
AcDbEntity
  8
0
  6
Continuous
 62
     7
370
    25
100
AcDbLine
 10
30.8298279839
 20
31.4717227458
 30
0.0
 11
31.0513632887
 21
31.2256828638
 31
0.0
  0
LINE
  5
159
330
1F
100
AcDbEntity
  8
0
  6
Continuous
 62
     7
370
    25
100
AcDbLine
 10
28.4571017487
 20
30.6323936661
 30
0.0
 11
29.5277107189
 21
29.4433619453
 31
0.0
  0
LINE
  5
15A
330
1F
100
AcDbEntity
  8
0
  6
Continuous
 62
     7
370
    25
100
AcDbLine
 10
32.8603249187
 20
34.1933837974
 30
0.0
 11
33.5294555251
 21
33.4502389719
 31
0.0
  0
LINE
  5
15B
330
1F
100
AcDbEntity
  8
0
  6
Continuous
 62
     7
370
    25
100
AcDbLine
 10
33.6047810544
 20
35.8654596547
 30
0.0
 11
34.6047810544
 21
35.8654596547
 31
0.0
  0
LINE
  5
15C
330
1F
100
AcDbEntity
  8
VP
100
AcDbLine
 10
26.8543355455
 20
27.039802673
 30
0.0
 11
25.5734743539
 21
28.4623431422
 31
0.0
  0
DIMENSION
  5
15D
330
1F
100
AcDbEntity
  8
0
  6
Continuous
 62
     7
370
    18
100
AcDbDimension
  2
_D
 10
29.6917786305
 20
23.8885028727
 30
0.0
 11
31.893345176
 21
25.870802294
 31
0.0
 70
   160
  1
<>
 71
     2
 42
-1.0
  3
SLDDIMSTYLE0
100
AcDbAlignedDimension
 13
30.7239336772
 23
31.5969521185
 33
0.0
 14
26.8543355455
 24
27.039802673
 34
0.0
 50
42.0
100
AcDbRotatedDimension
  0
DIMENSION
  5
172
330
1F
100
AcDbEntity
  8
0
  6
Continuous
 62
     7
370
    18
100
AcDbDimension
  2
_D_1
 10
32.6247810544
 20
45.3749872138
 30
0.0
 11
20.6247810544
 21
45.3749872138
 31
0.0
 70
   160
  1
SPECIFY PROJECTION LENGTH\P18"-48"\P[457mm-1219mm]
 71
     2
 42
-1.0
  3
SLDDIMSTYLE1
100
AcDbAlignedDimension
 13
8.6247810544
 23
39.8954596547
 33
0.0
 14
32.6247810544
 24
38.8454596547
 34
0.0
100
AcDbRotatedDimension
  0
DIMENSION
  5
180
330
1F
100
AcDbEntity
  8
0
  6
Continuous
 62
     7
370
    18
100
AcDbDimension
  2
_D_2
 10
37.8980361987
 20
38.8454596547
 30
0.0
 11
37.8980361987
 21
35.2212058866
 31
0.0
 70
   160
  1
<>
 71
     2
 42
-1.0
  3
SLDDIMSTYLE0
100
AcDbAlignedDimension
 13
30.7239336772
 23
31.5969521185
 33
0.0
 14
33.8547810544
 24
38.8454596547
 34
0.0
 50
90.0
100
AcDbRotatedDimension
  0
DIMENSION
  5
194
330
1F
100
AcDbEntity
  8
0
  6
Continuous
 62
     7
370
    18
100
AcDbDimension
  2
_D_3
 10
27.4715631121
 20
31.7120004443
 30
0.0
 11
26.2219723333
 21
30.5868638533
 31
0.0
 70
   160
  1
<>
 71
     2
 42
-1.0
  3
SLDDIMSTYLE0
100
AcDbAlignedDimension
 13
30.7239336772
 23
31.5969521185
 33
0.0
 14
28.4496703005
 24
30.62570236
 34
0.0
 50
42.0
100
AcDbRotatedDimension
  0
DIMENSION
  5
1A9
330
1F
100
AcDbEntity
  8
0
  6
Continuous
 62
     7
370
    18
100
AcDbDimension
  2
_D_4
 10
24.7624207941
 20
25.1526756248
 30
0.0
 11
22.4245149262
 21
27.7491831401
 31
0.0
 70
   160
  1
%%c<>
 71
     2
 42
-1.0
  3
SLDDIMSTYLE2
100
AcDbAlignedDimension
 13
26.9725625644
 23
29.2957085806
 33
0.0
 14
26.8561050713
 24
27.0378374155
 34
0.0
 50
-48.0
100
AcDbRotatedDimension
  0
DIMENSION
  5
1BE
330
1F
100
AcDbEntity
  8
0
  6
Continuous
 62
     7
370
    18
100
AcDbDimension
  2
_D_5
 10
6.3467810544
 20
45.3749872138
 30
0.0
 11
3.0398136885
 21
45.3749872138
 31
0.0
 70
   160
  1
<>
 71
     2
 42
-1.0
  3
SLDDIMSTYLE0
100
AcDbAlignedDimension
 13
8.6247810544
 23
39.8954596547
 33
0.0
 14
6.3467810544
 24
41.5704596547
 34
0.0
100
AcDbRotatedDimension
  0
DIMENSION
  5
1D2
330
1F
100
AcDbEntity
  8
0
  6
Continuous
 62
     7
370
    18
100
AcDbDimension
  2
_D_6
 10
34.6047810544
 20
45.3749872138
 30
0.0
 11
37.7667862445
 21
45.3749872138
 31
0.0
 70
   160
  1
<>
 71
     2
 42
-1.0
  3
SLDDIMSTYLE1
100
AcDbAlignedDimension
 13
32.6247810544
 23
38.8454596547
 33
0.0
 14
34.6047810544
 24
38.0954596547
 34
0.0
100
AcDbRotatedDimension
  0
DIMENSION
  5
1E6
330
1F
100
AcDbEntity
  8
0
  6
Continuous
 62
     7
370
    18
100
AcDbDimension
  2
_D_7
 10
11.4719279176
 20
37.8454596547
 30
0.0
 11
11.4719279176
 21
35.5613362103
 31
0.0
 70
   160
  1
%%c<>
 71
     2
 42
-1.0
  3
SLDDIMSTYLE3
100
AcDbAlignedDimension
 13
8.6247810544
 23
38.8454596547
 33
0.0
 14
8.6247810544
 24
37.8454596547
 34
0.0
 50
90.0
100
AcDbRotatedDimension
  0
ARC
  5
1F9
330
1F
100
AcDbEntity
  8
0
  6
Continuous
 62
     7
370
    25
100
AcDbCircle
 10
62.6004471343
 20
43.365476606
 30
0.0
 40
0.1804759332985956
100
AcDbArc
 50
158.0120296182
 51
261.9825938491
  0
LINE
  5
1FA
330
1F
100
AcDbEntity
  8
0
  6
Continuous
 62
     7
370
    25
100
AcDbLine
 10
62.6142708551
 20
43.1933284653
 30
0.0
 11
62.6248774568
 21
43.1994515262
 31
0.0
  0
LINE
  5
1FB
330
1F
100
AcDbEntity
  8
0
  6
Continuous
 62
     7
370
    25
100
AcDbLine
 10
62.4673538243
 20
43.4687718783
 30
0.0
 11
62.4582835328
 21
43.4635357104
 31
0.0
  0
ARC
  5
1FC
330
1F
100
AcDbEntity
  8
0
  6
Continuous
 62
     7
370
    25
100
AcDbCircle
 10
59.6004471343
 20
48.5616290134
 30
0.0
 40
0.1804759332986022
100
AcDbArc
 50
158.0120296182
 51
261.9825938491
  0
LINE
  5
1FD
330
1F
100
AcDbEntity
  8
0
  6
Continuous
 62
     7
370
    25
100
AcDbLine
 10
59.6142708551
 20
48.3894808728
 30
0.0
 11
59.6233411466
 21
48.3947170407
 31
0.0
  0
LINE
  5
1FE
330
1F
100
AcDbEntity
  8
0
  6
Continuous
 62
     7
370
    25
100
AcDbLine
 10
59.4688901345
 20
48.6658111787
 30
0.0
 11
59.4582835328
 21
48.6596881179
 31
0.0
  0
ARC
  5
1FF
330
1F
100
AcDbEntity
  8
0
  6
Continuous
 62
     7
370
    25
100
AcDbCircle
 10
62.6004471343
 20
46.8297658772
 30
0.0
 40
0.1804759332985977
100
AcDbArc
 50
158.0120296182
 51
261.9825938491
  0
LINE
  5
200
330
1F
100
AcDbEntity
  8
0
  6
Continuous
 62
     7
370
    25
100
AcDbLine
 10
62.6142708551
 20
46.6576177365
 30
0.0
 11
62.6248774568
 21
46.6637407974
 31
0.0
  0
LINE
  5
201
330
1F
100
AcDbEntity
  8
0
  6
Continuous
 62
     7
370
    25
100
AcDbLine
 10
62.4688901345
 20
46.9339480424
 30
0.0
 11
62.4582835328
 21
46.9278249816
 31
0.0
  0
SPLINE
  5
202
330
1F
100
AcDbEntity
  8
0
  6
Continuous
 62
     7
370
    25
100
AcDbSpline
210
0.0
220
0.0
230
1.0
 70
     8
 71
     3
 72
    42
 73
    38
 74
     0
 42
0.00000001
 43
0.00000001
 40
0.0
 40
0.0
 40
0.0
 40
0.0
 40
0.0254477455292199
 40
0.0515745165356366
 40
0.0776752512749408
 40
0.1037734038449267
 40
0.1298927178264681
 40
0.1560575287392127
 40
0.1822928897016983
 40
0.2086246635108569
 40
0.2350795660848886
 40
0.2616851416404922
 40
0.288469644311855
 40
0.3154617948312018
 40
0.342690375247038
 40
0.3701836210567225
 40
0.3979683712435562
 40
0.4260689465571401
 40
0.4545057502886421
 40
0.4832936294964529
 40
0.5124401017187956
 40
0.5419436393815922
 40
0.571792294974246
 40
0.6019630109296374
 40
0.6324219428033095
 40
0.6631259943343475
 40
0.6940255198619304
 40
0.725067858172512
 40
0.7562011351655781
 40
0.7873733284980678
 40
0.818536426572135
 40
0.8496610573186697
 40
0.8807265948325158
 40
0.9117206299462052
 40
0.9426379658982985
 40
0.973479440386414
 40
1.0
 40
1.0
 40
1.0
 40
1.0
 10
59.11645214205137
 20
48.05129079067783
 30
0.0
 10
59.09191042037759
 20
48.03665543335556
 30
0.0
 10
59.04217212710424
 20
48.00699420158335
 30
0.0
 10
58.97016079592395
 20
47.95774260992511
 30
0.0
 10
58.89995530428931
 20
47.90481531219532
 30
0.0
 10
58.83252984731682
 20
47.84844423046365
 30
0.0
 10
58.76792717470006
 20
47.78883152145021
 30
0.0
 10
58.7062500981865
 20
47.72606132749095
 30
0.0
 10
58.64757670897617
 20
47.66024540009796
 30
0.0
 10
58.59198345769036
 20
47.59148245337787
 30
0.0
 10
58.53953963326049
 20
47.51986762011639
 30
0.0
 10
58.49030982770292
 20
47.44548866286762
 30
0.0
 10
58.44435454564522
 20
47.36842610295306
 30
0.0
 10
58.40173157545542
 20
47.28875282223088
 30
0.0
 10
58.36249735286892
 20
47.20653454215111
 30
0.0
 10
58.32670841651952
 20
47.12183103270316
 30
0.0
 10
58.29442276400817
 20
47.03469832823556
 30
0.0
 10
58.26570093077311
 20
46.94519208023499
 30
0.0
 10
58.24060654565224
 20
46.85337212385792
 30
0.0
 10
58.21920608891574
 20
46.75930817020323
 30
0.0
 10
58.20156758568421
 20
46.6630862989301
 30
0.0
 10
58.18775804730781
 20
46.56481561599094
 30
0.0
 10
58.17783964784312
 20
46.46463412086688
 30
0.0
 10
58.17186489256667
 20
46.36271260817722
 30
0.0
 10
58.16987135486237
 20
46.25925545679844
 30
0.0
 10
58.17187682230299
 20
46.15449754948066
 30
0.0
 10
58.17787578945408
 20
46.0486973125082
 30
0.0
 10
58.18783801954863
 20
45.9421267619218
 30
0.0
 10
58.20170894415814
 20
45.8350652505728
 30
0.0
 10
58.2194110775774
 20
45.72779193525753
 30
0.0
 10
58.24085041531296
 20
45.62056562415114
 30
0.0
 10
58.26592061290532
 20
45.51361332417784
 30
0.0
 10
58.29452309162871
 20
45.40712877045792
 30
0.0
 10
58.32652297520254
 20
45.30127191259536
 30
0.0
 10
58.36192398455886
 20
45.19622148173048
 30
0.0
 10
58.3984714332067
 20
45.09678185997962
 30
0.0
 10
58.42475082203269
 20
45.03282460690644
 30
0.0
 10
58.43690074155495
 20
45.00325483712037
 30
0.0
  0
SPLINE
  5
203
330
1F
100
AcDbEntity
  8
0
  6
Continuous
 62
     7
370
    25
100
AcDbSpline
210
0.0
220
0.0
230
1.0
 70
     8
 71
     3
 72
    42
 73
    38
 74
     0
 42
0.00000001
 43
0.00000001
 40
0.0
 40
0.0
 40
0.0
 40
0.0
 40
0.0044057365023105
 40
0.0352542941364564
 40
0.0662002122982533
 40
0.0972570686138601
 40
0.1284356130780264
 40
0.1597427240700927
 40
0.1911801560249146
 40
0.222743114292572
 40
0.2544187590055122
 40
0.2861848312571588
 40
0.3180082872704015
 40
0.3498297408825474
 40
0.3815939410622973
 40
0.4132398686968453
 40
0.4447047879975382
 40
0.4759289583459403
 40
0.5068600910684142
 40
0.5374567406387468
 40
0.5676901338521475
 40
0.597544379002885
 40
0.6270153671989761
 40
0.6561088627798451
 40
0.6848382777080094
 40
0.7132225073905158
 40
0.7412840542573143
 40
0.7690475345527683
 40
0.7965385740580092
 40
0.823783048726312
 40
0.8508066061265209
 40
0.8776344017737482
 40
0.9042909919613542
 40
0.9308003357535068
 40
0.9571858700337198
 40
0.9834706313192656
 40
0.9999999999999999
 40
0.9999999999999999
 40
0.9999999999999999
 40
0.9999999999999999
 10
58.93686483367446
 20
44.1372087028868
 30
0.0
 10
58.94004361545137
 20
44.13294260965214
 30
0.0
 10
58.9654799318765
 20
44.0988057279686
 30
0.0
 10
59.01552949553733
 20
44.03686875122958
 30
0.0
 10
59.08715642260439
 20
43.95163299850451
 30
0.0
 10
59.16149649310656
 20
43.86890917499731
 30
0.0
 10
59.23822223327709
 20
43.7885571983463
 30
0.0
 10
59.31737669023007
 20
43.71079878995467
 30
0.0
 10
59.39889364634345
 20
43.63577563426968
 30
0.0
 10
59.48272094097577
 20
43.56367036845047
 30
0.0
 10
59.56878024704623
 20
43.49467495631877
 30
0.0
 10
59.65697002481198
 20
43.42899886716442
 30
0.0
 10
59.74714251392734
 20
43.36687415346626
 30
0.0
 10
59.83911194312402
 20
43.30853895508167
 30
0.0
 10
59.9326548515132
 20
43.25422768226844
 30
0.0
 10
60.0275307879537
 20
43.20415263932716
 30
0.0
 10
60.12347843845655
 20
43.15850221005618
 30
0.0
 10
60.22022665197159
 20
43.1174323456566
 30
0.0
 10
60.31750631020535
 20
43.08106121866113
 30
0.0
 10
60.41506075096541
 20
43.04946788353896
 30
0.0
 10
60.51265300961704
 20
43.02269472674241
 30
0.0
 10
60.6100691320602
 20
43.00075265345765
 30
0.0
 10
60.70711784850215
 20
42.98362757610857
 30
0.0
 10
60.80362760722308
 20
42.97128687213927
 30
0.0
 10
60.8994422109585
 20
42.96368489192964
 30
0.0
 10
60.99441616598565
 20
42.96076708201105
 30
0.0
 10
61.08841051186887
 20
42.96247270961486
 30
0.0
 10
61.18128958333423
 20
42.96873634778956
 30
0.0
 10
61.27291871183377
 20
42.97948865248794
 30
0.0
 10
61.36316325189286
 20
42.99465597633441
 30
0.0
 10
61.45188712866148
 20
43.01416195690551
 30
0.0
 10
61.53895676471827
 20
43.03792072406755
 30
0.0
 10
61.62422785185602
 20
43.06586083662123
 30
0.0
 10
61.7075973728662
 20
43.09783600651902
 30
0.0
 10
61.78881520565304
 20
43.13395558339486
 30
0.0
 10
61.85844910531956
 20
43.1685257134951
 30
0.0
 10
61.90004280672548
 20
43.1926320606868
 30
0.0
 10
61.91610100120185
 20
43.20193886431893
 30
0.0
  0
LINE
  5
204
330
1F
100
AcDbEntity
  8
0
  6
Continuous
 62
     7
370
    25
100
AcDbLine
 10
59.6045711631
 20
48.3330759238
 30
0.0
 11
59.1166674841
 21
48.0514151252
 31
0.0
  0
LINE
  5
205
330
1F
100
AcDbEntity
  8
0
  6
Continuous
 62
     7
370
    25
100
AcDbLine
 10
61.9164399354
 20
43.2015414958
 30
0.0
 11
62.4043436145
 21
43.4832022944
 31
0.0
  0
SPLINE
  5
206
330
1F
100
AcDbEntity
  8
0
  6
Continuous
 62
     7
370
    25
100
AcDbSpline
210
0.0
220
0.0
230
1.0
 70
     8
 71
     3
 72
    22
 73
    18
 74
     0
 42
0.00000001
 43
0.00000001
 40
0.0
 40
0.0
 40
0.0
 40
0.0
 40
0.0383262551391793
 40
0.1071147752350911
 40
0.1759213420037757
 40
0.244799129533771
 40
0.313800375616452
 40
0.3829703862039114
 40
0.4523454389707171
 40
0.521951406430176
 40
0.5918031860835375
 40
0.661904943951799
 40
0.732251091899366
 40
0.8028278412597292
 40
0.8736151210751696
 40
0.944588630090263
 40
1.0
 40
1.0
 40
1.0
 40
1.0
 10
59.52276198651629
 20
48.77658291411019
 30
0.0
 10
59.51135334408701
 20
48.76983675242417
 30
0.0
 10
59.47946830431175
 20
48.75098248163582
 30
0.0
 10
59.42888706028778
 20
48.71701991828672
 30
0.0
 10
59.37178773346272
 20
48.67367268423576
 30
0.0
 10
59.31714709891484
 20
48.62662618321754
 30
0.0
 10
59.26498902360327
 20
48.57599964265915
 30
0.0
 10
59.21538689829791
 20
48.52182643706283
 30
0.0
 10
59.16840283668486
 20
48.46416647657288
 30
0.0
 10
59.12410399464711
 20
48.40307903603061
 30
0.0
 10
59.082558372489
 20
48.33863175908151
 30
0.0
 10
59.04383102399517
 20
48.27090299405962
 30
0.0
 10
59.00799656895041
 20
48.19997192037395
 30
0.0
 10
58.97508399755669
 20
48.12596101298896
 30
0.0
 10
58.94527656011885
 20
48.04887660136446
 30
0.0
 10
58.92015852186417
 20
47.97508776300386
 30
0.0
 10
58.90645721849288
 20
47.92585190271666
 30
0.0
 10
58.90045010754882
 20
47.9042652501803
 30
0.0
  0
SPLINE
  5
207
330
1F
100
AcDbEntity
  8
0
  6
Continuous
 62
     7
370
    25
100
AcDbSpline
210
0.0
220
0.0
230
1.0
 70
     8
 71
     3
 72
    23
 73
    19
 74
     0
 42
0.00000001
 43
0.00000001
 40
0.0
 40
0.0
 40
0.0
 40
0.0
 40
0.0080696392567357
 40
0.0789177850779088
 40
0.1496539387533885
 40
0.2202503951908497
 40
0.2906787462317879
 40
0.3609114230023202
 40
0.4309235965342995
 40
0.5006953102819829
 40
0.5702136458213666
 40
0.6394746727500661
 40
0.7084849231217651
 40
0.7772621676654425
 40
0.8458353498537581
 40
0.9142436368835446
 40
0.982534651138024
 40
1.0
 40
1.0
 40
1.0
 40
1.0
 10
61.67986895753836
 20
43.08801961660484
 30
0.0
 10
61.68306674224485
 20
43.08711631652758
 30
0.0
 10
61.71433977418145
 20
43.07828240969602
 30
0.0
 10
61.7731048508612
 20
43.0653468607841
 30
0.0
 10
61.85594065125565
 20
43.04955898270355
 30
0.0
 10
61.93776325635879
 20
43.0383141383375
 30
0.0
 10
62.01851010129106
 20
43.03111494839427
 30
0.0
 10
62.09802875495063
 20
43.02810800308758
 30
0.0
 10
62.17619272870044
 20
43.02925401461408
 30
0.0
 10
62.25287265505255
 20
43.0345494683846
 30
0.0
 10
62.32794675469118
 20
43.0439671614992
 30
0.0
 10
62.4012983646316
 20
43.05747631544442
 30
0.0
 10
62.47282482141283
 20
43.07502789702244
 30
0.0
 10
62.54241153829327
 20
43.09660257114075
 30
0.0
 10
62.61002998372039
 20
43.12204590381157
 30
0.0
 10
62.67537275653618
 20
43.15168970261515
 30
0.0
 10
62.7233947740436
 20
43.17603422313795
 30
0.0
 10
62.74888305072509
 20
43.19168787893853
 30
0.0
 10
62.75407405496029
 20
43.19487594043726
 30
0.0
  0
LINE
  5
208
330
1F
100
AcDbEntity
  8
0
  6
Continuous
 62
     7
370
    25
100
AcDbLine
 10
59.6310905244
 20
48.8391196612
 30
0.0
 11
59.5229031869
 21
48.7766644406
 31
0.0
  0
LINE
  5
209
330
1F
100
AcDbEntity
  8
0
  6
Continuous
 62
     7
370
    25
100
AcDbLine
 10
62.7476410997
 20
43.1906492783
 30
0.0
 11
62.8558284372
 21
43.2531044988
 31
0.0
  0
LINE
  5
20A
330
1F
100
AcDbEntity
  8
0
  6
Continuous
 62
     7
370
    25
100
AcDbLine
 10
45.0564441232
 20
29.1997635995
 30
0.0
 11
46.9402997658
 21
28.3285450852
 31
0.0
  0
LINE
  5
20B
330
1F
100
AcDbEntity
  8
0
  6
Continuous
 62
     7
370
    25
100
AcDbLine
 10
45.8422179657
 20
30.5991857389
 30
0.0
 11
45.7280470332
 21
30.6519858729
 31
0.0
  0
LINE
  5
20C
330
1F
100
AcDbEntity
  8
0
  6
Continuous
 62
     7
370
    25
100
AcDbLine
 10
46.5926073263
 20
30.2521564395
 30
0.0
 11
45.9107466044
 21
30.5674935979
 31
0.0
  0
LINE
  5
20D
330
1F
100
AcDbEntity
  8
0
  6
Continuous
 62
     7
370
    25
100
AcDbLine
 10
46.7736629562
 20
30.1684244309
 30
0.0
 11
46.6270423712
 21
30.2362314143
 31
0.0
  0
LINE
  5
20E
330
1F
100
AcDbEntity
  8
0
  6
Continuous
 62
     7
370
    25
100
AcDbLine
 10
42.9967215026
 20
30.5063101687
 30
0.0
 11
43.4568686204
 21
30.2935079352
 31
0.0
  0
LINE
  5
20F
330
1F
100
AcDbEntity
  8
0
  6
Continuous
 62
     7
370
    25
100
AcDbLine
 10
43.7508675202
 20
31.2482856636
 30
0.0
 11
43.4122758031
 21
31.4048727004
 31
0.0
  0
LINE
  5
210
330
1F
100
AcDbEntity
  8
0
  6
Continuous
 62
     7
370
    25
100
AcDbLine
 10
43.8724229209
 20
31.1920704668
 30
0.0
 11
43.8258828642
 21
31.2135936442
 31
0.0
  0
LINE
  5
211
330
1F
100
AcDbEntity
  8
0
  6
Continuous
 62
     7
370
    25
100
AcDbLine
 10
43.4568686204
 20
30.2935079352
 30
0.0
 11
43.801112367
 21
30.134307029
 31
0.0
  0
LINE
  5
212
330
1F
100
AcDbEntity
  8
0
  6
Continuous
 62
     7
370
    25
100
AcDbLine
 10
44.2166666675
 20
31.0328695606
 30
0.0
 11
43.8724229209
 21
31.1920704668
 31
0.0
  0
LINE
  5
213
330
1F
100
AcDbEntity
  8
0
  6
Continuous
 62
     7
370
    25
100
AcDbLine
 10
43.8014843012
 20
30.1346001588
 30
0.0
 11
43.8187682735
 21
30.127090915
 31
0.0
  0
SPLINE
  5
214
330
1F
100
AcDbEntity
  8
0
  6
Continuous
 62
     7
370
    25
100
AcDbSpline
210
0.0
220
0.0
230
1.0
 70
     8
 71
     3
 72
    10
 73
     6
 74
     0
 42
0.00000001
 43
0.00000001
 40
0.0
 40
0.0
 40
0.0
 40
0.0
 40
0.1855159800204581
 40
0.6078263609748205
 40
0.9999999999999999
 40
0.9999999999999999
 40
0.9999999999999999
 40
0.9999999999999999
 10
44.31199094727656
 20
30.97422766960058
 30
0.0
 10
44.30660640567939
 20
30.97856327115299
 30
0.0
 10
44.28896444122887
 20
30.9927684782405
 30
0.0
 10
44.25729163667987
 20
31.01266375701757
 30
0.0
 10
44.23008352127218
 20
31.02610210225671
 30
0.0
 10
44.21698282761987
 20
31.03257265861587
 30
0.0
  0
ARC
  5
215
330
1F
100
AcDbEntity
  8
0
  6
Continuous
 62
     7
370
    25
100
AcDbCircle
 10
44.1626159537
 20
30.4945361932
 30
0.0
 40
0.4950000000000058
100
AcDbArc
 50
240.0026882664
 51
245.1810802383
  0
LINE
  5
216
330
1F
100
AcDbEntity
  8
0
  6
Continuous
 62
     7
370
    25
100
AcDbLine
 10
43.8479609232
 20
30.1046213917
 30
0.0
 11
43.9151360674
 21
30.0658420063
 31
0.0
  0
LINE
  5
217
330
1F
100
AcDbEntity
  8
0
  6
Continuous
 62
     7
370
    25
100
AcDbLine
 10
43.9548388035
 20
30.0452549274
 30
0.0
 11
44.2359720723
 21
29.915240449
 31
0.0
  0
LINE
  5
218
330
1F
100
AcDbEntity
  8
0
  6
Continuous
 62
     7
370
    25
100
AcDbLine
 10
44.12371225
 20
29.6311200466
 30
0.0
 11
45.0511892958
 21
29.2021937766
 31
0.0
  0
LINE
  5
219
330
1F
100
AcDbEntity
  8
0
  6
Continuous
 62
     7
370
    25
100
AcDbLine
 10
45.7227922057
 20
30.65441605
 30
0.0
 11
44.7953151599
 21
31.08334232
 31
0.0
  0
SPLINE
  5
21A
330
1F
100
AcDbEntity
  8
0
  6
Continuous
 62
     7
370
    25
100
AcDbSpline
210
0.0
220
0.0
230
1.0
 70
     8
 71
     3
 72
    23
 73
    19
 74
     0
 42
0.00000001
 43
0.00000001
 40
0.0
 40
0.0
 40
0.0
 40
0.0
 40
0.0495769955945497
 40
0.1118689085991821
 40
0.1748227842811848
 40
0.2385769178232902
 40
0.3028293952336978
 40
0.3672950310221249
 40
0.4318792566563727
 40
0.4966088995473845
 40
0.5616068170474271
 40
0.6270237068422895
 40
0.6930174444053825
 40
0.7597492270604226
 40
0.8272905257881047
 40
0.8955589075725797
 40
0.9641741238892649
 40
1.0
 40
1.0
 40
1.0
 40
1.0
 10
41.54238646076885
 20
35.25025934116888
 30
0.0
 10
41.52992994645253
 20
35.24277694939735
 30
0.0
 10
41.50182221937457
 20
35.22589317112169
 30
0.0
 10
41.46000136771404
 20
35.19593835326857
 30
0.0
 10
41.41685780378332
 20
35.16058088673144
 30
0.0
 10
41.37564917786682
 20
35.1217522919503
 30
0.0
 10
41.33661151139307
 20
35.07977949580339
 30
0.0
 10
41.30006773829877
 20
35.03498965785002
 30
0.0
 10
41.26624970276831
 20
34.98770826367794
 30
0.0
 10
41.23532470648986
 20
34.93817738525166
 30
0.0
 10
41.20743852170617
 20
34.88658306877306
 30
0.0
 10
41.18274792091562
 20
34.83306981778133
 30
0.0
 10
41.16143796975175
 20
34.77775983809295
 30
0.0
 10
41.14374845369819
 20
34.7207845073394
 30
0.0
 10
41.12994760449725
 20
34.66233327015794
 30
0.0
 10
41.12045915761316
 20
34.60276012564269
 30
0.0
 10
41.11612022395389
 20
34.5521468039491
 30
0.0
 10
41.11572501505253
 20
34.52154564641425
 30
0.0
 10
41.11558944863123
 20
34.51104869302926
 30
0.0
  0
SPLINE
  5
21B
330
1F
100
AcDbEntity
  8
0
  6
Continuous
 62
     7
370
    25
100
AcDbSpline
210
0.0
220
0.0
230
1.0
 70
     8
 71
     3
 72
    28
 73
    24
 74
     0
 42
0.00000001
 43
0.00000001
 40
0.0
 40
0.0
 40
0.0
 40
0.0
 40
0.0260462289768104
 40
0.0719918164354511
 40
0.118258907101625
 40
0.1652480406461594
 40
0.2130899139053396
 40
0.2618252745525032
 40
0.3114205695277182
 40
0.3617849130897141
 40
0.4127856146813167
 40
0.4642615239049531
 40
0.516034024719312
 40
0.5679160402102298
 40
0.6196683733493265
 40
0.6710997008721229
 40
0.7220488749330871
 40
0.7723832614069073
 40
0.8220118009179277
 40
0.8709010664332096
 40
0.9190937551155788
 40
0.9667280455281589
 40
1.0
 40
1.0
 40
1.0
 40
1.0
 10
42.11558944863123
 20
34.10277828708638
 30
0.0
 10
42.1156144325257
 20
34.10530104617648
 30
0.0
 10
42.11568348804795
 20
34.11227395613157
 30
0.0
 10
42.11658450205909
 20
34.12676770335599
 30
0.0
 10
42.11897560509271
 20
34.14695082854173
 30
0.0
 10
42.12305625510589
 20
34.17035297464867
 30
0.0
 10
42.12905598263298
 20
34.19656069960163
 30
0.0
 10
42.13714997650721
 20
34.22516550111443
 30
0.0
 10
42.14743279035584
 20
34.25567428638889
 30
0.0
 10
42.15992043742003
 20
34.28755285473932
 30
0.0
 10
42.17454723979473
 20
34.32023171084096
 30
0.0
 10
42.19116747069977
 20
34.35312480132512
 30
0.0
 10
42.20955841834245
 20
34.3856451654211
 30
0.0
 10
42.22941855240745
 20
34.41721042067783
 30
0.0
 10
42.2503766548505
 20
34.44726817753212
 30
0.0
 10
42.27200231462165
 20
34.47531614421615
 30
0.0
 10
42.29382366199069
 20
34.50092526377259
 30
0.0
 10
42.31533591126235
 20
34.52374678858441
 30
0.0
 10
42.33600404499881
 20
34.54351568306181
 30
0.0
 10
42.35530748532573
 20
34.56008850387482
 30
0.0
 10
42.37264506207082
 20
34.57335607414621
 30
0.0
 10
42.38627082149536
 20
34.58259448398994
 30
0.0
 10
42.3930934670088
 20
34.58664625352031
 30
0.0
 10
42.39589921768015
 20
34.58831250674387
 30
0.0
  0
LINE
  5
21C
330
1F
100
AcDbEntity
  8
0
  6
Continuous
 62
     7
370
    25
100
AcDbLine
 10
41.1155894486
 20
34.511048693
 30
0.0
 11
41.1155894486
 21
33.5067034944
 31
0.0
  0
LINE
  5
21D
330
1F
100
AcDbEntity
  8
0
  6
Continuous
 62
     7
370
    25
100
AcDbLine
 10
42.4121278016
 20
35.7523503299
 30
0.0
 11
41.5423864608
 21
35.2502593412
 31
0.0
  0
LINE
  5
21E
330
1F
100
AcDbEntity
  8
0
  6
Continuous
 62
     7
370
    25
100
AcDbLine
 10
42.1155894486
 20
33.5067034944
 30
0.0
 11
42.1155894486
 21
34.1027782871
 31
0.0
  0
LINE
  5
21F
330
1F
100
AcDbEntity
  8
0
  6
Continuous
 62
     7
370
    25
100
AcDbLine
 10
42.3958992177
 20
34.5883125067
 30
0.0
 11
42.9120871679
 21
34.8863014676
 31
0.0
  0
LINE
  5
220
330
1F
100
AcDbEntity
  8
0
  6
Continuous
 62
     7
370
    25
100
AcDbLine
 10
41.1155894486
 20
33.5067034944
 30
0.0
 11
41.1155894486
 21
32.6901626825
 31
0.0
  0
LINE
  5
221
330
1F
100
AcDbEntity
  8
0
  6
Continuous
 62
     7
370
    25
100
AcDbLine
 10
42.1155894486
 20
32.6901626825
 30
0.0
 11
42.1155894486
 21
33.5067034944
 31
0.0
  0
SPLINE
  5
222
330
1F
100
AcDbEntity
  8
0
  6
Continuous
 62
     7
370
    25
100
AcDbSpline
210
0.0
220
0.0
230
1.0
 70
     8
 71
     3
 72
    31
 73
    27
 74
     0
 42
0.00000001
 43
0.00000001
 40
0.0
 40
0.0
 40
0.0
 40
0.0
 40
0.0241969405261747
 40
0.0691448107252122
 40
0.114110920752309
 40
0.1590327697334306
 40
0.2038728661292973
 40
0.2485883501416693
 40
0.2931320455826671
 40
0.3374542301968486
 40
0.3815050164175841
 40
0.4252371609834747
 40
0.4686090070006114
 40
0.5115872015758185
 40
0.5541488537112386
 40
0.5962828987848201
 40
0.6379905851374219
 40
0.679285147515295
 40
0.7201908407780255
 40
0.760741556534439
 40
0.8009792393840169
 40
0.8409522765154115
 40
0.88071397579507
 40
0.9203211897730487
 40
0.9598330956614413
 40
1.0
 40
1.0
 40
1.0
 40
1.0
 10
41.11558944863123
 20
32.69016268252404
 30
0.0
 10
41.11569274975611
 20
32.67140306813426
 30
0.0
 10
41.11598794148579
 20
32.61779587821469
 30
0.0
 10
41.11924105486677
 20
32.53039947853011
 30
0.0
 10
41.12651215303342
 20
32.42857321930431
 30
0.0
 10
41.13747295234918
 20
32.32846306579938
 30
0.0
 10
41.15207812234654
 20
32.23025518506595
 30
0.0
 10
41.17034935899417
 20
32.13414749805425
 30
0.0
 10
41.19227203286641
 20
32.04033424704169
 30
0.0
 10
41.21782001879168
 20
31.94901216488333
 30
0.0
 10
41.24694767369674
 20
31.86037350787912
 30
0.0
 10
41.27959185494782
 20
31.77460199684579
 30
0.0
 10
41.31567268232416
 20
31.6918681038067
 30
0.0
 10
41.35509596130196
 20
31.61232539861692
 30
0.0
 10
41.39775616782607
 20
31.53610814079079
 30
0.0
 10
41.44353980974122
 20
31.46333043950182
 30
0.0
 10
41.49232868481005
 20
31.39408688526677
 30
0.0
 10
41.54400277408052
 20
31.32845446916393
 30
0.0
 10
41.59844240497294
 20
31.26649498572861
 30
0.0
 10
41.65553030233511
 20
31.20825883930282
 30
0.0
 10
41.71515119251438
 20
31.15378483223792
 30
0.0
 10
41.77719798845201
 20
31.10311429647237
 30
0.0
 10
41.84155185033073
 20
31.05625068493506
 30
0.0
 10
41.90815783907097
 20
31.01331915068388
 30
0.0
 10
41.97714416961294
 20
30.97375320313056
 30
0.0
 10
42.02498597365268
 20
30.95067572553416
 30
0.0
 10
42.04910351708456
 20
30.9390421327088
 30
0.0
  0
SPLINE
  5
223
330
1F
100
AcDbEntity
  8
0
  6
Continuous
 62
     7
370
    25
100
AcDbSpline
210
0.0
220
0.0
230
1.0
 70
     8
 71
     3
 72
    27
 73
    23
 74
     0
 42
0.00000001
 43
0.00000001
 40
0.0
 40
0.0
 40
0.0
 40
0.0
 40
0.0249775964055207
 40
0.0941233104113356
 40
0.1643643755903907
 40
0.2244008261032798
 40
0.2809524800962355
 40
0.3347247315517667
 40
0.3917003906685352
 40
0.4462408835839271
 40
0.4989396120749092
 40
0.5503128479520445
 40
0.6007376575679098
 40
0.6504920400389467
 40
0.6997835365096842
 40
0.7487685319566427
 40
0.7975654720499443
 40
0.8462641368012498
 40
0.8949323172631454
 40
0.9436090769582689
 40
0.989740227167737
 40
1.0
 40
1.0
 40
1.0
 40
1.0
 10
42.46885533579691
 20
31.8466810535841
 30
0.0
 10
42.46424142506594
 20
31.84887810778742
 30
0.0
 10
42.44685478205628
 20
31.8571572877138
 30
0.0
 10
42.41809096445961
 20
31.87374766436463
 30
0.0
 10
42.3847913857534
 20
31.89751249376557
 30
0.0
 10
42.35462371220829
 20
31.92367630217857
 30
0.0
 10
42.32774174451557
 20
31.95114199727098
 30
0.0
 10
42.30190210143746
 20
31.98187377484417
 30
0.0
 10
42.27700595561819
 20
32.01630114260205
 30
0.0
 10
42.25308779885142
 20
32.05485838442245
 30
0.0
 10
42.23096862257687
 20
32.09631998514497
 30
0.0
 10
42.21059052952181
 20
32.14078248364421
 30
0.0
 10
42.1919556335553
 20
32.18832745932039
 30
0.0
 10
42.17511431330256
 20
32.2389971673633
 30
0.0
 10
42.16014577397196
 20
32.29279898818507
 30
0.0
 10
42.14714522060572
 20
32.34971016666034
 30
0.0
 10
42.13621440098918
 20
32.40968104673762
 30
0.0
 10
42.12745828083996
 20
32.47264070097229
 30
0.0
 10
42.1209715677925
 20
32.53848572718779
 30
0.0
 10
42.1169439672288
 20
32.60590196566998
 30
0.0
 10
42.115666371606
 20
32.65703380467262
 30
0.0
 10
42.11560128965159
 20
32.68506303942975
 30
0.0
 10
42.11558944863123
 20
32.69016268252404
 30
0.0
  0
LINE
  5
224
330
1F
100
AcDbEntity
  8
0
  6
Continuous
 62
     7
370
    25
100
AcDbLine
 10
43.3621760031
 20
31.4335509352
 30
0.0
 11
42.4688553358
 21
31.8466810536
 31
0.0
  0
LINE
  5
225
330
1F
100
AcDbEntity
  8
0
  6
Continuous
 62
     7
370
    25
100
AcDbLine
 10
42.0491035171
 20
30.9390421327
 30
0.0
 11
42.9424241844
 21
30.5259120143
 31
0.0
  0
LINE
  5
226
330
1F
100
AcDbEntity
  8
0
  6
Continuous
 62
     7
370
    25
100
AcDbLine
 10
43.863867825
 20
31.1872491466
 30
0.0
 11
43.8627373856
 21
31.190996785
 31
0.0
  0
LINE
  5
227
330
1F
100
AcDbEntity
  8
0
  6
Continuous
 62
     7
370
    25
100
AcDbLine
 10
43.7511599229
 20
31.2509916981
 30
0.0
 11
43.7474318102
 21
31.2498745614
 31
0.0
  0
LINE
  5
228
330
1F
100
AcDbEntity
  8
0
  6
Continuous
 62
     7
370
    25
100
AcDbLine
 10
45.958651968
 20
30.5369472881
 30
0.0
 11
45.9579771307
 21
30.5391845121
 31
0.0
  0
LINE
  5
229
330
1F
100
AcDbEntity
  8
0
  6
Continuous
 62
     7
370
    25
100
AcDbLine
 10
45.846399668
 20
30.5991794252
 30
0.0
 11
45.8438550492
 21
30.5984169249
 31
0.0
  0
LINE
  5
22A
330
1F
100
AcDbEntity
  8
0
  6
Continuous
 62
     7
370
    25
100
AcDbLine
 10
45.7806231949
 20
29.1931467981
 30
0.0
 11
45.7833049807
 21
29.1926249834
 31
0.0
  0
LINE
  5
22B
330
1F
100
AcDbEntity
  8
0
  6
Continuous
 62
     7
370
    25
100
AcDbLine
 10
45.879371177
 20
29.2381221955
 30
0.0
 11
45.8816414308
 21
29.2423377389
 31
0.0
  0
LINE
  5
22C
330
1F
100
AcDbEntity
  8
0
  6
Continuous
 62
     7
370
    25
100
AcDbLine
 10
59.3826905501
 20
45.5492476718
 30
0.0
 11
42.4121278016
 21
35.7523503299
 31
0.0
  0
LINE
  5
22D
330
1F
100
AcDbEntity
  8
0
  6
Continuous
 62
     7
370
    25
100
AcDbLine
 10
42.9120871679
 20
34.8863014676
 30
0.0
 11
59.8826499164
 21
44.6831988094
 31
0.0
  0
LWPOLYLINE
  5
22E
330
1F
100
AcDbEntity
  8
0
  6
Continuous
 62
     7
370
    25
100
AcDbPolyline
 90
       26
 70
   128
 43
0.0
 10
62.5405198346
 20
43.2672014795
 10
62.5387870599
 20
43.2840408935
 10
62.5336976126
 20
43.3018228443
 10
62.5255712811
 20
43.3194300264
 10
62.514918673
 20
43.3357561159
 10
62.5024091306
 20
43.3497752845
 10
62.4888286746
 20
43.3606066563
 10
62.475030615
 20
43.3675696563
 10
62.4618819346
 20
43.3702267737
 10
62.4502088133
 20
43.3684110521
 10
62.4407447163
 20
43.3622365798
 10
62.4340843075
 20
43.3520913216
 10
62.4306460851
 20
43.3386127416
 10
62.4306460851
 20
43.3226477483
 10
62.4340843075
 20
43.3051994811
 10
62.4407447163
 20
43.2873642788
 10
62.4502088133
 20
43.2702627927
 10
62.4618819346
 20
43.254969572
 10
62.475030615
 20
43.2424455462
 10
62.4888286746
 20
43.2334776457
 10
62.5024091306
 20
43.2286293567
 10
62.514918673
 20
43.2282053152
 10
62.5255712811
 20
43.2322321651
 10
62.5336976126
 20
43.2404568846
 10
62.5387870599
 20
43.2523626845
 10
62.5405198346
 20
43.2672014795
  0
LWPOLYLINE
  5
22F
330
1F
100
AcDbEntity
  8
0
  6
Continuous
 62
     7
370
    25
100
AcDbPolyline
 90
       17
 70
   128
 43
0.0
 10
62.6465858518
 20
43.2647522552
 10
62.6448131463
 20
43.288520259
 10
62.6395520059
 20
43.3135710619
 10
62.6309715282
 20
43.3390995103
 10
62.6193474966
 20
43.364285099
 10
62.6050535172
 20
43.3883183425
 10
62.5885490101
 20
43.4104267924
 10
62.5703644438
 20
43.4298998651
 10
62.5510842853
 20
43.44611168
 10
62.5313282147
 20
43.4585411759
 10
62.5117312083
 20
43.4667888586
 10
62.4929231302
 20
43.470589641
 10
62.4755084873
 20
43.4698213626
 10
62.4600470006
 20
43.4645087165
 10
62.4470356151
 20
43.4548224557
 10
62.4368925273
 20
43.4410739044
 10
62.4330985719
 20
43.4330489461
  0
LWPOLYLINE
  5
230
330
1F
100
AcDbEntity
  8
0
  6
Continuous
 62
     7
370
    25
100
AcDbPolyline
 90
        8
 70
   128
 43
0.0
 10
62.5752754461
 20
43.1867646908
 10
62.5885490101
 20
43.186085629
 10
62.6050535172
 20
43.1891383807
 10
62.6193474966
 20
43.1966681467
 10
62.6309715282
 20
43.2084329143
 10
62.6395520059
 20
43.224054554
 10
62.6448131463
 20
43.2430309735
 10
62.6465858518
 20
43.2647522552
  0
LWPOLYLINE
  5
231
330
1F
100
AcDbEntity
  8
0
  6
Continuous
 62
     7
370
    25
100
AcDbPolyline
 90
       15
 70
   128
 43
0.0
 10
62.6571924535
 20
43.270875316
 10
62.655419748
 20
43.2946433198
 10
62.6501586077
 20
43.3196941227
 10
62.6415781299
 20
43.3452225712
 10
62.6299540983
 20
43.3704081599
 10
62.6156601189
 20
43.3944414033
 10
62.5991556118
 20
43.4165498533
 10
62.5809710455
 20
43.436022926
 10
62.561690887
 20
43.4522347408
 10
62.5419348164
 20
43.4646642367
 10
62.5223378101
 20
43.4729119195
 10
62.5035297319
 20
43.4767127018
 10
62.486115089
 20
43.4759444234
 10
62.4706536023
 20
43.4706317774
 10
62.4688901345
 20
43.4696587712
  0
ARC
  5
232
330
1F
100
AcDbEntity
  8
0
  6
Continuous
 62
     7
370
    25
100
AcDbCircle
 10
62.5795650048
 20
43.2629749003
 30
0.0
 40
0.0780284394726762
100
AcDbArc
 50
305.5009980996
 51
5.8111822938
  0
LINE
  5
233
330
1F
100
AcDbEntity
  8
0
  6
Continuous
 62
     7
370
    25
100
AcDbLine
 10
62.4853655057
 20
43.3433558213
 30
0.0
 11
62.5185995244
 21
43.3020130179
 31
0.0
  0
LINE
  5
234
330
1F
100
AcDbEntity
  8
0
  6
Continuous
 62
     7
370
    25
100
AcDbLine
 10
62.452131487
 20
43.3403841992
 30
0.0
 11
62.4853655057
 21
43.3433558213
 31
0.0
  0
LINE
  5
235
330
1F
100
AcDbEntity
  8
0
  6
Continuous
 62
     7
370
    25
100
AcDbLine
 10
62.452131487
 20
43.2960697738
 30
0.0
 11
62.452131487
 21
43.3403841992
 31
0.0
  0
LINE
  5
236
330
1F
100
AcDbEntity
  8
0
  6
Continuous
 62
     7
370
    25
100
AcDbLine
 10
62.4853655057
 20
43.2547269704
 30
0.0
 11
62.452131487
 21
43.2960697738
 31
0.0
  0
LINE
  5
237
330
1F
100
AcDbEntity
  8
0
  6
Continuous
 62
     7
370
    25
100
AcDbLine
 10
62.5185995244
 20
43.2576985925
 30
0.0
 11
62.4853655057
 21
43.2547269704
 31
0.0
  0
LINE
  5
238
330
1F
100
AcDbEntity
  8
0
  6
Continuous
 62
     7
370
    25
100
AcDbLine
 10
62.5185995244
 20
43.3020130179
 30
0.0
 11
62.5185995244
 21
43.2576985925
 31
0.0
  0
ARC
  5
239
330
1F
100
AcDbEntity
  8
0
  6
Continuous
 62
     7
370
    25
100
AcDbCircle
 10
62.555532136
 20
43.3359718454
 30
0.0
 40
0.0636363456331426
100
AcDbArc
 50
218.1926815759
 51
234.5234451211
  0
ARC
  5
23A
330
1F
100
AcDbEntity
  8
0
  6
Continuous
 62
     7
370
    25
100
AcDbCircle
 10
62.560964552
 20
43.3427754993
 30
0.0
 40
0.0721400363879461
100
AcDbArc
 50
182.6392873612
 51
219.7720723791
  0
LINE
  5
23B
330
1F
100
AcDbEntity
  8
0
  6
Continuous
 62
     7
370
    25
100
AcDbLine
 10
62.5185995244
 20
43.2739125611
 30
0.0
 11
62.4853655057
 21
43.2547269704
 31
0.0
  0
LINE
  5
23C
330
1F
100
AcDbEntity
  8
0
  6
Continuous
 62
     7
370
    25
100
AcDbLine
 10
62.4889010396
 20
43.3172963847
 30
0.0
 11
62.452131487
 21
43.2960697738
 31
0.0
  0
LINE
  5
23D
330
1F
100
AcDbEntity
  8
0
  6
Continuous
 62
     7
370
    25
100
AcDbLine
 10
62.4889010396
 20
43.3172963847
 30
0.0
 11
62.4889010396
 21
43.3389576507
 31
0.0
  0
LINE
  5
23E
330
1F
100
AcDbEntity
  8
0
  6
Continuous
 62
     7
370
    25
100
AcDbLine
 10
62.5055180489
 20
43.296624983
 30
0.0
 11
62.4889010396
 21
43.3172963847
 31
0.0
  0
LINE
  5
23F
330
1F
100
AcDbEntity
  8
0
  6
Continuous
 62
     7
370
    25
100
AcDbLine
 10
62.5185995244
 20
43.2803517519
 30
0.0
 11
62.5055180489
 21
43.296624983
 31
0.0
  0
LWPOLYLINE
  5
240
330
1F
100
AcDbEntity
  8
0
  6
Continuous
 62
     7
370
    25
100
AcDbPolyline
 90
       26
 70
   128
 43
0.0
 10
59.5405198346
 20
48.4633538869
 10
59.5387870599
 20
48.480193301
 10
59.5336976126
 20
48.4979752517
 10
59.5255712811
 20
48.5155824339
 10
59.514918673
 20
48.5319085233
 10
59.5024091306
 20
48.5459276919
 10
59.4888286746
 20
48.5567590637
 10
59.475030615
 20
48.5637220638
 10
59.4618819346
 20
48.5663791812
 10
59.4502088133
 20
48.5645634595
 10
59.4407447163
 20
48.5583889872
 10
59.4340843075
 20
48.5482437291
 10
59.4306460851
 20
48.534765149
 10
59.4306460851
 20
48.5188001558
 10
59.4340843075
 20
48.5013518886
 10
59.4407447163
 20
48.4835166863
 10
59.4502088133
 20
48.4664152001
 10
59.4618819346
 20
48.4511219795
 10
59.475030615
 20
48.4385979536
 10
59.4888286746
 20
48.4296300531
 10
59.5024091306
 20
48.4247817642
 10
59.514918673
 20
48.4243577226
 10
59.5255712811
 20
48.4283845725
 10
59.5336976126
 20
48.4366092921
 10
59.5387870599
 20
48.448515092
 10
59.5405198346
 20
48.4633538869
  0
LWPOLYLINE
  5
241
330
1F
100
AcDbEntity
  8
0
  6
Continuous
 62
     7
370
    25
100
AcDbPolyline
 90
       17
 70
   128
 43
0.0
 10
59.6465858518
 20
48.4609046626
 10
59.6448131463
 20
48.4846726665
 10
59.6395520059
 20
48.5097234693
 10
59.6309715282
 20
48.5352519178
 10
59.6193474966
 20
48.5604375065
 10
59.6050535172
 20
48.5844707499
 10
59.5885490101
 20
48.6065791999
 10
59.5703644438
 20
48.6260522726
 10
59.5510842853
 20
48.6422640874
 10
59.5313282147
 20
48.6546935833
 10
59.5117312083
 20
48.6629412661
 10
59.4929231302
 20
48.6667420484
 10
59.4755084873
 20
48.66597377
 10
59.4600470006
 20
48.660661124
 10
59.4470356151
 20
48.6509748632
 10
59.4368925273
 20
48.6372263119
 10
59.4330985719
 20
48.6292013536
  0
LWPOLYLINE
  5
242
330
1F
100
AcDbEntity
  8
0
  6
Continuous
 62
     7
370
    25
100
AcDbPolyline
 90
        8
 70
   128
 43
0.0
 10
59.5752754461
 20
48.3829170983
 10
59.5885490101
 20
48.3822380365
 10
59.6050535172
 20
48.3852907881
 10
59.6193474966
 20
48.3928205542
 10
59.6309715282
 20
48.4045853217
 10
59.6395520059
 20
48.4202069615
 10
59.6448131463
 20
48.439183381
 10
59.6465858518
 20
48.4609046626
  0
LWPOLYLINE
  5
243
330
1F
100
AcDbEntity
  8
0
  6
Continuous
 62
     7
370
    25
100
AcDbPolyline
 90
       15
 70
   128
 43
0.0
 10
59.6571924535
 20
48.4670277235
 10
59.655419748
 20
48.4907957273
 10
59.6501586077
 20
48.5158465301
 10
59.6415781299
 20
48.5413749786
 10
59.6299540983
 20
48.5665605673
 10
59.6156601189
 20
48.5905938108
 10
59.5991556118
 20
48.6127022607
 10
59.5809710455
 20
48.6321753334
 10
59.561690887
 20
48.6483871482
 10
59.5419348164
 20
48.6608166442
 10
59.5223378101
 20
48.6690643269
 10
59.5035297319
 20
48.6728651093
 10
59.486115089
 20
48.6720968309
 10
59.4706536023
 20
48.6667841848
 10
59.4688901345
 20
48.6658111787
  0
ARC
  5
244
330
1F
100
AcDbEntity
  8
0
  6
Continuous
 62
     7
370
    25
100
AcDbCircle
 10
59.5795650048
 20
48.4591273078
 30
0.0
 40
0.0780284394726118
100
AcDbArc
 50
305.5009980996
 51
5.8111822938
  0
LINE
  5
245
330
1F
100
AcDbEntity
  8
0
  6
Continuous
 62
     7
370
    25
100
AcDbLine
 10
59.4853655057
 20
48.5395082287
 30
0.0
 11
59.5185995244
 21
48.4981654254
 31
0.0
  0
LINE
  5
246
330
1F
100
AcDbEntity
  8
0
  6
Continuous
 62
     7
370
    25
100
AcDbLine
 10
59.452131487
 20
48.5365366066
 30
0.0
 11
59.4853655057
 21
48.5395082287
 31
0.0
  0
LINE
  5
247
330
1F
100
AcDbEntity
  8
0
  6
Continuous
 62
     7
370
    25
100
AcDbLine
 10
59.452131487
 20
48.4922221812
 30
0.0
 11
59.452131487
 21
48.5365366066
 31
0.0
  0
LINE
  5
248
330
1F
100
AcDbEntity
  8
0
  6
Continuous
 62
     7
370
    25
100
AcDbLine
 10
59.4853655057
 20
48.4508793779
 30
0.0
 11
59.452131487
 21
48.4922221812
 31
0.0
  0
LINE
  5
249
330
1F
100
AcDbEntity
  8
0
  6
Continuous
 62
     7
370
    25
100
AcDbLine
 10
59.5185995244
 20
48.453851
 30
0.0
 11
59.4853655057
 21
48.4508793779
 31
0.0
  0
LINE
  5
24A
330
1F
100
AcDbEntity
  8
0
  6
Continuous
 62
     7
370
    25
100
AcDbLine
 10
59.5185995244
 20
48.4981654254
 30
0.0
 11
59.5185995244
 21
48.453851
 31
0.0
  0
ARC
  5
24B
330
1F
100
AcDbEntity
  8
0
  6
Continuous
 62
     7
370
    25
100
AcDbCircle
 10
59.555532136
 20
48.5321242529
 30
0.0
 40
0.0636363456350033
100
AcDbArc
 50
218.1926815761
 51
234.5234451209
  0
ARC
  5
24C
330
1F
100
AcDbEntity
  8
0
  6
Continuous
 62
     7
370
    25
100
AcDbCircle
 10
59.560964552
 20
48.5389279067
 30
0.0
 40
0.0721400363880371
100
AcDbArc
 50
182.6392873612
 51
219.772072379
  0
LINE
  5
24D
330
1F
100
AcDbEntity
  8
0
  6
Continuous
 62
     7
370
    25
100
AcDbLine
 10
59.5185995244
 20
48.4700649685
 30
0.0
 11
59.4853655057
 21
48.4508793779
 31
0.0
  0
LINE
  5
24E
330
1F
100
AcDbEntity
  8
0
  6
Continuous
 62
     7
370
    25
100
AcDbLine
 10
59.4889010396
 20
48.5134487921
 30
0.0
 11
59.452131487
 21
48.4922221812
 31
0.0
  0
LINE
  5
24F
330
1F
100
AcDbEntity
  8
0
  6
Continuous
 62
     7
370
    25
100
AcDbLine
 10
59.4889010396
 20
48.5134487921
 30
0.0
 11
59.4889010396
 21
48.5351100582
 31
0.0
  0
LINE
  5
250
330
1F
100
AcDbEntity
  8
0
  6
Continuous
 62
     7
370
    25
100
AcDbLine
 10
59.5055180489
 20
48.4927773905
 30
0.0
 11
59.4889010396
 21
48.5134487921
 31
0.0
  0
LINE
  5
251
330
1F
100
AcDbEntity
  8
0
  6
Continuous
 62
     7
370
    25
100
AcDbLine
 10
59.5185995244
 20
48.4765041594
 30
0.0
 11
59.5055180489
 21
48.4927773905
 31
0.0
  0
LWPOLYLINE
  5
252
330
1F
100
AcDbEntity
  8
0
  6
Continuous
 62
     7
370
    25
100
AcDbPolyline
 90
       26
 70
   128
 43
0.0
 10
62.5405198346
 20
46.7314907507
 10
62.5387870599
 20
46.7483301647
 10
62.5336976126
 20
46.7661121155
 10
62.5255712811
 20
46.7837192976
 10
62.514918673
 20
46.8000453871
 10
62.5024091306
 20
46.8140645557
 10
62.4888286746
 20
46.8248959275
 10
62.475030615
 20
46.8318589275
 10
62.4618819346
 20
46.8345160449
 10
62.4502088133
 20
46.8327003233
 10
62.4407447163
 20
46.826525851
 10
62.4340843075
 20
46.8163805928
 10
62.4306460851
 20
46.8029020128
 10
62.4306460851
 20
46.7869370195
 10
62.4340843075
 20
46.7694887523
 10
62.4407447163
 20
46.75165355
 10
62.4502088133
 20
46.7345520639
 10
62.4618819346
 20
46.7192588432
 10
62.475030615
 20
46.7067348174
 10
62.4888286746
 20
46.6977669169
 10
62.5024091306
 20
46.6929186279
 10
62.514918673
 20
46.6924945864
 10
62.5255712811
 20
46.6965214363
 10
62.5336976126
 20
46.7047461558
 10
62.5387870599
 20
46.7166519557
 10
62.5405198346
 20
46.7314907507
  0
LWPOLYLINE
  5
253
330
1F
100
AcDbEntity
  8
0
  6
Continuous
 62
     7
370
    25
100
AcDbPolyline
 90
       17
 70
   128
 43
0.0
 10
62.6465858518
 20
46.7290415264
 10
62.6448131463
 20
46.7528095302
 10
62.6395520059
 20
46.7778603331
 10
62.6309715282
 20
46.8033887815
 10
62.6193474966
 20
46.8285743702
 10
62.6050535172
 20
46.8526076137
 10
62.5885490101
 20
46.8747160636
 10
62.5703644438
 20
46.8941891363
 10
62.5510842853
 20
46.9104009512
 10
62.5313282147
 20
46.9228304471
 10
62.5117312083
 20
46.9310781298
 10
62.4929231302
 20
46.9348789122
 10
62.4755084873
 20
46.9341106338
 10
62.4600470006
 20
46.9287979877
 10
62.4470356151
 20
46.9191117269
 10
62.4368925273
 20
46.9053631756
 10
62.4330985719
 20
46.8973382173
  0
LWPOLYLINE
  5
254
330
1F
100
AcDbEntity
  8
0
  6
Continuous
 62
     7
370
    25
100
AcDbPolyline
 90
        8
 70
   128
 43
0.0
 10
62.5752754461
 20
46.651053962
 10
62.5885490101
 20
46.6503749002
 10
62.6050535172
 20
46.6534276519
 10
62.6193474966
 20
46.6609574179
 10
62.6309715282
 20
46.6727221855
 10
62.6395520059
 20
46.6883438252
 10
62.6448131463
 20
46.7073202447
 10
62.6465858518
 20
46.7290415264
  0
LWPOLYLINE
  5
255
330
1F
100
AcDbEntity
  8
0
  6
Continuous
 62
     7
370
    25
100
AcDbPolyline
 90
       15
 70
   128
 43
0.0
 10
62.6571924535
 20
46.7351645872
 10
62.655419748
 20
46.758932591
 10
62.6501586077
 20
46.7839833939
 10
62.6415781299
 20
46.8095118424
 10
62.6299540983
 20
46.8346974311
 10
62.6156601189
 20
46.8587306745
 10
62.5991556118
 20
46.8808391245
 10
62.5809710455
 20
46.9003121972
 10
62.561690887
 20
46.916524012
 10
62.5419348164
 20
46.9289535079
 10
62.5223378101
 20
46.9372011907
 10
62.5035297319
 20
46.941001973
 10
62.486115089
 20
46.9402336946
 10
62.4706536023
 20
46.9349210486
 10
62.4688901345
 20
46.9339480424
  0
ARC
  5
256
330
1F
100
AcDbEntity
  8
0
  6
Continuous
 62
     7
370
    25
100
AcDbCircle
 10
62.5795650048
 20
46.7272641715
 30
0.0
 40
0.078028439472599
100
AcDbArc
 50
305.5009980996
 51
5.8111822938
  0
LINE
  5
257
330
1F
100
AcDbEntity
  8
0
  6
Continuous
 62
     7
370
    25
100
AcDbLine
 10
62.4853655057
 20
46.8076450925
 30
0.0
 11
62.5185995244
 21
46.7663022891
 31
0.0
  0
LINE
  5
258
330
1F
100
AcDbEntity
  8
0
  6
Continuous
 62
     7
370
    25
100
AcDbLine
 10
62.452131487
 20
46.8046734704
 30
0.0
 11
62.4853655057
 21
46.8076450925
 31
0.0
  0
LINE
  5
259
330
1F
100
AcDbEntity
  8
0
  6
Continuous
 62
     7
370
    25
100
AcDbLine
 10
62.452131487
 20
46.760359045
 30
0.0
 11
62.452131487
 21
46.8046734704
 31
0.0
  0
LINE
  5
25A
330
1F
100
AcDbEntity
  8
0
  6
Continuous
 62
     7
370
    25
100
AcDbLine
 10
62.4853655057
 20
46.7190162416
 30
0.0
 11
62.452131487
 21
46.760359045
 31
0.0
  0
LINE
  5
25B
330
1F
100
AcDbEntity
  8
0
  6
Continuous
 62
     7
370
    25
100
AcDbLine
 10
62.5185995244
 20
46.7219878637
 30
0.0
 11
62.4853655057
 21
46.7190162416
 31
0.0
  0
LINE
  5
25C
330
1F
100
AcDbEntity
  8
0
  6
Continuous
 62
     7
370
    25
100
AcDbLine
 10
62.5185995244
 20
46.7663022891
 30
0.0
 11
62.5185995244
 21
46.7219878637
 31
0.0
  0
ARC
  5
25D
330
1F
100
AcDbEntity
  8
0
  6
Continuous
 62
     7
370
    25
100
AcDbCircle
 10
62.555532136
 20
46.8002611166
 30
0.0
 40
0.0636363456355153
100
AcDbArc
 50
218.1926815762
 51
234.5234451208
  0
ARC
  5
25E
330
1F
100
AcDbEntity
  8
0
  6
Continuous
 62
     7
370
    25
100
AcDbCircle
 10
62.560964552
 20
46.8070647705
 30
0.0
 40
0.0721400363878772
100
AcDbArc
 50
182.6392873612
 51
219.7720723791
  0
LINE
  5
25F
330
1F
100
AcDbEntity
  8
0
  6
Continuous
 62
     7
370
    25
100
AcDbLine
 10
62.5185995244
 20
46.7382018323
 30
0.0
 11
62.4853655057
 21
46.7190162416
 31
0.0
  0
LINE
  5
260
330
1F
100
AcDbEntity
  8
0
  6
Continuous
 62
     7
370
    25
100
AcDbLine
 10
62.4889010396
 20
46.7815856559
 30
0.0
 11
62.452131487
 21
46.760359045
 31
0.0
  0
LINE
  5
261
330
1F
100
AcDbEntity
  8
0
  6
Continuous
 62
     7
370
    25
100
AcDbLine
 10
62.4889010396
 20
46.7815856559
 30
0.0
 11
62.4889010396
 21
46.8032469219
 31
0.0
  0
LINE
  5
262
330
1F
100
AcDbEntity
  8
0
  6
Continuous
 62
     7
370
    25
100
AcDbLine
 10
62.5055180489
 20
46.7609142542
 30
0.0
 11
62.4889010396
 21
46.7815856559
 31
0.0
  0
LINE
  5
263
330
1F
100
AcDbEntity
  8
0
  6
Continuous
 62
     7
370
    25
100
AcDbLine
 10
62.5185995244
 20
46.7446410231
 30
0.0
 11
62.5055180489
 21
46.7609142542
 31
0.0
  0
LWPOLYLINE
  5
264
330
1F
100
AcDbEntity
  8
0
  6
Continuous
 62
     7
370
    25
100
AcDbPolyline
 90
        4
 70
   128
 43
0.0
 10
62.4827944714
 20
43.5338769287
 10
62.4618552661
 20
43.5192500321
 10
62.4044573888
 20
43.4832679856
 10
62.4043436145
 20
43.4832022944
  0
LINE
  5
265
330
1F
100
AcDbEntity
  8
0
  6
Continuous
 62
     7
370
    25
100
AcDbLine
 10
62.7538089574
 20
43.1942372483
 30
0.0
 11
62.7476410997
 21
43.1906492783
 31
0.0
  0
LWPOLYLINE
  5
266
330
1F
100
AcDbEntity
  8
0
  6
Continuous
 62
     7
370
    25
100
AcDbPolyline
 90
       82
 70
   128
 43
0.0
 10
59.6309594808
 20
48.839043999
 10
59.695100712
 20
48.8732483774
 10
59.7615998381
 20
48.9031474935
 10
59.8303555921
 20
48.928695816
 10
59.9012632702
 20
48.9498544389
 10
59.9742148917
 20
48.9665911412
 10
60.0490993633
 20
48.9788804356
 10
60.1258026484
 20
48.9867036076
 10
60.2042079406
 20
48.9900487437
 10
60.2841958413
 20
48.9889107499
 10
60.3656445424
 20
48.9832913592
 10
60.4484300108
 20
48.9731991289
 10
60.532426178
 20
48.9586494278
 10
60.6175051316
 20
48.9396644128
 10
60.7035373104
 20
48.9162729949
 10
60.7903917016
 20
48.8885107953
 10
60.8779360404
 20
48.8564200914
 10
60.966037011
 20
48.8200497519
 10
61.0545604503
 20
48.7794551629
 10
61.1433715516
 20
48.7346981433
 10
61.2323350704
 20
48.6858468506
 10
61.3213155298
 20
48.6329756772
 10
61.4101774272
 20
48.5761651373
 10
61.4987854408
 20
48.515501744
 10
61.587004635
 20
48.4510778775
 10
61.6747006666
 20
48.3829916447
 10
61.7617399891
 20
48.3113467299
 10
61.8479900558
 20
48.2362522364
 10
61.9333195221
 20
48.1578225207
 10
62.0175984455
 20
48.0761770183
 10
62.1006984828
 20
47.9914400618
 10
62.1824930866
 20
47.9037406918
 10
62.2628576971
 20
47.8132124598
 10
62.3416699322
 20
47.7199932253
 10
62.418809774
 20
47.6242249461
 10
62.4941597511
 20
47.5260534612
 10
62.5676051181
 20
47.4256282697
 10
62.6390340297
 20
47.3231023026
 10
62.7083377114
 20
47.2186316901
 10
62.7754106252
 20
47.1123755236
 10
62.8401506301
 20
47.0044956137
 10
62.9024591378
 20
46.8951562438
 10
62.9622412627
 20
46.7845239197
 10
63.0194059664
 20
46.6727671162
 10
63.0738661966
 20
46.5600560204
 10
63.1255390192
 20
46.4465622728
 10
63.1743457452
 20
46.3324587056
 10
63.2202120499
 20
46.2179190797
 10
63.2630680865
 20
46.1031178201
 10
63.3028485923
 20
45.9882297501
 10
63.3394929883
 20
45.8734298254
 10
63.3729454709
 20
45.7588928673
 10
63.4031550976
 20
45.6447932966
 10
63.4300758642
 20
45.5313048683
 10
63.4536667747
 20
45.4186004065
 10
63.473891904
 20
45.3068515414
 10
63.4907204527
 20
45.1962284481
 10
63.5041267936
 20
45.0868995875
 10
63.5140905111
 20
44.9790314492
 10
63.5205964321
 20
44.8727882988
 10
63.5236346491
 20
44.7683319269
 10
63.5232005355
 20
44.6658214034
 10
63.5192947522
 20
44.5654128349
 10
63.5119232473
 20
44.4672591272
 10
63.5010972462
 20
44.371509752
 10
63.4868332352
 20
44.27831052
 10
63.4691529361
 20
44.1878033581
 10
63.4480832729
 20
44.1001260939
 10
63.4236563314
 20
44.0154122454
 10
63.3959093096
 20
43.9337908177
 10
63.3648844619
 20
43.8553861069
 10
63.3306290338
 20
43.7803175104
 10
63.2931951908
 20
43.7086993453
 10
63.2526399383
 20
43.6406406742
 10
63.2090250355
 20
43.5762451393
 10
63.1624169006
 20
43.5156108043
 10
63.11288651
 20
43.4588300053
 10
63.0605092905
 20
43.4059892102
 10
63.0053650038
 20
43.3571688867
 10
62.9475376256
 20
43.3124433802
 10
62.8871152175
 20
43.2718808001
 10
62.8558284372
 20
43.2531044988
  0
LINE
  5
267
330
1F
100
AcDbEntity
  8
0
  6
Continuous
 62
     7
370
    25
100
AcDbLine
 10
46.9447927866
 20
28.3264924908
 30
0.0
 11
46.9402997658
 21
28.3285450852
 31
0.0
  0
ELLIPSE
  5
268
330
1F
100
AcDbEntity
  8
0
  6
Continuous
 62
     7
370
    25
100
AcDbEllipse
 10
46.8571046713
 20
29.2484277313
 30
0.0
 11
-0.314678776765021
 21
0.9428190831058458
 31
0.0
210
0.0
220
0.0
230
1.0
 40
0.5005658859
 41
2.708728358849266
 42
5.842748170202816
  0
LWPOLYLINE
  5
269
330
1F
100
AcDbEntity
  8
0
  6
Continuous
 62
     7
370
    25
100
AcDbPolyline
 90
       42
 70
   128
 43
0.0
 10
45.7254269788
 20
30.6531889485
 10
45.7707630096
 20
30.6298346615
 10
45.8139793336
 20
30.6020427311
 10
45.8545955287
 20
30.5700820001
 10
45.8923611827
 20
30.5341495172
 10
45.9270434576
 20
30.494466818
 10
45.9584285258
 20
30.4512785595
 10
45.9863228879
 20
30.4048510117
 10
46.0105545657
 20
30.3554704159
 10
46.0309741631
 20
30.3034412199
 10
46.0474557863
 20
30.249084201
 10
46.0598978207
 20
30.1927344882
 10
46.0682235571
 20
30.1347394963
 10
46.0723816644
 20
30.0754567837
 10
46.0723465065
 20
30.0152518481
 10
46.0681183003
 20
29.9544958728
 10
46.059723114
 20
29.8935634388
 10
46.0472127067
 20
29.8328302146
 10
46.0306642093
 20
29.7726706408
 10
46.0101796488
 20
29.7134556212
 10
45.9858853192
 20
29.6555502361
 10
45.9579310031
 20
29.5993114915
 10
45.9264890484
 20
29.5450861178
 10
45.891753305
 20
29.4932084326
 10
45.8539379303
 20
29.443998279
 10
45.8132760688
 20
29.397759054
 10
45.7700184143
 20
29.3547758379
 10
45.7244316646
 20
29.3153136363
 10
45.6767968773
 20
29.2796157469
 10
45.6274077365
 20
29.2479022592
 10
45.5765687429
 20
29.2203686972
 10
45.5245933357
 20
29.1971848145
 10
45.4718019605
 20
29.1784935475
 10
45.4185200937
 20
29.1644101341
 10
45.3650762359
 20
29.1550214031
 10
45.3117998861
 20
29.1503852393
 10
45.2590195107
 20
29.1505302261
 10
45.2070605183
 20
29.1554554697
 10
45.1562432534
 20
29.1651306042
 10
45.1068810213
 20
29.1794959792
 10
45.0592781566
 20
29.1984630275
 10
45.0538328549
 20
29.2009798162
  0
SPLINE
  5
26A
330
1F
100
AcDbEntity
  8
0
  6
Continuous
 62
     7
370
    25
100
AcDbSpline
210
0.0
220
0.0
230
1.0
 70
     8
 71
     3
 72
    15
 73
    11
 74
     0
 42
0.00000001
 43
0.00000001
 40
0.0
 40
0.0
 40
0.0
 40
0.0
 40
0.127754723098269
 40
0.2554982478262881
 40
0.383532213564053
 40
0.5117568184776023
 40
0.639666661092671
 40
0.7672492236737517
 40
0.8949989882692623
 40
0.9999999999999999
 40
0.9999999999999999
 40
0.9999999999999999
 40
0.9999999999999999
 10
46.69923644462892
 20
30.19174539176469
 30
0.0
 10
46.69472784509356
 20
30.19396351343666
 30
0.0
 10
46.68571104122516
 20
30.19839956235063
 30
0.0
 10
46.6672098497593
 20
30.20890685807083
 30
0.0
 10
46.64737721901443
 20
30.22059225068334
 30
0.0
 10
46.62783640455825
 20
30.23218123582206
 30
0.0
 10
46.61077172494464
 20
30.24208056048363
 30
0.0
 10
46.59830311101555
 20
30.24904749750696
 30
0.0
 10
46.59140085713633
 20
30.25269232563844
 30
0.0
 10
46.59222754166925
 20
30.25231295588251
 30
0.0
 10
46.59260048440959
 20
30.25214181055349
 30
0.0
  0
LWPOLYLINE
  5
26B
330
1F
100
AcDbEntity
  8
0
  6
Continuous
 62
     7
370
    25
100
AcDbPolyline
 90
       13
 70
   128
 43
0.0
 10
46.5926100131
 20
30.2521512737
 10
46.5994907231
 20
30.2489213299
 10
46.6124571593
 20
30.2429397788
 10
46.6300089741
 20
30.2348579366
 10
46.6501403707
 20
30.2253560284
 10
46.6704666754
 20
30.2152158766
 10
46.6884995652
 20
30.2053849147
 10
46.7021402202
 20
30.1968999124
 10
46.7099686115
 20
30.1907741007
 10
46.7112357507
 20
30.1879153532
 10
46.7058974424
 20
30.1889453149
 10
46.6992364446
 20
30.1917453918
 10
46.6992364446
 20
30.1917453918
  0
SPLINE
  5
26C
330
1F
100
AcDbEntity
  8
0
  6
Continuous
 62
     7
370
    25
100
AcDbSpline
210
0.0
220
0.0
230
1.0
 70
     8
 71
     3
 72
    15
 73
    11
 74
     0
 42
0.00000001
 43
0.00000001
 40
0.0
 40
0.0
 40
0.0
 40
0.0
 40
0.1277547230983358
 40
0.2554982478263053
 40
0.3835322135640397
 40
0.5117568184775939
 40
0.6396666610926567
 40
0.7672492236737366
 40
0.8949989882692245
 40
1.0
 40
1.0
 40
1.0
 40
1.0
 10
45.9488470840567
 20
30.5387746911901
 30
0.0
 10
45.94433848452133
 20
30.54099281286208
 30
0.0
 10
45.93532168065294
 20
30.54542886177605
 30
0.0
 10
45.91682048918707
 20
30.55593615749624
 30
0.0
 10
45.89698785844221
 20
30.56762155010876
 30
0.0
 10
45.87744704398603
 20
30.57921053524748
 30
0.0
 10
45.86038236437243
 20
30.58910985990905
 30
0.0
 10
45.84791375044334
 20
30.59607679693238
 30
0.0
 10
45.84101149656409
 20
30.59972162506385
 30
0.0
 10
45.84183818109702
 20
30.59934225530791
 30
0.0
 10
45.84221112383736
 20
30.5991711099789
 30
0.0
  0
SPLINE
  5
26D
330
1F
100
AcDbEntity
  8
0
  6
Continuous
 62
     7
370
    25
100
AcDbSpline
210
0.0
220
0.0
230
1.0
 70
     8
 71
     3
 72
    13
 73
     9
 74
     0
 42
0.00000001
 43
0.00000001
 40
0.0
 40
0.0
 40
0.0
 40
0.0
 40
0.142935992651131
 40
0.326927275183982
 40
0.51090978258269
 40
0.6954654506703103
 40
0.8802885017487054
 40
0.9999999999999999
 40
0.9999999999999999
 40
0.9999999999999999
 40
0.9999999999999999
 10
45.92414507847163
 20
30.56002755974774
 30
0.0
 10
45.92899302899313
 20
30.55743698832151
 30
0.0
 10
45.94008139956254
 20
30.55151175954016
 30
0.0
 10
45.95267854644937
 20
30.54354676882144
 30
0.0
 10
45.96072899068047
 20
30.53723066931249
 30
0.0
 10
45.96191498621283
 20
30.53431614087789
 30
0.0
 10
45.95729840492885
 20
30.53506630139531
 30
0.0
 10
45.95123183292961
 20
30.53772827743807
 30
0.0
 10
45.9488470840567
 20
30.5387746911901
 30
0.0
  0
SPLINE
  5
26E
330
1F
100
AcDbEntity
  8
0
  6
Continuous
 62
     7
370
    25
100
AcDbSpline
210
0.0
220
0.0
230
1.0
 70
    11
 71
     3
 72
    26
 73
    22
 74
     0
 42
0.00000001
 43
0.00000001
 40
0.0
 40
0.0
 40
0.0
 40
0.0
 40
0.0535564828348843
 40
0.1071082711636813
 40
0.1607818162352108
 40
0.2145352797903708
 40
0.2681567907943636
 40
0.3216411016455909
 40
0.3751955058100421
 40
0.4289186373058496
 40
0.4826469270615114
 40
0.5362071068849789
 40
0.5896887296788766
 40
0.6433034207177072
 40
0.6970554416308543
 40
0.750735119824788
 40
0.8042463682269781
 40
0.8577550645061918
 40
0.911430456422158
 40
0.9651836128791473
 40
1.0
 40
1.0
 40
1.0
 40
1.0
 10
45.77126235335638
 20
29.19468454952126
 30
0.0
 10
45.76784882075312
 20
29.19690480723074
 30
0.0
 10
45.7610220547606
 20
29.20134512803251
 30
0.0
 10
45.75959765144608
 20
29.21207310110775
 30
0.0
 10
45.76498168350134
 20
29.22463564489386
 30
0.0
 10
45.77702712943622
 20
29.23823142726963
 30
0.0
 10
45.79412274720083
 20
29.25140024129914
 30
0.0
 10
45.814334808007
 20
29.26270509576275
 30
0.0
 10
45.83547677359859
 20
29.27075632458101
 30
0.0
 10
45.85533172975535
 20
29.27440359034161
 30
0.0
 10
45.87175533243401
 20
29.27295857745968
 30
0.0
 10
45.88293492777885
 20
29.2664511401825
 30
0.0
 10
45.88762800775352
 20
29.25566960199416
 30
0.0
 10
45.88523539060392
 20
29.24199496916863
 30
0.0
 10
45.87586610331593
 20
29.22720561221281
 30
0.0
 10
45.86046166443349
 20
29.2132136955373
 30
0.0
 10
45.84076864599182
 20
29.20170357907928
 30
0.0
 10
45.81900602943017
 20
29.19383591079653
 30
0.0
 10
45.7977985086055
 20
29.19032688791961
 30
0.0
 10
45.78137647119389
 20
29.19098292852517
 30
0.0
 10
45.7741163014526
 20
29.19364004575293
 30
0.0
 10
45.77126235335638
 20
29.19468454952126
 30
0.0
  0
LWPOLYLINE
  5
26F
330
1F
100
AcDbEntity
  8
0
  6
Continuous
 62
     7
370
    25
100
AcDbPolyline
 90
       33
 70
   128
 43
0.0
 10
43.8724229209
 20
31.1920704668
 10
43.9075068227
 20
31.1731914995
 10
43.9405583111
 20
31.1498589814
 10
43.9708676567
 20
31.1224808209
 10
43.9981336316
 20
31.0913291145
 10
44.0220852543
 20
31.0567134619
 10
44.0424844829
 20
31.0189778889
 10
44.0591285806
 20
30.9784974287
 10
44.0718521309
 20
30.9356743942
 10
44.0805286814
 20
30.89093438
 10
44.0850720008
 20
30.8447220324
 10
44.0854369354
 20
30.7974966306
 10
44.0816198583
 20
30.7497275218
 10
44.0736587054
 20
30.7018894568
 10
44.0616325982
 20
30.6544578718
 10
44.0456610576
 20
30.6079041633
 10
44.0259028158
 20
30.5626910029
 10
44.0025542393
 20
30.5192677393
 10
43.9758473766
 20
30.4780659324
 10
43.9460476525
 20
30.4394950643
 10
43.91345123
 20
30.4039384695
 10
43.8783820672
 20
30.3717495256
 10
43.841188697
 20
30.3432481407
 10
43.8022407639
 20
30.3187175743
 10
43.7619253499
 20
30.2984016223
 10
43.7206431278
 20
30.2825021936
 10
43.6788043787
 20
30.2711773041
 10
43.6368249151
 20
30.2645395055
 10
43.5951219476
 20
30.2626547672
 10
43.5541099391
 20
30.2655418206
 10
43.5141964854
 20
30.2731719729
 10
43.4757782642
 20
30.2854693922
 10
43.4568686204
 20
30.2935079352
  0
SPLINE
  5
270
330
1F
100
AcDbEntity
  8
0
  6
Continuous
 62
     7
370
    25
100
AcDbSpline
210
0.0
220
0.0
230
1.0
 70
     8
 71
     3
 72
    14
 73
    10
 74
     0
 42
0.00000001
 43
0.00000001
 40
0.0
 40
0.0
 40
0.0
 40
0.0
 40
0.1562228353046523
 40
0.3124097971468208
 40
0.4695261946480943
 40
0.6272614052446295
 40
0.7839936827817153
 40
0.9396797964617443
 40
1.0
 40
1.0
 40
1.0
 40
1.0
 10
43.85275675618286
 20
31.18900506554023
 30
0.0
 10
43.84828402901671
 20
31.19125068891345
 30
0.0
 10
43.83933960175712
 20
31.1957414199972
 30
0.0
 10
43.82117774455726
 20
31.20670264985403
 30
0.0
 10
43.80171057365233
 20
31.21889953108689
 30
0.0
 10
43.78227777573213
 20
31.23095078174086
 30
0.0
 10
43.76559155953821
 20
31.24071675438656
 30
0.0
 10
43.75450125569513
 20
31.24663066648057
 30
0.0
 10
43.75163378750447
 20
31.24786557183858
 30
0.0
 10
43.75083304117848
 20
31.24821042167217
 30
0.0
  0
SPLINE
  5
271
330
1F
100
AcDbEntity
  8
0
  6
Continuous
 62
     7
370
    25
100
AcDbSpline
210
0.0
220
0.0
230
1.0
 70
     8
 71
     3
 72
     9
 73
     5
 74
     0
 42
0.00000001
 43
0.00000001
 40
0.0
 40
0.0
 40
0.0
 40
0.0
 40
0.3922852827504342
 40
1.0
 40
1.0
 40
1.0
 40
1.0
 10
43.83424794075572
 20
31.20882619700771
 30
0.0
 10
43.83710696016738
 20
31.2073498213353
 30
0.0
 10
43.84439507302137
 20
31.20358629581618
 30
0.0
 10
43.84912282267816
 20
31.20036298916972
 30
0.0
 10
43.85199594572407
 20
31.19840413828245
 30
0.0
  0
SPLINE
  5
272
330
1F
100
AcDbEntity
  8
0
  6
Continuous
 62
     7
370
    25
100
AcDbSpline
210
0.0
220
0.0
230
1.0
 70
     8
 71
     3
 72
    11
 73
     7
 74
     0
 42
0.00000001
 43
0.00000001
 40
0.0
 40
0.0
 40
0.0
 40
0.0
 40
0.0344400850065474
 40
0.3934278813819354
 40
0.7539149052390782
 40
0.9999999999999999
 40
0.9999999999999999
 40
0.9999999999999999
 40
0.9999999999999999
 10
43.86308827357678
 20
31.18983351932921
 30
0.0
 10
43.86334697983473
 20
31.18961629845473
 30
0.0
 10
43.86630232256825
 20
31.18713486589074
 30
0.0
 10
43.86571185826806
 20
31.18521576143857
 30
0.0
 10
43.86154899167629
 20
31.18523251143299
 30
0.0
 10
43.8552942801381
 20
31.18791627004257
 30
0.0
 10
43.85275675618286
 20
31.18900506554023
 30
0.0
  0
LWPOLYLINE
  5
273
330
1F
100
AcDbEntity
  8
0
  6
Continuous
 62
     7
370
    25
100
AcDbPolyline
 90
       33
 70
   128
 43
0.0
 10
43.4568686204
 20
30.2935079352
 10
43.4757782642
 20
30.2854693922
 10
43.5141964854
 20
30.2731719729
 10
43.5541099391
 20
30.2655418206
 10
43.5951219476
 20
30.2626547672
 10
43.6368249151
 20
30.2645395055
 10
43.6788043787
 20
30.2711773041
 10
43.7206431278
 20
30.2825021936
 10
43.7619253499
 20
30.2984016223
 10
43.8022407639
 20
30.3187175743
 10
43.841188697
 20
30.3432481407
 10
43.8783820672
 20
30.3717495256
 10
43.91345123
 20
30.4039384695
 10
43.9460476525
 20
30.4394950643
 10
43.9758473766
 20
30.4780659324
 10
44.0025542393
 20
30.5192677393
 10
44.0259028158
 20
30.5626910029
 10
44.0456610576
 20
30.6079041633
 10
44.0616325982
 20
30.6544578718
 10
44.0736587054
 20
30.7018894568
 10
44.0816198583
 20
30.7497275218
 10
44.0854369354
 20
30.7974966306
 10
44.0850720008
 20
30.8447220324
 10
44.0805286814
 20
30.89093438
 10
44.0718521309
 20
30.9356743942
 10
44.0591285806
 20
30.9784974287
 10
44.0424844829
 20
31.0189778889
 10
44.0220852543
 20
31.0567134619
 10
43.9981336316
 20
31.0913291145
 10
43.9708676567
 20
31.1224808209
 10
43.9405583111
 20
31.1498589814
 10
43.9075068227
 20
31.1731914995
 10
43.8724229209
 20
31.1920704668
  0
LINE
  5
274
330
1F
100
AcDbEntity
  8
0
  6
Continuous
 62
     7
370
    25
100
AcDbLine
 10
44.0294621006
 20
31.1001387096
 30
0.0
 11
44.2831157765
 21
30.9828325988
 31
0.0
  0
ELLIPSE
  5
275
330
1F
100
AcDbEntity
  8
0
  6
Continuous
 62
     7
370
    25
100
AcDbEllipse
 10
43.7412354395
 20
30.7073691104
 30
0.0
 11
0.2146494114570956
 21
0.4460704857634887
 31
0.0
210
0.0
220
0.0
230
1.0
 40
0.7134687865
 41
3.27188382192172
 42
6.027241839397242
  0
LINE
  5
276
330
1F
100
AcDbEntity
  8
0
  6
Continuous
 62
     7
370
    25
100
AcDbLine
 10
43.8109190267
 20
30.1336519397
 30
0.0
 11
43.5697542775
 21
30.2451823509
 31
0.0
  0
ARC
  5
277
330
1F
100
AcDbEntity
  8
0
  6
Continuous
 62
     7
370
    25
100
AcDbCircle
 10
43.9698890413
 20
30.2877013275
 30
0.0
 40
0.2199652902166302
100
AcDbArc
 50
188.3844561413
 51
236.3370610433
  0
ARC
  5
278
330
1F
100
AcDbEntity
  8
0
  6
Continuous
 62
     7
370
    25
100
AcDbCircle
 10
44.2430297152
 20
30.7401627035
 30
0.0
 40
0.2445799312127936
100
AcDbArc
 50
69.2584476899
 51
122.5723522686
  0
LINE
  5
279
330
1F
100
AcDbEntity
  8
0
  6
Continuous
 62
     7
370
    25
100
AcDbLine
 10
44.3296484702
 20
30.9688907823
 30
0.0
 11
44.3968236144
 21
30.930111397
 31
0.0
  0
LINE
  5
27A
330
1F
100
AcDbEntity
  8
0
  6
Continuous
 62
     7
370
    25
100
AcDbLine
 10
44.3968236144
 20
30.930111397
 30
0.0
 11
44.6779568833
 21
30.8000969186
 31
0.0
  0
LWPOLYLINE
  5
27B
330
1F
100
AcDbEntity
  8
0
  6
Continuous
 62
     7
370
    25
100
AcDbPolyline
 90
       32
 70
   128
 43
0.0
 10
44.6779568833
 20
30.8000969186
 10
44.7121659587
 20
30.77741995
 10
44.7436207152
 20
30.7505060867
 10
44.7719983845
 20
30.7196315015
 10
44.7970077731
 20
30.6851130094
 10
44.8183922509
 20
30.6473048167
 10
44.8359323844
 20
30.6065948867
 10
44.8494481878
 20
30.5634009585
 10
44.8588009709
 20
30.51816626
 10
44.8638947614
 20
30.4713549606
 10
44.8646772901
 20
30.4234474075
 10
44.8611405272
 20
30.3749351971
 10
44.8533207648
 20
30.3263161303
 10
44.841298244
 20
30.2780891045
 10
44.8251963324
 20
30.2307489942
 10
44.8051802572
 20
30.184781573
 10
44.7814554105
 20
30.1406585289
 10
44.7542652413
 20
30.0988326241
 10
44.7238887576
 20
30.0597330488
 10
44.6906376632
 20
30.0237610177
 10
44.6548531592
 20
29.9912856525
 10
44.6169024432
 20
29.9626401944
 10
44.5771749409
 20
29.9381185845
 10
44.5360783101
 20
29.9179724477
 10
44.4940342579
 20
29.9024085107
 10
44.4514742133
 20
29.8915864805
 10
44.4088348998
 20
29.8856174057
 10
44.3665538544
 20
29.8845625373
 10
44.325064938
 20
29.8884326995
 10
44.284793883
 20
29.8971881792
 10
44.2461539249
 20
29.9107391335
 10
44.2359720723
 20
29.915240449
  0
ARC
  5
27C
330
1F
100
AcDbEntity
  8
0
  6
Continuous
 62
     7
370
    25
100
AcDbCircle
 10
44.5345507462
 20
30.5311675752
 30
0.0
 40
0.5795245728107581
100
AcDbArc
 50
61.8373812165
 51
121.4003127693
  0
LWPOLYLINE
  5
27D
330
1F
100
AcDbEntity
  8
0
  6
Continuous
 62
     7
370
    25
100
AcDbPolyline
 90
       52
 70
   128
 43
0.0
 10
43.796478658
 20
30.1364499602
 10
43.7986990901
 20
30.121844691
 10
43.8099976536
 20
30.0657905095
 10
43.8254063393
 20
30.0116737145
 10
43.8448252159
 20
29.9598452743
 10
43.8681283445
 20
29.910641316
 10
43.8951645954
 20
29.8643809463
 10
43.9257586281
 20
29.8213641814
 10
43.9597120285
 20
29.7818700015
 10
43.9968045959
 20
29.7461545416
 10
44.0367957707
 20
29.71444943
 10
44.0794261948
 20
29.6869602867
 10
44.1244193936
 20
29.6638653893
 10
44.1714835688
 20
29.645314517
 10
44.2203134913
 20
29.6314279793
 10
44.2705924802
 20
29.6222958358
 10
44.321994457
 20
29.617977312
 10
44.3741860603
 20
29.6185004151
 10
44.4268288073
 20
29.6238617526
 10
44.4795812897
 20
29.6340265542
 10
44.5321013874
 20
29.6489288972
 10
44.5840484874
 20
29.6684721342
 10
44.6350856928
 20
29.6925295198
 10
44.6848820078
 20
29.7209450327
 10
44.7331144842
 20
29.7535343873
 10
44.7794703158
 20
29.7900862293
 10
44.8236488673
 20
29.8303635057
 10
44.8653636238
 20
29.8741050031
 10
44.9043440491
 20
29.9210270411
 10
44.9403373403
 20
29.9708253123
 10
44.9731100669
 20
30.0231768556
 10
45.0024496853
 20
30.0777421514
 10
45.0281659169
 20
30.1341673227
 10
45.0500919819
 20
30.1920864306
 10
45.0680856814
 20
30.2511238475
 10
45.0820303195
 20
30.3108966931
 10
45.0918354597
 20
30.3710173175
 10
45.0974375119
 20
30.4310958154
 10
45.0988001448
 20
30.4907425548
 10
45.095914521
 20
30.5495707036
 10
45.0887993551
 20
30.6071987386
 10
45.0775007915
 20
30.6632529201
 10
45.0620921058
 20
30.717369715
 10
45.0426732292
 20
30.7691981553
 10
45.0193701006
 20
30.8184021136
 10
44.9923338498
 20
30.8646624833
 10
44.9617398171
 20
30.9076792482
 10
44.9277864166
 20
30.9471734281
 10
44.8906938492
 20
30.982888888
 10
44.8507026744
 20
31.0145939996
 10
44.8080722503
 20
31.0420831429
 10
44.8080722503
 20
31.0420831429
  0
LWPOLYLINE
  5
27E
330
1F
100
AcDbEntity
  8
0
  6
Continuous
 62
     7
370
    25
100
AcDbPolyline
 90
       52
 70
   128
 43
0.0
 10
44.8380311363
 20
31.0611911086
 10
44.8812474603
 20
31.0333991782
 10
44.9218636555
 20
31.0014384472
 10
44.9596293094
 20
30.9655059643
 10
44.9943115844
 20
30.9258232651
 10
45.0256966526
 20
30.8826350066
 10
45.0535910146
 20
30.8362074588
 10
45.0778226925
 20
30.786826863
 10
45.0982422898
 20
30.734797667
 10
45.1147239131
 20
30.6804406481
 10
45.1271659475
 20
30.6240909353
 10
45.1354916838
 20
30.5660959434
 10
45.1396497911
 20
30.5068132309
 10
45.1396146333
 20
30.4466082952
 10
45.135386427
 20
30.38585232
 10
45.1269912407
 20
30.3249198859
 10
45.1144808335
 20
30.2641866617
 10
45.0979323361
 20
30.2040270879
 10
45.0774477755
 20
30.1448120683
 10
45.0531534459
 20
30.0869066832
 10
45.0251991299
 20
30.0306679386
 10
44.9937571751
 20
29.9764425649
 10
44.9590214317
 20
29.9245648797
 10
44.9212060571
 20
29.8753547261
 10
44.8805441955
 20
29.8291155011
 10
44.837286541
 20
29.786132285
 10
44.7916997914
 20
29.7466700834
 10
44.744065004
 20
29.7109721941
 10
44.6946758633
 20
29.6792587063
 10
44.6438368696
 20
29.6517251443
 10
44.5918614624
 20
29.6285412616
 10
44.5390700872
 20
29.6098499946
 10
44.4857882205
 20
29.5957665812
 10
44.4323443626
 20
29.5863778502
 10
44.3790680128
 20
29.5817416864
 10
44.3262876374
 20
29.5818866732
 10
44.274328645
 20
29.5868119168
 10
44.2235113801
 20
29.5964870513
 10
44.1741491481
 20
29.6108524264
 10
44.1265462834
 20
29.6298194747
 10
44.0809962735
 20
29.653271258
 10
44.0377799495
 20
29.6810631884
 10
43.9971637544
 20
29.7130239193
 10
43.9593981004
 20
29.7489564023
 10
43.9247158255
 20
29.7886391015
 10
43.8933307573
 20
29.83182736
 10
43.8654363953
 20
29.8782549078
 10
43.8412047174
 20
29.9276355036
 10
43.82078512
 20
29.9796646996
 10
43.8043034968
 20
30.0340217185
 10
43.7918614624
 20
30.0903714313
 10
43.7842254654
 20
30.1421166408
  0
ARC
  5
27F
330
1F
100
AcDbEntity
  8
0
  6
Continuous
 62
     7
370
    25
100
AcDbCircle
 10
44.5531301118
 20
30.5248363293
 30
0.0
 40
0.6073261421717846
100
AcDbArc
 50
62.0236458857
 51
123.3303028512
  0
LINE
  5
280
330
1F
100
AcDbEntity
  8
0
  6
Continuous
 62
     7
370
    25
100
AcDbLine
 10
44.610781739
 20
30.8388763039
 30
0.0
 11
44.6779568833
 21
30.8000969186
 31
0.0
  0
LWPOLYLINE
  5
281
330
1F
100
AcDbEntity
  8
0
  6
Continuous
 62
     7
370
    25
100
AcDbPolyline
 90
       42
 70
   128
 43
0.0
 10
45.0511892958
 20
29.2021937766
 10
45.0540233292
 20
29.2008932047
 10
45.1016261939
 20
29.1819261564
 10
45.150988426
 20
29.1675607814
 10
45.2018056909
 20
29.1578856468
 10
45.2537646832
 20
29.1529604033
 10
45.3065450586
 20
29.1528154165
 10
45.3598214084
 20
29.1574515803
 10
45.4132652663
 20
29.1668403112
 10
45.466547133
 20
29.1809237247
 10
45.5193385082
 20
29.1996149917
 10
45.5713139154
 20
29.2227988743
 10
45.6221529091
 20
29.2503324363
 10
45.6715420498
 20
29.2820459241
 10
45.7191768372
 20
29.3177438135
 10
45.7647635868
 20
29.357206015
 10
45.8080212413
 20
29.4001892312
 10
45.8486831029
 20
29.4464284562
 10
45.8864984775
 20
29.4956386097
 10
45.9212342209
 20
29.547516295
 10
45.9526761757
 20
29.6017416686
 10
45.9806304917
 20
29.6579804133
 10
46.0049248213
 20
29.7158857984
 10
46.0254093819
 20
29.775100818
 10
46.0419578793
 20
29.8352603917
 10
46.0544682866
 20
29.8959936159
 10
46.0628634729
 20
29.95692605
 10
46.0670916791
 20
30.0176820253
 10
46.0671268369
 20
30.0778869609
 10
46.0629687296
 20
30.1371696735
 10
46.0546429933
 20
30.1951646654
 10
46.0422009589
 20
30.2515143781
 10
46.0257193356
 20
30.3058713971
 10
46.0052997383
 20
30.3579005931
 10
45.9810680604
 20
30.4072811889
 10
45.9531736984
 20
30.4537087366
 10
45.9217886302
 20
30.4968969951
 10
45.8871063552
 20
30.5365796944
 10
45.8493407013
 20
30.5725121773
 10
45.8087245061
 20
30.6044729082
 10
45.7655081821
 20
30.6322648386
 10
45.7227922057
 20
30.65441605
  0
LINE
  5
282
330
1F
100
AcDbEntity
  8
0
  6
Continuous
 62
     7
370
    25
100
AcDbLine
 10
44.3296484702
 20
30.9688907823
 30
0.0
 11
44.610781739
 21
30.8388763039
 31
0.0
  0
ARC
  5
283
330
1F
100
AcDbEntity
  8
0
  6
Continuous
 62
     7
370
    25
100
AcDbCircle
 10
42.4111171048
 20
34.2558968462
 30
0.0
 40
1.150214473960136
100
AcDbArc
 50
122.5437865649
 51
177.4562132895
  0
ARC
  5
284
330
1F
100
AcDbEntity
  8
0
  6
Continuous
 62
     7
370
    25
100
AcDbCircle
 10
41.3803544735
 20
34.5793819765
 30
0.0
 40
0.7663086756279813
100
AcDbArc
 50
2.5243224443
 51
57.4756777014
  0
ARC
  5
285
330
1F
100
AcDbEntity
  8
0
  6
Continuous
 62
     7
370
    25
100
AcDbCircle
 10
42.3514617944
 20
34.2903388577
 30
0.0
 40
0.3826795039127792
100
AcDbArc
 50
122.4873455707
 51
177.5126542837
  0
ARC
  5
286
330
1F
100
AcDbEntity
  8
0
  6
Continuous
 62
     7
370
    25
100
AcDbCircle
 10
41.6155894486
 20
34.9869400849
 30
0.0
 40
0.7664144120715345
100
AcDbArc
 50
242.5284328753
 51
297.4715671247
  0
ARC
  5
287
330
1F
100
AcDbEntity
  8
0
  6
Continuous
 62
     7
370
    25
100
AcDbCircle
 10
41.6155894486
 20
33.9825948863
 30
0.0
 40
0.7664144120715535
100
AcDbArc
 50
242.5284328753
 51
297.4715671247
  0
LINE
  5
288
330
1F
100
AcDbEntity
  8
0
  6
Continuous
 62
     7
370
    25
100
AcDbLine
 10
41.262036058
 20
33.3026014665
 30
0.0
 11
41.262036058
 21
34.3069466651
 31
0.0
  0
LINE
  5
289
330
1F
100
AcDbEntity
  8
0
  6
Continuous
 62
     7
370
    25
100
AcDbLine
 10
41.9691428392
 20
34.3069466651
 30
0.0
 11
41.9691428392
 21
33.8986762591
 31
0.0
  0
LINE
  5
28A
330
1F
100
AcDbEntity
  8
0
  6
Continuous
 62
     7
370
    25
100
AcDbLine
 10
41.9691428392
 20
33.3026014665
 30
0.0
 11
41.9691428392
 21
33.8986762591
 31
0.0
  0
LINE
  5
28B
330
1F
100
AcDbEntity
  8
0
  6
Continuous
 62
     7
370
    25
100
AcDbLine
 10
42.4994729251
 20
34.81723491
 30
0.0
 11
42.1459195345
 21
34.613132882
 31
0.0
  0
LINE
  5
28C
330
1F
100
AcDbEntity
  8
0
  6
Continuous
 62
     7
370
    25
100
AcDbLine
 10
41.7923661439
 20
35.2255053159
 30
0.0
 11
42.6621074848
 21
35.7275963047
 31
0.0
  0
ARC
  5
28D
330
1F
100
AcDbEntity
  8
0
  6
Continuous
 62
     7
370
    25
100
AcDbCircle
 10
42.2500958143
 20
35.0814729653
 30
0.0
 40
0.7663086756279351
100
AcDbArc
 50
2.5243224443
 51
57.4756777014
  0
LINE
  5
28E
330
1F
100
AcDbEntity
  8
0
  6
Continuous
 62
     7
370
    25
100
AcDbLine
 10
42.4994729251
 20
34.81723491
 30
0.0
 11
43.0156608754
 21
35.1152238708
 31
0.0
  0
ARC
  5
28F
330
1F
100
AcDbEntity
  8
0
  6
Continuous
 62
     7
370
    25
100
AcDbCircle
 10
43.118223886
 20
33.8476264403
 30
0.0
 40
1.150214473960138
100
AcDbArc
 50
122.5437865649
 51
177.4562132895
  0
ARC
  5
290
330
1F
100
AcDbEntity
  8
0
  6
Continuous
 62
     7
370
    25
100
AcDbCircle
 10
41.3632372973
 20
33.5298050001
 30
0.0
 40
0.2487230116107731
100
AcDbArc
 50
185.3293391936
 51
245.990801764
  0
ARC
  5
291
330
1F
100
AcDbEntity
  8
0
  6
Continuous
 62
     7
370
    25
100
AcDbCircle
 10
42.5159603333
 20
35.5263152329
 30
0.0
 40
0.2487429591450581
100
AcDbArc
 50
54.0171641951
 51
114.6723773758
  0
ARC
  5
292
330
1F
100
AcDbEntity
  8
0
  6
Continuous
 62
     7
370
    25
100
AcDbCircle
 10
41.8679416
 20
33.5298050001
 30
0.0
 40
0.2487230116108106
100
AcDbArc
 50
294.009198236
 51
354.6706608064
  0
ARC
  5
293
330
1F
100
AcDbEntity
  8
0
  6
Continuous
 62
     7
370
    25
100
AcDbCircle
 10
42.7682342027
 20
35.0892779961
 30
0.0
 40
0.2487833329645892
100
AcDbArc
 50
305.3258580115
 51
5.9863223819
  0
ARC
  5
294
330
1F
100
AcDbEntity
  8
0
  6
Continuous
 62
     7
370
    25
100
AcDbCircle
 10
41.8659841268
 20
33.5312095197
 30
0.0
 40
0.250805426477211
100
AcDbArc
 50
294.2871366209
 51
354.3927224215
  0
LWPOLYLINE
  5
295
330
1F
100
AcDbEntity
  8
0
  6
Continuous
 62
     7
370
    25
100
AcDbPolyline
 90
       25
 70
   128
 43
0.0
 10
41.1155894486
 20
33.5067034944
 10
41.1165604907
 20
33.4887230517
 10
41.1221414592
 20
33.4601285682
 10
41.1326265355
 20
33.4319969672
 10
41.1479115142
 20
33.4046078333
 10
41.1678444863
 20
33.3782333719
 10
41.192227349
 20
33.3531357043
 10
41.2208177745
 20
33.3295642624
 10
41.2533316182
 20
33.3077533098
 10
41.289445743
 20
33.2879196135
 10
41.3288012305
 20
33.2702602897
 10
41.3710069481
 20
33.2549508446
 10
41.4156434365
 20
33.2421434306
 10
41.4622670782
 20
33.2319653333
 10
41.5104145065
 20
33.2245177072
 10
41.5596072106
 20
33.2198745703
 10
41.6093562913
 20
33.2180820682
 10
41.65916732
 20
33.2191580154
 10
41.7085452522
 20
33.2230917188
 10
41.7569993479
 20
33.2298440834
 10
41.8040480484
 20
33.2393480012
 10
41.8492237628
 20
33.251509018
 10
41.8920775143
 20
33.2662062722
 10
41.9321834032
 20
33.2832936959
 10
41.9691428392
 20
33.3026014665
  0
LWPOLYLINE
  5
296
330
1F
100
AcDbEntity
  8
0
  6
Continuous
 62
     7
370
    25
100
AcDbPolyline
 90
       18
 70
   128
 43
0.0
 10
43.5058534844
 20
30.7756294468
 10
43.5276517016
 20
30.8204510343
 10
43.545719506
 20
30.8668556224
 10
43.5598773314
 20
30.9143820214
 10
43.5699844712
 20
30.9625578926
 10
43.575940476
 20
31.0109044426
 10
43.5776861523
 20
31.0589411816
 10
43.5752041508
 20
31.106190699
 10
43.5685191389
 20
31.1521834078
 10
43.5576975551
 20
31.1964622118
 10
43.5428469491
 20
31.2385870484
 10
43.5241149131
 20
31.278139262
 10
43.5016876144
 20
31.3147257649
 10
43.4757879455
 20
31.3479829441
 10
43.446673309
 20
31.3775802747
 10
43.4146330592
 20
31.4032236052
 10
43.3799856266
 20
31.4246580807
 10
43.3621760031
 20
31.4335509352
  0
LWPOLYLINE
  5
297
330
1F
100
AcDbEntity
  8
0
  6
Continuous
 62
     7
370
    25
100
AcDbPolyline
 90
       17
 70
   128
 43
0.0
 10
42.9424241844
 20
30.5259120143
 10
42.9428092843
 20
30.525734217
 10
42.9807146826
 20
30.5109987844
 10
43.0203253738
 20
30.5009218279
 10
43.061247689
 20
30.4956034967
 10
43.1030749239
 20
30.4950966469
 10
43.1453913807
 20
30.4994063158
 10
43.1877764994
 20
30.5084896718
 10
43.2298090376
 20
30.5222564406
 10
43.2710712572
 20
30.5405698019
 10
43.3111530755
 20
30.5632477491
 10
43.3496561415
 20
30.5900648988
 10
43.3861977945
 20
30.6207547299
 10
43.420414867
 20
30.6550122332
 10
43.4519672945
 20
30.6924969422
 10
43.4805414947
 20
30.732836317
 10
43.5058534844
 20
30.7756294468
  0
LWPOLYLINE
  5
298
330
1F
100
AcDbEntity
  8
0
  6
Continuous
 62
     7
370
    25
100
AcDbPolyline
 90
       23
 70
   128
 43
0.0
 10
43.7845625417
 20
31.2300575991
 10
43.7998906659
 20
31.2216031858
 10
43.8157861545
 20
31.2130911973
 10
43.8309612498
 20
31.2052112244
 10
43.8441865556
 20
31.1986016556
 10
43.8543906363
 20
31.1937979588
 10
43.8607468181
 20
31.1911893011
 10
43.8627401608
 20
31.1909870203
 10
43.8602091757
 20
31.1932075041
 10
43.8533589083
 20
31.197670862
 10
43.8427443262
 20
31.2040154993
 10
43.82922536
 20
31.2117274113
 10
43.8138972359
 20
31.2201818246
 10
43.7980017472
 20
31.2286938131
 10
43.782826652
 20
31.236573786
 10
43.7696013462
 20
31.2431833548
 10
43.7593972654
 20
31.2479870516
 10
43.7530410837
 20
31.2505957093
 10
43.7510477409
 20
31.2507979901
 10
43.753578726
 20
31.2485775063
 10
43.7604289935
 20
31.2441141484
 10
43.7710435755
 20
31.2377695111
 10
43.7845625417
 20
31.2300575991
  0
LINE
  5
299
330
1F
100
AcDbEntity
  8
0
  6
Continuous
 62
     7
370
    25
100
AcDbLine
 10
43.8463177355
 20
31.1999885195
 30
0.0
 11
43.8227560568
 21
31.2143824955
 31
0.0
  0
LINE
  5
29A
330
1F
100
AcDbEntity
  8
0
  6
Continuous
 62
     7
370
    25
100
AcDbLine
 10
43.7833322722
 20
31.2352864812
 30
0.0
 11
43.8227560568
 21
31.2143824955
 31
0.0
  0
LINE
  5
29B
330
1F
100
AcDbEntity
  8
0
  6
Continuous
 62
     7
370
    25
100
AcDbLine
 10
43.7674701663
 20
31.2417964909
 30
0.0
 11
43.7833322722
 21
31.2352864812
 31
0.0
  0
LINE
  5
29C
330
1F
100
AcDbEntity
  8
0
  6
Continuous
 62
     7
370
    25
100
AcDbLine
 10
43.7674701663
 20
31.2417964909
 30
0.0
 11
43.7910318449
 21
31.2274025149
 31
0.0
  0
LINE
  5
29D
330
1F
100
AcDbEntity
  8
0
  6
Continuous
 62
     7
370
    25
100
AcDbLine
 10
43.8304556295
 20
31.2064985292
 30
0.0
 11
43.7910318449
 21
31.2274025149
 31
0.0
  0
LINE
  5
29E
330
1F
100
AcDbEntity
  8
0
  6
Continuous
 62
     7
370
    25
100
AcDbLine
 10
43.8304556295
 20
31.2064985292
 30
0.0
 11
43.8463177355
 21
31.1999885195
 31
0.0
  0
LINE
  5
29F
330
1F
100
AcDbEntity
  8
0
  6
Continuous
 62
     7
370
    25
100
AcDbLine
 10
43.7820450805
 20
31.2328925852
 30
0.0
 11
43.7833322722
 21
31.2352864812
 31
0.0
  0
LINE
  5
2A0
330
1F
100
AcDbEntity
  8
0
  6
Continuous
 62
     7
370
    25
100
AcDbLine
 10
43.8211655426
 20
31.2114244856
 30
0.0
 11
43.8227560568
 21
31.2143824955
 31
0.0
  0
LWPOLYLINE
  5
2A1
330
1F
100
AcDbEntity
  8
0
  6
Continuous
 62
     7
370
    25
100
AcDbPolyline
 90
       23
 70
   128
 43
0.0
 10
45.9469642659
 20
30.5432000951
 10
45.9545344037
 20
30.539907678
 10
45.9578593478
 20
30.5389786477
 10
45.956669731
 20
30.5404882687
 10
45.951061929
 20
30.5443142406
 10
45.9414902525
 20
30.5501466058
 10
45.9287301419
 20
30.5575128609
 10
45.9138153454
 20
30.5658162356
 10
45.8979541712
 20
30.5743840399
 10
45.8824315971
 20
30.5825221613
 10
45.86850517
 20
30.5895712975
 10
45.857303126
 20
30.5949603694
 10
45.8497329882
 20
30.5982527866
 10
45.8464080441
 20
30.5991818169
 10
45.8475976609
 20
30.5976721959
 10
45.853205463
 20
30.593846224
 10
45.8627771394
 20
30.5880138587
 10
45.8755372501
 20
30.5806476037
 10
45.8904520465
 20
30.572344229
 10
45.9063132208
 20
30.5637764247
 10
45.9218357948
 20
30.5556383033
 10
45.9357622219
 20
30.5485891671
 10
45.9469642659
 20
30.5432000951
  0
LINE
  5
2A2
330
1F
100
AcDbEntity
  8
0
  6
Continuous
 62
     7
370
    25
100
AcDbLine
 10
45.9067058397
 20
30.5687939335
 30
0.0
 11
45.8702903293
 21
30.5874630166
 31
0.0
  0
LINE
  5
2A3
330
1F
100
AcDbEntity
  8
0
  6
Continuous
 62
     7
370
    25
100
AcDbLine
 10
45.8657181856
 20
30.5877493154
 30
0.0
 11
45.8702903293
 21
30.5874630166
 31
0.0
  0
LINE
  5
2A4
330
1F
100
AcDbEntity
  8
0
  6
Continuous
 62
     7
370
    25
100
AcDbLine
 10
45.8975615522
 20
30.5693665311
 30
0.0
 11
45.8657181856
 21
30.5877493154
 31
0.0
  0
LINE
  5
2A5
330
1F
100
AcDbEntity
  8
0
  6
Continuous
 62
     7
370
    25
100
AcDbLine
 10
45.8975615522
 20
30.5693665311
 30
0.0
 11
45.9339770626
 21
30.550697448
 31
0.0
  0
LINE
  5
2A6
330
1F
100
AcDbEntity
  8
0
  6
Continuous
 62
     7
370
    25
100
AcDbLine
 10
45.9385492064
 20
30.5504111492
 30
0.0
 11
45.9339770626
 21
30.550697448
 31
0.0
  0
LINE
  5
2A7
330
1F
100
AcDbEntity
  8
0
  6
Continuous
 62
     7
370
    25
100
AcDbLine
 10
45.9385492064
 20
30.5504111492
 30
0.0
 11
45.9067058397
 21
30.5687939335
 31
0.0
  0
LINE
  5
2A8
330
1F
100
AcDbEntity
  8
0
  6
Continuous
 62
     7
370
    25
100
AcDbLine
 10
45.8693247666
 20
30.5856672804
 30
0.0
 11
45.8702903293
 21
30.5874630166
 31
0.0
  0
LINE
  5
2A9
330
1F
100
AcDbEntity
  8
0
  6
Continuous
 62
     7
370
    25
100
AcDbLine
 10
45.9049711818
 20
30.5655678478
 30
0.0
 11
45.9067058397
 21
30.5687939335
 31
0.0
  0
LWPOLYLINE
  5
2AA
330
1F
100
AcDbEntity
  8
0
  6
Continuous
 62
     7
370
    25
100
AcDbPolyline
 90
       23
 70
   128
 43
0.0
 10
45.7758616098
 20
29.1949538082
 10
45.7872079932
 20
29.1920459782
 10
45.801555745
 20
29.1922395525
 10
45.8177424958
 20
29.1955188489
 10
45.8344568912
 20
29.2016181983
 10
45.8503448304
 20
29.2100434676
 10
45.8641191669
 20
29.2201120916
 10
45.8746639861
 20
29.2310083704
 10
45.8811250093
 20
29.2418495521
 10
45.8829788028
 20
29.2517573488
 10
45.8800751834
 20
29.2599290896
 10
45.872649385
 20
29.2657027488
 10
45.8613030017
 20
29.2686105788
 10
45.8469552498
 20
29.2684170045
 10
45.8307684991
 20
29.2651377081
 10
45.8140541036
 20
29.2590383587
 10
45.7981661645
 20
29.2506130894
 10
45.7843918279
 20
29.2405444654
 10
45.7738470088
 20
29.2296481866
 10
45.7673859856
 20
29.2188070049
 10
45.765532192
 20
29.2088992082
 10
45.7684358114
 20
29.2007274673
 10
45.7758616098
 20
29.1949538082
  0
LINE
  5
2AB
330
1F
100
AcDbEntity
  8
0
  6
Continuous
 62
     7
370
    25
100
AcDbLine
 10
45.8619365286
 20
29.2334139147
 30
0.0
 11
45.8586299055
 21
29.2554549327
 31
0.0
  0
LINE
  5
2AC
330
1F
100
AcDbEntity
  8
0
  6
Continuous
 62
     7
370
    25
100
AcDbLine
 10
45.8209488744
 20
29.2523692966
 30
0.0
 11
45.8586299055
 21
29.2554549327
 31
0.0
  0
LINE
  5
2AD
330
1F
100
AcDbEntity
  8
0
  6
Continuous
 62
     7
370
    25
100
AcDbLine
 10
45.7865744663
 20
29.2272426423
 30
0.0
 11
45.8209488744
 21
29.2523692966
 31
0.0
  0
LINE
  5
2AE
330
1F
100
AcDbEntity
  8
0
  6
Continuous
 62
     7
370
    25
100
AcDbLine
 10
45.7865744663
 20
29.2272426423
 30
0.0
 11
45.7898810893
 21
29.2052016243
 31
0.0
  0
LINE
  5
2AF
330
1F
100
AcDbEntity
  8
0
  6
Continuous
 62
     7
370
    25
100
AcDbLine
 10
45.8275621204
 20
29.2082872604
 30
0.0
 11
45.7898810893
 21
29.2052016243
 31
0.0
  0
LINE
  5
2B0
330
1F
100
AcDbEntity
  8
0
  6
Continuous
 62
     7
370
    25
100
AcDbLine
 10
45.8275621204
 20
29.2082872604
 30
0.0
 11
45.8619365286
 21
29.2334139147
 31
0.0
  0
LINE
  5
2B1
330
1F
100
AcDbEntity
  8
0
  6
Continuous
 62
     7
370
    25
100
AcDbLine
 10
45.8517641151
 20
29.2548927047
 30
0.0
 11
45.8619365286
 21
29.2334139147
 31
0.0
  0
LINE
  5
2B2
330
1F
100
AcDbEntity
  8
0
  6
Continuous
 62
     7
370
    25
100
AcDbLine
 10
45.8103529453
 20
29.2446239924
 30
0.0
 11
45.8275621204
 21
29.2082872604
 31
0.0
  0
LWPOLYLINE
  5
2B3
330
1F
100
AcDbEntity
  8
0
  6
Continuous
 62
     7
370
    25
100
AcDbPolyline
 90
       33
 70
   128
 43
0.0
 10
42.4121278016
 20
35.7523503299
 10
42.4268538632
 20
35.759904302
 10
42.4543012084
 20
35.7695936396
 10
42.4838138258
 20
35.774808014
 10
42.5150984056
 20
35.7754956025
 10
42.5478440278
 20
35.7716495716
 10
42.5817252515
 20
35.7633081448
 10
42.6164053499
 20
35.750554223
 10
42.6515396567
 20
35.7335145603
 10
42.6867789913
 20
35.7123585047
 10
42.7217731294
 20
35.6872963144
 10
42.7561742835
 20
35.6585770688
 10
42.7896405595
 20
35.6264861927
 10
42.8218393545
 20
35.5913426196
 10
42.8524506625
 20
35.5534956221
 10
42.8811702544
 20
35.5133213407
 10
42.9077127021
 20
35.4712190454
 10
42.9318142148
 20
35.4276071678
 10
42.9532352608
 20
35.3829191423
 10
42.9717629483
 20
35.3375990986
 10
42.9872131406
 20
35.2920974476
 10
42.9994322868
 20
35.2468664052
 10
43.0082989476
 20
35.2023554978
 10
43.0137250021
 20
35.1590070947
 10
43.0156565238
 20
35.117252012
 10
43.0140743162
 20
35.0775052304
 10
43.0089941042
 20
35.0401617712
 10
43.0004663771
 20
35.0055927705
 10
42.9885758873
 20
34.9741417906
 10
42.9734408078
 20
34.9461214054
 10
42.955211558
 20
34.9218100942
 10
42.9340693081
 20
34.9014494736
 10
42.9120871679
 20
34.8863014676
  0
LWPOLYLINE
  5
2B4
330
1F
100
AcDbEntity
  8
0
  6
Continuous
 62
     7
370
    25
100
AcDbPolyline
 90
       33
 70
   128
 43
0.0
 10
59.3826905501
 20
45.5492476718
 10
59.3974166117
 20
45.5568016439
 10
59.4248639569
 20
45.5664909814
 10
59.4543765743
 20
45.5717053559
 10
59.4856611541
 20
45.5723929444
 10
59.5184067762
 20
45.5685469135
 10
59.5522879999
 20
45.5602054867
 10
59.5869680984
 20
45.5474515649
 10
59.6221024052
 20
45.5304119022
 10
59.6573417398
 20
45.5092558466
 10
59.6923358779
 20
45.4841936563
 10
59.726737032
 20
45.4554744107
 10
59.760203308
 20
45.4233835346
 10
59.792402103
 20
45.3882399615
 10
59.823013411
 20
45.350392964
 10
59.8517330029
 20
45.3102186826
 10
59.8782754506
 20
45.2681163873
 10
59.9023769633
 20
45.2245045097
 10
59.9237980093
 20
45.1798164842
 10
59.9423256967
 20
45.1344964405
 10
59.957775889
 20
45.0889947895
 10
59.9699950353
 20
45.043763747
 10
59.9788616961
 20
44.9992528396
 10
59.9842877506
 20
44.9559044366
 10
59.9862192722
 20
44.9141493539
 10
59.9846370647
 20
44.8744025722
 10
59.9795568527
 20
44.837059113
 10
59.9710291256
 20
44.8024901124
 10
59.9591386358
 20
44.7710391324
 10
59.9440035563
 20
44.7430187473
 10
59.9257743064
 20
44.7187074361
 10
59.9046320566
 20
44.6983468155
 10
59.8826499164
 20
44.6831988094
  0
LWPOLYLINE
  5
2B5
330
1F
100
AcDbEntity
  8
0
  6
Continuous
 62
     7
370
    25
100
AcDbPolyline
 90
       80
 70
   128
 43
0.0
 10
58.8576702333
 20
46.4585626125
 10
58.9023440482
 20
46.481544824
 10
58.9493157396
 20
46.5002312287
 10
58.998437517
 20
46.5145630322
 10
59.0495548251
 20
46.5244951413
 10
59.1025068301
 20
46.5299963061
 10
59.1571269253
 20
46.5310492177
 10
59.2132432557
 20
46.5276505634
 10
59.2706792585
 20
46.5198110366
 10
59.3292542188
 20
46.5075553033
 10
59.3887838382
 20
46.4909219245
 10
59.4490808144
 20
46.4699632351
 10
59.5099554308
 20
46.4447451789
 10
59.5712161534
 20
46.4153471011
 10
59.6326702333
 20
46.381861499
 10
59.6941243131
 20
46.3443937308
 10
59.7553850357
 20
46.3030616838
 10
59.8162596522
 20
46.2579954039
 10
59.8765566284
 20
46.2093366864
 10
59.9360862477
 20
46.1572386297
 10
59.9946612081
 20
46.1018651533
 10
60.0520972109
 20
46.0433904828
 10
60.1082135412
 20
45.9819986012
 10
60.1628336364
 20
45.91788267
 10
60.2157856414
 20
45.8512444217
 10
60.2669029496
 20
45.7822935247
 10
60.316024727
 20
45.7112469243
 10
60.3629964183
 20
45.6383281592
 10
60.4076702333
 20
45.5637666588
 10
60.4499056115
 20
45.4877970213
 10
60.4895696649
 20
45.4106582752
 10
60.5265375957
 20
45.3325931276
 10
60.560693089
 20
45.2538472002
 10
60.5919286791
 20
45.174668257
 10
60.6201460873
 20
45.0953054241
 10
60.645256531
 20
45.0160084064
 10
60.6671810037
 20
44.9370267016
 10
60.6858505228
 20
44.8586088154
 10
60.701206347
 20
44.7810014796
 10
60.7132001612
 20
44.7044488754
 10
60.7217942286
 20
44.6291918657
 10
60.726961509
 20
44.5554672369
 10
60.7286857441
 20
44.483506954
 10
60.726961509
 20
44.4135374305
 10
60.7217942286
 20
44.3457788166
 10
60.7132001612
 20
44.2804443059
 10
60.701206347
 20
44.2177394649
 10
60.6858505228
 20
44.1578615863
 10
60.6671810037
 20
44.1009990681
 10
60.645256531
 20
44.0473308206
 10
60.6201460873
 20
43.9970257042
 10
60.5919286791
 20
43.9502419973
 10
60.560693089
 20
43.9071268987
 10
60.5265375957
 20
43.8678160646
 10
60.4895696649
 20
43.8324331813
 10
60.4499056115
 20
43.8010895765
 10
60.4076702333
 20
43.7738838687
 10
60.3629964183
 20
43.7509016572
 10
60.316024727
 20
43.7322152526
 10
60.2669029496
 20
43.7178834491
 10
60.2157856414
 20
43.7079513399
 10
60.1628336364
 20
43.7024501751
 10
60.1082135412
 20
43.7013972635
 10
60.0520972109
 20
43.7047959178
 10
59.9946612081
 20
43.7126354447
 10
59.9360862477
 20
43.724891178
 10
59.8765566284
 20
43.7415245567
 10
59.8162596522
 20
43.7624832461
 10
59.7553850357
 20
43.7877013024
 10
59.6941243131
 20
43.8170993801
 10
59.6326702333
 20
43.8505849822
 10
59.5712161534
 20
43.8880527505
 10
59.5099554308
 20
43.9293847975
 10
59.4490808144
 20
43.9744510773
 10
59.3887838382
 20
44.0231097948
 10
59.3292542188
 20
44.0752078516
 10
59.2706792585
 20
44.1305813279
 10
59.2132432557
 20
44.1890559984
 10
59.1571269253
 20
44.25044788
 10
59.1490202684
 20
44.2596834284
  0
LWPOLYLINE
  5
2B6
330
1F
100
AcDbEntity
  8
0
  6
Continuous
 62
     7
370
    25
100
AcDbPolyline
 90
       24
 70
   128
 43
0.0
 10
58.6490609021
 20
45.1257322908
 10
58.6451943793
 20
45.1371410572
 10
58.6200839355
 20
45.2164380749
 10
58.5981594628
 20
45.2954197797
 10
58.5794899438
 20
45.3738376658
 10
58.5641341196
 20
45.4514450017
 10
58.5521403053
 20
45.5279976058
 10
58.5435462379
 20
45.6032546155
 10
58.5383789576
 20
45.6769792443
 10
58.5366547224
 20
45.7489395273
 10
58.5383789576
 20
45.8189090507
 10
58.5435462379
 20
45.8866676646
 10
58.5521403053
 20
45.9520021753
 10
58.5641341196
 20
46.0147070163
 10
58.5794899438
 20
46.0745848949
 10
58.5981594628
 20
46.1314474132
 10
58.6200839355
 20
46.1851156606
 10
58.6451943793
 20
46.2354207771
 10
58.6734117874
 20
46.282204484
 10
58.7046473775
 20
46.3253195825
 10
58.7388028709
 20
46.3646304167
 10
58.7757708016
 20
46.4000133
 10
58.815434855
 20
46.4313569048
 10
58.8576702333
 20
46.4585626125
  0
LWPOLYLINE
  5
2B7
330
1F
100
AcDbEntity
  8
0
  6
Continuous
 62
     7
370
    25
100
AcDbPolyline
 90
       77
 70
   128
 43
0.0
 10
59.1165537097
 20
48.051349434
 10
59.1764076628
 20
48.0830774326
 10
59.2386126875
 20
48.1104957216
 10
59.3030596549
 20
48.1335562
 10
59.3696355033
 20
48.1522184118
 10
59.4382234359
 20
48.1664496173
 10
59.5087031262
 20
48.17622485
 10
59.5809509289
 20
48.1815269608
 10
59.6548400968
 20
48.1823466481
 10
59.7302410033
 20
48.1786824739
 10
59.8070213694
 20
48.1705408663
 10
59.8850464963
 20
48.1579361085
 10
59.9641795014
 20
48.1408903136
 10
60.0442815586
 20
48.1194333855
 10
60.1252121417
 20
48.0936029672
 10
60.2068292708
 20
48.0634443739
 10
60.2889897619
 20
48.029010514
 10
60.3715494774
 20
47.9903617963
 10
60.4543635797
 20
47.9475660236
 10
60.5372867845
 20
47.9006982744
 10
60.6201736165
 20
47.8498407706
 10
60.702878664
 20
47.7950827336
 10
60.7852568342
 20
47.7365202275
 10
60.8671636078
 20
47.6742559908
 10
60.9484552925
 20
47.6083992563
 10
61.028989275
 20
47.539065559
 10
61.1086242715
 20
47.4663765337
 10
61.187220575
 20
47.3904597018
 10
61.2646403009
 20
47.3114482471
 10
61.3407476288
 20
47.2294807826
 10
61.4154090404
 20
47.144701107
 10
61.4884935544
 20
47.0572579527
 10
61.5598729556
 20
46.9673047248
 10
61.6294220203
 20
46.8749992317
 10
61.6970187359
 20
46.7805034087
 10
61.7625445147
 20
46.6839830335
 10
61.8258844022
 20
46.5856074357
 10
61.8869272788
 20
46.4855491995
 10
61.9455660544
 20
46.3839838611
 10
62.0016978569
 20
46.2810896005
 10
62.0552242118
 20
46.1770469292
 10
62.1060512159
 20
46.0720383735
 10
62.1540897012
 20
45.9662481541
 10
62.1992553919
 20
45.8598618629
 10
62.2414690521
 20
45.7530661377
 10
62.2806566247
 20
45.6460483344
 10
62.3167493613
 20
45.5389961986
 10
62.349683943
 20
45.4320975361
 10
62.3794025914
 20
45.3255398836
 10
62.4058531698
 20
45.2195101794
 10
62.428989275
 20
45.1141944355
 10
62.4487703184
 20
45.0097774117
 10
62.4651615973
 20
44.9064422907
 10
62.4781343558
 20
44.8043703576
 10
62.4876658353
 20
44.7037406813
 10
62.4937393143
 20
44.6047298002
 10
62.496344138
 20
44.5075114133
 10
62.4954757364
 20
44.4122560745
 10
62.4911356332
 20
44.3191308941
 10
62.4833314424
 20
44.2282992453
 10
62.4720768551
 20
44.1399204778
 10
62.4573916157
 20
44.0541496377
 10
62.4393014871
 20
43.9711371965
 10
62.4178382056
 20
43.891028786
 10
62.3930394249
 20
43.8139649438
 10
62.3649486508
 20
43.7400808659
 10
62.3336151637
 20
43.6695061701
 10
62.2990939335
 20
43.6023646684
 10
62.261445522
 20
43.5387741498
 10
62.2207359774
 20
43.4788461737
 10
62.1770367179
 20
43.4226858742
 10
62.130424407
 20
43.3703917755
 10
62.0809808186
 20
43.3220556192
 10
62.0287926934
 20
43.2777622033
 10
61.9739515871
 20
43.2375892336
 10
61.9165537097
 20
43.201607187
 10
61.9163945469
 20
43.2015152953
  0
LWPOLYLINE
  5
2B8
330
1F
100
AcDbEntity
  8
0
  6
Continuous
 62
     7
370
    25
100
AcDbPolyline
 90
       75
 70
   128
 43
0.0
 10
59.6044573888
 20
48.3330102326
 10
59.6643113418
 20
48.3647382312
 10
59.7265163665
 20
48.3921565202
 10
59.7909633339
 20
48.4152169985
 10
59.8575391823
 20
48.4338792104
 10
59.9261271149
 20
48.4481104158
 10
59.9966068052
 20
48.4578856485
 10
60.0688546079
 20
48.4631877594
 10
60.1427437759
 20
48.4640074467
 10
60.2181446823
 20
48.4603432725
 10
60.2949250484
 20
48.4522016649
 10
60.3729501753
 20
48.4395969071
 10
60.4520831804
 20
48.4225511121
 10
60.5321852377
 20
48.4010941841
 10
60.6131158207
 20
48.3752637658
 10
60.6947329499
 20
48.3451051725
 10
60.7768934409
 20
48.3106713126
 10
60.8594531564
 20
48.2720225948
 10
60.9422672587
 20
48.2292268222
 10
61.0251904635
 20
48.182359073
 10
61.1080772955
 20
48.1315015692
 10
61.190782343
 20
48.0767435322
 10
61.2731605132
 20
48.0181810261
 10
61.3550672868
 20
47.9559167894
 10
61.4363589715
 20
47.8900600549
 10
61.5168929541
 20
47.8207263576
 10
61.5965279505
 20
47.7480373323
 10
61.675124254
 20
47.6721205004
 10
61.75254398
 20
47.5931090457
 10
61.8286513078
 20
47.5111415811
 10
61.9033127195
 20
47.4263619056
 10
61.9763972334
 20
47.3389187513
 10
62.0477766346
 20
47.2489655234
 10
62.1173256994
 20
47.1566600303
 10
62.1849224149
 20
47.0621642073
 10
62.2504481937
 20
46.9656438321
 10
62.3137880812
 20
46.8672682343
 10
62.3748309578
 20
46.7672099981
 10
62.4334697335
 20
46.6656446596
 10
62.4896015359
 20
46.562750399
 10
62.5431278909
 20
46.4587077278
 10
62.5939548949
 20
46.3536991721
 10
62.6419933802
 20
46.2479089527
 10
62.6871590709
 20
46.1415226615
 10
62.7293727311
 20
46.0347269362
 10
62.7685603037
 20
45.9277091329
 10
62.8046530403
 20
45.8206569971
 10
62.837587622
 20
45.7137583347
 10
62.8673062704
 20
45.6072006822
 10
62.8937568489
 20
45.501170978
 10
62.9168929541
 20
45.3958552341
 10
62.9366739974
 20
45.2914382102
 10
62.9530652763
 20
45.1881030893
 10
62.9660380348
 20
45.0860311562
 10
62.9755695143
 20
44.9854014799
 10
62.9816429933
 20
44.8863905988
 10
62.984247817
 20
44.7891722119
 10
62.9833794155
 20
44.6939168731
 10
62.9790393123
 20
44.6007916927
 10
62.9712351214
 20
44.5099600439
 10
62.9599805341
 20
44.4215812763
 10
62.9452952947
 20
44.3358104363
 10
62.9272051661
 20
44.2527979951
 10
62.9057418846
 20
44.1726895846
 10
62.880943104
 20
44.0956257424
 10
62.8528523298
 20
44.0217416644
 10
62.8215188428
 20
43.9511669686
 10
62.7869976125
 20
43.8840254669
 10
62.749349201
 20
43.8204349484
 10
62.7086396564
 20
43.7605069723
 10
62.6649403969
 20
43.7043466728
 10
62.6183280861
 20
43.6520525741
 10
62.5688844976
 20
43.6037164177
 10
62.5166963724
 20
43.5594230019
 10
62.4827944714
 20
43.5338769287
  0
LWPOLYLINE
  5
2B9
330
1F
100
AcDbEntity
  8
0
  6
Continuous
 62
     7
370
    25
100
AcDbPolyline
 90
       40
 70
   128
 43
0.0
 10
59.5589228494
 20
48.6503770084
 10
59.5597318283
 20
48.6507731152
 10
59.624931354
 20
48.6799381932
 10
59.6923792787
 20
48.7047592144
 10
59.7619689535
 20
48.7251969317
 10
59.8335903427
 20
48.7412190288
 10
59.9071301983
 20
48.7528001715
 10
59.9824722386
 20
48.7599220476
 10
60.0594973323
 20
48.762573396
 10
60.138083687
 20
48.7607500243
 10
60.2181070415
 20
48.7544548157
 10
60.2994408624
 20
48.7436977242
 10
60.3819565442
 20
48.728495759
 10
60.4655236126
 20
48.7088729575
 10
60.550009931
 20
48.6848603473
 10
60.6352819091
 20
48.6564958974
 10
60.7212047144
 20
48.6238244578
 10
60.8076424852
 20
48.5868976887
 10
60.8944585458
 20
48.5457739789
 10
60.9815156219
 20
48.5005183536
 10
61.0686760587
 20
48.451202371
 10
61.1558020373
 20
48.3979040101
 10
61.2427557938
 20
48.3407075463
 10
61.3293998365
 20
48.2797034191
 10
61.4155971632
 20
48.2149880885
 10
61.5012114783
 20
48.1466638828
 10
61.5861074079
 20
48.0748388366
 10
61.6701507142
 20
47.99962652
 10
61.7532085074
 20
47.9211458592
 10
61.835149456
 20
47.8395209482
 10
61.9158439946
 20
47.7548808529
 10
61.9951645285
 20
47.6673594065
 10
62.0729856356
 20
47.5770949985
 10
62.1491842648
 20
47.4842303554
 10
62.2236399304
 20
47.3889123155
 10
62.2962349027
 20
47.2912915959
 10
62.3668543941
 20
47.1915225553
 10
62.4353867406
 20
47.0897629489
 10
62.5017235786
 20
46.9861736797
 10
62.5348447419
 20
46.9324138677
  0
LWPOLYLINE
  5
2BA
330
1F
100
AcDbEntity
  8
0
  6
Continuous
 62
     7
370
    25
100
AcDbPolyline
 90
       40
 70
   128
 43
0.0
 10
62.656533516
 20
46.7216427288
 10
62.6865304667
 20
46.666078761
 10
62.7430735173
 20
46.5568338206
 10
62.7969345433
 20
46.4466018878
 10
62.8480283793
 20
46.335557262
 10
62.8962742356
 20
46.2238755275
 10
62.9415958254
 20
46.1117332761
 10
62.983921486
 20
45.9993078277
 10
63.023184292
 20
45.8867769501
 10
63.0593221606
 20
45.7743185778
 10
63.0922779505
 20
45.6621105305
 10
63.1219995518
 20
45.5503302322
 10
63.1484399686
 20
45.4391544305
 10
63.1715573931
 20
45.3287589174
 10
63.191315272
 20
45.2193182506
 10
63.2076823639
 20
45.1110054785
 10
63.2206327891
 20
45.0039918658
 10
63.2301460704
 20
44.8984466229
 10
63.2362071652
 20
44.7945366388
 10
63.2388064898
 20
44.6924262162
 10
63.2379399341
 20
44.592276813
 10
63.2336088683
 20
44.4942467857
 10
63.2258201406
 20
44.3984911401
 10
63.2145860667
 20
44.3051612855
 10
63.19992441
 20
44.2144047956
 10
63.1818583535
 20
44.1263651751
 10
63.1604164634
 20
44.0411816327
 10
63.1356326437
 20
43.958988861
 10
63.1075460828
 20
43.8799168238
 10
63.0762011912
 20
43.8040905502
 10
63.0416475317
 20
43.7316299372
 10
63.0039397407
 20
43.6626495597
 10
62.963137442
 20
43.5972584901
 10
62.9193051524
 20
43.535560125
 10
62.8725121798
 20
43.4776520222
 10
62.8228325135
 20
43.4236257463
 10
62.7703447072
 20
43.373566724
 10
62.7151317549
 20
43.3275541089
 10
62.6572809597
 20
43.2856606564
 10
62.656533516
 20
43.2851579674
  0
ARC
  5
2BB
330
1F
100
AcDbEntity
  8
0
  6
Continuous
 62
     7
370
    25
100
AcDbCircle
 10
62.0141838013
 20
44.3635049864
 30
0.0
 40
1.261706392471686
100
AcDbArc
 50
258.9345523054
 51
293.440933074
  0
ARC
  5
2BC
330
1F
100
AcDbEntity
  8
0
  6
Continuous
 62
     7
370
    25
100
AcDbCircle
 10
60.1547464336
 20
47.5675101414
 30
0.0
 40
1.241519039998486
100
AcDbArc
 50
126.2802366662
 51
161.3120443066
  0
LWPOLYLINE
  5
2BD
330
1F
100
AcDbEntity
  8
0
  6
Continuous
 62
     7
370
    25
100
AcDbPolyline
 90
       82
 70
   128
 43
0.0
 10
59.5227721433
 20
48.7765887784
 10
59.5869133744
 20
48.8107931568
 10
59.6534125006
 20
48.8406922729
 10
59.7221682546
 20
48.8662405954
 10
59.7930759326
 20
48.8873992183
 10
59.8660275542
 20
48.9041359206
 10
59.9409120258
 20
48.9164252151
 10
60.0176153109
 20
48.924248387
 10
60.096020603
 20
48.9275935232
 10
60.1760085038
 20
48.9264555294
 10
60.2574572049
 20
48.9208361386
 10
60.3402426733
 20
48.9107439083
 10
60.4242388405
 20
48.8961942072
 10
60.5093177941
 20
48.8772091922
 10
60.5953499729
 20
48.8538177743
 10
60.6822043641
 20
48.8260555748
 10
60.7697487028
 20
48.7939648708
 10
60.8578496735
 20
48.7575945314
 10
60.9463731127
 20
48.7169999424
 10
61.0351842141
 20
48.6722429227
 10
61.1241477328
 20
48.62339163
 10
61.2131281922
 20
48.5705204567
 10
61.3019900897
 20
48.5137099168
 10
61.3905981033
 20
48.4530465234
 10
61.4788172975
 20
48.3886226569
 10
61.5665133291
 20
48.3205364242
 10
61.6535526515
 20
48.2488915094
 10
61.7398027183
 20
48.1737970158
 10
61.8251321846
 20
48.0953673001
 10
61.9094111079
 20
48.0137217977
 10
61.9925111453
 20
47.9289848413
 10
62.0743057491
 20
47.8412854712
 10
62.1546703595
 20
47.7507572392
 10
62.2334825947
 20
47.6575380048
 10
62.3106224365
 20
47.5617697255
 10
62.3859724136
 20
47.4635982406
 10
62.4594177806
 20
47.3631730491
 10
62.5308466921
 20
47.2606470821
 10
62.6001503739
 20
47.1561764695
 10
62.6672232877
 20
47.049920303
 10
62.7319632926
 20
46.9420403931
 10
62.7942718003
 20
46.8327010233
 10
62.8540539252
 20
46.7220686992
 10
62.9112186289
 20
46.6103118956
 10
62.965678859
 20
46.4976007999
 10
63.0173516817
 20
46.3841070522
 10
63.0661584077
 20
46.270003485
 10
63.1120247124
 20
46.1554638591
 10
63.154880749
 20
46.0406625995
 10
63.1946612548
 20
45.9257745296
 10
63.2313056507
 20
45.8109746049
 10
63.2647581334
 20
45.6964376467
 10
63.2949677601
 20
45.5823380761
 10
63.3218885267
 20
45.4688496478
 10
63.3454794371
 20
45.3561451859
 10
63.3657045665
 20
45.2443963208
 10
63.3825331152
 20
45.1337732276
 10
63.3959394561
 20
45.0244443669
 10
63.4059031736
 20
44.9165762287
 10
63.4124090946
 20
44.8103330782
 10
63.4154473116
 20
44.7058767063
 10
63.4150131979
 20
44.6033661828
 10
63.4111074147
 20
44.5029576144
 10
63.4037359098
 20
44.4048039066
 10
63.3929099087
 20
44.3090545314
 10
63.3786458977
 20
44.2158552994
 10
63.3609655985
 20
44.1253481376
 10
63.3398959354
 20
44.0376708734
 10
63.3154689938
 20
43.9529570248
 10
63.2877219721
 20
43.8713355972
 10
63.2566971243
 20
43.7929308864
 10
63.2224416963
 20
43.7178622899
 10
63.1850078532
 20
43.6462441247
 10
63.1444526008
 20
43.5781854536
 10
63.100837698
 20
43.5137899187
 10
63.0542295631
 20
43.4531555837
 10
63.0046991725
 20
43.3963747848
 10
62.9523219529
 20
43.3435339896
 10
62.8971776662
 20
43.2947136662
 10
62.8393502881
 20
43.2499881596
 10
62.77892788
 20
43.2094255796
 10
62.7538089574
 20
43.1942372483
  0
LWPOLYLINE
  5
2BE
330
1F
100
AcDbEntity
  8
0
  6
Continuous
 62
     7
370
    25
100
AcDbPolyline
 90
       39
 70
   128
 43
0.0
 10
59.6508729694
 20
48.428180418
 10
59.6772000743
 20
48.4414739283
 10
59.7398564347
 20
48.4691975412
 10
59.8047458293
 20
48.4925874733
 10
59.8717573959
 20
48.5116037633
 10
59.9407766462
 20
48.5262139222
 10
60.011685662
 20
48.5363929888
 10
60.0843632964
 20
48.5421235723
 10
60.158685381
 20
48.5433958821
 10
60.2345249376
 20
48.5402077445
 10
60.3117523958
 20
48.5325646064
 10
60.3902358136
 20
48.520479526
 10
60.4698411035
 20
48.5039731503
 10
60.5504322611
 20
48.4830736803
 10
60.6318715978
 20
48.4578168224
 10
60.714019976
 20
48.4282457275
 10
60.7967370463
 20
48.3944109173
 10
60.8798814883
 20
48.3563701979
 10
60.9633112508
 20
48.3141885615
 10
61.0468837956
 20
48.2679380744
 10
61.1304563405
 20
48.2176977551
 10
61.213886103
 20
48.1635534381
 10
61.2970305449
 20
48.1055976281
 10
61.3797476153
 20
48.0439293417
 10
61.4618959934
 20
47.9786539381
 10
61.5433353302
 20
47.9098829393
 10
61.6239264878
 20
47.8377338392
 10
61.7035317777
 20
47.7623299036
 10
61.7820151955
 20
47.6837999586
 10
61.8592426536
 20
47.6022781715
 10
61.9350822103
 20
47.5179038208
 10
62.0094042949
 20
47.4308210586
 10
62.0820819293
 20
47.3411786645
 10
62.1529909451
 20
47.2491297909
 10
62.2220101954
 20
47.1548317018
 10
62.2890217619
 20
47.058445504
 10
62.3539111566
 20
46.9601358715
 10
62.416567517
 20
46.8600707648
 10
62.4213683711
 20
46.8521792451
  0
LWPOLYLINE
  5
2BF
330
1F
100
AcDbEntity
  8
0
  6
Continuous
 62
     7
370
    25
100
AcDbPolyline
 90
       39
 70
   128
 43
0.0
 10
62.5303186123
 20
46.6634723027
 10
62.5347569433
 20
46.6553606741
 10
62.5900880847
 20
46.5510654337
 10
62.6427826874
 20
46.4457136092
 10
62.6927507236
 20
46.3394851922
 10
62.7399068238
 20
46.2325616723
 10
62.7841704225
 20
46.1251257264
 10
62.8254658962
 20
46.0173609071
 10
62.8637226922
 20
45.9094513288
 10
62.8988754495
 20
45.8015813532
 10
62.93086411
 20
45.6939352743
 10
62.9596340218
 20
45.5866970037
 10
62.9851360319
 20
45.480049756
 10
63.0073265706
 20
45.3741757365
 10
63.0261677257
 20
45.269255829
 10
63.0416273074
 20
45.1654692875
 10
63.0536789032
 20
45.0629934294
 10
63.0623019233
 20
44.9620033332
 10
63.0674816353
 20
44.8626715387
 10
63.0692091898
 20
44.7651677525
 10
63.0674816353
 20
44.6696585584
 10
63.0623019233
 20
44.576307132
 10
63.0536789032
 20
44.4852729629
 10
63.0416273074
 20
44.3967115813
 10
63.0261677257
 20
44.3107742928
 10
63.0073265706
 20
44.2276079199
 10
62.9851360319
 20
44.147354551
 10
62.9596340218
 20
44.0701512975
 10
62.93086411
 20
43.99613006
 10
62.8988754495
 20
43.9254173024
 10
62.8637226922
 20
43.8581338364
 10
62.8254658962
 20
43.7943946146
 10
62.7841704225
 20
43.7343085343
 10
62.7399068238
 20
43.6779782518
 10
62.6927507236
 20
43.6255000062
 10
62.6427826874
 20
43.5769634558
 10
62.5900880847
 20
43.5324515246
 10
62.5347569433
 20
43.4920402603
 10
62.510083636
 20
43.4758822883
  0
ARC
  5
2C0
330
1F
100
AcDbEntity
  8
0
  6
Continuous
 62
     7
370
    25
100
AcDbCircle
 10
61.9827406405
 20
44.3205692949
 30
0.0
 40
0.9961680702651265
100
AcDbArc
 50
279.9793776702
 51
296.844513812
  0
ARC
  5
2C1
330
1F
100
AcDbEntity
  8
0
  6
Continuous
 62
     7
370
    25
100
AcDbCircle
 10
60.1169815211
 20
47.5513643415
 30
0.0
 40
0.9933411163853256
100
AcDbArc
 50
123.1412776111
 51
140.0395199963
  0
ARC
  5
2C2
330
1F
100
AcDbEntity
  8
0
  6
Continuous
 62
     7
370
    25
100
AcDbCircle
 10
44.0765750754
 20
30.7305610235
 30
0.0
 40
0.3331907949303849
100
AcDbArc
 50
48.4743487514
 51
65.1367103443
  0
LWPOLYLINE
  5
2C3
330
1F
100
AcDbEntity
  8
0
  6
Continuous
 62
     7
370
    25
100
AcDbPolyline
 90
        3
 70
   128
 43
0.0
 10
43.801112367
 20
30.134307029
 10
43.8075445756
 20
30.1314156041
 10
43.8173692497
 20
30.1273129528
  0
LWPOLYLINE
  5
2C4
330
1F
100
AcDbEntity
  8
0
  6
Continuous
 62
     7
370
    25
100
AcDbPolyline
 90
       32
 70
   128
 43
0.0
 10
44.3968236144
 20
30.930111397
 10
44.4310326899
 20
30.9074344284
 10
44.4624874464
 20
30.8805205652
 10
44.4908651156
 20
30.84964598
 10
44.5158745042
 20
30.8151274878
 10
44.5372589821
 20
30.7773192951
 10
44.5547991155
 20
30.7366093652
 10
44.568314919
 20
30.6934154369
 10
44.5776677021
 20
30.6481807384
 10
44.5827614926
 20
30.601369439
 10
44.5835440213
 20
30.553461886
 10
44.5800072584
 20
30.5049496756
 10
44.5721874959
 20
30.4563306087
 10
44.5601649752
 20
30.4081035829
 10
44.5440630635
 20
30.3607634726
 10
44.5240469884
 20
30.3147960514
 10
44.5003221417
 20
30.2706730074
 10
44.4731319725
 20
30.2288471025
 10
44.4427554888
 20
30.1897475273
 10
44.4095043943
 20
30.1537754962
 10
44.3737198904
 20
30.121300131
 10
44.3357691744
 20
30.0926546728
 10
44.296041672
 20
30.0681330629
 10
44.2549450413
 20
30.0479869261
 10
44.2129009891
 20
30.0324229891
 10
44.1703409444
 20
30.0216009589
 10
44.1277016309
 20
30.0156318842
 10
44.0854205856
 20
30.0145770157
 10
44.0439316692
 20
30.0184471779
 10
44.0036606142
 20
30.0272026577
 10
43.965020656
 20
30.0407536119
 10
43.9548388035
 20
30.0452549274
  0
ARC
  5
2C5
330
1F
100
AcDbEntity
  8
0
  6
Continuous
 62
     7
370
    25
100
AcDbCircle
 10
44.0621671518
 20
30.2679128469
 30
0.0
 40
0.2499015093568107
100
AcDbArc
 50
176.6128060286
 51
233.9595593714
  0
ARC
  5
2C6
330
1F
100
AcDbEntity
  8
0
  6
Continuous
 62
     7
370
    25
100
AcDbCircle
 10
44.3105788583
 20
30.6578439737
 30
0.0
 40
0.2856006088085541
100
AcDbArc
 50
72.4236273097
 51
130.9756643771
  0
ARC
  5
2C7
330
1F
100
AcDbEntity
  8
0
  6
Continuous
 62
     7
370
    25
100
AcDbCircle
 10
41.6462111451
 20
35.024201527
 30
0.0
 40
0.2487659525315936
100
AcDbArc
 50
54.0187758052
 51
114.6546511764
  0
ARC
  5
2C8
330
1F
100
AcDbEntity
  8
0
  6
Continuous
 62
     7
370
    25
100
AcDbCircle
 10
41.3632570293
 20
34.5341729487
 30
0.0
 40
0.2487518221303546
100
AcDbArc
 50
185.3515407987
 51
245.9887821643
  0
ARC
  5
2C9
330
1F
100
AcDbEntity
  8
0
  6
Continuous
 62
     7
370
    25
100
AcDbCircle
 10
42.2519920061
 20
34.7912995198
 30
0.0
 40
0.2488361906208229
100
AcDbArc
 50
305.3665794324
 51
5.9826188037
  0
ARC
  5
2CA
330
1F
100
AcDbEntity
  8
0
  6
Continuous
 62
     7
370
    25
100
AcDbCircle
 10
41.8679036382
 20
34.1259235606
 30
0.0
 40
0.2487784393200877
100
AcDbArc
 50
294.0130832943
 51
354.6279581031
  0
ARC
  5
2CB
330
1F
100
AcDbEntity
  8
0
  6
Continuous
 62
     7
370
    25
100
AcDbCircle
 10
41.8659841268
 20
32.7146687078
 30
0.0
 40
0.2508054264772046
100
AcDbArc
 50
294.2871366209
 51
354.3927224215
  0
LWPOLYLINE
  5
2CC
330
1F
100
AcDbEntity
  8
0
  6
Continuous
 62
     7
370
    25
100
AcDbPolyline
 90
       25
 70
   128
 43
0.0
 10
41.1155894486
 20
32.6901626825
 10
41.1165604907
 20
32.6721822398
 10
41.1221414592
 20
32.6435877563
 10
41.1326265355
 20
32.6154561553
 10
41.1479115142
 20
32.5880670214
 10
41.1678444863
 20
32.56169256
 10
41.192227349
 20
32.5365948924
 10
41.2208177745
 20
32.5130234505
 10
41.2533316182
 20
32.4912124979
 10
41.289445743
 20
32.4713788016
 10
41.3288012305
 20
32.4537194778
 10
41.3710069481
 20
32.4384100328
 10
41.4156434365
 20
32.4256026187
 10
41.4622670782
 20
32.4154245214
 10
41.5104145065
 20
32.4079768954
 10
41.5596072106
 20
32.4033337585
 10
41.6093562913
 20
32.4015412563
 10
41.65916732
 20
32.4026172035
 10
41.7085452522
 20
32.4065509069
 10
41.7569993479
 20
32.4133032715
 10
41.8040480484
 20
32.4228071893
 10
41.8492237628
 20
32.4349682062
 10
41.8920775143
 20
32.4496654603
 10
41.9321834032
 20
32.466752884
 10
41.9691428392
 20
32.4860606546
  0
LWPOLYLINE
  5
2CD
330
1F
100
AcDbEntity
  8
0
  6
Continuous
 62
     7
370
    25
100
AcDbPolyline
 90
       18
 70
   128
 43
0.0
 10
42.612532817
 20
31.1887595652
 10
42.6343310343
 20
31.2335811527
 10
42.6523988386
 20
31.2799857407
 10
42.6665566641
 20
31.3275121397
 10
42.6766638038
 20
31.3756880109
 10
42.6826198086
 20
31.4240345609
 10
42.6843654849
 20
31.4720713
 10
42.6818834835
 20
31.5193208174
 10
42.6751984715
 20
31.5653135262
 10
42.6643768877
 20
31.6095923302
 10
42.6495262818
 20
31.6517171667
 10
42.6307942458
 20
31.6912693803
 10
42.608366947
 20
31.7278558833
 10
42.5824672781
 20
31.7611130624
 10
42.5533526416
 20
31.7907103931
 10
42.5213123918
 20
31.8163537236
 10
42.4866649592
 20
31.8377881991
 10
42.4688758508
 20
31.8466715653
  0
LWPOLYLINE
  5
2CE
330
1F
100
AcDbEntity
  8
0
  6
Continuous
 62
     7
370
    25
100
AcDbPolyline
 90
       17
 70
   128
 43
0.0
 10
42.0490718157
 20
30.9390567955
 10
42.049488617
 20
30.9388643354
 10
42.0873940152
 20
30.9241289028
 10
42.1270047064
 20
30.9140519463
 10
42.1679270216
 20
30.9087336151
 10
42.2097542566
 20
30.9082267653
 10
42.2520707134
 20
30.9125364341
 10
42.2944558321
 20
30.9216197902
 10
42.3364883703
 20
30.935386559
 10
42.3777505898
 20
30.9536999202
 10
42.4178324081
 20
30.9763778675
 10
42.4563354742
 20
31.0031950171
 10
42.4928771272
 20
31.0338848482
 10
42.5270941997
 20
31.0681423515
 10
42.5586466272
 20
31.1056270605
 10
42.5872208274
 20
31.1459664354
 10
42.612532817
 20
31.1887595652
  0
LINE
  5
2CF
330
1F
100
AcDbEntity
  8
0
  6
Continuous
 62
     7
370
    25
100
AcDbLine
 10
14.4660459111
 20
8.2902119331
 30
0.0
 11
14.4660459111
 21
8.7735288299
 31
0.0
  0
LINE
  5
2D0
330
1F
100
AcDbEntity
  8
0
  6
Continuous
 62
     7
370
    25
100
AcDbLine
 10
14.4660459111
 20
5.4342119331
 30
0.0
 11
14.4660459111
 21
8.0183514466
 31
0.0
  0
LINE
  5
2D1
330
1F
100
AcDbEntity
  8
0
  6
Continuous
 62
     7
370
    25
100
AcDbLine
 10
14.4660459111
 20
4.7982398003
 30
0.0
 11
14.4660459111
 21
5.1623514466
 31
0.0
  0
LINE
  5
2D2
330
1F
100
AcDbEntity
  8
0
  6
Continuous
 62
     7
370
    25
100
AcDbLine
 10
11.2660459111
 20
11.9682398003
 30
0.0
 11
11.2660459111
 21
4.7982398003
 31
0.0
  0
LINE
  5
2D3
330
1F
100
AcDbEntity
  8
0
  6
Continuous
 62
     7
370
    25
100
AcDbLine
 10
11.2660459111
 20
11.9682398003
 30
0.0
 11
11.2713349406
 21
11.9682398003
 31
0.0
  0
LINE
  5
2D4
330
1F
100
AcDbEntity
  8
0
  6
Continuous
 62
     7
370
    25
100
AcDbLine
 10
11.2713349406
 20
11.9682398003
 30
0.0
 11
14.4660459111
 21
8.7735288299
 31
0.0
  0
LINE
  5
2D5
330
1F
100
AcDbEntity
  8
0
  6
Continuous
 62
     7
370
    25
100
AcDbLine
 10
11.2660459111
 20
4.7982398003
 30
0.0
 11
14.4660459111
 21
4.7982398003
 31
0.0
  0
SPLINE
  5
2D6
330
1F
100
AcDbEntity
  8
0
  6
Continuous
 62
     7
370
    25
100
AcDbSpline
210
0.0
220
0.0
230
1.0
 70
     8
 71
     3
 72
    45
 73
    41
 74
     0
 42
0.00000001
 43
0.00000001
 40
0.0
 40
0.0
 40
0.0
 40
0.0
 40
0.009169305048849
 40
0.036369154962711
 40
0.0627314875299427
 40
0.0890938580403252
 40
0.116220223592224
 40
0.1433466486594056
 40
0.1697445574790709
 40
0.1961425117731148
 40
0.2233025319007778
 40
0.2504625719979429
 40
0.276942208197015
 40
0.3034218265176286
 40
0.3306704434771455
 40
0.3579190086148793
 40
0.3843994833903244
 40
0.4108799036712042
 40
0.4381344472568632
 40
0.4653889474497976
 40
0.4917872856944889
 40
0.5181856183116166
 40
0.5453532599661214
 40
0.5725209346111648
 40
0.5988825550486296
 40
0.6252442266077464
 40
0.6523680381981495
 40
0.6794919063633753
 40
0.7059192824831607
 40
0.7323466868571097
 40
0.7595378481936197
 40
0.7867290021038104
 40
0.8132221426270906
 40
0.8397152442144319
 40
0.8669799782560625
 40
0.8942446515160412
 40
0.9207011149783333
 40
0.9471575328927535
 40
0.9743874504784372
 40
1.0
 40
1.0
 40
1.0
 40
1.0
 10
14.46603637636535
 20
8.018351446587943
 30
0.0
 10
14.46603894735354
 20
8.018321041712138
 30
0.0
 10
14.46604914492769
 20
8.018200443735097
 30
0.0
 10
14.46598181650386
 20
8.018994652673484
 30
0.0
 10
14.46583704939963
 20
8.020712331191007
 30
0.0
 10
14.46561340770937
 20
8.023414367953873
 30
0.0
 10
14.4653187417555
 20
8.027056839554362
 30
0.0
 10
14.46496200274141
 20
8.031615249548123
 30
0.0
 10
14.46455739361727
 20
8.036996721135809
 30
0.0
 10
14.46411405094152
 20
8.043189067731358
 30
0.0
 10
14.46363875526394
 20
8.050233096016271
 30
0.0
 10
14.46314903031048
 20
8.058029740071568
 30
0.0
 10
14.46266352014887
 20
8.066442719504717
 30
0.0
 10
14.46219081879418
 20
8.075474811924488
 30
0.0
 10
14.46174102786495
 20
8.085161185450987
 30
0.0
 10
14.46133154254546
 20
8.095347223902115
 30
0.0
 10
14.46097798456417
 20
8.105856621827211
 30
0.0
 10
14.46068437717602
 20
8.116704578220556
 30
0.0
 10
14.46045912673987
 20
8.127929895230258
 30
0.0
 10
14.46031134916644
 20
8.139334936630542
 30
0.0
 10
14.46024625183203
 20
8.150724752923898
 30
0.0
 10
14.46026110859289
 20
8.162126687705312
 30
0.0
 10
14.46035922482155
 20
8.173582549351112
 30
0.0
 10
14.46053697883949
 20
8.18489345843222
 30
0.0
 10
14.46078714498624
 20
8.19587217736937
 30
0.0
 10
14.46110187516866
 20
8.206556618005274
 30
0.0
 10
14.46147826675381
 20
8.216969609340998
 30
0.0
 10
14.46190243836329
 20
8.226940796587893
 30
0.0
 10
14.46235817708273
 20
8.236309685200135
 30
0.0
 10
14.46283597798742
 20
8.2451183158774
 30
0.0
 10
14.46332741629741
 20
8.253361362789182
 30
0.0
 10
14.46381414558319
 20
8.26089898937785
 30
0.0
 10
14.46427759908824
 20
8.267613435597681
 30
0.0
 10
14.46471036243037
 20
8.27354672423879
 30
0.0
 10
14.46510245367388
 20
8.278680318450382
 30
0.0
 10
14.4654383355992
 20
8.28291222180448
 30
0.0
 10
14.46570601309504
 20
8.286191675889361
 30
0.0
 10
14.46590143263233
 20
8.288533126812604
 30
0.0
 10
14.4660241052153
 20
8.289985149393077
 30
0.0
 10
14.46603719627738
 20
8.290137896924529
 30
0.0
 10
14.46604354146705
 20
8.290211933091417
 30
0.0
  0
SPLINE
  5
2D7
330
1F
100
AcDbEntity
  8
0
  6
Continuous
 62
     7
370
    25
100
AcDbSpline
210
0.0
220
0.0
230
1.0
 70
     8
 71
     3
 72
    45
 73
    41
 74
     0
 42
0.00000001
 43
0.00000001
 40
0.0
 40
0.0
 40
0.0
 40
0.0
 40
0.0091693050488472
 40
0.0363691549627086
 40
0.0627314875299409
 40
0.0890938580403244
 40
0.1162202235922239
 40
0.1433466486594059
 40
0.1697445574790708
 40
0.1961425117731149
 40
0.2233025319007781
 40
0.2504625719979436
 40
0.2769422081970147
 40
0.3034218265176283
 40
0.3306704434771455
 40
0.3579190086148785
 40
0.3843994833903241
 40
0.4108799036712044
 40
0.4381344472568638
 40
0.4653889474497979
 40
0.4917872856944889
 40
0.5181856183116166
 40
0.545353259966122
 40
0.5725209346111639
 40
0.5988825550486282
 40
0.6252442266077463
 40
0.6523680381981506
 40
0.6794919063633755
 40
0.7059192824831603
 40
0.7323466868571091
 40
0.7595378481936189
 40
0.7867290021038087
 40
0.813222142627089
 40
0.8397152442144303
 40
0.8669799782560607
 40
0.8942446515160402
 40
0.9207011149783327
 40
0.9471575328927528
 40
0.9743874504784367
 40
1.0
 40
1.0
 40
1.0
 40
1.0
 10
14.46603637636535
 20
5.162351446587943
 30
0.0
 10
14.46603894735354
 20
5.162321041712137
 30
0.0
 10
14.46604914492769
 20
5.162200443735096
 30
0.0
 10
14.46598181650386
 20
5.162994652673488
 30
0.0
 10
14.46583704939963
 20
5.164712331191006
 30
0.0
 10
14.46561340770937
 20
5.167414367953873
 30
0.0
 10
14.4653187417555
 20
5.171056839554361
 30
0.0
 10
14.46496200274141
 20
5.175615249548123
 30
0.0
 10
14.46455739361727
 20
5.180996721135808
 30
0.0
 10
14.46411405094152
 20
5.187189067731361
 30
0.0
 10
14.46363875526394
 20
5.19423309601627
 30
0.0
 10
14.46314903031048
 20
5.202029740071571
 30
0.0
 10
14.46266352014887
 20
5.210442719504717
 30
0.0
 10
14.46219081879418
 20
5.219474811924485
 30
0.0
 10
14.46174102786495
 20
5.22916118545099
 30
0.0
 10
14.46133154254546
 20
5.239347223902115
 30
0.0
 10
14.46097798456418
 20
5.249856621827211
 30
0.0
 10
14.46068437717602
 20
5.260704578220555
 30
0.0
 10
14.46045912673987
 20
5.271929895230257
 30
0.0
 10
14.46031134916644
 20
5.283334936630542
 30
0.0
 10
14.46024625183203
 20
5.294724752923901
 30
0.0
 10
14.46026110859289
 20
5.306126687705312
 30
0.0
 10
14.46035922482155
 20
5.317582549351112
 30
0.0
 10
14.46053697883949
 20
5.32889345843222
 30
0.0
 10
14.46078714498624
 20
5.339872177369369
 30
0.0
 10
14.46110187516866
 20
5.350556618005274
 30
0.0
 10
14.46147826675381
 20
5.360969609340998
 30
0.0
 10
14.46190243836329
 20
5.370940796587893
 30
0.0
 10
14.46235817708273
 20
5.380309685200135
 30
0.0
 10
14.46283597798742
 20
5.389118315877401
 30
0.0
 10
14.46332741629741
 20
5.397361362789179
 30
0.0
 10
14.46381414558319
 20
5.40489898937785
 30
0.0
 10
14.46427759908824
 20
5.411613435597679
 30
0.0
 10
14.46471036243037
 20
5.417546724238786
 30
0.0
 10
14.46510245367388
 20
5.422680318450382
 30
0.0
 10
14.4654383355992
 20
5.42691222180448
 30
0.0
 10
14.46570601309504
 20
5.43019167588936
 30
0.0
 10
14.46590143263233
 20
5.432533126812601
 30
0.0
 10
14.4660241052153
 20
5.433985149393077
 30
0.0
 10
14.46603719627738
 20
5.434137896924528
 30
0.0
 10
14.46604354146705
 20
5.434211933091417
 30
0.0
  0
SPLINE
  5
2D8
330
1F
100
AcDbEntity
  8
0
  6
Continuous
 62
     7
370
    25
100
AcDbSpline
210
0.0
220
0.0
230
1.0
 70
    11
 71
     3
 72
    58
 73
    54
 74
     0
 42
0.00000001
 43
0.00000001
 40
0.0
 40
0.0
 40
0.0
 40
0.0
 40
0.0312499999999996
 40
0.0312499999999996
 40
0.0624999999999993
 40
0.0624999999999993
 40
0.0937499999999989
 40
0.0937499999999989
 40
0.1249999999999986
 40
0.1249999999999986
 40
0.1874999999999979
 40
0.1874999999999979
 40
0.2499999999999972
 40
0.2499999999999972
 40
0.2812499999999973
 40
0.2812499999999973
 40
0.3124999999999973
 40
0.3124999999999973
 40
0.3437499999999974
 40
0.3437499999999974
 40
0.3749999999999975
 40
0.3749999999999975
 40
0.4062499999999976
 40
0.4062499999999976
 40
0.4374999999999977
 40
0.4374999999999977
 40
0.4687499999999978
 40
0.4687499999999978
 40
0.4999999999999979
 40
0.4999999999999979
 40
0.5624999999999981
 40
0.5624999999999981
 40
0.6249999999999982
 40
0.6249999999999982
 40
0.6562499999999983
 40
0.6562499999999983
 40
0.6874999999999986
 40
0.6874999999999986
 40
0.7187499999999988
 40
0.7187499999999988
 40
0.7499999999999989
 40
0.7499999999999989
 40
0.7812499999999991
 40
0.7812499999999991
 40
0.8124999999999993
 40
0.8124999999999993
 40
0.8437499999999996
 40
0.8437499999999996
 40
0.8749999999999997
 40
0.8749999999999997
 40
0.9374999999999998
 40
0.9374999999999998
 40
1.0
 40
1.0
 40
1.0
 40
1.0
 10
12.18672060497264
 20
5.298239800342267
 30
0.0
 10
12.18672060497264
 20
5.289250641205596
 30
0.0
 10
12.18591838569536
 20
5.280412511165772
 30
0.0
 10
12.18278003963715
 20
5.263025705897764
 30
0.0
 10
12.18040562698371
 20
5.254386649961972
 30
0.0
 10
12.1742238066516
 20
5.237918804990606
 30
0.0
 10
12.17044668375052
 20
5.230108956758262
 30
0.0
 10
12.16155010118225
 20
5.215328498881049
 30
0.0
 10
12.15638593276245
 20
5.208333499230249
 30
0.0
 10
12.13952746529718
 20
5.189524630390999
 30
0.0
 10
12.12601495741851
 20
5.179393259531822
 30
0.0
 10
12.09714083355319
 20
5.165825297351216
 30
0.0
 10
12.08147995095323
 20
5.162249442773328
 30
0.0
 10
12.0584246799614
 20
5.162235009111255
 30
0.0
 10
12.05065628987377
 20
5.163118519967171
 30
0.0
 10
12.03569286471748
 20
5.166589202363547
 30
0.0
 10
12.02845534410765
 20
5.169157142162261
 30
0.0
 10
12.01445921739005
 20
5.175968512922192
 30
0.0
 10
12.00772789143114
 20
5.180224993455027
 30
0.0
 10
11.99531604523864
 20
5.190065853896745
 30
0.0
 10
11.98955522976292
 20
5.195684229921023
 30
0.0
 10
11.97893711852755
 20
5.208374781893029
 30
0.0
 10
11.97425032743667
 20
5.215244494871451
 30
0.0
 10
11.9660674604186
 20
5.229966809275814
 30
0.0
 10
11.96254003883494
 20
5.237915706313772
 30
0.0
 10
11.95689428151575
 20
5.25438822186791
 30
0.0
 10
11.95477118693915
 20
5.262865236636778
 30
0.0
 10
11.95189921223071
 20
5.280296785338917
 30
0.0
 10
11.9511643606717
 20
5.289313136704897
 30
0.0
 10
11.95115638630074
 20
5.315944751678686
 30
0.0
 10
11.95408198674105
 20
5.333844318513393
 30
0.0
 10
11.96527561790357
 20
5.36658683836791
 30
0.0
 10
11.9736616269924
 20
5.381763204827301
 30
0.0
 10
11.98936716710266
 20
5.400588532287543
 30
0.0
 10
11.99522744469453
 20
5.406335316916803
 30
0.0
 10
12.00767427153223
 20
5.416220183218895
 30
0.0
 10
12.01427474559639
 20
5.420403351232318
 30
0.0
 10
12.02825372646934
 20
5.427241811213283
 30
0.0
 10
12.03563125995663
 20
5.429869090146386
 30
0.0
 10
12.05054287025573
 20
5.433341711070291
 30
0.0
 10
12.05815483977744
 20
5.434231003791102
 30
0.0
 10
12.07370792801242
 20
5.434248468294423
 30
0.0
 10
12.08141894335887
 20
5.433372919669211
 30
0.0
 10
12.09662071526831
 20
5.429931888383266
 30
0.0
 10
12.10420425659897
 20
5.427326445290313
 30
0.0
 10
12.11874873481864
 20
5.420509373566914
 30
0.0
 10
12.12567473904271
 20
5.416337602087765
 30
0.0
 10
12.13882604758972
 20
5.406485947015526
 30
0.0
 10
12.14508172708968
 20
5.400749539483613
 30
0.0
 10
12.16195683517219
 20
5.38194771359584
 30
0.0
 10
12.17111826491006
 20
5.366793499237439
 30
0.0
 10
12.18342885382446
 20
5.33407925893513
 30
0.0
 10
12.18672060497264
 20
5.316218118615607
 30
0.0
 10
12.18672060497264
 20
5.298239800342266
 30
0.0
  0
SPLINE
  5
2D9
330
1F
100
AcDbEntity
  8
0
  6
Continuous
 62
     7
370
    25
100
AcDbSpline
210
0.0
220
0.0
230
1.0
 70
     8
 71
     3
 72
    36
 73
    32
 74
     0
 42
0.00000001
 43
0.00000001
 40
0.0
 40
0.0
 40
0.0
 40
0.0
 40
0.0327122492697028
 40
0.0672403003189228
 40
0.1017684258491461
 40
0.1372917345287044
 40
0.1728150762498462
 40
0.2074769614454979
 40
0.2421388177389442
 40
0.2778071624240943
 40
0.3134754223259692
 40
0.3481392833725488
 40
0.3828030548399975
 40
0.4184817713154866
 40
0.4541604161261971
 40
0.4886897149733715
 40
0.5232190042562253
 40
0.5587553769648893
 40
0.5942918034614152
 40
0.6287604202580798
 40
0.6632291205852928
 40
0.6986931375659434
 40
0.7341572471431096
 40
0.7687332522359576
 40
0.8033093039315622
 40
0.8388832667496973
 40
0.8744572179209298
 40
0.9091414122066321
 40
0.943825542981808
 40
0.9795204822512709
 40
1.0
 40
1.0
 40
1.0
 40
1.0
 10
12.10876480683056
 20
5.4249450557272
 30
0.0
 10
12.10597187402228
 20
5.423592504674162
 30
0.0
 10
12.10023097741651
 20
5.420812324740544
 30
0.0
 10
12.0920123096975
 20
5.41552540557817
 30
0.0
 10
12.08397295364455
 20
5.409361587459541
 30
0.0
 10
12.07636663238144
 20
5.402326512466178
 30
0.0
 10
12.06930141462724
 20
5.394543168514432
 30
0.0
 10
12.06288607345568
 20
5.386139515938847
 30
0.0
 10
12.05707903991638
 20
5.377113954139251
 30
0.0
 10
12.05189059133099
 20
5.367433010804415
 30
0.0
 10
12.04741140709753
 20
5.35725110416106
 30
0.0
 10
12.04370214666585
 20
5.346744334512704
 30
0.0
 10
12.04072414160247
 20
5.335897361379474
 30
0.0
 10
12.03849261292365
 20
5.32467145235368
 30
0.0
 10
12.03705540927962
 20
5.313267415463499
 30
0.0
 10
12.03642085662695
 20
5.301880693631505
 30
0.0
 10
12.03655618553099
 20
5.290484061988251
 30
0.0
 10
12.0374877552202
 20
5.279032570752283
 30
0.0
 10
12.03921077075944
 20
5.267726513029302
 30
0.0
 10
12.04168578354131
 20
5.256753096314548
 30
0.0
 10
12.04489429207414
 20
5.246074386398686
 30
0.0
 10
12.04887469790491
 20
5.235665898808763
 30
0.0
 10
12.05357961555382
 20
5.225695556251563
 30
0.0
 10
12.05892879358353
 20
5.216323740089701
 30
0.0
 10
12.06492144768068
 20
5.207509057019577
 30
0.0
 10
12.07159442005103
 20
5.199257584143472
 30
0.0
 10
12.07885970473335
 20
5.191711250689831
 30
0.0
 10
12.08659213752325
 20
5.184974190168276
 30
0.0
 10
12.09482259290058
 20
5.179057410224642
 30
0.0
 10
12.10226365297412
 20
5.174538451644433
 30
0.0
 10
12.10711611161076
 20
5.172365774069186
 30
0.0
 10
12.10888517210639
 20
5.171573681162084
 30
0.0
  0
INSERT
  5
2DA
330
1F
100
AcDbEntity
  8
0
  6
Continuous
 62
     7
100
AcDbBlockReference
  2
Block1
 10
10.9838518143
 20
1.8255099817
 30
0.0
 41
0.5
 42
0.5
 43
0.5
  0
DIMENSION
  5
2DB
330
1F
100
AcDbEntity
  8
0
  6
Continuous
 62
     7
370
    18
100
AcDbDimension
  2
_D_8
 10
7.1664484423
 20
4.7982398003
 30
0.0
 11
7.1664484423
 21
8.3832398003
 31
0.0
 70
   160
  1
<>
 71
     2
 42
-1.0
  3
SLDDIMSTYLE4
100
AcDbAlignedDimension
 13
11.2660459111
 23
11.9682398003
 33
0.0
 14
11.2660459111
 24
4.7982398003
 34
0.0
 50
90.0
100
AcDbRotatedDimension
  0
LINE
  5
2F0
330
1F
100
AcDbEntity
  8
0
  6
Continuous
 62
     7
370
    25
100
AcDbLine
 10
29.9099537583
 20
8.2902119331
 30
0.0
 11
29.9099537583
 21
9.3342398003
 31
0.0
  0
LINE
  5
2F1
330
1F
100
AcDbEntity
  8
0
  6
Continuous
 62
     7
370
    25
100
AcDbLine
 10
29.9099537583
 20
5.4342119331
 30
0.0
 11
29.9099537583
 21
8.0183514466
 31
0.0
  0
LINE
  5
2F2
330
1F
100
AcDbEntity
  8
0
  6
Continuous
 62
     7
370
    25
100
AcDbLine
 10
29.9099537583
 20
4.7982398003
 30
0.0
 11
29.9099537583
 21
5.1623514466
 31
0.0
  0
LINE
  5
2F3
330
1F
100
AcDbEntity
  8
0
  6
Continuous
 62
     7
370
    25
100
AcDbLine
 10
26.7099537583
 20
9.3342398003
 30
0.0
 11
26.7099537583
 21
4.7982398003
 31
0.0
  0
ARC
  5
2F4
330
1F
100
AcDbEntity
  8
0
  6
Continuous
 62
     7
370
    25
100
AcDbCircle
 10
26.7699537583
 20
9.3342398003
 30
0.0
 40
0.0600000000000023
100
AcDbArc
 50
90.0
 51
180.0
  0
ARC
  5
2F5
330
1F
100
AcDbEntity
  8
0
  6
Continuous
 62
     7
370
    25
100
AcDbCircle
 10
29.8499537583
 20
9.3342398003
 30
0.0
 40
0.0600000000000005
100
AcDbArc
 50
0.0
 51
90.0
  0
SPLINE
  5
2F6
330
1F
100
AcDbEntity
  8
0
  6
Continuous
 62
     7
370
    25
100
AcDbSpline
210
0.0
220
0.0
230
1.0
 70
     8
 71
     3
 72
    45
 73
    41
 74
     0
 42
0.00000001
 43
0.00000001
 40
0.0
 40
0.0
 40
0.0
 40
0.0
 40
0.0091693050488476
 40
0.0363691549627091
 40
0.0627314875299412
 40
0.089093858040324
 40
0.1162202235922232
 40
0.1433466486594045
 40
0.1697445574790696
 40
0.1961425117731132
 40
0.2233025319007766
 40
0.250462571997942
 40
0.2769422081970128
 40
0.3034218265176272
 40
0.3306704434771442
 40
0.3579190086148783
 40
0.3843994833903234
 40
0.4108799036712031
 40
0.4381344472568622
 40
0.4653889474497966
 40
0.4917872856944867
 40
0.5181856183116144
 40
0.5453532599661205
 40
0.572520934611164
 40
0.5988825550486275
 40
0.6252442266077466
 40
0.6523680381981496
 40
0.6794919063633742
 40
0.7059192824831584
 40
0.7323466868571081
 40
0.759537848193619
 40
0.786729002103809
 40
0.8132221426270896
 40
0.8397152442144298
 40
0.8669799782560601
 40
0.8942446515160395
 40
0.9207011149783321
 40
0.9471575328927523
 40
0.9743874504784363
 40
1.0
 40
1.0
 40
1.0
 40
1.0
 10
29.90994422365395
 20
8.018351446587943
 30
0.0
 10
29.90994679464214
 20
8.018321041712138
 30
0.0
 10
29.90995699221628
 20
8.018200443735097
 30
0.0
 10
29.90988966379246
 20
8.018994652673488
 30
0.0
 10
29.90974489668823
 20
8.020712331191007
 30
0.0
 10
29.90952125499797
 20
8.023414367953869
 30
0.0
 10
29.9092265890441
 20
8.027056839554362
 30
0.0
 10
29.90886985003
 20
8.031615249548123
 30
0.0
 10
29.90846524090587
 20
8.036996721135809
 30
0.0
 10
29.90802189823011
 20
8.043189067731358
 30
0.0
 10
29.90754660255254
 20
8.050233096016271
 30
0.0
 10
29.90705687759908
 20
8.058029740071568
 30
0.0
 10
29.90657136743748
 20
8.066442719504717
 30
0.0
 10
29.90609866608278
 20
8.075474811924485
 30
0.0
 10
29.90564887515355
 20
8.08516118545099
 30
0.0
 10
29.90523938983407
 20
8.095347223902115
 30
0.0
 10
29.90488583185277
 20
8.105856621827211
 30
0.0
 10
29.90459222446462
 20
8.116704578220556
 30
0.0
 10
29.90436697402847
 20
8.127929895230254
 30
0.0
 10
29.90421919645503
 20
8.139334936630542
 30
0.0
 10
29.90415409912062
 20
8.150724752923898
 30
0.0
 10
29.90416895588148
 20
8.162126687705312
 30
0.0
 10
29.90426707211014
 20
8.17358254935111
 30
0.0
 10
29.90444482612809
 20
8.18489345843222
 30
0.0
 10
29.90469499227484
 20
8.19587217736937
 30
0.0
 10
29.90500972245726
 20
8.206556618005271
 30
0.0
 10
29.90538611404241
 20
8.216969609340998
 30
0.0
 10
29.90581028565189
 20
8.226940796587893
 30
0.0
 10
29.90626602437132
 20
8.236309685200135
 30
0.0
 10
29.90674382527602
 20
8.2451183158774
 30
0.0
 10
29.90723526358601
 20
8.25336136278918
 30
0.0
 10
29.90772199287179
 20
8.26089898937785
 30
0.0
 10
29.90818544637684
 20
8.267613435597681
 30
0.0
 10
29.90861820971896
 20
8.273546724238786
 30
0.0
 10
29.90901030096248
 20
8.278680318450382
 30
0.0
 10
29.9093461828878
 20
8.282912221804477
 30
0.0
 10
29.90961386038364
 20
8.286191675889361
 30
0.0
 10
29.90980927992093
 20
8.2885331268126
 30
0.0
 10
29.90993195250389
 20
8.289985149393077
 30
0.0
 10
29.90994504356598
 20
8.290137896924529
 30
0.0
 10
29.90995138875564
 20
8.290211933091417
 30
0.0
  0
SPLINE
  5
2F7
330
1F
100
AcDbEntity
  8
0
  6
Continuous
 62
     7
370
    25
100
AcDbSpline
210
0.0
220
0.0
230
1.0
 70
     8
 71
     3
 72
    45
 73
    41
 74
     0
 42
0.00000001
 43
0.00000001
 40
0.0
 40
0.0
 40
0.0
 40
0.0
 40
0.0091693050488478
 40
0.0363691549627093
 40
0.0627314875299412
 40
0.0890938580403243
 40
0.1162202235922236
 40
0.1433466486594052
 40
0.1697445574790702
 40
0.1961425117731141
 40
0.2233025319007771
 40
0.2504625719979429
 40
0.2769422081970145
 40
0.3034218265176283
 40
0.3306704434771458
 40
0.3579190086148794
 40
0.3843994833903246
 40
0.4108799036712046
 40
0.4381344472568638
 40
0.4653889474497977
 40
0.4917872856944887
 40
0.5181856183116166
 40
0.5453532599661222
 40
0.5725209346111639
 40
0.5988825550486285
 40
0.6252442266077465
 40
0.6523680381981505
 40
0.6794919063633754
 40
0.7059192824831602
 40
0.7323466868571094
 40
0.7595378481936195
 40
0.7867290021038094
 40
0.8132221426270894
 40
0.8397152442144306
 40
0.8669799782560609
 40
0.8942446515160402
 40
0.9207011149783326
 40
0.947157532892753
 40
0.9743874504784369
 40
1.0
 40
1.0
 40
1.0
 40
1.0
 10
29.90994422365395
 20
5.162351446587943
 30
0.0
 10
29.90994679464214
 20
5.162321041712137
 30
0.0
 10
29.90995699221628
 20
5.162200443735096
 30
0.0
 10
29.90988966379246
 20
5.162994652673488
 30
0.0
 10
29.90974489668823
 20
5.164712331191006
 30
0.0
 10
29.90952125499797
 20
5.167414367953873
 30
0.0
 10
29.9092265890441
 20
5.171056839554361
 30
0.0
 10
29.90886985003001
 20
5.175615249548123
 30
0.0
 10
29.90846524090587
 20
5.180996721135808
 30
0.0
 10
29.90802189823011
 20
5.187189067731361
 30
0.0
 10
29.90754660255254
 20
5.19423309601627
 30
0.0
 10
29.90705687759908
 20
5.202029740071571
 30
0.0
 10
29.90657136743748
 20
5.210442719504717
 30
0.0
 10
29.90609866608278
 20
5.219474811924485
 30
0.0
 10
29.90564887515355
 20
5.22916118545099
 30
0.0
 10
29.90523938983407
 20
5.239347223902115
 30
0.0
 10
29.90488583185277
 20
5.249856621827211
 30
0.0
 10
29.90459222446462
 20
5.260704578220555
 30
0.0
 10
29.90436697402847
 20
5.271929895230257
 30
0.0
 10
29.90421919645503
 20
5.283334936630542
 30
0.0
 10
29.90415409912062
 20
5.294724752923901
 30
0.0
 10
29.90416895588148
 20
5.306126687705312
 30
0.0
 10
29.90426707211014
 20
5.317582549351112
 30
0.0
 10
29.90444482612809
 20
5.32889345843222
 30
0.0
 10
29.90469499227484
 20
5.339872177369369
 30
0.0
 10
29.90500972245726
 20
5.350556618005274
 30
0.0
 10
29.90538611404241
 20
5.360969609340998
 30
0.0
 10
29.90581028565189
 20
5.370940796587893
 30
0.0
 10
29.90626602437132
 20
5.380309685200135
 30
0.0
 10
29.90674382527602
 20
5.389118315877401
 30
0.0
 10
29.90723526358601
 20
5.397361362789179
 30
0.0
 10
29.90772199287179
 20
5.40489898937785
 30
0.0
 10
29.90818544637684
 20
5.411613435597679
 30
0.0
 10
29.90861820971896
 20
5.417546724238786
 30
0.0
 10
29.90901030096248
 20
5.422680318450382
 30
0.0
 10
29.9093461828878
 20
5.42691222180448
 30
0.0
 10
29.90961386038364
 20
5.43019167588936
 30
0.0
 10
29.90980927992093
 20
5.432533126812601
 30
0.0
 10
29.90993195250389
 20
5.433985149393077
 30
0.0
 10
29.90994504356598
 20
5.434137896924528
 30
0.0
 10
29.90995138875564
 20
5.434211933091417
 30
0.0
  0
SPLINE
  5
2F8
330
1F
100
AcDbEntity
  8
0
  6
Continuous
 62
     7
370
    25
100
AcDbSpline
210
0.0
220
0.0
230
1.0
 70
    11
 71
     3
 72
    58
 73
    54
 74
     0
 42
0.00000001
 43
0.00000001
 40
0.0
 40
0.0
 40
0.0
 40
0.0
 40
0.0312499999999996
 40
0.0312499999999996
 40
0.0624999999999993
 40
0.0624999999999993
 40
0.0937499999999989
 40
0.0937499999999989
 40
0.1249999999999986
 40
0.1249999999999986
 40
0.187499999999998
 40
0.187499999999998
 40
0.2499999999999974
 40
0.2499999999999974
 40
0.2812499999999973
 40
0.2812499999999973
 40
0.3124999999999973
 40
0.3124999999999973
 40
0.3437499999999973
 40
0.3437499999999973
 40
0.3749999999999973
 40
0.3749999999999973
 40
0.4062499999999972
 40
0.4062499999999972
 40
0.4374999999999972
 40
0.4374999999999972
 40
0.4687499999999972
 40
0.4687499999999972
 40
0.4999999999999971
 40
0.4999999999999971
 40
0.5624999999999972
 40
0.5624999999999972
 40
0.6249999999999974
 40
0.6249999999999974
 40
0.6562499999999978
 40
0.6562499999999978
 40
0.687499999999998
 40
0.687499999999998
 40
0.7187499999999983
 40
0.7187499999999983
 40
0.7499999999999987
 40
0.7499999999999987
 40
0.781249999999999
 40
0.781249999999999
 40
0.8124999999999992
 40
0.8124999999999992
 40
0.8437499999999996
 40
0.8437499999999996
 40
0.8749999999999998
 40
0.8749999999999998
 40
0.9374999999999998
 40
0.9374999999999998
 40
1.0
 40
1.0
 40
1.0
 40
1.0
 10
27.63062845226124
 20
5.298239800342261
 30
0.0
 10
27.63062845226124
 20
5.28925064120559
 30
0.0
 10
27.62982623298395
 20
5.280412511165765
 30
0.0
 10
27.62668788692574
 20
5.263025705897751
 30
0.0
 10
27.6243134742723
 20
5.254386649961959
 30
0.0
 10
27.6181316539402
 20
5.237918804990596
 30
0.0
 10
27.61435453103912
 20
5.23010895675826
 30
0.0
 10
27.60545794847085
 20
5.215328498881046
 30
0.0
 10
27.60029378005105
 20
5.208333499230245
 30
0.0
 10
27.58343531258577
 20
5.189524630390991
 30
0.0
 10
27.5699228047071
 20
5.179393259531816
 30
0.0
 10
27.54104868084178
 20
5.165825297351207
 30
0.0
 10
27.52538779824182
 20
5.162249442773319
 30
0.0
 10
27.50233252724999
 20
5.162235009111248
 30
0.0
 10
27.49456413716236
 20
5.163118519967164
 30
0.0
 10
27.47960071200608
 20
5.16658920236354
 30
0.0
 10
27.47236319139624
 20
5.169157142162254
 30
0.0
 10
27.45836706467865
 20
5.175968512922185
 30
0.0
 10
27.45163573871974
 20
5.180224993455023
 30
0.0
 10
27.43922389252724
 20
5.190065853896738
 30
0.0
 10
27.43346307705151
 20
5.195684229921016
 30
0.0
 10
27.42284496581615
 20
5.208374781893022
 30
0.0
 10
27.41815817472527
 20
5.215244494871444
 30
0.0
 10
27.40997530770719
 20
5.22996680927581
 30
0.0
 10
27.40644788612353
 20
5.237915706313769
 30
0.0
 10
27.40080212880435
 20
5.254388221867908
 30
0.0
 10
27.39867903422774
 20
5.262865236636775
 30
0.0
 10
27.39580705951931
 20
5.280296785338911
 30
0.0
 10
27.39507220796029
 20
5.28931313670489
 30
0.0
 10
27.39506423358934
 20
5.315944751678682
 30
0.0
 10
27.39798983402964
 20
5.333844318513393
 30
0.0
 10
27.40918346519216
 20
5.366586838367899
 30
0.0
 10
27.41756947428099
 20
5.381763204827294
 30
0.0
 10
27.43327501439127
 20
5.40058853228754
 30
0.0
 10
27.43913529198313
 20
5.406335316916801
 30
0.0
 10
27.45158211882082
 20
5.416220183218888
 30
0.0
 10
27.45818259288498
 20
5.420403351232312
 30
0.0
 10
27.47216157375793
 20
5.427241811213273
 30
0.0
 10
27.47953910724522
 20
5.42986909014638
 30
0.0
 10
27.49445071754432
 20
5.433341711070281
 30
0.0
 10
27.50206268706603
 20
5.434231003791095
 30
0.0
 10
27.51761577530101
 20
5.434248468294417
 30
0.0
 10
27.52532679064746
 20
5.433372919669204
 30
0.0
 10
27.54052856255689
 20
5.42993188838326
 30
0.0
 10
27.54811210388755
 20
5.42732644529031
 30
0.0
 10
27.56265658210723
 20
5.420509373566911
 30
0.0
 10
27.56958258633129
 20
5.416337602087761
 30
0.0
 10
27.58273389487832
 20
5.406485947015519
 30
0.0
 10
27.58898957437828
 20
5.400749539483606
 30
0.0
 10
27.60586468246079
 20
5.381947713595827
 30
0.0
 10
27.61502611219866
 20
5.366793499237426
 30
0.0
 10
27.62733670111306
 20
5.334079258935127
 30
0.0
 10
27.63062845226124
 20
5.316218118615604
 30
0.0
 10
27.63062845226124
 20
5.298239800342261
 30
0.0
  0
LINE
  5
2F9
330
1F
100
AcDbEntity
  8
0
  6
Continuous
 62
     7
370
    25
100
AcDbLine
 10
26.7099537583
 20
4.7982398003
 30
0.0
 11
29.9099537583
 21
4.7982398003
 31
0.0
  0
LINE
  5
2FA
330
1F
100
AcDbEntity
  8
0
  6
Continuous
 62
     7
370
    25
100
AcDbLine
 10
26.7699537583
 20
9.3942398003
 30
0.0
 11
29.8499537583
 21
9.3942398003
 31
0.0
  0
SPLINE
  5
2FB
330
1F
100
AcDbEntity
  8
0
  6
Continuous
 62
     7
370
    25
100
AcDbSpline
210
0.0
220
0.0
230
1.0
 70
     8
 71
     3
 72
    36
 73
    32
 74
     0
 42
0.00000001
 43
0.00000001
 40
0.0
 40
0.0
 40
0.0
 40
0.0
 40
0.0328487058317825
 40
0.0673743554111041
 40
0.1019000794662493
 40
0.1374209174544746
 40
0.1729417884819852
 40
0.2076012628994035
 40
0.2422607084166268
 40
0.2779265723230044
 40
0.3135923514520037
 40
0.348253801582927
 40
0.3829151621409502
 40
0.4185913971162962
 40
0.454267560431848
 40
0.4887944577223384
 40
0.5233213454491734
 40
0.5588552465578843
 40
0.5943892014507163
 40
0.6288554209112106
 40
0.6633217238964436
 40
0.6987832743095742
 40
0.73424491731278
 40
0.7688185176004648
 40
0.8033921644876653
 40
0.8389636530914075
 40
0.8745351300490575
 40
0.909216912004901
 40
0.9438986304546348
 40
0.9795910870956388
 40
1.0
 40
1.0
 40
1.0
 40
1.0
 10
27.5527078789852
 20
5.424962981030617
 30
0.0
 10
27.54990305085492
 20
5.423604807618049
 30
0.0
 10
27.54415020663986
 20
5.420819125324301
 30
0.0
 10
27.53592010850557
 20
5.415525516841026
 30
0.0
 10
27.5278808143417
 20
5.409361556686893
 30
0.0
 10
27.5202744760312
 20
5.402326520817296
 30
0.0
 10
27.5132092628645
 20
5.394543166337237
 30
0.0
 10
27.50679392049296
 20
5.386139516515613
 30
0.0
 10
27.5009868872745
 20
5.37711395397969
 30
0.0
 10
27.49579843860072
 20
5.367433010847727
 30
0.0
 10
27.49131925439103
 20
5.357251104149819
 30
0.0
 10
27.48760999395314
 20
5.346744334515678
 30
0.0
 10
27.48463198889142
 20
5.335897361378654
 30
0.0
 10
27.48240046021215
 20
5.324671452353903
 30
0.0
 10
27.48096325656824
 20
5.31326741546344
 30
0.0
 10
27.48032870391554
 20
5.301880693631515
 30
0.0
 10
27.48046403281959
 20
5.290484061988257
 30
0.0
 10
27.48139560250877
 20
5.27903257075224
 30
0.0
 10
27.48311861804811
 20
5.267726513029469
 30
0.0
 10
27.48559363082965
 20
5.256753096313934
 30
0.0
 10
27.48880213936367
 20
5.246074386400997
 30
0.0
 10
27.4927825451899
 20
5.235665898799859
 30
0.0
 10
27.49748746285574
 20
5.225695556284417
 30
0.0
 10
27.50283664082379
 20
5.216323739970514
 30
0.0
 10
27.50882929515202
 20
5.20750905747019
 30
0.0
 10
27.51550226663563
 20
5.199257582407522
 30
0.0
 10
27.52276755461905
 20
5.191711257093944
 30
0.0
 10
27.53049997538942
 20
5.18497416693386
 30
0.0
 10
27.53873047581708
 20
5.17905749807808
 30
0.0
 10
27.5461657218073
 20
5.174541615547903
 30
0.0
 10
27.55101214191693
 20
5.172371460575746
 30
0.0
 10
27.55277520343783
 20
5.171581987802185
 30
0.0
  0
LINE
  5
2FC
330
1F
100
AcDbEntity
  8
0
  6
Continuous
 62
     7
370
    25
100
AcDbLine
 10
29.9099537583
 20
9.3342398003
 30
0.0
 11
26.7099537583
 21
9.3342398003
 31
0.0
  0
INSERT
  5
2FD
330
1F
100
AcDbEntity
  8
0
  6
Continuous
 62
     7
100
AcDbBlockReference
  2
Block2
 10
26.6361422108
 20
0.9234970557
 30
0.0
 41
0.5
 42
0.5
 43
0.5
  0
DIMENSION
  5
2FE
330
1F
100
AcDbEntity
  8
0
  6
Continuous
 62
     7
370
    18
100
AcDbDimension
  2
_D_9
 10
22.1533793588
 20
4.7982398003
 30
0.0
 11
22.1533793588
 21
7.0962398003
 31
0.0
 70
   160
  1
<>
 71
     2
 42
-1.0
  3
SLDDIMSTYLE5
100
AcDbAlignedDimension
 13
26.8899537583
 23
9.3942398003
 33
0.0
 14
26.7099537583
 24
4.7982398003
 34
0.0
 50
90.0
100
AcDbRotatedDimension
  0
LINE
  5
313
330
1F
100
AcDbEntity
  8
0
  6
Continuous
 62
     7
370
    25
100
AcDbLine
 10
40.4286038644
 20
5.1238414952
 30
0.0
 11
40.4286038644
 21
4.7598414952
 31
0.0
  0
LINE
  5
314
330
1F
100
AcDbEntity
  8
0
  6
Continuous
 62
     7
370
    25
100
AcDbLine
 10
40.4286038644
 20
7.9198414952
 30
0.0
 11
40.4286038644
 21
5.3958414952
 31
0.0
  0
LINE
  5
315
330
1F
100
AcDbEntity
  8
0
  6
Continuous
 62
     7
370
    25
100
AcDbLine
 10
43.6286038644
 20
4.7598414952
 30
0.0
 11
43.6286038644
 21
7.9198414952
 31
0.0
  0
ARC
  5
316
330
1F
100
AcDbEntity
  8
0
  6
Continuous
 62
     7
370
    25
100
AcDbCircle
 10
40.4886038644
 20
7.9198414952
 30
0.0
 40
0.0600000000000014
100
AcDbArc
 50
90.0
 51
180.0
  0
ARC
  5
317
330
1F
100
AcDbEntity
  8
0
  6
Continuous
 62
     7
370
    25
100
AcDbCircle
 10
43.5686038644
 20
7.9198414952
 30
0.0
 40
0.0600000000000023
100
AcDbArc
 50
0.0
 51
90.0
  0
LINE
  5
318
330
1F
100
AcDbEntity
  8
0
  6
Continuous
 62
     7
370
    25
100
AcDbLine
 10
40.4286038644
 20
4.7598414952
 30
0.0
 11
43.6286038644
 21
4.7598414952
 31
0.0
  0
SPLINE
  5
319
330
1F
100
AcDbEntity
  8
0
  6
Continuous
 62
     7
370
    25
100
AcDbSpline
210
0.0
220
0.0
230
1.0
 70
     8
 71
     3
 72
    30
 73
    26
 74
     0
 42
0.00000001
 43
0.00000001
 40
0.0
 40
0.0
 40
0.0
 40
0.0
 40
0.0625000000000004
 40
0.0625000000000004
 40
0.1250000000000007
 40
0.1250000000000007
 40
0.1875000000000011
 40
0.1875000000000011
 40
0.2500000000000014
 40
0.2500000000000014
 40
0.3750000000000021
 40
0.3750000000000021
 40
0.5000000000000028
 40
0.5000000000000028
 40
0.5625000000000031
 40
0.5625000000000031
 40
0.6250000000000034
 40
0.6250000000000034
 40
0.6875000000000039
 40
0.6875000000000039
 40
0.7500000000000042
 40
0.7500000000000042
 40
0.8750000000000021
 40
0.8750000000000021
 40
1.0
 40
1.0
 40
1.0
 40
1.0
 10
40.42860386437727
 20
5.123841495185324
 30
0.0
 10
40.42860386437727
 20
5.123841495185323
 30
0.0
 10
40.42867966089933
 20
5.124725161643399
 30
0.0
 10
40.42896789075701
 20
5.128182029838705
 30
0.0
 10
40.42918358351888
 20
5.130795663630453
 30
0.0
 10
40.42972018992856
 20
5.137626126924329
 30
0.0
 10
40.43003806562405
 20
5.14180414489493
 30
0.0
 10
40.43073614257329
 20
5.151668210576332
 30
0.0
 10
40.43111926081301
 20
5.157409822901677
 30
0.0
 10
40.4322520589119
 20
5.176224258562639
 30
0.0
 10
40.43300903273805
 20
5.191385367836885
 30
0.0
 10
40.43407771214611
 20
5.224106011882593
 30
0.0
 10
40.43439550621755
 20
5.241971448356257
 30
0.0
 10
40.43439375543159
 20
5.268931808789317
 30
0.0
 10
40.43431724260063
 20
5.277767664426701
 30
0.0
 10
40.43402706350131
 20
5.295149979427785
 30
0.0
 10
40.43380997408479
 20
5.303787018955846
 30
0.0
 10
40.43327157494429
 20
5.320246546735194
 30
0.0
 10
40.43295280629336
 20
5.328052451763163
 30
0.0
 10
40.43225307445827
 20
5.342825107471045
 30
0.0
 10
40.43186965401362
 20
5.349815047264028
 30
0.0
 10
40.43073720262925
 20
5.368608562066558
 30
0.0
 10
40.42998171693432
 20
5.378729532939855
 30
0.0
 10
40.42891721562994
 20
5.392276269344118
 30
0.0
 10
40.42860386437727
 20
5.395841495185322
 30
0.0
 10
40.42860386437727
 20
5.395841495185322
 30
0.0
  0
SPLINE
  5
31A
330
1F
100
AcDbEntity
  8
0
  6
Continuous
 62
     7
370
    25
100
AcDbSpline
210
0.0
220
0.0
230
1.0
 70
     8
 71
     3
 72
    30
 73
    26
 74
     0
 42
0.00000001
 43
0.00000001
 40
0.0
 40
0.0
 40
0.0
 40
0.0
 40
0.0625000000000014
 40
0.0625000000000014
 40
0.1250000000000027
 40
0.1250000000000027
 40
0.1875000000000041
 40
0.1875000000000041
 40
0.2500000000000054
 40
0.2500000000000054
 40
0.3750000000000054
 40
0.3750000000000054
 40
0.5000000000000054
 40
0.5000000000000054
 40
0.5625000000000054
 40
0.5625000000000054
 40
0.6250000000000054
 40
0.6250000000000054
 40
0.6875000000000056
 40
0.6875000000000056
 40
0.7500000000000056
 40
0.7500000000000056
 40
0.8750000000000028
 40
0.8750000000000028
 40
1.0
 40
1.0
 40
1.0
 40
1.0
 10
42.82860386437727
 20
5.123841495185321
 30
0.0
 10
42.83638099733276
 20
5.123841495185318
 30
0.0
 10
42.84401190671713
 20
5.124725161643395
 30
0.0
 10
42.85892158334831
 20
5.128182029838699
 30
0.0
 10
42.86628794277777
 20
5.130795663630447
 30
0.0
 10
42.88028737813423
 20
5.137626126924324
 30
0.0
 10
42.88689145942453
 20
5.141804144894928
 30
0.0
 10
42.89933655209103
 20
5.151668210576326
 30
0.0
 10
42.90520375272666
 20
5.157409822901671
 30
0.0
 10
42.92092898861222
 20
5.176224258562636
 30
0.0
 10
42.92932156691029
 20
5.19138536783688
 30
0.0
 10
42.94053820049583
 20
5.224106011882588
 30
0.0
 10
42.9434993131748
 20
5.241971448356251
 30
0.0
 10
42.94348241517642
 20
5.268931808789313
 30
0.0
 10
42.94275101271833
 20
5.277767664426695
 30
0.0
 10
42.93989179043616
 20
5.295149979427779
 30
0.0
 10
42.93772885686607
 20
5.303787018955838
 30
0.0
 10
42.93207636839237
 20
5.320246546735189
 30
0.0
 10
42.92861385296703
 20
5.328052451763162
 30
0.0
 10
42.92040887425659
 20
5.342825107471041
 30
0.0
 10
42.91562492444892
 20
5.349815047264021
 30
0.0
 10
42.89989124809527
 20
5.368608562066552
 30
0.0
 10
42.88713052242984
 20
5.378729532939851
 30
0.0
 10
42.85931841343749
 20
5.392276269344114
 30
0.0
 10
42.84397203722931
 20
5.395841495185318
 30
0.0
 10
42.82860386437727
 20
5.395841495185318
 30
0.0
  0
SPLINE
  5
31B
330
1F
100
AcDbEntity
  8
0
  6
Continuous
 62
     7
370
    25
100
AcDbSpline
210
0.0
220
0.0
230
1.0
 70
     8
 71
     3
 72
    34
 73
    30
 74
     0
 42
0.00000001
 43
0.00000001
 40
0.0
 40
0.0
 40
0.0
 40
0.0
 40
0.0624999999999996
 40
0.0624999999999996
 40
0.1249999999999992
 40
0.1249999999999992
 40
0.1874999999999988
 40
0.1874999999999988
 40
0.2499999999999983
 40
0.2499999999999983
 40
0.3124999999999979
 40
0.3124999999999979
 40
0.3749999999999975
 40
0.3749999999999975
 40
0.4374999999999971
 40
0.4374999999999971
 40
0.4999999999999967
 40
0.4999999999999967
 40
0.6249999999999958
 40
0.6249999999999958
 40
0.749999999999995
 40
0.749999999999995
 40
0.8124999999999962
 40
0.8124999999999962
 40
0.8749999999999974
 40
0.8749999999999974
 40
0.9374999999999988
 40
0.9374999999999988
 40
1.0
 40
1.0
 40
1.0
 40
1.0
 10
42.82860386437727
 20
5.395841495185318
 30
0.0
 10
42.82091772339072
 20
5.395841495185318
 30
0.0
 10
42.81307241205754
 20
5.394952752519155
 30
0.0
 10
42.79781964891839
 20
5.39147184230921
 30
0.0
 10
42.79037021589005
 20
5.388898693415191
 30
0.0
 10
42.77583910204788
 20
5.382076133840197
 30
0.0
 10
42.76878588025492
 20
5.37781460358431
 30
0.0
 10
42.7556812683556
 20
5.367963486135698
 30
0.0
 10
42.74954682773537
 20
5.362339839015957
 30
0.0
 10
42.73816865783414
 20
5.349637883795499
 30
0.0
 10
42.73311031109992
 20
5.342765281471299
 30
0.0
 10
42.7242371698631
 20
5.328034115796532
 30
0.0
 10
42.7203890482043
 20
5.320080161137093
 30
0.0
 10
42.71421543887701
 20
5.303601970720944
 30
0.0
 10
42.71188428611792
 20
5.295122111235626
 30
0.0
 10
42.70873172399322
 20
5.277684658684553
 30
0.0
 10
42.70792604877304
 20
5.268666702791229
 30
0.0
 10
42.70793544174745
 20
5.242032730556858
 30
0.0
 10
42.7111882495352
 20
5.224132831434157
 30
0.0
 10
42.72347400964377
 20
5.191396948819375
 30
0.0
 10
42.73262879697986
 20
5.176227303719108
 30
0.0
 10
42.74948372266613
 20
5.157414696961701
 30
0.0
 10
42.75573270445234
 20
5.15167293976059
 30
0.0
 10
42.76888671769144
 20
5.141800574811247
 30
0.0
 10
42.77580933153849
 20
5.137623680922114
 30
0.0
 10
42.79033365121811
 20
5.130798630822994
 30
0.0
 10
42.79792971209424
 20
5.128179454176388
 30
0.0
 10
42.81313454704696
 20
5.124722708423321
 30
0.0
 10
42.8208246519826
 20
5.123841495185321
 30
0.0
 10
42.82860386437727
 20
5.123841495185321
 30
0.0
  0
LINE
  5
31C
330
1F
100
AcDbEntity
  8
0
  6
Continuous
 62
     7
370
    25
100
AcDbLine
 10
40.4886038644
 20
7.9798414952
 30
0.0
 11
43.5686038644
 21
7.9798414952
 31
0.0
  0
SPLINE
  5
31D
330
1F
100
AcDbEntity
  8
0
  6
Continuous
 62
     7
370
    25
100
AcDbSpline
210
0.0
220
0.0
230
1.0
 70
     8
 71
     3
 72
    22
 73
    18
 74
     0
 42
0.00000001
 43
0.00000001
 40
0.0
 40
0.0
 40
0.0
 40
0.0
 40
0.0690369905577022
 40
0.138074039394584
 40
0.2091220699018733
 40
0.2801702690475449
 40
0.3492051896998691
 40
0.4182402863303161
 40
0.4892698188259913
 40
0.5602994910750858
 40
0.6295301962779294
 40
0.6987609216873817
 40
0.769995022529386
 40
0.8412290180210207
 40
0.9105824444250421
 40
0.9799357022961906
 40
1.0
 40
1.0
 40
1.0
 40
1.0
 10
42.85814240774815
 20
5.259841495185315
 30
0.0
 10
42.85806836605737
 20
5.263600585887835
 30
0.0
 10
42.85792028261331
 20
5.271118770466198
 30
0.0
 10
42.85672117102871
 20
5.282426937858776
 30
0.0
 10
42.85478037094862
 20
5.293682206464562
 30
0.0
 10
42.85204668894276
 20
5.304692972135021
 30
0.0
 10
42.84859292976373
 20
5.315278585950344
 30
0.0
 10
42.84442656413089
 20
5.325479176401945
 30
0.0
 10
42.83950934441356
 20
5.335308143238879
 30
0.0
 10
42.83390315961562
 20
5.34460455826128
 30
0.0
 10
42.82770223390594
 20
5.353219654825735
 30
0.0
 10
42.82090413920299
 20
5.361197613195309
 30
0.0
 10
42.81346880707532
 20
5.368521314704516
 30
0.0
 10
42.80551111459118
 20
5.375086649269019
 30
0.0
 10
42.79713082471353
 20
5.380704585417035
 30
0.0
 10
42.7905589529318
 20
5.384514094449488
 30
0.0
 10
42.78666368100534
 20
5.386151893941684
 30
0.0
 10
42.78578962562474
 20
5.386519397799056
 30
0.0
  0
SPLINE
  5
31E
330
1F
100
AcDbEntity
  8
0
  6
Continuous
 62
     7
370
    25
100
AcDbSpline
210
0.0
220
0.0
230
1.0
 70
     8
 71
     3
 72
    21
 73
    17
 74
     0
 42
0.00000001
 43
0.00000001
 40
0.0
 40
0.0
 40
0.0
 40
0.0
 40
0.0432761676276985
 40
0.1122524347252788
 40
0.1832171736488897
 40
0.2541820505065561
 40
0.3234241193391431
 40
0.3926662078670481
 40
0.4639120987744212
 40
0.5351578833712912
 40
0.6045210202921577
 40
0.673883987062696
 40
0.7452743641795954
 40
0.8166645502416311
 40
0.9077709200296241
 40
1.0
 40
1.0
 40
1.0
 40
1.0
 10
42.78579851374116
 20
5.133176444486529
 30
0.0
 10
42.78766433068858
 20
5.134022773064077
 30
0.0
 10
42.79250400357508
 20
5.136218033148667
 30
0.0
 10
42.80000483164761
 20
5.140774690227884
 30
0.0
 10
42.80825965485265
 20
5.146728596511601
 30
0.0
 10
42.81602245239777
 20
5.153535359194483
 30
0.0
 10
42.82319295394812
 20
5.16102770499556
 30
0.0
 10
42.82980759153794
 20
5.169216940487406
 30
0.0
 10
42.83586097929339
 20
5.178134396332577
 30
0.0
 10
42.84125211767104
 20
5.187646293451709
 30
0.0
 10
42.84590481362932
 20
5.197588089283971
 30
0.0
 10
42.84985693679701
 20
5.207971513902399
 30
0.0
 10
42.85310110021487
 20
5.218832081144544
 30
0.0
 10
42.85580381998071
 20
5.231134089692569
 30
0.0
 10
42.85775013025607
 20
5.244835743578378
 30
0.0
 10
42.85801111584268
 20
5.254819199077996
 30
0.0
 10
42.85814240774815
 20
5.259841495185315
 30
0.0
  0
LINE
  5
31F
330
1F
100
AcDbEntity
  8
0
  6
Continuous
 62
     7
370
    25
100
AcDbLine
 10
43.6286038644
 20
7.9198414952
 30
0.0
 11
40.4286038644
 21
7.9198414952
 31
0.0
  0
INSERT
  5
320
330
1F
100
AcDbEntity
  8
0
  6
Continuous
 62
     7
100
AcDbBlockReference
  2
Block3
 10
40.662184638
 20
1.8531679332
 30
0.0
 41
0.5
 42
0.5
 43
0.5
  0
DIMENSION
  5
321
330
1F
100
AcDbEntity
  8
0
  6
Continuous
 62
     7
370
    18
100
AcDbDimension
  2
_D_10
 10
36.6490763053
 20
4.7598414952
 30
0.0
 11
36.6490763053
 21
6.3698414952
 31
0.0
 70
   160
  1
<>
 71
     2
 42
-1.0
  3
SLDDIMSTYLE5
100
AcDbAlignedDimension
 13
40.7486038644
 23
7.9798414952
 33
0.0
 14
40.4286038644
 24
4.7598414952
 34
0.0
 50
90.0
100
AcDbRotatedDimension
  0
CIRCLE
  5
335
330
1F
100
AcDbEntity
  8
0
  6
Continuous
 62
     7
370
    25
100
AcDbCircle
 10
54.4700727273
 20
7.6870909091
 30
0.0
 40
0.5706052674608255
  0
LINE
  5
336
330
1F
100
AcDbEntity
  8
0
  6
Continuous
 62
     7
370
    25
100
AcDbLine
 10
55.0115432909
 20
7.8670909091
 30
0.0
 11
53.9286021637
 21
7.8670909091
 31
0.0
  0
LINE
  5
337
330
1F
100
AcDbEntity
  8
0
  6
Continuous
 62
     7
370
    25
100
AcDbLine
 10
53.9457013214
 20
7.9120909091
 30
0.0
 11
54.9944441331
 21
7.9120909091
 31
0.0
  0
LINE
  5
338
330
1F
100
AcDbEntity
  8
0
  6
Continuous
 62
     7
370
    25
100
AcDbLine
 10
54.0399967209
 20
8.0620909091
 30
0.0
 11
54.9001487336
 21
8.0620909091
 31
0.0
  0
CIRCLE
  5
339
330
1F
100
AcDbEntity
  8
0
  6
Continuous
 62
     7
370
    25
100
AcDbCircle
 10
57.6520532426
 20
4.5051103938
 30
0.0
 40
0.1169999999999973
  0
CIRCLE
  5
33A
330
1F
100
AcDbEntity
  8
0
  6
Continuous
 62
     7
370
    25
100
AcDbCircle
 10
57.6520532426
 20
4.5051103938
 30
0.0
 40
0.2340000000000018
  0
LINE
  5
33B
330
1F
100
AcDbEntity
  8
0
  6
Continuous
 62
     7
370
    25
100
AcDbLine
 10
57.5815532426
 20
4.5458135877
 30
0.0
 11
57.6520532426
 21
4.5865167817
 31
0.0
  0
LINE
  5
33C
330
1F
100
AcDbEntity
  8
0
  6
Continuous
 62
     7
370
    25
100
AcDbLine
 10
57.5815532426
 20
4.4644071998
 30
0.0
 11
57.5815532426
 21
4.5458135877
 31
0.0
  0
LINE
  5
33D
330
1F
100
AcDbEntity
  8
0
  6
Continuous
 62
     7
370
    25
100
AcDbLine
 10
57.7225532426
 20
4.4644071998
 30
0.0
 11
57.6520532426
 21
4.4237040058
 31
0.0
  0
LINE
  5
33E
330
1F
100
AcDbEntity
  8
0
  6
Continuous
 62
     7
370
    25
100
AcDbLine
 10
57.7225532426
 20
4.5458135877
 30
0.0
 11
57.7225532426
 21
4.4644071998
 31
0.0
  0
LINE
  5
33F
330
1F
100
AcDbEntity
  8
0
  6
Continuous
 62
     7
370
    25
100
AcDbLine
 10
57.6520532426
 20
4.4237040058
 30
0.0
 11
57.5815532426
 21
4.4644071998
 31
0.0
  0
LINE
  5
340
330
1F
100
AcDbEntity
  8
0
  6
Continuous
 62
     7
370
    25
100
AcDbLine
 10
57.6520532426
 20
4.5865167817
 30
0.0
 11
57.7225532426
 21
4.5458135877
 31
0.0
  0
ARC
  5
341
330
1F
100
AcDbEntity
  8
0
  6
Continuous
 62
     7
370
    25
100
AcDbCircle
 10
57.6520532426
 20
4.5051103938
 30
0.0
 40
0.0705000000000027
100
AcDbArc
 50
120.0
 51
180.0
  0
ARC
  5
342
330
1F
100
AcDbEntity
  8
0
  6
Continuous
 62
     7
370
    25
100
AcDbCircle
 10
57.6520532426
 20
4.5051103938
 30
0.0
 40
0.0705000000000045
100
AcDbArc
 50
180.0
 51
240.0
  0
ARC
  5
343
330
1F
100
AcDbEntity
  8
0
  6
Continuous
 62
     7
370
    25
100
AcDbCircle
 10
57.6520532426
 20
4.5051103938
 30
0.0
 40
0.0705000000000002
100
AcDbArc
 50
300.0
 51
0.0
  0
ARC
  5
344
330
1F
100
AcDbEntity
  8
0
  6
Continuous
 62
     7
370
    25
100
AcDbCircle
 10
57.6520532426
 20
4.5051103938
 30
0.0
 40
0.0705000000000045
100
AcDbArc
 50
240.0
 51
300.0
  0
ARC
  5
345
330
1F
100
AcDbEntity
  8
0
  6
Continuous
 62
     7
370
    25
100
AcDbCircle
 10
57.6520532426
 20
4.5051103938
 30
0.0
 40
0.0705000000000007
100
AcDbArc
 50
60.0
 51
120.0
  0
ARC
  5
346
330
1F
100
AcDbEntity
  8
0
  6
Continuous
 62
     7
370
    25
100
AcDbCircle
 10
57.6520532426
 20
4.5051103938
 30
0.0
 40
0.0704999999999979
100
AcDbArc
 50
0.0
 51
60.0
  0
LINE
  5
347
330
1F
100
AcDbEntity
  8
0
  6
Continuous
 62
     7
370
    25
100
AcDbLine
 10
57.6520532426
 20
10.9504778124
 30
0.0
 11
57.7225532426
 21
10.9097746184
 31
0.0
  0
LINE
  5
348
330
1F
100
AcDbEntity
  8
0
  6
Continuous
 62
     7
370
    25
100
AcDbLine
 10
57.5815532426
 20
10.8283682305
 30
0.0
 11
57.5815532426
 21
10.9097746184
 31
0.0
  0
LINE
  5
349
330
1F
100
AcDbEntity
  8
0
  6
Continuous
 62
     7
370
    25
100
AcDbLine
 10
57.7225532426
 20
10.8283682305
 30
0.0
 11
57.6520532426
 21
10.7876650365
 31
0.0
  0
CIRCLE
  5
34A
330
1F
100
AcDbEntity
  8
0
  6
Continuous
 62
     7
370
    25
100
AcDbCircle
 10
57.6520532426
 20
10.8690714244
 30
0.0
 40
0.1170000000000044
  0
LINE
  5
34B
330
1F
100
AcDbEntity
  8
0
  6
Continuous
 62
     7
370
    25
100
AcDbLine
 10
57.6520532426
 20
10.7876650365
 30
0.0
 11
57.5815532426
 21
10.8283682305
 31
0.0
  0
LINE
  5
34C
330
1F
100
AcDbEntity
  8
0
  6
Continuous
 62
     7
370
    25
100
AcDbLine
 10
57.7225532426
 20
10.9097746184
 30
0.0
 11
57.7225532426
 21
10.8283682305
 31
0.0
  0
LINE
  5
34D
330
1F
100
AcDbEntity
  8
0
  6
Continuous
 62
     7
370
    25
100
AcDbLine
 10
57.5815532426
 20
10.9097746184
 30
0.0
 11
57.6520532426
 21
10.9504778124
 31
0.0
  0
CIRCLE
  5
34E
330
1F
100
AcDbEntity
  8
0
  6
Continuous
 62
     7
370
    25
100
AcDbCircle
 10
57.6520532426
 20
10.8690714244
 30
0.0
 40
0.2340000000000018
  0
ARC
  5
34F
330
1F
100
AcDbEntity
  8
0
  6
Continuous
 62
     7
370
    25
100
AcDbCircle
 10
57.6520532426
 20
10.8690714244
 30
0.0
 40
0.070500000000003
100
AcDbArc
 50
300.0
 51
0.0
  0
ARC
  5
350
330
1F
100
AcDbEntity
  8
0
  6
Continuous
 62
     7
370
    25
100
AcDbCircle
 10
57.6520532426
 20
10.8690714244
 30
0.0
 40
0.0705000000000027
100
AcDbArc
 50
0.0
 51
60.0
  0
ARC
  5
351
330
1F
100
AcDbEntity
  8
0
  6
Continuous
 62
     7
370
    25
100
AcDbCircle
 10
57.6520532426
 20
10.8690714244
 30
0.0
 40
0.0705000000000015
100
AcDbArc
 50
60.0
 51
120.0
  0
ARC
  5
352
330
1F
100
AcDbEntity
  8
0
  6
Continuous
 62
     7
370
    25
100
AcDbCircle
 10
57.6520532426
 20
10.8690714244
 30
0.0
 40
0.070500000000003
100
AcDbArc
 50
240.0
 51
300.0
  0
ARC
  5
353
330
1F
100
AcDbEntity
  8
0
  6
Continuous
 62
     7
370
    25
100
AcDbCircle
 10
57.6520532426
 20
10.8690714244
 30
0.0
 40
0.070500000000001
100
AcDbArc
 50
180.0
 51
240.0
  0
ARC
  5
354
330
1F
100
AcDbEntity
  8
0
  6
Continuous
 62
     7
370
    25
100
AcDbCircle
 10
57.6520532426
 20
10.8690714244
 30
0.0
 40
0.0704999999999979
100
AcDbArc
 50
120.0
 51
180.0
  0
LINE
  5
355
330
1F
100
AcDbEntity
  8
0
  6
Continuous
 62
     7
370
    25
100
AcDbLine
 10
51.2175922119
 20
4.5458135877
 30
0.0
 11
51.2880922119
 21
4.5865167817
 31
0.0
  0
LINE
  5
356
330
1F
100
AcDbEntity
  8
0
  6
Continuous
 62
     7
370
    25
100
AcDbLine
 10
51.2880922119
 20
4.4237040058
 30
0.0
 11
51.2175922119
 21
4.4644071998
 31
0.0
  0
CIRCLE
  5
357
330
1F
100
AcDbEntity
  8
0
  6
Continuous
 62
     7
370
    25
100
AcDbCircle
 10
51.2880922119
 20
4.5051103938
 30
0.0
 40
0.1169999999999973
  0
LINE
  5
358
330
1F
100
AcDbEntity
  8
0
  6
Continuous
 62
     7
370
    25
100
AcDbLine
 10
51.2880922119
 20
4.5865167817
 30
0.0
 11
51.3585922119
 21
4.5458135877
 31
0.0
  0
LINE
  5
359
330
1F
100
AcDbEntity
  8
0
  6
Continuous
 62
     7
370
    25
100
AcDbLine
 10
51.2175922119
 20
4.4644071998
 30
0.0
 11
51.2175922119
 21
4.5458135877
 31
0.0
  0
LINE
  5
35A
330
1F
100
AcDbEntity
  8
0
  6
Continuous
 62
     7
370
    25
100
AcDbLine
 10
51.3585922119
 20
4.5458135877
 30
0.0
 11
51.3585922119
 21
4.4644071998
 31
0.0
  0
LINE
  5
35B
330
1F
100
AcDbEntity
  8
0
  6
Continuous
 62
     7
370
    25
100
AcDbLine
 10
51.3585922119
 20
4.4644071998
 30
0.0
 11
51.2880922119
 21
4.4237040058
 31
0.0
  0
CIRCLE
  5
35C
330
1F
100
AcDbEntity
  8
0
  6
Continuous
 62
     7
370
    25
100
AcDbCircle
 10
51.2880922119
 20
4.5051103938
 30
0.0
 40
0.2340000000000018
  0
ARC
  5
35D
330
1F
100
AcDbEntity
  8
0
  6
Continuous
 62
     7
370
    25
100
AcDbCircle
 10
51.2880922119
 20
4.5051103938
 30
0.0
 40
0.0705000000000027
100
AcDbArc
 50
300.0
 51
0.0
  0
ARC
  5
35E
330
1F
100
AcDbEntity
  8
0
  6
Continuous
 62
     7
370
    25
100
AcDbCircle
 10
51.2880922119
 20
4.5051103938
 30
0.0
 40
0.0705000000000045
100
AcDbArc
 50
240.0
 51
300.0
  0
ARC
  5
35F
330
1F
100
AcDbEntity
  8
0
  6
Continuous
 62
     7
370
    25
100
AcDbCircle
 10
51.2880922119
 20
4.5051103938
 30
0.0
 40
0.0705000000000045
100
AcDbArc
 50
180.0
 51
240.0
  0
ARC
  5
360
330
1F
100
AcDbEntity
  8
0
  6
Continuous
 62
     7
370
    25
100
AcDbCircle
 10
51.2880922119
 20
4.5051103938
 30
0.0
 40
0.0705000000000027
100
AcDbArc
 50
120.0
 51
180.0
  0
ARC
  5
361
330
1F
100
AcDbEntity
  8
0
  6
Continuous
 62
     7
370
    25
100
AcDbCircle
 10
51.2880922119
 20
4.5051103938
 30
0.0
 40
0.0705000000000022
100
AcDbArc
 50
60.0
 51
120.0
  0
ARC
  5
362
330
1F
100
AcDbEntity
  8
0
  6
Continuous
 62
     7
370
    25
100
AcDbCircle
 10
51.2880922119
 20
4.5051103938
 30
0.0
 40
0.0705000000000027
100
AcDbArc
 50
0.0
 51
60.0
  0
LINE
  5
363
330
1F
100
AcDbEntity
  8
0
  6
Continuous
 62
     7
370
    25
100
AcDbLine
 10
51.2175922119
 20
10.9097746184
 30
0.0
 11
51.2880922119
 21
10.9504778124
 31
0.0
  0
CIRCLE
  5
364
330
1F
100
AcDbEntity
  8
0
  6
Continuous
 62
     7
370
    25
100
AcDbCircle
 10
51.2880922119
 20
10.8690714244
 30
0.0
 40
0.1169999999999973
  0
LINE
  5
365
330
1F
100
AcDbEntity
  8
0
  6
Continuous
 62
     7
370
    25
100
AcDbLine
 10
51.2880922119
 20
10.7876650365
 30
0.0
 11
51.2175922119
 21
10.8283682305
 31
0.0
  0
LINE
  5
366
330
1F
100
AcDbEntity
  8
0
  6
Continuous
 62
     7
370
    25
100
AcDbLine
 10
51.2880922119
 20
10.9504778124
 30
0.0
 11
51.3585922119
 21
10.9097746184
 31
0.0
  0
LINE
  5
367
330
1F
100
AcDbEntity
  8
0
  6
Continuous
 62
     7
370
    25
100
AcDbLine
 10
51.3585922119
 20
10.8283682305
 30
0.0
 11
51.2880922119
 21
10.7876650365
 31
0.0
  0
LINE
  5
368
330
1F
100
AcDbEntity
  8
0
  6
Continuous
 62
     7
370
    25
100
AcDbLine
 10
51.3585922119
 20
10.9097746184
 30
0.0
 11
51.3585922119
 21
10.8283682305
 31
0.0
  0
LINE
  5
369
330
1F
100
AcDbEntity
  8
0
  6
Continuous
 62
     7
370
    25
100
AcDbLine
 10
51.2175922119
 20
10.8283682305
 30
0.0
 11
51.2175922119
 21
10.9097746184
 31
0.0
  0
CIRCLE
  5
36A
330
1F
100
AcDbEntity
  8
0
  6
Continuous
 62
     7
370
    25
100
AcDbCircle
 10
51.2880922119
 20
10.8690714244
 30
0.0
 40
0.2340000000000018
  0
ARC
  5
36B
330
1F
100
AcDbEntity
  8
0
  6
Continuous
 62
     7
370
    25
100
AcDbCircle
 10
51.2880922119
 20
10.8690714244
 30
0.0
 40
0.0705000000000045
100
AcDbArc
 50
240.0
 51
300.0
  0
ARC
  5
36C
330
1F
100
AcDbEntity
  8
0
  6
Continuous
 62
     7
370
    25
100
AcDbCircle
 10
51.2880922119
 20
10.8690714244
 30
0.0
 40
0.0705000000000027
100
AcDbArc
 50
300.0
 51
360.0
  0
ARC
  5
36D
330
1F
100
AcDbEntity
  8
0
  6
Continuous
 62
     7
370
    25
100
AcDbCircle
 10
51.2880922119
 20
10.8690714244
 30
0.0
 40
0.0705000000000045
100
AcDbArc
 50
180.0
 51
240.0
  0
ARC
  5
36E
330
1F
100
AcDbEntity
  8
0
  6
Continuous
 62
     7
370
    25
100
AcDbCircle
 10
51.2880922119
 20
10.8690714244
 30
0.0
 40
0.0705000000000027
100
AcDbArc
 50
120.0
 51
180.0
  0
ARC
  5
36F
330
1F
100
AcDbEntity
  8
0
  6
Continuous
 62
     7
370
    25
100
AcDbCircle
 10
51.2880922119
 20
10.8690714244
 30
0.0
 40
0.0705000000000015
100
AcDbArc
 50
60.0
 51
120.0
  0
ARC
  5
370
330
1F
100
AcDbEntity
  8
0
  6
Continuous
 62
     7
370
    25
100
AcDbCircle
 10
51.2880922119
 20
10.8690714244
 30
0.0
 40
0.0705000000000027
100
AcDbArc
 50
360.0
 51
60.0
  0
CIRCLE
  5
371
330
1F
100
AcDbEntity
  8
0
  6
Continuous
 62
     7
370
    25
100
AcDbCircle
 10
54.4700727273
 20
7.6870909091
 30
0.0
 40
2.325000000000004
  0
CIRCLE
  5
372
330
1F
100
AcDbEntity
  8
0
  6
Continuous
 62
     7
370
    25
100
AcDbCircle
 10
54.4700727273
 20
7.6870909091
 30
0.0
 40
4.2
  0
CIRCLE
  5
373
330
1F
100
AcDbEntity
  8
0
  6
Continuous
 62
     7
370
    25
100
AcDbCircle
 10
54.4700727273
 20
7.6870909091
 30
0.0
 40
0.6224999999999973
  0
CIRCLE
  5
374
330
1F
100
AcDbEntity
  8
0
  6
Continuous
 62
     7
370
    25
100
AcDbCircle
 10
54.4700727273
 20
7.6870909091
 30
0.0
 40
4.837500000000001
  0
ARC
  5
375
330
1F
100
AcDbEntity
  8
0
  6
Continuous
 62
     7
370
    25
100
AcDbCircle
 10
54.4700727273
 20
7.6870909091
 30
0.0
 40
4.290000000000003
100
AcDbArc
 50
46.3461542426
 51
133.6538457574
  0
ARC
  5
376
330
1F
100
AcDbEntity
  8
0
  6
Continuous
 62
     7
370
    25
100
AcDbCircle
 10
54.4700727273
 20
7.6870909091
 30
0.0
 40
4.289999999999998
100
AcDbArc
 50
316.3461542426
 51
43.6538457574
  0
ARC
  5
377
330
1F
100
AcDbEntity
  8
0
  6
Continuous
 62
     7
370
    25
100
AcDbCircle
 10
54.4700727273
 20
7.6870909091
 30
0.0
 40
4.29
100
AcDbArc
 50
226.3461542426
 51
313.6538457574
  0
ARC
  5
378
330
1F
100
AcDbEntity
  8
0
  6
Continuous
 62
     7
370
    25
100
AcDbCircle
 10
54.4700727273
 20
7.6870909091
 30
0.0
 40
4.290000000000001
100
AcDbArc
 50
136.3461542426
 51
223.6538457574
  0
ARC
  5
379
330
1F
100
AcDbEntity
  8
0
  6
Continuous
 62
     7
370
    25
100
AcDbCircle
 10
54.4700727273
 20
7.6870909091
 30
0.0
 40
4.650000000000003
100
AcDbArc
 50
47.2496919417
 51
132.7503080583
  0
ARC
  5
37A
330
1F
100
AcDbEntity
  8
0
  6
Continuous
 62
     7
370
    25
100
AcDbCircle
 10
54.4700727273
 20
7.6870909091
 30
0.0
 40
4.650000000000001
100
AcDbArc
 50
317.2496919417
 51
42.7503080583
  0
ARC
  5
37B
330
1F
100
AcDbEntity
  8
0
  6
Continuous
 62
     7
370
    25
100
AcDbCircle
 10
54.4700727273
 20
7.6870909091
 30
0.0
 40
4.649999999999999
100
AcDbArc
 50
227.2496919417
 51
312.7503080583
  0
ARC
  5
37C
330
1F
100
AcDbEntity
  8
0
  6
Continuous
 62
     7
370
    25
100
AcDbCircle
 10
54.4700727273
 20
7.6870909091
 30
0.0
 40
4.649999999999999
100
AcDbArc
 50
137.2496919417
 51
222.7503080583
  0
DIMENSION
  5
37D
330
1F
100
AcDbEntity
  8
0
  6
Continuous
 62
     7
370
    18
100
AcDbDimension
  2
_D_11
 10
52.0513227273
 20
3.4976930183
 30
0.0
 11
61.7099284833
 21
13.7736466378
 31
0.0
 70
   163
  1
<>
 71
     1
 42
-1.0
  3
SLDDIMSTYLE6
100
AcDbDiametricDimension
 15
56.8888227273
 25
11.8764887999
 35
0.0
 40
0.0
  0
ENDSEC
  0
SECTION
  2
OBJECTS
  0
DICTIONARY
  5
C
330
0
100
AcDbDictionary
281
     1
  3
ACAD_GROUP
350
D
  3
ACAD_LAYOUT
350
1A
  3
ACAD_MLINESTYLE
350
17
  3
ACAD_PLOTSETTINGS
350
19
  3
ACAD_PLOTSTYLENAME
350
E
  3
ACAD_SCALELIST
350
47
  3
DWGPROPS
350
38E
  0
DICTIONARY
  5
D
102
{ACAD_REACTORS
330
C
102
}
330
C
100
AcDbDictionary
281
     1
  0
DICTIONARY
  5
1A
102
{ACAD_REACTORS
330
C
102
}
330
C
100
AcDbDictionary
281
     1
  3
Layout1
350
1E
  3
Layout2
350
26
  3
Model
350
22
  0
DICTIONARY
  5
17
102
{ACAD_REACTORS
330
C
102
}
330
C
100
AcDbDictionary
281
     1
  3
Standard
350
18
  0
DICTIONARY
  5
19
102
{ACAD_REACTORS
330
C
102
}
330
C
100
AcDbDictionary
281
     1
  0
ACDBDICTIONARYWDFLT
  5
E
102
{ACAD_REACTORS
330
C
102
}
330
C
100
AcDbDictionary
281
     1
  3
Normal
350
F
100
AcDbDictionaryWithDefault
340
F
  0
DICTIONARY
  5
47
102
{ACAD_REACTORS
330
C
102
}
330
C
100
AcDbDictionary
281
     1
  3
A0
350
48
  3
A1
350
49
  3
A2
350
4A
  3
A3
350
4B
  3
A4
350
4C
  3
A5
350
4D
  3
A6
350
4E
  3
A7
350
4F
  3
A8
350
50
  3
A9
350
51
  3
B1
350
52
  3
B2
350
53
  3
B3
350
54
  3
B4
350
55
  3
B5
350
56
  3
B6
350
57
  3
B7
350
58
  0
XRECORD
  5
38E
102
{ACAD_REACTORS
330
C
102
}
330
C
100
AcDbXrecord
280
     1
  1
DWGPROPS COOKIE
  2

  3

  4

  6

  7

  8
stevend
  9

300
=
301
=
302
=
303
=
304
=
305
=
306
=
307
=
308
=
309
=
 40
0.0
 41
2460606.740385174
 42
2460606.740386574
  1

 90
        0
  0
LAYOUT
  5
1E
102
{ACAD_REACTORS
330
1A
102
}
330
1A
100
AcDbPlotSettings
  1

  2
none_device
  4

  6

 40
0.0
 41
0.0
 42
0.0
 43
0.0
 44
0.0
 45
0.0
 46
0.0
 47
0.0
 48
0.0
 49
0.0
140
0.0
141
0.0
142
1.0
143
1.0
 70
   688
 72
     0
 73
     0
 74
     5
  7

 75
    16
147
1.0
148
0.0
149
0.0
100
AcDbLayout
  1
Layout1
 70
     1
 71
     1
 10
0.0
 20
0.0
 11
12.0
 21
9.0
 12
0.0
 22
0.0
 32
0.0
 14
1.0000000000E+20
 24
1.0000000000E+20
 34
1.0000000000E+20
 15
-1.0000000000E+20
 25
-1.0000000000E+20
 35
-1.0000000000E+20
146
0.0
 13
0.0
 23
0.0
 33
0.0
 16
1.0
 26
0.0
 36
0.0
 17
0.0
 27
1.0
 37
0.0
 76
     0
330
1B
  0
LAYOUT
  5
26
102
{ACAD_REACTORS
330
1A
102
}
330
1A
100
AcDbPlotSettings
  1

  2
none_device
  4

  6

 40
0.0
 41
0.0
 42
0.0
 43
0.0
 44
0.0
 45
0.0
 46
0.0
 47
0.0
 48
0.0
 49
0.0
140
0.0
141
0.0
142
1.0
143
1.0
 70
   688
 72
     0
 73
     0
 74
     5
  7

 75
    16
147
1.0
148
0.0
149
0.0
100
AcDbLayout
  1
Layout2
 70
     1
 71
     2
 10
0.0
 20
0.0
 11
0.0
 21
0.0
 12
0.0
 22
0.0
 32
0.0
 14
0.0
 24
0.0
 34
0.0
 15
0.0
 25
0.0
 35
0.0
146
0.0
 13
0.0
 23
0.0
 33
0.0
 16
1.0
 26
0.0
 36
0.0
 17
0.0
 27
1.0
 37
0.0
 76
     0
330
23
  0
LAYOUT
  5
22
102
{ACAD_REACTORS
330
1A
102
}
330
1A
100
AcDbPlotSettings
  1

  2
none_device
  4
Letter_(8.50_x_11.00_Inches)
  6

 40
6.35
 41
6.35
 42
6.35000508
 43
6.35000508
 44
215.9
 45
279.4
 46
0.0
 47
0.0
 48
0.0
 49
0.0
140
0.0
141
0.0
142
1.0
143
1.0
 70
  1712
 72
     0
 73
     0
 74
     0
  7

 75
     0
147
1.0
148
0.0
149
0.0
100
AcDbLayout
  1
Model
 70
     1
 71
     0
 10
0.0
 20
0.0
 11
66.0
 21
51.0
 12
0.0
 22
0.0
 32
0.0
 14
0.0
 24
0.0
 34
0.0
 15
66.0
 25
51.0
 35
0.0
146
0.0
 13
0.0
 23
0.0
 33
0.0
 16
1.0
 26
0.0
 36
0.0
 17
0.0
 27
1.0
 37
0.0
 76
     0
330
1F
331
29
  0
MLINESTYLE
  5
18
102
{ACAD_REACTORS
330
17
102
}
330
17
100
AcDbMlineStyle
  2
Standard
 70
     0
  3

 62
   256
 51
90.0
 52
90.0
 71
     2
 49
0.5
 62
   256
  6
BYLAYER
 49
-0.5
 62
   256
  6
BYLAYER
  0
ACDBPLACEHOLDER
  5
F
102
{ACAD_REACTORS
330
E
102
}
330
E
  0
SCALE
  5
48
102
{ACAD_REACTORS
330
47
102
}
330
47
100
AcDbScale
 70
     0
300
1:1
140
1.0
141
1.0
290
     1
  0
SCALE
  5
49
102
{ACAD_REACTORS
330
47
102
}
330
47
100
AcDbScale
 70
     0
300
1/128" = 1'-0"
140
0.0078125
141
12.0
290
     0
  0
SCALE
  5
4A
102
{ACAD_REACTORS
330
47
102
}
330
47
100
AcDbScale
 70
     0
300
1/64" = 1'-0"
140
0.015625
141
12.0
290
     0
  0
SCALE
  5
4B
102
{ACAD_REACTORS
330
47
102
}
330
47
100
AcDbScale
 70
     0
300
1/32" = 1'-0"
140
0.03125
141
12.0
290
     0
  0
SCALE
  5
4C
102
{ACAD_REACTORS
330
47
102
}
330
47
100
AcDbScale
 70
     0
300
1/16" = 1'-0"
140
0.0625
141
12.0
290
     0
  0
SCALE
  5
4D
102
{ACAD_REACTORS
330
47
102
}
330
47
100
AcDbScale
 70
     0
300
3/32" = 1'-0"
140
0.09375
141
12.0
290
     0
  0
SCALE
  5
4E
102
{ACAD_REACTORS
330
47
102
}
330
47
100
AcDbScale
 70
     0
300
1/8" = 1'-0"
140
0.125
141
12.0
290
     0
  0
SCALE
  5
4F
102
{ACAD_REACTORS
330
47
102
}
330
47
100
AcDbScale
 70
     0
300
3/16" = 1'-0"
140
0.1875
141
12.0
290
     0
  0
SCALE
  5
50
102
{ACAD_REACTORS
330
47
102
}
330
47
100
AcDbScale
 70
     0
300
1/4" = 1'-0"
140
0.25
141
12.0
290
     0
  0
SCALE
  5
51
102
{ACAD_REACTORS
330
47
102
}
330
47
100
AcDbScale
 70
     0
300
3/8" = 1'-0"
140
0.375
141
12.0
290
     0
  0
SCALE
  5
52
102
{ACAD_REACTORS
330
47
102
}
330
47
100
AcDbScale
 70
     0
300
1/2" = 1'-0"
140
0.5
141
12.0
290
     0
  0
SCALE
  5
53
102
{ACAD_REACTORS
330
47
102
}
330
47
100
AcDbScale
 70
     0
300
3/4" = 1'-0"
140
0.75
141
12.0
290
     0
  0
SCALE
  5
54
102
{ACAD_REACTORS
330
47
102
}
330
47
100
AcDbScale
 70
     0
300
1" = 1'-0"
140
1.0
141
12.0
290
     0
  0
SCALE
  5
55
102
{ACAD_REACTORS
330
47
102
}
330
47
100
AcDbScale
 70
     0
300
1-1/2" = 1'-0"
140
1.5
141
12.0
290
     0
  0
SCALE
  5
56
102
{ACAD_REACTORS
330
47
102
}
330
47
100
AcDbScale
 70
     0
300
3" = 1'-0"
140
3.0
141
12.0
290
     0
  0
SCALE
  5
57
102
{ACAD_REACTORS
330
47
102
}
330
47
100
AcDbScale
 70
     0
300
6" = 1'-0"
140
6.0
141
12.0
290
     0
  0
SCALE
  5
58
102
{ACAD_REACTORS
330
47
102
}
330
47
100
AcDbScale
 70
     0
300
1'-0" = 1'-0"
140
12.0
141
12.0
290
     0
  0
ENDSEC
  0
EOF
