  0
SECTION
  2
HEADER
  9
$ACADVER
  1
AC1015
  9
$ACADMAINTVER
 70
     6
  9
$DWGCODEPAGE
  3
ANSI_1252
  9
$INSBASE
 10
0.0
 20
0.0
 30
0.0
  9
$EXTMIN
 10
0.0
 20
0.0
 30
0.0
  9
$EXTMAX
 10
66.0
 20
51.0
 30
0.0
  9
$LIMMIN
 10
0.0
 20
0.0
  9
$LIMMAX
 10
66.0
 20
51.0
  9
$ORTHOMODE
 70
     0
  9
$REGENMODE
 70
     1
  9
$FILLMODE
 70
     1
  9
$QTEXTMODE
 70
     0
  9
$MIRRTEXT
 70
     1
  9
$LTSCALE
 40
6.0
  9
$ATTMODE
 70
     1
  9
$TEXTSIZE
 40
0.75
  9
$TRACEWID
 40
0.05
  9
$TEXTSTYLE
  7
STANDARD
  9
$CLAYER
  8
0
  9
$CELTYPE
  6
ByLayer
  9
$CECOLOR
 62
   256
  9
$CELTSCALE
 40
1.0
  9
$DISPSILH
 70
     0
  9
$DIMSCALE
 40
1.0
  9
$DIMASZ
 40
0.78
  9
$DIMEXO
 40
0.3
  9
$DIMDLI
 40
0.38
  9
$DIMRND
 40
0.0
  9
$DIMDLE
 40
0.0
  9
$DIMEXE
 40
0.75
  9
$DIMTP
 40
0.0
  9
$DIMTM
 40
0.0
  9
$DIMTXT
 40
0.75
  9
$DIMCEN
 40
0.09
  9
$DIMTSZ
 40
0.0
  9
$DIMTOL
 70
     0
  9
$DIMLIM
 70
     0
  9
$DIMTIH
 70
     1
  9
$DIMTOH
 70
     1
  9
$DIMSE1
 70
     0
  9
$DIMSE2
 70
     0
  9
$DIMTAD
 70
     0
  9
$DIMZIN
 70
     1
  9
$DIMBLK
  1

  9
$DIMASO
 70
     1
  9
$DIMSHO
 70
     1
  9
$DIMPOST
  1

  9
$DIMAPOST
  1

  9
$DIMALT
 70
     0
  9
$DIMALTD
 70
     2
  9
$DIMALTF
 40
25.4
  9
$DIMLFAC
 40
1.0
  9
$DIMTOFL
 70
     0
  9
$DIMTVP
 40
0.0
  9
$DIMTIX
 70
     0
  9
$DIMSOXD
 70
     0
  9
$DIMSAH
 70
     0
  9
$DIMBLK1
  1

  9
$DIMBLK2
  1

  9
$DIMSTYLE
  2
Standard
  9
$DIMCLRD
 70
     0
  9
$DIMCLRE
 70
     0
  9
$DIMCLRT
 70
     0
  9
$DIMTFAC
 40
1.0
  9
$DIMGAP
 40
0.36
  9
$DIMJUST
 70
     0
  9
$DIMSD1
 70
     0
  9
$DIMSD2
 70
     0
  9
$DIMTOLJ
 70
     1
  9
$DIMTZIN
 70
     1
  9
$DIMALTZ
 70
     0
  9
$DIMALTTZ
 70
     0
  9
$DIMUPT
 70
     0
  9
$DIMDEC
 70
     0
  9
$DIMTDEC
 70
     0
  9
$DIMALTU
 70
     2
  9
$DIMALTTD
 70
     2
  9
$DIMTXSTY
  7
STANDARD
  9
$DIMAUNIT
 70
     0
  9
$DIMADEC
 70
     0
  9
$DIMALTRND
 40
0.0
  9
$DIMAZIN
 70
     0
  9
$DIMDSEP
 70
    46
  9
$DIMATFIT
 70
     3
  9
$DIMFRAC
 70
     0
  9
$DIMLDRBLK
  1

  9
$DIMLUNIT
 70
     2
  9
$DIMLWD
 70
    -2
  9
$DIMLWE
 70
    -2
  9
$DIMTMOVE
 70
     0
  9
$LUNITS
 70
     2
  9
$LUPREC
 70
     6
  9
$SKETCHINC
 40
0.1
  9
$FILLETRAD
 40
0.0
  9
$AUNITS
 70
     0
  9
$AUPREC
 70
     2
  9
$MENU
  1
.
  9
$ELEVATION
 40
0.0
  9
$PELEVATION
 40
0.0
  9
$THICKNESS
 40
0.0
  9
$LIMCHECK
 70
     0
  9
$CHAMFERA
 40
0.0
  9
$CHAMFERB
 40
0.0
  9
$CHAMFERC
 40
0.0
  9
$CHAMFERD
 40
0.0
  9
$SKPOLY
 70
     0
  9
$TDCREATE
 40
2460462.764613183
  9
$TDUCREATE
 40
2460463.05627985
  9
$TDUPDATE
 40
2460462.764614017
  9
$TDUUPDATE
 40
2460463.056280683
  9
$TDINDWG
 40
0.0000000116
  9
$TDUSRTIMER
 40
0.0000000116
  9
$USRTIMER
 70
     1
  9
$ANGBASE
 50
0.0
  9
$ANGDIR
 70
     0
  9
$PDMODE
 70
     0
  9
$PDSIZE
 40
-1.0
  9
$PLINEWID
 40
0.0
  9
$SPLFRAME
 70
     0
  9
$SPLINETYPE
 70
     6
  9
$SPLINESEGS
 70
     8
  9
$HANDSEED
  5
2EF
  9
$SURFTAB1
 70
     6
  9
$SURFTAB2
 70
     6
  9
$SURFTYPE
 70
     6
  9
$SURFU
 70
     6
  9
$SURFV
 70
     6
  9
$UCSBASE
  2

  9
$UCSNAME
  2

  9
$UCSORG
 10
0.0
 20
0.0
 30
0.0
  9
$UCSXDIR
 10
1.0
 20
0.0
 30
0.0
  9
$UCSYDIR
 10
0.0
 20
1.0
 30
0.0
  9
$UCSORTHOREF
  2

  9
$UCSORTHOVIEW
 70
     0
  9
$UCSORGTOP
 10
0.0
 20
0.0
 30
0.0
  9
$UCSORGBOTTOM
 10
0.0
 20
0.0
 30
0.0
  9
$UCSORGLEFT
 10
0.0
 20
0.0
 30
0.0
  9
$UCSORGRIGHT
 10
0.0
 20
0.0
 30
0.0
  9
$UCSORGFRONT
 10
0.0
 20
0.0
 30
0.0
  9
$UCSORGBACK
 10
0.0
 20
0.0
 30
0.0
  9
$PUCSBASE
  2

  9
$PUCSNAME
  2

  9
$PUCSORG
 10
0.0
 20
0.0
 30
0.0
  9
$PUCSXDIR
 10
1.0
 20
0.0
 30
0.0
  9
$PUCSYDIR
 10
0.0
 20
1.0
 30
0.0
  9
$PUCSORTHOREF
  2

  9
$PUCSORTHOVIEW
 70
     0
  9
$PUCSORGTOP
 10
0.0
 20
0.0
 30
0.0
  9
$PUCSORGBOTTOM
 10
0.0
 20
0.0
 30
0.0
  9
$PUCSORGLEFT
 10
0.0
 20
0.0
 30
0.0
  9
$PUCSORGRIGHT
 10
0.0
 20
0.0
 30
0.0
  9
$PUCSORGFRONT
 10
0.0
 20
0.0
 30
0.0
  9
$PUCSORGBACK
 10
0.0
 20
0.0
 30
0.0
  9
$USERI1
 70
     0
  9
$USERI2
 70
     0
  9
$USERI3
 70
     0
  9
$USERI4
 70
     0
  9
$USERI5
 70
     0
  9
$USERR1
 40
0.0
  9
$USERR2
 40
0.0
  9
$USERR3
 40
0.0
  9
$USERR4
 40
0.0
  9
$USERR5
 40
0.0
  9
$WORLDVIEW
 70
     1
  9
$SHADEDGE
 70
     3
  9
$SHADEDIF
 70
    70
  9
$TILEMODE
 70
     1
  9
$MAXACTVP
 70
    64
  9
$PINSBASE
 10
0.0
 20
0.0
 30
0.0
  9
$PLIMCHECK
 70
     0
  9
$PEXTMIN
 10
1.0000000000E+20
 20
1.0000000000E+20
 30
1.0000000000E+20
  9
$PEXTMAX
 10
-1.0000000000E+20
 20
-1.0000000000E+20
 30
-1.0000000000E+20
  9
$PLIMMIN
 10
0.0
 20
0.0
  9
$PLIMMAX
 10
12.0
 20
9.0
  9
$UNITMODE
 70
     0
  9
$VISRETAIN
 70
     1
  9
$PLINEGEN
 70
     0
  9
$PSLTSCALE
 70
     1
  9
$TREEDEPTH
 70
  3020
  9
$CMLSTYLE
  2
Standard
  9
$CMLJUST
 70
     0
  9
$CMLSCALE
 40
1.0
  9
$PROXYGRAPHICS
 70
     1
  9
$MEASUREMENT
 70
     0
  9
$CELWEIGHT
370
    -1
  9
$ENDCAPS
280
     0
  9
$JOINSTYLE
280
     0
  9
$LWDISPLAY
290
     1
  9
$INSUNITS
 70
     1
  9
$HYPERLINKBASE
  1

  9
$STYLESHEET
  1

  9
$XEDIT
290
     1
  9
$CEPSNTYPE
380
     0
  9
$PSTYLEMODE
290
     1
  9
$FINGERPRINTGUID
  2
{6ce6fe8b-8871-43d2-a816-6f829ab17297}
  9
$VERSIONGUID
  2
{FAEB1C32-E019-11D5-929B-00C0DF256EC4}
  9
$EXTNAMES
290
     1
  9
$PSVPSCALE
 40
0.0
  9
$OLESTARTUP
290
     0
  0
ENDSEC
  0
SECTION
  2
CLASSES
  0
CLASS
  1
ACDBDICTIONARYWDFLT
  2
AcDbDictionaryWithDefault
  3
ObjectDBX Classes
 90
        0
280
     0
281
     0
  0
CLASS
  1
VISUALSTYLE
  2
AcDbVisualStyle
  3
ObjectDBX Classes
 90
     4095
280
     0
281
     0
  0
CLASS
  1
MATERIAL
  2
AcDbMaterial
  3
ObjectDBX Classes
 90
     1153
280
     0
281
     0
  0
CLASS
  1
SCALE
  2
AcDbScale
  3
ObjectDBX Classes
 90
     1153
280
     0
281
     0
  0
CLASS
  1
TABLESTYLE
  2
AcDbTableStyle
  3
ObjectDBX Classes
 90
     4095
280
     0
281
     0
  0
CLASS
  1
MLEADERSTYLE
  2
AcDbMLeaderStyle
  3
ACDB_MLEADERSTYLE_CLASS
 90
     4095
280
     0
281
     0
  0
CLASS
  1
SUN
  2
AcDbSun
  3
SCENEOE
 90
     1153
280
     0
281
     0
  0
CLASS
  1
ACDBPLACEHOLDER
  2
AcDbPlaceHolder
  3
ObjectDBX Classes
 90
        0
280
     0
281
     0
  0
CLASS
  1
LAYOUT
  2
AcDbLayout
  3
ObjectDBX Classes
 90
        0
280
     0
281
     0
  0
ENDSEC
  0
SECTION
  2
TABLES
  0
TABLE
  2
VPORT
  5
8
330
0
100
AcDbSymbolTable
 70
     1
  0
VPORT
  5
29
330
8
100
AcDbSymbolTableRecord
100
AcDbViewportTableRecord
  2
*Active
 70
     0
 10
0.0
 20
0.0
 11
1.0
 21
1.0
 12
33.0
 22
25.5
 13
0.0
 23
0.0
 14
0.5
 24
0.5
 15
0.5
 25
0.5
 16
0.0
 26
0.0
 36
1.0
 17
0.0
 27
0.0
 37
0.0
 40
51.0
 41
1.2941176471
 42
50.0
 43
0.0
 44
0.0
 50
0.0
 51
0.0
 71
     0
 72
  2000
 73
     1
 74
     3
 75
     0
 76
     0
 77
     0
 78
     0
281
     0
 65
     1
110
0.0
120
0.0
130
0.0
111
1.0
121
0.0
131
0.0
112
0.0
122
1.0
132
0.0
 79
     0
146
0.0
  0
ENDTAB
  0
TABLE
  2
LTYPE
  5
5
330
0
100
AcDbSymbolTable
 70
     6
  0
LTYPE
  5
14
330
5
100
AcDbSymbolTableRecord
100
AcDbLinetypeTableRecord
  2
ByBlock
 70
     0
  3

 72
    65
 73
     0
 40
0.0
  0
LTYPE
  5
15
330
5
100
AcDbSymbolTableRecord
100
AcDbLinetypeTableRecord
  2
ByLayer
 70
     0
  3

 72
    65
 73
     0
 40
0.0
  0
LTYPE
  5
16
330
5
100
AcDbSymbolTableRecord
100
AcDbLinetypeTableRecord
  2
Continuous
 70
     0
  3
Solid line
 72
    65
 73
     0
 40
0.0
  0
LTYPE
  5
5E
330
5
100
AcDbSymbolTableRecord
100
AcDbLinetypeTableRecord
  2
HIDDEN
 70
     0
  3
Hidden __ __ __ __ __ __ __ __ __ __ __ __ __ __
 72
    65
 73
     2
 40
0.075
 49
0.05
 74
     0
 49
-0.025
 74
     0
  0
LTYPE
  5
5F
330
5
100
AcDbSymbolTableRecord
100
AcDbLinetypeTableRecord
  2
PHANTOM
 70
     0
  3
Phantom ______  __  __  ______  __  __  ______
 72
    65
 73
     6
 40
0.5
 49
0.25
 74
     0
 49
-0.05
 74
     0
 49
0.05
 74
     0
 49
-0.05
 74
     0
 49
0.05
 74
     0
 49
-0.05
 74
     0
  0
LTYPE
  5
60
330
5
100
AcDbSymbolTableRecord
100
AcDbLinetypeTableRecord
  2
CENTER
 70
     0
  3
Center ____ _ ____ _ ____ _ ____ _ ____ _ ____
 72
    65
 73
     4
 40
0.4
 49
0.25
 74
     0
 49
-0.05
 74
     0
 49
0.05
 74
     0
 49
-0.05
 74
     0
  0
LTYPE
  5
61
330
5
100
AcDbSymbolTableRecord
100
AcDbLinetypeTableRecord
  2
CENTERX2
 70
     0
  3
Center (2x) ________  __  ________  __  _____
 72
    65
 73
     4
 40
0.8
 49
0.5
 74
     0
 49
-0.1
 74
     0
 49
0.1
 74
     0
 49
-0.1
 74
     0
  0
LTYPE
  5
62
330
5
100
AcDbSymbolTableRecord
100
AcDbLinetypeTableRecord
  2
DOT2
 70
     0
  3
Dot (.5x) ........................................
 72
    65
 73
     2
 40
0.025
 49
0.0
 74
     0
 49
-0.025
 74
     0
  0
ENDTAB
  0
TABLE
  2
LAYER
  5
2
330
0
100
AcDbSymbolTable
 70
    12
  0
LAYER
  5
10
330
2
100
AcDbSymbolTableRecord
100
AcDbLayerTableRecord
  2
0
 70
     0
 62
     7
  6
Continuous
370
    -3
390
F
  0
LAYER
  5
63
330
2
100
AcDbSymbolTableRecord
100
AcDbLayerTableRecord
  2
SLD-0
 70
     0
 62
     7
  6
Continuous
370
    -3
390
F
  0
LAYER
  5
64
330
2
100
AcDbSymbolTableRecord
100
AcDbLayerTableRecord
  2
DIM
 70
     0
 62
     7
  6
Continuous
370
    -3
390
F
  0
LAYER
  5
65
330
2
100
AcDbSymbolTableRecord
100
AcDbLayerTableRecord
  2
CEN
 70
     0
 62
     1
  6
CENTER
370
    -3
390
F
  0
LAYER
  5
66
330
2
100
AcDbSymbolTableRecord
100
AcDbLayerTableRecord
  2
HAT
 70
     0
 62
     4
  6
Continuous
370
    -3
390
F
  0
LAYER
  5
67
330
2
100
AcDbSymbolTableRecord
100
AcDbLayerTableRecord
  2
OBJ
 70
     0
 62
     5
  6
Continuous
370
    -3
390
F
  0
LAYER
  5
68
330
2
100
AcDbSymbolTableRecord
100
AcDbLayerTableRecord
  2
SLD-DEFPOINTS
 70
     0
 62
     7
  6
Continuous
370
    -3
390
F
  0
LAYER
  5
69
330
2
100
AcDbSymbolTableRecord
100
AcDbLayerTableRecord
  2
HID
 70
     0
 62
     4
  6
HIDDEN
370
    -3
390
F
  0
LAYER
  5
6A
330
2
100
AcDbSymbolTableRecord
100
AcDbLayerTableRecord
  2
NOTE
 70
     0
 62
     7
  6
Continuous
370
    -3
390
F
  0
LAYER
  5
6B
330
2
100
AcDbSymbolTableRecord
100
AcDbLayerTableRecord
  2
VP
 70
     0
 62
    -5
  6
Continuous
290
     0
370
    -3
390
F
  0
LAYER
  5
6C
330
2
100
AcDbSymbolTableRecord
100
AcDbLayerTableRecord
  2
TITLE
 70
     0
 62
     7
  6
Continuous
370
    -3
390
F
  0
LAYER
  5
6D
330
2
100
AcDbSymbolTableRecord
100
AcDbLayerTableRecord
  2
THICK_TITLE
 70
     0
 62
     7
  6
Continuous
370
   100
390
F
  0
ENDTAB
  0
TABLE
  2
STYLE
  5
3
330
0
100
AcDbSymbolTable
 70
     3
  0
STYLE
  5
11
330
3
100
AcDbSymbolTableRecord
100
AcDbTextStyleTableRecord
  2
STANDARD
 70
     0
 40
0.0
 41
1.0
 50
0.0
 71
     0
 42
0.75
  3
GOTHIC.TTF
  4

1001
ACAD
1000
CENTURY GOTHIC
1071
       34
  0
STYLE
  5
74
330
3
100
AcDbSymbolTableRecord
100
AcDbTextStyleTableRecord
  2
SLDTEXTSTYLE0
 70
     0
 40
0.0
 41
0.3674333335
 50
0.0
 71
     0
 42
0.75
  3
GOTHIC.TTF
  4

1001
ACAD
1000
Century Gothic
1071
      290
  0
STYLE
  5
134
330
3
100
AcDbSymbolTableRecord
100
AcDbTextStyleTableRecord
  2
SLDTEXTSTYLE1
 70
     0
 40
0.0
 41
0.913
 50
0.0
 71
     0
 42
0.75
  3
GOTHIC.TTF
  4

1001
ACAD
1000
Century Gothic
1071
      290
  0
ENDTAB
  0
TABLE
  2
VIEW
  5
6
330
0
100
AcDbSymbolTable
 70
     0
  0
ENDTAB
  0
TABLE
  2
UCS
  5
7
330
0
100
AcDbSymbolTable
 70
     0
  0
ENDTAB
  0
TABLE
  2
APPID
  5
9
330
0
100
AcDbSymbolTable
 70
     1
  0
APPID
  5
12
330
9
100
AcDbSymbolTableRecord
100
AcDbRegAppTableRecord
  2
ACAD
 70
     0
  0
ENDTAB
  0
TABLE
  2
DIMSTYLE
  5
A
330
0
100
AcDbSymbolTable
 70
     4
100
AcDbDimStyleTable
  0
DIMSTYLE
105
27
330
A
100
AcDbSymbolTableRecord
100
AcDbDimStyleTableRecord
  2
Standard
 70
     0
178
     0
340
11
  0
DIMSTYLE
105
135
102
{ACAD_REACTORS
330
133
330
149
330
15C
330
170
330
184
330
1A9
102
}
330
A
100
AcDbSymbolTableRecord
100
AcDbDimStyleTableRecord
  2
SLDDIMSTYLE0
 70
     0
 41
0.78
 44
0.0
 45
0.000000001
 78
    12
 79
     3
140
0.75
147
0.1875
148
0.000000001
170
     1
173
     1
178
     0
271
     6
272
     0
276
     2
277
     5
284
    12
340
134
  0
DIMSTYLE
105
199
102
{ACAD_REACTORS
330
198
102
}
330
A
100
AcDbSymbolTableRecord
100
AcDbDimStyleTableRecord
  2
SLDDIMSTYLE1
 70
     0
 41
0.78
 44
0.0
 45
0.000000001
 78
    12
 79
     3
140
0.75
147
0.1875
148
0.000000001
170
     1
173
     1
178
     0
271
     0
272
     0
276
     2
277
     5
284
    12
340
134
  0
DIMSTYLE
105
2DE
102
{ACAD_REACTORS
330
2DD
102
}
330
A
100
AcDbSymbolTableRecord
100
AcDbDimStyleTableRecord
  2
SLDDIMSTYLE2
 70
     0
 41
0.78
 44
0.0
 45
0.000000001
 78
    12
 79
     3
140
0.75
141
0.0
144
0.6666666667
147
0.1875
148
0.000000001
170
     1
173
     1
178
     0
271
     0
272
     0
276
     2
277
     5
284
    12
340
134
  0
ENDTAB
  0
TABLE
  2
BLOCK_RECORD
  5
1
330
0
100
AcDbSymbolTable
 70
    17
  0
BLOCK_RECORD
  5
1F
330
1
100
AcDbSymbolTableRecord
100
AcDbBlockTableRecord
  2
*Model_Space
340
22
  0
BLOCK_RECORD
  5
1B
330
1
100
AcDbSymbolTableRecord
100
AcDbBlockTableRecord
  2
*Paper_Space
340
1E
  0
BLOCK_RECORD
  5
23
330
1
100
AcDbSymbolTableRecord
100
AcDbBlockTableRecord
  2
*Paper_Space0
340
26
  0
BLOCK_RECORD
  5
6E
330
1
100
AcDbSymbolTableRecord
100
AcDbBlockTableRecord
  2
Block1
340
0
  0
BLOCK_RECORD
  5
71
330
1
100
AcDbSymbolTableRecord
100
AcDbBlockTableRecord
  2
SW_NOTE_0
340
0
102
{BLKREFS
331
76
102
}
  0
BLOCK_RECORD
  5
77
330
1
100
AcDbSymbolTableRecord
100
AcDbBlockTableRecord
  2
Block2
340
0
  0
BLOCK_RECORD
  5
7A
330
1
100
AcDbSymbolTableRecord
100
AcDbBlockTableRecord
  2
SW_NOTE_0_1
340
0
102
{BLKREFS
331
7E
102
}
  0
BLOCK_RECORD
  5
7F
330
1
100
AcDbSymbolTableRecord
100
AcDbBlockTableRecord
  2
Block3
340
0
  0
BLOCK_RECORD
  5
82
330
1
100
AcDbSymbolTableRecord
100
AcDbBlockTableRecord
  2
SW_NOTE_0_2
340
0
102
{BLKREFS
331
86
102
}
  0
BLOCK_RECORD
  5
87
330
1
100
AcDbSymbolTableRecord
100
AcDbBlockTableRecord
  2
Block4
340
0
  0
BLOCK_RECORD
  5
8A
330
1
100
AcDbSymbolTableRecord
100
AcDbBlockTableRecord
  2
SW_NOTE_0_3
340
0
102
{BLKREFS
331
8E
102
}
  0
BLOCK_RECORD
  5
136
330
1
100
AcDbSymbolTableRecord
100
AcDbBlockTableRecord
  2
_D
340
0
  0
BLOCK_RECORD
  5
14A
330
1
100
AcDbSymbolTableRecord
100
AcDbBlockTableRecord
  2
_D_1
340
0
  0
BLOCK_RECORD
  5
15D
330
1
100
AcDbSymbolTableRecord
100
AcDbBlockTableRecord
  2
_D_2
340
0
  0
BLOCK_RECORD
  5
171
330
1
100
AcDbSymbolTableRecord
100
AcDbBlockTableRecord
  2
_D_3
340
0
  0
BLOCK_RECORD
  5
185
330
1
100
AcDbSymbolTableRecord
100
AcDbBlockTableRecord
  2
_D_4
340
0
  0
BLOCK_RECORD
  5
19A
330
1
100
AcDbSymbolTableRecord
100
AcDbBlockTableRecord
  2
_D_5
340
0
  0
BLOCK_RECORD
  5
1AA
330
1
100
AcDbSymbolTableRecord
100
AcDbBlockTableRecord
  2
_D_6
340
0
  0
BLOCK_RECORD
  5
2DF
330
1
100
AcDbSymbolTableRecord
100
AcDbBlockTableRecord
  2
_D_7
340
0
  0
ENDTAB
  0
ENDSEC
  0
SECTION
  2
BLOCKS
  0
BLOCK
  5
20
330
1F
100
AcDbEntity
  8
0
100
AcDbBlockBegin
  2
*Model_Space
 70
     0
 10
0.0
 20
0.0
 30
0.0
  3
*Model_Space
  1

  0
ENDBLK
  5
21
330
1F
100
AcDbEntity
  8
0
100
AcDbBlockEnd
  0
BLOCK
  5
1C
330
1B
100
AcDbEntity
 67
     1
  8
0
100
AcDbBlockBegin
  2
*Paper_Space
 70
     0
 10
0.0
 20
0.0
 30
0.0
  3
*Paper_Space
  1

  0
ENDBLK
  5
1D
330
1B
100
AcDbEntity
 67
     1
  8
0
100
AcDbBlockEnd
  0
BLOCK
  5
24
330
23
100
AcDbEntity
  8
0
100
AcDbBlockBegin
  2
*Paper_Space0
 70
     0
 10
0.0
 20
0.0
 30
0.0
  3
*Paper_Space0
  1

  0
ENDBLK
  5
25
330
23
100
AcDbEntity
  8
0
100
AcDbBlockEnd
  0
BLOCK
  5
6F
330
6E
100
AcDbEntity
  8
0
100
AcDbBlockBegin
  2
Block1
 70
     0
 10
0.0
 20
0.0
 30
0.0
  3
Block1
  1

  0
INSERT
  5
76
330
6E
100
AcDbEntity
  8
0
  6
Continuous
 62
     7
370
     0
100
AcDbBlockReference
  2
SW_NOTE_0
 10
0.0024644595
 20
-0.1042925805
 30
0.0
  0
ENDBLK
  5
70
330
6E
100
AcDbEntity
  8
0
100
AcDbBlockEnd
  0
BLOCK
  5
72
330
71
100
AcDbEntity
  8
0
100
AcDbBlockBegin
  2
SW_NOTE_0
 70
     0
 10
0.0
 20
0.0
 30
0.0
  3
SW_NOTE_0
  1

  0
MTEXT
  5
75
330
71
100
AcDbEntity
  8
0
  6
Continuous
 62
     0
370
     0
100
AcDbMText
 10
1.3991291878
 20
1.5966796875
 30
0.0
 40
1.25
 41
0.0
 71
     2
 72
     1
  1
A/D CAP
  7
SLDTEXTSTYLE0
 73
     1
 44
1.0
  0
ENDBLK
  5
73
330
71
100
AcDbEntity
  8
0
100
AcDbBlockEnd
  0
BLOCK
  5
78
330
77
100
AcDbEntity
  8
0
100
AcDbBlockBegin
  2
Block2
 70
     0
 10
0.0
 20
0.0
 30
0.0
  3
Block2
  1

  0
INSERT
  5
7E
330
77
100
AcDbEntity
  8
0
  6
Continuous
 62
     7
370
     0
100
AcDbBlockReference
  2
SW_NOTE_0_1
 10
0.0236486254
 20
1.7050846838
 30
0.0
  0
ENDBLK
  5
79
330
77
100
AcDbEntity
  8
0
100
AcDbBlockEnd
  0
BLOCK
  5
7B
330
7A
100
AcDbEntity
  8
0
100
AcDbBlockBegin
  2
SW_NOTE_0_1
 70
     0
 10
0.0
 20
0.0
 30
0.0
  3
SW_NOTE_0_1
  1

  0
MTEXT
  5
7D
330
7A
100
AcDbEntity
  8
0
  6
Continuous
 62
     0
370
     0
100
AcDbMText
 10
1.2969455954
 20
1.5966796875
 30
0.0
 40
1.25
 41
0.0
 71
     2
 72
     1
  1
B/E CAP
  7
SLDTEXTSTYLE0
 73
     1
 44
1.0
  0
ENDBLK
  5
7C
330
7A
100
AcDbEntity
  8
0
100
AcDbBlockEnd
  0
BLOCK
  5
80
330
7F
100
AcDbEntity
  8
0
100
AcDbBlockBegin
  2
Block3
 70
     0
 10
0.0
 20
0.0
 30
0.0
  3
Block3
  1

  0
INSERT
  5
86
330
7F
100
AcDbEntity
  8
0
  6
Continuous
 62
     7
370
     0
100
AcDbBlockReference
  2
SW_NOTE_0_2
 10
0.0678802992
 20
-0.0556479787
 30
0.0
  0
ENDBLK
  5
81
330
7F
100
AcDbEntity
  8
0
100
AcDbBlockEnd
  0
BLOCK
  5
83
330
82
100
AcDbEntity
  8
0
100
AcDbBlockBegin
  2
SW_NOTE_0_2
 70
     0
 10
0.0
 20
0.0
 30
0.0
  3
SW_NOTE_0_2
  1

  0
MTEXT
  5
85
330
82
100
AcDbEntity
  8
0
  6
Continuous
 62
     0
370
     0
100
AcDbMText
 10
1.053277029
 20
1.5966796875
 30
0.0
 40
1.25
 41
0.0
 71
     2
 72
     1
  1
C CAP
  7
SLDTEXTSTYLE0
 73
     1
 44
1.0
  0
ENDBLK
  5
84
330
82
100
AcDbEntity
  8
0
100
AcDbBlockEnd
  0
BLOCK
  5
88
330
87
100
AcDbEntity
  8
0
100
AcDbBlockBegin
  2
Block4
 70
     0
 10
0.0
 20
0.0
 30
0.0
  3
Block4
  1

  0
INSERT
  5
8E
330
87
100
AcDbEntity
  8
0
  6
Continuous
 62
     7
370
     0
100
AcDbBlockReference
  2
SW_NOTE_0_3
 10
0.0491174266
 20
-0.0198220018
 30
0.0
  0
ENDBLK
  5
89
330
87
100
AcDbEntity
  8
0
100
AcDbBlockEnd
  0
BLOCK
  5
8B
330
8A
100
AcDbEntity
  8
0
100
AcDbBlockBegin
  2
SW_NOTE_0_3
 70
     0
 10
0.0
 20
0.0
 30
0.0
  3
SW_NOTE_0_3
  1

  0
MTEXT
  5
8D
330
8A
100
AcDbEntity
  8
0
  6
Continuous
 62
     0
370
     0
100
AcDbMText
 10
0.9432331603
 20
1.5966796875
 30
0.0
 40
1.25
 41
0.0
 71
     2
 72
     1
  1
F CAP
  7
SLDTEXTSTYLE0
 73
     1
 44
1.0
  0
ENDBLK
  5
8C
330
8A
100
AcDbEntity
  8
0
100
AcDbBlockEnd
  0
BLOCK
  5
137
330
136
100
AcDbEntity
  8
0
100
AcDbBlockBegin
  2
_D
 70
     0
 10
0.0
 20
0.0
 30
0.0
  3
_D
  1

  0
SOLID
  5
139
330
136
100
AcDbEntity
  8
0
  6
Continuous
 62
     7
370
    18
100
AcDbTrace
 10
43.8319049345
 20
8.7160237753
 30
0.0
 11
43.2037506295
 21
8.2382977354
 31
0.0
 12
43.3763921816
 22
8.0715797265
 32
0.0
 13
43.3763921816
 23
8.0715797265
 33
0.0
  0
SOLID
  5
13A
330
136
100
AcDbEntity
  8
0
  6
Continuous
 62
     7
370
    18
100
AcDbTrace
 10
39.2887544167
 20
4.011453694
 30
0.0
 11
39.9169087217
 21
4.4891797338
 31
0.0
 12
39.7442671696
 22
4.6558977427
 32
0.0
 13
39.7442671696
 23
4.6558977427
 33
0.0
  0
LINE
  5
13B
330
136
100
AcDbEntity
  8
0
  6
Continuous
 62
     7
370
     0
100
AcDbLine
 10
39.7915798083
 20
6.3580094508
 30
0.0
 11
39.5630641857
 21
6.3580094508
 31
0.0
  0
LINE
  5
13C
330
136
100
AcDbEntity
  8
0
  6
Continuous
 62
     7
370
     0
100
AcDbLine
 10
39.5630641857
 20
6.3580094508
 30
0.0
 11
39.5630641857
 21
5.167384415
 31
0.0
  0
LINE
  5
13D
330
136
100
AcDbEntity
  8
0
  6
Continuous
 62
     7
370
     0
100
AcDbLine
 10
39.5630641857
 20
5.167384415
 30
0.0
 11
39.7915798083
 21
5.167384415
 31
0.0
  0
LINE
  5
13E
330
136
100
AcDbEntity
  8
0
  6
Continuous
 62
     7
370
     0
100
AcDbLine
 10
43.3290797628
 20
6.3580094508
 30
0.0
 11
43.5575953855
 21
6.3580094508
 31
0.0
  0
LINE
  5
13F
330
136
100
AcDbEntity
  8
0
  6
Continuous
 62
     7
370
     0
100
AcDbLine
 10
43.5575953855
 20
6.3580094508
 30
0.0
 11
43.5575953855
 21
5.167384415
 31
0.0
  0
LINE
  5
140
330
136
100
AcDbEntity
  8
0
  6
Continuous
 62
     7
370
     0
100
AcDbLine
 10
43.5575953855
 20
5.167384415
 30
0.0
 11
43.3290797628
 21
5.167384415
 31
0.0
  0
LINE
  5
141
330
136
100
AcDbEntity
  8
0
  6
Continuous
 62
     7
370
     0
100
AcDbLine
 10
34.8004500277
 20
17.4375983989
 30
0.0
 11
44.3714097847
 21
8.1950299974
 31
0.0
  0
LINE
  5
142
330
136
100
AcDbEntity
  8
0
  6
Continuous
 62
     7
370
     0
100
AcDbLine
 10
31.0366106449
 20
11.9804563024
 30
0.0
 11
39.8282592669
 21
3.4904599161
 31
0.0
  0
LINE
  5
143
330
136
100
AcDbEntity
  8
0
  6
Continuous
 62
     7
370
     0
100
AcDbLine
 10
43.8319049345
 20
8.7160237753
 30
0.0
 11
42.8627520303
 21
7.7124365643
 31
0.0
  0
LINE
  5
144
330
136
100
AcDbEntity
  8
0
  6
Continuous
 62
     7
370
     0
100
AcDbLine
 10
39.2887544167
 20
4.011453694
 30
0.0
 11
40.2579073208
 21
5.0150409049
 31
0.0
  0
MTEXT
  5
145
330
136
100
AcDbEntity
  8
0
  6
Continuous
 62
     7
370
    18
100
AcDbMText
 10
39.0574652289
 20
7.4798194235
 30
0.0
 40
0.75
 41
0.0
 71
     1
 72
     1
  1
 
  7
SLDTEXTSTYLE1
 73
     1
 44
1.0
  0
MTEXT
  5
146
330
136
100
AcDbEntity
  8
0
  6
Continuous
 62
     7
370
    18
100
AcDbMText
 10
39.9400172086
 20
7.4683610347
 30
0.0
 40
0.75
 41
0.0
 71
     1
 72
     1
  1
6 9/16"
  7
SLDTEXTSTYLE1
 73
     1
 44
1.0
  0
MTEXT
  5
147
330
136
100
AcDbEntity
  8
0
  6
Continuous
 62
     7
370
    18
100
AcDbMText
 10
39.7915798083
 20
6.12539231
 30
0.0
 40
0.75
 41
0.0
 71
     1
 72
     1
  1
166mm
  7
SLDTEXTSTYLE1
 73
     1
 44
1.0
  0
MTEXT
  5
148
330
136
100
AcDbEntity
  8
0
  6
Continuous
 62
     7
370
    18
100
AcDbMText
 10
43.7861108432
 20
7.4798194235
 30
0.0
 40
0.75
 41
0.0
 71
     1
 72
     1
  1
 
  7
SLDTEXTSTYLE1
 73
     1
 44
1.0
  0
ENDBLK
  5
138
330
136
100
AcDbEntity
  8
0
100
AcDbBlockEnd
  0
BLOCK
  5
14B
330
14A
100
AcDbEntity
  8
0
100
AcDbBlockBegin
  2
_D_1
 70
     0
 10
0.0
 20
0.0
 30
0.0
  3
_D_1
  1

  0
SOLID
  5
14D
330
14A
100
AcDbEntity
  8
0
  6
Continuous
 62
     7
370
    18
100
AcDbTrace
 10
30.0799891587
 20
5.1557304262
 30
0.0
 11
29.6022631189
 21
5.7838847312
 31
0.0
 12
29.43554511
 22
5.6112431791
 32
0.0
 13
29.43554511
 23
5.6112431791
 33
0.0
  0
SOLID
  5
14E
330
14A
100
AcDbEntity
  8
0
  6
Continuous
 62
     7
370
    18
100
AcDbTrace
 10
22.3916853727
 20
12.5802390897
 30
0.0
 11
22.8694114125
 21
11.9520847847
 31
0.0
 12
23.0361294214
 22
12.1247263368
 32
0.0
 13
23.0361294214
 23
12.1247263368
 33
0.0
  0
LINE
  5
14F
330
14A
100
AcDbEntity
  8
0
  6
Continuous
 62
     7
370
     0
100
AcDbLine
 10
24.4670873435
 20
8.8679846479
 30
0.0
 11
24.2385717208
 21
8.8679846479
 31
0.0
  0
LINE
  5
150
330
14A
100
AcDbEntity
  8
0
  6
Continuous
 62
     7
370
     0
100
AcDbLine
 10
24.2385717208
 20
8.8679846479
 30
0.0
 11
24.2385717208
 21
7.6773596121
 31
0.0
  0
LINE
  5
151
330
14A
100
AcDbEntity
  8
0
  6
Continuous
 62
     7
370
     0
100
AcDbLine
 10
24.2385717208
 20
7.6773596121
 30
0.0
 11
24.4670873435
 21
7.6773596121
 31
0.0
  0
LINE
  5
152
330
14A
100
AcDbEntity
  8
0
  6
Continuous
 62
     7
370
     0
100
AcDbLine
 10
28.004587298
 20
8.8679846479
 30
0.0
 11
28.2331029206
 21
8.8679846479
 31
0.0
  0
LINE
  5
153
330
14A
100
AcDbEntity
  8
0
  6
Continuous
 62
     7
370
     0
100
AcDbLine
 10
28.2331029206
 20
8.8679846479
 30
0.0
 11
28.2331029206
 21
7.6773596121
 31
0.0
  0
LINE
  5
154
330
14A
100
AcDbEntity
  8
0
  6
Continuous
 62
     7
370
     0
100
AcDbLine
 10
28.2331029206
 20
7.6773596121
 30
0.0
 11
28.004587298
 21
7.6773596121
 31
0.0
  0
LINE
  5
155
330
14A
100
AcDbEntity
  8
0
  6
Continuous
 62
     7
370
     0
100
AcDbLine
 10
33.8571258718
 20
9.067069992
 30
0.0
 11
29.5589953809
 21
4.616225576
 31
0.0
  0
LINE
  5
156
330
14A
100
AcDbEntity
  8
0
  6
Continuous
 62
     7
370
     0
100
AcDbLine
 10
26.1688220858
 20
16.4915786554
 30
0.0
 11
21.8706915949
 21
12.0407342394
 31
0.0
  0
LINE
  5
157
330
14A
100
AcDbEntity
  8
0
  6
Continuous
 62
     7
370
     0
100
AcDbLine
 10
30.0799891587
 20
5.1557304262
 30
0.0
 11
27.6265221333
 21
7.525015992
 31
0.0
  0
LINE
  5
158
330
14A
100
AcDbEntity
  8
0
  6
Continuous
 62
     7
370
     0
100
AcDbLine
 10
22.3916853727
 20
12.5802390897
 30
0.0
 11
24.8451523981
 21
10.2109535238
 31
0.0
  0
MTEXT
  5
159
330
14A
100
AcDbEntity
  8
0
  6
Continuous
 62
     7
370
    18
100
AcDbMText
 10
23.4958113787
 20
9.9783362868
 30
0.0
 40
0.75
 41
0.0
 71
     1
 72
     1
  1
%%c
  7
SLDTEXTSTYLE1
 73
     1
 44
1.0
  0
MTEXT
  5
15A
330
14A
100
AcDbEntity
  8
0
  6
Continuous
 62
     7
370
    18
100
AcDbMText
 10
24.6269051022
 20
9.9783362868
 30
0.0
 40
0.75
 41
0.0
 71
     1
 72
     1
  1
10 11/16"
  7
SLDTEXTSTYLE1
 73
     1
 44
1.0
  0
MTEXT
  5
15B
330
14A
100
AcDbEntity
  8
0
  6
Continuous
 62
     7
370
    18
100
AcDbMText
 10
24.4670873435
 20
8.6353675071
 30
0.0
 40
0.75
 41
0.0
 71
     1
 72
     1
  1
271mm
  7
SLDTEXTSTYLE1
 73
     1
 44
1.0
  0
ENDBLK
  5
14C
330
14A
100
AcDbEntity
  8
0
100
AcDbBlockEnd
  0
BLOCK
  5
15E
330
15D
100
AcDbEntity
  8
0
100
AcDbBlockBegin
  2
_D_2
 70
     0
 10
0.0
 20
0.0
 30
0.0
  3
_D_2
  1

  0
SOLID
  5
160
330
15D
100
AcDbEntity
  8
0
  6
Continuous
 62
     7
370
    18
100
AcDbTrace
 10
39.0231448226
 20
17.5809174909
 30
0.0
 11
39.1431448226
 21
18.3609174909
 31
0.0
 12
38.9031448226
 22
18.3609174909
 32
0.0
 13
38.9031448226
 23
18.3609174909
 33
0.0
  0
SOLID
  5
161
330
15D
100
AcDbEntity
  8
0
  6
Continuous
 62
     7
370
    18
100
AcDbTrace
 10
39.0231448226
 20
30.5069174909
 30
0.0
 11
38.9031448226
 21
29.7269174909
 31
0.0
 12
39.1431448226
 22
29.7269174909
 32
0.0
 13
39.1431448226
 23
29.7269174909
 33
0.0
  0
LINE
  5
162
330
15D
100
AcDbEntity
  8
0
  6
Continuous
 62
     7
370
     0
100
AcDbLine
 10
37.2543949553
 20
24.0381882071
 30
0.0
 11
37.0258793327
 21
24.0381882071
 31
0.0
  0
LINE
  5
163
330
15D
100
AcDbEntity
  8
0
  6
Continuous
 62
     7
370
     0
100
AcDbLine
 10
37.0258793327
 20
24.0381882071
 30
0.0
 11
37.0258793327
 21
22.8475631713
 31
0.0
  0
LINE
  5
164
330
15D
100
AcDbEntity
  8
0
  6
Continuous
 62
     7
370
     0
100
AcDbLine
 10
37.0258793327
 20
22.8475631713
 30
0.0
 11
37.2543949553
 21
22.8475631713
 31
0.0
  0
LINE
  5
165
330
15D
100
AcDbEntity
  8
0
  6
Continuous
 62
     7
370
     0
100
AcDbLine
 10
40.7918949098
 20
24.0381882071
 30
0.0
 11
41.0204105325
 21
24.0381882071
 31
0.0
  0
LINE
  5
166
330
15D
100
AcDbEntity
  8
0
  6
Continuous
 62
     7
370
     0
100
AcDbLine
 10
41.0204105325
 20
24.0381882071
 30
0.0
 11
41.0204105325
 21
22.8475631713
 31
0.0
  0
LINE
  5
167
330
15D
100
AcDbEntity
  8
0
  6
Continuous
 62
     7
370
     0
100
AcDbLine
 10
41.0204105325
 20
22.8475631713
 30
0.0
 11
40.7918949098
 21
22.8475631713
 31
0.0
  0
LINE
  5
168
330
15D
100
AcDbEntity
  8
0
  6
Continuous
 62
     7
370
     0
100
AcDbLine
 10
34.8631911163
 20
17.5809174909
 30
0.0
 11
39.7731448226
 21
17.5809174909
 31
0.0
  0
LINE
  5
169
330
15D
100
AcDbEntity
  8
0
  6
Continuous
 62
     7
370
     0
100
AcDbLine
 10
27.6061719901
 20
30.5069174909
 30
0.0
 11
39.7731448226
 21
30.5069174909
 31
0.0
  0
LINE
  5
16A
330
15D
100
AcDbEntity
  8
0
  6
Continuous
 62
     7
370
     0
100
AcDbLine
 10
39.0231448226
 20
17.5809174909
 30
0.0
 11
39.0231448226
 21
22.6952196612
 31
0.0
  0
LINE
  5
16B
330
15D
100
AcDbEntity
  8
0
  6
Continuous
 62
     7
370
     0
100
AcDbLine
 10
39.0231448226
 20
30.5069174909
 30
0.0
 11
39.0231448226
 21
25.3926153207
 31
0.0
  0
MTEXT
  5
16C
330
15D
100
AcDbEntity
  8
0
  6
Continuous
 62
     7
370
    18
100
AcDbMText
 10
36.5202803759
 20
25.1599981799
 30
0.0
 40
0.75
 41
0.0
 71
     1
 72
     1
  1
 
  7
SLDTEXTSTYLE1
 73
     1
 44
1.0
  0
MTEXT
  5
16D
330
15D
100
AcDbEntity
  8
0
  6
Continuous
 62
     7
370
    18
100
AcDbMText
 10
36.8486657973
 20
25.148539791
 30
0.0
 40
0.75
 41
0.0
 71
     1
 72
     1
  1
12 15/16"
  7
SLDTEXTSTYLE1
 73
     1
 44
1.0
  0
MTEXT
  5
16E
330
15D
100
AcDbEntity
  8
0
  6
Continuous
 62
     7
370
    18
100
AcDbMText
 10
37.2543949553
 20
23.8055710663
 30
0.0
 40
0.75
 41
0.0
 71
     1
 72
     1
  1
328mm
  7
SLDTEXTSTYLE1
 73
     1
 44
1.0
  0
MTEXT
  5
16F
330
15D
100
AcDbEntity
  8
0
  6
Continuous
 62
     7
370
    18
100
AcDbMText
 10
41.2489259902
 20
25.1599981799
 30
0.0
 40
0.75
 41
0.0
 71
     1
 72
     1
  1
 
  7
SLDTEXTSTYLE1
 73
     1
 44
1.0
  0
ENDBLK
  5
15F
330
15D
100
AcDbEntity
  8
0
100
AcDbBlockEnd
  0
BLOCK
  5
172
330
171
100
AcDbEntity
  8
0
100
AcDbBlockBegin
  2
_D_3
 70
     0
 10
0.0
 20
0.0
 30
0.0
  3
_D_3
  1

  0
SOLID
  5
174
330
171
100
AcDbEntity
  8
0
  6
Continuous
 62
     7
370
    18
100
AcDbTrace
 10
40.7166027045
 20
11.7244361689
 30
0.0
 11
40.0884483995
 21
11.246710129
 31
0.0
 12
40.2610899516
 22
11.0799921201
 32
0.0
 13
40.2610899516
 23
11.0799921201
 33
0.0
  0
SOLID
  5
175
330
171
100
AcDbEntity
  8
0
  6
Continuous
 62
     7
370
    18
100
AcDbTrace
 10
36.2870842532
 20
7.1375355371
 30
0.0
 11
36.9152385582
 21
7.6152615769
 31
0.0
 12
36.7425970062
 22
7.7819795858
 32
0.0
 13
36.7425970062
 23
7.7819795858
 33
0.0
  0
LINE
  5
176
330
171
100
AcDbEntity
  8
0
  6
Continuous
 62
     7
370
     0
100
AcDbLine
 10
36.7330936116
 20
9.4252565692
 30
0.0
 11
36.504577989
 21
9.4252565692
 31
0.0
  0
LINE
  5
177
330
171
100
AcDbEntity
  8
0
  6
Continuous
 62
     7
370
     0
100
AcDbLine
 10
36.504577989
 20
9.4252565692
 30
0.0
 11
36.504577989
 21
8.2346315334
 31
0.0
  0
LINE
  5
178
330
171
100
AcDbEntity
  8
0
  6
Continuous
 62
     7
370
     0
100
AcDbLine
 10
36.504577989
 20
8.2346315334
 30
0.0
 11
36.7330936116
 21
8.2346315334
 31
0.0
  0
LINE
  5
179
330
171
100
AcDbEntity
  8
0
  6
Continuous
 62
     7
370
     0
100
AcDbLine
 10
40.2705935661
 20
9.4252565692
 30
0.0
 11
40.4991091888
 21
9.4252565692
 31
0.0
  0
LINE
  5
17A
330
171
100
AcDbEntity
  8
0
  6
Continuous
 62
     7
370
     0
100
AcDbLine
 10
40.4991091888
 20
9.4252565692
 30
0.0
 11
40.4991091888
 21
8.2346315334
 31
0.0
  0
LINE
  5
17B
330
171
100
AcDbEntity
  8
0
  6
Continuous
 62
     7
370
     0
100
AcDbLine
 10
40.4991091888
 20
8.2346315334
 30
0.0
 11
40.2705935661
 21
8.2346315334
 31
0.0
  0
LINE
  5
17C
330
171
100
AcDbEntity
  8
0
  6
Continuous
 62
     7
370
     0
100
AcDbLine
 10
34.8004500277
 20
17.4375983989
 30
0.0
 11
41.2561075548
 21
11.203442391
 31
0.0
  0
LINE
  5
17D
330
171
100
AcDbEntity
  8
0
  6
Continuous
 62
     7
370
     0
100
AcDbLine
 10
34.2813253231
 20
9.0744744209
 30
0.0
 11
36.8265891035
 21
6.6165417592
 31
0.0
  0
LINE
  5
17E
330
171
100
AcDbEntity
  8
0
  6
Continuous
 62
     7
370
     0
100
AcDbLine
 10
40.7166027045
 20
11.7244361689
 30
0.0
 11
39.8042658337
 21
10.7796836827
 31
0.0
  0
LINE
  5
17F
330
171
100
AcDbEntity
  8
0
  6
Continuous
 62
     7
370
     0
100
AcDbLine
 10
36.2870842532
 20
7.1375355371
 30
0.0
 11
37.1994211241
 21
8.0822880232
 31
0.0
  0
MTEXT
  5
180
330
171
100
AcDbEntity
  8
0
  6
Continuous
 62
     7
370
    18
100
AcDbMText
 10
35.9989790322
 20
10.5470665419
 30
0.0
 40
0.75
 41
0.0
 71
     1
 72
     1
  1
 
  7
SLDTEXTSTYLE1
 73
     1
 44
1.0
  0
MTEXT
  5
181
330
171
100
AcDbEntity
  8
0
  6
Continuous
 62
     7
370
    18
100
AcDbMText
 10
37.158614401
 20
10.535608153
 30
0.0
 40
0.75
 41
0.0
 71
     1
 72
     1
  1
6 3/8"
  7
SLDTEXTSTYLE1
 73
     1
 44
1.0
  0
MTEXT
  5
182
330
171
100
AcDbEntity
  8
0
  6
Continuous
 62
     7
370
    18
100
AcDbMText
 10
36.7330936116
 20
9.1926394284
 30
0.0
 40
0.75
 41
0.0
 71
     1
 72
     1
  1
162mm
  7
SLDTEXTSTYLE1
 73
     1
 44
1.0
  0
MTEXT
  5
183
330
171
100
AcDbEntity
  8
0
  6
Continuous
 62
     7
370
    18
100
AcDbMText
 10
40.7276246465
 20
10.5470665419
 30
0.0
 40
0.75
 41
0.0
 71
     1
 72
     1
  1
 
  7
SLDTEXTSTYLE1
 73
     1
 44
1.0
  0
ENDBLK
  5
173
330
171
100
AcDbEntity
  8
0
100
AcDbBlockEnd
  0
BLOCK
  5
186
330
185
100
AcDbEntity
  8
0
100
AcDbBlockBegin
  2
_D_4
 70
     0
 10
0.0
 20
0.0
 30
0.0
  3
_D_4
  1

  0
SOLID
  5
188
330
185
100
AcDbEntity
  8
0
  6
Continuous
 62
     7
370
    18
100
AcDbTrace
 10
29.0920252258
 20
10.6709936725
 30
0.0
 11
28.6253347502
 21
11.3073897755
 31
0.0
 12
28.4556291227
 22
11.137684148
 32
0.0
 13
28.4556291227
 23
11.137684148
 33
0.0
  0
SOLID
  5
189
330
185
100
AcDbEntity
  8
0
  6
Continuous
 62
     7
370
    18
100
AcDbTrace
 10
27.5222481716
 20
12.2407707267
 30
0.0
 11
27.9889386471
 21
11.6043746236
 31
0.0
 12
28.1586442746
 22
11.7740802511
 32
0.0
 13
28.1586442746
 23
11.7740802511
 33
0.0
  0
LINE
  5
18A
330
185
100
AcDbEntity
  8
0
  6
Continuous
 62
     7
370
     0
100
AcDbLine
 10
18.7433539082
 20
16.0793003484
 30
0.0
 11
18.5148382855
 21
16.0793003484
 31
0.0
  0
LINE
  5
18B
330
185
100
AcDbEntity
  8
0
  6
Continuous
 62
     7
370
     0
100
AcDbLine
 10
18.5148382855
 20
16.0793003484
 30
0.0
 11
18.5148382855
 21
14.8886753126
 31
0.0
  0
LINE
  5
18C
330
185
100
AcDbEntity
  8
0
  6
Continuous
 62
     7
370
     0
100
AcDbLine
 10
18.5148382855
 20
14.8886753126
 30
0.0
 11
18.7433539082
 21
14.8886753126
 31
0.0
  0
LINE
  5
18D
330
185
100
AcDbEntity
  8
0
  6
Continuous
 62
     7
370
     0
100
AcDbLine
 10
21.7266873045
 20
16.0793003484
 30
0.0
 11
21.9552029272
 21
16.0793003484
 31
0.0
  0
LINE
  5
18E
330
185
100
AcDbEntity
  8
0
  6
Continuous
 62
     7
370
     0
100
AcDbLine
 10
21.9552029272
 20
16.0793003484
 30
0.0
 11
21.9552029272
 21
14.8886753126
 31
0.0
  0
LINE
  5
18F
330
185
100
AcDbEntity
  8
0
  6
Continuous
 62
     7
370
     0
100
AcDbLine
 10
21.9552029272
 20
14.8886753126
 30
0.0
 11
21.7266873045
 21
14.8886753126
 31
0.0
  0
LINE
  5
190
330
185
100
AcDbEntity
  8
0
  6
Continuous
 62
     7
370
     0
100
AcDbLine
 10
30.5222170868
 20
12.1011855335
 30
0.0
 11
28.5616951399
 21
10.1406635866
 31
0.0
  0
LINE
  5
191
330
185
100
AcDbEntity
  8
0
  6
Continuous
 62
     7
370
     0
100
AcDbLine
 10
28.9524400326
 20
13.6709625877
 30
0.0
 11
26.9919180857
 21
11.7104406408
 31
0.0
  0
LINE
  5
192
330
185
100
AcDbEntity
  8
0
  6
Continuous
 62
     7
370
     0
100
AcDbLine
 10
29.0920252258
 20
10.6709936725
 30
0.0
 11
27.5222481716
 21
12.2407707267
 31
0.0
  0
LINE
  5
193
330
185
100
AcDbEntity
  8
0
  6
Continuous
 62
     7
370
     0
100
AcDbLine
 10
27.5222481716
 20
12.2407707267
 30
0.0
 11
23.6837184398
 21
16.0793004584
 31
0.0
  0
LINE
  5
194
330
185
100
AcDbEntity
  8
0
  6
Continuous
 62
     7
370
     0
100
AcDbLine
 10
23.6837184398
 20
16.0793004584
 30
0.0
 11
22.1837184398
 21
16.0793004584
 31
0.0
  0
MTEXT
  5
195
330
185
100
AcDbEntity
  8
0
  6
Continuous
 62
     7
370
    18
100
AcDbMText
 10
18.3262445017
 20
17.1896519873
 30
0.0
 40
0.75
 41
0.0
 71
     1
 72
     1
  1
%%c
  7
SLDTEXTSTYLE1
 73
     1
 44
1.0
  0
MTEXT
  5
196
330
185
100
AcDbEntity
  8
0
  6
Continuous
 62
     7
370
    18
100
AcDbMText
 10
19.4573382252
 20
17.1896519873
 30
0.0
 40
0.75
 41
0.0
 71
     1
 72
     1
  1
2 1/4"
  7
SLDTEXTSTYLE1
 73
     1
 44
1.0
  0
MTEXT
  5
197
330
185
100
AcDbEntity
  8
0
  6
Continuous
 62
     7
370
    18
100
AcDbMText
 10
18.7433539082
 20
15.8466832076
 30
0.0
 40
0.75
 41
0.0
 71
     1
 72
     1
  1
56mm
  7
SLDTEXTSTYLE1
 73
     1
 44
1.0
  0
ENDBLK
  5
187
330
185
100
AcDbEntity
  8
0
100
AcDbBlockEnd
  0
BLOCK
  5
19B
330
19A
100
AcDbEntity
  8
0
100
AcDbBlockBegin
  2
_D_5
 70
     0
 10
0.0
 20
0.0
 30
0.0
  3
_D_5
  1

  0
SOLID
  5
19D
330
19A
100
AcDbEntity
  8
0
  6
Continuous
 62
     7
370
    18
100
AcDbTrace
 10
35.4243375688
 20
34.179960954
 30
0.0
 11
34.6443375688
 21
34.299960954
 31
0.0
 12
34.6443375688
 22
34.059960954
 32
0.0
 13
34.6443375688
 23
34.059960954
 33
0.0
  0
SOLID
  5
19E
330
19A
100
AcDbEntity
  8
0
  6
Continuous
 62
     7
370
    18
100
AcDbTrace
 10
9.3061719901
 20
34.179960954
 30
0.0
 11
10.0861719901
 21
34.059960954
 31
0.0
 12
10.0861719901
 22
34.299960954
 32
0.0
 13
10.0861719901
 23
34.299960954
 33
0.0
  0
LINE
  5
19F
330
19A
100
AcDbEntity
  8
0
  6
Continuous
 62
     7
370
     0
100
AcDbLine
 10
35.4243375688
 20
15.9678114592
 30
0.0
 11
35.4243375688
 21
16.6551172037
 31
0.0
  0
LINE
  5
1A0
330
19A
100
AcDbEntity
  8
0
  6
Continuous
 62
     7
370
     0
100
AcDbLine
 10
35.4243375688
 20
17.0151172037
 30
0.0
 11
35.4243375688
 21
17.4009174909
 31
0.0
  0
LINE
  5
1A1
330
19A
100
AcDbEntity
  8
0
  6
Continuous
 62
     7
370
     0
100
AcDbLine
 10
35.4243375688
 20
17.7609174909
 30
0.0
 11
35.4243375688
 21
30.3269174909
 31
0.0
  0
LINE
  5
1A2
330
19A
100
AcDbEntity
  8
0
  6
Continuous
 62
     7
370
     0
100
AcDbLine
 10
35.4243375688
 20
30.6869174909
 30
0.0
 11
35.4243375688
 21
34.929960954
 31
0.0
  0
LINE
  5
1A3
330
19A
100
AcDbEntity
  8
0
  6
Continuous
 62
     7
370
     0
100
AcDbLine
 10
9.3061719901
 20
29.1069174909
 30
0.0
 11
9.3061719901
 21
34.929960954
 31
0.0
  0
LINE
  5
1A4
330
19A
100
AcDbEntity
  8
0
  6
Continuous
 62
     7
370
     0
100
AcDbLine
 10
35.4243375688
 20
34.179960954
 30
0.0
 11
29.596867966
 21
34.179960954
 31
0.0
  0
LINE
  5
1A5
330
19A
100
AcDbEntity
  8
0
  6
Continuous
 62
     7
370
     0
100
AcDbLine
 10
9.3061719901
 20
34.179960954
 30
0.0
 11
15.1336415928
 21
34.179960954
 31
0.0
  0
MTEXT
  5
1A6
330
19A
100
AcDbEntity
  8
0
  6
Continuous
 62
     7
370
    18
100
AcDbMText
 10
15.2787969628
 20
35.7332814219
 30
0.0
 40
0.75
 41
0.0
 71
     1
 72
     1
  1
SPECIFY PROJECTION LENGTH
  7
SLDTEXTSTYLE1
 73
     1
 44
1.0
  0
MTEXT
  5
1A7
330
19A
100
AcDbEntity
  8
0
  6
Continuous
 62
     7
370
    18
100
AcDbMText
 10
20.7814006762
 20
34.5426563861
 30
0.0
 40
0.75
 41
0.0
 71
     1
 72
     1
  1
18"-48"
  7
SLDTEXTSTYLE1
 73
     1
 44
1.0
  0
MTEXT
  5
1A8
330
19A
100
AcDbEntity
  8
0
  6
Continuous
 62
     7
370
    18
100
AcDbMText
 10
18.0334841404
 20
33.3520313503
 30
0.0
 40
0.75
 41
0.0
 71
     1
 72
     1
  1
[457mm-1219mm]
  7
SLDTEXTSTYLE1
 73
     1
 44
1.0
  0
ENDBLK
  5
19C
330
19A
100
AcDbEntity
  8
0
100
AcDbBlockEnd
  0
BLOCK
  5
1AB
330
1AA
100
AcDbEntity
  8
0
100
AcDbBlockBegin
  2
_D_6
 70
     0
 10
0.0
 20
0.0
 30
0.0
  3
_D_6
  1

  0
SOLID
  5
1AD
330
1AA
100
AcDbEntity
  8
0
  6
Continuous
 62
     7
370
    18
100
AcDbTrace
 10
9.3061719901
 20
34.179960954
 30
0.0
 11
8.5261719901
 21
34.299960954
 31
0.0
 12
8.5261719901
 22
34.059960954
 32
0.0
 13
8.5261719901
 23
34.059960954
 33
0.0
  0
SOLID
  5
1AE
330
1AA
100
AcDbEntity
  8
0
  6
Continuous
 62
     7
370
    18
100
AcDbTrace
 10
7.0281719901
 20
34.179960954
 30
0.0
 11
7.8081719901
 21
34.059960954
 31
0.0
 12
7.8081719901
 22
34.299960954
 32
0.0
 13
7.8081719901
 23
34.299960954
 33
0.0
  0
LINE
  5
1AF
330
1AA
100
AcDbEntity
  8
0
  6
Continuous
 62
     7
370
     0
100
AcDbLine
 10
2.0720634791
 20
34.1742316702
 30
0.0
 11
1.8435478565
 21
34.1742316702
 31
0.0
  0
LINE
  5
1B0
330
1AA
100
AcDbEntity
  8
0
  6
Continuous
 62
     7
370
     0
100
AcDbLine
 10
1.8435478565
 20
34.1742316702
 30
0.0
 11
1.8435478565
 21
32.9836066344
 31
0.0
  0
LINE
  5
1B1
330
1AA
100
AcDbEntity
  8
0
  6
Continuous
 62
     7
370
     0
100
AcDbLine
 10
1.8435478565
 20
32.9836066344
 30
0.0
 11
2.0720634791
 21
32.9836066344
 31
0.0
  0
LINE
  5
1B2
330
1AA
100
AcDbEntity
  8
0
  6
Continuous
 62
     7
370
     0
100
AcDbLine
 10
5.0553968754
 20
34.1742316702
 30
0.0
 11
5.2839124981
 21
34.1742316702
 31
0.0
  0
LINE
  5
1B3
330
1AA
100
AcDbEntity
  8
0
  6
Continuous
 62
     7
370
     0
100
AcDbLine
 10
5.2839124981
 20
34.1742316702
 30
0.0
 11
5.2839124981
 21
32.9836066344
 31
0.0
  0
LINE
  5
1B4
330
1AA
100
AcDbEntity
  8
0
  6
Continuous
 62
     7
370
     0
100
AcDbLine
 10
5.2839124981
 20
32.9836066344
 30
0.0
 11
5.0553968754
 21
32.9836066344
 31
0.0
  0
LINE
  5
1B5
330
1AA
100
AcDbEntity
  8
0
  6
Continuous
 62
     7
370
     0
100
AcDbLine
 10
9.3061719901
 20
29.1069174909
 30
0.0
 11
9.3061719901
 21
34.929960954
 31
0.0
  0
LINE
  5
1B6
330
1AA
100
AcDbEntity
  8
0
  6
Continuous
 62
     7
370
     0
100
AcDbLine
 10
7.0281719901
 20
30.7819174909
 30
0.0
 11
7.0281719901
 21
34.929960954
 31
0.0
  0
LINE
  5
1B7
330
1AA
100
AcDbEntity
  8
0
  6
Continuous
 62
     7
370
     0
100
AcDbLine
 10
9.3061719901
 20
34.179960954
 30
0.0
 11
7.0281719901
 21
34.179960954
 31
0.0
  0
LINE
  5
1B8
330
1AA
100
AcDbEntity
  8
0
  6
Continuous
 62
     7
370
     0
100
AcDbLine
 10
7.0281719901
 20
34.179960954
 30
0.0
 11
5.9346666048
 21
34.179960954
 31
0.0
  0
MTEXT
  5
1B9
330
1AA
100
AcDbEntity
  8
0
  6
Continuous
 62
     7
370
    18
100
AcDbMText
 10
1.3379488997
 20
35.2960416429
 30
0.0
 40
0.75
 41
0.0
 71
     1
 72
     1
  1
 
  7
SLDTEXTSTYLE1
 73
     1
 44
1.0
  0
MTEXT
  5
1BA
330
1AA
100
AcDbEntity
  8
0
  6
Continuous
 62
     7
370
    18
100
AcDbMText
 10
2.2205009894
 20
35.2845832541
 30
0.0
 40
0.75
 41
0.0
 71
     1
 72
     1
  1
2 1/4"
  7
SLDTEXTSTYLE1
 73
     1
 44
1.0
  0
MTEXT
  5
1BB
330
1AA
100
AcDbEntity
  8
0
  6
Continuous
 62
     7
370
    18
100
AcDbMText
 10
2.0720634791
 20
33.9416145294
 30
0.0
 40
0.75
 41
0.0
 71
     1
 72
     1
  1
58mm
  7
SLDTEXTSTYLE1
 73
     1
 44
1.0
  0
MTEXT
  5
1BC
330
1AA
100
AcDbEntity
  8
0
  6
Continuous
 62
     7
370
    18
100
AcDbMText
 10
5.5124279558
 20
35.2960416429
 30
0.0
 40
0.75
 41
0.0
 71
     1
 72
     1
  1
 
  7
SLDTEXTSTYLE1
 73
     1
 44
1.0
  0
ENDBLK
  5
1AC
330
1AA
100
AcDbEntity
  8
0
100
AcDbBlockEnd
  0
BLOCK
  5
2E0
330
2DF
100
AcDbEntity
  8
0
100
AcDbBlockBegin
  2
_D_7
 70
     0
 10
0.0
 20
0.0
 30
0.0
  3
_D_7
  1

  0
SOLID
  5
2E2
330
2DF
100
AcDbEntity
  8
0
  6
Continuous
 62
     7
370
    18
100
AcDbTrace
 10
57.26715
 20
12.8223069817
 30
0.0
 11
57.7610730485
 21
13.4378067967
 31
0.0
 12
57.5532269515
 22
13.5578067967
 32
0.0
 13
57.5532269515
 23
13.5578067967
 33
0.0
  0
LINE
  5
2E3
330
2DF
100
AcDbEntity
  8
0
  6
Continuous
 62
     7
370
     0
100
AcDbLine
 10
60.3195058337
 20
14.7194647096
 30
0.0
 11
60.0909902111
 21
14.7194647096
 31
0.0
  0
LINE
  5
2E4
330
2DF
100
AcDbEntity
  8
0
  6
Continuous
 62
     7
370
     0
100
AcDbLine
 10
60.0909902111
 20
14.7194647096
 30
0.0
 11
60.0909902111
 21
13.5288396738
 31
0.0
  0
LINE
  5
2E5
330
2DF
100
AcDbEntity
  8
0
  6
Continuous
 62
     7
370
     0
100
AcDbLine
 10
60.0909902111
 20
13.5288396738
 30
0.0
 11
60.3195058337
 21
13.5288396738
 31
0.0
  0
LINE
  5
2E6
330
2DF
100
AcDbEntity
  8
0
  6
Continuous
 62
     7
370
     0
100
AcDbLine
 10
63.8570057882
 20
14.7194647096
 30
0.0
 11
64.0855214109
 21
14.7194647096
 31
0.0
  0
LINE
  5
2E7
330
2DF
100
AcDbEntity
  8
0
  6
Continuous
 62
     7
370
     0
100
AcDbLine
 10
64.0855214109
 20
14.7194647096
 30
0.0
 11
64.0855214109
 21
13.5288396738
 31
0.0
  0
LINE
  5
2E8
330
2DF
100
AcDbEntity
  8
0
  6
Continuous
 62
     7
370
     0
100
AcDbLine
 10
64.0855214109
 20
13.5288396738
 30
0.0
 11
63.8570057882
 21
13.5288396738
 31
0.0
  0
LINE
  5
2E9
330
2DF
100
AcDbEntity
  8
0
  6
Continuous
 62
     7
370
     0
100
AcDbLine
 10
57.26715
 20
12.8223069817
 30
0.0
 11
58.3624745884
 21
14.7194648196
 31
0.0
  0
LINE
  5
2EA
330
2DF
100
AcDbEntity
  8
0
  6
Continuous
 62
     7
370
     0
100
AcDbLine
 10
58.3624745884
 20
14.7194648196
 30
0.0
 11
59.8624745884
 21
14.7194648196
 31
0.0
  0
MTEXT
  5
2EB
330
2DF
100
AcDbEntity
  8
0
  6
Continuous
 62
     7
370
    18
100
AcDbMText
 10
59.9023964272
 20
15.8298163485
 30
0.0
 40
0.75
 41
0.0
 71
     1
 72
     1
  1
%%c
  7
SLDTEXTSTYLE1
 73
     1
 44
1.0
  0
MTEXT
  5
2EC
330
2DF
100
AcDbEntity
  8
0
  6
Continuous
 62
     7
370
    18
100
AcDbMText
 10
61.0334901507
 20
15.8298163485
 30
0.0
 40
0.75
 41
0.0
 71
     1
 72
     1
  1
6 7/16"
  7
SLDTEXTSTYLE1
 73
     1
 44
1.0
  0
MTEXT
  5
2ED
330
2DF
100
AcDbEntity
  8
0
  6
Continuous
 62
     7
370
    18
100
AcDbMText
 10
60.3195058337
 20
14.4868475688
 30
0.0
 40
0.75
 41
0.0
 71
     1
 72
     1
  1
164mm
  7
SLDTEXTSTYLE1
 73
     1
 44
1.0
  0
ENDBLK
  5
2E1
330
2DF
100
AcDbEntity
  8
0
100
AcDbBlockEnd
  0
ENDSEC
  0
SECTION
  2
ENTITIES
  0
LINE
  5
8F
330
1F
100
AcDbEntity
  8
0
  6
Continuous
 62
     7
370
    25
100
AcDbLine
 10
29.2320145754
 20
13.9505371305
 30
0.0
 11
29.1645720669
 21
13.8830946221
 31
0.0
  0
LINE
  5
90
330
1F
100
AcDbEntity
  8
0
  6
Continuous
 62
     7
370
    25
100
AcDbLine
 10
30.7343491212
 20
12.3133175678
 30
0.0
 11
30.82919219
 21
12.4081606367
 31
0.0
  0
ARC
  5
91
330
1F
100
AcDbEntity
  8
0
  6
Continuous
 62
     7
370
    25
100
AcDbCircle
 10
30.7131359177
 20
12.3345307713
 30
0.0
 40
0.0300000000000017
100
AcDbArc
 50
225.0
 51
315.0
  0
ARC
  5
92
330
1F
100
AcDbEntity
  8
0
  6
Continuous
 62
     7
370
    25
100
AcDbCircle
 10
29.1857852704
 20
13.8618814186
 30
0.0
 40
0.0300000000000004
100
AcDbArc
 50
135.0
 51
225.0
  0
LINE
  5
93
330
1F
100
AcDbEntity
  8
0
  6
Continuous
 62
     7
370
    25
100
AcDbLine
 10
7.3211719901
 20
25.2915971474
 30
0.0
 11
7.3061719901
 21
25.2915971474
 31
0.0
  0
LINE
  5
94
330
1F
100
AcDbEntity
  8
0
  6
Continuous
 62
     7
370
    25
100
AcDbLine
 10
7.3061719901
 20
24.9795971474
 30
0.0
 11
7.3211719901
 21
24.9795971474
 31
0.0
  0
ARC
  5
95
330
1F
100
AcDbEntity
  8
0
  6
Continuous
 62
     7
370
    25
100
AcDbCircle
 10
7.2304219901
 20
25.1355971474
 30
0.0
 40
0.1804759332986
100
AcDbArc
 50
300.1878810736
 51
334.3933390117
  0
ARC
  5
96
330
1F
100
AcDbEntity
  8
0
  6
Continuous
 62
     7
370
    25
100
AcDbCircle
 10
7.2304219901
 20
25.1355971474
 30
0.0
 40
0.1804759332985969
100
AcDbArc
 50
25.6066609883
 51
59.8121189264
  0
LINE
  5
97
330
1F
100
AcDbEntity
  8
0
  6
Continuous
 62
     7
370
    25
100
AcDbLine
 10
7.0281719901
 20
25.2080944502
 30
0.0
 11
7.0218019901
 21
25.1989971474
 31
0.0
  0
LINE
  5
98
330
1F
100
AcDbEntity
  8
0
  6
Continuous
 62
     7
370
    25
100
AcDbLine
 10
7.0218019901
 20
25.0721971474
 30
0.0
 11
7.0281719901
 21
25.0630998446
 31
0.0
  0
LINE
  5
99
330
1F
100
AcDbEntity
  8
0
  6
Continuous
 62
     7
370
    25
100
AcDbLine
 10
7.010217029
 20
25.2155421864
 30
0.0
 11
6.9936719901
 21
25.1989971474
 31
0.0
  0
LINE
  5
9A
330
1F
100
AcDbEntity
  8
0
  6
Continuous
 62
     7
370
    25
100
AcDbLine
 10
6.9936719901
 20
25.0721971474
 30
0.0
 11
7.010217029
 21
25.0556521084
 31
0.0
  0
LINE
  5
9B
330
1F
100
AcDbEntity
  8
0
  6
Continuous
 62
     7
370
    25
100
AcDbLine
 10
7.010217029
 20
25.0556521084
 30
0.0
 11
7.0218019901
 21
25.0721971474
 31
0.0
  0
LINE
  5
9C
330
1F
100
AcDbEntity
  8
0
  6
Continuous
 62
     7
370
    25
100
AcDbLine
 10
7.0218019901
 20
25.1989971474
 30
0.0
 11
7.010217029
 21
25.2155421864
 31
0.0
  0
LINE
  5
9D
330
1F
100
AcDbEntity
  8
0
  6
Continuous
 62
     7
370
    25
100
AcDbLine
 10
7.3211719901
 20
29.5342378345
 30
0.0
 11
7.3061719901
 21
29.5342378345
 31
0.0
  0
LINE
  5
9E
330
1F
100
AcDbEntity
  8
0
  6
Continuous
 62
     7
370
    25
100
AcDbLine
 10
7.3061719901
 20
29.2222378345
 30
0.0
 11
7.3211719901
 21
29.2222378345
 31
0.0
  0
ARC
  5
9F
330
1F
100
AcDbEntity
  8
0
  6
Continuous
 62
     7
370
    25
100
AcDbCircle
 10
7.2304219901
 20
29.3782378345
 30
0.0
 40
0.1804759332985987
100
AcDbArc
 50
300.1878810736
 51
334.3933390117
  0
ARC
  5
A0
330
1F
100
AcDbEntity
  8
0
  6
Continuous
 62
     7
370
    25
100
AcDbCircle
 10
7.2304219901
 20
29.3782378345
 30
0.0
 40
0.1804759332985969
100
AcDbArc
 50
25.6066609883
 51
59.8121189264
  0
LINE
  5
A1
330
1F
100
AcDbEntity
  8
0
  6
Continuous
 62
     7
370
    25
100
AcDbLine
 10
7.0281719901
 20
29.4507351373
 30
0.0
 11
7.0218019901
 21
29.4416378345
 31
0.0
  0
LINE
  5
A2
330
1F
100
AcDbEntity
  8
0
  6
Continuous
 62
     7
370
    25
100
AcDbLine
 10
7.0218019901
 20
29.3148378345
 30
0.0
 11
7.0281719901
 21
29.3057405317
 31
0.0
  0
LINE
  5
A3
330
1F
100
AcDbEntity
  8
0
  6
Continuous
 62
     7
370
    25
100
AcDbLine
 10
7.010217029
 20
29.4581828735
 30
0.0
 11
6.9936719901
 21
29.4416378345
 31
0.0
  0
LINE
  5
A4
330
1F
100
AcDbEntity
  8
0
  6
Continuous
 62
     7
370
    25
100
AcDbLine
 10
6.9936719901
 20
29.3148378345
 30
0.0
 11
7.010217029
 21
29.2982927955
 31
0.0
  0
LINE
  5
A5
330
1F
100
AcDbEntity
  8
0
  6
Continuous
 62
     7
370
    25
100
AcDbLine
 10
7.010217029
 20
29.2982927955
 30
0.0
 11
7.0218019901
 21
29.3148378345
 31
0.0
  0
LINE
  5
A6
330
1F
100
AcDbEntity
  8
0
  6
Continuous
 62
     7
370
    25
100
AcDbLine
 10
7.0218019901
 20
29.4416378345
 30
0.0
 11
7.010217029
 21
29.4581828735
 31
0.0
  0
LINE
  5
A7
330
1F
100
AcDbEntity
  8
0
  6
Continuous
 62
     7
370
    25
100
AcDbLine
 10
7.0281719901
 20
24.0319174909
 30
0.0
 11
7.1811719901
 21
24.0319174909
 31
0.0
  0
LINE
  5
A8
330
1F
100
AcDbEntity
  8
0
  6
Continuous
 62
     7
370
    25
100
AcDbLine
 10
7.1811719901
 20
30.4819174909
 30
0.0
 11
7.0281719901
 21
30.4819174909
 31
0.0
  0
ARC
  5
A9
330
1F
100
AcDbEntity
  8
0
  6
Continuous
 62
     7
370
    25
100
AcDbCircle
 10
7.1811719901
 20
24.1569174909
 30
0.0
 40
0.125
100
AcDbArc
 50
270.0
 51
0.0
  0
ARC
  5
AA
330
1F
100
AcDbEntity
  8
0
  6
Continuous
 62
     7
370
    25
100
AcDbCircle
 10
7.1811719901
 20
30.3569174909
 30
0.0
 40
0.1250000000000071
100
AcDbArc
 50
0.0
 51
90.0
  0
ARC
  5
AB
330
1F
100
AcDbEntity
  8
0
  6
Continuous
 62
     7
370
    25
100
AcDbCircle
 10
7.3661719901
 20
24.3969174909
 30
0.0
 40
0.0600000000000014
100
AcDbArc
 50
90.0
 51
180.0
  0
ARC
  5
AC
330
1F
100
AcDbEntity
  8
0
  6
Continuous
 62
     7
370
    25
100
AcDbCircle
 10
7.3661719901
 20
30.1169174909
 30
0.0
 40
0.0600000000000023
100
AcDbArc
 50
180.0
 51
270.0
  0
ARC
  5
AD
330
1F
100
AcDbEntity
  8
0
  6
Continuous
 62
     7
370
    25
100
AcDbCircle
 10
8.0561719901
 20
25.7069174909
 30
0.0
 40
1.25
100
AcDbArc
 50
270.0
 51
0.0
  0
ARC
  5
AE
330
1F
100
AcDbEntity
  8
0
  6
Continuous
 62
     7
370
    25
100
AcDbCircle
 10
8.0561719901
 20
28.8069174909
 30
0.0
 40
1.25
100
AcDbArc
 50
0.0
 51
90.0
  0
LINE
  5
AF
330
1F
100
AcDbEntity
  8
0
  6
Continuous
 62
     7
370
    25
100
AcDbLine
 10
7.3661719901
 20
24.4569174909
 30
0.0
 11
8.0561719901
 21
24.4569174909
 31
0.0
  0
LINE
  5
B0
330
1F
100
AcDbEntity
  8
0
  6
Continuous
 62
     7
370
    25
100
AcDbLine
 10
8.0561719901
 20
30.0569174909
 30
0.0
 11
7.3661719901
 21
30.0569174909
 31
0.0
  0
LINE
  5
B1
330
1F
100
AcDbEntity
  8
0
  6
Continuous
 62
     7
370
    25
100
AcDbLine
 10
34.065523383
 20
9.2828719321
 30
0.0
 11
34.2391879756
 21
9.4627068821
 31
0.0
  0
LINE
  5
B2
330
1F
100
AcDbEntity
  8
0
  6
Continuous
 62
     7
370
    25
100
AcDbLine
 10
26.5508841896
 20
16.8872155456
 30
0.0
 11
26.3772195969
 21
16.7073805955
 31
0.0
  0
ARC
  5
B3
330
1F
100
AcDbEntity
  8
0
  6
Continuous
 62
     7
370
    25
100
AcDbCircle
 10
26.7560463725
 20
17.0366336262
 30
0.0
 40
0.250000000000001
100
AcDbArc
 50
226.0
 51
303.833117587
  0
ARC
  5
B4
330
1F
100
AcDbEntity
  8
0
  6
Continuous
 62
     7
370
    25
100
AcDbCircle
 10
34.3813549778
 20
9.6729587017
 30
0.0
 40
0.2500000000000013
100
AcDbArc
 50
148.166882413
 51
226.0
  0
ARC
  5
B5
330
1F
100
AcDbEntity
  8
0
  6
Continuous
 62
     7
370
    25
100
AcDbCircle
 10
30.1520867693
 20
12.2986016364
 30
0.0
 40
4.728022739999995
100
AcDbArc
 50
328.166882413
 51
14.9168220435
  0
ARC
  5
B6
330
1F
100
AcDbEntity
  8
0
  6
Continuous
 62
     7
370
    25
100
AcDbCircle
 10
29.5276891684
 20
12.9015753906
 30
0.0
 40
4.728022739999999
100
AcDbArc
 50
77.0831779565
 51
123.833117587
  0
ARC
  5
B7
330
1F
100
AcDbEntity
  8
0
  6
Continuous
 62
     7
370
    25
100
AcDbCircle
 10
30.7350434307
 20
17.7096053396
 30
0.0
 40
0.2500000000000058
100
AcDbArc
 50
232.9954616564
 51
313.0848816402
  0
ARC
  5
B8
330
1F
100
AcDbEntity
  8
0
  6
Continuous
 62
     7
370
    25
100
AcDbCircle
 10
34.9150517403
 20
13.6730182364
 30
0.0
 40
0.2499999999999966
100
AcDbArc
 50
138.3229621848
 51
219.0045383436
  0
ARC
  5
B9
330
1F
100
AcDbEntity
  8
0
  6
Continuous
 62
     7
370
    25
100
AcDbCircle
 10
32.6743375688
 20
15.6678114592
 30
0.0
 40
2.749999999999999
100
AcDbArc
 50
318.3229621848
 51
42.2140132812
  0
ARC
  5
BA
330
1F
100
AcDbEntity
  8
0
  6
Continuous
 62
     7
370
    25
100
AcDbCircle
 10
34.5631884893
 20
17.380918354
 30
0.0
 40
0.1999991369300541
100
AcDbArc
 50
42.2925326866
 51
89.9940678866
  0
LINE
  5
BB
330
1F
100
AcDbEntity
  8
0
  6
Continuous
 62
     7
370
    25
100
AcDbLine
 10
31.2811719901
 20
18.2309174909
 30
0.0
 11
31.2811719901
 21
17.5809174909
 31
0.0
  0
LINE
  5
BC
330
1F
100
AcDbEntity
  8
0
  6
Continuous
 62
     7
370
    25
100
AcDbLine
 10
34.3311719901
 20
17.5809174909
 30
0.0
 11
34.3311719901
 21
18.2309174909
 31
0.0
  0
ARC
  5
BD
330
1F
100
AcDbEntity
  8
0
  6
Continuous
 62
     7
370
    25
100
AcDbCircle
 10
34.3386719901
 20
18.4507896129
 30
0.0
 40
0.220000000000006
100
AcDbArc
 50
180.0
 51
268.0463562471
  0
ARC
  5
BE
330
1F
100
AcDbEntity
  8
0
  6
Continuous
 62
     7
370
    25
100
AcDbCircle
 10
31.2736719901
 20
18.4507896129
 30
0.0
 40
0.2199999999999977
100
AcDbArc
 50
271.9536437529
 51
0.0
  0
LINE
  5
BF
330
1F
100
AcDbEntity
  8
0
  6
Continuous
 62
     7
370
    25
100
AcDbLine
 10
31.4936719901
 20
20.4859174909
 30
0.0
 11
31.4936719901
 21
18.4507896129
 31
0.0
  0
LINE
  5
C0
330
1F
100
AcDbEntity
  8
0
  6
Continuous
 62
     7
370
    25
100
AcDbLine
 10
34.1186719901
 20
18.4507896129
 30
0.0
 11
34.1186719901
 21
20.4859174909
 31
0.0
  0
ARC
  5
C1
330
1F
100
AcDbEntity
  8
0
  6
Continuous
 62
     7
370
    25
100
AcDbCircle
 10
33.8986719901
 20
20.4859174909
 30
0.0
 40
0.2199999999999989
100
AcDbArc
 50
0.0
 51
90.0
  0
ARC
  5
C2
330
1F
100
AcDbEntity
  8
0
  6
Continuous
 62
     7
370
    25
100
AcDbCircle
 10
31.7136719901
 20
20.4859174909
 30
0.0
 40
0.2200000000000024
100
AcDbArc
 50
90.0
 51
180.0
  0
ARC
  5
C3
330
1F
100
AcDbEntity
  8
0
  6
Continuous
 62
     7
370
    25
100
AcDbCircle
 10
31.0423938791
 20
17.3809174909
 30
0.0
 40
0.1999999999999996
100
AcDbArc
 50
90.0
 51
133.0817378332
  0
LINE
  5
C4
330
1F
100
AcDbEntity
  8
0
  6
Continuous
 62
     7
370
    25
100
AcDbLine
 10
33.4261719901
 20
21.3234174909
 30
0.0
 11
33.4261719901
 21
21.5069174909
 31
0.0
  0
LINE
  5
C5
330
1F
100
AcDbEntity
  8
0
  6
Continuous
 62
     7
370
    25
100
AcDbLine
 10
32.1861719901
 20
21.5069174909
 30
0.0
 11
32.1861719901
 21
21.3234174909
 31
0.0
  0
LINE
  5
C6
330
1F
100
AcDbEntity
  8
0
  6
Continuous
 62
     7
370
    25
100
AcDbLine
 10
33.5665200806
 20
20.7059174909
 30
0.0
 11
33.5665200806
 21
20.7134174909
 31
0.0
  0
LINE
  5
C7
330
1F
100
AcDbEntity
  8
0
  6
Continuous
 62
     7
370
    25
100
AcDbLine
 10
32.0458238995
 20
20.7134174909
 30
0.0
 11
32.0458238995
 21
20.7059174909
 31
0.0
  0
LINE
  5
C8
330
1F
100
AcDbEntity
  8
0
  6
Continuous
 62
     7
370
    25
100
AcDbLine
 10
33.8486719901
 20
20.7434174909
 30
0.0
 11
33.8486719901
 21
20.9184174909
 31
0.0
  0
LINE
  5
C9
330
1F
100
AcDbEntity
  8
0
  6
Continuous
 62
     7
370
    25
100
AcDbLine
 10
31.7636719901
 20
20.9184174909
 30
0.0
 11
31.7636719901
 21
20.7434174909
 31
0.0
  0
ARC
  5
CA
330
1F
100
AcDbEntity
  8
0
  6
Continuous
 62
     7
370
    25
100
AcDbCircle
 10
31.7936719901
 20
20.7434174909
 30
0.0
 40
0.0299999999999976
100
AcDbArc
 50
180.0
 51
270.0
  0
ARC
  5
CB
330
1F
100
AcDbEntity
  8
0
  6
Continuous
 62
     7
370
    25
100
AcDbCircle
 10
33.8186719901
 20
20.7434174909
 30
0.0
 40
0.0300000000000082
100
AcDbArc
 50
270.0
 51
0.0
  0
ARC
  5
CC
330
1F
100
AcDbEntity
  8
0
  6
Continuous
 62
     7
370
    25
100
AcDbCircle
 10
27.3061719901
 20
24.5069174909
 30
0.0
 40
5.0
100
AcDbArc
 50
0.0
 51
131.4096221093
  0
ARC
  5
CD
330
1F
100
AcDbEntity
  8
0
  6
Continuous
 62
     7
370
    25
100
AcDbCircle
 10
27.3061719901
 20
24.5069174909
 30
0.0
 40
6.0
100
AcDbArc
 50
0.0
 51
90.0
  0
ARC
  5
CE
330
1F
100
AcDbEntity
  8
0
  6
Continuous
 62
     7
370
    25
100
AcDbCircle
 10
27.3061719901
 20
24.5069174909
 30
0.0
 40
6.0
100
AcDbArc
 50
90.0
 51
131.4096221093
  0
LINE
  5
CF
330
1F
100
AcDbEntity
  8
0
  6
Continuous
 62
     7
370
    25
100
AcDbLine
 10
33.3061719901
 20
21.5069174909
 30
0.0
 11
33.3061719901
 21
24.5069174909
 31
0.0
  0
LINE
  5
D0
330
1F
100
AcDbEntity
  8
0
  6
Continuous
 62
     7
370
    25
100
AcDbLine
 10
32.3061719901
 20
24.5069174909
 30
0.0
 11
32.3061719901
 21
21.5069174909
 31
0.0
  0
ARC
  5
D1
330
1F
100
AcDbEntity
  8
0
  6
Continuous
 62
     7
370
    25
100
AcDbCircle
 10
20.0303558846
 20
32.7569174909
 30
0.0
 40
5.000000000000001
100
AcDbArc
 50
270.0
 51
311.4096221093
  0
ARC
  5
D2
330
1F
100
AcDbEntity
  8
0
  6
Continuous
 62
     7
370
    25
100
AcDbCircle
 10
20.0303558846
 20
32.7569174909
 30
0.0
 40
6.0
100
AcDbArc
 50
270.0
 51
311.4096221093
  0
LINE
  5
D3
330
1F
100
AcDbEntity
  8
0
  6
Continuous
 62
     7
370
    25
100
AcDbLine
 10
15.3061719901
 20
26.7569174909
 30
0.0
 11
20.0303558846
 21
26.7569174909
 31
0.0
  0
LINE
  5
D4
330
1F
100
AcDbEntity
  8
0
  6
Continuous
 62
     7
370
    25
100
AcDbLine
 10
20.0303558846
 20
27.7569174909
 30
0.0
 11
15.3061719901
 21
27.7569174909
 31
0.0
  0
LINE
  5
D5
330
1F
100
AcDbEntity
  8
0
  6
Continuous
 62
     7
370
    25
100
AcDbLine
 10
9.3061719901
 20
27.6571531924
 30
0.0
 11
9.3036878887
 21
27.6614494715
 31
0.0
  0
LINE
  5
D6
330
1F
100
AcDbEntity
  8
0
  6
Continuous
 62
     7
370
    25
100
AcDbLine
 10
9.3061719901
 20
26.7569174909
 30
0.0
 11
15.3061719901
 21
26.7569174909
 31
0.0
  0
LINE
  5
D7
330
1F
100
AcDbEntity
  8
0
  6
Continuous
 62
     7
370
    25
100
AcDbLine
 10
15.3061719901
 20
27.7569174909
 30
0.0
 11
9.3061719901
 21
27.7569174909
 31
0.0
  0
LINE
  5
D8
330
1F
100
AcDbEntity
  8
0
  6
Continuous
 62
     7
370
    25
100
AcDbLine
 10
30.6919227143
 20
12.3133175678
 30
0.0
 11
29.1645720669
 21
13.8406682152
 31
0.0
  0
LINE
  5
D9
330
1F
100
AcDbEntity
  8
0
  6
Continuous
 62
     7
370
    25
100
AcDbLine
 10
7.3061719901
 20
25.1526229405
 30
0.0
 11
7.3061719901
 21
24.9795971474
 31
0.0
  0
LINE
  5
DA
330
1F
100
AcDbEntity
  8
0
  6
Continuous
 62
     7
370
    25
100
AcDbLine
 10
7.3211719901
 20
25.2915971474
 30
0.0
 11
7.3211719901
 21
24.9795971474
 31
0.0
  0
LINE
  5
DB
330
1F
100
AcDbEntity
  8
0
  6
Continuous
 62
     7
370
    25
100
AcDbLine
 10
7.3931719901
 20
25.2135971474
 30
0.0
 11
7.3931719901
 21
25.0575971474
 31
0.0
  0
LINE
  5
DC
330
1F
100
AcDbEntity
  8
0
  6
Continuous
 62
     7
370
    25
100
AcDbLine
 10
7.0218019901
 20
25.1989971474
 30
0.0
 11
7.0218019901
 21
25.0721971474
 31
0.0
  0
LINE
  5
DD
330
1F
100
AcDbEntity
  8
0
  6
Continuous
 62
     7
370
    25
100
AcDbLine
 10
6.9936719901
 20
25.1989971474
 30
0.0
 11
6.9936719901
 21
25.0721971474
 31
0.0
  0
LINE
  5
DE
330
1F
100
AcDbEntity
  8
0
  6
Continuous
 62
     7
370
    25
100
AcDbLine
 10
7.010217029
 20
25.0556521084
 30
0.0
 11
7.010217029
 21
25.2155421864
 31
0.0
  0
LINE
  5
DF
330
1F
100
AcDbEntity
  8
0
  6
Continuous
 62
     7
370
    25
100
AcDbLine
 10
7.3211719901
 20
29.5342378345
 30
0.0
 11
7.3211719901
 21
29.2222378345
 31
0.0
  0
LINE
  5
E0
330
1F
100
AcDbEntity
  8
0
  6
Continuous
 62
     7
370
    25
100
AcDbLine
 10
7.3061719901
 20
29.5342378345
 30
0.0
 11
7.3061719901
 21
29.3612120414
 31
0.0
  0
LINE
  5
E1
330
1F
100
AcDbEntity
  8
0
  6
Continuous
 62
     7
370
    25
100
AcDbLine
 10
7.3931719901
 20
29.4562378345
 30
0.0
 11
7.3931719901
 21
29.3002378345
 31
0.0
  0
LINE
  5
E2
330
1F
100
AcDbEntity
  8
0
  6
Continuous
 62
     7
370
    25
100
AcDbLine
 10
7.0218019901
 20
29.4416378345
 30
0.0
 11
7.0218019901
 21
29.3148378345
 31
0.0
  0
LINE
  5
E3
330
1F
100
AcDbEntity
  8
0
  6
Continuous
 62
     7
370
    25
100
AcDbLine
 10
6.9936719901
 20
29.4416378345
 30
0.0
 11
6.9936719901
 21
29.3148378345
 31
0.0
  0
LINE
  5
E4
330
1F
100
AcDbEntity
  8
0
  6
Continuous
 62
     7
370
    25
100
AcDbLine
 10
7.010217029
 20
29.2982927955
 30
0.0
 11
7.010217029
 21
29.4581828735
 31
0.0
  0
LINE
  5
E5
330
1F
100
AcDbEntity
  8
0
  6
Continuous
 62
     7
370
    25
100
AcDbLine
 10
7.0281719901
 20
29.5373368603
 30
0.0
 11
7.0281719901
 21
30.4819174909
 31
0.0
  0
LINE
  5
E6
330
1F
100
AcDbEntity
  8
0
  6
Continuous
 62
     7
370
    25
100
AcDbLine
 10
7.0281719901
 20
24.0319174909
 30
0.0
 11
7.0281719901
 21
29.5373368603
 31
0.0
  0
LINE
  5
E7
330
1F
100
AcDbEntity
  8
0
  6
Continuous
 62
     7
370
    25
100
AcDbLine
 10
7.3061719901
 20
29.5342378345
 30
0.0
 11
7.3061719901
 21
30.3569174909
 31
0.0
  0
LINE
  5
E8
330
1F
100
AcDbEntity
  8
0
  6
Continuous
 62
     7
370
    25
100
AcDbLine
 10
7.3061719901
 20
24.1569174909
 30
0.0
 11
7.3061719901
 21
24.9795971474
 31
0.0
  0
LINE
  5
E9
330
1F
100
AcDbEntity
  8
0
  6
Continuous
 62
     7
370
    25
100
AcDbLine
 10
7.3061719901
 20
25.1526229405
 30
0.0
 11
7.3061719901
 21
29.3612120414
 31
0.0
  0
LINE
  5
EA
330
1F
100
AcDbEntity
  8
0
  6
Continuous
 62
     7
370
    25
100
AcDbLine
 10
9.3061719901
 20
28.3529330018
 30
0.0
 11
9.3061719901
 21
28.8069174909
 31
0.0
  0
LINE
  5
EB
330
1F
100
AcDbEntity
  8
0
  6
Continuous
 62
     7
370
    25
100
AcDbLine
 10
9.3061719901
 20
25.7069174909
 30
0.0
 11
9.3061719901
 21
28.3529330018
 31
0.0
  0
LINE
  5
EC
330
1F
100
AcDbEntity
  8
0
  6
Continuous
 62
     7
370
    25
100
AcDbLine
 10
34.065523383
 20
9.2828719321
 30
0.0
 11
26.3772195969
 21
16.7073805955
 31
0.0
  0
LINE
  5
ED
330
1F
100
AcDbEntity
  8
0
  6
Continuous
 62
     7
370
    25
100
AcDbLine
 10
34.2391879756
 20
9.4627068821
 30
0.0
 11
26.5508841896
 21
16.8872155456
 31
0.0
  0
LINE
  5
EE
330
1F
100
AcDbEntity
  8
0
  6
Continuous
 62
     7
370
    25
100
AcDbLine
 10
34.7207777125
 20
13.5156727499
 30
0.0
 11
30.5845738606
 21
17.50995838
 31
0.0
  0
LINE
  5
EF
330
1F
100
AcDbEntity
  8
0
  6
Continuous
 62
     7
370
    25
100
AcDbLine
 10
34.7110165673
 20
17.5154025585
 30
0.0
 11
34.7109717905
 21
17.5154196045
 31
0.0
  0
SPLINE
  5
F0
330
1F
100
AcDbEntity
  8
0
  6
Continuous
 62
     7
370
    25
100
AcDbSpline
210
0.0
220
0.0
230
1.0
 70
    24
 71
     3
 72
    45
 73
    41
 74
     0
 42
0.00000001
 43
0.00000001
 40
0.0
 40
0.0
 40
0.0
 40
0.0
 40
0.0131058367985246
 40
0.0400510792910925
 40
0.0669963791439151
 40
0.0947371091648246
 40
0.1224779474085794
 40
0.1496919361017397
 40
0.1769060557136502
 40
0.2049285926002455
 40
0.2329512986494018
 40
0.260452720839129
 40
0.2879543097091666
 40
0.3162739851801651
 40
0.3445938494202902
 40
0.3723669826695529
 40
0.4001402856529442
 40
0.4287385258114336
 40
0.4573369470898284
 40
0.4853535293834354
 40
0.5133702677413772
 40
0.5422171117765118
 40
0.5710641185243625
 40
0.5992935863907557
 40
0.6275231921775591
 40
0.6565870377131015
 40
0.6856510261668042
 40
0.7140275009628255
 40
0.7424040949475745
 40
0.7716149408460118
 40
0.8008259064143545
 40
0.8290295962375457
 40
0.8572333657620309
 40
0.8862459931758037
 40
0.9152585757112904
 40
0.9160157822347941
 40
0.9420543147535383
 40
0.9682498777809417
 40
0.9849302181128448
 40
1.0
 40
1.0
 40
1.0
 40
1.0
 10
31.04915286383327
 20
17.58091749094496
 30
0.0
 10
31.05149219232267
 20
17.58091749094497
 30
0.0
 10
31.05864111629121
 20
17.58091749094498
 30
0.0
 10
31.07927045467519
 20
17.58091749094497
 30
0.0
 10
31.11558823779546
 20
17.58091749094497
 30
0.0
 10
31.16431874379207
 20
17.58091749094497
 30
0.0
 10
31.22477099147179
 20
17.58091749094496
 30
0.0
 10
31.2959338127548
 20
17.58091749094497
 30
0.0
 10
31.37771029054181
 20
17.58091749094498
 30
0.0
 10
31.4704208032392
 20
17.58091749094498
 30
0.0
 10
31.57293822031451
 20
17.58091749094498
 30
0.0
 10
31.68348201727526
 20
17.58091749094498
 30
0.0
 10
31.80213913227357
 20
17.58091749094497
 30
0.0
 10
31.92907655986859
 20
17.58091749094498
 30
0.0
 10
32.06262112323733
 20
17.58091749094499
 30
0.0
 10
32.20046815227661
 20
17.58091749094498
 30
0.0
 10
32.34286402454256
 20
17.58091749094498
 30
0.0
 10
32.48985299115758
 20
17.58091749094497
 30
0.0
 10
32.63937678396073
 20
17.58091749094497
 30
0.0
 10
32.7888795258639
 20
17.58091749094497
 30
0.0
 10
32.93874749979469
 20
17.58091749094498
 30
0.0
 10
33.08892332149361
 20
17.58091749094498
 30
0.0
 10
33.23719253324809
 20
17.58091749094499
 30
0.0
 10
33.38105433892841
 20
17.58091749094498
 30
0.0
 10
33.52100036195928
 20
17.58091749094498
 30
0.0
 10
33.65687849318047
 20
17.58091749094498
 30
0.0
 10
33.78652849202613
 20
17.58091749094499
 30
0.0
 10
33.9078153653613
 20
17.58091749094498
 30
0.0
 10
34.02129719818237
 20
17.58091749094498
 30
0.0
 10
34.12678455368582
 20
17.58091749094498
 30
0.0
 10
34.22219014322749
 20
17.58091749094499
 30
0.0
 10
34.30612444286635
 20
17.58091749094498
 30
0.0
 10
34.37926027797805
 20
17.58091749094499
 30
0.0
 10
34.44161770309719
 20
17.58091749094497
 30
0.0
 10
34.47598153689074
 20
17.58091749094504
 30
0.0
 10
34.50445307920613
 20
17.58091749094494
 30
0.0
 10
34.5280577390457
 20
17.580917490945
 30
0.0
 10
34.54914565889665
 20
17.58091749094497
 30
0.0
 10
34.56114556842511
 20
17.58091749094498
 30
0.0
 10
34.562269674986
 20
17.58091749094498
 30
0.0
 10
34.56280321752085
 20
17.58091749094498
 30
0.0
  0
ARC
  5
F1
330
1F
100
AcDbEntity
  8
0
  6
Continuous
 62
     7
370
    25
100
AcDbCircle
 10
31.0492162275
 20
17.3821178929
 30
0.0
 40
0.1987996081708751
100
AcDbArc
 50
90.0182619551
 51
133.9247509228
  0
LINE
  5
F2
330
1F
100
AcDbEntity
  8
0
  6
Continuous
 62
     7
370
    25
100
AcDbLine
 10
31.2811719901
 20
18.2309174909
 30
0.0
 11
34.3311719901
 21
18.2309174909
 31
0.0
  0
LINE
  5
F3
330
1F
100
AcDbEntity
  8
0
  6
Continuous
 62
     7
370
    25
100
AcDbLine
 10
31.7136719902
 20
20.7059174909
 30
0.0
 11
33.8986719901
 21
20.7059174909
 31
0.0
  0
LINE
  5
F4
330
1F
100
AcDbEntity
  8
0
  6
Continuous
 62
     7
370
    25
100
AcDbLine
 10
31.0424207933
 20
17.5809174909
 30
0.0
 11
31.0491528638
 21
17.5809174909
 31
0.0
  0
LINE
  5
F5
330
1F
100
AcDbEntity
  8
0
  6
Continuous
 62
     7
370
    25
100
AcDbLine
 10
33.3061719901
 20
17.5799174909
 30
0.0
 11
32.3061719901
 21
17.5799174909
 31
0.0
  0
LINE
  5
F6
330
1F
100
AcDbEntity
  8
0
  6
Continuous
 62
     7
370
    25
100
AcDbLine
 10
33.4261719901
 20
21.5069174909
 30
0.0
 11
32.1861719901
 21
21.5069174909
 31
0.0
  0
LINE
  5
F7
330
1F
100
AcDbEntity
  8
0
  6
Continuous
 62
     7
370
    25
100
AcDbLine
 10
31.7636719901
 20
20.9184174909
 30
0.0
 11
31.9033405066
 21
20.9184174909
 31
0.0
  0
LINE
  5
F8
330
1F
100
AcDbEntity
  8
0
  6
Continuous
 62
     7
370
    25
100
AcDbLine
 10
31.9033405066
 20
20.9184174909
 30
0.0
 11
32.8061719901
 21
20.9184174909
 31
0.0
  0
LINE
  5
F9
330
1F
100
AcDbEntity
  8
0
  6
Continuous
 62
     7
370
    25
100
AcDbLine
 10
32.8061719901
 20
20.9184174909
 30
0.0
 11
33.7090034735
 21
20.9184174909
 31
0.0
  0
LINE
  5
FA
330
1F
100
AcDbEntity
  8
0
  6
Continuous
 62
     7
370
    25
100
AcDbLine
 10
33.7090034735
 20
20.9184174909
 30
0.0
 11
33.8486719901
 21
20.9184174909
 31
0.0
  0
LINE
  5
FB
330
1F
100
AcDbEntity
  8
0
  6
Continuous
 62
     7
370
    25
100
AcDbLine
 10
33.8186719901
 20
20.7134174909
 30
0.0
 11
31.7936719901
 21
20.7134174909
 31
0.0
  0
LINE
  5
FC
330
1F
100
AcDbEntity
  8
0
  6
Continuous
 62
     7
370
    25
100
AcDbLine
 10
32.8061719901
 20
21.3234174909
 30
0.0
 11
33.6790034735
 21
21.3234174909
 31
0.0
  0
LWPOLYLINE
  5
FD
330
1F
100
AcDbEntity
  8
0
  6
Continuous
 62
     7
370
    25
100
AcDbPolyline
 90
        9
 70
   128
 43
0.0
 10
33.6790034735
 20
21.3234174909
 10
33.6819298283
 20
21.3228410494
 10
33.684743725
 20
21.3211338769
 10
33.687337027
 20
21.3183615793
 10
33.6896100752
 20
21.3146306944
 10
33.6914755177
 20
21.3100845979
 10
33.6928616665
 20
21.3048979939
 10
33.6937152527
 20
21.2992702006
 10
33.6940034735
 20
21.2934174909
  0
LINE
  5
FE
330
1F
100
AcDbEntity
  8
0
  6
Continuous
 62
     7
370
    25
100
AcDbLine
 10
33.6940034735
 20
21.2934174909
 30
0.0
 11
32.8211719901
 21
21.2934174909
 31
0.0
  0
LWPOLYLINE
  5
FF
330
1F
100
AcDbEntity
  8
0
  6
Continuous
 62
     7
370
    25
100
AcDbPolyline
 90
        9
 70
   128
 43
0.0
 10
32.8061719901
 20
21.3234174909
 10
32.8090983449
 20
21.3228410494
 10
32.8119122415
 20
21.3211338769
 10
32.8145055435
 20
21.3183615793
 10
32.8167785918
 20
21.3146306944
 10
32.8186440342
 20
21.3100845979
 10
32.820030183
 20
21.3048979939
 10
32.8208837693
 20
21.2992702006
 10
32.8211719901
 20
21.2934174909
  0
LINE
  5
100
330
1F
100
AcDbEntity
  8
0
  6
Continuous
 62
     7
370
    25
100
AcDbLine
 10
32.8211719901
 20
21.2934174909
 30
0.0
 11
32.8211719901
 21
20.9184174909
 31
0.0
  0
LINE
  5
101
330
1F
100
AcDbEntity
  8
0
  6
Continuous
 62
     7
370
    25
100
AcDbLine
 10
33.6940034735
 20
20.9184174909
 30
0.0
 11
33.6940034735
 21
21.2934174909
 31
0.0
  0
LINE
  5
102
330
1F
100
AcDbEntity
  8
0
  6
Continuous
 62
     7
370
    25
100
AcDbLine
 10
32.7911719901
 20
20.9184174909
 30
0.0
 11
32.7911719901
 21
21.2934174909
 31
0.0
  0
LINE
  5
103
330
1F
100
AcDbEntity
  8
0
  6
Continuous
 62
     7
370
    25
100
AcDbLine
 10
32.7911719901
 20
21.2934174909
 30
0.0
 11
32.8211719901
 21
21.2934174909
 31
0.0
  0
LWPOLYLINE
  5
104
330
1F
100
AcDbEntity
  8
0
  6
Continuous
 62
     7
370
    25
100
AcDbPolyline
 90
        9
 70
   128
 43
0.0
 10
32.8061719901
 20
21.3234174909
 10
32.8032456352
 20
21.3228410494
 10
32.8004317386
 20
21.3211338769
 10
32.7978384366
 20
21.3183615793
 10
32.7955653883
 20
21.3146306944
 10
32.7936999459
 20
21.3100845979
 10
32.7923137971
 20
21.3048979939
 10
32.7914602108
 20
21.2992702006
 10
32.7911719901
 20
21.2934174909
  0
LINE
  5
105
330
1F
100
AcDbEntity
  8
0
  6
Continuous
 62
     7
370
    25
100
AcDbLine
 10
32.7911719901
 20
21.2934174909
 30
0.0
 11
31.9183405066
 21
21.2934174909
 31
0.0
  0
LWPOLYLINE
  5
106
330
1F
100
AcDbEntity
  8
0
  6
Continuous
 62
     7
370
    25
100
AcDbPolyline
 90
        9
 70
   128
 43
0.0
 10
31.9333405066
 20
21.3234174909
 10
31.9304141518
 20
21.3228410494
 10
31.9276002551
 20
21.3211338769
 10
31.9250069531
 20
21.3183615793
 10
31.9227339049
 20
21.3146306944
 10
31.9208684624
 20
21.3100845979
 10
31.9194823136
 20
21.3048979939
 10
31.9186287274
 20
21.2992702006
 10
31.9183405066
 20
21.2934174909
  0
LINE
  5
107
330
1F
100
AcDbEntity
  8
0
  6
Continuous
 62
     7
370
    25
100
AcDbLine
 10
31.9333405066
 20
21.3234174909
 30
0.0
 11
32.8061719901
 21
21.3234174909
 31
0.0
  0
LINE
  5
108
330
1F
100
AcDbEntity
  8
0
  6
Continuous
 62
     7
370
    25
100
AcDbLine
 10
31.9183405066
 20
21.2934174909
 30
0.0
 11
31.9183405066
 21
20.9184174909
 31
0.0
  0
ARC
  5
109
330
1F
100
AcDbEntity
  8
0
  6
Continuous
 62
     7
370
    25
100
AcDbCircle
 10
33.6790034735
 20
21.2934174909
 30
0.0
 40
0.0300000000000296
100
AcDbArc
 50
0.0
 51
90.0
  0
LINE
  5
10A
330
1F
100
AcDbEntity
  8
0
  6
Continuous
 62
     7
370
    25
100
AcDbLine
 10
33.6940034735
 20
21.2934174909
 30
0.0
 11
33.7090034735
 21
21.2934174909
 31
0.0
  0
LINE
  5
10B
330
1F
100
AcDbEntity
  8
0
  6
Continuous
 62
     7
370
    25
100
AcDbLine
 10
33.7090034735
 20
21.2934174909
 30
0.0
 11
33.7090034735
 21
20.9184174909
 31
0.0
  0
LINE
  5
10C
330
1F
100
AcDbEntity
  8
0
  6
Continuous
 62
     7
370
    25
100
AcDbLine
 10
31.9033405066
 20
20.9184174909
 30
0.0
 11
31.9033405066
 21
21.2934174909
 31
0.0
  0
LINE
  5
10D
330
1F
100
AcDbEntity
  8
0
  6
Continuous
 62
     7
370
    25
100
AcDbLine
 10
31.9033405066
 20
21.2934174909
 30
0.0
 11
31.9183405066
 21
21.2934174909
 31
0.0
  0
ARC
  5
10E
330
1F
100
AcDbEntity
  8
0
  6
Continuous
 62
     7
370
    25
100
AcDbCircle
 10
31.9333405066
 20
21.2934174909
 30
0.0
 40
0.0300000000000011
100
AcDbArc
 50
90.0
 51
180.0
  0
LINE
  5
10F
330
1F
100
AcDbEntity
  8
0
  6
Continuous
 62
     7
370
    25
100
AcDbLine
 10
15.3061719901
 20
27.2569174909
 30
0.0
 11
15.3061719901
 21
27.7569174909
 31
0.0
  0
LINE
  5
110
330
1F
100
AcDbEntity
  8
0
  6
Continuous
 62
     7
370
    25
100
AcDbLine
 10
15.3061719901
 20
26.7569174909
 30
0.0
 11
15.3061719901
 21
27.2569174909
 31
0.0
  0
LINE
  5
111
330
1F
100
AcDbEntity
  8
0
  6
Continuous
 62
     7
370
    25
100
AcDbLine
 10
15.3061719901
 20
27.7488167579
 30
0.0
 11
15.3061719901
 21
27.7569174909
 31
0.0
  0
LINE
  5
112
330
1F
100
AcDbEntity
  8
0
  6
Continuous
 62
     7
370
    25
100
AcDbLine
 10
15.3061719901
 20
26.7569174909
 30
0.0
 11
15.3061719901
 21
27.7488167579
 31
0.0
  0
LINE
  5
113
330
1F
100
AcDbEntity
  8
0
  6
Continuous
 62
     7
370
    25
100
AcDbLine
 10
29.1645720669
 20
13.8830946221
 30
0.0
 11
30.7343491212
 21
12.3133175678
 31
0.0
  0
LINE
  5
114
330
1F
100
AcDbEntity
  8
0
  6
Continuous
 62
     7
370
    25
100
AcDbLine
 10
7.1811719901
 20
29.5373368603
 30
0.0
 11
7.1811719901
 21
30.4819174909
 31
0.0
  0
LINE
  5
115
330
1F
100
AcDbEntity
  8
0
  6
Continuous
 62
     7
370
    25
100
AcDbLine
 10
7.1811719901
 20
24.0319174909
 30
0.0
 11
7.1811719901
 21
29.5373368603
 31
0.0
  0
LINE
  5
116
330
1F
100
AcDbEntity
  8
0
  6
Continuous
 62
     7
370
    25
100
AcDbLine
 10
7.3661719901
 20
29.2368164783
 30
0.0
 11
7.3661719901
 21
29.2593113866
 31
0.0
  0
LINE
  5
117
330
1F
100
AcDbEntity
  8
0
  6
Continuous
 62
     7
370
    25
100
AcDbLine
 10
7.3661719901
 20
29.4971642824
 30
0.0
 11
7.3661719901
 21
30.0569174909
 31
0.0
  0
LINE
  5
118
330
1F
100
AcDbEntity
  8
0
  6
Continuous
 62
     7
370
    25
100
AcDbLine
 10
7.3661719901
 20
24.4569174909
 30
0.0
 11
7.3661719901
 21
25.0166706995
 31
0.0
  0
LINE
  5
119
330
1F
100
AcDbEntity
  8
0
  6
Continuous
 62
     7
370
    25
100
AcDbLine
 10
7.3661719901
 20
25.2545235952
 30
0.0
 11
7.3661719901
 21
29.2368164783
 31
0.0
  0
LINE
  5
11A
330
1F
100
AcDbEntity
  8
0
  6
Continuous
 62
     7
370
    25
100
AcDbLine
 10
8.0561719901
 20
29.2368164783
 30
0.0
 11
8.0561719901
 21
30.0569174909
 31
0.0
  0
LINE
  5
11B
330
1F
100
AcDbEntity
  8
0
  6
Continuous
 62
     7
370
    25
100
AcDbLine
 10
8.0561719901
 20
24.4569174909
 30
0.0
 11
8.0561719901
 21
29.2368164783
 31
0.0
  0
LINE
  5
11C
330
1F
100
AcDbEntity
  8
0
  6
Continuous
 62
     7
370
    25
100
AcDbLine
 10
26.8952403327
 20
16.8289679299
 30
0.0
 11
34.1689579866
 21
9.8048204403
 31
0.0
  0
SPLINE
  5
11D
330
1F
100
AcDbEntity
  8
0
  6
Continuous
 62
     7
370
    25
100
AcDbSpline
210
0.0
220
0.0
230
1.0
 70
    24
 71
     3
 72
     9
 73
     5
 74
     0
 42
0.00000001
 43
0.00000001
 40
0.0
 40
0.0
 40
0.0
 40
0.0
 40
0.997857628630944
 40
1.0
 40
1.0
 40
1.0
 40
1.0
 10
30.91130634875091
 20
17.52530360989088
 30
0.0
 10
30.90763974386428
 20
17.52643256992511
 30
0.0
 10
30.90396526688338
 20
17.52756395380376
 30
0.0
 10
30.90580155679772
 20
17.52699855393377
 30
0.0
 10
30.90580549081265
 20
17.52699734263728
 30
0.0
  0
LINE
  5
11E
330
1F
100
AcDbEntity
  8
0
  6
Continuous
 62
     7
370
    25
100
AcDbLine
 10
30.9113063488
 20
17.5253036099
 30
0.0
 11
34.7283255594
 21
13.839251005
 31
0.0
  0
SPLINE
  5
11F
330
1F
100
AcDbEntity
  8
0
  6
Continuous
 62
     7
370
    25
100
AcDbSpline
210
0.0
220
0.0
230
1.0
 70
     8
 71
     3
 72
    45
 73
    41
 74
     0
 42
0.00000001
 43
0.00000001
 40
0.0
 40
0.0
 40
0.0
 40
0.0
 40
0.0063915099429933
 40
0.0150532389067173
 40
0.0325011015515899
 40
0.0585625731163613
 40
0.0847675742122104
 40
0.113111226521074
 40
0.1414545928143565
 40
0.1706138847712708
 40
0.1997730157187765
 40
0.2281035070147043
 40
0.2564338741751779
 40
0.2855948755963105
 40
0.3147557376931941
 40
0.342944191873417
 40
0.3711325190203362
 40
0.400152089197406
 40
0.4291715079805313
 40
0.4571551238320798
 40
0.4851386000146699
 40
0.5139492906527224
 40
0.5427598140898675
 40
0.5705105242877573
 40
0.5982610822407602
 40
0.6268336228361452
 40
0.6554059851058215
 40
0.6828973855817151
 40
0.710388630448689
 40
0.7386949001851248
 40
0.7670009981277429
 40
0.7942173240806143
 40
0.8214335130920075
 40
0.8494550975469497
 40
0.8774765492629338
 40
0.9044330782313842
 40
0.9313895206068653
 40
0.9591388156294128
 40
0.9868880527741966
 40
0.9999999999999999
 40
0.9999999999999999
 40
0.9999999999999999
 40
0.9999999999999999
 10
34.71097179047958
 20
17.51541960453675
 30
0.0
 10
34.7108907205154
 20
17.5154607114183
 30
0.0
 10
34.7106997851105
 20
17.51555752605431
 30
0.0
 10
34.70526194857722
 20
17.5173116659307
 30
0.0
 10
34.69320416619445
 20
17.51875542840568
 30
0.0
 10
34.66905327850723
 20
17.51953707662015
 30
0.0
 10
34.62997460331156
 20
17.52004628478485
 30
0.0
 10
34.57775738247214
 20
17.52040331433309
 30
0.0
 10
34.51115397844016
 20
17.52068262169593
 30
0.0
 10
34.43137647476169
 20
17.52093033808958
 30
0.0
 10
34.33958149279013
 20
17.52114977138233
 30
0.0
 10
34.23742969512379
 20
17.52135430878066
 30
0.0
 10
34.12500210027881
 20
17.52154876421461
 30
0.0
 10
34.00163260926735
 20
17.52173919816704
 30
0.0
 10
33.86948262771303
 20
17.52192483277329
 30
0.0
 10
33.73093882080546
 20
17.52210572423719
 30
0.0
 10
33.58591398801563
 20
17.52228437667099
 30
0.0
 10
33.4335583907439
 20
17.52246351971774
 30
0.0
 10
33.2767548544876
 20
17.52264125905823
 30
0.0
 10
33.11826303386285
 20
17.52281617804744
 30
0.0
 10
32.95778126745115
 20
17.52298998883071
 30
0.0
 10
32.79442181441312
 20
17.52316477827208
 30
0.0
 10
32.63140449705762
 20
17.52333808697568
 30
0.0
 10
32.47151037921383
 20
17.5235079691779
 30
0.0
 10
32.31423850300232
 20
17.52367563465171
 30
0.0
 10
32.15882004794337
 20
17.52384262144395
 30
0.0
 10
32.00843503814259
 20
17.52400595546825
 30
0.0
 10
31.86555454201907
 20
17.5241633194199
 30
0.0
 10
31.72952906556699
 20
17.52431541935466
 30
0.0
 10
31.59980270274129
 20
17.52446305002936
 30
0.0
 10
31.47911903874549
 20
17.52460291180963
 30
0.0
 10
31.36934859210928
 20
17.52473255530683
 30
0.0
 10
31.26976337400285
 20
17.52485228880252
 30
0.0
 10
31.18010715772146
 20
17.52496204616727
 30
0.0
 10
31.10232177340832
 20
17.52505887358231
 30
0.0
 10
31.03748956947626
 20
17.52514078666981
 30
0.0
 10
30.9848381138565
 20
17.52520816020178
 30
0.0
 10
30.94467803431422
 20
17.52526007330977
 30
0.0
 10
30.92170719598667
 20
17.52529001566213
 30
0.0
 10
30.91383307558749
 20
17.52530030738082
 30
0.0
 10
30.91130634875091
 20
17.52530360989088
 30
0.0
  0
LINE
  5
120
330
1F
100
AcDbEntity
  8
0
  6
Continuous
 62
     7
370
    25
100
AcDbLine
 10
31.4936719901
 20
18.4507896129
 30
0.0
 11
34.1186719901
 21
18.4507896129
 31
0.0
  0
LINE
  5
121
330
1F
100
AcDbEntity
  8
0
  6
Continuous
 62
     7
370
    25
100
AcDbLine
 10
34.1186719901
 20
20.4859174909
 30
0.0
 11
31.4936719901
 21
20.4859174909
 31
0.0
  0
LINE
  5
122
330
1F
100
AcDbEntity
  8
0
  6
Continuous
 62
     7
370
    25
100
AcDbLine
 10
33.1713460353
 20
20.7059174909
 30
0.0
 11
33.1713460353
 21
20.7134174909
 31
0.0
  0
LINE
  5
123
330
1F
100
AcDbEntity
  8
0
  6
Continuous
 62
     7
370
    25
100
AcDbLine
 10
32.4409979448
 20
20.7134174909
 30
0.0
 11
32.4409979448
 21
20.7059174909
 31
0.0
  0
LINE
  5
124
330
1F
100
AcDbEntity
  8
0
  6
Continuous
 62
     7
370
    25
100
AcDbLine
 10
33.1973267974
 20
20.7134174909
 30
0.0
 11
33.1973267974
 21
20.7059174909
 31
0.0
  0
LINE
  5
125
330
1F
100
AcDbEntity
  8
0
  6
Continuous
 62
     7
370
    25
100
AcDbLine
 10
32.4150171827
 20
20.7059174909
 30
0.0
 11
32.4150171827
 21
20.7134174909
 31
0.0
  0
LINE
  5
126
330
1F
100
AcDbEntity
  8
0
  6
Continuous
 62
     7
370
    25
100
AcDbLine
 10
32.0498431374
 20
20.7134174909
 30
0.0
 11
32.0498431374
 21
20.7059174909
 31
0.0
  0
LINE
  5
127
330
1F
100
AcDbEntity
  8
0
  6
Continuous
 62
     7
370
    25
100
AcDbLine
 10
33.5625008427
 20
20.7059174909
 30
0.0
 11
33.5625008427
 21
20.7134174909
 31
0.0
  0
LINE
  5
128
330
1F
100
AcDbEntity
  8
0
  6
Continuous
 62
     7
370
    25
100
AcDbLine
 10
31.7636719901
 20
20.7434174909
 30
0.0
 11
33.8486719901
 21
20.7434174909
 31
0.0
  0
LINE
  5
129
330
1F
100
AcDbEntity
  8
0
  6
Continuous
 62
     7
370
    25
100
AcDbLine
 10
32.8061719901
 20
24.5069174909
 30
0.0
 11
33.3061719901
 21
24.5069174909
 31
0.0
  0
LINE
  5
12A
330
1F
100
AcDbEntity
  8
0
  6
Continuous
 62
     7
370
    25
100
AcDbLine
 10
32.3061719901
 20
24.5069174909
 30
0.0
 11
32.8061719901
 21
24.5069174909
 31
0.0
  0
LINE
  5
12B
330
1F
100
AcDbEntity
  8
0
  6
Continuous
 62
     7
370
    25
100
AcDbLine
 10
23.6682639373
 20
28.6319174909
 30
0.0
 11
23.3375450235
 21
29.0069174909
 31
0.0
  0
LINE
  5
12C
330
1F
100
AcDbEntity
  8
0
  6
Continuous
 62
     7
370
    25
100
AcDbLine
 10
23.9989828512
 20
28.2569174909
 30
0.0
 11
23.6682639373
 21
28.6319174909
 31
0.0
  0
LINE
  5
12D
330
1F
100
AcDbEntity
  8
0
  6
Continuous
 62
     7
370
    25
100
AcDbLine
 10
20.0303558846
 20
27.2569174909
 30
0.0
 11
20.0303558846
 21
27.7569174909
 31
0.0
  0
LINE
  5
12E
330
1F
100
AcDbEntity
  8
0
  6
Continuous
 62
     7
370
    25
100
AcDbLine
 10
20.0303558846
 20
26.7569174909
 30
0.0
 11
20.0303558846
 21
27.2569174909
 31
0.0
  0
LINE
  5
12F
330
1F
100
AcDbEntity
  8
0
  6
Continuous
 62
     7
370
    18
100
AcDbLine
 10
30.6919227143
 20
12.3133175678
 30
0.0
 11
30.8208087048
 21
12.1888538136
 31
0.0
  0
LINE
  5
130
330
1F
100
AcDbEntity
  8
VP
100
AcDbLine
 10
28.52464043
 20
10.1036088766
 30
0.0
 11
27.7907881755
 21
10.8122817612
 31
0.0
  0
LINE
  5
131
330
1F
100
AcDbEntity
  8
VP
100
AcDbLine
 10
30.0555266112
 20
11.6769214648
 30
0.0
 11
30.1951419965
 21
11.5420964544
 31
0.0
  0
LINE
  5
132
330
1F
100
AcDbEntity
  8
VP
100
AcDbLine
 10
28.52464043
 20
10.1036088766
 30
0.0
 11
27.6355556643
 21
10.9926936423
 31
0.0
  0
DIMENSION
  5
133
330
1F
100
AcDbEntity
  8
0
  6
Continuous
 62
     7
370
    18
100
AcDbDimension
  2
_D
 10
39.2887544167
 20
4.011453694
 30
0.0
 11
41.5603296756
 21
6.3637387346
 31
0.0
 70
   160
  1
<>
 71
     2
 42
-1.0
  3
SLDDIMSTYLE0
100
AcDbAlignedDimension
 13
34.5846480876
 23
17.6459959101
 33
0.0
 14
30.8208087048
 24
12.1888538136
 34
0.0
 50
46.0
100
AcDbRotatedDimension
  0
DIMENSION
  5
149
330
1F
100
AcDbEntity
  8
0
  6
Continuous
 62
     7
370
    18
100
AcDbDimension
  2
_D_1
 10
22.3916853727
 20
12.5802390897
 30
0.0
 11
26.2358372657
 21
8.8679847579
 31
0.0
 70
   160
  1
%%c<>
 71
     2
 42
-1.0
  3
SLDDIMSTYLE0
100
AcDbAlignedDimension
 13
34.065523383
 23
9.2828719321
 33
0.0
 14
26.3772195969
 24
16.7073805955
 34
0.0
 50
-44.0
100
AcDbRotatedDimension
  0
DIMENSION
  5
15C
330
1F
100
AcDbEntity
  8
0
  6
Continuous
 62
     7
370
    18
100
AcDbDimension
  2
_D_2
 10
39.0231448226
 20
30.5069174909
 30
0.0
 11
39.0231448226
 21
24.0439174909
 31
0.0
 70
   160
  1
<>
 71
     2
 42
-1.0
  3
SLDDIMSTYLE0
100
AcDbAlignedDimension
 13
34.5631911163
 23
17.5809174909
 33
0.0
 14
27.3061719901
 24
30.5069174909
 34
0.0
 50
90.0
100
AcDbRotatedDimension
  0
DIMENSION
  5
170
330
1F
100
AcDbEntity
  8
0
  6
Continuous
 62
     7
370
    18
100
AcDbDimension
  2
_D_3
 10
36.2870842532
 20
7.1375355371
 30
0.0
 11
38.5018434789
 21
9.430985853
 31
0.0
 70
   160
  1
<>
 71
     2
 42
-1.0
  3
SLDDIMSTYLE0
100
AcDbAlignedDimension
 13
34.5846480876
 23
17.6459959101
 33
0.0
 14
34.065523383
 24
9.2828719321
 34
0.0
 50
46.0
100
AcDbRotatedDimension
  0
DIMENSION
  5
184
330
1F
100
AcDbEntity
  8
0
  6
Continuous
 62
     7
370
    18
100
AcDbDimension
  2
_D_4
 10
27.5222481716
 20
12.2407707267
 30
0.0
 11
23.6837184398
 21
16.0793004584
 31
0.0
 70
   160
  1
%%c<>
 71
     2
 42
-1.0
  3
SLDDIMSTYLE0
100
AcDbAlignedDimension
 13
30.7343491212
 23
12.3133175678
 33
0.0
 14
29.1645720669
 24
13.8830946221
 34
0.0
 50
-45.0
100
AcDbRotatedDimension
  0
DIMENSION
  5
198
330
1F
100
AcDbEntity
  8
0
  6
Continuous
 62
     7
370
    18
100
AcDbDimension
  2
_D_5
 10
9.3061719901
 20
34.179960954
 30
0.0
 11
22.3652547794
 21
34.179960954
 31
0.0
 70
   160
  1
SPECIFY PROJECTION LENGTH\P18"-48"\P[457mm-1219mm]
 71
     2
 42
-1.0
  3
SLDDIMSTYLE1
100
AcDbAlignedDimension
 13
35.4243375688
 23
15.6678114592
 33
0.0
 14
9.3061719901
 24
28.8069174909
 34
0.0
100
AcDbRotatedDimension
  0
DIMENSION
  5
1A9
330
1F
100
AcDbEntity
  8
0
  6
Continuous
 62
     7
370
    18
100
AcDbDimension
  2
_D_6
 10
7.0281719901
 20
34.179960954
 30
0.0
 11
3.5637300673
 21
34.179960954
 31
0.0
 70
   160
  1
<>
 71
     2
 42
-1.0
  3
SLDDIMSTYLE0
100
AcDbAlignedDimension
 13
9.3061719901
 23
28.8069174909
 33
0.0
 14
7.0281719901
 24
30.4819174909
 34
0.0
100
AcDbRotatedDimension
  0
ARC
  5
1BD
330
1F
100
AcDbEntity
  8
0
  6
Continuous
 62
     7
370
    25
100
AcDbCircle
 10
63.2145001162
 20
43.7883732806
 30
0.0
 40
0.1546936571130882
100
AcDbArc
 50
158.0120296182
 51
261.9825938491
  0
LINE
  5
1BE
330
1F
100
AcDbEntity
  8
0
  6
Continuous
 62
     7
370
    25
100
AcDbLine
 10
63.2263490197
 20
43.6408177315
 30
0.0
 11
63.2354403926
 21
43.6460660694
 31
0.0
  0
LINE
  5
1BF
330
1F
100
AcDbEntity
  8
0
  6
Continuous
 62
     7
370
    25
100
AcDbLine
 10
63.1004201362
 20
43.8769120854
 30
0.0
 11
63.0926456006
 21
43.8724239416
 31
0.0
  0
ARC
  5
1C0
330
1F
100
AcDbEntity
  8
0
  6
Continuous
 62
     7
370
    25
100
AcDbCircle
 10
63.2145001162
 20
46.7577640845
 30
0.0
 40
0.1546936571130906
100
AcDbArc
 50
158.0120296182
 51
261.9825938491
  0
LINE
  5
1C1
330
1F
100
AcDbEntity
  8
0
  6
Continuous
 62
     7
370
    25
100
AcDbLine
 10
63.2263490197
 20
46.6102085354
 30
0.0
 11
63.2354403926
 21
46.6154568733
 31
0.0
  0
LINE
  5
1C2
330
1F
100
AcDbEntity
  8
0
  6
Continuous
 62
     7
370
    25
100
AcDbLine
 10
63.1017369735
 20
46.8470630833
 30
0.0
 11
63.0926456006
 21
46.8418147454
 31
0.0
  0
ARC
  5
1C3
330
1F
100
AcDbEntity
  8
0
  6
Continuous
 62
     7
370
    25
100
AcDbCircle
 10
60.6430715448
 20
48.2422182013
 30
0.0
 40
0.1546936571130882
100
AcDbArc
 50
158.0120296182
 51
261.9825938491
  0
LINE
  5
1C4
330
1F
100
AcDbEntity
  8
0
  6
Continuous
 62
     7
370
    25
100
AcDbLine
 10
60.6549204483
 20
48.0946626522
 30
0.0
 11
60.6626949839
 21
48.0991507961
 31
0.0
  0
LINE
  5
1C5
330
1F
100
AcDbEntity
  8
0
  6
Continuous
 62
     7
370
    25
100
AcDbLine
 10
60.5303084021
 20
48.3315172001
 30
0.0
 11
60.5212170292
 21
48.3262688622
 31
0.0
  0
SPLINE
  5
1C6
330
1F
100
AcDbEntity
  8
0
  6
Continuous
 62
     7
370
    25
100
AcDbSpline
210
0.0
220
0.0
230
1.0
 70
     8
 71
     3
 72
    39
 73
    35
 74
     0
 42
0.00000001
 43
0.00000001
 40
0.0
 40
0.0
 40
0.0
 40
0.0
 40
0.0281871451852574
 40
0.0571210079193339
 40
0.0860197532212847
 40
0.114915602615755
 40
0.1438412881852862
 40
0.1728304977367707
 40
0.2019180610558096
 40
0.2311400636619487
 40
0.2605338535591651
 40
0.2901378953261574
 40
0.3199914128494216
 40
0.3501337493478772
 40
0.3806033648089807
 40
0.4114363932132042
 40
0.4426647054652718
 40
0.4743134829091366
 40
0.5063984150774379
 40
0.5389227992325154
 40
0.5718750178766897
 40
0.6052270392835527
 40
0.6389346155102619
 40
0.6729396300177197
 40
0.7071745493665769
 40
0.7415683074153605
 40
0.7760524826648953
 40
0.8105524843700765
 40
0.845020266404934
 40
0.879424318223299
 40
0.9137456659210655
 40
0.9479763661727213
 40
0.9821175930648683
 40
1.0
 40
1.0
 40
1.0
 40
1.0
 10
60.22821869425237
 20
47.80478543893194
 30
0.0
 10
60.20493936217584
 20
47.79085516097236
 30
0.0
 10
60.15776399542047
 20
47.76262557218576
 30
0.0
 10
60.08978933715581
 20
47.71531357453012
 30
0.0
 10
60.02382552400319
 20
47.66421524300013
 30
0.0
 10
59.96083607590283
 20
47.60955180257983
 30
0.0
 10
59.90087031217681
 20
47.55154998170346
 30
0.0
 10
59.84403894979859
 20
47.49031082644586
 30
0.0
 10
59.79042523296799
 20
47.42596231225088
 30
0.0
 10
59.7401095725002
 20
47.3586162269583
 30
0.0
 10
59.69316423270618
 20
47.28837787896671
 30
0.0
 10
59.6496565271738
 20
47.21534208963317
 30
0.0
 10
59.60965013548558
 20
47.13959364226848
 30
0.0
 10
59.57320723861571
 20
47.06120763136885
 30
0.0
 10
59.54039056410048
 20
46.98025132942442
 30
0.0
 10
59.51126530190367
 20
46.89678753058811
 30
0.0
 10
59.48590049611211
 20
46.81087970927501
 30
0.0
 10
59.46436949942547
 20
46.72259902817792
 30
0.0
 10
59.44674901791824
 20
46.63203292755772
 30
0.0
 10
59.43311634419968
 20
46.53929451994966
 30
0.0
 10
59.42354460957174
 20
46.44453142354001
 30
0.0
 10
59.41809632003814
 20
46.34793216923955
 30
0.0
 10
59.41681600661795
 20
46.24972821034368
 30
0.0
 10
59.41972335864928
 20
46.15019013739415
 30
0.0
 10
59.42680834053376
 20
46.0496179623117
 30
0.0
 10
59.43802972353632
 20
45.94832704132986
 30
0.0
 10
59.4533146110141
 20
45.84664606080634
 30
0.0
 10
59.47256525935863
 20
45.74488854477801
 30
0.0
 10
59.49566064679107
 20
45.64333694872141
 30
0.0
 10
59.52249396171037
 20
45.54223108463196
 30
0.0
 10
59.55288535111717
 20
45.44175605806877
 30
0.0
 10
59.58692792255617
 20
45.34214929283584
 30
0.0
 10
59.61790830067226
 20
45.25893975861504
 30
0.0
 10
59.63879397956818
 20
45.20935750038606
 30
0.0
 10
59.64597314376061
 20
45.19231428265626
 30
0.0
  0
SPLINE
  5
1C7
330
1F
100
AcDbEntity
  8
0
  6
Continuous
 62
     7
370
    25
100
AcDbSpline
210
0.0
220
0.0
230
1.0
 70
     8
 71
     3
 72
    39
 73
    35
 74
     0
 42
0.00000001
 43
0.00000001
 40
0.0
 40
0.0
 40
0.0
 40
0.0
 40
0.0120839604247613
 40
0.0462903854005995
 40
0.0806235743842269
 40
0.1151011757731249
 40
0.149736095965651
 40
0.1845346102787615
 40
0.2194941036360819
 40
0.2546005749200831
 40
0.2898262218060167
 40
0.3251259899126817
 40
0.3604189915860683
 40
0.3956279264222728
 40
0.4306679442647959
 40
0.4654538279527321
 40
0.4999078865597916
 40
0.5339666955168056
 40
0.5675852867326902
 40
0.6007382942637428
 40
0.6334184883948029
 40
0.6656336668977073
 40
0.6974029284457317
 40
0.7287530989460155
 40
0.7597157403765269
 40
0.7903248884227544
 40
0.820615487302203
 40
0.8506224058534504
 40
0.8803798968611223
 40
0.9099213726016563
 40
0.9392793938102943
 40
0.9684857954136737
 40
0.9975718951477933
 40
1.0
 40
1.0
 40
1.0
 40
1.0
 10
60.07447965984068
 20
44.44996931942515
 30
0.0
 10
60.08198681797926
 20
44.43997048563065
 30
0.0
 10
60.11074471119328
 20
44.40166765662143
 30
0.0
 10
60.16340179834913
 20
44.33744547226261
 30
0.0
 10
60.23243788075144
 20
44.25741483452078
 30
0.0
 10
60.30424169787243
 20
44.18002189743491
 30
0.0
 10
60.37855893344796
 20
44.10522570957685
 30
0.0
 10
60.45540245611564
 20
44.03326221863735
 30
0.0
 10
60.53469690757387
 20
43.96431685294689
 30
0.0
 10
60.61636505800624
 20
43.89861488488729
 30
0.0
 10
60.70029250751388
 20
43.83639789802769
 30
0.0
 10
60.78631007528153
 20
43.77793741186547
 30
0.0
 10
60.87419873547062
 20
43.72351215772029
 30
0.0
 10
60.96369189737067
 20
43.6733942120395
 30
0.0
 10
61.05450016818611
 20
43.62782571759104
 30
0.0
 10
61.14631096985849
 20
43.58701391049002
 30
0.0
 10
61.23880487004336
 20
43.55112048515161
 30
0.0
 10
61.33167179732109
 20
43.52025662162217
 30
0.0
 10
61.42462351466853
 20
43.49448424889074
 30
0.0
 10
61.51740028740284
 20
43.47382229068516
 30
0.0
 10
61.60977165657998
 20
43.45825556815561
 30
0.0
 10
61.70153278119624
 20
43.44774399275687
 30
0.0
 10
61.79249845688824
 20
43.44223036184814
 30
0.0
 10
61.88249669517811
 20
43.44164604487278
 30
0.0
 10
61.97136324509426
 20
43.44591440008576
 30
0.0
 10
62.05893733363501
 20
43.45495291681307
 30
0.0
 10
62.14505998405315
 20
43.46867255692239
 30
0.0
 10
62.22957011676034
 20
43.48698250712734
 30
0.0
 10
62.31231503025159
 20
43.50977247727773
 30
0.0
 10
62.39311257062437
 20
43.53697698647339
 30
0.0
 10
62.47189478489872
 20
43.56833737134728
 30
0.0
 10
62.5481823237602
 20
43.60428252972882
 30
0.0
 10
62.60025380105125
 20
43.63098435534501
 30
0.0
 10
62.62613168210321
 20
43.64679639481968
 30
0.0
 10
62.62812551978281
 20
43.64801468004298
 30
0.0
  0
LINE
  5
1C8
330
1F
100
AcDbEntity
  8
0
  6
Continuous
 62
     7
370
    25
100
AcDbLine
 10
60.6466064266
 20
48.046315553
 30
0.0
 11
60.2284032731
 21
47.8048920114
 31
0.0
  0
LINE
  5
1C9
330
1F
100
AcDbEntity
  8
0
  6
Continuous
 62
     7
370
    25
100
AcDbLine
 10
62.6282082314
 20
43.6478574719
 30
0.0
 11
63.0464113849
 21
43.8892810136
 31
0.0
  0
SPLINE
  5
1CA
330
1F
100
AcDbEntity
  8
0
  6
Continuous
 62
     7
370
    25
100
AcDbSpline
210
0.0
220
0.0
230
1.0
 70
     8
 71
     3
 72
    21
 73
    17
 74
     0
 42
0.00000001
 43
0.00000001
 40
0.0
 40
0.0
 40
0.0
 40
0.0
 40
0.0424380050318532
 40
0.1186087507881086
 40
0.1948040181824632
 40
0.2710956412328512
 40
0.3475529405297632
 40
0.4242339292195316
 40
0.5011821876713585
 40
0.578425133719878
 40
0.6559737958461884
 40
0.7338240076194606
 40
0.8119587583174409
 40
0.8903512958884874
 40
0.968968519120304
 40
0.9999999999999999
 40
0.9999999999999999
 40
0.9999999999999999
 40
0.9999999999999999
 10
60.57648427522231
 20
48.42646440187395
 30
0.0
 10
60.56565882217339
 20
48.4200468363935
 30
0.0
 10
60.5354030770722
 20
48.40211056855605
 30
0.0
 10
60.48759359326158
 20
48.3695022586417
 30
0.0
 10
60.43387905482383
 20
48.32757473822522
 30
0.0
 10
60.38277470184748
 20
48.28177664797168
 30
0.0
 10
60.33431160555794
 20
48.23224039692003
 30
0.0
 10
60.28857332318176
 20
48.17900850754124
 30
0.0
 10
60.2456314395552
 20
48.12215336384754
 30
0.0
 10
60.20556480884331
 20
48.06174741456644
 30
0.0
 10
60.16844545267995
 20
47.9978802635482
 30
0.0
 10
60.13436806658255
 20
47.93063438292713
 30
0.0
 10
60.10333426098999
 20
47.86017507465581
 30
0.0
 10
60.07567528640726
 20
47.78641689399009
 30
0.0
 10
60.05556640939427
 20
47.72569762423502
 30
0.0
 10
60.04586665545229
 20
47.68868322956688
 30
0.0
 10
60.04312154568171
 20
47.67820785286521
 30
0.0
  0
SPLINE
  5
1CB
330
1F
100
AcDbEntity
  8
0
  6
Continuous
 62
     7
370
    25
100
AcDbSpline
210
0.0
220
0.0
230
1.0
 70
     8
 71
     3
 72
    20
 73
    16
 74
     0
 42
0.00000001
 43
0.00000001
 40
0.0
 40
0.0
 40
0.0
 40
0.0
 40
0.0772284382339847
 40
0.156790778681255
 40
0.236180049635595
 40
0.3153569771050603
 40
0.3942837853653818
 40
0.472927482087696
 40
0.5512635148561227
 40
0.6292793567312519
 40
0.7069774875703188
 40
0.7843772569505261
 40
0.8615152512741436
 40
0.9384440078894892
 40
0.9999999999999999
 40
0.9999999999999999
 40
0.9999999999999999
 40
0.9999999999999999
 10
62.42503587765435
 20
43.55055097393505
 30
0.0
 10
62.45075470927778
 20
43.54413485258983
 30
0.0
 10
62.5029696152013
 20
43.53110870982645
 30
0.0
 10
62.58074663756461
 20
43.51685849702869
 30
0.0
 10
62.65837108869531
 20
43.50648446159775
 30
0.0
 10
62.73481411102507
 20
43.5005728182279
 30
0.0
 10
62.80993612320824
 20
43.49902034091844
 30
0.0
 10
62.88358019355717
 20
43.50184980330951
 30
0.0
 10
62.95559955914926
 20
43.50903324767823
 30
0.0
 10
63.02585609223943
 20
43.52053563590819
 30
0.0
 10
63.0942139154201
 20
43.53632221046402
 30
0.0
 10
63.16057844195707
 20
43.55629724091397
 30
0.0
 10
63.22475494035822
 20
43.5805557282934
 30
0.0
 10
63.28287008884724
 20
43.60661866958448
 30
0.0
 10
63.3184909699856
 20
43.62648442653538
 30
0.0
 10
63.33432432852144
 20
43.6353146868304
 30
0.0
  0
LINE
  5
1CC
330
1F
100
AcDbEntity
  8
0
  6
Continuous
 62
     7
370
    25
100
AcDbLine
 10
60.6693373077
 20
48.4800673279
 30
0.0
 11
60.5766053041
 21
48.4265342817
 31
0.0
  0
LINE
  5
1CD
330
1F
100
AcDbEntity
  8
0
  6
Continuous
 62
     7
370
    25
100
AcDbLine
 10
63.3406663722
 20
43.6385212854
 30
0.0
 11
63.4333983758
 21
43.6920543316
 31
0.0
  0
SPLINE
  5
1CE
330
1F
100
AcDbEntity
  8
0
  6
Continuous
 62
     7
370
    25
100
AcDbSpline
210
0.0
220
0.0
230
1.0
 70
     8
 71
     3
 72
    19
 73
    15
 74
     0
 42
0.00000001
 43
0.00000001
 40
0.0
 40
0.0
 40
0.0
 40
0.0
 40
0.0172594018602315
 40
0.1051109912120156
 40
0.1928633983918891
 40
0.2808895055583017
 40
0.3695836270562231
 40
0.4593002021821229
 40
0.5503311132282107
 40
0.6428802810625769
 40
0.7370398027370267
 40
0.8327753928519034
 40
0.9299299786227249
 40
0.9999999999999999
 40
0.9999999999999999
 40
0.9999999999999999
 40
0.9999999999999999
 10
47.55217344438253
 20
32.32783872768867
 30
0.0
 10
47.55228701146832
 20
32.33098777138905
 30
0.0
 10
47.55297864313977
 20
32.350165672651
 30
0.0
 10
47.54972486472673
 20
32.38535861159001
 30
0.0
 10
47.54223008119727
 20
32.43296953570709
 30
0.0
 10
47.52983162628477
 20
32.4799039907742
 30
0.0
 10
47.5131085340717
 20
32.52602269777198
 30
0.0
 10
47.49195701690432
 20
32.57121246987597
 30
0.0
 10
47.46643924397819
 20
32.61535740115438
 30
0.0
 10
47.4365528984681
 20
32.65831966326451
 30
0.0
 10
47.4023710664712
 20
32.69997279256583
 30
0.0
 10
47.36381562050217
 20
32.74003306300358
 30
0.0
 10
47.3256590423453
 20
32.77494630633537
 30
0.0
 10
47.29890734131339
 20
32.79541305572624
 30
0.0
 10
47.2876979128976
 20
32.8039889799984
 30
0.0
  0
SPLINE
  5
1CF
330
1F
100
AcDbEntity
  8
0
  6
Continuous
 62
     7
370
    25
100
AcDbSpline
210
0.0
220
0.0
230
1.0
 70
     8
 71
     3
 72
    19
 73
    15
 74
     0
 42
0.00000001
 43
0.00000001
 40
0.0
 40
0.0
 40
0.0
 40
0.0
 40
0.0905793996539899
 40
0.1863754210966488
 40
0.2814977127613142
 40
0.3755949663147736
 40
0.4683423595410441
 40
0.5595016703501691
 40
0.6489652757405666
 40
0.7367702304038214
 40
0.8230840815051824
 40
0.9081748039324562
 40
0.9923778713418119
 40
1.0
 40
1.0
 40
1.0
 40
1.0
 10
45.5919981656121
 20
32.82244510977149
 30
0.0
 10
45.57644404549821
 20
32.81103606215257
 30
0.0
 10
45.54444001702059
 20
32.7875609004446
 30
0.0
 10
45.50051729381745
 20
32.74896408514962
 30
0.0
 10
45.45954237713079
 20
32.70763434657935
 30
0.0
 10
45.42303045743577
 20
32.66431681155179
 30
0.0
 10
45.39112689261454
 20
32.61937220125663
 30
0.0
 10
45.36403019610272
 20
32.5730983528127
 30
0.0
 10
45.34181510226257
 20
32.52581972103418
 30
0.0
 10
45.32455778857984
 20
32.47784151723848
 30
0.0
 10
45.31205696574148
 20
32.42944042144094
 30
0.0
 10
45.30489313130622
 20
32.38088212921571
 30
0.0
 10
45.30192235685625
 20
32.34693468349906
 30
0.0
 10
45.30267005349536
 20
32.32933729817551
 30
0.0
 10
45.30273211750639
 20
32.32787659304523
 30
0.0
  0
LINE
  5
1D0
330
1F
100
AcDbEntity
  8
0
  6
Continuous
 62
     7
370
    25
100
AcDbLine
 10
45.3025404657
 20
32.327647695
 30
0.0
 11
45.3025404657
 21
30.9032777208
 31
0.0
  0
LINE
  5
1D1
330
1F
100
AcDbEntity
  8
0
  6
Continuous
 62
     7
370
    25
100
AcDbLine
 10
47.5525404657
 20
30.9032777208
 30
0.0
 11
47.5525404657
 21
32.327647695
 31
0.0
  0
SPLINE
  5
1D2
330
1F
100
AcDbEntity
  8
0
  6
Continuous
 62
     7
370
    25
100
AcDbSpline
210
0.0
220
0.0
230
1.0
 70
     8
 71
     3
 72
    49
 73
    45
 74
     0
 42
0.00000001
 43
0.00000001
 40
0.0
 40
0.0
 40
0.0
 40
0.0
 40
0.0186711658164857
 40
0.0420283349755483
 40
0.0654066443389067
 40
0.0888108417063926
 40
0.1122456170057494
 40
0.1357155066726735
 40
0.1592247886199777
 40
0.1827773714203585
 40
0.2063766825726229
 40
0.2300255617665694
 40
0.2537258928879195
 40
0.2774787713218925
 40
0.3012847943026526
 40
0.3251437366443609
 40
0.3490545547639125
 40
0.3730154204894889
 40
0.3970237821748665
 40
0.4210764487015014
 40
0.4451696904361947
 40
0.4692993504336469
 40
0.4934609591549047
 40
0.5176498466117093
 40
0.5418612469537634
 40
0.5660903918689992
 40
0.590332590558529
 40
0.6145832953181768
 40
0.6388381528060956
 40
0.6630930418580323
 40
0.6873440992304205
 40
0.7115877349374465
 40
0.7358206389483618
 40
0.7600397809752465
 40
0.78424240495482
 40
0.8084260196494603
 40
0.83258838659127
 40
0.8567275063900072
 40
0.8808416042342752
 40
0.9049291152436081
 40
0.9289886701805126
 40
0.9530190819071432
 40
0.9770193328695903
 40
1.0
 40
1.0
 40
1.0
 40
1.0
 10
45.12463328451965
 20
30.78879538234705
 30
0.0
 10
45.10284091135657
 20
30.77302001905961
 30
0.0
 10
45.05378681541998
 20
30.73751006434539
 30
0.0
 10
44.98067797257385
 20
30.67797559983306
 30
0.0
 10
44.90488909033591
 20
30.61110322634665
 30
0.0
 10
44.83216139928417
 20
30.54073047461889
 30
0.0
 10
44.76253837945207
 20
30.46710936649154
 30
0.0
 10
44.69618889904669
 20
30.39032104310045
 30
0.0
 10
44.63324516456809
 20
30.31050071338421
 30
0.0
 10
44.57384604374625
 20
30.22777800928064
 30
0.0
 10
44.51812508320719
 20
30.14229378780499
 30
0.0
 10
44.4662133854677
 20
30.05419673435564
 30
0.0
 10
44.41823807731964
 20
29.96364516149634
 30
0.0
 10
44.37432145678013
 20
29.87080675697645
 30
0.0
 10
44.33457986511507
 20
29.77585852338689
 30
0.0
 10
44.29912274174364
 20
29.67898671111667
 30
0.0
 10
44.26805172686488
 20
29.58038703997883
 30
0.0
 10
44.2414595439379
 20
29.48026429126523
 30
0.0
 10
44.21942890743025
 20
29.37883166314965
 30
0.0
 10
44.20203150746335
 20
29.27630990658436
 30
0.0
 10
44.18932711436684
 20
29.17292627607933
 30
0.0
 10
44.18136283706907
 20
29.06891333892262
 30
0.0
 10
44.1781725571721
 20
28.96450769176282
 30
0.0
 10
44.17977654819834
 20
28.85994863362902
 30
0.0
 10
44.18618127805429
 20
28.75547684053807
 30
0.0
 10
44.19737938337502
 20
28.65133307992133
 30
0.0
 10
44.21334979764609
 20
28.54775699456266
 30
0.0
 10
44.23405801095038
 20
28.44498597680542
 30
0.0
 10
44.25945643757748
 20
28.34325414540243
 30
0.0
 10
44.28948486813618
 20
28.24279143024771
 30
0.0
 10
44.3240709844611
 20
28.14382276437066
 30
0.0
 10
44.3631309187113
 20
28.04656737908278
 30
0.0
 10
44.40656983935131
 20
27.95123819303134
 30
0.0
 10
44.45428255632027
 20
27.85804129342037
 30
0.0
 10
44.50615411627513
 20
27.76717547342683
 30
0.0
 10
44.56206045206016
 20
27.67883191542872
 30
0.0
 10
44.62186881463947
 20
27.59319364244854
 30
0.0
 10
44.68543897768511
 20
27.51043610465777
 30
0.0
 10
44.7526215098211
 20
27.43072377061426
 30
0.0
 10
44.82326691205209
 20
27.35422180893658
 30
0.0
 10
44.8971942071687
 20
27.28105172073202
 30
0.0
 10
44.97431052736728
 20
27.21145594118937
 30
0.0
 10
45.05307167496214
 20
27.14609402435838
 30
0.0
 10
45.10754378932968
 20
27.10591005539337
 30
0.0
 10
45.13418876731193
 20
27.08625410884634
 30
0.0
  0
LINE
  5
1D3
330
1F
100
AcDbEntity
  8
0
  6
Continuous
 62
     7
370
    25
100
AcDbLine
 10
45.1203976085
 20
30.7493909543
 30
0.0
 11
45.1203976085
 21
30.2944610734
 31
0.0
  0
LINE
  5
1D4
330
1F
100
AcDbEntity
  8
0
  6
Continuous
 62
     7
370
    25
100
AcDbLine
 10
47.7346833228
 20
30.2944610734
 30
0.0
 11
47.7346833228
 21
30.7493909543
 31
0.0
  0
SPLINE
  5
1D5
330
1F
100
AcDbEntity
  8
0
  6
Continuous
 62
     7
370
    25
100
AcDbSpline
210
0.0
220
0.0
230
1.0
 70
     8
 71
     3
 72
    19
 73
    15
 74
     0
 42
0.00000001
 43
0.00000001
 40
0.0
 40
0.0
 40
0.0
 40
0.0
 40
0.009693262491639
 40
0.102288448069664
 40
0.1948680390296914
 40
0.2874369505332025
 40
0.3800002449736045
 40
0.4725631271182943
 40
0.56513093735876
 40
0.6577091427994519
 40
0.7503033259194856
 40
0.8429191705507308
 40
0.9355624449377326
 40
1.0
 40
1.0
 40
1.0
 40
1.0
 10
49.05995664511656
 20
32.18295048790507
 30
0.0
 10
49.05515347064676
 20
32.18389711172056
 30
0.0
 10
49.00446782556629
 20
32.19388638840384
 30
0.0
 10
48.90711992471444
 20
32.20868319734642
 30
0.0
 10
48.76804404839046
 20
32.22699127630491
 30
0.0
 10
48.62838670142338
 20
32.24031425085464
 30
0.0
 10
48.48839919561946
 20
32.24923010692642
 30
0.0
 10
48.34819083606617
 20
32.25357655972128
 30
0.0
 10
48.20790763156432
 20
32.25339947011168
 30
0.0
 10
48.06768804072878
 20
32.248676311835
 30
0.0
 10
47.92766074756972
 20
32.23947364179713
 30
0.0
 10
47.78799733394246
 20
32.22559328828039
 30
0.0
 10
47.66285593576003
 20
32.20963498303264
 30
0.0
 10
47.58463016872101
 20
32.19635464678326
 30
0.0
 10
47.55254046567743
 20
32.19090679931954
 30
0.0
  0
SPLINE
  5
1D6
330
1F
100
AcDbEntity
  8
0
  6
Continuous
 62
     7
370
    25
100
AcDbSpline
210
0.0
220
0.0
230
1.0
 70
     8
 71
     3
 72
    15
 73
    11
 74
     0
 42
0.00000001
 43
0.00000001
 40
0.0
 40
0.0
 40
0.0
 40
0.0
 40
0.0179306312895981
 40
0.1793647898463991
 40
0.3409855643218088
 40
0.5027902842727917
 40
0.6647752255789685
 40
0.8269356153627252
 40
0.9892656415576597
 40
1.0
 40
1.0
 40
1.0
 40
1.0
 10
45.17697345650357
 20
30.96385487298114
 30
0.0
 10
45.17316366371499
 20
30.96017419855444
 30
0.0
 10
45.13505331099817
 20
30.92335545054856
 30
0.0
 10
45.06563240444859
 20
30.85028465868309
 30
0.0
 10
44.96902431481105
 20
30.74450660034416
 30
0.0
 10
44.87609100890856
 20
30.63523317225611
 30
0.0
 10
44.78638279608874
 20
30.52308769749104
 30
0.0
 10
44.70065102357752
 20
30.40771270488365
 30
0.0
 10
44.64304187337282
 20
30.32707901030407
 30
0.0
 10
44.61514066724604
 20
30.28422522100273
 30
0.0
 10
44.61341008848967
 20
30.28156720482027
 30
0.0
  0
SPLINE
  5
1D7
330
1F
100
AcDbEntity
  8
0
  6
Continuous
 62
     7
370
    25
100
AcDbSpline
210
0.0
220
0.0
230
1.0
 70
     8
 71
     3
 72
    43
 73
    39
 74
     0
 42
0.00000001
 43
0.00000001
 40
0.0
 40
0.0
 40
0.0
 40
0.0
 40
0.0124460567384783
 40
0.0407516383530426
 40
0.0690785005958469
 40
0.0974246482573069
 40
0.1257879555760922
 40
0.1541661809947552
 40
0.1825569843392325
 40
0.2109579462530243
 40
0.2393665895602299
 40
0.2677804020891192
 40
0.2961968603756602
 40
0.324613453594229
 40
0.3530277070378699
 40
0.3814372044928437
 40
0.4098396089180697
 40
0.4382326809398208
 40
0.4666142947953018
 40
0.494982451493306
 40
0.523335289093368
 40
0.5516710901287574
 40
0.5799882863039911
 40
0.6082854606815984
 40
0.6365613476324422
 40
0.664814830860817
 40
0.6930449398313057
 40
0.7212508449221231
 40
0.749431851614678
 40
0.7775873940031863
 40
0.8057170278771949
 40
0.8338204235950166
 40
0.8618973589311104
 40
0.8899477120467383
 40
0.9179714547016942
 40
0.9459686457971216
 40
0.9739394253148954
 40
1.0
 40
1.0
 40
1.0
 40
1.0
 10
44.42530663391011
 20
29.97533435592129
 30
0.0
 10
44.41481939883264
 20
29.95694627547135
 30
0.0
 10
44.38048145387702
 20
29.89673890053739
 30
0.0
 10
44.32657107799575
 20
29.79230818485739
 30
0.0
 10
44.26351662810404
 20
29.66225332078508
 30
0.0
 10
44.20486880536253
 20
29.53002780481452
 30
0.0
 10
44.15040534190393
 20
29.39594170626634
 30
0.0
 10
44.10027737958583
 20
29.26009561041273
 30
0.0
 10
44.05452972947821
 20
29.12265047289302
 30
0.0
 10
44.01322921768107
 20
28.98375494957955
 30
0.0
 10
43.97642996369406
 20
28.84356455284225
 30
0.0
 10
43.94418240999462
 20
28.70223615046769
 30
0.0
 10
43.91653064902162
 20
28.55992904736042
 30
0.0
 10
43.89351292057029
 20
28.41680427956262
 30
0.0
 10
43.87516129597502
 20
28.27302437105775
 30
0.0
 10
43.86150161928965
 20
28.12875295696493
 30
0.0
 10
43.85255341971585
 20
27.98415443979584
 30
0.0
 10
43.84832987166105
 20
27.83939364054174
 30
0.0
 10
43.84883778061084
 20
27.69463546055688
 30
0.0
 10
43.85407759834944
 20
27.55004455475056
 30
0.0
 10
43.86404346354205
 20
27.40578501967849
 30
0.0
 10
43.87872326523397
 20
27.26202009820887
 30
0.0
 10
43.89809872616009
 20
27.11891190189735
 30
0.0
 10
43.9221455029594
 20
26.97662115144999
 30
0.0
 10
43.95083330031527
 20
26.83530693494449
 30
0.0
 10
43.98412599698165
 20
26.69512648353511
 30
0.0
 10
44.0219817793844
 20
26.5562349621335
 30
0.0
 10
44.06435328838282
 20
26.41878527950999
 30
0.0
 10
44.11118774944035
 20
26.2829278955367
 30
0.0
 10
44.16242718968808
 20
26.14881070256966
 30
0.0
 10
44.21800835023353
 20
26.01657868800959
 30
0.0
 10
44.27786374868754
 20
25.88637446422598
 30
0.0
 10
44.34191846587945
 20
25.75833561264601
 30
0.0
 10
44.41010287587412
 20
25.63260394295383
 30
0.0
 10
44.48230596544913
 20
25.50929038581244
 30
0.0
 10
44.55855006697545
 20
25.38860526355428
 30
0.0
 10
44.63654898386856
 20
25.27302684252227
 30
0.0
 10
44.69106109279419
 20
25.19913193828868
 30
0.0
 10
44.71735354662692
 20
25.1634907129476
 30
0.0
  0
LINE
  5
1D8
330
1F
100
AcDbEntity
  8
0
  6
Continuous
 62
     7
370
    25
100
AcDbLine
 10
50.4036411755
 20
31.8849425554
 30
0.0
 11
50.2983845374
 21
31.9500442569
 31
0.0
  0
LINE
  5
1D9
330
1F
100
AcDbEntity
  8
0
  6
Continuous
 62
     7
370
    25
100
AcDbLine
 10
45.4794344806
 20
24.1587504748
 30
0.0
 11
45.5846911187
 21
24.0936487733
 31
0.0
  0
LINE
  5
1DA
330
1F
100
AcDbEntity
  8
0
  6
Continuous
 62
     7
370
    25
100
AcDbLine
 10
46.9589690371
 20
32.9138073492
 30
0.0
 11
46.9589690371
 21
33.0422375541
 31
0.0
  0
LINE
  5
1DB
330
1F
100
AcDbEntity
  8
0
  6
Continuous
 62
     7
370
    25
100
AcDbLine
 10
45.8961118942
 20
33.0422375541
 30
0.0
 11
45.8961118942
 21
32.9138073492
 31
0.0
  0
LINE
  5
1DC
330
1F
100
AcDbEntity
  8
0
  6
Continuous
 62
     7
370
    25
100
AcDbLine
 10
47.3211118942
 20
32.5078699171
 30
0.0
 11
47.3211118942
 21
32.6303510388
 31
0.0
  0
LINE
  5
1DD
330
1F
100
AcDbEntity
  8
0
  6
Continuous
 62
     7
370
    25
100
AcDbLine
 10
45.5339690371
 20
32.6303510388
 30
0.0
 11
45.5339690371
 21
32.5078699171
 31
0.0
  0
SPLINE
  5
1DE
330
1F
100
AcDbEntity
  8
0
  6
Continuous
 62
     7
370
    25
100
AcDbSpline
210
0.0
220
0.0
230
1.0
 70
     8
 71
     3
 72
    31
 73
    27
 74
     0
 42
0.00000001
 43
0.00000001
 40
0.0
 40
0.0
 40
0.0
 40
0.0
 40
0.0378403538298722
 40
0.0797319484535882
 40
0.1218286555423058
 40
0.1641472596515601
 40
0.2066711235315349
 40
0.2493623422810631
 40
0.2921750718046619
 40
0.3350657205474121
 40
0.3779985005977329
 40
0.4209467339330932
 40
0.4638888516317285
 40
0.5068160777995451
 40
0.549724172338027
 40
0.5926119754774373
 40
0.6354803300957911
 40
0.6783313321942207
 40
0.7211678336113504
 40
0.7639931256350475
 40
0.8068107464889293
 40
0.8496243703797695
 40
0.8924377476008651
 40
0.9352539354266157
 40
0.9780762317084811
 40
1.0
 40
1.0
 40
1.0
 40
1.0
 10
45.54317005882625
 20
32.43277099798046
 30
0.0
 10
45.54620094466287
 20
32.42140556249115
 30
0.0
 10
45.55258720717988
 20
32.3974578922167
 30
0.0
 10
45.56789359566928
 20
32.36169352609849
 30
0.0
 10
45.58773910035582
 20
32.32549539146562
 30
0.0
 10
45.61207792166557
 20
32.29024490650162
 30
0.0
 10
45.64066325494792
 20
32.25611238178453
 30
0.0
 10
45.67339166199587
 20
32.22329230584365
 30
0.0
 10
45.71007738165123
 20
32.19196888756017
 30
0.0
 10
45.75051861895511
 20
32.16231655640792
 30
0.0
 10
45.79448722392426
 20
32.13449463162208
 30
0.0
 10
45.8417371108667
 20
32.10864766096173
 30
0.0
 10
45.89200849148325
 20
32.08490450608671
 30
0.0
 10
45.94503062489266
 20
32.06337970035223
 30
0.0
 10
46.00052464647086
 20
32.04417425077888
 30
0.0
 10
46.05820194022456
 20
32.02737746311025
 30
0.0
 10
46.11776487309312
 20
32.01306711282474
 30
0.0
 10
46.17890766472305
 20
32.00130941099947
 30
0.0
 10
46.24131749960001
 20
31.99215871243831
 30
0.0
 10
46.30467558386464
 20
31.98565763524488
 30
0.0
 10
46.36865921000516
 20
31.98183546753368
 30
0.0
 10
46.43294071965313
 20
31.98071304932069
 30
0.0
 10
46.4971981661722
 20
31.98228374110841
 30
0.0
 10
46.56108175252263
 20
31.98658390167752
 30
0.0
 10
46.61405107706613
 20
31.99231538676392
 30
0.0
 10
46.64545539169557
 20
31.99695487550072
 30
0.0
 10
46.65608925680886
 20
31.99852586018878
 30
0.0
  0
SPLINE
  5
1DF
330
1F
100
AcDbEntity
  8
0
  6
Continuous
 62
     7
370
    25
100
AcDbSpline
210
0.0
220
0.0
230
1.0
 70
     8
 71
     3
 72
    24
 73
    20
 74
     0
 42
0.00000001
 43
0.00000001
 40
0.0
 40
0.0
 40
0.0
 40
0.0
 40
0.0327323137791402
 40
0.0948092853326211
 40
0.1569186580719064
 40
0.2190586026550812
 40
0.2812335215178655
 40
0.3434466477605804
 40
0.4056992204029737
 40
0.4679892466738473
 40
0.5303097247578493
 40
0.5926449912505841
 40
0.6549607138932888
 40
0.717214048291377
 40
0.7793469792977347
 40
0.8412892926974811
 40
0.9029682215528814
 40
0.9643257230335184
 40
1.0
 40
1.0
 40
1.0
 40
1.0
 10
46.65608925680886
 20
31.99852586018878
 30
0.0
 10
46.66698096015747
 20
32.00028894348787
 30
0.0
 10
46.69852882498316
 20
32.00539572172226
 30
0.0
 10
46.74974211520814
 20
32.0158366209296
 30
0.0
 10
46.80893979203964
 20
32.0306343518973
 30
0.0
 10
46.86618025210816
 20
32.04793960968247
 30
0.0
 10
46.92118725973469
 20
32.06762788120145
 30
0.0
 10
46.97367344808325
 20
32.08962257220795
 30
0.0
 10
47.0233686121109
 20
32.11382180037343
 30
0.0
 10
47.07001220261255
 20
32.14011812654187
 30
0.0
 10
47.11335519899864
 20
32.16839285951271
 30
0.0
 10
47.15315857327825
 20
32.19851506150205
 30
0.0
 10
47.18919346435013
 20
32.23033998043434
 30
0.0
 10
47.22125156404345
 20
32.26370556463151
 30
0.0
 10
47.24911813912566
 20
32.29843470020196
 30
0.0
 10
47.27269365752327
 20
32.33431894979767
 30
0.0
 10
47.29156656602963
 20
32.37117010920524
 30
0.0
 10
47.30455890486441
 20
32.40347986747985
 30
0.0
 10
47.30935469279792
 20
32.42365693463903
 30
0.0
 10
47.31111789110007
 20
32.4310751464221
 30
0.0
  0
ARC
  5
1E0
330
1F
100
AcDbEntity
  8
0
  6
Continuous
 62
     7
370
    25
100
AcDbCircle
 10
45.5930973042
 20
32.7637357662
 30
0.0
 40
0.025714285714284
100
AcDbArc
 50
155.1015385555
 51
180.0
  0
LINE
  5
1E1
330
1F
100
AcDbEntity
  8
0
  6
Continuous
 62
     7
370
    25
100
AcDbLine
 10
45.7933613958
 20
33.2562755587
 30
0.0
 11
45.5697730245
 21
32.7745617751
 31
0.0
  0
LINE
  5
1E2
330
1F
100
AcDbEntity
  8
0
  6
Continuous
 62
     7
370
    25
100
AcDbLine
 10
45.5673830185
 20
32.7637357662
 30
0.0
 11
45.5673830185
 21
32.5012762195
 31
0.0
  0
LINE
  5
1E3
330
1F
100
AcDbEntity
  8
0
  6
Continuous
 62
     7
370
    25
100
AcDbLine
 10
47.2748397252
 20
33.0441552327
 30
0.0
 11
46.8561118942
 21
33.2858816642
 31
0.0
  0
ARC
  5
1E4
330
1F
100
AcDbEntity
  8
0
  6
Continuous
 62
     7
370
    25
100
AcDbCircle
 10
47.2619836272
 20
33.0218854048
 30
0.0
 40
0.0257142857142796
100
AcDbArc
 50
0.0
 51
60.0026882664
  0
LINE
  5
1E5
330
1F
100
AcDbEntity
  8
0
  6
Continuous
 62
     7
370
    25
100
AcDbLine
 10
47.2876979129
 20
32.7594258581
 30
0.0
 11
47.2876979129
 21
33.0218854048
 31
0.0
  0
ARC
  5
1E6
330
1F
100
AcDbEntity
  8
0
  6
Continuous
 62
     7
370
    25
100
AcDbCircle
 10
45.8166856754
 20
33.2454495498
 30
0.0
 40
0.025714285714281
100
AcDbArc
 50
98.7930389329
 51
155.1015385555
  0
LINE
  5
1E7
330
1F
100
AcDbEntity
  8
0
  6
Continuous
 62
     7
370
    25
100
AcDbLine
 10
45.9989690371
 20
33.2996659295
 30
0.0
 11
45.8127548413
 21
33.2708616145
 31
0.0
  0
SPLINE
  5
1E8
330
1F
100
AcDbEntity
  8
0
  6
Continuous
 62
     7
370
    25
100
AcDbSpline
210
0.0
220
0.0
230
1.0
 70
     8
 71
     3
 72
    83
 73
    79
 74
     0
 42
0.00000001
 43
0.00000001
 40
0.0
 40
0.0
 40
0.0
 40
0.0
 40
0.0074107967497643
 40
0.0199282058708519
 40
0.0324648084629452
 40
0.0450375268182862
 40
0.0576551522903885
 40
0.070325387394135
 40
0.083054649567973
 40
0.0958479231048251
 40
0.1087086545383535
 40
0.1216387003320495
 40
0.1346383337080985
 40
0.1477063139101379
 40
0.1608400163715376
 40
0.1740356168133403
 40
0.1872883171415303
 40
0.2005925971191028
 40
0.2139424739074814
 40
0.2273317520268761
 40
0.2407542488837852
 40
0.2542039851301952
 40
0.2676753338966434
 40
0.281163127539237
 40
0.2946627243232423
 40
0.3081700400972712
 40
0.3216815514440896
 40
0.3351938693341417
 40
0.3487042137618579
 40
0.3622107237757256
 40
0.3757119392561846
 40
0.3892067518867066
 40
0.4026943577866347
 40
0.416174213414296
 40
0.429645995531874
 40
0.4431095655711477
 40
0.4565649384228992
 40
0.4700122554653359
 40
0.4834517615217264
 40
0.4968837853723149
 40
0.5103087234219664
 40
0.5237270261286905
 40
0.5371391868189677
 40
0.5505457325456786
 40
0.5639472166787618
 40
0.5773442129538068
 40
0.5907373107370602
 40
0.6041271112965181
 40
0.617514224895938
 40
0.6308992685525315
 40
0.6442828643189548
 40
0.6576656379666788
 40
0.6710482179603223
 40
0.6844311691572568
 40
0.6978149783188219
 40
0.7112002775361728
 40
0.7245876987308686
 40
0.7379778727098069
 40
0.7513714279819104
 40
0.7647689892185369
 40
0.77817117523843
 40
0.7915785963828589
 40
0.8049918511271565
 40
0.8184115217520328
 40
0.8318381688706954
 40
0.8452723245769145
 40
0.8587144839449274
 40
0.872165094574529
 40
0.885624543837167
 40
0.8990931434421425
 40
0.9125711109117806
 40
0.9260585475358227
 40
0.9395554123781248
 40
0.9530614919448129
 40
0.9665763652093036
 40
0.9800993638474294
 40
0.9936295277911268
 40
1.0
 40
1.0
 40
1.0
 40
1.0
 10
52.13891844774894
 20
41.61834034747083
 30
0.0
 10
52.12141200961811
 20
41.62588606673064
 30
0.0
 10
52.07433584292287
 20
41.64617708967064
 30
0.0
 10
51.99603524408558
 20
41.67577028913284
 30
0.0
 10
51.90360934892568
 20
41.70606240565617
 30
0.0
 10
51.80925621844108
 20
41.7321023996729
 30
0.0
 10
51.71305627646132
 20
41.7539440210127
 30
0.0
 10
51.61506188032109
 20
41.77153581168286
 30
0.0
 10
51.51534175769719
 20
41.78485166582129
 30
0.0
 10
51.41396597935678
 20
41.79385837399865
 30
0.0
 10
51.31101153733047
 20
41.79852583291765
 30
0.0
 10
51.20656205957211
 20
41.79882599777648
 30
0.0
 10
51.10070869259527
 20
41.79473501078345
 30
0.0
 10
50.99355016679245
 20
41.78623448477483
 30
0.0
 10
50.88519253498993
 20
41.77331288981117
 30
0.0
 10
50.77574845982221
 20
41.75596665443044
 30
0.0
 10
50.66533614764749
 20
41.73420097694187
 30
0.0
 10
50.55407801572739
 20
41.70803027635381
 30
0.0
 10
50.44209921560023
 20
41.6774782771305
 30
0.0
 10
50.32952613786104
 20
41.64257775234177
 30
0.0
 10
50.21648501306237
 20
41.60336998241237
 30
0.0
 10
50.10310069827027
 20
41.55990400583134
 30
0.0
 10
49.98949570643558
 20
41.51223574546044
 30
0.0
 10
49.87578950218515
 20
41.46042708981938
 30
0.0
 10
49.76209805827539
 20
41.40454499616161
 30
0.0
 10
49.64853364516067
 20
41.34466066509759
 30
0.0
 10
49.53520595292538
 20
41.28084946037058
 30
0.0
 10
49.42222192005278
 20
41.21319035036715
 30
0.0
 10
49.30968467259135
 20
41.1417647733308
 30
0.0
 10
49.197692731594
 20
41.06665539709905
 30
0.0
 10
49.0863406831472
 20
40.98794581690214
 30
0.0
 10
48.97572080633237
 20
40.90572117973479
 30
0.0
 10
48.86592336912437
 20
40.82006808692899
 30
0.0
 10
48.75703689131305
 20
40.73107454327754
 30
0.0
 10
48.64914836921142
 20
40.63882993896367
 30
0.0
 10
48.54234346083488
 20
40.54342505306586
 30
0.0
 10
48.43670663263538
 20
40.44495206959919
 30
0.0
 10
48.33232127039653
 20
40.34350459904897
 30
0.0
 10
48.22926975777368
 20
40.23917770008981
 30
0.0
 10
48.1276335263675
 20
40.13206789763548
 30
0.0
 10
48.02749308129957
 20
40.02227319454177
 30
0.0
 10
47.92892800612658
 20
39.90989307521365
 30
0.0
 10
47.83201695067216
 20
39.79502850008523
 30
0.0
 10
47.7368376050317
 20
39.67778189048214
 30
0.0
 10
47.64346666265849
 20
39.55825710377658
 30
0.0
 10
47.55197977509406
 20
39.43655939903513
 30
0.0
 10
47.46245150058164
 20
39.31279539356504
 30
0.0
 10
47.37495524850437
 20
39.18707301090742
 30
0.0
 10
47.28956322132635
 20
39.05950142092266
 30
0.0
 10
47.20634635548387
 20
38.93019097267943
 30
0.0
 10
47.12537426247442
 20
38.79925312090097
 30
0.0
 10
47.04671517122564
 20
38.66680034676408
 30
0.0
 10
46.97043599704389
 20
38.53294629210249
 30
0.0
 10
46.89660241296985
 20
38.39780594956406
 30
0.0
 10
46.82527849236167
 20
38.2614950998166
 30
0.0
 10
46.75652655403739
 20
38.12412998233535
 30
0.0
 10
46.69040702095978
 20
37.98582691027668
 30
0.0
 10
46.62697865251481
 20
37.84670266192924
 30
0.0
 10
46.56629851638277
 20
37.70687438578684
 30
0.0
 10
46.50842196638274
 20
37.56645950739569
 30
0.0
 10
46.45340262656889
 20
37.42557563936791
 30
0.0
 10
46.40129238170865
 20
37.28434049602401
 30
0.0
 10
46.35214137413928
 20
37.14287181430381
 30
0.0
 10
46.30599800685426
 20
37.00128728278835
 30
0.0
 10
46.26290895236566
 20
36.8597044808483
 30
0.0
 10
46.22291916696271
 20
36.71824083033398
 30
0.0
 10
46.18607190834109
 20
36.57701356184654
 30
0.0
 10
46.15240875899667
 20
36.4361397001892
 30
0.0
 10
46.12196963908274
 20
36.2957360651492
 30
0.0
 10
46.09479285954491
 20
36.15591931629525
 30
0.0
 10
46.07091501226622
 20
36.01680594959036
 30
0.0
 10
46.05037143911481
 20
35.87851260535982
 30
0.0
 10
46.0331944859075
 20
35.74115535875439
 30
0.0
 10
46.01941995152183
 20
35.60485296959376
 30
0.0
 10
46.00906280703484
 20
35.46971550729473
 30
0.0
 10
46.00220755542083
 20
35.33588777793153
 30
0.0
 10
45.99929465296721
 20
35.22677948916101
 30
0.0
 10
45.99904799558645
 20
35.1624929489414
 30
0.0
 10
45.99896903710607
 20
35.14191392751044
 30
0.0
  0
SPLINE
  5
1E9
330
1F
100
AcDbEntity
  8
0
  6
Continuous
 62
     7
370
    25
100
AcDbSpline
210
0.0
220
0.0
230
1.0
 70
     8
 71
     3
 72
    80
 73
    76
 74
     0
 42
0.00000001
 43
0.00000001
 40
0.0
 40
0.0
 40
0.0
 40
0.0
 40
0.0071764035055602
 40
0.0208971245557086
 40
0.0346272149011921
 40
0.0483671397481236
 40
0.062117816148299
 40
0.07587983818701
 40
0.0896535318721952
 40
0.1034390018013973
 40
0.1172361706374974
 40
0.1310448123684012
 40
0.1448645802135475
 40
0.1586950299364742
 40
0.1725356392275453
 40
0.1863858237357696
 40
0.2002449502518903
 40
0.214112347477563
 40
0.2279873147555014
 40
0.2418691290835569
 40
0.2557570506904263
 40
0.2696503274117559
 40
0.2835481980717233
 40
0.2974498950474017
 40
0.3113546461688025
 40
0.3252616760884665
 40
0.3391702072380034
 40
0.3530794604767262
 40
0.3669886241643373
 40
0.3808966884087026
 40
0.394802871694595
 40
0.4087063924707505
 40
0.4226064696419159
 40
0.4365023233342238
 40
0.4503931760122016
 40
0.4642782540576132
 40
0.4781567899344089
 40
0.4920280250815465
 40
0.5058912136967657
 40
0.5197456275999767
 40
0.5335905623950091
 40
0.5474253451839441
 40
0.5612493441290648
 40
0.5750619802044598
 40
0.58886274153293
 40
0.6026512007642514
 40
0.6164270360184458
 40
0.6301900559923157
 40
0.6439402299089735
 40
0.6576777230773228
 40
0.6714029389195562
 40
0.6851165684174754
 40
0.6988196480171448
 40
0.7125136271094066
 40
0.7262004462592326
 40
0.7398826273715573
 40
0.7535633348790102
 40
0.7672452058094997
 40
0.7809328592593074
 40
0.7946319422434295
 40
0.8083492844263431
 40
0.8220930635073638
 40
0.8358729765859584
 40
0.8497004081699523
 40
0.8635885787305994
 40
0.8775526470819972
 40
0.8916097234433649
 40
0.9057787253462115
 40
0.9200799730228634
 40
0.9345343737427965
 40
0.9491619914465415
 40
0.96397976157584
 40
0.9789981485201344
 40
0.994216764276765
 40
1.0
 40
1.0
 40
1.0
 40
1.0
 10
46.85611189424893
 20
35.14191392751044
 30
0.0
 10
46.85619429556609
 20
35.16108864959117
 30
0.0
 10
46.85643424174344
 20
35.21692393746645
 30
0.0
 10
46.85911715088276
 20
35.31106225306959
 30
0.0
 10
46.86518026545378
 20
35.42490219405072
 30
0.0
 10
46.8743251673792
 20
35.54068761243173
 30
0.0
 10
46.88651211636734
 20
35.65824892449562
 30
0.0
 10
46.90176184612812
 20
35.77746374789086
 30
0.0
 10
46.92007278474075
 20
35.89819371207083
 30
0.0
 10
46.94144320166442
 20
36.02030130494796
 30
0.0
 10
46.96586528159206
 20
36.14364583590469
 30
0.0
 10
46.9933267617361
 20
36.26808496744692
 30
0.0
 10
47.02381056463899
 20
36.39347472107104
 30
0.0
 10
47.05729498741664
 20
36.51966986313229
 30
0.0
 10
47.09375375548203
 20
36.64652416198344
 30
0.0
 10
47.13315612246973
 20
36.77389065546397
 30
0.0
 10
47.17546696449636
 20
36.90162189397309
 30
0.0
 10
47.22064688023006
 20
37.02957017089813
 30
0.0
 10
47.26865229180351
 20
37.15758773955121
 30
0.0
 10
47.31943554646882
 20
37.28552701899817
 30
0.0
 10
47.37294501795659
 20
37.41324079013489
 30
0.0
 10
47.42912520705069
 20
37.5405823834782
 30
0.0
 10
47.48791684098367
 20
37.66740585995097
 30
0.0
 10
47.54925697142381
 20
37.7935661858415
 30
0.0
 10
47.61307907093587
 20
37.91891940300952
 30
0.0
 10
47.67931312788981
 20
38.04332279531456
 30
0.0
 10
47.74788573987443
 20
38.16663505217076
 30
0.0
 10
47.81872015247134
 20
38.28871633826647
 30
0.0
 10
47.89173599561821
 20
38.40942788835201
 30
0.0
 10
47.96684972268847
 20
38.5286328670434
 30
0.0
 10
48.04397476743081
 20
38.64619662679988
 30
0.0
 10
48.12302203440218
 20
38.76198740457586
 30
0.0
 10
48.20389958839687
 20
38.87587582207068
 30
0.0
 10
48.28651274475612
 20
38.98773504983087
 30
0.0
 10
48.37076416098614
 20
39.09744097427294
 30
0.0
 10
48.45655393028542
 20
39.20487236810906
 30
0.0
 10
48.54377967777543
 20
39.30991106478105
 30
0.0
 10
48.6323366603556
 20
39.4124421374742
 30
0.0
 10
48.72211787126594
 20
39.51235408326362
 30
0.0
 10
48.81301415062998
 20
39.60953901290257
 30
0.0
 10
48.9049143034696
 20
39.70389284669891
 30
0.0
 10
48.99770522693804
 20
39.79531551682861
 30
0.0
 10
49.09127204880833
 20
39.8837111762961
 30
0.0
 10
49.18549827958562
 20
39.96898841455583
 30
0.0
 10
49.28026598098455
 20
40.05106047954217
 30
0.0
 10
49.37545595392835
 20
40.12984550549794
 30
0.0
 10
49.47094794968287
 20
40.205266745521
 30
0.0
 10
49.56662090823446
 20
40.27725280713935
 30
0.0
 10
49.66235322854889
 20
40.3457378884444
 30
0.0
 10
49.75802307589788
 20
40.41066201132576
 30
0.0
 10
49.85350873199705
 20
40.47197124711481
 30
0.0
 10
49.94868899423521
 20
40.52961792841196
 30
0.0
 10
50.04344363076459
 20
40.58356083899098
 30
0.0
 10
50.13765389858057
 20
40.63376537137137
 30
0.0
 10
50.23120313199569
 20
40.68020363890231
 30
0.0
 10
50.32397731350899
 20
40.7228544820945
 30
0.0
 10
50.41586285388401
 20
40.76170219971746
 30
0.0
 10
50.50674993877246
 20
40.79673800453387
 30
0.0
 10
50.59653355177916
 20
40.82795990345718
 30
0.0
 10
50.68511729429689
 20
40.85537307398597
 30
0.0
 10
50.77241206909877
 20
40.87898821266737
 30
0.0
 10
50.85833729613618
 20
40.89882065791512
 30
0.0
 10
50.94282218216895
 20
40.91488919471789
 30
0.0
 10
51.0258069973173
 20
40.92721448186838
 30
0.0
 10
51.10724427660408
 20
40.93581703920452
 30
0.0
 10
51.18709982637148
 20
40.94071475840298
 30
0.0
 10
51.26535331119104
 20
40.94191987715077
 30
0.0
 10
51.34199823270935
 20
40.93943562995241
 30
0.0
 10
51.41704048410922
 20
40.93325213206682
 30
0.0
 10
51.4904964111477
 20
40.92334422447298
 30
0.0
 10
51.56238401577535
 20
40.90966314370215
 30
0.0
 10
51.63272819863047
 20
40.89215686382018
 30
0.0
 10
51.70149777904118
 20
40.87069278215485
 30
0.0
 10
51.75460451190507
 20
40.85070864690712
 30
0.0
 10
51.78469407062916
 20
40.83769232082065
 30
0.0
 10
51.79297976920562
 20
40.83410804244973
 30
0.0
  0
LINE
  5
1EA
330
1F
100
AcDbEntity
  8
0
  6
Continuous
 62
     7
370
    25
100
AcDbLine
 10
46.8561118942
 20
33.0422375541
 30
0.0
 11
46.8561118942
 21
35.1419139275
 31
0.0
  0
LINE
  5
1EB
330
1F
100
AcDbEntity
  8
0
  6
Continuous
 62
     7
370
    25
100
AcDbLine
 10
45.9989690371
 20
35.1419139275
 30
0.0
 11
45.9989690371
 21
33.0422375541
 31
0.0
  0
SPLINE
  5
1EC
330
1F
100
AcDbEntity
  8
0
  6
Continuous
 62
     7
370
    25
100
AcDbSpline
210
0.0
220
0.0
230
1.0
 70
     8
 71
     3
 72
    30
 73
    26
 74
     0
 42
0.00000001
 43
0.00000001
 40
0.0
 40
0.0
 40
0.0
 40
0.0
 40
0.0230614173192702
 40
0.0670981290406221
 40
0.1111063779447646
 40
0.1550979683762143
 40
0.1990827498894993
 40
0.2430693599106738
 40
0.2870714116466401
 40
0.3311063767942041
 40
0.3751954288517027
 40
0.419363969201689
 40
0.4636421761461695
 40
0.508065550423929
 40
0.5526754105272598
 40
0.5975192598269504
 40
0.6426508989480926
 40
0.6881300833255628
 40
0.7340214189770685
 40
0.7803920447451141
 40
0.8273074788734297
 40
0.874824870084937
 40
0.9229829454298476
 40
0.9717885070875828
 40
1.0
 40
1.0
 40
1.0
 40
1.0
 10
53.95658605440418
 20
41.90790102667267
 30
0.0
 10
53.94005233921391
 20
41.89845136635387
 30
0.0
 10
53.89194682427529
 20
41.87095719638666
 30
0.0
 10
53.81262542094028
 20
41.82823759629677
 30
0.0
 10
53.71893119751297
 20
41.7810205916316
 30
0.0
 10
53.62599757352746
 20
41.73763812157173
 30
0.0
 10
53.53392936494993
 20
41.69804303631356
 30
0.0
 10
53.44283881435645
 20
41.66226220485511
 30
0.0
 10
53.35283159167604
 20
41.63029446745918
 30
0.0
 10
53.26400594970128
 20
41.60213718192335
 30
0.0
 10
53.17645247556688
 20
41.57778034868045
 30
0.0
 10
53.09025352201601
 20
41.55720954033796
 30
0.0
 10
53.00548189508923
 20
41.54040651172727
 30
0.0
 10
52.92219958711247
 20
41.52735083290324
 30
0.0
 10
52.840456549264
 20
41.51802177520511
 30
0.0
 10
52.76028963250467
 20
41.51240071064269
 30
0.0
 10
52.68172190826292
 20
41.51047404635776
 30
0.0
 10
52.60476250623879
 20
41.5122364630994
 30
0.0
 10
52.52940787663881
 20
41.51769511847566
 30
0.0
 10
52.45564306999132
 20
41.5268714170566
 30
0.0
 10
52.3834510741509
 20
41.53981129244417
 30
0.0
 10
52.31280291719358
 20
41.55655888807306
 30
0.0
 10
52.24373530732133
 20
41.57725942351728
 30
0.0
 10
52.18590514411709
 20
41.59820494422732
 30
0.0
 10
52.15151545572139
 20
41.61294209956679
 30
0.0
 10
52.13891844774894
 20
41.61834034747083
 30
0.0
  0
SPLINE
  5
1ED
330
1F
100
AcDbEntity
  8
0
  6
Continuous
 62
     7
370
    25
100
AcDbSpline
210
0.0
220
0.0
230
1.0
 70
     8
 71
     3
 72
    32
 73
    28
 74
     0
 42
0.00000001
 43
0.00000001
 40
0.0
 40
0.0
 40
0.0
 40
0.0
 40
0.0231364918994912
 40
0.0622158169048156
 40
0.1013550638863749
 40
0.1406070642049863
 40
0.179999264447889
 40
0.2195557118503501
 40
0.2592964416417747
 40
0.299237014774182
 40
0.3393881913184308
 40
0.3797557671496475
 40
0.4203405952669339
 40
0.4611388020315231
 40
0.5021421935518974
 40
0.5433388304371786
 40
0.584713733047922
 40
0.6262496672157801
 40
0.6679279545313003
 40
0.7097292527195472
 40
0.7516342597365976
 40
0.7936243080705044
 40
0.8356818306466082
 40
0.8777906940915265
 40
0.9199364069191563
 40
0.9621062184174426
 40
1.0
 40
1.0
 40
1.0
 40
1.0
 10
51.79297976920561
 20
40.83410804244973
 30
0.0
 10
51.81048620733644
 20
40.82656232318992
 30
0.0
 10
51.85756237403167
 20
40.80627130024993
 30
0.0
 10
51.93586297286894
 20
40.77667810078773
 30
0.0
 10
52.02828886802882
 20
40.74638598426441
 30
0.0
 10
52.12264199851343
 20
40.72034599024767
 30
0.0
 10
52.21884194049318
 20
40.69850436890788
 30
0.0
 10
52.31683633663342
 20
40.6809125782377
 30
0.0
 10
52.41655645925731
 20
40.6675967240993
 30
0.0
 10
52.51793223759774
 20
40.6585900159218
 30
0.0
 10
52.62088667962399
 20
40.65392255700331
 30
0.0
 10
52.72533615738252
 20
40.65362239214257
 30
0.0
 10
52.83118952435871
 20
40.65771337914277
 30
0.0
 10
52.938348050164
 20
40.66621390512441
 30
0.0
 10
53.04670568195731
 20
40.67913550018951
 30
0.0
 10
53.15614975715964
 20
40.69648173518899
 30
0.0
 10
53.26656206920428
 20
40.71824741410953
 30
0.0
 10
53.37782020161256
 20
40.74441810932256
 30
0.0
 10
53.48979899990854
 20
40.77497012870754
 30
0.0
 10
53.60237208451164
 20
40.80987057792352
 30
0.0
 10
53.71541318360006
 20
40.84907863092717
 30
0.0
 10
53.82879759463098
 20
40.89254354790199
 30
0.0
 10
53.94240222644911
 20
40.94021577211772
 30
0.0
 10
54.05610977670321
 20
40.99200960802462
 30
0.0
 10
54.16979619084611
 20
41.04794708028945
 30
0.0
 10
54.27952817370151
 20
41.10560110553229
 30
0.0
 10
54.35120044968053
 20
41.14630733372471
 30
0.0
 10
54.38512265410535
 20
41.16557343034637
 30
0.0
  0
LINE
  5
1EE
330
1F
100
AcDbEntity
  8
0
  6
Continuous
 62
     7
370
    25
100
AcDbLine
 10
56.8198738836
 20
43.5608419066
 30
0.0
 11
53.9565860544
 21
41.9079010267
 31
0.0
  0
LINE
  5
1EF
330
1F
100
AcDbEntity
  8
0
  6
Continuous
 62
     7
370
    25
100
AcDbLine
 10
54.3851226541
 20
41.1655734303
 30
0.0
 11
57.2484104833
 21
42.8185143103
 31
0.0
  0
LINE
  5
1F0
330
1F
100
AcDbEntity
  8
0
  6
Continuous
 62
     7
370
    25
100
AcDbLine
 10
60.456423044
 20
45.6601770513
 30
0.0
 11
56.8198738836
 21
43.5608419066
 31
0.0
  0
LINE
  5
1F1
330
1F
100
AcDbEntity
  8
0
  6
Continuous
 62
     7
370
    25
100
AcDbLine
 10
57.2484104833
 20
42.8185143103
 30
0.0
 11
60.8849596437
 21
44.917849455
 31
0.0
  0
LINE
  5
1F2
330
1F
100
AcDbEntity
  8
0
  6
Continuous
 62
     7
370
    25
100
AcDbLine
 10
46.7278049065
 20
32.9745900273
 30
0.0
 11
46.7305924744
 21
32.9761997792
 31
0.0
  0
LINE
  5
1F3
330
1F
100
AcDbEntity
  8
0
  6
Continuous
 62
     7
370
    25
100
AcDbLine
 10
46.7690124318
 20
33.0427523087
 30
0.0
 11
46.7690124318
 21
33.0460082638
 31
0.0
  0
LWPOLYLINE
  5
1F4
330
1F
100
AcDbEntity
  8
0
  6
Continuous
 62
     7
370
    25
100
AcDbPolyline
 90
       23
 70
   128
 43
0.0
 10
63.1631338593
 20
43.7041374579
 10
63.161218884
 20
43.7206231767
 10
63.155629098
 20
43.7379843039
 10
63.1468173525
 20
43.7548143445
 10
63.1354975227
 20
43.7697498285
 10
63.122586674
 20
43.7815807718
 10
63.1091307664
 20
43.7893487019
 10
63.0962199177
 20
43.7924243072
 10
63.0849000879
 20
43.7905584205
 10
63.0760883424
 20
43.7839022047
 10
63.0704985564
 20
43.772994907
 10
63.0685835811
 20
43.7587201717
 10
63.0704985564
 20
43.7422344529
 10
63.0760883424
 20
43.7248733257
 10
63.0849000879
 20
43.7080432851
 10
63.0962199177
 20
43.6931078011
 10
63.1091307664
 20
43.6812768578
 10
63.122586674
 20
43.6735089277
 10
63.1354975227
 20
43.6704333224
 10
63.1468173525
 20
43.6722992091
 10
63.155629098
 20
43.6789554249
 10
63.161218884
 20
43.6898627226
 10
63.1631338593
 20
43.7041374579
  0
LWPOLYLINE
  5
1F5
330
1F
100
AcDbEntity
  8
0
  6
Continuous
 62
     7
370
    25
100
AcDbPolyline
 90
       16
 70
   128
 43
0.0
 10
63.2540475883
 20
43.7020381228
 10
63.2522308312
 20
43.7243874944
 10
63.2468503769
 20
43.7479755753
 10
63.2381129933
 20
43.7718958887
 10
63.226354453
 20
43.7952291904
 10
63.2120266302
 20
43.8170787947
 10
63.1956801351
 20
43.8366050336
 10
63.1779431544
 20
43.8530575247
 10
63.1594973101
 20
43.8658040079
 10
63.1410514659
 20
43.8743546431
 10
63.1233144852
 20
43.8783808341
 10
63.1069679901
 20
43.8777278567
 10
63.0926401673
 20
43.8724208045
 10
63.080881627
 20
43.8626636244
 10
63.0721442433
 20
43.8488312794
 10
63.0710584913
 20
43.8462924293
  0
ARC
  5
1F6
330
1F
100
AcDbEntity
  8
0
  6
Continuous
 62
     7
370
    25
100
AcDbCircle
 10
63.1975938473
 20
43.69229018
 30
0.0
 40
0.0572891548870928
100
AcDbArc
 50
265.3248099747
 51
9.7967364646
  0
LWPOLYLINE
  5
1F7
330
1F
100
AcDbEntity
  8
0
  6
Continuous
 62
     7
370
    25
100
AcDbPolyline
 90
       13
 70
   128
 43
0.0
 10
63.2631389612
 20
43.7072864606
 10
63.2613222041
 20
43.7296358322
 10
63.2559417498
 20
43.7532239131
 10
63.2472043662
 20
43.7771442265
 10
63.2354458259
 20
43.8004775283
 10
63.2211180031
 20
43.8223271326
 10
63.204771508
 20
43.8418533715
 10
63.1870345273
 20
43.8583058626
 10
63.168588683
 20
43.8710523458
 10
63.1501428388
 20
43.879602981
 10
63.1324058581
 20
43.883629172
 10
63.116059363
 20
43.8829761946
 10
63.1017369735
 20
43.8776722794
  0
ARC
  5
1F8
330
1F
100
AcDbEntity
  8
0
  6
Continuous
 62
     7
370
    25
100
AcDbCircle
 10
63.1976187068
 20
43.7000542912
 30
0.0
 40
0.0659181917859033
100
AcDbArc
 50
305.0133328764
 51
6.298847517
  0
LINE
  5
1F9
330
1F
100
AcDbEntity
  8
0
  6
Continuous
 62
     7
370
    25
100
AcDbLine
 10
63.1158587202
 20
43.769412608
 30
0.0
 11
63.144345022
 21
43.7339759194
 31
0.0
  0
LINE
  5
1FA
330
1F
100
AcDbEntity
  8
0
  6
Continuous
 62
     7
370
    25
100
AcDbLine
 10
63.0873724185
 20
43.7668655034
 30
0.0
 11
63.1158587202
 21
43.769412608
 31
0.0
  0
LINE
  5
1FB
330
1F
100
AcDbEntity
  8
0
  6
Continuous
 62
     7
370
    25
100
AcDbLine
 10
63.0873724185
 20
43.7288817102
 30
0.0
 11
63.0873724185
 21
43.7668655034
 31
0.0
  0
LINE
  5
1FC
330
1F
100
AcDbEntity
  8
0
  6
Continuous
 62
     7
370
    25
100
AcDbLine
 10
63.1158587202
 20
43.6934450216
 30
0.0
 11
63.0873724185
 21
43.7288817102
 31
0.0
  0
LINE
  5
1FD
330
1F
100
AcDbEntity
  8
0
  6
Continuous
 62
     7
370
    25
100
AcDbLine
 10
63.144345022
 20
43.6959921262
 30
0.0
 11
63.1158587202
 21
43.6934450216
 31
0.0
  0
LINE
  5
1FE
330
1F
100
AcDbEntity
  8
0
  6
Continuous
 62
     7
370
    25
100
AcDbLine
 10
63.144345022
 20
43.7339759194
 30
0.0
 11
63.144345022
 21
43.6959921262
 31
0.0
  0
ARC
  5
1FF
330
1F
100
AcDbEntity
  8
0
  6
Continuous
 62
     7
370
    25
100
AcDbCircle
 10
63.1760015462
 20
43.7630834858
 30
0.0
 40
0.0545454391146661
100
AcDbArc
 50
218.192681576
 51
234.523445121
  0
ARC
  5
200
330
1F
100
AcDbEntity
  8
0
  6
Continuous
 62
     7
370
    25
100
AcDbCircle
 10
63.1806579028
 20
43.7689151892
 30
0.0
 40
0.0618343169038568
100
AcDbArc
 50
182.6392873612
 51
219.7720723791
  0
LINE
  5
201
330
1F
100
AcDbEntity
  8
0
  6
Continuous
 62
     7
370
    25
100
AcDbLine
 10
63.144345022
 20
43.7098898136
 30
0.0
 11
63.1158587202
 21
43.6934450216
 31
0.0
  0
LINE
  5
202
330
1F
100
AcDbEntity
  8
0
  6
Continuous
 62
     7
370
    25
100
AcDbLine
 10
63.1188891778
 20
43.7470759481
 30
0.0
 11
63.0873724185
 21
43.7288817102
 31
0.0
  0
LINE
  5
203
330
1F
100
AcDbEntity
  8
0
  6
Continuous
 62
     7
370
    25
100
AcDbLine
 10
63.1188891778
 20
43.7470759481
 30
0.0
 11
63.1188891778
 21
43.7656427475
 31
0.0
  0
LINE
  5
204
330
1F
100
AcDbEntity
  8
0
  6
Continuous
 62
     7
370
    25
100
AcDbLine
 10
63.1331323287
 20
43.7293576038
 30
0.0
 11
63.1188891778
 21
43.7470759481
 31
0.0
  0
LINE
  5
205
330
1F
100
AcDbEntity
  8
0
  6
Continuous
 62
     7
370
    25
100
AcDbLine
 10
63.144345022
 20
43.71540912
 30
0.0
 11
63.1331323287
 21
43.7293576038
 31
0.0
  0
LWPOLYLINE
  5
206
330
1F
100
AcDbEntity
  8
0
  6
Continuous
 62
     7
370
    25
100
AcDbPolyline
 90
       23
 70
   128
 43
0.0
 10
63.1631338593
 20
46.6735282618
 10
63.161218884
 20
46.6900139805
 10
63.155629098
 20
46.7073751078
 10
63.1468173525
 20
46.7242051483
 10
63.1354975227
 20
46.7391406323
 10
63.122586674
 20
46.7509715757
 10
63.1091307664
 20
46.7587395058
 10
63.0962199177
 20
46.7618151111
 10
63.0849000879
 20
46.7599492243
 10
63.0760883424
 20
46.7532930086
 10
63.0704985564
 20
46.7423857109
 10
63.0685835811
 20
46.7281109756
 10
63.0704985564
 20
46.7116252568
 10
63.0760883424
 20
46.6942641295
 10
63.0849000879
 20
46.677434089
 10
63.0962199177
 20
46.662498605
 10
63.1091307664
 20
46.6506676616
 10
63.122586674
 20
46.6428997316
 10
63.1354975227
 20
46.6398241263
 10
63.1468173525
 20
46.641690013
 10
63.155629098
 20
46.6483462288
 10
63.161218884
 20
46.6592535265
 10
63.1631338593
 20
46.6735282618
  0
LWPOLYLINE
  5
207
330
1F
100
AcDbEntity
  8
0
  6
Continuous
 62
     7
370
    25
100
AcDbPolyline
 90
       16
 70
   128
 43
0.0
 10
63.2540475883
 20
46.6714289267
 10
63.2522308312
 20
46.6937782983
 10
63.2468503769
 20
46.7173663791
 10
63.2381129933
 20
46.7412866926
 10
63.226354453
 20
46.7646199943
 10
63.2120266302
 20
46.7864695986
 10
63.1956801351
 20
46.8059958375
 10
63.1779431544
 20
46.8224483286
 10
63.1594973101
 20
46.8351948118
 10
63.1410514659
 20
46.843745447
 10
63.1233144852
 20
46.847771638
 10
63.1069679901
 20
46.8471186606
 10
63.0926401673
 20
46.8418116084
 10
63.080881627
 20
46.8320544283
 10
63.0721442433
 20
46.8182220833
 10
63.0710584913
 20
46.8156832332
  0
ARC
  5
208
330
1F
100
AcDbEntity
  8
0
  6
Continuous
 62
     7
370
    25
100
AcDbCircle
 10
63.1975938473
 20
46.6616809839
 30
0.0
 40
0.0572891548870928
100
AcDbArc
 50
265.3248099747
 51
9.7967364646
  0
LWPOLYLINE
  5
209
330
1F
100
AcDbEntity
  8
0
  6
Continuous
 62
     7
370
    25
100
AcDbPolyline
 90
       13
 70
   128
 43
0.0
 10
63.2631389612
 20
46.6766772645
 10
63.2613222041
 20
46.6990266361
 10
63.2559417498
 20
46.722614717
 10
63.2472043662
 20
46.7465350304
 10
63.2354458259
 20
46.7698683321
 10
63.2211180031
 20
46.7917179365
 10
63.204771508
 20
46.8112441754
 10
63.1870345273
 20
46.8276966665
 10
63.168588683
 20
46.8404431497
 10
63.1501428388
 20
46.8489937849
 10
63.1324058581
 20
46.8530199759
 10
63.116059363
 20
46.8523669985
 10
63.1017369735
 20
46.8470630833
  0
ARC
  5
20A
330
1F
100
AcDbEntity
  8
0
  6
Continuous
 62
     7
370
    25
100
AcDbCircle
 10
63.1976187068
 20
46.6694450951
 30
0.0
 40
0.06591819180198
100
AcDbArc
 50
305.0133328847
 51
6.2988475087
  0
LINE
  5
20B
330
1F
100
AcDbEntity
  8
0
  6
Continuous
 62
     7
370
    25
100
AcDbLine
 10
63.1158587202
 20
46.7388034119
 30
0.0
 11
63.144345022
 21
46.7033667233
 31
0.0
  0
LINE
  5
20C
330
1F
100
AcDbEntity
  8
0
  6
Continuous
 62
     7
370
    25
100
AcDbLine
 10
63.0873724185
 20
46.7362563073
 30
0.0
 11
63.1158587202
 21
46.7388034119
 31
0.0
  0
LINE
  5
20D
330
1F
100
AcDbEntity
  8
0
  6
Continuous
 62
     7
370
    25
100
AcDbLine
 10
63.0873724185
 20
46.698272514
 30
0.0
 11
63.0873724185
 21
46.7362563073
 31
0.0
  0
LINE
  5
20E
330
1F
100
AcDbEntity
  8
0
  6
Continuous
 62
     7
370
    25
100
AcDbLine
 10
63.1158587202
 20
46.6628358255
 30
0.0
 11
63.0873724185
 21
46.698272514
 31
0.0
  0
LINE
  5
20F
330
1F
100
AcDbEntity
  8
0
  6
Continuous
 62
     7
370
    25
100
AcDbLine
 10
63.144345022
 20
46.6653829301
 30
0.0
 11
63.1158587202
 21
46.6628358255
 31
0.0
  0
LINE
  5
210
330
1F
100
AcDbEntity
  8
0
  6
Continuous
 62
     7
370
    25
100
AcDbLine
 10
63.144345022
 20
46.7033667233
 30
0.0
 11
63.144345022
 21
46.6653829301
 31
0.0
  0
ARC
  5
211
330
1F
100
AcDbEntity
  8
0
  6
Continuous
 62
     7
370
    25
100
AcDbCircle
 10
63.1760015462
 20
46.7324742897
 30
0.0
 40
0.0545454391152923
100
AcDbArc
 50
218.1926815761
 51
234.5234451209
  0
ARC
  5
212
330
1F
100
AcDbEntity
  8
0
  6
Continuous
 62
     7
370
    25
100
AcDbCircle
 10
63.1806579028
 20
46.7383059931
 30
0.0
 40
0.0618343169038559
100
AcDbArc
 50
182.6392873612
 51
219.7720723791
  0
LINE
  5
213
330
1F
100
AcDbEntity
  8
0
  6
Continuous
 62
     7
370
    25
100
AcDbLine
 10
63.144345022
 20
46.6792806174
 30
0.0
 11
63.1158587202
 21
46.6628358255
 31
0.0
  0
LINE
  5
214
330
1F
100
AcDbEntity
  8
0
  6
Continuous
 62
     7
370
    25
100
AcDbLine
 10
63.1188891778
 20
46.716466752
 30
0.0
 11
63.0873724185
 21
46.698272514
 31
0.0
  0
LINE
  5
215
330
1F
100
AcDbEntity
  8
0
  6
Continuous
 62
     7
370
    25
100
AcDbLine
 10
63.1188891778
 20
46.716466752
 30
0.0
 11
63.1188891778
 21
46.7350335514
 31
0.0
  0
LINE
  5
216
330
1F
100
AcDbEntity
  8
0
  6
Continuous
 62
     7
370
    25
100
AcDbLine
 10
63.1331323287
 20
46.6987484077
 30
0.0
 11
63.1188891778
 21
46.716466752
 31
0.0
  0
LINE
  5
217
330
1F
100
AcDbEntity
  8
0
  6
Continuous
 62
     7
370
    25
100
AcDbLine
 10
63.144345022
 20
46.6847999239
 30
0.0
 11
63.1331323287
 21
46.6987484077
 31
0.0
  0
LWPOLYLINE
  5
218
330
1F
100
AcDbEntity
  8
0
  6
Continuous
 62
     7
370
    25
100
AcDbPolyline
 90
       23
 70
   128
 43
0.0
 10
60.5917052879
 20
48.1579823786
 10
60.5897903126
 20
48.1744680973
 10
60.5842005266
 20
48.1918292246
 10
60.5753887811
 20
48.2086592651
 10
60.5640689513
 20
48.2235947491
 10
60.5511581026
 20
48.2354256925
 10
60.537702195
 20
48.2431936226
 10
60.5247913463
 20
48.2462692279
 10
60.5134715165
 20
48.2444033411
 10
60.504659771
 20
48.2377471254
 10
60.499069985
 20
48.2268398277
 10
60.4971550097
 20
48.2125650924
 10
60.499069985
 20
48.1960793736
 10
60.504659771
 20
48.1787182463
 10
60.5134715165
 20
48.1618882058
 10
60.5247913463
 20
48.1469527218
 10
60.537702195
 20
48.1351217784
 10
60.5511581026
 20
48.1273538484
 10
60.5640689513
 20
48.1242782431
 10
60.5753887811
 20
48.1261441298
 10
60.5842005266
 20
48.1328003456
 10
60.5897903126
 20
48.1437076433
 10
60.5917052879
 20
48.1579823786
  0
LWPOLYLINE
  5
219
330
1F
100
AcDbEntity
  8
0
  6
Continuous
 62
     7
370
    25
100
AcDbPolyline
 90
       16
 70
   128
 43
0.0
 10
60.6826190169
 20
48.1558830434
 10
60.6808022598
 20
48.1782324151
 10
60.6754218055
 20
48.2018204959
 10
60.6666844218
 20
48.2257408093
 10
60.6549258816
 20
48.2490741111
 10
60.6405980588
 20
48.2709237154
 10
60.6242515637
 20
48.2904499543
 10
60.6065145829
 20
48.3069024454
 10
60.5880687387
 20
48.3196489286
 10
60.5696228945
 20
48.3281995638
 10
60.5518859137
 20
48.3322257548
 10
60.5355394186
 20
48.3315727774
 10
60.5212115959
 20
48.3262657251
 10
60.5094530556
 20
48.316508545
 10
60.5007156719
 20
48.3026762001
 10
60.4996299198
 20
48.30013735
  0
ARC
  5
21A
330
1F
100
AcDbEntity
  8
0
  6
Continuous
 62
     7
370
    25
100
AcDbCircle
 10
60.6261652758
 20
48.1461351006
 30
0.0
 40
0.0572891548870788
100
AcDbArc
 50
265.3248099747
 51
9.7967364646
  0
LWPOLYLINE
  5
21B
330
1F
100
AcDbEntity
  8
0
  6
Continuous
 62
     7
370
    25
100
AcDbPolyline
 90
       13
 70
   128
 43
0.0
 10
60.6917103898
 20
48.1611313813
 10
60.6898936327
 20
48.1834807529
 10
60.6845131784
 20
48.2070688338
 10
60.6757757947
 20
48.2309891472
 10
60.6640172545
 20
48.2543224489
 10
60.6496894317
 20
48.2761720533
 10
60.6333429366
 20
48.2956982922
 10
60.6156059558
 20
48.3121507833
 10
60.5971601116
 20
48.3248972665
 10
60.5787142674
 20
48.3334479017
 10
60.5609772866
 20
48.3374740927
 10
60.5446307915
 20
48.3368211153
 10
60.5303084021
 20
48.3315172001
  0
ARC
  5
21C
330
1F
100
AcDbEntity
  8
0
  6
Continuous
 62
     7
370
    25
100
AcDbCircle
 10
60.6261901354
 20
48.1538992119
 30
0.0
 40
0.0659181917859432
100
AcDbArc
 50
305.0133328764
 51
6.298847517
  0
LINE
  5
21D
330
1F
100
AcDbEntity
  8
0
  6
Continuous
 62
     7
370
    25
100
AcDbLine
 10
60.5444301488
 20
48.2232575287
 30
0.0
 11
60.5729164505
 21
48.1878208401
 31
0.0
  0
LINE
  5
21E
330
1F
100
AcDbEntity
  8
0
  6
Continuous
 62
     7
370
    25
100
AcDbLine
 10
60.515943847
 20
48.220710424
 30
0.0
 11
60.5444301488
 21
48.2232575287
 31
0.0
  0
LINE
  5
21F
330
1F
100
AcDbEntity
  8
0
  6
Continuous
 62
     7
370
    25
100
AcDbLine
 10
60.515943847
 20
48.1827266308
 30
0.0
 11
60.515943847
 21
48.220710424
 31
0.0
  0
LINE
  5
220
330
1F
100
AcDbEntity
  8
0
  6
Continuous
 62
     7
370
    25
100
AcDbLine
 10
60.5444301488
 20
48.1472899423
 30
0.0
 11
60.515943847
 21
48.1827266308
 31
0.0
  0
LINE
  5
221
330
1F
100
AcDbEntity
  8
0
  6
Continuous
 62
     7
370
    25
100
AcDbLine
 10
60.5729164505
 20
48.1498370469
 30
0.0
 11
60.5444301488
 21
48.1472899423
 31
0.0
  0
LINE
  5
222
330
1F
100
AcDbEntity
  8
0
  6
Continuous
 62
     7
370
    25
100
AcDbLine
 10
60.5729164505
 20
48.1878208401
 30
0.0
 11
60.5729164505
 21
48.1498370469
 31
0.0
  0
ARC
  5
223
330
1F
100
AcDbEntity
  8
0
  6
Continuous
 62
     7
370
    25
100
AcDbCircle
 10
60.6045729748
 20
48.2169284065
 30
0.0
 40
0.0545454391153985
100
AcDbArc
 50
218.1926815761
 51
234.5234451209
  0
ARC
  5
224
330
1F
100
AcDbEntity
  8
0
  6
Continuous
 62
     7
370
    25
100
AcDbCircle
 10
60.6092293313
 20
48.2227601098
 30
0.0
 40
0.0618343169041535
100
AcDbArc
 50
182.6392873613
 51
219.772072379
  0
LINE
  5
225
330
1F
100
AcDbEntity
  8
0
  6
Continuous
 62
     7
370
    25
100
AcDbLine
 10
60.5729164505
 20
48.1637347342
 30
0.0
 11
60.5444301488
 21
48.1472899423
 31
0.0
  0
LINE
  5
226
330
1F
100
AcDbEntity
  8
0
  6
Continuous
 62
     7
370
    25
100
AcDbLine
 10
60.5474606064
 20
48.2009208688
 30
0.0
 11
60.515943847
 21
48.1827266308
 31
0.0
  0
LINE
  5
227
330
1F
100
AcDbEntity
  8
0
  6
Continuous
 62
     7
370
    25
100
AcDbLine
 10
60.5474606064
 20
48.2009208688
 30
0.0
 11
60.5474606064
 21
48.2194876682
 31
0.0
  0
LINE
  5
228
330
1F
100
AcDbEntity
  8
0
  6
Continuous
 62
     7
370
    25
100
AcDbLine
 10
60.5617037573
 20
48.1832025245
 30
0.0
 11
60.5474606064
 21
48.2009208688
 31
0.0
  0
LINE
  5
229
330
1F
100
AcDbEntity
  8
0
  6
Continuous
 62
     7
370
    25
100
AcDbLine
 10
60.5729164505
 20
48.1692540407
 30
0.0
 11
60.5617037573
 21
48.1832025245
 31
0.0
  0
LWPOLYLINE
  5
22A
330
1F
100
AcDbEntity
  8
0
  6
Continuous
 62
     7
370
    25
100
AcDbPolyline
 90
        3
 70
   128
 43
0.0
 10
63.1226828603
 20
43.9393018664
 10
63.0741067428
 20
43.9060247812
 10
63.0464113849
 20
43.8892810136
  0
LINE
  5
22B
330
1F
100
AcDbEntity
  8
0
  6
Continuous
 62
     7
370
    25
100
AcDbLine
 10
63.3406663722
 20
43.6385212854
 30
0.0
 11
63.3349491948
 21
43.6352480192
 31
0.0
  0
LWPOLYLINE
  5
22C
330
1F
100
AcDbEntity
  8
0
  6
Continuous
 62
     7
370
    25
100
AcDbPolyline
 90
       74
 70
   128
 43
0.0
 10
60.6692249846
 20
48.4800024746
 10
60.730395104
 20
48.5123302999
 10
60.7940452117
 20
48.5401030579
 10
60.8600558112
 20
48.5632686079
 10
60.9283029746
 20
48.5817834592
 10
60.998658575
 20
48.595612852
 10
61.070990527
 20
48.6047308231
 10
61.1451630349
 20
48.6091202544
 10
61.2210368478
 20
48.6087729054
 10
61.2984695202
 20
48.6036894279
 10
61.3773156807
 20
48.5938793659
 10
61.4574273036
 20
48.5793611366
 10
61.5386539878
 20
48.5601619965
 10
61.6208432387
 20
48.53631799
 10
61.7038407546
 20
48.5078738816
 10
61.7874907162
 20
48.4748830723
 10
61.8716360796
 20
48.4374074989
 10
61.9561188706
 20
48.3955175178
 10
62.0407804816
 20
48.349291773
 10
62.1254619692
 20
48.2988170487
 10
62.2100043529
 20
48.2441881057
 10
62.2942489131
 20
48.1855075043
 10
62.3780374895
 20
48.1228854111
 10
62.4612127777
 20
48.0564393926
 10
62.5436186249
 20
47.9862941942
 10
62.6251003226
 20
47.9125815062
 10
62.7055048976
 20
47.8354397165
 10
62.7846813987
 20
47.7550136508
 10
62.8624811801
 20
47.6714543005
 10
62.938758181
 20
47.5849185396
 10
63.0133691992
 20
47.4955688299
 10
63.0861741605
 20
47.4035729163
 10
63.1570363809
 20
47.3091035114
 10
63.2258228243
 20
47.2123379717
 10
63.2924043511
 20
47.1134579643
 10
63.3566559615
 20
47.0126491261
 10
63.4184570299
 20
46.9101007153
 10
63.4776915312
 20
46.8060052556
 10
63.5342482588
 20
46.7005581755
 10
63.5880210333
 20
46.5939574409
 10
63.6389089021
 20
46.4864031834
 10
63.6868163284
 20
46.378097325
 10
63.731653371
 20
46.2692431986
 10
63.7733358531
 20
46.1600451664
 10
63.8117855202
 20
46.0507082364
 10
63.8469301871
 20
45.9414376772
 10
63.8787038732
 20
45.8324386328
 10
63.9070469269
 20
45.7239157376
 10
63.931906137
 20
45.616072732
 10
63.953234833
 20
45.5091120799
 10
63.9709929724
 20
45.4032345888
 10
63.9851472162
 20
45.2986390327
 10
63.9956709913
 20
45.1955217786
 10
64.0025445404
 20
45.0940764187
 10
64.0057549591
 20
44.9944934057
 10
64.0052962202
 20
44.8969596966
 10
64.0011691849
 20
44.8016584006
 10
63.9933816013
 20
44.7087684359
 10
63.9819480898
 20
44.6184641939
 10
63.9668901157
 20
44.5309152111
 10
63.9482359486
 20
44.4462858518
 10
63.9260206098
 20
44.3647349986
 10
63.9002858063
 20
44.2864157548
 10
63.8710798526
 20
44.2114751566
 10
63.8384575797
 20
44.1400538972
 10
63.8024802325
 20
44.0722860624
 10
63.7632153548
 20
44.0082988794
 10
63.7207366623
 20
43.9482124773
 10
63.6751239042
 20
43.8921396621
 10
63.6264627138
 20
43.8401857046
 10
63.5748444473
 20
43.7924481431
 10
63.5203660127
 20
43.7490165997
 10
63.4631296875
 20
43.7099726126
 10
63.4333983758
 20
43.6920543316
  0
LWPOLYLINE
  5
22D
330
1F
100
AcDbEntity
  8
0
  6
Continuous
 62
     7
370
    25
100
AcDbPolyline
 90
       39
 70
   128
 43
0.0
 10
45.5032508874
 20
29.7608800575
 10
45.5631113846
 20
29.7284291285
 10
45.6263833884
 20
29.6982120691
 10
45.6928171932
 20
29.670348132
 10
45.7621506151
 20
29.6449472836
 10
45.8341100267
 20
29.6221097694
 10
45.9084114372
 20
29.6019257187
 10
45.9847616128
 20
29.5844747885
 10
46.0628592342
 20
29.5698258499
 10
46.1423960859
 20
29.5580367155
 10
46.2230582721
 20
29.5491539116
 10
46.3045274561
 20
29.5432124945
 10
46.3864821163
 20
29.5402359124
 10
46.468598815
 20
29.5402359124
 10
46.5505534752
 20
29.5432124945
 10
46.6320226593
 20
29.5491539116
 10
46.7126848455
 20
29.5580367155
 10
46.7922216971
 20
29.5698258499
 10
46.8703193186
 20
29.5844747885
 10
46.9466694942
 20
29.6019257187
 10
47.0209709046
 20
29.6221097694
 10
47.0929303163
 20
29.6449472836
 10
47.1622637382
 20
29.670348132
 10
47.228697543
 20
29.6982120691
 10
47.2919695468
 20
29.7284291285
 10
47.3518300439
 20
29.7608800575
 10
47.4080427924
 20
29.7954367869
 10
47.4603859461
 20
29.8319629372
 10
47.5086529306
 20
29.8703143564
 10
47.5526532581
 20
29.9103396889
 10
47.5922132794
 20
29.951880973
 10
47.6271768693
 20
29.9947742643
 10
47.6574060422
 20
30.0388502825
 10
47.6827814977
 20
30.0839350797
 10
47.7032030902
 20
30.1298507268
 10
47.7185902252
 20
30.1764160157
 10
47.7288821766
 20
30.2234471746
 10
47.7340383267
 20
30.2707585928
 10
47.7346833228
 20
30.2944610734
  0
LWPOLYLINE
  5
22E
330
1F
100
AcDbEntity
  8
0
  6
Continuous
 62
     7
370
    25
100
AcDbPolyline
 90
       14
 70
   128
 43
0.0
 10
45.1203976085
 20
30.2944610734
 10
45.1210426046
 20
30.2707585928
 10
45.1261987548
 20
30.2234471746
 10
45.1364907062
 20
30.1764160157
 10
45.1518778411
 20
30.1298507268
 10
45.1722994337
 20
30.0839350797
 10
45.1976748891
 20
30.0388502825
 10
45.2279040621
 20
29.9947742643
 10
45.2628676519
 20
29.951880973
 10
45.3024276732
 20
29.9103396889
 10
45.3464280007
 20
29.8703143564
 10
45.3946949852
 20
29.8319629372
 10
45.4470381389
 20
29.7954367869
 10
45.5032508874
 20
29.7608800575
  0
LWPOLYLINE
  5
22F
330
1F
100
AcDbEntity
  8
0
  6
Continuous
 62
     7
370
    25
100
AcDbPolyline
 90
       70
 70
   128
 43
0.0
 10
45.3025404657
 20
31.1336224188
 10
45.3024276732
 20
31.1335123388
 10
45.2628676519
 20
31.0919710547
 10
45.2279040621
 20
31.0490777634
 10
45.1976748891
 20
31.0050017453
 10
45.1722994337
 20
30.9599169481
 10
45.1518778411
 20
30.914001301
 10
45.1364907062
 20
30.867436012
 10
45.1261987548
 20
30.8204048532
 10
45.1210426046
 20
30.7730934349
 10
45.1210426046
 20
30.7256884737
 10
45.1261987548
 20
30.6783770555
 10
45.1364907062
 20
30.6313458966
 10
45.1518778411
 20
30.5847806077
 10
45.1722994337
 20
30.5388649606
 10
45.1976748891
 20
30.4937801634
 10
45.2279040621
 20
30.4497041452
 10
45.2628676519
 20
30.4068108539
 10
45.3024276732
 20
30.3652695698
 10
45.3464280007
 20
30.3252442373
 10
45.3946949852
 20
30.2868928182
 10
45.4470381389
 20
30.2503666678
 10
45.5032508874
 20
30.2158099384
 10
45.5631113846
 20
30.1833590094
 10
45.6263833884
 20
30.15314195
 10
45.6928171932
 20
30.1252780129
 10
45.7621506151
 20
30.0998771645
 10
45.8341100267
 20
30.0770396503
 10
45.9084114372
 20
30.0568555996
 10
45.9847616128
 20
30.0394046694
 10
46.0628592342
 20
30.0247557308
 10
46.1423960859
 20
30.0129665964
 10
46.2230582721
 20
30.0040837925
 10
46.3045274561
 20
29.9981423754
 10
46.3864821163
 20
29.9951657933
 10
46.468598815
 20
29.9951657933
 10
46.5505534752
 20
29.9981423754
 10
46.6320226593
 20
30.0040837925
 10
46.7126848455
 20
30.0129665964
 10
46.7922216971
 20
30.0247557308
 10
46.8703193186
 20
30.0394046694
 10
46.9466694942
 20
30.0568555996
 10
47.0209709046
 20
30.0770396503
 10
47.0929303163
 20
30.0998771645
 10
47.1622637382
 20
30.1252780129
 10
47.228697543
 20
30.15314195
 10
47.2919695468
 20
30.1833590094
 10
47.3518300439
 20
30.2158099384
 10
47.4080427924
 20
30.2503666678
 10
47.4603859461
 20
30.2868928182
 10
47.5086529306
 20
30.3252442373
 10
47.5526532581
 20
30.3652695698
 10
47.5922132794
 20
30.4068108539
 10
47.6271768693
 20
30.4497041452
 10
47.6574060422
 20
30.4937801634
 10
47.6827814977
 20
30.5388649606
 10
47.7032030902
 20
30.5847806077
 10
47.7185902252
 20
30.6313458966
 10
47.7288821766
 20
30.6783770555
 10
47.7340383267
 20
30.7256884737
 10
47.7340383267
 20
30.7730934349
 10
47.7288821766
 20
30.8204048532
 10
47.7185902252
 20
30.867436012
 10
47.7032030902
 20
30.914001301
 10
47.6827814977
 20
30.9599169481
 10
47.6574060422
 20
31.0050017453
 10
47.6271768693
 20
31.0490777634
 10
47.5922132794
 20
31.0919710547
 10
47.5526532581
 20
31.1335123388
 10
47.5525404657
 20
31.1336224188
  0
LWPOLYLINE
  5
230
330
1F
100
AcDbEntity
  8
0
  6
Continuous
 62
     7
370
    25
100
AcDbPolyline
 90
       50
 70
   128
 43
0.0
 10
48.2630863534
 20
27.8947880617
 10
48.2037872635
 20
27.7985872606
 10
48.1409483484
 20
27.7047042605
 10
48.0747017592
 20
27.6133364991
 10
48.0051868136
 20
27.5246761241
 10
47.9325497025
 20
27.4389095896
 10
47.856943183
 20
27.3562172639
 10
47.7785262567
 20
27.2767730505
 10
47.6974638356
 20
27.2007440216
 10
47.6139263953
 20
27.1282900674
 10
47.5280896163
 20
27.0595635598
 10
47.4401340146
 20
26.9947090317
 10
47.3502445624
 20
26.9338628732
 10
47.2586102984
 20
26.8771530446
 10
47.1654239309
 20
26.8246988077
 10
47.0708814324
 20
26.7766104745
 10
46.9751816272
 20
26.7329891754
 10
46.8785257734
 20
26.6939266469
 10
46.7811171399
 20
26.6595050379
 10
46.6831605784
 20
26.6297967377
 10
46.5848620932
 20
26.6048642232
 10
46.4864284075
 20
26.584759928
 10
46.3880665288
 20
26.5695261317
 10
46.2899833137
 20
26.5591948712
 10
46.1923850328
 20
26.5537878733
 10
46.0954769367
 20
26.553316509
 10
45.9994628247
 20
26.5577817695
 10
45.9045446159
 20
26.5671742644
 10
45.8109219248
 20
26.5814742412
 10
45.7187916414
 20
26.6006516266
 10
45.6283475171
 20
26.6246660905
 10
45.5397797573
 20
26.65346713
 10
45.4532746213
 20
26.686994176
 10
45.3690140308
 20
26.7251767207
 10
45.2871751871
 20
26.7679344657
 10
45.2079301987
 20
26.8151774906
 10
45.1314457189
 20
26.8668064426
 10
45.0578825957
 20
26.9227127454
 10
44.9873955336
 20
26.982778827
 10
44.920132768
 20
27.0468783676
 10
44.8562357534
 20
27.1148765649
 10
44.7958388664
 20
27.1866304175
 10
44.7390691225
 20
27.261989026
 10
44.6860459093
 20
27.3407939101
 10
44.6368807355
 20
27.4228793418
 10
44.5916769962
 20
27.5080726944
 10
44.5505297555
 20
27.5961948047
 10
44.5135255469
 20
27.6870603507
 10
44.4807421906
 20
27.7804782407
 10
44.4621349068
 20
27.841078112
  0
LWPOLYLINE
  5
231
330
1F
100
AcDbEntity
  8
0
  6
Continuous
 62
     7
370
    25
100
AcDbPolyline
 90
       38
 70
   128
 43
0.0
 10
47.5606551071
 20
31.1255919799
 10
47.6302938603
 20
31.0959306684
 10
47.7133654178
 20
31.0554498807
 10
47.7939285148
 20
31.0104376615
 10
47.8718137259
 20
30.9609886723
 10
47.9468572572
 20
30.9072069051
 10
48.018901291
 20
30.8492054636
 10
48.0877943176
 20
30.7871063259
 10
48.153391454
 20
30.7210400875
 10
48.2155547482
 20
30.6511456865
 10
48.27415347
 20
30.5775701121
 10
48.3290643853
 20
30.5004680948
 10
48.3801720155
 20
30.4200017813
 10
48.4273688807
 20
30.3363403936
 10
48.470555725
 20
30.2496598729
 10
48.5096417258
 20
30.1601425095
 10
48.5445446846
 20
30.0679765601
 10
48.5751912001
 20
29.9733558509
 10
48.601516822
 20
29.8764793707
 10
48.6234661873
 20
29.7775508524
 10
48.640993136
 20
29.6767783441
 10
48.6540608086
 20
29.574373772
 10
48.6626417238
 20
29.4705524945
 10
48.6667178357
 20
29.3655328493
 10
48.6662805721
 20
29.2595356944
 10
48.6613308527
 20
29.1527839434
 10
48.6518790867
 20
29.045502097
 10
48.6379451514
 20
28.9379157705
 10
48.6195583501
 20
28.8302512196
 10
48.5967573504
 20
28.7227348646
 10
48.5695901033
 20
28.615592814
 10
48.5381137419
 20
28.5090503892
 10
48.5023944614
 20
28.4033316506
 10
48.4625073802
 20
28.2986589264
 10
48.4185363812
 20
28.1952523448
 10
48.3705739362
 20
28.0933293716
 10
48.318720911
 20
27.9931043523
 10
48.2630863534
 20
27.8947880617
  0
LWPOLYLINE
  5
232
330
1F
100
AcDbEntity
  8
0
  6
Continuous
 62
     7
370
    25
100
AcDbPolyline
 90
        3
 70
   128
 43
0.0
 10
49.1889285538
 20
32.1567910852
 10
49.1520505986
 20
32.1649233432
 10
49.0600206609
 20
32.1831560446
  0
LWPOLYLINE
  5
233
330
1F
100
AcDbEntity
  8
0
  6
Continuous
 62
     7
370
    25
100
AcDbPolyline
 90
        3
 70
   128
 43
0.0
 10
44.7174078528
 20
25.1631719507
 10
44.7319858058
 20
25.143876725
 10
44.8009919078
 20
25.0566073047
  0
LWPOLYLINE
  5
234
330
1F
100
AcDbEntity
  8
0
  6
Continuous
 62
     7
370
    25
100
AcDbPolyline
 90
       49
 70
   128
 43
0.0
 10
51.2331192659
 20
26.1194878288
 10
51.1530211293
 20
25.9880767515
 10
51.069357124
 20
25.8589247471
 10
50.9822216939
 20
25.7321776088
 10
50.8917132018
 20
25.6079784148
 10
50.7979338179
 20
25.4864673672
 10
50.7009894051
 20
25.3677816337
 10
50.6009893989
 20
25.2520551924
 10
50.4980466842
 20
25.1394186809
 10
50.3922774676
 20
25.0299992488
 10
50.2838011466
 20
24.9239204141
 10
50.1727401746
 20
24.8213019236
 10
50.0592199225
 20
24.7222596182
 10
49.9433685375
 20
24.6269053016
 10
49.8253167983
 20
24.5353466143
 10
49.7051979674
 20
24.4476869123
 10
49.5831476408
 20
24.36402515
 10
49.4593035948
 20
24.284455769
 10
49.3338056306
 20
24.2090685909
 10
49.2067954163
 20
24.1379487166
 10
49.0784163273
 20
24.0711764296
 10
48.9488132841
 20
24.0088271056
 10
48.8181325889
 20
23.9509711276
 10
48.6865217604
 20
23.8976738063
 10
48.5541293673
 20
23.8489953062
 10
48.4211048605
 20
23.804990578
 10
48.2875984046
 20
23.7657092964
 10
48.1537607082
 20
23.731195804
 10
48.0197428536
 20
23.7014890613
 10
47.8856961269
 20
23.6766226027
 10
47.7517718463
 20
23.6566244986
 10
47.6181211922
 20
23.641517324
 10
47.4848950359
 20
23.6313181325
 10
47.3522437695
 20
23.6260384374
 10
47.2203171362
 20
23.6256841987
 10
47.0892640613
 20
23.6302558164
 10
46.9592324837
 20
23.6397481297
 10
46.8303691895
 20
23.6541504233
 10
46.7028196457
 20
23.6734464391
 10
46.5767278365
 20
23.6976143949
 10
46.4522361004
 20
23.7266270088
 10
46.3294849697
 20
23.7604515298
 10
46.208613012
 20
23.7990497752
 10
46.0897566732
 20
23.8423781734
 10
45.9730501242
 20
23.8903878133
 10
45.8586251091
 20
23.9430244992
 10
45.7466107962
 20
24.0002288123
 10
45.6371336329
 20
24.0619361776
 10
45.5846911187
 20
24.0936487733
  0
LWPOLYLINE
  5
235
330
1F
100
AcDbEntity
  8
0
  6
Continuous
 62
     7
370
    25
100
AcDbPolyline
 90
       48
 70
   128
 43
0.0
 10
50.4036411755
 20
31.8849425554
 10
50.4049470764
 20
31.8841343956
 10
50.5103877303
 20
31.8158046285
 10
50.6129879512
 20
31.7431553124
 10
50.7126319191
 20
31.6662684574
 10
50.8092071509
 20
31.5852308572
 10
50.9026046278
 20
31.5001339909
 10
50.9927189183
 20
31.4110739199
 10
51.079448297
 20
31.3181511797
 10
51.1626948595
 20
31.2214706658
 10
51.242364633
 20
31.121141516
 10
51.3183676826
 20
31.0172769867
 10
51.3906182121
 20
30.9099943252
 10
51.4590346619
 20
30.7994146373
 10
51.5235397999
 20
30.6856627509
 10
51.5840608098
 20
30.5688670744
 10
51.6405293724
 20
30.4491594526
 10
51.6928817433
 20
30.3266750172
 10
51.7410588246
 20
30.2015520346
 10
51.7850062316
 20
30.0739317497
 10
51.8246743545
 20
29.9439582264
 10
51.8600184139
 20
29.8117781853
 10
51.8909985117
 20
29.6775408374
 10
51.9175796761
 20
29.5413977165
 10
51.939731901
 20
29.4035025075
 10
51.9574301798
 20
29.2640108732
 10
51.970654534
 20
29.1230802785
 10
51.9793900351
 20
28.9808698128
 10
51.9836268222
 20
28.8375400101
 10
51.9833601125
 20
28.6932526679
 10
51.9785902071
 20
28.548170665
 10
51.9693224906
 20
28.4024577769
 10
51.9555674248
 20
28.2562784913
 10
51.937340537
 20
28.1097978226
 10
51.9146624026
 20
27.9631811251
 10
51.8875586219
 20
27.8165939071
 10
51.8560597909
 20
27.6702016431
 10
51.820201467
 20
27.524169588
 10
51.7800241289
 20
27.3786625898
 10
51.7355731305
 20
27.2338449037
 10
51.6868986505
 20
27.0898800072
 10
51.6340556349
 20
26.9469304147
 10
51.5771037354
 20
26.8051574946
 10
51.5161072422
 20
26.6647212872
 10
51.451135011
 20
26.5257803235
 10
51.3822603856
 20
26.388491447
 10
51.3095611151
 20
26.253009636
 10
51.2331192659
 20
26.1194878288
  0
LWPOLYLINE
  5
236
330
1F
100
AcDbEntity
  8
0
  6
Continuous
 62
     7
370
    25
100
AcDbPolyline
 90
       75
 70
   128
 43
0.0
 10
51.1278626279
 20
26.1845895303
 10
51.0477644913
 20
26.0531784529
 10
50.9641004859
 20
25.9240264486
 10
50.8769650558
 20
25.7972793102
 10
50.7864565637
 20
25.6730801163
 10
50.6926771798
 20
25.5515690687
 10
50.595732767
 20
25.4328833352
 10
50.4957327608
 20
25.3171568939
 10
50.3927900461
 20
25.2045203824
 10
50.2870208295
 20
25.0951009503
 10
50.1785445085
 20
24.9890221156
 10
50.0674835365
 20
24.8864036251
 10
49.9539632844
 20
24.7873613197
 10
49.8381118994
 20
24.6920070031
 10
49.7200601602
 20
24.6004483158
 10
49.5999413294
 20
24.5127886137
 10
49.4778910028
 20
24.4291268515
 10
49.3540469568
 20
24.3495574704
 10
49.2285489925
 20
24.2741702924
 10
49.1015387783
 20
24.2030504181
 10
48.9731596893
 20
24.136278131
 10
48.843556646
 20
24.0739288071
 10
48.7128759508
 20
24.0160728291
 10
48.5812651223
 20
23.9627755078
 10
48.4488727292
 20
23.9140970077
 10
48.3158482224
 20
23.8700922795
 10
48.1823417665
 20
23.8308109979
 10
48.0485040701
 20
23.7962975055
 10
47.9144862155
 20
23.7665907628
 10
47.7804394888
 20
23.7417243042
 10
47.6465152082
 20
23.7217262001
 10
47.5128645541
 20
23.7066190255
 10
47.3796383978
 20
23.696419834
 10
47.2469871314
 20
23.6911401389
 10
47.1150604982
 20
23.6907859002
 10
46.9840074232
 20
23.6953575179
 10
46.8539758456
 20
23.7048498312
 10
46.7251125514
 20
23.7192521248
 10
46.5975630076
 20
23.7385481406
 10
46.4714711984
 20
23.7627160964
 10
46.3469794623
 20
23.7917287103
 10
46.2242283317
 20
23.8255532313
 10
46.1033563739
 20
23.8641514767
 10
45.9845000351
 20
23.9074798749
 10
45.8677934861
 20
23.9554895148
 10
45.753368471
 20
24.0081262007
 10
45.6413541582
 20
24.0653305138
 10
45.5318769948
 20
24.1270378791
 10
45.4250605642
 20
24.1931786383
 10
45.3210254457
 20
24.2636781285
 10
45.2198890794
 20
24.3384567665
 10
45.1217656328
 20
24.4174301385
 10
45.0267658724
 20
24.5005090956
 10
44.9349970386
 20
24.5875998541
 10
44.8465627246
 20
24.6786041019
 10
44.7615627591
 20
24.7734191088
 10
44.6800930944
 20
24.8719378432
 10
44.6022456974
 20
24.9740490923
 10
44.5281084458
 20
25.079637588
 10
44.4577650296
 20
25.1885841368
 10
44.3912948557
 20
25.3007657546
 10
44.3287729589
 20
25.4160558053
 10
44.270269917
 20
25.534324144
 10
44.215851771
 20
25.6554372636
 10
44.1655799507
 20
25.7792584457
 10
44.1195112055
 20
25.9056479151
 10
44.0776975399
 20
26.034462997
 10
44.0401861553
 20
26.1655582789
 10
44.0070193964
 20
26.2987857739
 10
43.9782347033
 20
26.4339950885
 10
43.9538645696
 20
26.5710335918
 10
43.9339365056
 20
26.7097465881
 10
43.918473007
 20
26.8499774914
 10
43.9074915297
 20
26.9915680023
 10
43.9022588767
 20
27.0971096495
  0
LWPOLYLINE
  5
237
330
1F
100
AcDbEntity
  8
0
  6
Continuous
 62
     7
370
    25
100
AcDbPolyline
 90
       69
 70
   128
 43
0.0
 10
47.5525404657
 20
32.265881117
 10
47.6623641305
 20
32.2958390153
 10
47.796310808
 20
32.3279536648
 10
47.9303620155
 20
32.3552441166
 10
48.0643664293
 20
32.3776795639
 10
48.1981727788
 20
32.3952346806
 10
48.331630017
 20
32.4078896495
 10
48.4645874908
 20
32.4156301851
 10
48.5968951113
 20
32.4184475495
 10
48.7284035234
 20
32.4163385624
 10
48.8589642738
 20
32.4093056045
 10
48.9884299794
 20
32.3973566148
 10
49.116654493
 20
32.3805050821
 10
49.2434930685
 20
32.3587700291
 10
49.3688025243
 20
32.3321759914
 10
49.4924414051
 20
32.3007529897
 10
49.6142701413
 20
32.2645364958
 10
49.7341512067
 20
32.2235673926
 10
49.8519492737
 20
32.177891928
 10
49.9675313663
 20
32.1275616627
 10
50.0807670096
 20
32.0726334119
 10
50.1915283779
 20
32.0131691813
 10
50.2996904383
 20
31.9492360971
 10
50.4051310922
 20
31.88090633
 10
50.5077313132
 20
31.8082570139
 10
50.607375281
 20
31.7313701589
 10
50.7039505128
 20
31.6503325587
 10
50.7973479897
 20
31.5652356924
 10
50.8874622802
 20
31.4761756214
 10
50.9741916589
 20
31.3832528812
 10
51.0574382214
 20
31.2865723673
 10
51.137107995
 20
31.1862432175
 10
51.2131110445
 20
31.0823786882
 10
51.2853615741
 20
30.9750960267
 10
51.3537780238
 20
30.8645163388
 10
51.4182831618
 20
30.7507644523
 10
51.4788041717
 20
30.6339687759
 10
51.5352727343
 20
30.5142611541
 10
51.5876251052
 20
30.3917767187
 10
51.6358021865
 20
30.2666537361
 10
51.6797495936
 20
30.1390334512
 10
51.7194177165
 20
30.0090599279
 10
51.7547617759
 20
29.8768798868
 10
51.7857418737
 20
29.7426425389
 10
51.8123230381
 20
29.606499418
 10
51.8344752629
 20
29.468604209
 10
51.8521735418
 20
29.3291125747
 10
51.8653978959
 20
29.18818198
 10
51.874133397
 20
29.0459715143
 10
51.8783701841
 20
28.9026417115
 10
51.8781034744
 20
28.7583543694
 10
51.8733335691
 20
28.6132723665
 10
51.8640658525
 20
28.4675594784
 10
51.8503107867
 20
28.3213801928
 10
51.8320838989
 20
28.1748995241
 10
51.8094057646
 20
28.0282828266
 10
51.7823019839
 20
27.8816956086
 10
51.7508031529
 20
27.7353033446
 10
51.714944829
 20
27.5892712895
 10
51.6747674908
 20
27.4437642913
 10
51.6303164924
 20
27.2989466052
 10
51.5816420124
 20
27.1549817087
 10
51.5287989968
 20
27.0120321162
 10
51.4718470973
 20
26.8702591961
 10
51.4108506041
 20
26.7298229887
 10
51.3458783729
 20
26.590882025
 10
51.2770037475
 20
26.4535931485
 10
51.204304477
 20
26.3181113375
 10
51.1278626279
 20
26.1845895303
  0
LWPOLYLINE
  5
238
330
1F
100
AcDbEntity
  8
0
  6
Continuous
 62
     7
370
    25
100
AcDbPolyline
 90
       42
 70
   128
 43
0.0
 10
46.9408610476
 20
33.1216399201
 10
46.9520051859
 20
33.0917400471
 10
46.9579369581
 20
33.0613481961
 10
46.9585974117
 20
33.0307664149
 10
46.9539799827
 20
33.000298639
 10
46.9441305613
 20
32.970247671
 10
46.9291470355
 20
32.9409121707
 10
46.9091783182
 20
32.9125836876
 10
46.8844228676
 20
32.8855437629
 10
46.8551267144
 20
32.8600611315
 10
46.8215810169
 20
32.8363890512
 10
46.7841191674
 20
32.8147627858
 10
46.7431134786
 20
32.7953972669
 10
46.6989714834
 20
32.7784849576
 10
46.6521318848
 20
32.7641939401
 10
46.6030601957
 20
32.752666245
 10
46.5522441128
 20
32.7440164397
 10
46.500188669
 20
32.7383304898
 10
46.4474112146
 20
32.7356649048
 10
46.3944362759
 20
32.7360461765
 10
46.3417903415
 20
32.7394705157
 10
46.2899966303
 20
32.7459038898
 10
46.2395698915
 20
32.7552823609
 10
46.1910112888
 20
32.7675127217
 10
46.1448034193
 20
32.7824734213
 10
46.1014055176
 20
32.8000157735
 10
46.0612488915
 20
32.8199654346
 10
46.0247326357
 20
32.8421241359
 10
45.992219665
 20
32.8662716543
 10
45.964033108
 20
32.8921680008
 10
45.9404530954
 20
32.919555806
 10
45.9217139759
 20
32.9481628775
 10
45.9080019873
 20
32.9777049054
 10
45.8994534056
 20
33.0078882877
 10
45.8961531902
 20
33.0384130485
 10
45.8981341404
 20
33.068975819
 10
45.9053765685
 20
33.0992728525
 10
45.9178084959
 20
33.1290030437
 10
45.9353063687
 20
33.1578709204
 10
45.9576962851
 20
33.1855895808
 10
45.9847557241
 20
33.2118835443
 10
45.9989690371
 20
33.2236408436
  0
ARC
  5
239
330
1F
100
AcDbEntity
  8
0
  6
Continuous
 62
     7
370
    25
100
AcDbCircle
 10
46.6824413255
 20
32.9931357013
 30
0.0
 40
0.288607150039456
100
AcDbArc
 50
26.4397527879
 51
53.0043624395
  0
LINE
  5
23A
330
1F
100
AcDbEntity
  8
0
  6
Continuous
 62
     7
370
    25
100
AcDbLine
 10
45.5930973042
 20
32.78473253
 30
0.0
 11
46.2039520944
 21
32.4320935657
 31
0.0
  0
ARC
  5
23B
330
1F
100
AcDbEntity
  8
0
  6
Continuous
 62
     7
370
    25
100
AcDbCircle
 10
46.2252463341
 20
32.3988037043
 30
0.0
 40
0.0395178379089527
100
AcDbArc
 50
122.60547834
 51
177.3945215144
  0
LINE
  5
23C
330
1F
100
AcDbEntity
  8
0
  6
Continuous
 62
     7
370
    25
100
AcDbLine
 10
46.1857693486
 20
32.4006001262
 30
0.0
 11
45.5749145584
 21
32.7532390905
 31
0.0
  0
ARC
  5
23D
330
1F
100
AcDbEntity
  8
0
  6
Continuous
 62
     7
370
    25
100
AcDbCircle
 10
45.6143915438
 20
32.7514426686
 30
0.0
 40
0.0395178379091346
100
AcDbArc
 50
122.6054783401
 51
177.3945215142
  0
LINE
  5
23E
330
1F
100
AcDbEntity
  8
0
  6
Continuous
 62
     7
370
    25
100
AcDbLine
 10
45.5749145584
 20
32.7532390905
 30
0.0
 11
45.5749145584
 21
32.4907795438
 31
0.0
  0
LINE
  5
23F
330
1F
100
AcDbEntity
  8
0
  6
Continuous
 62
     7
370
    25
100
AcDbLine
 10
46.1857693486
 20
32.1381405795
 30
0.0
 11
46.1857693486
 21
32.4006001262
 31
0.0
  0
LINE
  5
240
330
1F
100
AcDbEntity
  8
0
  6
Continuous
 62
     7
370
    25
100
AcDbLine
 10
45.5749145584
 20
32.4907795438
 30
0.0
 11
46.1857693486
 21
32.1381405795
 31
0.0
  0
LWPOLYLINE
  5
241
330
1F
100
AcDbEntity
  8
0
  6
Continuous
 62
     7
370
    25
100
AcDbPolyline
 90
       33
 70
   128
 43
0.0
 10
45.8961118942
 20
32.9138073492
 10
45.8981341404
 20
32.8870690844
 10
45.9053765685
 20
32.8567720508
 10
45.9178084959
 20
32.8270418596
 10
45.9353063687
 20
32.7981739829
 10
45.9576962851
 20
32.7704553225
 10
45.9847557241
 20
32.744161359
 10
46.0162157567
 20
32.7195534135
 10
46.0517637191
 20
32.696876051
 10
46.0910463196
 20
32.6763546491
 10
46.1336731502
 20
32.6581931588
 10
46.1792205661
 20
32.6425720772
 10
46.2272358967
 20
32.6296466536
 10
46.2772419442
 20
32.6195453467
 10
46.3287417259
 20
32.6123685477
 10
46.3812234138
 20
32.608187583
 10
46.4341654214
 20
32.6070440048
 10
46.4870415873
 20
32.6089491785
 10
46.5393264042
 20
32.6138841697
 10
46.5905002423
 20
32.6217999323
 10
46.6400545129
 20
32.6326177957
 10
46.6874967234
 20
32.6462302472
 10
46.7323553719
 20
32.6625020002
 10
46.7741846328
 20
32.6812713386
 10
46.8125687883
 20
32.7023517244
 10
46.8471263593
 20
32.7255336512
 10
46.8775138973
 20
32.7505867266
 10
46.9034293971
 20
32.7772619619
 10
46.9246152989
 20
32.8052942466
 10
46.9408610476
 20
32.8344049832
 10
46.9520051859
 20
32.8643048562
 10
46.9579369581
 20
32.8946967073
 10
46.9589690371
 20
32.9138073492
  0
LINE
  5
242
330
1F
100
AcDbEntity
  8
0
  6
Continuous
 62
     7
370
    25
100
AcDbLine
 10
45.8166856754
 20
33.2664463135
 30
0.0
 11
45.5930973042
 21
32.78473253
 31
0.0
  0
LINE
  5
243
330
1F
100
AcDbEntity
  8
0
  6
Continuous
 62
     7
370
    25
100
AcDbLine
 10
47.0383952559
 20
32.561168385
 30
0.0
 11
47.2619836272
 21
33.0428821685
 31
0.0
  0
LINE
  5
244
330
1F
100
AcDbEntity
  8
0
  6
Continuous
 62
     7
370
    25
100
AcDbLine
 10
46.2039520944
 20
32.4320935657
 30
0.0
 11
47.0383952559
 21
32.561168385
 31
0.0
  0
ARC
  5
245
330
1F
100
AcDbEntity
  8
0
  6
Continuous
 62
     7
370
    25
100
AcDbCircle
 10
46.2039084467
 20
32.4356581039
 30
0.0
 40
0.0394726320681113
100
AcDbArc
 50
242.6428251549
 51
279.7710969793
  0
ARC
  5
246
330
1F
100
AcDbEntity
  8
0
  6
Continuous
 62
     7
370
    25
100
AcDbCircle
 10
46.1125131271
 20
32.3965767724
 30
0.0
 40
0.0980944817839801
100
AcDbArc
 50
0.1058974041
 51
21.2272035635
  0
LINE
  5
247
330
1F
100
AcDbEntity
  8
0
  6
Continuous
 62
     7
370
    25
100
AcDbLine
 10
47.0450506028
 20
32.5258328955
 30
0.0
 11
46.2106074413
 21
32.3967580763
 31
0.0
  0
ARC
  5
248
330
1F
100
AcDbEntity
  8
0
  6
Continuous
 62
     7
370
    25
100
AcDbCircle
 10
46.9469562886
 20
32.5256515917
 30
0.0
 40
0.0980944817840236
100
AcDbArc
 50
0.1058974041
 51
21.2272035634
  0
ARC
  5
249
330
1F
100
AcDbEntity
  8
0
  6
Continuous
 62
     7
370
    25
100
AcDbCircle
 10
45.5803073913
 20
32.502599332
 30
0.0
 40
0.0129919220546403
100
AcDbArc
 50
185.8452026488
 51
245.4749383089
  0
ARC
  5
24A
330
1F
100
AcDbEntity
  8
0
  6
Continuous
 62
     7
370
    25
100
AcDbCircle
 10
46.2039084467
 20
32.1731985573
 30
0.0
 40
0.0394726320681023
100
AcDbArc
 50
242.6428251549
 51
279.7710969793
  0
LINE
  5
24B
330
1F
100
AcDbEntity
  8
0
  6
Continuous
 62
     7
370
    25
100
AcDbLine
 10
46.2106074413
 20
32.1342985296
 30
0.0
 11
47.0450506028
 21
32.2633733489
 31
0.0
  0
ARC
  5
24C
330
1F
100
AcDbEntity
  8
0
  6
Continuous
 62
     7
370
    25
100
AcDbCircle
 10
47.0436447312
 20
32.2868054178
 30
0.0
 40
0.0234742055778348
100
AcDbArc
 50
273.4335023279
 51
326.5611211394
  0
LINE
  5
24D
330
1F
100
AcDbEntity
  8
0
  6
Continuous
 62
     7
370
    25
100
AcDbLine
 10
47.0632333486
 20
32.2738700246
 30
0.0
 11
47.2868217199
 21
32.7555838082
 31
0.0
  0
LWPOLYLINE
  5
24E
330
1F
100
AcDbEntity
  8
0
  6
Continuous
 62
     7
370
    25
100
AcDbPolyline
 90
        3
 70
   128
 43
0.0
 10
47.2876979129
 20
32.7594258581
 10
47.2874779236
 20
32.7574882567
 10
47.2868217199
 20
32.7555838082
  0
LWPOLYLINE
  5
24F
330
1F
100
AcDbEntity
  8
0
  6
Continuous
 62
     7
370
    25
100
AcDbPolyline
 90
       14
 70
   128
 43
0.0
 10
47.0593908823
 20
32.2655915574
 10
47.1081848211
 20
32.2961253039
 10
47.15256452
 20
32.3288266325
 10
47.1922421597
 20
32.3634834626
 10
47.2269604155
 20
32.3998710314
 10
47.2564941262
 20
32.4377533514
 10
47.2806517543
 20
32.4768847414
 10
47.2992766283
 20
32.5170114191
 10
47.3122479587
 20
32.5578731478
 10
47.3194816216
 20
32.5992049234
 10
47.3209307039
 20
32.6407386936
 10
47.3165858076
 20
32.6822050958
 10
47.3064751111
 20
32.7233352045
 10
47.2906641862
 20
32.7638622753
  0
ARC
  5
250
330
1F
100
AcDbEntity
  8
0
  6
Continuous
 62
     7
370
    25
100
AcDbCircle
 10
46.4298334023
 20
33.4788384357
 30
0.0
 40
1.366861590767404
100
AcDbArc
 50
260.1611424839
 51
297.4249353818
  0
LWPOLYLINE
  5
251
330
1F
100
AcDbEntity
  8
0
  6
Continuous
 62
     7
370
    25
100
AcDbPolyline
 90
       14
 70
   128
 43
0.0
 10
45.5644167452
 20
32.4968398024
 10
45.5858253587
 20
32.4571786032
 10
45.6126928176
 20
32.4186404938
 10
45.6448448762
 20
32.3814754084
 10
45.682073016
 20
32.3459243771
 10
45.7241357984
 20
32.3122179617
 10
45.7707604299
 20
32.2805747615
 10
45.8216445319
 20
32.2511999946
 10
45.8764581016
 20
32.2242841678
 10
45.9348456519
 20
32.2000018404
 10
45.9964285172
 20
32.1785104927
 10
46.0608073088
 20
32.1599495044
 10
46.1275645057
 20
32.1444392505
 10
46.1962671618
 20
32.132080321
  0
ARC
  5
252
330
1F
100
AcDbEntity
  8
0
  6
Continuous
 62
     7
370
    25
100
AcDbCircle
 10
45.8456995385
 20
32.6305704633
 30
0.0
 40
0.3114544902419465
100
AcDbArc
 50
151.690166201
 51
205.4278800364
  0
LINE
  5
253
330
1F
100
AcDbEntity
  8
0
  6
Continuous
 62
     7
370
    25
100
AcDbLine
 10
47.2906641862
 20
32.7638622753
 30
0.0
 11
47.2876979129
 21
32.7700964812
 31
0.0
  0
ARC
  5
254
330
1F
100
AcDbEntity
  8
0
  6
Continuous
 62
     7
370
    25
100
AcDbCircle
 10
47.0188865612
 20
32.5080482512
 30
0.0
 40
0.3022253856355853
100
AcDbArc
 50
346.0278177116
 51
359.9661914781
  0
LWPOLYLINE
  5
255
330
1F
100
AcDbEntity
  8
0
  6
Continuous
 62
     7
370
    25
100
AcDbPolyline
 90
        3
 70
   128
 43
0.0
 10
45.5339690371
 20
32.5078699171
 10
45.5361723472
 20
32.47166714
 10
45.5425065671
 20
32.4367324775
  0
LINE
  5
256
330
1F
100
AcDbEntity
  8
0
  6
Continuous
 62
     7
370
    25
100
AcDbLine
 10
46.2106074413
 20
32.3967580763
 30
0.0
 11
46.2106074413
 21
32.1342985296
 31
0.0
  0
LINE
  5
257
330
1F
100
AcDbEntity
  8
0
  6
Continuous
 62
     7
370
    25
100
AcDbLine
 10
47.0450506028
 20
32.2633733489
 30
0.0
 11
47.0450506028
 21
32.5258328955
 31
0.0
  0
ARC
  5
258
330
1F
100
AcDbEntity
  8
0
  6
Continuous
 62
     7
370
    25
100
AcDbCircle
 10
47.0354644882
 20
32.5333996096
 30
0.0
 40
0.0279230063323448
100
AcDbArc
 50
6.0231347519
 51
83.9752020255
  0
ARC
  5
259
330
1F
100
AcDbEntity
  8
0
  6
Continuous
 62
     7
370
    25
100
AcDbCircle
 10
47.0436447312
 20
32.5492649644
 30
0.0
 40
0.0234742055778387
100
AcDbArc
 50
273.4335023279
 51
326.5611211394
  0
LINE
  5
25A
330
1F
100
AcDbEntity
  8
0
  6
Continuous
 62
     7
370
    25
100
AcDbLine
 10
47.2868217199
 20
33.0180433548
 30
0.0
 11
47.0632333486
 21
32.5363295713
 31
0.0
  0
ARC
  5
25B
330
1F
100
AcDbEntity
  8
0
  6
Continuous
 62
     7
370
    25
100
AcDbCircle
 10
47.2590528595
 20
33.0151133932
 30
0.0
 40
0.0279230063323221
100
AcDbArc
 50
6.0231347519
 51
83.9752020255
  0
LINE
  5
25C
330
1F
100
AcDbEntity
  8
0
  6
Continuous
 62
     7
370
    25
100
AcDbLine
 10
47.0632333486
 20
32.5363295713
 30
0.0
 11
47.0632333486
 21
32.2738700246
 31
0.0
  0
LINE
  5
25D
330
1F
100
AcDbEntity
  8
0
  6
Continuous
 62
     7
370
    25
100
AcDbLine
 10
47.2868217199
 20
32.7555838082
 30
0.0
 11
47.2868217199
 21
33.0180433548
 31
0.0
  0
SPLINE
  5
25E
330
1F
100
AcDbEntity
  8
0
  6
Continuous
 62
     7
370
    25
100
AcDbSpline
210
0.0
220
0.0
230
1.0
 70
     8
 71
     3
 72
    24
 73
    20
 74
     0
 42
0.00000001
 43
0.00000001
 40
0.0
 40
0.0
 40
0.0
 40
0.0
 40
0.0603157989473799
 40
0.1206180245128696
 40
0.1812719316115336
 40
0.2421598791532614
 40
0.3026682827426382
 40
0.3627808233795559
 40
0.4230872765661265
 40
0.483879881076135
 40
0.5447010683840275
 40
0.605036414671551
 40
0.665132823938615
 40
0.7256061878928034
 40
0.7864863710874864
 40
0.8471715036941607
 40
0.9073689750526375
 40
0.9675409415055334
 40
1.0
 40
1.0
 40
1.0
 40
1.0
 10
46.76898480532136
 20
33.04598723765827
 30
0.0
 10
46.76859720085503
 20
33.05101393106412
 30
0.0
 10
46.76782207914832
 20
33.06106618667587
 30
0.0
 10
46.76167551250269
 20
33.07068559980549
 30
0.0
 10
46.75227302162593
 20
33.07497256311029
 30
0.0
 10
46.739949023238
 20
33.07329488386913
 30
0.0
 10
46.72601076708369
 20
33.06604164033765
 30
0.0
 10
46.71200763584564
 20
33.05410738816123
 30
0.0
 10
46.69961039277252
 20
33.03871695231329
 30
0.0
 10
46.69046466232232
 20
33.02132307880118
 30
0.0
 10
46.68597508091007
 20
33.00372288353136
 30
0.0
 10
46.68683775231381
 20
32.98788681216947
 30
0.0
 10
46.69284875894672
 20
32.97557943887342
 30
0.0
 10
46.70313097044119
 20
32.96822217409913
 30
0.0
 10
46.71626878209894
 20
32.96687517938533
 30
0.0
 10
46.73052835678936
 20
32.97188171703574
 30
0.0
 10
46.74392506322155
 20
32.98276520688891
 30
0.0
 10
46.75401954824716
 20
32.99550754312582
 30
0.0
 10
46.75802788498602
 20
33.00469128742134
 30
0.0
 10
46.75943245582766
 20
33.00790938517484
 30
0.0
  0
LWPOLYLINE
  5
25F
330
1F
100
AcDbEntity
  8
0
  6
Continuous
 62
     7
370
    25
100
AcDbPolyline
 90
       30
 70
   128
 43
0.0
 10
45.9989690371
 20
33.0422375541
 10
46.0009610064
 20
33.0184113418
 10
46.0080903891
 20
32.9914654275
 10
46.0203113276
 20
32.965135818
 10
46.0374754761
 20
32.9397421191
 10
46.0593744852
 20
32.915592576
 10
46.0857425306
 20
32.8929803314
 10
46.1162595399
 20
32.8721798672
 10
46.150555078
 20
32.853443673
 10
46.1882128435
 20
32.8369991808
 10
46.2287757221
 20
32.8230460044
 10
46.2717513354
 20
32.8117535165
 10
46.3166180178
 20
32.8032587925
 10
46.3628311484
 20
32.797664947
 10
46.4098297624
 20
32.7950398817
 10
46.4570433604
 20
32.7954154612
 10
46.5038988332
 20
32.7987871266
 10
46.5498274189
 20
32.8051139504
 10
46.5942716066
 20
32.8143191336
 10
46.6366919042
 20
32.8262909376
 10
46.6765733866
 20
32.840884041
 10
46.7134319466
 20
32.8579213032
 10
46.7468201714
 20
32.8771959151
 10
46.7763327731
 20
32.898473909
 10
46.8016115086
 20
32.9214969987
 10
46.8223495284
 20
32.9459857152
 10
46.838295101
 20
32.9716427986
 10
46.8492546688
 20
32.9981568068
 10
46.8550951974
 20
33.0252058955
 10
46.8561118942
 20
33.0422375541
  0
SPLINE
  5
260
330
1F
100
AcDbEntity
  8
0
  6
Continuous
 62
     7
370
    25
100
AcDbSpline
210
0.0
220
0.0
230
1.0
 70
    11
 71
     3
 72
    26
 73
    22
 74
     0
 42
0.00000001
 43
0.00000001
 40
0.0
 40
0.0
 40
0.0
 40
0.0
 40
0.0533523293338622
 40
0.1066929484900628
 40
0.1603384707460858
 40
0.214195449445304
 40
0.2677171366855052
 40
0.3208792056823321
 40
0.3742182572953172
 40
0.427993144642402
 40
0.4817867193100492
 40
0.5351555990550538
 40
0.588319380680732
 40
0.6418074525900654
 40
0.6956547967512766
 40
0.7493347445872672
 40
0.8025744086015807
 40
0.8557908972612883
 40
0.9094334248801228
 40
0.9632905742426433
 40
1.0
 40
1.0
 40
1.0
 40
1.0
 10
57.24566812630489
 20
42.96190024528428
 30
0.0
 10
57.24515363833081
 20
42.95635176806002
 30
0.0
 10
57.2441247753064
 20
42.94525603143376
 30
0.0
 10
57.23621386864725
 20
42.92751495947427
 30
0.0
 10
57.22483809844253
 20
42.91123490561741
 30
0.0
 10
57.21108135049364
 20
42.89786323124056
 30
0.0
 10
57.19691748410038
 20
42.88889528014241
 30
0.0
 10
57.18397242625763
 20
42.88526681395329
 30
0.0
 10
57.17345562599625
 20
42.88742424419927
 30
0.0
 10
57.16620920335365
 20
42.89535878219193
 30
0.0
 10
57.16280002074818
 20
42.90840516583694
 30
0.0
 10
57.16344734731441
 20
42.92511193548012
 30
0.0
 10
57.16805965782775
 20
42.94354769056103
 30
0.0
 10
57.17635600957978
 20
42.96162606934024
 30
0.0
 10
57.18778901759567
 20
42.9771726219018
 30
0.0
 10
57.20133364597276
 20
42.98818377272093
 30
0.0
 10
57.21549994251284
 20
42.99334477584394
 30
0.0
 10
57.22865856767145
 20
42.99223546249652
 30
0.0
 10
57.23903436703576
 20
42.98507595198203
 30
0.0
 10
57.24481556768522
 20
42.9741914507097
 30
0.0
 10
57.24542222812192
 20
42.96544532126029
 30
0.0
 10
57.24566812630489
 20
42.96190024528428
 30
0.0
  0
LWPOLYLINE
  5
261
330
1F
100
AcDbEntity
  8
0
  6
Continuous
 62
     7
370
    25
100
AcDbPolyline
 90
       30
 70
   128
 43
0.0
 10
56.8198738836
 20
43.5608419066
 10
56.8414887949
 20
43.5710237348
 10
56.8683918614
 20
43.5783268452
 10
56.8973069122
 20
43.5809122865
 10
56.9278829579
 20
43.5787486748
 10
56.9597488466
 20
43.5718622735
 10
56.9925177697
 20
43.5603366742
 10
57.0257919568
 20
43.5443117819
 10
57.0591675043
 20
43.5239821173
 10
57.0922392783
 20
43.4995944549
 10
57.1246058323
 20
43.4714448278
 10
57.1558742801
 20
43.4398749345
 10
57.1856650652
 20
43.4052679906
 10
57.2136165677
 20
43.3680440776
 10
57.2393894944
 20
43.3286550434
 10
57.2626709967
 20
43.2875790174
 10
57.2831784688
 20
43.2453146071
 10
57.3006629778
 20
43.2023748449
 10
57.3149122853
 20
43.1592809617
 10
57.3257534242
 20
43.1165560586
 10
57.3330547976
 20
43.0747187581
 10
57.3367277768
 20
43.0342769084
 10
57.3367277768
 20
42.9957214188
 10
57.3330547976
 20
42.9595203006
 10
57.3257534242
 20
42.9261129865
 10
57.3149122853
 20
42.8959049959
 10
57.3006629778
 20
42.8692630129
 10
57.2831784688
 20
42.8465104351
 10
57.2626709967
 20
42.8279234481
 10
57.2484104833
 20
42.8185143103
  0
LWPOLYLINE
  5
262
330
1F
100
AcDbEntity
  8
0
  6
Continuous
 62
     7
370
    25
100
AcDbPolyline
 90
       25
 70
   128
 43
0.0
 10
56.9798128774
 20
43.5653181723
 10
57.012940028
 20
43.5510063889
 10
57.046324544
 20
43.5323085696
 10
57.0795611827
 20
43.5094516807
 10
57.1122464963
 20
43.4827131738
 10
57.1439837293
 20
43.4524176181
 10
57.1743876348
 20
43.4189327607
 10
57.2030891504
 20
43.3826650624
 10
57.2297398788
 20
43.3440547639
 10
57.2540163161
 20
43.303570542
 10
57.2756237792
 20
43.2617038202
 10
57.2942999829
 20
43.2189628038
 10
57.3098182234
 20
43.1758663108
 10
57.3219901301
 20
43.1329374744
 10
57.3306679527
 20
43.0906973924
 10
57.3357463542
 20
43.0496588023
 10
57.3371636896
 20
43.0103198568
 10
57.3349027544
 20
42.9731580775
 10
57.3289909932
 20
42.9386245582
 10
57.319500167
 20
42.9071384888
 10
57.3065454814
 20
42.8790820677
 10
57.2902841887
 20
42.8547958617
 10
57.2709136791
 20
42.8345746726
 10
57.2486690843
 20
42.8186639582
 10
57.2484104833
 20
42.8185143103
  0
ARC
  5
263
330
1F
100
AcDbEntity
  8
0
  6
Continuous
 62
     7
370
    25
100
AcDbCircle
 10
56.9045472862
 20
43.3950073628
 30
0.0
 40
0.1862006472149301
100
AcDbArc
 50
66.1578885908
 51
117.048386366
  0
LWPOLYLINE
  5
264
330
1F
100
AcDbEntity
  8
0
  6
Continuous
 62
     7
370
    25
100
AcDbPolyline
 90
       25
 70
   128
 43
0.0
 10
60.6163620378
 20
45.6646533169
 10
60.6494891884
 20
45.6503415335
 10
60.6828737044
 20
45.6316437143
 10
60.7161103431
 20
45.6087868254
 10
60.7487956567
 20
45.5820483184
 10
60.7805328897
 20
45.5517527628
 10
60.8109367952
 20
45.5182679054
 10
60.8396383108
 20
45.4820002071
 10
60.8662890392
 20
45.4433899086
 10
60.8905654764
 20
45.4029056867
 10
60.9121729396
 20
45.3610389648
 10
60.9308491433
 20
45.3182979484
 10
60.9463673837
 20
45.2752014555
 10
60.9585392905
 20
45.2322726191
 10
60.9672171131
 20
45.1900325371
 10
60.9722955146
 20
45.148993947
 10
60.97371285
 20
45.1096550015
 10
60.9714519148
 20
45.0724932222
 10
60.9655401536
 20
45.0379597028
 10
60.9560493274
 20
45.0064736335
 10
60.9430946418
 20
44.9784172123
 10
60.9268333491
 20
44.9541310064
 10
60.9074628395
 20
44.9339098173
 10
60.8852182447
 20
44.9179991029
 10
60.8849596437
 20
44.917849455
  0
ARC
  5
265
330
1F
100
AcDbEntity
  8
0
  6
Continuous
 62
     7
370
    25
100
AcDbCircle
 10
60.5410964466
 20
45.4943425075
 30
0.0
 40
0.1862006472149481
100
AcDbArc
 50
66.1578885908
 51
117.048386366
  0
LWPOLYLINE
  5
266
330
1F
100
AcDbEntity
  8
0
  6
Continuous
 62
     7
370
    25
100
AcDbPolyline
 90
       21
 70
   128
 43
0.0
 10
46.7161577495
 20
33.0533662509
 10
46.7058584463
 20
33.0402590461
 10
46.6979796707
 20
33.0252244752
 10
46.6932926523
 20
33.0097342265
 10
46.692256189
 20
32.9953045937
 10
46.6949717371
 20
32.9833480497
 10
46.7011734797
 20
32.9750349844
 10
46.7102543473
 20
32.9711791384
 10
46.721325441
 20
32.9721579489
 10
46.7333030453
 20
32.9778756031
 10
46.7450147086
 20
32.9877724171
 10
46.7553140118
 20
33.0008796218
 10
46.7631927873
 20
33.0159141928
 10
46.7678798058
 20
33.0314044414
 10
46.7689162691
 20
33.0458340742
 10
46.766200721
 20
33.0577906182
 10
46.7599989783
 20
33.0661036835
 10
46.7509181108
 20
33.0699595295
 10
46.7398470171
 20
33.068980719
 10
46.7278694128
 20
33.0632630649
 10
46.7161577495
 20
33.0533662509
  0
LINE
  5
267
330
1F
100
AcDbEntity
  8
0
  6
Continuous
 62
     7
370
    25
100
AcDbLine
 10
46.7138025695
 20
32.9860250575
 30
0.0
 11
46.7408348466
 21
32.9972735282
 31
0.0
  0
LINE
  5
268
330
1F
100
AcDbEntity
  8
0
  6
Continuous
 62
     7
370
    25
100
AcDbLine
 10
46.7576185061
 20
33.0318178046
 30
0.0
 11
46.7408348466
 21
32.9972735282
 31
0.0
  0
LINE
  5
269
330
1F
100
AcDbEntity
  8
0
  6
Continuous
 62
     7
370
    25
100
AcDbLine
 10
46.7473698885
 20
33.0551136104
 30
0.0
 11
46.7576185061
 21
33.0318178046
 31
0.0
  0
LINE
  5
26A
330
1F
100
AcDbEntity
  8
0
  6
Continuous
 62
     7
370
    25
100
AcDbLine
 10
46.7473698885
 20
33.0551136104
 30
0.0
 11
46.7203376115
 21
33.0438651397
 31
0.0
  0
LINE
  5
26B
330
1F
100
AcDbEntity
  8
0
  6
Continuous
 62
     7
370
    25
100
AcDbLine
 10
46.703553952
 20
33.0093208633
 30
0.0
 11
46.7203376115
 21
33.0438651397
 31
0.0
  0
LINE
  5
26C
330
1F
100
AcDbEntity
  8
0
  6
Continuous
 62
     7
370
    25
100
AcDbLine
 10
46.703553952
 20
33.0093208633
 30
0.0
 11
46.7138025695
 21
32.9860250575
 31
0.0
  0
LINE
  5
26D
330
1F
100
AcDbEntity
  8
0
  6
Continuous
 62
     7
370
    25
100
AcDbLine
 10
46.7298750228
 20
33.0478337766
 30
0.0
 11
46.7576185061
 21
33.0318178046
 31
0.0
  0
LINE
  5
26E
330
1F
100
AcDbEntity
  8
0
  6
Continuous
 62
     7
370
    25
100
AcDbLine
 10
46.7071488978
 20
33.0167200125
 30
0.0
 11
46.7408348466
 21
32.9972735282
 31
0.0
  0
LWPOLYLINE
  5
26F
330
1F
100
AcDbEntity
  8
0
  6
Continuous
 62
     7
370
    25
100
AcDbPolyline
 90
       72
 70
   128
 43
0.0
 10
60.0064056296
 20
46.4395898577
 10
60.0489890278
 20
46.4612129893
 10
60.0939776715
 20
46.4783011079
 10
60.1411975083
 20
46.4907881028
 10
60.1904658539
 20
46.4986256643
 10
60.2415920987
 20
46.5017834704
 10
60.2943784451
 20
46.500249304
 10
60.348620673
 20
46.4940291007
 10
60.4041089297
 20
46.4831469252
 10
60.460628542
 20
46.4676448785
 10
60.5179608465
 20
46.447582935
 10
60.5758840356
 20
46.4230387105
 10
60.6341740157
 20
46.3941071618
 10
60.6926052744
 20
46.3609002194
 10
60.7509517522
 20
46.3235463546
 10
60.8089877182
 20
46.2821900822
 10
60.8664886423
 20
46.2369914016
 10
60.9232320647
 20
46.1881251777
 10
60.9789984562
 20
46.1357804644
 10
61.0335720673
 20
46.0801597733
 10
61.0867417634
 20
46.02147829
 10
61.1383018412
 20
45.9599630418
 10
61.1880528249
 20
45.8958520192
 10
61.2358022375
 20
45.8293932552
 10
61.2813653458
 20
45.7608438661
 10
61.3245658751
 20
45.6904690559
 10
61.3652366908
 20
45.6185410912
 10
61.4032204455
 20
45.5453382474
 10
61.4383701875
 20
45.4711437319
 10
61.4705499291
 20
45.396244589
 10
61.4996351732
 20
45.3209305889
 10
61.5255133947
 20
45.2454931068
 10
61.5480844757
 20
45.1702239958
 10
61.5672610932
 20
45.0954144572
 10
61.5829690565
 20
45.0213539148
 10
61.5951475945
 20
44.9483288944
 10
61.6037495909
 20
44.8766219156
 10
61.6087417662
 20
44.8065103988
 10
61.6101048066
 20
44.7382655917
 10
61.6078334389
 20
44.6721515204
 10
61.6019364504
 20
44.6084239673
 10
61.5924366555
 20
44.5473294819
 10
61.5793708071
 20
44.4891044269
 10
61.5627894544
 20
44.4339740638
 10
61.5427567474
 20
44.3821516812
 10
61.5193501887
 20
44.3338377699
 10
61.4926603339
 20
44.289219247
 10
61.4627904407
 20
44.2484687328
 10
61.42985607
 20
44.2117438832
 10
61.3939846384
 20
44.1791867796
 10
61.3553149256
 20
44.1509233789
 10
61.3139965372
 20
44.1270630269
 10
61.2701893259
 20
44.1076980346
 10
61.2240627734
 20
44.0929033214
 10
61.1757953344
 20
44.0827361252
 10
61.1255737461
 20
44.0772357808
 10
61.0735923062
 20
44.076423568
 10
61.0200521207
 20
44.0803026292
 10
60.9651603263
 20
44.088857957
 10
60.9091292885
 20
44.1020564524
 10
60.8521757807
 20
44.1198470532
 10
60.7945201449
 20
44.1421609308
 10
60.7363854395
 20
44.1689117573
 10
60.6779965763
 20
44.1999960388
 10
60.6195794507
 20
44.2352935164
 10
60.561360067
 20
44.274667631
 10
60.5035636649
 20
44.3179660517
 10
60.4464138472
 20
44.3650212654
 10
60.3901317156
 20
44.4156512246
 10
60.3349350147
 20
44.4696600518
 10
60.2810372898
 20
44.5268387974
 10
60.2561342311
 20
44.5548362713
  0
LWPOLYLINE
  5
270
330
1F
100
AcDbEntity
  8
0
  6
Continuous
 62
     7
370
    25
100
AcDbPolyline
 90
       21
 70
   128
 43
0.0
 10
59.8275976314
 20
45.2971638676
 10
59.8041645982
 20
45.37020723
 10
59.783280647
 20
45.4452828702
 10
59.7658299154
 20
45.5197539337
 10
59.7518799169
 20
45.5933323062
 10
59.7414846213
 20
45.6657333275
 10
59.734684246
 20
45.736676892
 10
59.7315051003
 20
45.8058885328
 10
59.7319594838
 20
45.8731004836
 10
59.7360456384
 20
45.9380527144
 10
59.7437477557
 20
46.0004939376
 10
59.7550360377
 20
46.0601825802
 10
59.7698668122
 20
46.1168877185
 10
59.7881827018
 20
46.1703899713
 10
59.8099128459
 20
46.2204823489
 10
59.8349731747
 20
46.2669710534
 10
59.8632667349
 20
46.3096762292
 10
59.8946840639
 20
46.3484326583
 10
59.9291036144
 20
46.3830903994
 10
59.9663922238
 20
46.4135153687
 10
60.0064056296
 20
46.4395898577
  0
LWPOLYLINE
  5
271
330
1F
100
AcDbEntity
  8
0
  6
Continuous
 62
     7
370
    25
100
AcDbPolyline
 90
       69
 70
   128
 43
0.0
 10
60.2283057523
 20
47.8048357046
 10
60.2854355933
 20
47.8348256295
 10
60.3450406366
 20
47.8602491193
 10
60.4069917909
 20
47.8810511124
 10
60.4711548839
 20
47.8971865562
 10
60.5373909525
 20
47.908620505
 10
60.6055565441
 20
47.9153281955
 10
60.6755040274
 20
47.9172951001
 10
60.7470819115
 20
47.9145169592
 10
60.8201351748
 20
47.9069997895
 10
60.8945056001
 20
47.8947598715
 10
60.9700321177
 20
47.8778237141
 10
61.046551154
 20
47.8562279973
 10
61.1238969857
 20
47.8300194927
 10
61.201902099
 20
47.799254962
 10
61.2803975522
 20
47.7640010343
 10
61.3592133416
 20
47.7243340618
 10
61.4381787698
 20
47.6803399542
 10
61.5171228152
 20
47.6321139932
 10
61.5958745027
 20
47.5797606253
 10
61.6742632735
 20
47.5233932362
 10
61.7521193552
 20
47.4631339053
 10
61.8292741287
 20
47.3991131408
 10
61.9055604939
 20
47.3314695973
 10
61.9808132317
 20
47.2603497758
 10
62.0548693613
 20
47.185907706
 10
62.1275684936
 20
47.1083046128
 10
62.1987531786
 20
47.0277085672
 10
62.268269246
 20
46.9442941223
 10
62.3359661395
 20
46.8582419353
 10
62.4016972427
 20
46.7697383759
 10
62.4653201967
 20
46.6789751232
 10
62.5266972083
 20
46.5861487503
 10
62.5856953487
 20
46.4914602983
 10
62.6421868408
 20
46.3951148413
 10
62.6960493369
 20
46.2973210422
 10
62.7471661826
 20
46.1982907005
 10
62.7954266704
 20
46.098238294
 10
62.8407262786
 20
45.9973805138
 10
62.8829668985
 20
45.8959357955
 10
62.9220570463
 20
45.7941238457
 10
62.9579120614
 20
45.6921651664
 10
62.9904542899
 20
45.5902805774
 10
63.0196132524
 20
45.4886907381
 10
63.0453257973
 20
45.3876156694
 10
63.0675362368
 20
45.2872742774
 10
63.0861964681
 20
45.1878838792
 10
63.1012660773
 20
45.0896597324
 10
63.112712427
 20
44.9928145684
 10
63.1205107269
 20
44.8975581325
 10
63.1246440876
 20
44.8040967288
 10
63.1251035572
 20
44.7126327739
 10
63.1218881407
 20
44.6233643583
 10
63.1150048017
 20
44.5364848176
 10
63.1044684483
 20
44.4521823136
 10
63.0903018997
 20
44.3706394266
 10
63.0725358375
 20
44.2920327604
 10
63.0512087391
 20
44.2165325595
 10
63.0263667941
 20
44.1443023406
 10
62.9980638049
 20
44.0754985383
 10
62.9663610692
 20
44.0102701661
 10
62.9313272482
 20
43.9487584944
 10
62.8930382174
 20
43.8910967436
 10
62.8515769021
 20
43.8374097963
 10
62.8070330985
 20
43.7878139264
 10
62.7595032785
 20
43.7424165475
 10
62.7090903811
 20
43.7013159804
 10
62.6559035893
 20
43.6646012396
 10
62.6282154914
 20
43.6478616631
  0
LWPOLYLINE
  5
272
330
1F
100
AcDbEntity
  8
0
  6
Continuous
 62
     7
370
    25
100
AcDbPolyline
 90
       68
 70
   128
 43
0.0
 10
60.6465089057
 20
48.0462592463
 10
60.7036387468
 20
48.0762491712
 10
60.7632437901
 20
48.101672661
 10
60.8251949444
 20
48.122474654
 10
60.8893580373
 20
48.1386100978
 10
60.9555941059
 20
48.1500440467
 10
61.0237596976
 20
48.1567517371
 10
61.0937071808
 20
48.1587186418
 10
61.165285065
 20
48.1559405008
 10
61.2383383282
 20
48.1484233311
 10
61.3127087536
 20
48.1361834131
 10
61.3882352712
 20
48.1192472557
 10
61.4647543074
 20
48.097651539
 10
61.5421001391
 20
48.0714430344
 10
61.6201052524
 20
48.0406785036
 10
61.6986007056
 20
48.0054245759
 10
61.777416495
 20
47.9657576034
 10
61.8563819232
 20
47.9217634959
 10
61.9353259687
 20
47.8735375348
 10
62.0140776561
 20
47.8211841669
 10
62.092466427
 20
47.7648167779
 10
62.1703225086
 20
47.7045574469
 10
62.2474772821
 20
47.6405366824
 10
62.3237636474
 20
47.572893139
 10
62.3990163851
 20
47.5017733175
 10
62.4730725147
 20
47.4273312477
 10
62.5457716471
 20
47.3497281544
 10
62.616956332
 20
47.2691321088
 10
62.6864723994
 20
47.185717664
 10
62.7541692929
 20
47.0996654769
 10
62.8199003961
 20
47.0111619175
 10
62.8835233501
 20
46.9203986649
 10
62.9449003618
 20
46.8275722919
 10
63.0038985021
 20
46.7328838399
 10
63.0603899943
 20
46.6365383829
 10
63.1142524903
 20
46.5387445838
 10
63.1653693361
 20
46.4397142422
 10
63.2136298238
 20
46.3396618356
 10
63.2589294321
 20
46.2388040555
 10
63.301170052
 20
46.1373593371
 10
63.3402601998
 20
46.0355473873
 10
63.3761152149
 20
45.933588708
 10
63.4086574433
 20
45.831704119
 10
63.4378164059
 20
45.7301142797
 10
63.4635289507
 20
45.629039211
 10
63.4857393903
 20
45.528697819
 10
63.5043996216
 20
45.4293074209
 10
63.5194692308
 20
45.331083274
 10
63.5309155804
 20
45.2342381101
 10
63.5387138803
 20
45.1389816741
 10
63.5428472411
 20
45.0455202704
 10
63.5433067107
 20
44.9540563155
 10
63.5400912941
 20
44.8647878999
 10
63.5332079552
 20
44.7779083593
 10
63.5226716017
 20
44.6936058552
 10
63.5085050531
 20
44.6120629682
 10
63.4907389909
 20
44.533456302
 10
63.4694118925
 20
44.4579561012
 10
63.4445699476
 20
44.3857258823
 10
63.4162669583
 20
44.3169220799
 10
63.3845642227
 20
44.2516937078
 10
63.3495304017
 20
44.190182036
 10
63.3112413708
 20
44.1325202852
 10
63.2697800556
 20
44.0788333379
 10
63.225236252
 20
44.029237468
 10
63.177706432
 20
43.9838400892
 10
63.1272935345
 20
43.942739522
 10
63.1226828603
 20
43.9393018664
  0
LWPOLYLINE
  5
273
330
1F
100
AcDbEntity
  8
0
  6
Continuous
 62
     7
370
    25
100
AcDbPolyline
 90
       36
 70
   128
 43
0.0
 10
60.6074793005
 20
48.3182879112
 10
60.6139416857
 20
48.3214233444
 10
60.6760297838
 20
48.3483992389
 10
60.7404474164
 20
48.3708204565
 10
60.8070702402
 20
48.3886437181
 10
60.8757696552
 20
48.4018346201
 10
60.946413053
 20
48.4103677006
 10
61.018864073
 20
48.4142264883
 10
61.0929828651
 20
48.4134035348
 10
61.1686263602
 20
48.4079004286
 10
61.245648546
 20
48.3977277922
 10
61.323900749
 20
48.3829052615
 10
61.4032319213
 20
48.3634614479
 10
61.4834889326
 20
48.3394338833
 10
61.5645168652
 20
48.3108689473
 10
61.6461593134
 20
48.277821778
 10
61.7282586853
 20
48.2403561651
 10
61.8106565071
 20
48.1985444275
 10
61.8931937289
 20
48.1524672731
 10
61.9757110316
 20
48.102213643
 10
62.0580491346
 20
48.0478805404
 10
62.1400491033
 20
47.9895728427
 10
62.2215526556
 20
47.9274030995
 10
62.3024024679
 20
47.8614913151
 10
62.3824424783
 20
47.7919647169
 10
62.461518188
 20
47.71895751
 10
62.5394769596
 20
47.6426106178
 10
62.6161683118
 20
47.5630714105
 10
62.6914442096
 20
47.4804934201
 10
62.7651593503
 20
47.3950360442
 10
62.837171444
 20
47.3068642386
 10
62.9073414878
 20
47.2161481986
 10
62.9755340347
 20
47.1230630306
 10
63.0416174549
 20
47.0277884138
 10
63.1054641894
 20
46.930508254
 10
63.1582694941
 20
46.8457480764
  0
LWPOLYLINE
  5
274
330
1F
100
AcDbEntity
  8
0
  6
Continuous
 62
     7
370
    25
100
AcDbPolyline
 90
       36
 70
   128
 43
0.0
 10
63.2625741577
 20
46.6650871002
 10
63.2823748717
 20
46.6285294593
 10
63.3360891396
 20
46.5251381314
 10
63.3869983124
 20
46.4207115105
 10
63.4350041217
 20
46.3154511682
 10
63.4800139035
 20
46.2095602852
 10
63.5219407767
 20
46.1032432593
 10
63.5607038112
 20
45.996705311
 10
63.596228184
 20
45.8901520872
 10
63.6284453234
 20
45.7837892643
 10
63.6572930417
 20
45.677822151
 10
63.682715655
 20
45.5724552924
 10
63.7046640909
 20
45.4678920749
 10
63.7230959831
 20
45.3643343336
 10
63.7379757529
 20
45.2619819626
 10
63.7492746785
 20
45.1610325298
 10
63.7569709498
 20
45.0616808944
 10
63.761049711
 20
44.9641188321
 10
63.761503089
 20
44.8685346636
 10
63.7583302087
 20
44.7751128923
 10
63.7515371945
 20
44.6840338471
 10
63.7411371589
 20
44.5954733352
 10
63.7271501766
 20
44.5096023022
 10
63.7096032463
 20
44.4265865021
 10
63.6885302383
 20
44.3465861779
 10
63.6639718292
 20
44.2697557516
 10
63.6359754233
 20
44.1962435267
 10
63.6045950612
 20
44.1261914014
 10
63.5698913154
 20
44.0597345953
 10
63.5319311735
 20
43.9970013878
 10
63.4907879087
 20
43.9381128708
 10
63.4465409387
 20
43.8831827151
 10
63.3992756719
 20
43.8323169505
 10
63.3490833431
 20
43.7856137618
 10
63.2960608369
 20
43.7431632986
 10
63.2625741577
 20
43.7195287333
  0
ARC
  5
275
330
1F
100
AcDbEntity
  8
0
  6
Continuous
 62
     7
370
    25
100
AcDbCircle
 10
62.7135984044
 20
44.628431079
 30
0.0
 40
1.066707843280784
100
AcDbArc
 50
258.6196241902
 51
293.6905559879
  0
ARC
  5
276
330
1F
100
AcDbEntity
  8
0
  6
Continuous
 62
     7
370
    25
100
AcDbCircle
 10
61.1278491251
 20
47.3830601143
 30
0.0
 40
1.075571947641579
100
AcDbArc
 50
126.4728072139
 51
161.1019295196
  0
LWPOLYLINE
  5
277
330
1F
100
AcDbEntity
  8
0
  6
Continuous
 62
     7
370
    25
100
AcDbPolyline
 90
       74
 70
   128
 43
0.0
 10
60.576492981
 20
48.4264694284
 10
60.6376631004
 20
48.4587972538
 10
60.7013132081
 20
48.4865700117
 10
60.7673238076
 20
48.5097355617
 10
60.835570971
 20
48.528250413
 10
60.9059265714
 20
48.5420798058
 10
60.9782585234
 20
48.5511977769
 10
61.0524310314
 20
48.5555872082
 10
61.1283048442
 20
48.5552398592
 10
61.2057375166
 20
48.5501563818
 10
61.2845836771
 20
48.5403463197
 10
61.3646953
 20
48.5258280904
 10
61.4459219842
 20
48.5066289503
 10
61.5281112351
 20
48.4827849438
 10
61.611108751
 20
48.4543408354
 10
61.6947587126
 20
48.4213500262
 10
61.778904076
 20
48.3838744527
 10
61.863386867
 20
48.3419844716
 10
61.948048478
 20
48.2957587268
 10
62.0327299657
 20
48.2452840025
 10
62.1172723493
 20
48.1906550595
 10
62.2015169095
 20
48.1319744581
 10
62.2853054859
 20
48.0693523649
 10
62.3684807741
 20
48.0029063464
 10
62.4508866213
 20
47.932761148
 10
62.5323683191
 20
47.85904846
 10
62.612772894
 20
47.7819066703
 10
62.6919493951
 20
47.7014806046
 10
62.7697491765
 20
47.6179212543
 10
62.8460261774
 20
47.5313854934
 10
62.9206371956
 20
47.4420357838
 10
62.9934421569
 20
47.3500398701
 10
63.0643043774
 20
47.2555704652
 10
63.1330908207
 20
47.1588049255
 10
63.1996723475
 20
47.0599249181
 10
63.2639239579
 20
46.9591160799
 10
63.3257250263
 20
46.8565676691
 10
63.3849595276
 20
46.7524722094
 10
63.4415162552
 20
46.6470251293
 10
63.4952890297
 20
46.5404243947
 10
63.5461768985
 20
46.4328701372
 10
63.5940843248
 20
46.3245642788
 10
63.6389213674
 20
46.2157101524
 10
63.6806038495
 20
46.1065121202
 10
63.7190535166
 20
45.9971751902
 10
63.7541981835
 20
45.887904631
 10
63.7859718696
 20
45.7789055866
 10
63.8143149233
 20
45.6703826914
 10
63.8391741335
 20
45.5625396858
 10
63.8605028294
 20
45.4555790337
 10
63.8782609688
 20
45.3497015426
 10
63.8924152126
 20
45.2451059865
 10
63.9029389877
 20
45.1419887325
 10
63.9098125368
 20
45.0405433725
 10
63.9130229555
 20
44.9409603595
 10
63.9125642166
 20
44.8434266504
 10
63.9084371813
 20
44.7481253544
 10
63.9006495977
 20
44.6552353898
 10
63.8892160862
 20
44.5649311477
 10
63.8741581121
 20
44.4773821649
 10
63.855503945
 20
44.3927528056
 10
63.8332886062
 20
44.3112019524
 10
63.8075538027
 20
44.2328827086
 10
63.778347849
 20
44.1579421105
 10
63.7457255761
 20
44.086520851
 10
63.7097482289
 20
44.0187530162
 10
63.6704833512
 20
43.9547658332
 10
63.6280046587
 20
43.8946794311
 10
63.5823919006
 20
43.8386066159
 10
63.5337307102
 20
43.7866526584
 10
63.4821124437
 20
43.7389150969
 10
63.4276340091
 20
43.6954835535
 10
63.3703976839
 20
43.6564395664
 10
63.3406663722
 20
43.6385212854
  0
LWPOLYLINE
  5
278
330
1F
100
AcDbEntity
  8
0
  6
Continuous
 62
     7
370
    25
100
AcDbPolyline
 90
       35
 70
   128
 43
0.0
 10
60.6862936891
 20
48.1278336909
 10
60.7146437805
 20
48.1420098219
 10
60.7745842564
 20
48.1677003457
 10
60.8368554837
 20
48.1888085907
 10
60.9013265051
 20
48.2052901658
 10
60.9678617368
 20
48.2171104101
 10
61.0363212544
 20
48.2242444655
 10
61.1065610864
 20
48.2266773289
 10
61.1784335174
 20
48.224403884
 10
61.2517873984
 20
48.2174289118
 10
61.3264684652
 20
48.2057670808
 10
61.4023196623
 20
48.189442916
 10
61.4791814734
 20
48.1684907475
 10
61.5568922571
 20
48.1429546379
 10
61.6352885862
 20
48.1128882901
 10
61.7142055921
 20
48.0783549341
 10
61.7934773112
 20
48.039427194
 10
61.8729370337
 20
47.9961869355
 10
61.9524176547
 20
47.9487250936
 10
62.0317520251
 20
47.8971414812
 10
62.1107733035
 20
47.8415445794
 10
62.189315307
 20
47.7820513095
 10
62.2672128605
 20
47.7187867866
 10
62.3443021443
 20
47.6518840571
 10
62.4204210383
 20
47.5814838184
 10
62.4954094634
 20
47.5077341234
 10
62.5691097178
 20
47.4307900687
 10
62.6413668086
 20
47.3508134689
 10
62.7120287782
 20
47.2679725161
 10
62.7809470232
 20
47.182441426
 10
62.8479766075
 20
47.094400072
 10
62.9129765669
 20
47.0040336062
 10
62.9758102055
 20
46.9115320708
 10
63.0363453831
 20
46.8170899979
 10
63.0610040334
 20
46.7769755428
  0
LWPOLYLINE
  5
279
330
1F
100
AcDbEntity
  8
0
  6
Continuous
 62
     7
370
    25
100
AcDbPolyline
 90
       34
 70
   128
 43
0.0
 10
63.1543899544
 20
46.615226735
 10
63.2029128501
 20
46.5241245771
 10
63.2530334077
 20
46.423940985
 10
63.3002724996
 20
46.3228422671
 10
63.3445307813
 20
46.2210410356
 10
63.3857151769
 20
46.1187513799
 10
63.4237390751
 20
46.0161884169
 10
63.4585225109
 20
45.9135678381
 10
63.4899923344
 20
45.811105456
 10
63.5180823638
 20
45.7090167507
 10
63.5427335255
 20
45.6075164164
 10
63.5638939778
 20
45.5068179097
 10
63.5815192197
 20
45.4071330013
 10
63.5955721853
 20
45.30867133
 10
63.6060233208
 20
45.2116399623
 10
63.6128506474
 20
45.1162429566
 10
63.6160398071
 20
45.0226809343
 10
63.615584093
 20
44.9311506578
 10
63.6114844636
 20
44.8418446166
 10
63.6037495404
 20
44.7549506229
 10
63.59239559
 20
44.6706514159
 10
63.5774464901
 20
44.5891242783
 10
63.5589336787
 20
44.5105406629
 10
63.5368960887
 20
44.4350658321
 10
63.5113800654
 20
44.3628585109
 10
63.4824392694
 20
44.2940705522
 10
63.4501345637
 20
44.2288466183
 10
63.4145338855
 20
44.1673238761
 10
63.3757121036
 20
44.1096317088
 10
63.3337508609
 20
44.055891444
 10
63.2887384025
 20
44.0062160982
 10
63.2407693902
 20
43.9607101396
 10
63.1899447037
 20
43.9194692679
 10
63.1370456891
 20
43.8830067226
  0
ARC
  5
27A
330
1F
100
AcDbEntity
  8
0
  6
Continuous
 62
     7
370
    25
100
AcDbCircle
 10
62.6849338974
 20
44.6073351023
 30
0.0
 40
0.854182525797835
100
AcDbArc
 50
279.9826012992
 51
296.841290183
  0
ARC
  5
27B
330
1F
100
AcDbEntity
  8
0
  6
Continuous
 62
     7
370
    25
100
AcDbCircle
 10
61.0872431165
 20
47.3746683281
 30
0.0
 40
0.853562919798665
100
AcDbArc
 50
123.1624921657
 51
140.0183054417
  0
LWPOLYLINE
  5
27C
330
1F
100
AcDbEntity
  8
0
  6
Continuous
 62
     7
370
    25
100
AcDbPolyline
 90
       37
 70
   128
 43
0.0
 10
45.7653854727
 20
32.0993700215
 10
45.816719897
 20
32.0718730082
 10
45.8714702776
 20
32.0466674885
 10
45.9293304283
 20
32.0238944219
 10
45.9899767716
 20
32.0036811645
 10
46.0530701486
 20
31.9861407571
 10
46.1182577155
 20
31.9713712928
 10
46.185174917
 20
31.9594553684
 10
46.253447525
 20
31.9504596226
 10
46.3226937313
 20
31.9444343632
 10
46.392526283
 20
31.9414132859
 10
46.4625546483
 20
31.9414132859
 10
46.5323872001
 20
31.9444343632
 10
46.6016334064
 20
31.9504596226
 10
46.6699060143
 20
31.9594553684
 10
46.7368232158
 20
31.9713712928
 10
46.8020107827
 20
31.9861407571
 10
46.8651041597
 20
32.0036811645
 10
46.925750503
 20
32.0238944219
 10
46.9836106537
 20
32.0466674885
 10
47.0383610344
 20
32.0718730082
 10
47.0896954586
 20
32.0993700215
 10
47.1373268436
 20
32.1290047538
 10
47.1809888152
 20
32.1606114758
 10
47.220437198
 20
32.1940134298
 10
47.2554513806
 20
32.2290238186
 10
47.2858355496
 20
32.2654468498
 10
47.3114197843
 20
32.3030788312
 10
47.3320610073
 20
32.3417093093
 10
47.3476437845
 20
32.381122247
 10
47.3580809708
 20
32.421097231
 10
47.3633141971
 20
32.461410705
 10
47.3633141971
 20
32.5018372198
 10
47.3580809708
 20
32.5421506938
 10
47.3476437845
 20
32.5821256778
 10
47.3320610073
 20
32.6215386155
 10
47.3208055629
 20
32.6438571505
  0
LWPOLYLINE
  5
27D
330
1F
100
AcDbEntity
  8
0
  6
Continuous
 62
     7
370
    25
100
AcDbPolyline
 90
       16
 70
   128
 43
0.0
 10
45.5342753685
 20
32.6438571506
 10
45.5230199241
 20
32.6215386155
 10
45.5074371468
 20
32.5821256778
 10
45.4969999606
 20
32.5421506938
 10
45.4917667343
 20
32.5018372198
 10
45.4917667343
 20
32.461410705
 10
45.4969999606
 20
32.421097231
 10
45.5074371468
 20
32.381122247
 10
45.5230199241
 20
32.3417093093
 10
45.5436611471
 20
32.3030788312
 10
45.5692453818
 20
32.2654468498
 10
45.5996295508
 20
32.2290238186
 10
45.6346437334
 20
32.1940134298
 10
45.6740921162
 20
32.1606114758
 10
45.7177540878
 20
32.1290047538
 10
45.7653854727
 20
32.0993700215
  0
LWPOLYLINE
  5
27E
330
1F
100
AcDbEntity
  8
0
  6
Continuous
 62
     7
370
    25
100
AcDbPolyline
 90
       13
 70
   128
 43
0.0
 10
45.6320453368
 20
31.8684181321
 10
45.580156493
 20
31.9004682832
 10
45.5321340678
 20
31.934467556
 10
45.4881971767
 20
31.9702608196
 10
45.4485462935
 20
32.0076847576
 10
45.4133623363
 20
32.046568613
 10
45.3828058412
 20
32.0867349678
 10
45.3570162305
 20
32.1280005522
 10
45.3361111765
 20
32.1701770806
 10
45.3201860639
 20
32.2130721114
 10
45.3093135555
 20
32.2564899242
 10
45.30354326
 20
32.3002324137
 10
45.3025405078
 20
32.3278254204
  0
LWPOLYLINE
  5
27F
330
1F
100
AcDbEntity
  8
0
  6
Continuous
 62
     7
370
    25
100
AcDbPolyline
 90
       36
 70
   128
 43
0.0
 10
47.5525404404
 20
32.3277853901
 10
47.5505752691
 20
32.289277251
 10
47.5435260399
 20
32.2455972618
 10
47.5313848244
 20
32.2022916499
 10
47.5142070203
 20
32.1595580088
 10
47.4920710059
 20
32.1175913224
 10
47.4650777828
 20
32.0765830751
 10
47.4333505149
 20
32.0367203781
 10
47.3970339665
 20
31.9981851157
 10
47.3562938416
 20
31.9611531154
 10
47.311316028
 20
31.9257933459
 10
47.2623057493
 20
31.8922671456
 10
47.209486628
 20
31.8607274869
 10
47.1530996658
 20
31.831318278
 10
47.0934021433
 20
31.8041737064
 10
47.0306664467
 20
31.7794176265
 10
46.9651788246
 20
31.7571629947
 10
46.897238082
 20
31.7375113538
 10
46.8271542169
 20
31.7205523696
 10
46.7552470059
 20
31.7063634221
 10
46.6818445451
 20
31.6950092523
 10
46.6072817531
 20
31.6865416666
 10
46.5318988429
 20
31.6809993007
 10
46.4560397693
 20
31.678407443
 10
46.3800506599
 20
31.6787779198
 10
46.3042782356
 20
31.6821090404
 10
46.2290682286
 20
31.6883856059
 10
46.1547638049
 20
31.6975789777
 10
46.0817039986
 20
31.7096472086
 10
46.0102221647
 20
31.7245352339
 10
45.9406444585
 20
31.742175123
 10
45.8732883471
 20
31.7624863892
 10
45.808461161
 20
31.7853763568
 10
45.7464586918
 20
31.8107405842
 10
45.6875638425
 20
31.8384633401
 10
45.6320453368
 20
31.8684181321
  0
LWPOLYLINE
  5
280
330
1F
100
AcDbEntity
  8
0
  6
Continuous
 62
     7
370
    25
100
AcDbPolyline
 90
       36
 70
   128
 43
0.0
 10
45.6320453368
 20
30.4440481579
 10
45.6875638425
 20
30.414093366
 10
45.7464586918
 20
30.38637061
 10
45.808461161
 20
30.3610063827
 10
45.8732883471
 20
30.3381164151
 10
45.9406444585
 20
30.3178051489
 10
46.0102221647
 20
30.3001652597
 10
46.0817039986
 20
30.2852772344
 10
46.1547638049
 20
30.2732090036
 10
46.2290682286
 20
30.2640156318
 10
46.3042782356
 20
30.2577390663
 10
46.3800506599
 20
30.2544079456
 10
46.4560397693
 20
30.2540374689
 10
46.5318988429
 20
30.2566293265
 10
46.6072817531
 20
30.2621716925
 10
46.6818445451
 20
30.2706392782
 10
46.7552470059
 20
30.281993448
 10
46.8271542169
 20
30.2961823954
 10
46.897238082
 20
30.3131413796
 10
46.9651788246
 20
30.3327930206
 10
47.0306664467
 20
30.3550476524
 10
47.0934021433
 20
30.3798037322
 10
47.1530996658
 20
30.4069483039
 10
47.209486628
 20
30.4363575127
 10
47.2623057493
 20
30.4678971715
 10
47.311316028
 20
30.5014233718
 10
47.3562938416
 20
30.5367831413
 10
47.3970339665
 20
30.5738151415
 10
47.4333505149
 20
30.6123504039
 10
47.4650777828
 20
30.652213101
 10
47.4920710059
 20
30.6932213483
 10
47.5142070203
 20
30.7351880347
 10
47.5313848244
 20
30.7779216757
 10
47.5435260399
 20
30.8212272876
 10
47.5505752691
 20
30.8649072769
 10
47.5525404657
 20
30.9032777208
  0
LWPOLYLINE
  5
281
330
1F
100
AcDbEntity
  8
0
  6
Continuous
 62
     7
370
    25
100
AcDbPolyline
 90
       13
 70
   128
 43
0.0
 10
45.3025404657
 20
30.9032777208
 10
45.30354326
 20
30.8758624395
 10
45.3093135555
 20
30.8321199501
 10
45.3201860639
 20
30.7887021372
 10
45.3361111765
 20
30.7458071065
 10
45.3570162305
 20
30.703630578
 10
45.3828058412
 20
30.6623649937
 10
45.4133623363
 20
30.6221986388
 10
45.4485462935
 20
30.5833147834
 10
45.4881971767
 20
30.5458908455
 10
45.5321340678
 20
30.5100975819
 10
45.580156493
 20
30.4760983091
 10
45.6320453368
 20
30.4440481579
  0
SPLINE
  5
282
330
1F
100
AcDbEntity
  8
0
  6
Continuous
 62
     7
370
    25
100
AcDbSpline
210
0.0
220
0.0
230
1.0
 70
     8
 71
     3
 72
    63
 73
    59
 74
     0
 42
0.00000001
 43
0.00000001
 40
0.0
 40
0.0
 40
0.0
 40
0.0
 40
0.0016230487231372
 40
0.0150072826950287
 40
0.0335795552207312
 40
0.0521518732367178
 40
0.0712589836090002
 40
0.090366168511857
 40
0.108994762673983
 40
0.1276234397514818
 40
0.1467841498516061
 40
0.1659449635084601
 40
0.1751372902614481
 40
0.194189130631514
 40
0.2132410774654689
 40
0.2328511973642899
 40
0.2524614360494077
 40
0.2715035695906338
 40
0.2905458053158502
 40
0.3101341078517172
 40
0.3297225191819728
 40
0.3488832570544348
 40
0.3680440887234329
 40
0.3877511579668058
 40
0.407458325680276
 40
0.4267949300187684
 40
0.4461316201785764
 40
0.4660206814918608
 40
0.4859098339975307
 40
0.5054048265051954
 40
0.5248999009958627
 40
0.5449525108384811
 40
0.5650052170515987
 40
0.5846504292539765
 40
0.6042957639949819
 40
0.6244996715584519
 40
0.6447040665178129
 40
0.6634015036646035
 40
0.6728201073213974
 40
0.6822313069370773
 40
0.6823105990372131
 40
0.694351362660307
 40
0.7064878556735993
 40
0.7246158564493801
 40
0.7428436943906968
 40
0.7625591486683473
 40
0.7822744039974978
 40
0.8025572059836563
 40
0.8228398959738873
 40
0.8425461956321557
 40
0.8622524089435115
 40
0.8825364000094429
 40
0.9028202941633442
 40
0.9224277947596606
 40
0.9420352069933607
 40
0.962220820433311
 40
0.9824063285657187
 40
1.0
 40
1.0
 40
1.0
 40
1.0
 10
47.72608171333177
 20
30.82389966830663
 30
0.0
 10
47.72845095787581
 20
30.82217163654635
 30
0.0
 10
47.75035783111957
 20
30.80619364354919
 30
0.0
 10
47.79439435232015
 20
30.76825432830324
 30
0.0
 10
47.85561703710511
 20
30.70939203182273
 30
0.0
 10
47.91343547560788
 20
30.64054400415271
 30
0.0
 10
47.96166277445631
 20
30.56851097426999
 30
0.0
 10
47.99916594546248
 20
30.4942793082673
 30
0.0
 10
48.02551349147479
 20
30.41912921735797
 30
0.0
 10
48.04110832341361
 20
30.34290239506529
 30
0.0
 10
48.0456216441452
 20
30.26545618410641
 30
0.0
 10
48.03996803690411
 20
30.20087417884222
 30
0.0
 10
48.02737746673471
 20
30.13683930493065
 30
0.0
 10
48.00793792264683
 20
30.07345353286113
 30
0.0
 10
47.97317672581039
 20
29.99752096627797
 30
0.0
 10
47.92693214439207
 20
29.92284066972545
 30
0.0
 10
47.86987326216934
 20
29.85071354714634
 30
0.0
 10
47.80313424794403
 20
29.7823061189413
 30
0.0
 10
47.72692091366358
 20
29.71732250739329
 30
0.0
 10
47.64071277007865
 20
29.65568517118305
 30
0.0
 10
47.54564527934858
 20
29.59833989028294
 30
0.0
 10
47.44335154887614
 20
29.54619239296691
 30
0.0
 10
47.33378805138847
 20
29.4989661933298
 30
0.0
 10
47.21666702738048
 20
29.4568133929921
 30
0.0
 10
47.09347785149306
 20
29.4203777085541
 30
0.0
 10
46.96626006988519
 20
29.39022777316398
 30
0.0
 10
46.83479494647987
 20
29.3661311879732
 30
0.0
 10
46.6990293323722
 20
29.34832128561558
 30
0.0
 10
46.56080060441796
 20
29.33713209386157
 30
0.0
 10
46.42238514652681
 20
29.33270912875897
 30
0.0
 10
46.28344270425572
 20
29.33486353133604
 30
0.0
 10
46.14401016267554
 20
29.34382660257834
 30
0.0
 10
46.00605267051368
 20
29.35955603932874
 30
0.0
 10
45.8718243133238
 20
29.38175510905633
 30
0.0
 10
45.74088950892721
 20
29.41026021950689
 30
0.0
 10
45.61341527461754
 20
29.44534818025698
 30
0.0
 10
45.49335473263476
 20
29.48550138209567
 30
0.0
 10
45.4003500748264
 20
29.52291927780258
 30
0.0
 10
45.33062086854557
 20
29.55259255590065
 30
0.0
 10
45.29699739729165
 20
29.56862800368396
 30
0.0
 10
45.26047076297314
 20
29.58853420657216
 30
0.0
 10
45.22278684223259
 20
29.61471366837028
 30
0.0
 10
45.16171287732074
 20
29.66128539933353
 30
0.0
 10
45.09688199333358
 20
29.71604242678744
 30
0.0
 10
45.03033232518079
 20
29.78219936583065
 30
0.0
 10
44.9713549935073
 20
29.85302625332115
 30
0.0
 10
44.92088705704829
 20
29.92896674635555
 30
0.0
 10
44.88129818246404
 20
30.00782007574771
 30
0.0
 10
44.8534286689978
 20
30.08829873571398
 30
0.0
 10
44.83761032296859
 20
30.16905720379159
 30
0.0
 10
44.83341378592745
 20
30.25029027796797
 30
0.0
 10
44.84126533196003
 20
30.33222244328578
 30
0.0
 10
44.86117661053022
 20
30.41333284752597
 30
0.0
 10
44.89262716538423
 20
30.49225586684768
 30
0.0
 10
44.93517344437218
 20
30.56929545021105
 30
0.0
 10
44.98970015583855
 20
30.64459391450984
 30
0.0
 10
45.0521488340278
 20
30.7148319194047
 30
0.0
 10
45.1010903223378
 20
30.75774581424748
 30
0.0
 10
45.1238822536266
 20
30.77773071001517
 30
0.0
  0
LWPOLYLINE
  5
283
330
1F
100
AcDbEntity
  8
0
  6
Continuous
 62
     7
370
    25
100
AcDbPolyline
 90
       68
 70
   128
 43
0.0
 10
45.1342162566
 20
27.0861208444
 10
45.1503145638
 20
27.0746822719
 10
45.224442314
 20
27.0258994732
 10
45.301296664
 20
26.9815324013
 10
45.3807023928
 20
26.9416822092
 10
45.4624784624
 20
26.9064397517
 10
45.5464384308
 20
26.8758853785
 10
45.6323908768
 20
26.8500887509
 10
45.7201398363
 20
26.8291086827
 10
45.8094852498
 20
26.8129930067
 10
45.9002234176
 20
26.8017784653
 10
45.9921474649
 20
26.7954906265
 10
46.085047813
 20
26.794143826
 10
46.1787126575
 20
26.7977411344
 10
46.2729284509
 20
26.8062743503
 10
46.3674803896
 20
26.8197240186
 10
46.4621529038
 20
26.8380594752
 10
46.5567301485
 20
26.8612389171
 10
46.6509964961
 20
26.8892094971
 10
46.7447370278
 20
26.9219074448
 10
46.8377380235
 20
26.9592582118
 10
46.9297874493
 20
27.0011766418
 10
47.0206754408
 20
27.0475671644
 10
47.1101947815
 20
27.0983240135
 10
47.1981413752
 20
27.1533314679
 10
47.2843147118
 20
27.2124641155
 10
47.3685183235
 20
27.2755871393
 10
47.4505602339
 20
27.3425566244
 10
47.5302533946
 20
27.4132198864
 10
47.6074161123
 20
27.4874158194
 10
47.6818724631
 20
27.5649752632
 10
47.7534526931
 20
27.6457213893
 10
47.8219936057
 20
27.7294701038
 10
47.8873389339
 20
27.8160304671
 10
47.9493396961
 20
27.9052051292
 10
48.0078545361
 20
27.9967907801
 10
48.0627500454
 20
28.0905786125
 10
48.1139010672
 20
28.1863547987
 10
48.1611909815
 20
28.2839009775
 10
48.2045119718
 20
28.3829947523
 10
48.24376527
 20
28.4834101982
 10
48.2788613821
 20
28.5849183771
 10
48.3097202921
 20
28.6872878593
 10
48.3362716445
 20
28.7902852515
 10
48.3584549046
 20
28.8936757291
 10
48.3762194964
 20
28.9972235708
 10
48.3895249184
 20
29.100692697
 10
48.3983408354
 20
29.2038472073
 10
48.4026471478
 20
29.3064519186
 10
48.4024340377
 20
29.4082729014
 10
48.397701991
 20
29.509078013
 10
48.3884617962
 20
29.6086374267
 10
48.3747345201
 20
29.706724156
 10
48.3565514599
 20
29.8031145719
 10
48.3339540711
 20
29.8975889129
 10
48.3069938739
 20
29.989931786
 10
48.275732335
 20
30.0799326578
 10
48.240240728
 20
30.1673863342
 10
48.2005999705
 20
30.2520934287
 10
48.15690044
 20
30.3338608167
 10
48.1092417674
 20
30.412502076
 10
48.0577326102
 20
30.4878379115
 10
48.0024904048
 20
30.5596965641
 10
47.9436410983
 20
30.6279142028
 10
47.881318862
 20
30.6923352972
 10
47.815665785
 20
30.7528129731
 10
47.7468315504
 20
30.8092093469
 10
47.7284152375
 20
30.8232009234
  0
SPLINE
  5
284
330
1F
100
AcDbEntity
  8
0
  6
Continuous
 62
     7
370
    25
100
AcDbSpline
210
0.0
220
0.0
230
1.0
 70
     8
 71
     3
 72
    59
 73
    55
 74
     0
 42
0.00000001
 43
0.00000001
 40
0.0
 40
0.0
 40
0.0
 40
0.0
 40
0.0062274270785318
 40
0.0271453363583603
 40
0.0486814105361877
 40
0.0702175906152146
 40
0.0912443286415032
 40
0.1122711549856738
 40
0.1339161552419722
 40
0.1555612441727014
 40
0.1764599499333653
 40
0.1973587147520424
 40
0.2188568367164117
 40
0.2403549254263345
 40
0.2409160093282624
 40
0.2602103510601464
 40
0.2796210511272869
 40
0.2919810482329681
 40
0.304398678724652
 40
0.3239465186389575
 40
0.3436920280000731
 40
0.3646429392914809
 40
0.3855941574177014
 40
0.4071507952198218
 40
0.4287073948810154
 40
0.4495103757047539
 40
0.4703132878568131
 40
0.4917109843678147
 40
0.5131085910828197
 40
0.5337400986237429
 40
0.5543715209473042
 40
0.5755913251982518
 40
0.5968110260133757
 40
0.617250061494316
 40
0.6376890006509847
 40
0.6587094024979993
 40
0.6797296880573859
 40
0.700035553221608
 40
0.7203413096423031
 40
0.7412281080033384
 40
0.7621147769743029
 40
0.7824225827499666
 40
0.8027302676612103
 40
0.8236318273228166
 40
0.8445332490015175
 40
0.8543287202345132
 40
0.8741750989596087
 40
0.8940213694828589
 40
0.9144340737741469
 40
0.934846668380794
 40
0.9546252139991989
 40
0.9744036802456759
 40
0.9947522052622311
 40
1.0
 40
1.0
 40
1.0
 40
1.0
 10
45.12039760853458
 20
30.6769835359275
 30
0.0
 10
45.11441414123333
 20
30.67050260317219
 30
0.0
 10
45.08833222482811
 20
30.6422522363128
 30
0.0
 10
45.05140677874665
 20
30.58879262327351
 30
0.0
 10
45.01064858486554
 20
30.51707459992877
 30
0.0
 10
44.98137038801013
 20
30.44329406192468
 30
0.0
 10
44.96303747803363
 20
30.36899203365101
 30
0.0
 10
44.9555142501444
 20
30.29392603248774
 30
0.0
 10
44.95911069103552
 20
30.2180312349078
 30
0.0
 10
44.9738848743397
 20
30.14273974111185
 30
0.0
 10
44.99933677947053
 20
30.06931119169978
 30
0.0
 10
45.03507077136967
 20
29.99750357484804
 30
0.0
 10
45.08157121760384
 20
29.92702290950292
 30
0.0
 10
45.12019305432303
 20
29.88068030269367
 30
0.0
 10
45.160108684949
 20
29.83771322576972
 30
0.0
 10
45.20079396367455
 20
29.79775768107105
 30
0.0
 10
45.26052082072184
 20
29.74832450667028
 30
0.0
 10
45.31689984965234
 20
29.70761574671201
 30
0.0
 10
45.37835438995953
 20
29.66913295628855
 30
0.0
 10
45.45966948873117
 20
29.62996672132816
 30
0.0
 10
45.56001548447614
 20
29.58879435735994
 30
0.0
 10
45.66847397599054
 20
29.5516917200896
 30
0.0
 10
45.78515063267746
 20
29.51893224727781
 30
0.0
 10
45.90736647103743
 20
29.49170407461572
 30
0.0
 10
46.03284304890926
 20
29.47059427733544
 30
0.0
 10
46.15942886639679
 20
29.45582902039489
 30
0.0
 10
46.28736187439978
 20
29.44711925136044
 30
0.0
 10
46.41733531104951
 20
29.44462363660989
 30
0.0
 10
46.54686013159412
 20
29.4484656492464
 30
0.0
 10
46.67380400156607
 20
29.45845154807041
 30
0.0
 10
46.79855422774104
 20
29.4743509579866
 30
0.0
 10
46.92170997291311
 20
29.49644752017501
 30
0.0
 10
47.04083173779306
 20
29.52438117875722
 30
0.0
 10
47.15403943342569
 20
29.55756547482747
 30
0.0
 10
47.26182904518468
 20
29.59585237955301
 30
0.0
 10
47.36464231501605
 20
29.63963264051378
 30
0.0
 10
47.46048979295407
 20
29.68815918279623
 30
0.0
 10
47.54791915910265
 20
29.74054838766726
 30
0.0
 10
47.62745403456373
 20
29.79677183097258
 30
0.0
 10
47.69919365667573
 20
29.8572276551015
 30
0.0
 10
47.76181844466662
 20
29.920973154359
 30
0.0
 10
47.81438580125148
 20
29.98692092204014
 30
0.0
 10
47.85733692390873
 20
30.05517001578869
 30
0.0
 10
47.89040255994871
 20
30.12595903694477
 30
0.0
 10
47.90905264797087
 20
30.18591851974771
 30
0.0
 10
47.92080600581058
 20
30.2451328561309
 30
0.0
 10
47.92613145201857
 20
30.30347171917686
 30
0.0
 10
47.92252931398099
 20
30.3743830232961
 30
0.0
 10
47.90850587355983
 20
30.44554637790187
 30
0.0
 10
47.88409330009885
 20
30.51567467648346
 30
0.0
 10
47.85008636070881
 20
30.58370801629364
 30
0.0
 10
47.8058559920322
 20
30.64958355072181
 30
0.0
 10
47.76717866201042
 20
30.69837285873199
 30
0.0
 10
47.74021205570214
 20
30.72423370688474
 30
0.0
 10
47.73468332282029
 20
30.72953573561985
 30
0.0
  0
LWPOLYLINE
  5
285
330
1F
100
AcDbEntity
  8
0
  6
Continuous
 62
     7
370
    25
100
AcDbPolyline
 90
       54
 70
   128
 43
0.0
 10
50.8701316913
 20
26.3367984235
 10
50.9443886684
 20
26.4666173713
 10
51.0149053738
 20
26.5983897382
 10
51.0815977714
 20
26.7319584884
 10
51.1443863827
 20
26.8671644456
 10
51.2031963814
 20
27.0038464823
 10
51.2579576823
 20
27.1418417118
 10
51.3086050255
 20
27.2809856828
 10
51.3550780535
 20
27.4211125746
 10
51.3973213836
 20
27.5620553954
 10
51.4352846735
 20
27.7036461811
 10
51.4689226818
 20
27.8457161951
 10
51.4981953213
 20
27.98809613
 10
51.5230677073
 20
28.1306163089
 10
51.5435101989
 20
28.2731068878
 10
51.5594984344
 20
28.415398058
 10
51.5710133604
 20
28.5573202484
 10
51.5780412542
 20
28.6987043277
 10
51.5805737406
 20
28.8393818057
 10
51.5786078016
 20
28.9791850345
 10
51.57214578
 20
29.117947408
 10
51.5611953767
 20
29.2555035603
 10
51.5457696416
 20
29.3916895633
 10
51.5258869578
 20
29.5263431214
 10
51.5015710198
 20
29.6593037655
 10
51.4728508055
 20
29.7904130439
 10
51.4397605412
 20
29.9195147112
 10
51.4023396612
 20
30.0464549145
 10
51.3606327607
 20
30.1710823767
 10
51.3146895427
 20
30.2932485769
 10
51.2645647584
 20
30.4128079274
 10
51.2103181426
 20
30.529617947
 10
51.1520143419
 20
30.6435394311
 10
51.0897228382
 20
30.7544366172
 10
51.0235178654
 20
30.862177347
 10
50.9534783211
 20
30.966633224
 10
50.8796876729
 20
31.067679766
 10
50.8022338585
 20
31.165196554
 10
50.7212091809
 20
31.2590673753
 10
50.636710199
 20
31.3491803625
 10
50.5488376116
 20
31.435428126
 10
50.4576961383
 20
31.5177078829
 10
50.363394394
 20
31.5959215787
 10
50.2660447599
 20
31.6699760048
 10
50.1657632494
 20
31.739782909
 10
50.0626693699
 20
31.8052591012
 10
49.9568859804
 20
31.8663265521
 10
49.8485391447
 20
31.9229124866
 10
49.7377579821
 20
31.9749494701
 10
49.6246745123
 20
32.0223754891
 10
49.5094234992
 20
32.0651340251
 10
49.3921422896
 20
32.103174122
 10
49.2729706497
 20
32.1364504468
 10
49.1889285538
 20
32.1567910852
  0
LWPOLYLINE
  5
286
330
1F
100
AcDbEntity
  8
0
  6
Continuous
 62
     7
370
    25
100
AcDbPolyline
 90
       56
 70
   128
 43
0.0
 10
44.8009919078
 20
25.0566073047
 10
44.8094396202
 20
25.046359937
 10
44.8904642978
 20
24.9524891156
 10
44.9749632797
 20
24.8623761285
 10
45.0628358671
 20
24.7761283649
 10
45.1539773404
 20
24.6938486081
 10
45.2482790847
 20
24.6156349123
 10
45.3456287188
 20
24.5415804862
 10
45.4459102293
 20
24.471773582
 10
45.5490041087
 20
24.4062973898
 10
45.6547874983
 20
24.3452299388
 10
45.763134334
 20
24.2886440044
 10
45.8739154966
 20
24.2366070209
 10
45.9869989664
 20
24.1891810019
 10
46.1022499794
 20
24.1464224659
 10
46.2195311891
 20
24.1083823689
 10
46.338702829
 20
24.0751060442
 10
46.4596228801
 20
24.0466331477
 10
46.5821472397
 20
24.0229976111
 10
46.7061298932
 20
24.0042276014
 10
46.8314230882
 20
23.9903454871
 10
46.9578775103
 20
23.9813678118
 10
47.0853424615
 20
23.9773052743
 10
47.2136660393
 20
23.9781627161
 10
47.3426953181
 20
23.9839391153
 10
47.4722765313
 20
23.9946275881
 10
47.6022552545
 20
24.0102153968
 10
47.7324765896
 20
24.0306839652
 10
47.8627853494
 20
24.0560089004
 10
47.9930262424
 20
24.0861600223
 10
48.1230440582
 20
24.1211013992
 10
48.252683852
 20
24.1607913908
 10
48.3817911297
 20
24.2051826978
 10
48.5102120316
 20
24.2542224182
 10
48.6377935162
 20
24.3078521105
 10
48.7643835422
 20
24.3660078631
 10
48.8898312498
 20
24.4286203708
 10
49.0139871407
 20
24.495615017
 10
49.136703256
 20
24.5669119629
 10
49.2578333524
 20
24.6424262427
 10
49.3772330771
 20
24.7220678645
 10
49.494760139
 20
24.8057419179
 10
49.610274479
 20
24.893348687
 10
49.7236384365
 20
24.984783769
 10
49.8347169134
 20
25.0799381992
 10
49.9433775355
 20
25.1786985801
 10
50.0494908098
 20
25.2809472172
 10
50.1529302792
 20
25.3865622588
 10
50.2535726728
 20
25.4954178415
 10
50.3512980533
 20
25.60738424
 10
50.4459899594
 20
25.7223280219
 10
50.537535545
 20
25.8401122064
 10
50.6258257136
 20
25.960596428
 10
50.710755248
 20
26.0836371032
 10
50.7922229361
 20
26.2090876023
 10
50.8701316913
 20
26.3367984235
  0
LWPOLYLINE
  5
287
330
1F
100
AcDbEntity
  8
0
  6
Continuous
 62
     7
370
    25
100
AcDbPolyline
 90
      142
 70
   128
 43
0.0
 10
47.5525404657
 20
32.2305797255
 10
47.5978815293
 20
32.2433771945
 10
47.730622608
 20
32.2776078959
 10
47.8635423687
 20
32.3070712323
 10
47.9964907651
 20
32.3317339441
 10
48.1293177185
 20
32.3515681909
 10
48.2618732875
 20
32.3665515829
 10
48.3940078369
 20
32.3766672059
 10
48.5255722068
 20
32.3819036411
 10
48.6564178809
 20
32.3822549772
 10
48.7863971544
 20
32.3777208177
 10
48.9153633002
 20
32.368306281
 10
49.0431707352
 20
32.3540219946
 10
49.1696751842
 20
32.3348840834
 10
49.2947338427
 20
32.310914151
 10
49.4182055385
 20
32.2821392561
 10
49.5399508908
 20
32.248591881
 10
49.6598324675
 20
32.2103098956
 10
49.7777149404
 20
32.1673365146
 10
49.8934652381
 20
32.1197202483
 10
50.0069526961
 20
32.0675148484
 10
50.1180492041
 20
32.0107792467
 10
50.2266293512
 20
31.9495774893
 10
50.3325705666
 20
31.8839786635
 10
50.435753259
 20
31.8140568206
 10
50.5360609505
 20
31.7398908918
 10
50.6333804091
 20
31.661564599
 10
50.7276017757
 20
31.5791663609
 10
50.8186186889
 20
31.4927891925
 10
50.9063284042
 20
31.4025306007
 10
50.9906319106
 20
31.3084924736
 10
51.0714340424
 20
31.2107809661
 10
51.148643586
 20
31.1095063796
 10
51.2221733837
 20
31.0047830379
 10
51.2919404314
 20
30.8967291578
 10
51.3578659727
 20
30.7854667156
 10
51.4198755877
 20
30.6711213098
 10
51.4778992769
 20
30.5538220191
 10
51.5318715403
 20
30.4337012566
 10
51.5817314515
 20
30.3108946204
 10
51.627422726
 20
30.1855407407
 10
51.6688937855
 20
30.057781123
 10
51.7060978154
 20
29.9277599884
 10
51.738992818
 20
29.7956241113
 10
51.7675416597
 20
29.6615226529
 10
51.7917121133
 20
29.5256069936
 10
51.8114768939
 20
29.3880305614
 10
51.8268136902
 20
29.2489486594
 10
51.8377051893
 20
29.10851829
 10
51.8441390962
 20
28.9668979777
 10
51.8461081481
 20
28.8242475904
 10
51.8436101221
 20
28.6807281589
 10
51.8366478383
 20
28.5365016948
 10
51.8252291559
 20
28.3917310079
 10
51.809366965
 20
28.2465795225
 10
51.7890791715
 20
28.1012110925
 10
51.7643886772
 20
27.9557898169
 10
51.7353233541
 20
27.8104798543
 10
51.7019160124
 20
27.6654452376
 10
51.664204364
 20
27.520849689
 10
51.6222309796
 20
27.3768564348
 10
51.5760432409
 20
27.2336280217
 10
51.5256932867
 20
27.0913261329
 10
51.4712379545
 20
26.9501114056
 10
51.4127387162
 20
26.8101432499
 10
51.3502616086
 20
26.6715796685
 10
51.2838771588
 20
26.5345770789
 10
51.2136603048
 20
26.3992901361
 10
51.1396903108
 20
26.2658715587
 10
51.0620506777
 20
26.134471956
 10
50.980829049
 20
26.0052396582
 10
50.8961171114
 20
25.8783205491
 10
50.8080104921
 20
25.753857901
 10
50.7166086499
 20
25.6319922135
 10
50.6220147638
 20
25.5128610544
 10
50.5243356159
 20
25.3965989048
 10
50.4236814711
 20
25.283337007
 10
50.3201659528
 20
25.1732032167
 10
50.2139059143
 20
25.066321858
 10
50.105021307
 20
24.9628135839
 10
49.9936350452
 20
24.8627952396
 10
49.8798728671
 20
24.7663797306
 10
49.763863193
 20
24.6736758955
 10
49.6457369802
 20
24.5847883827
 10
49.5256275754
 20
24.4998175328
 10
49.4036705638
 20
24.4188592652
 10
49.2800036164
 20
24.3420049693
 10
49.1547663345
 20
24.269341402
 10
49.028100092
 20
24.2009505895
 10
48.900147876
 20
24.1369097347
 10
48.771054125
 20
24.07729113
 10
48.6409645663
 20
24.0221620757
 10
48.5100260514
 20
23.9715848042
 10
48.3783863901
 20
23.9256164097
 10
48.2461941835
 20
23.8843087833
 10
48.1135986566
 20
23.8477085553
 10
47.9807494897
 20
23.8158570417
 10
47.8477966494
 20
23.788790198
 10
47.7148902193
 20
23.7665385786
 10
47.5821802306
 20
23.7491273022
 10
47.4498164927
 20
23.7365760235
 10
47.3179484244
 20
23.7288989111
 10
47.1867248847
 20
23.7261046311
 10
47.056294005
 20
23.7281963379
 10
46.9268030221
 20
23.7351716704
 10
46.7983981116
 20
23.7470227543
 10
46.6712242234
 20
23.7637362117
 10
46.5454249173
 20
23.7852931755
 10
46.4211422019
 20
23.8116693112
 10
46.2985163734
 20
23.8428348442
 10
46.1776858578
 20
23.8787545933
 10
46.0587870545
 20
23.9193880105
 10
45.9419541822
 20
23.9646892269
 10
45.8273191275
 20
24.0146071042
 10
45.715011296
 20
24.0690852927
 10
45.6051574663
 20
24.1280622949
 10
45.4978816468
 20
24.1914715346
 10
45.3933049354
 20
24.2592414323
 10
45.2915453836
 20
24.3312954862
 10
45.1927178624
 20
24.407552358
 10
45.0969339331
 20
24.4879259655
 10
45.0043017213
 20
24.5723255789
 10
44.9149257947
 20
24.6606559238
 10
44.8289070452
 20
24.7528172887
 10
44.746342575
 20
24.8487056374
 10
44.6673255867
 20
24.9482127264
 10
44.5919452787
 20
25.0512262273
 10
44.5202867438
 20
25.1576298535
 10
44.4524308737
 20
25.2673034914
 10
44.3884542675
 20
25.3801233361
 10
44.3284291449
 20
25.495962031
 10
44.2724232653
 20
25.6146888119
 10
44.2204998507
 20
25.7361696541
 10
44.172717515
 20
25.8602674242
 10
44.1291301971
 20
25.9868420347
 10
44.0897871005
 20
26.1157506019
 10
44.0547326375
 20
26.2468476076
 10
44.0240063794
 20
26.3799850632
 10
43.9976430115
 20
26.5150126766
 10
43.9756722939
 20
26.6517780221
 10
43.9581190284
 20
26.7901267124
 10
43.9564866056
 20
26.8051739405
  0
LINE
  5
288
330
1F
100
AcDbEntity
  8
0
  6
Continuous
 62
     7
370
    25
100
AcDbLine
 10
45.9989690371
 20
33.2946425923
 30
0.0
 11
45.8166856754
 21
33.2664463135
 31
0.0
  0
LINE
  5
289
330
1F
100
AcDbEntity
  8
0
  6
Continuous
 62
     7
370
    25
100
AcDbLine
 10
47.2619836272
 20
33.0428821685
 30
0.0
 11
46.8561118942
 21
33.2771869326
 31
0.0
  0
LWPOLYLINE
  5
28A
330
1F
100
AcDbEntity
  8
0
  6
Continuous
 62
     7
370
    25
100
AcDbPolyline
 90
       17
 70
   128
 43
0.0
 10
46.6588137696
 20
32.0095991992
 10
46.7242066436
 20
32.02128141
 10
46.7878585626
 20
32.0358191155
 10
46.8493959917
 20
32.0531270029
 10
46.9084578048
 20
32.0731035026
 10
46.9646974037
 20
32.0956313844
 10
47.0177847522
 20
32.1205784459
 10
47.0674083124
 20
32.1477982877
 10
47.1132768738
 20
32.177131173
 10
47.1551212612
 20
32.2084049648
 10
47.1926959151
 20
32.241436136
 10
47.2257803327
 20
32.2760308465
 10
47.2541803613
 20
32.3119860809
 10
47.2777293383
 20
32.3490908396
 10
47.2962890689
 20
32.387127377
 10
47.3097506373
 20
32.4258724797
 10
47.3121700248
 20
32.4350756966
  0
LWPOLYLINE
  5
28B
330
1F
100
AcDbEntity
  8
0
  6
Continuous
 62
     7
370
    25
100
AcDbPolyline
 90
       24
 70
   128
 43
0.0
 10
45.5425065671
 20
32.4367324775
 10
45.5435883433
 20
32.4323829684
 10
45.556191722
 20
32.3935417843
 10
45.5739085215
 20
32.3553715231
 10
45.5966347727
 20
32.3180961831
 10
45.6242371089
 20
32.2819345108
 10
45.6565535487
 20
32.2470987173
 10
45.6933944462
 20
32.2137932329
 10
45.7345436045
 20
32.1822135075
 10
45.7797595439
 20
32.1525448633
 10
45.8287769194
 20
32.1249614078
 10
45.8813080774
 20
32.0996250118
 10
45.9370447443
 20
32.0766843591
 10
45.9956598351
 20
32.0562740748
 10
46.0568093732
 20
32.0385139344
 10
46.1201345088
 20
32.0235081616
 10
46.1852636247
 20
32.0113448162
 10
46.2518145175
 20
32.0020952775
 10
46.3193966401
 20
31.9958138255
 10
46.3876133936
 20
31.9925373222
 10
46.456064455
 20
31.9922849955
 10
46.5243481263
 20
31.9950583262
 10
46.5920636918
 20
32.0008410392
 10
46.6588137696
 20
32.0095991992
  0
ARC
  5
28C
330
1F
100
AcDbEntity
  8
0
  6
Continuous
 62
     7
370
    25
100
AcDbCircle
 10
45.5803073913
 20
32.7650588787
 30
0.0
 40
0.0129919220547782
100
AcDbArc
 50
185.8452026491
 51
245.4749383085
  0
ARC
  5
28D
330
1F
100
AcDbEntity
  8
0
  6
Continuous
 62
     7
370
    25
100
AcDbCircle
 10
45.5879038006
 20
32.7648128276
 30
0.0
 40
0.020585602241515
100
AcDbArc
 50
75.3870453967
 51
151.7330090646
  0
ARC
  5
28E
330
1F
100
AcDbEntity
  8
0
  6
Continuous
 62
     7
370
    25
100
AcDbCircle
 10
45.8114921719
 20
33.2465266112
 30
0.0
 40
0.0205856022415443
100
AcDbArc
 50
75.3870453968
 51
151.7330090645
  0
ARC
  5
28F
330
1F
100
AcDbEntity
  8
0
  6
Continuous
 62
     7
370
    25
100
AcDbCircle
 10
47.2695158572
 20
33.0323680772
 30
0.0
 40
0.0129337003518352
100
AcDbArc
 50
65.6928809541
 51
125.617577475
  0
LWPOLYLINE
  5
290
330
1F
100
AcDbEntity
  8
0
  6
Continuous
 62
     7
370
    25
100
AcDbPolyline
 90
        3
 70
   128
 43
0.0
 10
47.2868217199
 20
33.0180433548
 10
47.2874779236
 20
33.0199478034
 10
47.2876979129
 20
33.0218854048
  0
LWPOLYLINE
  5
291
330
1F
100
AcDbEntity
  8
0
  6
Continuous
 62
     7
370
    25
100
AcDbPolyline
 90
        5
 70
   128
 43
0.0
 10
45.8166856754
 20
33.2664463135
 10
45.8153872817
 20
33.2688402132
 10
45.8141387844
 20
33.2703352228
 10
45.8129881628
 20
33.27087389
 10
45.8127548413
 20
33.2708616145
  0
LWPOLYLINE
  5
292
330
1F
100
AcDbEntity
  8
0
  6
Continuous
 62
     7
370
    25
100
AcDbPolyline
 90
       30
 70
   128
 43
0.0
 10
45.9989690374
 20
35.1419048573
 10
46.0009610064
 20
35.1180877153
 10
46.0080903891
 20
35.0911418009
 10
46.0203113276
 20
35.0648121914
 10
46.0374754761
 20
35.0394184926
 10
46.0593744852
 20
35.0152689494
 10
46.0857425306
 20
34.9926567048
 10
46.1162595399
 20
34.9718562406
 10
46.150555078
 20
34.9531200464
 10
46.1882128435
 20
34.9366755542
 10
46.2287757221
 20
34.9227223778
 10
46.2717513354
 20
34.9114298899
 10
46.3166180178
 20
34.902935166
 10
46.3628311484
 20
34.8973413205
 10
46.4098297624
 20
34.8947162551
 10
46.4570433604
 20
34.8950918347
 10
46.5038988332
 20
34.8984635001
 10
46.5498274189
 20
34.9047903238
 10
46.5942716066
 20
34.913995507
 10
46.6366919042
 20
34.925967311
 10
46.6765733866
 20
34.9405604144
 10
46.7134319466
 20
34.9575976767
 10
46.7468201714
 20
34.9768722886
 10
46.7763327731
 20
34.9981502824
 10
46.8016115086
 20
35.0211733721
 10
46.8223495284
 20
35.0456620886
 10
46.838295101
 20
35.0713191721
 10
46.8492546688
 20
35.0978331802
 10
46.8550951974
 20
35.1248822689
 10
46.8561118851
 20
35.1418628944
  0
LWPOLYLINE
  5
293
330
1F
100
AcDbEntity
  8
0
  6
Continuous
 62
     7
370
    25
100
AcDbPolyline
 90
       30
 70
   128
 43
0.0
 10
52.1389448557
 20
41.6183286968
 10
52.1579687053
 20
41.6090756079
 10
52.1907357362
 20
41.5886602469
 10
52.220774162
 20
41.5638454032
 10
52.2477193568
 20
41.5349322954
 10
52.2712442425
 20
41.5022718895
 10
52.2910632589
 20
41.4662606385
 10
52.3069358298
 20
41.4273356702
 10
52.3186692839
 20
41.3859694811
 10
52.3261211929
 20
41.3426642006
 10
52.3292011006
 20
41.2979454961
 10
52.3278716213
 20
41.2523561922
 10
52.3221488929
 20
41.2064496813
 10
52.3121023817
 20
41.1607832062
 10
52.2978540386
 20
41.115911096
 10
52.2795768193
 20
41.0723780374
 10
52.2574925844
 20
41.0307124627
 10
52.2318694067
 20
40.9914201357
 10
52.2030183167
 20
40.9549780118
 10
52.1712895278
 20
40.9218284492
 10
52.1370681843
 20
40.8923738386
 10
52.100769687
 20
40.866971719
 10
52.0628346505
 20
40.8459304379
 10
52.0237235548
 20
40.8295054078
 10
51.9839111556
 20
40.8178960064
 10
51.9438807215
 20
40.811243156
 10
51.9041181676
 20
40.8096276133
 10
51.8651061577
 20
40.8130689888
 10
51.8273182446
 20
40.8215255088
 10
51.7930041825
 20
40.8340972747
  0
LWPOLYLINE
  5
294
330
1F
100
AcDbEntity
  8
0
  6
Continuous
 62
     7
370
    25
100
AcDbPolyline
 90
       30
 70
   128
 43
0.0
 10
53.956656241
 20
41.907941518
 10
53.9782009657
 20
41.9180828548
 10
54.0051040322
 20
41.9253859652
 10
54.034019083
 20
41.9279714065
 10
54.0645951287
 20
41.9258077948
 10
54.0964610174
 20
41.9189213935
 10
54.1292299405
 20
41.9073957942
 10
54.1625041275
 20
41.891370902
 10
54.195879675
 20
41.8710412373
 10
54.2289514491
 20
41.8466535749
 10
54.261318003
 20
41.8185039479
 10
54.2925864509
 20
41.7869340545
 10
54.3223772359
 20
41.7523271107
 10
54.3503287385
 20
41.7151031977
 10
54.3761016651
 20
41.6757141634
 10
54.3993831675
 20
41.6346381375
 10
54.4198906396
 20
41.5923737271
 10
54.4373751485
 20
41.549433965
 10
54.4516244561
 20
41.5063400817
 10
54.462465595
 20
41.4636151786
 10
54.4697669684
 20
41.4217778781
 10
54.4734399476
 20
41.3813360284
 10
54.4734399476
 20
41.3427805388
 10
54.4697669684
 20
41.3065794206
 10
54.462465595
 20
41.2731721065
 10
54.4516244561
 20
41.2429641159
 10
54.4373751485
 20
41.2163221329
 10
54.4198906396
 20
41.1935695552
 10
54.3993831675
 20
41.1749825681
 10
54.3851142566
 20
41.165568583
  0
LINE
  5
295
330
1F
100
AcDbEntity
  8
0
  6
Continuous
 62
     7
370
    25
100
AcDbLine
 10
55.3898705636
 20
8.8129090909
 30
0.0
 11
54.3069294364
 21
8.8129090909
 31
0.0
  0
LINE
  5
296
330
1F
100
AcDbEntity
  8
0
  6
Continuous
 62
     7
370
    25
100
AcDbLine
 10
54.3240285942
 20
8.8579090909
 30
0.0
 11
55.3727714058
 21
8.8579090909
 31
0.0
  0
LINE
  5
297
330
1F
100
AcDbEntity
  8
0
  6
Continuous
 62
     7
370
    25
100
AcDbLine
 10
54.4183239936
 20
9.0079090909
 30
0.0
 11
55.2784760064
 21
9.0079090909
 31
0.0
  0
CIRCLE
  5
298
330
1F
100
AcDbEntity
  8
0
  6
Continuous
 62
     7
370
    25
100
AcDbCircle
 10
58.0303805153
 20
11.8148896062
 30
0.0
 40
0.1169999999999973
  0
CIRCLE
  5
299
330
1F
100
AcDbEntity
  8
0
  6
Continuous
 62
     7
370
    25
100
AcDbCircle
 10
58.0303805153
 20
11.8148896062
 30
0.0
 40
0.2340000000000018
  0
LINE
  5
29A
330
1F
100
AcDbEntity
  8
0
  6
Continuous
 62
     7
370
    25
100
AcDbLine
 10
57.9598805153
 20
11.8555928002
 30
0.0
 11
58.0303805153
 21
11.8962959942
 31
0.0
  0
LINE
  5
29B
330
1F
100
AcDbEntity
  8
0
  6
Continuous
 62
     7
370
    25
100
AcDbLine
 10
58.0303805153
 20
11.7334832183
 30
0.0
 11
57.9598805153
 21
11.7741864123
 31
0.0
  0
LINE
  5
29C
330
1F
100
AcDbEntity
  8
0
  6
Continuous
 62
     7
370
    25
100
AcDbLine
 10
58.0303805153
 20
11.8962959942
 30
0.0
 11
58.1008805153
 21
11.8555928002
 31
0.0
  0
LINE
  5
29D
330
1F
100
AcDbEntity
  8
0
  6
Continuous
 62
     7
370
    25
100
AcDbLine
 10
57.9598805153
 20
11.7741864123
 30
0.0
 11
57.9598805153
 21
11.8555928002
 31
0.0
  0
LINE
  5
29E
330
1F
100
AcDbEntity
  8
0
  6
Continuous
 62
     7
370
    25
100
AcDbLine
 10
58.1008805153
 20
11.7741864123
 30
0.0
 11
58.0303805153
 21
11.7334832183
 31
0.0
  0
LINE
  5
29F
330
1F
100
AcDbEntity
  8
0
  6
Continuous
 62
     7
370
    25
100
AcDbLine
 10
58.1008805153
 20
11.8555928002
 30
0.0
 11
58.1008805153
 21
11.7741864123
 31
0.0
  0
ARC
  5
2A0
330
1F
100
AcDbEntity
  8
0
  6
Continuous
 62
     7
370
    25
100
AcDbCircle
 10
58.0303805153
 20
11.8148896062
 30
0.0
 40
0.0705000000000015
100
AcDbArc
 50
60.0
 51
120.0
  0
ARC
  5
2A1
330
1F
100
AcDbEntity
  8
0
  6
Continuous
 62
     7
370
    25
100
AcDbCircle
 10
58.0303805153
 20
11.8148896062
 30
0.0
 40
0.0705000000000027
100
AcDbArc
 50
120.0
 51
180.0
  0
ARC
  5
2A2
330
1F
100
AcDbEntity
  8
0
  6
Continuous
 62
     7
370
    25
100
AcDbCircle
 10
58.0303805153
 20
11.8148896062
 30
0.0
 40
0.0705000000000045
100
AcDbArc
 50
180.0
 51
240.0
  0
ARC
  5
2A3
330
1F
100
AcDbEntity
  8
0
  6
Continuous
 62
     7
370
    25
100
AcDbCircle
 10
58.0303805153
 20
11.8148896062
 30
0.0
 40
0.0704999999999994
100
AcDbArc
 50
300.0
 51
0.0
  0
ARC
  5
2A4
330
1F
100
AcDbEntity
  8
0
  6
Continuous
 62
     7
370
    25
100
AcDbCircle
 10
58.0303805153
 20
11.8148896062
 30
0.0
 40
0.0705000000000045
100
AcDbArc
 50
240.0
 51
300.0
  0
ARC
  5
2A5
330
1F
100
AcDbEntity
  8
0
  6
Continuous
 62
     7
370
    25
100
AcDbCircle
 10
58.0303805153
 20
11.8148896062
 30
0.0
 40
0.0704999999999979
100
AcDbArc
 50
0.0
 51
60.0
  0
LINE
  5
2A6
330
1F
100
AcDbEntity
  8
0
  6
Continuous
 62
     7
370
    25
100
AcDbLine
 10
51.6664194847
 20
5.5323349635
 30
0.0
 11
51.7369194847
 21
5.4916317695
 31
0.0
  0
LINE
  5
2A7
330
1F
100
AcDbEntity
  8
0
  6
Continuous
 62
     7
370
    25
100
AcDbLine
 10
51.5959194847
 20
5.4102253816
 30
0.0
 11
51.5959194847
 21
5.4916317695
 31
0.0
  0
LINE
  5
2A8
330
1F
100
AcDbEntity
  8
0
  6
Continuous
 62
     7
370
    25
100
AcDbLine
 10
51.6664194847
 20
5.3695221876
 30
0.0
 11
51.5959194847
 21
5.4102253816
 31
0.0
  0
LINE
  5
2A9
330
1F
100
AcDbEntity
  8
0
  6
Continuous
 62
     7
370
    25
100
AcDbLine
 10
51.7369194847
 20
5.4916317695
 30
0.0
 11
51.7369194847
 21
5.4102253816
 31
0.0
  0
CIRCLE
  5
2AA
330
1F
100
AcDbEntity
  8
0
  6
Continuous
 62
     7
370
    25
100
AcDbCircle
 10
51.6664194847
 20
5.4509285756
 30
0.0
 40
0.1169999999999973
  0
LINE
  5
2AB
330
1F
100
AcDbEntity
  8
0
  6
Continuous
 62
     7
370
    25
100
AcDbLine
 10
51.5959194847
 20
5.4916317695
 30
0.0
 11
51.6664194847
 21
5.5323349635
 31
0.0
  0
LINE
  5
2AC
330
1F
100
AcDbEntity
  8
0
  6
Continuous
 62
     7
370
    25
100
AcDbLine
 10
51.7369194847
 20
5.4102253816
 30
0.0
 11
51.6664194847
 21
5.3695221876
 31
0.0
  0
CIRCLE
  5
2AD
330
1F
100
AcDbEntity
  8
0
  6
Continuous
 62
     7
370
    25
100
AcDbCircle
 10
51.6664194847
 20
5.4509285756
 30
0.0
 40
0.2340000000000018
  0
ARC
  5
2AE
330
1F
100
AcDbEntity
  8
0
  6
Continuous
 62
     7
370
    25
100
AcDbCircle
 10
51.6664194847
 20
5.4509285756
 30
0.0
 40
0.0705000000000027
100
AcDbArc
 50
300.0
 51
0.0
  0
ARC
  5
2AF
330
1F
100
AcDbEntity
  8
0
  6
Continuous
 62
     7
370
    25
100
AcDbCircle
 10
51.6664194847
 20
5.4509285756
 30
0.0
 40
0.0704999999999979
100
AcDbArc
 50
60.0
 51
120.0
  0
ARC
  5
2B0
330
1F
100
AcDbEntity
  8
0
  6
Continuous
 62
     7
370
    25
100
AcDbCircle
 10
51.6664194847
 20
5.4509285756
 30
0.0
 40
0.0705000000000027
100
AcDbArc
 50
120.0
 51
180.0
  0
ARC
  5
2B1
330
1F
100
AcDbEntity
  8
0
  6
Continuous
 62
     7
370
    25
100
AcDbCircle
 10
51.6664194847
 20
5.4509285756
 30
0.0
 40
0.070500000000001
100
AcDbArc
 50
240.0
 51
300.0
  0
ARC
  5
2B2
330
1F
100
AcDbEntity
  8
0
  6
Continuous
 62
     7
370
    25
100
AcDbCircle
 10
51.6664194847
 20
5.4509285756
 30
0.0
 40
0.0705000000000027
100
AcDbArc
 50
180.0
 51
240.0
  0
ARC
  5
2B3
330
1F
100
AcDbEntity
  8
0
  6
Continuous
 62
     7
370
    25
100
AcDbCircle
 10
51.6664194847
 20
5.4509285756
 30
0.0
 40
0.0705000000000027
100
AcDbArc
 50
0.0
 51
60.0
  0
CIRCLE
  5
2B4
330
1F
100
AcDbEntity
  8
0
  6
Continuous
 62
     7
370
    25
100
AcDbCircle
 10
51.6664194847
 20
11.8148896062
 30
0.0
 40
0.1169999999999973
  0
CIRCLE
  5
2B5
330
1F
100
AcDbEntity
  8
0
  6
Continuous
 62
     7
370
    25
100
AcDbCircle
 10
51.6664194847
 20
11.8148896062
 30
0.0
 40
0.2340000000000018
  0
LINE
  5
2B6
330
1F
100
AcDbEntity
  8
0
  6
Continuous
 62
     7
370
    25
100
AcDbLine
 10
51.5959194847
 20
11.8555928002
 30
0.0
 11
51.6664194847
 21
11.8962959942
 31
0.0
  0
LINE
  5
2B7
330
1F
100
AcDbEntity
  8
0
  6
Continuous
 62
     7
370
    25
100
AcDbLine
 10
51.6664194847
 20
11.8962959942
 30
0.0
 11
51.7369194847
 21
11.8555928002
 31
0.0
  0
LINE
  5
2B8
330
1F
100
AcDbEntity
  8
0
  6
Continuous
 62
     7
370
    25
100
AcDbLine
 10
51.5959194847
 20
11.7741864123
 30
0.0
 11
51.5959194847
 21
11.8555928002
 31
0.0
  0
LINE
  5
2B9
330
1F
100
AcDbEntity
  8
0
  6
Continuous
 62
     7
370
    25
100
AcDbLine
 10
51.6664194847
 20
11.7334832183
 30
0.0
 11
51.5959194847
 21
11.7741864123
 31
0.0
  0
LINE
  5
2BA
330
1F
100
AcDbEntity
  8
0
  6
Continuous
 62
     7
370
    25
100
AcDbLine
 10
51.7369194847
 20
11.8555928002
 30
0.0
 11
51.7369194847
 21
11.7741864123
 31
0.0
  0
LINE
  5
2BB
330
1F
100
AcDbEntity
  8
0
  6
Continuous
 62
     7
370
    25
100
AcDbLine
 10
51.7369194847
 20
11.7741864123
 30
0.0
 11
51.6664194847
 21
11.7334832183
 31
0.0
  0
ARC
  5
2BC
330
1F
100
AcDbEntity
  8
0
  6
Continuous
 62
     7
370
    25
100
AcDbCircle
 10
51.6664194847
 20
11.8148896062
 30
0.0
 40
0.0705000000000027
100
AcDbArc
 50
120.0
 51
180.0
  0
ARC
  5
2BD
330
1F
100
AcDbEntity
  8
0
  6
Continuous
 62
     7
370
    25
100
AcDbCircle
 10
51.6664194847
 20
11.8148896062
 30
0.0
 40
0.0704999999999979
100
AcDbArc
 50
60.0
 51
120.0
  0
ARC
  5
2BE
330
1F
100
AcDbEntity
  8
0
  6
Continuous
 62
     7
370
    25
100
AcDbCircle
 10
51.6664194847
 20
11.8148896062
 30
0.0
 40
0.0705000000000027
100
AcDbArc
 50
300.0
 51
360.0
  0
ARC
  5
2BF
330
1F
100
AcDbEntity
  8
0
  6
Continuous
 62
     7
370
    25
100
AcDbCircle
 10
51.6664194847
 20
11.8148896062
 30
0.0
 40
0.070500000000001
100
AcDbArc
 50
240.0
 51
300.0
  0
ARC
  5
2C0
330
1F
100
AcDbEntity
  8
0
  6
Continuous
 62
     7
370
    25
100
AcDbCircle
 10
51.6664194847
 20
11.8148896062
 30
0.0
 40
0.0705000000000027
100
AcDbArc
 50
180.0
 51
240.0
  0
ARC
  5
2C1
330
1F
100
AcDbEntity
  8
0
  6
Continuous
 62
     7
370
    25
100
AcDbCircle
 10
51.6664194847
 20
11.8148896062
 30
0.0
 40
0.0705000000000027
100
AcDbArc
 50
360.0
 51
60.0
  0
CIRCLE
  5
2C2
330
1F
100
AcDbEntity
  8
0
  6
Continuous
 62
     7
370
    25
100
AcDbCircle
 10
58.0303805153
 20
5.4509285756
 30
0.0
 40
0.1169999999999973
  0
CIRCLE
  5
2C3
330
1F
100
AcDbEntity
  8
0
  6
Continuous
 62
     7
370
    25
100
AcDbCircle
 10
58.0303805153
 20
5.4509285756
 30
0.0
 40
0.2340000000000018
  0
LINE
  5
2C4
330
1F
100
AcDbEntity
  8
0
  6
Continuous
 62
     7
370
    25
100
AcDbLine
 10
58.0303805153
 20
5.5323349635
 30
0.0
 11
58.1008805153
 21
5.4916317695
 31
0.0
  0
LINE
  5
2C5
330
1F
100
AcDbEntity
  8
0
  6
Continuous
 62
     7
370
    25
100
AcDbLine
 10
57.9598805153
 20
5.4916317695
 30
0.0
 11
58.0303805153
 21
5.5323349635
 31
0.0
  0
LINE
  5
2C6
330
1F
100
AcDbEntity
  8
0
  6
Continuous
 62
     7
370
    25
100
AcDbLine
 10
57.9598805153
 20
5.4102253816
 30
0.0
 11
57.9598805153
 21
5.4916317695
 31
0.0
  0
LINE
  5
2C7
330
1F
100
AcDbEntity
  8
0
  6
Continuous
 62
     7
370
    25
100
AcDbLine
 10
58.1008805153
 20
5.4102253816
 30
0.0
 11
58.0303805153
 21
5.3695221876
 31
0.0
  0
LINE
  5
2C8
330
1F
100
AcDbEntity
  8
0
  6
Continuous
 62
     7
370
    25
100
AcDbLine
 10
58.1008805153
 20
5.4916317695
 30
0.0
 11
58.1008805153
 21
5.4102253816
 31
0.0
  0
LINE
  5
2C9
330
1F
100
AcDbEntity
  8
0
  6
Continuous
 62
     7
370
    25
100
AcDbLine
 10
58.0303805153
 20
5.3695221876
 30
0.0
 11
57.9598805153
 21
5.4102253816
 31
0.0
  0
ARC
  5
2CA
330
1F
100
AcDbEntity
  8
0
  6
Continuous
 62
     7
370
    25
100
AcDbCircle
 10
58.0303805153
 20
5.4509285756
 30
0.0
 40
0.0705000000000015
100
AcDbArc
 50
60.0
 51
120.0
  0
ARC
  5
2CB
330
1F
100
AcDbEntity
  8
0
  6
Continuous
 62
     7
370
    25
100
AcDbCircle
 10
58.0303805153
 20
5.4509285756
 30
0.0
 40
0.0705000000000027
100
AcDbArc
 50
300.0
 51
0.0
  0
ARC
  5
2CC
330
1F
100
AcDbEntity
  8
0
  6
Continuous
 62
     7
370
    25
100
AcDbCircle
 10
58.0303805153
 20
5.4509285756
 30
0.0
 40
0.0705000000000027
100
AcDbArc
 50
120.0
 51
180.0
  0
ARC
  5
2CD
330
1F
100
AcDbEntity
  8
0
  6
Continuous
 62
     7
370
    25
100
AcDbCircle
 10
58.0303805153
 20
5.4509285756
 30
0.0
 40
0.0705000000000045
100
AcDbArc
 50
240.0
 51
300.0
  0
ARC
  5
2CE
330
1F
100
AcDbEntity
  8
0
  6
Continuous
 62
     7
370
    25
100
AcDbCircle
 10
58.0303805153
 20
5.4509285756
 30
0.0
 40
0.0705000000000045
100
AcDbArc
 50
180.0
 51
240.0
  0
ARC
  5
2CF
330
1F
100
AcDbEntity
  8
0
  6
Continuous
 62
     7
370
    25
100
AcDbCircle
 10
58.0303805153
 20
5.4509285756
 30
0.0
 40
0.0705000000000027
100
AcDbArc
 50
0.0
 51
60.0
  0
CIRCLE
  5
2D0
330
1F
100
AcDbEntity
  8
0
  6
Continuous
 62
     7
370
    25
100
AcDbCircle
 10
54.8484
 20
8.6329090909
 30
0.0
 40
2.324999999999998
  0
CIRCLE
  5
2D1
330
1F
100
AcDbEntity
  8
0
  6
Continuous
 62
     7
370
    25
100
AcDbCircle
 10
54.8484
 20
8.6329090909
 30
0.0
 40
4.199999999999999
  0
CIRCLE
  5
2D2
330
1F
100
AcDbEntity
  8
0
  6
Continuous
 62
     7
370
    25
100
AcDbCircle
 10
54.8484
 20
8.6329090909
 30
0.0
 40
0.6225000000000016
  0
CIRCLE
  5
2D3
330
1F
100
AcDbEntity
  8
0
  6
Continuous
 62
     7
370
    25
100
AcDbCircle
 10
54.8484
 20
8.6329090909
 30
0.0
 40
4.837500000000001
  0
CIRCLE
  5
2D4
330
1F
100
AcDbEntity
  8
0
  6
Continuous
 62
     7
370
    25
100
AcDbCircle
 10
54.8484
 20
8.6329090909
 30
0.0
 40
0.5706052674608486
  0
ARC
  5
2D5
330
1F
100
AcDbEntity
  8
0
  6
Continuous
 62
     7
370
    25
100
AcDbCircle
 10
54.8484
 20
8.6329090909
 30
0.0
 40
4.290000000000002
100
AcDbArc
 50
46.3461542426
 51
133.6538457574
  0
ARC
  5
2D6
330
1F
100
AcDbEntity
  8
0
  6
Continuous
 62
     7
370
    25
100
AcDbCircle
 10
54.8484
 20
8.6329090909
 30
0.0
 40
4.290000000000004
100
AcDbArc
 50
316.3461542426
 51
43.6538457574
  0
ARC
  5
2D7
330
1F
100
AcDbEntity
  8
0
  6
Continuous
 62
     7
370
    25
100
AcDbCircle
 10
54.8484
 20
8.6329090909
 30
0.0
 40
4.29
100
AcDbArc
 50
226.3461542426
 51
313.6538457574
  0
ARC
  5
2D8
330
1F
100
AcDbEntity
  8
0
  6
Continuous
 62
     7
370
    25
100
AcDbCircle
 10
54.8484
 20
8.6329090909
 30
0.0
 40
4.29
100
AcDbArc
 50
136.3461542426
 51
223.6538457574
  0
ARC
  5
2D9
330
1F
100
AcDbEntity
  8
0
  6
Continuous
 62
     7
370
    25
100
AcDbCircle
 10
54.8484
 20
8.6329090909
 30
0.0
 40
4.650000000000002
100
AcDbArc
 50
47.2496919417
 51
132.7503080583
  0
ARC
  5
2DA
330
1F
100
AcDbEntity
  8
0
  6
Continuous
 62
     7
370
    25
100
AcDbCircle
 10
54.8484
 20
8.6329090909
 30
0.0
 40
4.650000000000001
100
AcDbArc
 50
317.2496919417
 51
42.7503080583
  0
ARC
  5
2DB
330
1F
100
AcDbEntity
  8
0
  6
Continuous
 62
     7
370
    25
100
AcDbCircle
 10
54.8484
 20
8.6329090909
 30
0.0
 40
4.649999999999999
100
AcDbArc
 50
227.2496919417
 51
312.7503080583
  0
ARC
  5
2DC
330
1F
100
AcDbEntity
  8
0
  6
Continuous
 62
     7
370
    25
100
AcDbCircle
 10
54.8484
 20
8.6329090909
 30
0.0
 40
4.65
100
AcDbArc
 50
137.2496919417
 51
222.7503080583
  0
DIMENSION
  5
2DD
330
1F
100
AcDbEntity
  8
0
  6
Continuous
 62
     7
370
    18
100
AcDbDimension
  2
_D_7
 10
52.42965
 20
4.4435112001
 30
0.0
 11
62.088255756
 21
14.7194648196
 31
0.0
 70
   163
  1
<>
 71
     1
 42
-1.0
  3
SLDDIMSTYLE2
100
AcDbDiametricDimension
 15
57.26715
 25
12.8223069817
 35
0.0
 40
0.0
  0
ENDSEC
  0
SECTION
  2
OBJECTS
  0
DICTIONARY
  5
C
330
0
100
AcDbDictionary
281
     1
  3
ACAD_GROUP
350
D
  3
ACAD_LAYOUT
350
1A
  3
ACAD_MLINESTYLE
350
17
  3
ACAD_PLOTSETTINGS
350
19
  3
ACAD_PLOTSTYLENAME
350
E
  3
ACAD_SCALELIST
350
47
  3
DWGPROPS
350
2EE
  0
DICTIONARY
  5
D
102
{ACAD_REACTORS
330
C
102
}
330
C
100
AcDbDictionary
281
     1
  0
DICTIONARY
  5
1A
102
{ACAD_REACTORS
330
C
102
}
330
C
100
AcDbDictionary
281
     1
  3
Layout1
350
1E
  3
Layout2
350
26
  3
Model
350
22
  0
DICTIONARY
  5
17
102
{ACAD_REACTORS
330
C
102
}
330
C
100
AcDbDictionary
281
     1
  3
Standard
350
18
  0
DICTIONARY
  5
19
102
{ACAD_REACTORS
330
C
102
}
330
C
100
AcDbDictionary
281
     1
  0
ACDBDICTIONARYWDFLT
  5
E
102
{ACAD_REACTORS
330
C
102
}
330
C
100
AcDbDictionary
281
     1
  3
Normal
350
F
100
AcDbDictionaryWithDefault
340
F
  0
DICTIONARY
  5
47
102
{ACAD_REACTORS
330
C
102
}
330
C
100
AcDbDictionary
281
     1
  3
A0
350
48
  3
A1
350
49
  3
A2
350
4A
  3
A3
350
4B
  3
A4
350
4C
  3
A5
350
4D
  3
A6
350
4E
  3
A7
350
4F
  3
A8
350
50
  3
A9
350
51
  3
B1
350
52
  3
B2
350
53
  3
B3
350
54
  3
B4
350
55
  3
B5
350
56
  3
B6
350
57
  3
B7
350
58
  0
XRECORD
  5
2EE
102
{ACAD_REACTORS
330
C
102
}
330
C
100
AcDbXrecord
280
     1
  1
DWGPROPS COOKIE
  2

  3

  4

  6

  7

  8
stevend
  9

300
=
301
=
302
=
303
=
304
=
305
=
306
=
307
=
308
=
309
=
 40
0.0
 41
2460463.05627985
 42
2460463.056280683
  1

 90
        0
  0
LAYOUT
  5
1E
102
{ACAD_REACTORS
330
1A
102
}
330
1A
100
AcDbPlotSettings
  1

  2
none_device
  4

  6

 40
0.0
 41
0.0
 42
0.0
 43
0.0
 44
0.0
 45
0.0
 46
0.0
 47
0.0
 48
0.0
 49
0.0
140
0.0
141
0.0
142
1.0
143
1.0
 70
   688
 72
     0
 73
     0
 74
     5
  7

 75
    16
147
1.0
148
0.0
149
0.0
100
AcDbLayout
  1
Layout1
 70
     1
 71
     1
 10
0.0
 20
0.0
 11
12.0
 21
9.0
 12
0.0
 22
0.0
 32
0.0
 14
1.0000000000E+20
 24
1.0000000000E+20
 34
1.0000000000E+20
 15
-1.0000000000E+20
 25
-1.0000000000E+20
 35
-1.0000000000E+20
146
0.0
 13
0.0
 23
0.0
 33
0.0
 16
1.0
 26
0.0
 36
0.0
 17
0.0
 27
1.0
 37
0.0
 76
     0
330
1B
  0
LAYOUT
  5
26
102
{ACAD_REACTORS
330
1A
102
}
330
1A
100
AcDbPlotSettings
  1

  2
none_device
  4

  6

 40
0.0
 41
0.0
 42
0.0
 43
0.0
 44
0.0
 45
0.0
 46
0.0
 47
0.0
 48
0.0
 49
0.0
140
0.0
141
0.0
142
1.0
143
1.0
 70
   688
 72
     0
 73
     0
 74
     5
  7

 75
    16
147
1.0
148
0.0
149
0.0
100
AcDbLayout
  1
Layout2
 70
     1
 71
     2
 10
0.0
 20
0.0
 11
0.0
 21
0.0
 12
0.0
 22
0.0
 32
0.0
 14
0.0
 24
0.0
 34
0.0
 15
0.0
 25
0.0
 35
0.0
146
0.0
 13
0.0
 23
0.0
 33
0.0
 16
1.0
 26
0.0
 36
0.0
 17
0.0
 27
1.0
 37
0.0
 76
     0
330
23
  0
LAYOUT
  5
22
102
{ACAD_REACTORS
330
1A
102
}
330
1A
100
AcDbPlotSettings
  1

  2
none_device
  4
Letter_(8.50_x_11.00_Inches)
  6

 40
6.35
 41
6.35
 42
6.35000508
 43
6.35000508
 44
215.9
 45
279.4
 46
0.0
 47
0.0
 48
0.0
 49
0.0
140
0.0
141
0.0
142
1.0
143
1.0
 70
  1712
 72
     0
 73
     0
 74
     0
  7

 75
     0
147
1.0
148
0.0
149
0.0
100
AcDbLayout
  1
Model
 70
     1
 71
     0
 10
0.0
 20
0.0
 11
66.0
 21
51.0
 12
0.0
 22
0.0
 32
0.0
 14
0.0
 24
0.0
 34
0.0
 15
66.0
 25
51.0
 35
0.0
146
0.0
 13
0.0
 23
0.0
 33
0.0
 16
1.0
 26
0.0
 36
0.0
 17
0.0
 27
1.0
 37
0.0
 76
     0
330
1F
331
29
  0
MLINESTYLE
  5
18
102
{ACAD_REACTORS
330
17
102
}
330
17
100
AcDbMlineStyle
  2
Standard
 70
     0
  3

 62
   256
 51
90.0
 52
90.0
 71
     2
 49
0.5
 62
   256
  6
BYLAYER
 49
-0.5
 62
   256
  6
BYLAYER
  0
ACDBPLACEHOLDER
  5
F
102
{ACAD_REACTORS
330
E
102
}
330
E
  0
SCALE
  5
48
102
{ACAD_REACTORS
330
47
102
}
330
47
100
AcDbScale
 70
     0
300
1:1
140
1.0
141
1.0
290
     1
  0
SCALE
  5
49
102
{ACAD_REACTORS
330
47
102
}
330
47
100
AcDbScale
 70
     0
300
1/128" = 1'-0"
140
0.0078125
141
12.0
290
     0
  0
SCALE
  5
4A
102
{ACAD_REACTORS
330
47
102
}
330
47
100
AcDbScale
 70
     0
300
1/64" = 1'-0"
140
0.015625
141
12.0
290
     0
  0
SCALE
  5
4B
102
{ACAD_REACTORS
330
47
102
}
330
47
100
AcDbScale
 70
     0
300
1/32" = 1'-0"
140
0.03125
141
12.0
290
     0
  0
SCALE
  5
4C
102
{ACAD_REACTORS
330
47
102
}
330
47
100
AcDbScale
 70
     0
300
1/16" = 1'-0"
140
0.0625
141
12.0
290
     0
  0
SCALE
  5
4D
102
{ACAD_REACTORS
330
47
102
}
330
47
100
AcDbScale
 70
     0
300
3/32" = 1'-0"
140
0.09375
141
12.0
290
     0
  0
SCALE
  5
4E
102
{ACAD_REACTORS
330
47
102
}
330
47
100
AcDbScale
 70
     0
300
1/8" = 1'-0"
140
0.125
141
12.0
290
     0
  0
SCALE
  5
4F
102
{ACAD_REACTORS
330
47
102
}
330
47
100
AcDbScale
 70
     0
300
3/16" = 1'-0"
140
0.1875
141
12.0
290
     0
  0
SCALE
  5
50
102
{ACAD_REACTORS
330
47
102
}
330
47
100
AcDbScale
 70
     0
300
1/4" = 1'-0"
140
0.25
141
12.0
290
     0
  0
SCALE
  5
51
102
{ACAD_REACTORS
330
47
102
}
330
47
100
AcDbScale
 70
     0
300
3/8" = 1'-0"
140
0.375
141
12.0
290
     0
  0
SCALE
  5
52
102
{ACAD_REACTORS
330
47
102
}
330
47
100
AcDbScale
 70
     0
300
1/2" = 1'-0"
140
0.5
141
12.0
290
     0
  0
SCALE
  5
53
102
{ACAD_REACTORS
330
47
102
}
330
47
100
AcDbScale
 70
     0
300
3/4" = 1'-0"
140
0.75
141
12.0
290
     0
  0
SCALE
  5
54
102
{ACAD_REACTORS
330
47
102
}
330
47
100
AcDbScale
 70
     0
300
1" = 1'-0"
140
1.0
141
12.0
290
     0
  0
SCALE
  5
55
102
{ACAD_REACTORS
330
47
102
}
330
47
100
AcDbScale
 70
     0
300
1-1/2" = 1'-0"
140
1.5
141
12.0
290
     0
  0
SCALE
  5
56
102
{ACAD_REACTORS
330
47
102
}
330
47
100
AcDbScale
 70
     0
300
3" = 1'-0"
140
3.0
141
12.0
290
     0
  0
SCALE
  5
57
102
{ACAD_REACTORS
330
47
102
}
330
47
100
AcDbScale
 70
     0
300
6" = 1'-0"
140
6.0
141
12.0
290
     0
  0
SCALE
  5
58
102
{ACAD_REACTORS
330
47
102
}
330
47
100
AcDbScale
 70
     0
300
1'-0" = 1'-0"
140
12.0
141
12.0
290
     0
  0
ENDSEC
  0
EOF
