  0
SECTION
  2
HEADER
  9
$ACADVER
  1
AC1015
  9
$ACADMAINTVER
 70
     6
  9
$DWGCODEPAGE
  3
ANSI_1252
  9
$INSBASE
 10
0.0
 20
0.0
 30
0.0
  9
$EXTMIN
 10
0.0
 20
0.0
 30
0.0
  9
$EXTMAX
 10
33.0
 20
25.5
 30
0.0
  9
$LIMMIN
 10
0.0
 20
0.0
  9
$LIMMAX
 10
33.0
 20
25.5
  9
$ORTHOMODE
 70
     0
  9
$REGENMODE
 70
     1
  9
$FILLMODE
 70
     1
  9
$QTEXTMODE
 70
     0
  9
$MIRRTEXT
 70
     1
  9
$LTSCALE
 40
3.0
  9
$ATTMODE
 70
     1
  9
$TEXTSIZE
 40
0.375
  9
$TRACEWID
 40
0.05
  9
$TEXTSTYLE
  7
STANDARD
  9
$CLAYER
  8
0
  9
$CELTYPE
  6
ByLayer
  9
$CECOLOR
 62
   256
  9
$CELTSCALE
 40
1.0
  9
$DISPSILH
 70
     0
  9
$DIMSCALE
 40
1.0
  9
$DIMASZ
 40
0.39
  9
$DIMEXO
 40
0.15
  9
$DIMDLI
 40
0.38
  9
$DIMRND
 40
0.0
  9
$DIMDLE
 40
0.0
  9
$DIMEXE
 40
0.375
  9
$DIMTP
 40
0.0
  9
$DIMTM
 40
0.0
  9
$DIMTXT
 40
0.375
  9
$DIMCEN
 40
0.09
  9
$DIMTSZ
 40
0.0
  9
$DIMTOL
 70
     0
  9
$DIMLIM
 70
     0
  9
$DIMTIH
 70
     1
  9
$DIMTOH
 70
     1
  9
$DIMSE1
 70
     0
  9
$DIMSE2
 70
     0
  9
$DIMTAD
 70
     0
  9
$DIMZIN
 70
     1
  9
$DIMBLK
  1

  9
$DIMASO
 70
     1
  9
$DIMSHO
 70
     1
  9
$DIMPOST
  1

  9
$DIMAPOST
  1

  9
$DIMALT
 70
     0
  9
$DIMALTD
 70
     2
  9
$DIMALTF
 40
25.4
  9
$DIMLFAC
 40
1.0
  9
$DIMTOFL
 70
     0
  9
$DIMTVP
 40
0.0
  9
$DIMTIX
 70
     0
  9
$DIMSOXD
 70
     0
  9
$DIMSAH
 70
     0
  9
$DIMBLK1
  1

  9
$DIMBLK2
  1

  9
$DIMSTYLE
  2
Standard
  9
$DIMCLRD
 70
     0
  9
$DIMCLRE
 70
     0
  9
$DIMCLRT
 70
     0
  9
$DIMTFAC
 40
1.0
  9
$DIMGAP
 40
0.18
  9
$DIMJUST
 70
     0
  9
$DIMSD1
 70
     0
  9
$DIMSD2
 70
     0
  9
$DIMTOLJ
 70
     1
  9
$DIMTZIN
 70
     1
  9
$DIMALTZ
 70
     0
  9
$DIMALTTZ
 70
     0
  9
$DIMUPT
 70
     0
  9
$DIMDEC
 70
     0
  9
$DIMTDEC
 70
     0
  9
$DIMALTU
 70
     2
  9
$DIMALTTD
 70
     2
  9
$DIMTXSTY
  7
STANDARD
  9
$DIMAUNIT
 70
     0
  9
$DIMADEC
 70
     0
  9
$DIMALTRND
 40
0.0
  9
$DIMAZIN
 70
     0
  9
$DIMDSEP
 70
    46
  9
$DIMATFIT
 70
     3
  9
$DIMFRAC
 70
     0
  9
$DIMLDRBLK
  1

  9
$DIMLUNIT
 70
     2
  9
$DIMLWD
 70
    -2
  9
$DIMLWE
 70
    -2
  9
$DIMTMOVE
 70
     0
  9
$LUNITS
 70
     2
  9
$LUPREC
 70
     6
  9
$SKETCHINC
 40
0.1
  9
$FILLETRAD
 40
0.0
  9
$AUNITS
 70
     0
  9
$AUPREC
 70
     2
  9
$MENU
  1
.
  9
$ELEVATION
 40
0.0
  9
$PELEVATION
 40
0.0
  9
$THICKNESS
 40
0.0
  9
$LIMCHECK
 70
     0
  9
$CHAMFERA
 40
0.0
  9
$CHAMFERB
 40
0.0
  9
$CHAMFERC
 40
0.0
  9
$CHAMFERD
 40
0.0
  9
$SKPOLY
 70
     0
  9
$TDCREATE
 40
2460606.464932558
  9
$TDUCREATE
 40
2460606.756599225
  9
$TDUPDATE
 40
2460606.464933449
  9
$TDUUPDATE
 40
2460606.756600116
  9
$TDINDWG
 40
0.0000000116
  9
$TDUSRTIMER
 40
0.0000000116
  9
$USRTIMER
 70
     1
  9
$ANGBASE
 50
0.0
  9
$ANGDIR
 70
     0
  9
$PDMODE
 70
     0
  9
$PDSIZE
 40
-1.0
  9
$PLINEWID
 40
0.0
  9
$SPLFRAME
 70
     0
  9
$SPLINETYPE
 70
     6
  9
$SPLINESEGS
 70
     8
  9
$HANDSEED
  5
1E4
  9
$SURFTAB1
 70
     6
  9
$SURFTAB2
 70
     6
  9
$SURFTYPE
 70
     6
  9
$SURFU
 70
     6
  9
$SURFV
 70
     6
  9
$UCSBASE
  2

  9
$UCSNAME
  2

  9
$UCSORG
 10
0.0
 20
0.0
 30
0.0
  9
$UCSXDIR
 10
1.0
 20
0.0
 30
0.0
  9
$UCSYDIR
 10
0.0
 20
1.0
 30
0.0
  9
$UCSORTHOREF
  2

  9
$UCSORTHOVIEW
 70
     0
  9
$UCSORGTOP
 10
0.0
 20
0.0
 30
0.0
  9
$UCSORGBOTTOM
 10
0.0
 20
0.0
 30
0.0
  9
$UCSORGLEFT
 10
0.0
 20
0.0
 30
0.0
  9
$UCSORGRIGHT
 10
0.0
 20
0.0
 30
0.0
  9
$UCSORGFRONT
 10
0.0
 20
0.0
 30
0.0
  9
$UCSORGBACK
 10
0.0
 20
0.0
 30
0.0
  9
$PUCSBASE
  2

  9
$PUCSNAME
  2

  9
$PUCSORG
 10
0.0
 20
0.0
 30
0.0
  9
$PUCSXDIR
 10
1.0
 20
0.0
 30
0.0
  9
$PUCSYDIR
 10
0.0
 20
1.0
 30
0.0
  9
$PUCSORTHOREF
  2

  9
$PUCSORTHOVIEW
 70
     0
  9
$PUCSORGTOP
 10
0.0
 20
0.0
 30
0.0
  9
$PUCSORGBOTTOM
 10
0.0
 20
0.0
 30
0.0
  9
$PUCSORGLEFT
 10
0.0
 20
0.0
 30
0.0
  9
$PUCSORGRIGHT
 10
0.0
 20
0.0
 30
0.0
  9
$PUCSORGFRONT
 10
0.0
 20
0.0
 30
0.0
  9
$PUCSORGBACK
 10
0.0
 20
0.0
 30
0.0
  9
$USERI1
 70
     0
  9
$USERI2
 70
     0
  9
$USERI3
 70
     0
  9
$USERI4
 70
     0
  9
$USERI5
 70
     0
  9
$USERR1
 40
0.0
  9
$USERR2
 40
0.0
  9
$USERR3
 40
0.0
  9
$USERR4
 40
0.0
  9
$USERR5
 40
0.0
  9
$WORLDVIEW
 70
     1
  9
$SHADEDGE
 70
     3
  9
$SHADEDIF
 70
    70
  9
$TILEMODE
 70
     1
  9
$MAXACTVP
 70
    64
  9
$PINSBASE
 10
0.0
 20
0.0
 30
0.0
  9
$PLIMCHECK
 70
     0
  9
$PEXTMIN
 10
1.0000000000E+20
 20
1.0000000000E+20
 30
1.0000000000E+20
  9
$PEXTMAX
 10
-1.0000000000E+20
 20
-1.0000000000E+20
 30
-1.0000000000E+20
  9
$PLIMMIN
 10
0.0
 20
0.0
  9
$PLIMMAX
 10
12.0
 20
9.0
  9
$UNITMODE
 70
     0
  9
$VISRETAIN
 70
     1
  9
$PLINEGEN
 70
     0
  9
$PSLTSCALE
 70
     1
  9
$TREEDEPTH
 70
  3020
  9
$CMLSTYLE
  2
Standard
  9
$CMLJUST
 70
     0
  9
$CMLSCALE
 40
1.0
  9
$PROXYGRAPHICS
 70
     1
  9
$MEASUREMENT
 70
     0
  9
$CELWEIGHT
370
    -1
  9
$ENDCAPS
280
     0
  9
$JOINSTYLE
280
     0
  9
$LWDISPLAY
290
     1
  9
$INSUNITS
 70
     1
  9
$HYPERLINKBASE
  1

  9
$STYLESHEET
  1

  9
$XEDIT
290
     1
  9
$CEPSNTYPE
380
     0
  9
$PSTYLEMODE
290
     1
  9
$FINGERPRINTGUID
  2
{e35553e0-b4d4-4193-8faf-dc224dcba498}
  9
$VERSIONGUID
  2
{FAEB1C32-E019-11D5-929B-00C0DF256EC4}
  9
$EXTNAMES
290
     1
  9
$PSVPSCALE
 40
0.0
  9
$OLESTARTUP
290
     0
  0
ENDSEC
  0
SECTION
  2
CLASSES
  0
CLASS
  1
ACDBDICTIONARYWDFLT
  2
AcDbDictionaryWithDefault
  3
ObjectDBX Classes
 90
        0
280
     0
281
     0
  0
CLASS
  1
VISUALSTYLE
  2
AcDbVisualStyle
  3
ObjectDBX Classes
 90
     4095
280
     0
281
     0
  0
CLASS
  1
MATERIAL
  2
AcDbMaterial
  3
ObjectDBX Classes
 90
     1153
280
     0
281
     0
  0
CLASS
  1
SCALE
  2
AcDbScale
  3
ObjectDBX Classes
 90
     1153
280
     0
281
     0
  0
CLASS
  1
TABLESTYLE
  2
AcDbTableStyle
  3
ObjectDBX Classes
 90
     4095
280
     0
281
     0
  0
CLASS
  1
MLEADERSTYLE
  2
AcDbMLeaderStyle
  3
ACDB_MLEADERSTYLE_CLASS
 90
     4095
280
     0
281
     0
  0
CLASS
  1
SUN
  2
AcDbSun
  3
SCENEOE
 90
     1153
280
     0
281
     0
  0
CLASS
  1
ACDBPLACEHOLDER
  2
AcDbPlaceHolder
  3
ObjectDBX Classes
 90
        0
280
     0
281
     0
  0
CLASS
  1
LAYOUT
  2
AcDbLayout
  3
ObjectDBX Classes
 90
        0
280
     0
281
     0
  0
ENDSEC
  0
SECTION
  2
TABLES
  0
TABLE
  2
VPORT
  5
8
330
0
100
AcDbSymbolTable
 70
     1
  0
VPORT
  5
29
330
8
100
AcDbSymbolTableRecord
100
AcDbViewportTableRecord
  2
*Active
 70
     0
 10
0.0
 20
0.0
 11
1.0
 21
1.0
 12
16.5
 22
12.75
 13
0.0
 23
0.0
 14
0.5
 24
0.5
 15
0.5
 25
0.5
 16
0.0
 26
0.0
 36
1.0
 17
0.0
 27
0.0
 37
0.0
 40
25.5
 41
1.2941176471
 42
50.0
 43
0.0
 44
0.0
 50
0.0
 51
0.0
 71
     0
 72
  2000
 73
     1
 74
     3
 75
     0
 76
     0
 77
     0
 78
     0
281
     0
 65
     1
110
0.0
120
0.0
130
0.0
111
1.0
121
0.0
131
0.0
112
0.0
122
1.0
132
0.0
 79
     0
146
0.0
  0
ENDTAB
  0
TABLE
  2
LTYPE
  5
5
330
0
100
AcDbSymbolTable
 70
     6
  0
LTYPE
  5
14
330
5
100
AcDbSymbolTableRecord
100
AcDbLinetypeTableRecord
  2
ByBlock
 70
     0
  3

 72
    65
 73
     0
 40
0.0
  0
LTYPE
  5
15
330
5
100
AcDbSymbolTableRecord
100
AcDbLinetypeTableRecord
  2
ByLayer
 70
     0
  3

 72
    65
 73
     0
 40
0.0
  0
LTYPE
  5
16
330
5
100
AcDbSymbolTableRecord
100
AcDbLinetypeTableRecord
  2
Continuous
 70
     0
  3
Solid line
 72
    65
 73
     0
 40
0.0
  0
LTYPE
  5
5E
330
5
100
AcDbSymbolTableRecord
100
AcDbLinetypeTableRecord
  2
HIDDEN
 70
     0
  3
Hidden __ __ __ __ __ __ __ __ __ __ __ __ __ __
 72
    65
 73
     2
 40
0.075
 49
0.05
 74
     0
 49
-0.025
 74
     0
  0
LTYPE
  5
5F
330
5
100
AcDbSymbolTableRecord
100
AcDbLinetypeTableRecord
  2
PHANTOM
 70
     0
  3
Phantom ______  __  __  ______  __  __  ______
 72
    65
 73
     6
 40
0.5
 49
0.25
 74
     0
 49
-0.05
 74
     0
 49
0.05
 74
     0
 49
-0.05
 74
     0
 49
0.05
 74
     0
 49
-0.05
 74
     0
  0
LTYPE
  5
60
330
5
100
AcDbSymbolTableRecord
100
AcDbLinetypeTableRecord
  2
CENTER
 70
     0
  3
Center ____ _ ____ _ ____ _ ____ _ ____ _ ____
 72
    65
 73
     4
 40
0.4
 49
0.25
 74
     0
 49
-0.05
 74
     0
 49
0.05
 74
     0
 49
-0.05
 74
     0
  0
LTYPE
  5
61
330
5
100
AcDbSymbolTableRecord
100
AcDbLinetypeTableRecord
  2
CENTERX2
 70
     0
  3
Center (2x) ________  __  ________  __  _____
 72
    65
 73
     4
 40
0.8
 49
0.5
 74
     0
 49
-0.1
 74
     0
 49
0.1
 74
     0
 49
-0.1
 74
     0
  0
LTYPE
  5
62
330
5
100
AcDbSymbolTableRecord
100
AcDbLinetypeTableRecord
  2
DOT2
 70
     0
  3
Dot (.5x) ........................................
 72
    65
 73
     2
 40
0.025
 49
0.0
 74
     0
 49
-0.025
 74
     0
  0
ENDTAB
  0
TABLE
  2
LAYER
  5
2
330
0
100
AcDbSymbolTable
 70
    12
  0
LAYER
  5
10
330
2
100
AcDbSymbolTableRecord
100
AcDbLayerTableRecord
  2
0
 70
     0
 62
     7
  6
Continuous
370
    -3
390
F
  0
LAYER
  5
63
330
2
100
AcDbSymbolTableRecord
100
AcDbLayerTableRecord
  2
SLD-0
 70
     0
 62
     7
  6
Continuous
370
    -3
390
F
  0
LAYER
  5
64
330
2
100
AcDbSymbolTableRecord
100
AcDbLayerTableRecord
  2
DIM
 70
     0
 62
     7
  6
Continuous
370
    -3
390
F
  0
LAYER
  5
65
330
2
100
AcDbSymbolTableRecord
100
AcDbLayerTableRecord
  2
CEN
 70
     0
 62
     1
  6
CENTER
370
    -3
390
F
  0
LAYER
  5
66
330
2
100
AcDbSymbolTableRecord
100
AcDbLayerTableRecord
  2
HAT
 70
     0
 62
     4
  6
Continuous
370
    -3
390
F
  0
LAYER
  5
67
330
2
100
AcDbSymbolTableRecord
100
AcDbLayerTableRecord
  2
OBJ
 70
     0
 62
     5
  6
Continuous
370
    -3
390
F
  0
LAYER
  5
68
330
2
100
AcDbSymbolTableRecord
100
AcDbLayerTableRecord
  2
SLD-DEFPOINTS
 70
     0
 62
     7
  6
Continuous
370
    -3
390
F
  0
LAYER
  5
69
330
2
100
AcDbSymbolTableRecord
100
AcDbLayerTableRecord
  2
HID
 70
     0
 62
     4
  6
HIDDEN
370
    -3
390
F
  0
LAYER
  5
6A
330
2
100
AcDbSymbolTableRecord
100
AcDbLayerTableRecord
  2
NOTE
 70
     0
 62
     7
  6
Continuous
370
    -3
390
F
  0
LAYER
  5
6B
330
2
100
AcDbSymbolTableRecord
100
AcDbLayerTableRecord
  2
VP
 70
     0
 62
    -5
  6
Continuous
290
     0
370
    -3
390
F
  0
LAYER
  5
6C
330
2
100
AcDbSymbolTableRecord
100
AcDbLayerTableRecord
  2
TITLE
 70
     0
 62
     7
  6
Continuous
370
    -3
390
F
  0
LAYER
  5
6D
330
2
100
AcDbSymbolTableRecord
100
AcDbLayerTableRecord
  2
THICK_TITLE
 70
     0
 62
     7
  6
Continuous
370
   100
390
F
  0
ENDTAB
  0
TABLE
  2
STYLE
  5
3
330
0
100
AcDbSymbolTable
 70
     2
  0
STYLE
  5
11
330
3
100
AcDbSymbolTableRecord
100
AcDbTextStyleTableRecord
  2
STANDARD
 70
     0
 40
0.0
 41
1.0
 50
0.0
 71
     0
 42
0.375
  3
GOTHIC.TTF
  4

1001
ACAD
1000
CENTURY GOTHIC
1071
       34
  0
STYLE
  5
74
330
3
100
AcDbSymbolTableRecord
100
AcDbTextStyleTableRecord
  2
SLDTEXTSTYLE0
 70
     0
 40
0.0
 41
0.913
 50
0.0
 71
     0
 42
0.375
  3
GOTHIC.TTF
  4

1001
ACAD
1000
Century Gothic
1071
      290
  0
ENDTAB
  0
TABLE
  2
VIEW
  5
6
330
0
100
AcDbSymbolTable
 70
     0
  0
ENDTAB
  0
TABLE
  2
UCS
  5
7
330
0
100
AcDbSymbolTable
 70
     0
  0
ENDTAB
  0
TABLE
  2
APPID
  5
9
330
0
100
AcDbSymbolTable
 70
     1
  0
APPID
  5
12
330
9
100
AcDbSymbolTableRecord
100
AcDbRegAppTableRecord
  2
ACAD
 70
     0
  0
ENDTAB
  0
TABLE
  2
DIMSTYLE
  5
A
330
0
100
AcDbSymbolTable
 70
     6
100
AcDbDimStyleTable
  0
DIMSTYLE
105
27
330
A
100
AcDbSymbolTableRecord
100
AcDbDimStyleTableRecord
  2
Standard
 70
     0
178
     0
340
11
  0
DIMSTYLE
105
98
102
{ACAD_REACTORS
330
97
330
AD
330
D7
330
EA
102
}
330
A
100
AcDbSymbolTableRecord
100
AcDbDimStyleTableRecord
  2
SLDDIMSTYLE0
 70
     0
 41
0.39
 44
0.0
 45
0.000000001
 78
    12
 79
     3
140
0.375
147
0.09375
148
0.000000001
170
     1
172
     1
173
     1
178
     0
271
     6
272
     0
276
     2
277
     5
284
    12
289
     0
340
74
  0
DIMSTYLE
105
C3
102
{ACAD_REACTORS
330
C2
330
FF
102
}
330
A
100
AcDbSymbolTableRecord
100
AcDbDimStyleTableRecord
  2
SLDDIMSTYLE1
 70
     0
 41
0.39
 44
0.0
 45
0.000000001
 78
    12
 79
     3
140
0.375
147
0.09375
148
0.000000001
170
     1
173
     1
178
     0
271
     6
272
     0
276
     2
277
     5
284
    12
340
74
  0
DIMSTYLE
105
113
102
{ACAD_REACTORS
330
112
102
}
330
A
100
AcDbSymbolTableRecord
100
AcDbDimStyleTableRecord
  2
SLDDIMSTYLE2
 70
     0
 41
0.39
 44
0.0
 45
0.000000001
 78
    12
 79
     3
140
0.375
147
0.09375
148
0.000000001
170
     1
172
     1
173
     1
178
     0
271
     0
272
     0
276
     2
277
     5
284
    12
289
     0
340
74
  0
DIMSTYLE
105
1B6
102
{ACAD_REACTORS
330
1B5
102
}
330
A
100
AcDbSymbolTableRecord
100
AcDbDimStyleTableRecord
  2
SLDDIMSTYLE3
 70
     0
 41
0.39
 44
0.0
 45
0.000000001
 78
    12
 79
     3
140
0.375
147
0.09375
148
0.000000001
170
     1
173
     1
178
     0
271
     0
272
     0
276
     2
277
     5
284
    12
340
74
  0
DIMSTYLE
105
1C3
102
{ACAD_REACTORS
330
1C2
330
1D3
102
}
330
A
100
AcDbSymbolTableRecord
100
AcDbDimStyleTableRecord
  2
SLDDIMSTYLE4
 70
     0
 41
0.39
 44
0.0
 45
0.000000001
 78
    12
 79
     3
140
0.375
141
0.0
147
0.09375
148
0.000000001
170
     1
173
     1
178
     0
271
     0
272
     0
276
     2
277
     5
284
    12
340
74
  0
ENDTAB
  0
TABLE
  2
BLOCK_RECORD
  5
1
330
0
100
AcDbSymbolTable
 70
    15
  0
BLOCK_RECORD
  5
1F
330
1
100
AcDbSymbolTableRecord
100
AcDbBlockTableRecord
  2
*Model_Space
340
22
  0
BLOCK_RECORD
  5
1B
330
1
100
AcDbSymbolTableRecord
100
AcDbBlockTableRecord
  2
*Paper_Space
340
1E
  0
BLOCK_RECORD
  5
23
330
1
100
AcDbSymbolTableRecord
100
AcDbBlockTableRecord
  2
*Paper_Space0
340
26
  0
BLOCK_RECORD
  5
6E
330
1
100
AcDbSymbolTableRecord
100
AcDbBlockTableRecord
  2
Block1
340
0
  0
BLOCK_RECORD
  5
71
330
1
100
AcDbSymbolTableRecord
100
AcDbBlockTableRecord
  2
SW_NOTE_0
340
0
102
{BLKREFS
331
76
102
}
  0
BLOCK_RECORD
  5
77
330
1
100
AcDbSymbolTableRecord
100
AcDbBlockTableRecord
  2
Block2
340
0
  0
BLOCK_RECORD
  5
7A
330
1
100
AcDbSymbolTableRecord
100
AcDbBlockTableRecord
  2
SW_NOTE_0_1
340
0
102
{BLKREFS
331
7E
102
}
  0
BLOCK_RECORD
  5
99
330
1
100
AcDbSymbolTableRecord
100
AcDbBlockTableRecord
  2
_D
340
0
  0
BLOCK_RECORD
  5
AE
330
1
100
AcDbSymbolTableRecord
100
AcDbBlockTableRecord
  2
_D_1
340
0
  0
BLOCK_RECORD
  5
C4
330
1
100
AcDbSymbolTableRecord
100
AcDbBlockTableRecord
  2
_D_2
340
0
  0
BLOCK_RECORD
  5
D8
330
1
100
AcDbSymbolTableRecord
100
AcDbBlockTableRecord
  2
_D_3
340
0
  0
BLOCK_RECORD
  5
EB
330
1
100
AcDbSymbolTableRecord
100
AcDbBlockTableRecord
  2
_D_4
340
0
  0
BLOCK_RECORD
  5
100
330
1
100
AcDbSymbolTableRecord
100
AcDbBlockTableRecord
  2
_D_5
340
0
  0
BLOCK_RECORD
  5
114
330
1
100
AcDbSymbolTableRecord
100
AcDbBlockTableRecord
  2
_D_6
340
0
  0
BLOCK_RECORD
  5
1B7
330
1
100
AcDbSymbolTableRecord
100
AcDbBlockTableRecord
  2
_D_7
340
0
  0
BLOCK_RECORD
  5
1C4
330
1
100
AcDbSymbolTableRecord
100
AcDbBlockTableRecord
  2
_D_8
340
0
  0
BLOCK_RECORD
  5
1D4
330
1
100
AcDbSymbolTableRecord
100
AcDbBlockTableRecord
  2
_D_9
340
0
  0
ENDTAB
  0
ENDSEC
  0
SECTION
  2
BLOCKS
  0
BLOCK
  5
20
330
1F
100
AcDbEntity
  8
0
100
AcDbBlockBegin
  2
*Model_Space
 70
     0
 10
0.0
 20
0.0
 30
0.0
  3
*Model_Space
  1

  0
ENDBLK
  5
21
330
1F
100
AcDbEntity
  8
0
100
AcDbBlockEnd
  0
BLOCK
  5
1C
330
1B
100
AcDbEntity
 67
     1
  8
0
100
AcDbBlockBegin
  2
*Paper_Space
 70
     0
 10
0.0
 20
0.0
 30
0.0
  3
*Paper_Space
  1

  0
ENDBLK
  5
1D
330
1B
100
AcDbEntity
 67
     1
  8
0
100
AcDbBlockEnd
  0
BLOCK
  5
24
330
23
100
AcDbEntity
  8
0
100
AcDbBlockBegin
  2
*Paper_Space0
 70
     0
 10
0.0
 20
0.0
 30
0.0
  3
*Paper_Space0
  1

  0
ENDBLK
  5
25
330
23
100
AcDbEntity
  8
0
100
AcDbBlockEnd
  0
BLOCK
  5
6F
330
6E
100
AcDbEntity
  8
0
100
AcDbBlockBegin
  2
Block1
 70
     0
 10
0.0
 20
0.0
 30
0.0
  3
Block1
  1

  0
INSERT
  5
76
330
6E
100
AcDbEntity
  8
0
  6
Continuous
 62
     7
370
     0
100
AcDbBlockReference
  2
SW_NOTE_0
 10
0.0047044496
 20
-0.0521462902
 30
0.0
  0
ENDBLK
  5
70
330
6E
100
AcDbEntity
  8
0
100
AcDbBlockEnd
  0
BLOCK
  5
72
330
71
100
AcDbEntity
  8
0
100
AcDbBlockBegin
  2
SW_NOTE_0
 70
     0
 10
0.0
 20
0.0
 30
0.0
  3
SW_NOTE_0
  1

  0
MTEXT
  5
75
330
71
100
AcDbEntity
  8
0
  6
Continuous
 62
     0
370
     0
100
AcDbMText
 10
1.7578125
 20
0.7983398438
 30
0.0
 40
0.625
 41
0.0
 71
     2
 72
     1
  1
SURFACE
  7
SLDTEXTSTYLE0
 73
     1
 44
1.0
  0
ENDBLK
  5
73
330
71
100
AcDbEntity
  8
0
100
AcDbBlockEnd
  0
BLOCK
  5
78
330
77
100
AcDbEntity
  8
0
100
AcDbBlockBegin
  2
Block2
 70
     0
 10
0.0
 20
0.0
 30
0.0
  3
Block2
  1

  0
INSERT
  5
7E
330
77
100
AcDbEntity
  8
0
  6
Continuous
 62
     7
370
     0
100
AcDbBlockReference
  2
SW_NOTE_0_1
 10
0.5061819218
 20
0.8525423419
 30
0.0
  0
ENDBLK
  5
79
330
77
100
AcDbEntity
  8
0
100
AcDbBlockEnd
  0
BLOCK
  5
7B
330
7A
100
AcDbEntity
  8
0
100
AcDbBlockBegin
  2
SW_NOTE_0_1
 70
     0
 10
0.0
 20
0.0
 30
0.0
  3
SW_NOTE_0_1
  1

  0
MTEXT
  5
7D
330
7A
100
AcDbEntity
  8
0
  6
Continuous
 62
     0
370
     0
100
AcDbMText
 10
1.142578125
 20
0.7983398438
 30
0.0
 40
0.625
 41
0.0
 71
     2
 72
     1
  1
FLUSH
  7
SLDTEXTSTYLE0
 73
     1
 44
1.0
  0
ENDBLK
  5
7C
330
7A
100
AcDbEntity
  8
0
100
AcDbBlockEnd
  0
BLOCK
  5
9A
330
99
100
AcDbEntity
  8
0
100
AcDbBlockBegin
  2
_D
 70
     0
 10
0.0
 20
0.0
 30
0.0
  3
_D
  1

  0
SOLID
  5
9C
330
99
100
AcDbEntity
  8
0
  6
Continuous
 62
     7
370
    18
100
AcDbTrace
 10
5.897010338
 20
13.3954753233
 30
0.0
 11
5.957010338
 21
13.7854753233
 31
0.0
 12
5.837010338
 22
13.7854753233
 32
0.0
 13
5.837010338
 23
13.7854753233
 33
0.0
  0
SOLID
  5
9D
330
99
100
AcDbEntity
  8
0
  6
Continuous
 62
     7
370
    18
100
AcDbTrace
 10
5.897010338
 20
13.2629753233
 30
0.0
 11
5.837010338
 21
12.8729753233
 31
0.0
 12
5.957010338
 22
12.8729753233
 32
0.0
 13
5.957010338
 23
12.8729753233
 33
0.0
  0
LINE
  5
9E
330
99
100
AcDbEntity
  8
0
  6
Continuous
 62
     7
370
     0
100
AcDbLine
 10
3.3371911029
 20
14.5737130436
 30
0.0
 11
3.2229332915
 21
14.5737130436
 31
0.0
  0
LINE
  5
9F
330
99
100
AcDbEntity
  8
0
  6
Continuous
 62
     7
370
     0
100
AcDbLine
 10
3.2229332915
 20
14.5737130436
 30
0.0
 11
3.2229332915
 21
13.9784005257
 31
0.0
  0
LINE
  5
A0
330
99
100
AcDbEntity
  8
0
  6
Continuous
 62
     7
370
     0
100
AcDbLine
 10
3.2229332915
 20
13.9784005257
 30
0.0
 11
3.3371911029
 21
13.9784005257
 31
0.0
  0
LINE
  5
A1
330
99
100
AcDbEntity
  8
0
  6
Continuous
 62
     7
370
     0
100
AcDbLine
 10
4.5517744119
 20
14.5737130436
 30
0.0
 11
4.6660322232
 21
14.5737130436
 31
0.0
  0
LINE
  5
A2
330
99
100
AcDbEntity
  8
0
  6
Continuous
 62
     7
370
     0
100
AcDbLine
 10
4.6660322232
 20
14.5737130436
 30
0.0
 11
4.6660322232
 21
13.9784005257
 31
0.0
  0
LINE
  5
A3
330
99
100
AcDbEntity
  8
0
  6
Continuous
 62
     7
370
     0
100
AcDbLine
 10
4.6660322232
 20
13.9784005257
 30
0.0
 11
4.5517744119
 21
13.9784005257
 31
0.0
  0
LINE
  5
A4
330
99
100
AcDbEntity
  8
0
  6
Continuous
 62
     7
370
     0
100
AcDbLine
 10
7.4605432453
 20
13.3954753233
 30
0.0
 11
5.522010338
 21
13.3954753233
 31
0.0
  0
LINE
  5
A5
330
99
100
AcDbEntity
  8
0
  6
Continuous
 62
     7
370
     0
100
AcDbLine
 10
7.1955432453
 20
13.2629753233
 30
0.0
 11
5.522010338
 21
13.2629753233
 31
0.0
  0
LINE
  5
A6
330
99
100
AcDbEntity
  8
0
  6
Continuous
 62
     7
370
     0
100
AcDbLine
 10
5.147010338
 20
14.5765776855
 30
0.0
 11
5.897010338
 21
14.5765776855
 31
0.0
  0
LINE
  5
A7
330
99
100
AcDbEntity
  8
0
  6
Continuous
 62
     7
370
     0
100
AcDbLine
 10
5.897010338
 20
14.5765776855
 30
0.0
 11
5.897010338
 21
13.3954753233
 31
0.0
  0
LINE
  5
A8
330
99
100
AcDbEntity
  8
0
  6
Continuous
 62
     7
370
     0
100
AcDbLine
 10
5.897010338
 20
13.2629753233
 30
0.0
 11
5.897010338
 21
12.5129753233
 31
0.0
  0
MTEXT
  5
A9
330
99
100
AcDbEntity
  8
0
  6
Continuous
 62
     7
370
    18
100
AcDbMText
 10
2.9701338131
 20
15.13461803
 30
0.0
 40
0.375
 41
0.0
 71
     1
 72
     1
  1
 
  7
SLDTEXTSTYLE0
 73
     1
 44
1.0
  0
MTEXT
  5
AA
330
99
100
AcDbEntity
  8
0
  6
Continuous
 62
     7
370
    18
100
AcDbMText
 10
3.4806806228
 20
15.1288888355
 30
0.0
 40
0.375
 41
0.0
 71
     1
 72
     1
  1
1/8"
  7
SLDTEXTSTYLE0
 73
     1
 44
1.0
  0
MTEXT
  5
AB
330
99
100
AcDbEntity
  8
0
  6
Continuous
 62
     7
370
    18
100
AcDbMText
 10
3.3371911029
 20
14.4574044732
 30
0.0
 40
0.375
 41
0.0
 71
     1
 72
     1
  1
3mm
  7
SLDTEXTSTYLE0
 73
     1
 44
1.0
  0
MTEXT
  5
AC
330
99
100
AcDbEntity
  8
0
  6
Continuous
 62
     7
370
    18
100
AcDbMText
 10
4.7802899521
 20
15.13461803
 30
0.0
 40
0.375
 41
0.0
 71
     1
 72
     1
  1
 
  7
SLDTEXTSTYLE0
 73
     1
 44
1.0
  0
ENDBLK
  5
9B
330
99
100
AcDbEntity
  8
0
100
AcDbBlockEnd
  0
BLOCK
  5
AF
330
AE
100
AcDbEntity
  8
0
100
AcDbBlockBegin
  2
_D_1
 70
     0
 10
0.0
 20
0.0
 30
0.0
  3
_D_1
  1

  0
SOLID
  5
B1
330
AE
100
AcDbEntity
  8
0
  6
Continuous
 62
     7
370
    18
100
AcDbTrace
 10
6.7924986282
 20
13.3954753233
 30
0.0
 11
6.8524986282
 21
13.7854753233
 31
0.0
 12
6.7324986282
 22
13.7854753233
 32
0.0
 13
6.7324986282
 23
13.7854753233
 33
0.0
  0
SOLID
  5
B2
330
AE
100
AcDbEntity
  8
0
  6
Continuous
 62
     7
370
    18
100
AcDbTrace
 10
6.7924986282
 20
11.6454753233
 30
0.0
 11
6.7324986282
 21
11.2554753233
 31
0.0
 12
6.8524986282
 22
11.2554753233
 32
0.0
 13
6.8524986282
 23
11.2554753233
 33
0.0
  0
LINE
  5
B3
330
AE
100
AcDbEntity
  8
0
  6
Continuous
 62
     7
370
     0
100
AcDbLine
 10
3.2188108083
 20
10.3939710964
 30
0.0
 11
3.104552997
 21
10.3939710964
 31
0.0
  0
LINE
  5
B4
330
AE
100
AcDbEntity
  8
0
  6
Continuous
 62
     7
370
     0
100
AcDbLine
 10
3.104552997
 20
10.3939710964
 30
0.0
 11
3.104552997
 21
9.7986585785
 31
0.0
  0
LINE
  5
B5
330
AE
100
AcDbEntity
  8
0
  6
Continuous
 62
     7
370
     0
100
AcDbLine
 10
3.104552997
 20
9.7986585785
 30
0.0
 11
3.2188108083
 21
9.7986585785
 31
0.0
  0
LINE
  5
B6
330
AE
100
AcDbEntity
  8
0
  6
Continuous
 62
     7
370
     0
100
AcDbLine
 10
4.7104775065
 20
10.3939710964
 30
0.0
 11
4.8247353178
 21
10.3939710964
 31
0.0
  0
LINE
  5
B7
330
AE
100
AcDbEntity
  8
0
  6
Continuous
 62
     7
370
     0
100
AcDbLine
 10
4.8247353178
 20
10.3939710964
 30
0.0
 11
4.8247353178
 21
9.7986585785
 31
0.0
  0
LINE
  5
B8
330
AE
100
AcDbEntity
  8
0
  6
Continuous
 62
     7
370
     0
100
AcDbLine
 10
4.8247353178
 20
9.7986585785
 30
0.0
 11
4.7104775065
 21
9.7986585785
 31
0.0
  0
LINE
  5
B9
330
AE
100
AcDbEntity
  8
0
  6
Continuous
 62
     7
370
     0
100
AcDbLine
 10
7.4605432453
 20
13.3954753233
 30
0.0
 11
6.4174986282
 21
13.3954753233
 31
0.0
  0
LINE
  5
BA
330
AE
100
AcDbEntity
  8
0
  6
Continuous
 62
     7
370
     0
100
AcDbLine
 10
7.4605432453
 20
11.6454753233
 30
0.0
 11
6.4174986282
 21
11.6454753233
 31
0.0
  0
LINE
  5
BB
330
AE
100
AcDbEntity
  8
0
  6
Continuous
 62
     7
370
     0
100
AcDbLine
 10
5.3057133226
 20
10.3968357383
 30
0.0
 11
6.7924986282
 21
10.3968357383
 31
0.0
  0
LINE
  5
BC
330
AE
100
AcDbEntity
  8
0
  6
Continuous
 62
     7
370
     0
100
AcDbLine
 10
6.7924986282
 20
10.3968357383
 30
0.0
 11
6.7924986282
 21
11.6454753233
 31
0.0
  0
LINE
  5
BD
330
AE
100
AcDbEntity
  8
0
  6
Continuous
 62
     7
370
     0
100
AcDbLine
 10
6.7924986282
 20
13.3954753233
 30
0.0
 11
6.7924986282
 21
14.1454753233
 31
0.0
  0
MTEXT
  5
BE
330
AE
100
AcDbEntity
  8
0
  6
Continuous
 62
     7
370
    18
100
AcDbMText
 10
2.8517535186
 20
10.9548760828
 30
0.0
 40
0.375
 41
0.0
 71
     1
 72
     1
  1
 
  7
SLDTEXTSTYLE0
 73
     1
 44
1.0
  0
MTEXT
  5
BF
330
AE
100
AcDbEntity
  8
0
  6
Continuous
 62
     7
370
    18
100
AcDbMText
 10
3.2930295635
 20
10.9491468883
 30
0.0
 40
0.375
 41
0.0
 71
     1
 72
     1
  1
1 3/4"
  7
SLDTEXTSTYLE0
 73
     1
 44
1.0
  0
MTEXT
  5
C0
330
AE
100
AcDbEntity
  8
0
  6
Continuous
 62
     7
370
    18
100
AcDbMText
 10
3.2188108083
 20
10.277662526
 30
0.0
 40
0.375
 41
0.0
 71
     1
 72
     1
  1
44mm
  7
SLDTEXTSTYLE0
 73
     1
 44
1.0
  0
MTEXT
  5
C1
330
AE
100
AcDbEntity
  8
0
  6
Continuous
 62
     7
370
    18
100
AcDbMText
 10
4.9389930466
 20
10.9548760828
 30
0.0
 40
0.375
 41
0.0
 71
     1
 72
     1
  1
 
  7
SLDTEXTSTYLE0
 73
     1
 44
1.0
  0
ENDBLK
  5
B0
330
AE
100
AcDbEntity
  8
0
100
AcDbBlockEnd
  0
BLOCK
  5
C5
330
C4
100
AcDbEntity
  8
0
100
AcDbBlockBegin
  2
_D_2
 70
     0
 10
0.0
 20
0.0
 30
0.0
  3
_D_2
  1

  0
SOLID
  5
C7
330
C4
100
AcDbEntity
  8
0
  6
Continuous
 62
     7
370
    18
100
AcDbTrace
 10
16.0261128978
 20
13.3954753233
 30
0.0
 11
15.9661128978
 21
13.0054753233
 31
0.0
 12
16.0861128978
 22
13.0054753233
 32
0.0
 13
16.0861128978
 23
13.0054753233
 33
0.0
  0
SOLID
  5
C8
330
C4
100
AcDbEntity
  8
0
  6
Continuous
 62
     7
370
    18
100
AcDbTrace
 10
16.0261128978
 20
2.2754753233
 30
0.0
 11
16.0861128978
 21
2.6654753233
 31
0.0
 12
15.9661128978
 22
2.6654753233
 32
0.0
 13
15.9661128978
 23
2.6654753233
 33
0.0
  0
LINE
  5
C9
330
C4
100
AcDbEntity
  8
0
  6
Continuous
 62
     7
370
     0
100
AcDbLine
 10
15.1417379641
 20
7.8326106814
 30
0.0
 11
15.0274801528
 21
7.8326106814
 31
0.0
  0
LINE
  5
CA
330
C4
100
AcDbEntity
  8
0
  6
Continuous
 62
     7
370
     0
100
AcDbLine
 10
15.0274801528
 20
7.8326106814
 30
0.0
 11
15.0274801528
 21
7.2372981635
 31
0.0
  0
LINE
  5
CB
330
C4
100
AcDbEntity
  8
0
  6
Continuous
 62
     7
370
     0
100
AcDbLine
 10
15.0274801528
 20
7.2372981635
 30
0.0
 11
15.1417379641
 21
7.2372981635
 31
0.0
  0
LINE
  5
CC
330
C4
100
AcDbEntity
  8
0
  6
Continuous
 62
     7
370
     0
100
AcDbLine
 10
16.9104879414
 20
7.8326106814
 30
0.0
 11
17.0247457527
 21
7.8326106814
 31
0.0
  0
LINE
  5
CD
330
C4
100
AcDbEntity
  8
0
  6
Continuous
 62
     7
370
     0
100
AcDbLine
 10
17.0247457527
 20
7.8326106814
 30
0.0
 11
17.0247457527
 21
7.2372981635
 31
0.0
  0
LINE
  5
CE
330
C4
100
AcDbEntity
  8
0
  6
Continuous
 62
     7
370
     0
100
AcDbLine
 10
17.0247457527
 20
7.2372981635
 30
0.0
 11
16.9104879414
 21
7.2372981635
 31
0.0
  0
LINE
  5
CF
330
C4
100
AcDbEntity
  8
0
  6
Continuous
 62
     7
370
     0
100
AcDbLine
 10
12.7305432453
 20
13.3954753233
 30
0.0
 11
16.4011128978
 21
13.3954753233
 31
0.0
  0
LINE
  5
D0
330
C4
100
AcDbEntity
  8
0
  6
Continuous
 62
     7
370
     0
100
AcDbLine
 10
12.4955432453
 20
2.2754753233
 30
0.0
 11
16.4011128978
 21
2.2754753233
 31
0.0
  0
LINE
  5
D1
330
C4
100
AcDbEntity
  8
0
  6
Continuous
 62
     7
370
     0
100
AcDbLine
 10
16.0261128978
 20
13.3954753233
 30
0.0
 11
16.0261128978
 21
8.5098242382
 31
0.0
  0
LINE
  5
D2
330
C4
100
AcDbEntity
  8
0
  6
Continuous
 62
     7
370
     0
100
AcDbLine
 10
16.0261128978
 20
2.2754753233
 30
0.0
 11
16.0261128978
 21
7.1611264084
 31
0.0
  0
MTEXT
  5
D3
330
C4
100
AcDbEntity
  8
0
  6
Continuous
 62
     7
370
    18
100
AcDbMText
 10
14.7746806744
 20
8.3935156678
 30
0.0
 40
0.375
 41
0.0
 71
     1
 72
     1
  1
 
  7
SLDTEXTSTYLE0
 73
     1
 44
1.0
  0
MTEXT
  5
D4
330
C4
100
AcDbEntity
  8
0
  6
Continuous
 62
     7
370
    18
100
AcDbMText
 10
15.2159566642
 20
8.3877864733
 30
0.0
 40
0.375
 41
0.0
 71
     1
 72
     1
  1
11 1/8"
  7
SLDTEXTSTYLE0
 73
     1
 44
1.0
  0
MTEXT
  5
D5
330
C4
100
AcDbEntity
  8
0
  6
Continuous
 62
     7
370
    18
100
AcDbMText
 10
15.1417379641
 20
7.716302111
 30
0.0
 40
0.375
 41
0.0
 71
     1
 72
     1
  1
282mm
  7
SLDTEXTSTYLE0
 73
     1
 44
1.0
  0
MTEXT
  5
D6
330
C4
100
AcDbEntity
  8
0
  6
Continuous
 62
     7
370
    18
100
AcDbMText
 10
17.1390034815
 20
8.3935156678
 30
0.0
 40
0.375
 41
0.0
 71
     1
 72
     1
  1
 
  7
SLDTEXTSTYLE0
 73
     1
 44
1.0
  0
ENDBLK
  5
C6
330
C4
100
AcDbEntity
  8
0
100
AcDbBlockEnd
  0
BLOCK
  5
D9
330
D8
100
AcDbEntity
  8
0
100
AcDbBlockBegin
  2
_D_3
 70
     0
 10
0.0
 20
0.0
 30
0.0
  3
_D_3
  1

  0
SOLID
  5
DB
330
D8
100
AcDbEntity
  8
0
  6
Continuous
 62
     7
370
    18
100
AcDbTrace
 10
6.3180432453
 20
5.5025367784
 30
0.0
 11
5.9280432453
 21
5.5625367784
 31
0.0
 12
5.9280432453
 22
5.4425367784
 32
0.0
 13
5.9280432453
 23
5.4425367784
 33
0.0
  0
SOLID
  5
DC
330
D8
100
AcDbEntity
  8
0
  6
Continuous
 62
     7
370
    18
100
AcDbTrace
 10
13.8730432453
 20
5.5025367784
 30
0.0
 11
14.2630432453
 21
5.4425367784
 31
0.0
 12
14.2630432453
 22
5.5625367784
 32
0.0
 13
14.2630432453
 23
5.5625367784
 33
0.0
  0
LINE
  5
DD
330
D8
100
AcDbEntity
  8
0
  6
Continuous
 62
     7
370
     0
100
AcDbLine
 10
3.0981902744
 20
5.5025367234
 30
0.0
 11
2.9839324631
 21
5.5025367234
 31
0.0
  0
LINE
  5
DE
330
D8
100
AcDbEntity
  8
0
  6
Continuous
 62
     7
370
     0
100
AcDbLine
 10
2.9839324631
 20
5.5025367234
 30
0.0
 11
2.9839324631
 21
4.9072242055
 31
0.0
  0
LINE
  5
DF
330
D8
100
AcDbEntity
  8
0
  6
Continuous
 62
     7
370
     0
100
AcDbLine
 10
2.9839324631
 20
4.9072242055
 30
0.0
 11
3.0981902744
 21
4.9072242055
 31
0.0
  0
LINE
  5
E0
330
D8
100
AcDbEntity
  8
0
  6
Continuous
 62
     7
370
     0
100
AcDbLine
 10
4.8669402517
 20
5.5025367234
 30
0.0
 11
4.981198063
 21
5.5025367234
 31
0.0
  0
LINE
  5
E1
330
D8
100
AcDbEntity
  8
0
  6
Continuous
 62
     7
370
     0
100
AcDbLine
 10
4.981198063
 20
5.5025367234
 30
0.0
 11
4.981198063
 21
4.9072242055
 31
0.0
  0
LINE
  5
E2
330
D8
100
AcDbEntity
  8
0
  6
Continuous
 62
     7
370
     0
100
AcDbLine
 10
4.981198063
 20
4.9072242055
 30
0.0
 11
4.8669402517
 21
4.9072242055
 31
0.0
  0
LINE
  5
E3
330
D8
100
AcDbEntity
  8
0
  6
Continuous
 62
     7
370
     0
100
AcDbLine
 10
6.3180432453
 20
7.5004753233
 30
0.0
 11
6.3180432453
 21
5.1275367784
 31
0.0
  0
LINE
  5
E4
330
D8
100
AcDbEntity
  8
0
  6
Continuous
 62
     7
370
     0
100
AcDbLine
 10
13.8730432453
 20
7.5004753233
 30
0.0
 11
13.8730432453
 21
5.1275367784
 31
0.0
  0
LINE
  5
E5
330
D8
100
AcDbEntity
  8
0
  6
Continuous
 62
     7
370
     0
100
AcDbLine
 10
6.3180432453
 20
5.5025367784
 30
0.0
 11
5.1715153648
 21
5.5025367784
 31
0.0
  0
LINE
  5
E6
330
D8
100
AcDbEntity
  8
0
  6
Continuous
 62
     7
370
     0
100
AcDbLine
 10
13.8730432453
 20
5.5025367784
 30
0.0
 11
14.6230432453
 21
5.5025367784
 31
0.0
  0
MTEXT
  5
E7
330
D8
100
AcDbEntity
  8
0
  6
Continuous
 62
     7
370
    18
100
AcDbMText
 10
2.8896355711
 20
6.0577125428
 30
0.0
 40
0.375
 41
0.0
 71
     1
 72
     1
  1
%%c
  7
SLDTEXTSTYLE0
 73
     1
 44
1.0
  0
MTEXT
  5
E8
330
D8
100
AcDbEntity
  8
0
  6
Continuous
 62
     7
370
    18
100
AcDbMText
 10
3.4551824329
 20
6.0577125428
 30
0.0
 40
0.375
 41
0.0
 71
     1
 72
     1
  1
7 9/16"
  7
SLDTEXTSTYLE0
 73
     1
 44
1.0
  0
MTEXT
  5
E9
330
D8
100
AcDbEntity
  8
0
  6
Continuous
 62
     7
370
    18
100
AcDbMText
 10
3.0981902744
 20
5.386228153
 30
0.0
 40
0.375
 41
0.0
 71
     1
 72
     1
  1
192mm
  7
SLDTEXTSTYLE0
 73
     1
 44
1.0
  0
ENDBLK
  5
DA
330
D8
100
AcDbEntity
  8
0
100
AcDbBlockEnd
  0
BLOCK
  5
EC
330
EB
100
AcDbEntity
  8
0
100
AcDbBlockBegin
  2
_D_4
 70
     0
 10
0.0
 20
0.0
 30
0.0
  3
_D_4
  1

  0
SOLID
  5
EE
330
EB
100
AcDbEntity
  8
0
  6
Continuous
 62
     7
370
    18
100
AcDbTrace
 10
5.7681843451
 20
6.7754753233
 30
0.0
 11
5.7081843451
 21
6.3854753233
 31
0.0
 12
5.8281843451
 22
6.3854753233
 32
0.0
 13
5.8281843451
 23
6.3854753233
 33
0.0
  0
SOLID
  5
EF
330
EB
100
AcDbEntity
  8
0
  6
Continuous
 62
     7
370
    18
100
AcDbTrace
 10
5.7681843451
 20
7.6504753233
 30
0.0
 11
5.8281843451
 21
8.0404753233
 31
0.0
 12
5.7081843451
 22
8.0404753233
 32
0.0
 13
5.7081843451
 23
8.0404753233
 33
0.0
  0
LINE
  5
F0
330
EB
100
AcDbEntity
  8
0
  6
Continuous
 62
     7
370
     0
100
AcDbLine
 10
3.2252609374
 20
8.6526881229
 30
0.0
 11
3.1110031261
 21
8.6526881229
 31
0.0
  0
LINE
  5
F1
330
EB
100
AcDbEntity
  8
0
  6
Continuous
 62
     7
370
     0
100
AcDbLine
 10
3.1110031261
 20
8.6526881229
 30
0.0
 11
3.1110031261
 21
8.057375605
 31
0.0
  0
LINE
  5
F2
330
EB
100
AcDbEntity
  8
0
  6
Continuous
 62
     7
370
     0
100
AcDbLine
 10
3.1110031261
 20
8.057375605
 30
0.0
 11
3.2252609374
 21
8.057375605
 31
0.0
  0
LINE
  5
F3
330
EB
100
AcDbEntity
  8
0
  6
Continuous
 62
     7
370
     0
100
AcDbLine
 10
4.7169276355
 20
8.6526881229
 30
0.0
 11
4.8311854469
 21
8.6526881229
 31
0.0
  0
LINE
  5
F4
330
EB
100
AcDbEntity
  8
0
  6
Continuous
 62
     7
370
     0
100
AcDbLine
 10
4.8311854469
 20
8.6526881229
 30
0.0
 11
4.8311854469
 21
8.057375605
 31
0.0
  0
LINE
  5
F5
330
EB
100
AcDbEntity
  8
0
  6
Continuous
 62
     7
370
     0
100
AcDbLine
 10
4.8311854469
 20
8.057375605
 30
0.0
 11
4.7169276355
 21
8.057375605
 31
0.0
  0
LINE
  5
F6
330
EB
100
AcDbEntity
  8
0
  6
Continuous
 62
     7
370
     0
100
AcDbLine
 10
6.1985989186
 20
6.7754753233
 30
0.0
 11
5.3931843451
 21
6.7754753233
 31
0.0
  0
LINE
  5
F7
330
EB
100
AcDbEntity
  8
0
  6
Continuous
 62
     7
370
     0
100
AcDbLine
 10
6.6960826423
 20
7.6504753233
 30
0.0
 11
5.3931843451
 21
7.6504753233
 31
0.0
  0
LINE
  5
F8
330
EB
100
AcDbEntity
  8
0
  6
Continuous
 62
     7
370
     0
100
AcDbLine
 10
5.3121634516
 20
8.6555527648
 30
0.0
 11
5.7681843451
 21
8.6555527648
 31
0.0
  0
LINE
  5
F9
330
EB
100
AcDbEntity
  8
0
  6
Continuous
 62
     7
370
     0
100
AcDbLine
 10
5.7681843451
 20
8.6555527648
 30
0.0
 11
5.7681843451
 21
7.6504753233
 31
0.0
  0
LINE
  5
FA
330
EB
100
AcDbEntity
  8
0
  6
Continuous
 62
     7
370
     0
100
AcDbLine
 10
5.7681843451
 20
6.7754753233
 30
0.0
 11
5.7681843451
 21
6.0254753233
 31
0.0
  0
MTEXT
  5
FB
330
EB
100
AcDbEntity
  8
0
  6
Continuous
 62
     7
370
    18
100
AcDbMText
 10
2.8582036477
 20
9.2135931092
 30
0.0
 40
0.375
 41
0.0
 71
     1
 72
     1
  1
 
  7
SLDTEXTSTYLE0
 73
     1
 44
1.0
  0
MTEXT
  5
FC
330
EB
100
AcDbEntity
  8
0
  6
Continuous
 62
     7
370
    18
100
AcDbMText
 10
3.5072921519
 20
9.2078639148
 30
0.0
 40
0.375
 41
0.0
 71
     1
 72
     1
  1
7/8"
  7
SLDTEXTSTYLE0
 73
     1
 44
1.0
  0
MTEXT
  5
FD
330
EB
100
AcDbEntity
  8
0
  6
Continuous
 62
     7
370
    18
100
AcDbMText
 10
3.2252609374
 20
8.5363795525
 30
0.0
 40
0.375
 41
0.0
 71
     1
 72
     1
  1
22mm
  7
SLDTEXTSTYLE0
 73
     1
 44
1.0
  0
MTEXT
  5
FE
330
EB
100
AcDbEntity
  8
0
  6
Continuous
 62
     7
370
    18
100
AcDbMText
 10
4.9454431757
 20
9.2135931092
 30
0.0
 40
0.375
 41
0.0
 71
     1
 72
     1
  1
 
  7
SLDTEXTSTYLE0
 73
     1
 44
1.0
  0
ENDBLK
  5
ED
330
EB
100
AcDbEntity
  8
0
100
AcDbBlockEnd
  0
BLOCK
  5
101
330
100
100
AcDbEntity
  8
0
100
AcDbBlockBegin
  2
_D_5
 70
     0
 10
0.0
 20
0.0
 30
0.0
  3
_D_5
  1

  0
SOLID
  5
103
330
100
100
AcDbEntity
  8
0
  6
Continuous
 62
     7
370
    18
100
AcDbTrace
 10
7.8455432453
 20
1.0943729611
 30
0.0
 11
8.2355432453
 21
1.0343729611
 31
0.0
 12
8.2355432453
 22
1.1543729611
 32
0.0
 13
8.2355432453
 23
1.1543729611
 33
0.0
  0
SOLID
  5
104
330
100
100
AcDbEntity
  8
0
  6
Continuous
 62
     7
370
    18
100
AcDbTrace
 10
12.3455432453
 20
1.0943729611
 30
0.0
 11
11.9555432453
 21
1.1543729611
 31
0.0
 12
11.9555432453
 22
1.0343729611
 32
0.0
 13
11.9555432453
 23
1.0343729611
 33
0.0
  0
LINE
  5
105
330
100
100
AcDbEntity
  8
0
  6
Continuous
 62
     7
370
     0
100
AcDbLine
 10
9.2111682842
 20
1.0943729061
 30
0.0
 11
9.0969104729
 21
1.0943729061
 31
0.0
  0
LINE
  5
106
330
100
100
AcDbEntity
  8
0
  6
Continuous
 62
     7
370
     0
100
AcDbLine
 10
9.0969104729
 20
1.0943729061
 30
0.0
 11
9.0969104729
 21
0.4990603882
 31
0.0
  0
LINE
  5
107
330
100
100
AcDbEntity
  8
0
  6
Continuous
 62
     7
370
     0
100
AcDbLine
 10
9.0969104729
 20
0.4990603882
 30
0.0
 11
9.2111682842
 21
0.4990603882
 31
0.0
  0
LINE
  5
108
330
100
100
AcDbEntity
  8
0
  6
Continuous
 62
     7
370
     0
100
AcDbLine
 10
10.9799182615
 20
1.0943729061
 30
0.0
 11
11.0941760728
 21
1.0943729061
 31
0.0
  0
LINE
  5
109
330
100
100
AcDbEntity
  8
0
  6
Continuous
 62
     7
370
     0
100
AcDbLine
 10
11.0941760728
 20
1.0943729061
 30
0.0
 11
11.0941760728
 21
0.4990603882
 31
0.0
  0
LINE
  5
10A
330
100
100
AcDbEntity
  8
0
  6
Continuous
 62
     7
370
     0
100
AcDbLine
 10
11.0941760728
 20
0.4990603882
 30
0.0
 11
10.9799182615
 21
0.4990603882
 31
0.0
  0
LINE
  5
10B
330
100
100
AcDbEntity
  8
0
  6
Continuous
 62
     7
370
     0
100
AcDbLine
 10
7.8455432453
 20
2.1254753233
 30
0.0
 11
7.8455432453
 21
0.7193729611
 31
0.0
  0
LINE
  5
10C
330
100
100
AcDbEntity
  8
0
  6
Continuous
 62
     7
370
     0
100
AcDbLine
 10
12.3455432453
 20
2.1254753233
 30
0.0
 11
12.3455432453
 21
0.7193729611
 31
0.0
  0
LINE
  5
10D
330
100
100
AcDbEntity
  8
0
  6
Continuous
 62
     7
370
     0
100
AcDbLine
 10
7.8455432453
 20
1.0943729611
 30
0.0
 11
8.9065931161
 21
1.0943729611
 31
0.0
  0
LINE
  5
10E
330
100
100
AcDbEntity
  8
0
  6
Continuous
 62
     7
370
     0
100
AcDbLine
 10
12.3455432453
 20
1.0943729611
 30
0.0
 11
11.2844933746
 21
1.0943729611
 31
0.0
  0
MTEXT
  5
10F
330
100
100
AcDbEntity
  8
0
  6
Continuous
 62
     7
370
    18
100
AcDbMText
 10
9.1411552205
 20
1.6495487255
 30
0.0
 40
0.375
 41
0.0
 71
     1
 72
     1
  1
%%c
  7
SLDTEXTSTYLE0
 73
     1
 44
1.0
  0
MTEXT
  5
110
330
100
100
AcDbEntity
  8
0
  6
Continuous
 62
     7
370
    18
100
AcDbMText
 10
9.7067020823
 20
1.6495487255
 30
0.0
 40
0.375
 41
0.0
 71
     1
 72
     1
  1
4 1/2"
  7
SLDTEXTSTYLE0
 73
     1
 44
1.0
  0
MTEXT
  5
111
330
100
100
AcDbEntity
  8
0
  6
Continuous
 62
     7
370
    18
100
AcDbMText
 10
9.2111682842
 20
0.9780643357
 30
0.0
 40
0.375
 41
0.0
 71
     1
 72
     1
  1
114mm
  7
SLDTEXTSTYLE0
 73
     1
 44
1.0
  0
ENDBLK
  5
102
330
100
100
AcDbEntity
  8
0
100
AcDbBlockEnd
  0
BLOCK
  5
115
330
114
100
AcDbEntity
  8
0
100
AcDbBlockBegin
  2
_D_6
 70
     0
 10
0.0
 20
0.0
 30
0.0
  3
_D_6
  1

  0
SOLID
  5
117
330
114
100
AcDbEntity
  8
0
  6
Continuous
 62
     7
370
    18
100
AcDbTrace
 10
12.5805432453
 20
12.1880989017
 30
0.0
 11
12.9705432453
 21
12.1280989017
 31
0.0
 12
12.9705432453
 22
12.2480989017
 32
0.0
 13
12.9705432453
 23
12.2480989017
 33
0.0
  0
SOLID
  5
118
330
114
100
AcDbEntity
  8
0
  6
Continuous
 62
     7
370
    18
100
AcDbTrace
 10
7.6105432453
 20
12.1880989017
 30
0.0
 11
7.2205432453
 21
12.2480989017
 31
0.0
 12
7.2205432453
 22
12.1280989017
 32
0.0
 13
7.2205432453
 23
12.1280989017
 33
0.0
  0
LINE
  5
119
330
114
100
AcDbEntity
  8
0
  6
Continuous
 62
     7
370
     0
100
AcDbLine
 10
3.1299777993
 20
12.1880988467
 30
0.0
 11
3.0157199879
 21
12.1880988467
 31
0.0
  0
LINE
  5
11A
330
114
100
AcDbEntity
  8
0
  6
Continuous
 62
     7
370
     0
100
AcDbLine
 10
3.0157199879
 20
12.1880988467
 30
0.0
 11
3.0157199879
 21
11.5927863288
 31
0.0
  0
LINE
  5
11B
330
114
100
AcDbEntity
  8
0
  6
Continuous
 62
     7
370
     0
100
AcDbLine
 10
3.0157199879
 20
11.5927863288
 30
0.0
 11
3.1299777993
 21
11.5927863288
 31
0.0
  0
LINE
  5
11C
330
114
100
AcDbEntity
  8
0
  6
Continuous
 62
     7
370
     0
100
AcDbLine
 10
4.8987277765
 20
12.1880988467
 30
0.0
 11
5.0129855879
 21
12.1880988467
 31
0.0
  0
LINE
  5
11D
330
114
100
AcDbEntity
  8
0
  6
Continuous
 62
     7
370
     0
100
AcDbLine
 10
5.0129855879
 20
12.1880988467
 30
0.0
 11
5.0129855879
 21
11.5927863288
 31
0.0
  0
LINE
  5
11E
330
114
100
AcDbEntity
  8
0
  6
Continuous
 62
     7
370
     0
100
AcDbLine
 10
5.0129855879
 20
11.5927863288
 30
0.0
 11
4.8987277765
 21
11.5927863288
 31
0.0
  0
LINE
  5
11F
330
114
100
AcDbEntity
  8
0
  6
Continuous
 62
     7
370
     0
100
AcDbLine
 10
12.5805432453
 20
12.1880989017
 30
0.0
 11
13.3305432453
 21
12.1880989017
 31
0.0
  0
LINE
  5
120
330
114
100
AcDbEntity
  8
0
  6
Continuous
 62
     7
370
     0
100
AcDbLine
 10
7.6105432453
 20
12.1880989017
 30
0.0
 11
5.2033028896
 21
12.1880989017
 31
0.0
  0
MTEXT
  5
121
330
114
100
AcDbEntity
  8
0
  6
Continuous
 62
     7
370
    18
100
AcDbMText
 10
3.5156939259
 20
12.7432746662
 30
0.0
 40
0.375
 41
0.0
 71
     1
 72
     1
  1
%%c
  7
SLDTEXTSTYLE0
 73
     1
 44
1.0
  0
MTEXT
  5
122
330
114
100
AcDbEntity
  8
0
  6
Continuous
 62
     7
370
    18
100
AcDbMText
 10
4.0812407877
 20
12.7432746662
 30
0.0
 40
0.375
 41
0.0
 71
     1
 72
     1
  1
5"
  7
SLDTEXTSTYLE0
 73
     1
 44
1.0
  0
MTEXT
  5
123
330
114
100
AcDbEntity
  8
0
  6
Continuous
 62
     7
370
    18
100
AcDbMText
 10
3.1299777993
 20
12.0717902763
 30
0.0
 40
0.375
 41
0.0
 71
     1
 72
     1
  1
126mm
  7
SLDTEXTSTYLE0
 73
     1
 44
1.0
  0
ENDBLK
  5
116
330
114
100
AcDbEntity
  8
0
100
AcDbBlockEnd
  0
BLOCK
  5
1B8
330
1B7
100
AcDbEntity
  8
0
100
AcDbBlockBegin
  2
_D_7
 70
     0
 10
0.0
 20
0.0
 30
0.0
  3
_D_7
  1

  0
SOLID
  5
1BA
330
1B7
100
AcDbEntity
  8
0
  6
Continuous
 62
     7
370
    18
100
AcDbTrace
 10
8.0955432453
 20
24.6496600855
 30
0.0
 11
8.4855432453
 21
24.5896600855
 31
0.0
 12
8.4855432453
 22
24.7096600855
 32
0.0
 13
8.4855432453
 23
24.7096600855
 33
0.0
  0
SOLID
  5
1BB
330
1B7
100
AcDbEntity
  8
0
  6
Continuous
 62
     7
370
    18
100
AcDbTrace
 10
12.0955432453
 20
24.6496600855
 30
0.0
 11
11.7055432453
 21
24.7096600855
 31
0.0
 12
11.7055432453
 22
24.5896600855
 32
0.0
 13
11.7055432453
 23
24.5896600855
 33
0.0
  0
LINE
  5
1BC
330
1B7
100
AcDbEntity
  8
0
  6
Continuous
 62
     7
370
     0
100
AcDbLine
 10
8.0955432453
 20
21.0081563741
 30
0.0
 11
8.0955432453
 21
25.0246600855
 31
0.0
  0
LINE
  5
1BD
330
1B7
100
AcDbEntity
  8
0
  6
Continuous
 62
     7
370
     0
100
AcDbLine
 10
12.0955432453
 20
21.0081563741
 30
0.0
 11
12.0955432453
 21
25.0246600855
 31
0.0
  0
LINE
  5
1BE
330
1B7
100
AcDbEntity
  8
0
  6
Continuous
 62
     7
370
     0
100
AcDbLine
 10
8.0955432453
 20
24.6496600855
 30
0.0
 11
8.9595878639
 21
24.6496600855
 31
0.0
  0
LINE
  5
1BF
330
1B7
100
AcDbEntity
  8
0
  6
Continuous
 62
     7
370
     0
100
AcDbLine
 10
12.0955432453
 20
24.6496600855
 30
0.0
 11
11.2314986268
 21
24.6496600855
 31
0.0
  0
MTEXT
  5
1C0
330
1B7
100
AcDbEntity
  8
0
  6
Continuous
 62
     7
370
    18
100
AcDbMText
 10
9.2515328954
 20
25.128664033
 30
0.0
 40
0.375
 41
0.0
 71
     1
 72
     1
  1
4" O.C.
  7
SLDTEXTSTYLE0
 73
     1
 44
1.0
  0
MTEXT
  5
1C1
330
1B7
100
AcDbEntity
  8
0
  6
Continuous
 62
     7
370
    18
100
AcDbMText
 10
9.0356474093
 20
24.5333515151
 30
0.0
 40
0.375
 41
0.0
 71
     1
 72
     1
  1
[102mm]
  7
SLDTEXTSTYLE0
 73
     1
 44
1.0
  0
ENDBLK
  5
1B9
330
1B7
100
AcDbEntity
  8
0
100
AcDbBlockEnd
  0
BLOCK
  5
1C5
330
1C4
100
AcDbEntity
  8
0
100
AcDbBlockBegin
  2
_D_8
 70
     0
 10
0.0
 20
0.0
 30
0.0
  3
_D_8
  1

  0
SOLID
  5
1C7
330
1C4
100
AcDbEntity
  8
0
  6
Continuous
 62
     7
370
    18
100
AcDbTrace
 10
8.862290799
 20
20.1955189139
 30
0.0
 11
8.490343155
 21
20.0637807263
 31
0.0
 12
8.5471406515
 22
19.9580733738
 32
0.0
 13
8.5471406515
 23
19.9580733738
 33
0.0
  0
LINE
  5
1C8
330
1C4
100
AcDbEntity
  8
0
  6
Continuous
 62
     7
370
     0
100
AcDbLine
 10
4.7646299588
 20
19.4592143299
 30
0.0
 11
4.6503721474
 21
19.4592143299
 31
0.0
  0
LINE
  5
1C9
330
1C4
100
AcDbEntity
  8
0
  6
Continuous
 62
     7
370
     0
100
AcDbLine
 10
4.6503721474
 20
19.4592143299
 30
0.0
 11
4.6503721474
 21
18.863901812
 31
0.0
  0
LINE
  5
1CA
330
1C4
100
AcDbEntity
  8
0
  6
Continuous
 62
     7
370
     0
100
AcDbLine
 10
4.6503721474
 20
18.863901812
 30
0.0
 11
4.7646299588
 21
18.863901812
 31
0.0
  0
LINE
  5
1CB
330
1C4
100
AcDbEntity
  8
0
  6
Continuous
 62
     7
370
     0
100
AcDbLine
 10
6.2562966569
 20
19.4592143299
 30
0.0
 11
6.3705544682
 21
19.4592143299
 31
0.0
  0
LINE
  5
1CC
330
1C4
100
AcDbEntity
  8
0
  6
Continuous
 62
     7
370
     0
100
AcDbLine
 10
6.3705544682
 20
19.4592143299
 30
0.0
 11
6.3705544682
 21
18.863901812
 31
0.0
  0
LINE
  5
1CD
330
1C4
100
AcDbEntity
  8
0
  6
Continuous
 62
     7
370
     0
100
AcDbLine
 10
6.3705544682
 20
18.863901812
 30
0.0
 11
6.2562966569
 21
18.863901812
 31
0.0
  0
LINE
  5
1CE
330
1C4
100
AcDbEntity
  8
0
  6
Continuous
 62
     7
370
     0
100
AcDbLine
 10
8.862290799
 20
20.1955189139
 30
0.0
 11
7.4919345843
 21
19.4592143849
 31
0.0
  0
LINE
  5
1CF
330
1C4
100
AcDbEntity
  8
0
  6
Continuous
 62
     7
370
     0
100
AcDbLine
 10
7.4919345843
 20
19.4592143849
 30
0.0
 11
6.7419345843
 21
19.4592143849
 31
0.0
  0
MTEXT
  5
1D0
330
1C4
100
AcDbEntity
  8
0
  6
Continuous
 62
     7
370
    18
100
AcDbMText
 10
4.2789919764
 20
20.0143901493
 30
0.0
 40
0.375
 41
0.0
 71
     1
 72
     1
  1
%%c
  7
SLDTEXTSTYLE0
 73
     1
 44
1.0
  0
MTEXT
  5
1D1
330
1C4
100
AcDbEntity
  8
0
  6
Continuous
 62
     7
370
    18
100
AcDbMText
 10
4.8445388382
 20
20.0143901493
 30
0.0
 40
0.375
 41
0.0
 71
     1
 72
     1
  1
2 13/16"
  7
SLDTEXTSTYLE0
 73
     1
 44
1.0
  0
MTEXT
  5
1D2
330
1C4
100
AcDbEntity
  8
0
  6
Continuous
 62
     7
370
    18
100
AcDbMText
 10
4.7646299588
 20
19.3429057595
 30
0.0
 40
0.375
 41
0.0
 71
     1
 72
     1
  1
71mm
  7
SLDTEXTSTYLE0
 73
     1
 44
1.0
  0
ENDBLK
  5
1C6
330
1C4
100
AcDbEntity
  8
0
100
AcDbBlockEnd
  0
BLOCK
  5
1D5
330
1D4
100
AcDbEntity
  8
0
100
AcDbBlockBegin
  2
_D_9
 70
     0
 10
0.0
 20
0.0
 30
0.0
  3
_D_9
  1

  0
SOLID
  5
1D7
330
1D4
100
AcDbEntity
  8
0
  6
Continuous
 62
     7
370
    18
100
AcDbTrace
 10
8.3312337824
 20
18.7487222986
 30
0.0
 11
8.034998606
 21
18.488060218
 31
0.0
 12
8.1270466384
 22
18.4110721687
 32
0.0
 13
8.1270466384
 23
18.4110721687
 33
0.0
  0
LINE
  5
1D8
330
1D4
100
AcDbEntity
  8
0
  6
Continuous
 62
     7
370
     0
100
AcDbLine
 10
4.6260883192
 20
17.6034670702
 30
0.0
 11
4.5118305079
 21
17.6034670702
 31
0.0
  0
LINE
  5
1D9
330
1D4
100
AcDbEntity
  8
0
  6
Continuous
 62
     7
370
     0
100
AcDbLine
 10
4.5118305079
 20
17.6034670702
 30
0.0
 11
4.5118305079
 21
17.0081545523
 31
0.0
  0
LINE
  5
1DA
330
1D4
100
AcDbEntity
  8
0
  6
Continuous
 62
     7
370
     0
100
AcDbLine
 10
4.5118305079
 20
17.0081545523
 30
0.0
 11
4.6260883192
 21
17.0081545523
 31
0.0
  0
LINE
  5
1DB
330
1D4
100
AcDbEntity
  8
0
  6
Continuous
 62
     7
370
     0
100
AcDbLine
 10
6.3948382965
 20
17.6034670702
 30
0.0
 11
6.5090961078
 21
17.6034670702
 31
0.0
  0
LINE
  5
1DC
330
1D4
100
AcDbEntity
  8
0
  6
Continuous
 62
     7
370
     0
100
AcDbLine
 10
6.5090961078
 20
17.6034670702
 30
0.0
 11
6.5090961078
 21
17.0081545523
 31
0.0
  0
LINE
  5
1DD
330
1D4
100
AcDbEntity
  8
0
  6
Continuous
 62
     7
370
     0
100
AcDbLine
 10
6.5090961078
 20
17.0081545523
 30
0.0
 11
6.3948382965
 21
17.0081545523
 31
0.0
  0
LINE
  5
1DE
330
1D4
100
AcDbEntity
  8
0
  6
Continuous
 62
     7
370
     0
100
AcDbLine
 10
8.3312337824
 20
18.7487222986
 30
0.0
 11
7.3733538641
 21
17.6034671252
 31
0.0
  0
LINE
  5
1DF
330
1D4
100
AcDbEntity
  8
0
  6
Continuous
 62
     7
370
     0
100
AcDbLine
 10
7.3733538641
 20
17.6034671252
 30
0.0
 11
6.6233538641
 21
17.6034671252
 31
0.0
  0
MTEXT
  5
1E0
330
1D4
100
AcDbEntity
  8
0
  6
Continuous
 62
     7
370
    18
100
AcDbMText
 10
4.5560752555
 20
18.1586428896
 30
0.0
 40
0.375
 41
0.0
 71
     1
 72
     1
  1
%%c
  7
SLDTEXTSTYLE0
 73
     1
 44
1.0
  0
MTEXT
  5
1E1
330
1D4
100
AcDbEntity
  8
0
  6
Continuous
 62
     7
370
    18
100
AcDbMText
 10
5.1216221173
 20
18.1586428896
 30
0.0
 40
0.375
 41
0.0
 71
     1
 72
     1
  1
5 1/2"
  7
SLDTEXTSTYLE0
 73
     1
 44
1.0
  0
MTEXT
  5
1E2
330
1D4
100
AcDbEntity
  8
0
  6
Continuous
 62
     7
370
    18
100
AcDbMText
 10
4.6260883192
 20
17.4871584998
 30
0.0
 40
0.375
 41
0.0
 71
     1
 72
     1
  1
140mm
  7
SLDTEXTSTYLE0
 73
     1
 44
1.0
  0
ENDBLK
  5
1D6
330
1D4
100
AcDbEntity
  8
0
100
AcDbBlockEnd
  0
ENDSEC
  0
SECTION
  2
ENTITIES
  0
LINE
  5
7F
330
1F
100
AcDbEntity
  8
0
  6
Continuous
 62
     7
370
    25
100
AcDbLine
 10
7.3455432453
 20
13.3567253233
 30
0.0
 11
7.3455432453
 21
13.2629753233
 31
0.0
  0
LINE
  5
80
330
1F
100
AcDbEntity
  8
0
  6
Continuous
 62
     7
370
    25
100
AcDbLine
 10
12.8455432453
 20
13.2629753233
 30
0.0
 11
12.8455432453
 21
13.3567253233
 31
0.0
  0
LINE
  5
81
330
1F
100
AcDbEntity
  8
0
  6
Continuous
 62
     7
370
    25
100
AcDbLine
 10
12.8455432453
 20
13.3567253233
 30
0.0
 11
12.5805432453
 21
13.3954753233
 31
0.0
  0
LINE
  5
82
330
1F
100
AcDbEntity
  8
0
  6
Continuous
 62
     7
370
    25
100
AcDbLine
 10
7.6105432453
 20
13.3954753233
 30
0.0
 11
7.3455432453
 21
13.3567253233
 31
0.0
  0
ARC
  5
83
330
1F
100
AcDbEntity
  8
0
  6
Continuous
 62
     7
370
    25
100
AcDbCircle
 10
7.5905432453
 20
13.2429753233
 30
0.0
 40
0.0200000000000014
100
AcDbArc
 50
0.0
 51
90.0
  0
ARC
  5
84
330
1F
100
AcDbEntity
  8
0
  6
Continuous
 62
     7
370
    25
100
AcDbCircle
 10
12.6005432453
 20
13.2429753233
 30
0.0
 40
0.0200000000000014
100
AcDbArc
 50
90.0
 51
180.0
  0
LINE
  5
85
330
1F
100
AcDbEntity
  8
0
  6
Continuous
 62
     7
370
    25
100
AcDbLine
 10
12.5805432453
 20
11.6454753233
 30
0.0
 11
12.5805432453
 21
13.2429753233
 31
0.0
  0
LINE
  5
86
330
1F
100
AcDbEntity
  8
0
  6
Continuous
 62
     7
370
    25
100
AcDbLine
 10
7.6105432453
 20
13.2429753233
 30
0.0
 11
7.6105432453
 21
11.6454753233
 31
0.0
  0
LINE
  5
87
330
1F
100
AcDbEntity
  8
0
  6
Continuous
 62
     7
370
    25
100
AcDbLine
 10
6.3180432453
 20
7.6504753233
 30
0.0
 11
6.3485989186
 21
6.7754753233
 31
0.0
  0
LINE
  5
88
330
1F
100
AcDbEntity
  8
0
  6
Continuous
 62
     7
370
    25
100
AcDbLine
 10
13.842487572
 20
6.7754753233
 30
0.0
 11
13.8730432453
 21
7.6504753233
 31
0.0
  0
LINE
  5
89
330
1F
100
AcDbEntity
  8
0
  6
Continuous
 62
     7
370
    25
100
AcDbLine
 10
7.8455432453
 20
11.6454753233
 30
0.0
 11
7.8455432453
 21
7.6504753233
 31
0.0
  0
LINE
  5
8A
330
1F
100
AcDbEntity
  8
0
  6
Continuous
 62
     7
370
    25
100
AcDbLine
 10
7.8455432453
 20
6.7754753233
 30
0.0
 11
7.8455432453
 21
2.2754753233
 31
0.0
  0
LINE
  5
8B
330
1F
100
AcDbEntity
  8
0
  6
Continuous
 62
     7
370
    25
100
AcDbLine
 10
12.3455432453
 20
2.2754753233
 30
0.0
 11
12.3455432453
 21
6.7754753233
 31
0.0
  0
LINE
  5
8C
330
1F
100
AcDbEntity
  8
0
  6
Continuous
 62
     7
370
    25
100
AcDbLine
 10
12.3455432453
 20
7.6504753233
 30
0.0
 11
12.3455432453
 21
11.6454753233
 31
0.0
  0
LINE
  5
8D
330
1F
100
AcDbEntity
  8
0
  6
Continuous
 62
     7
370
    25
100
AcDbLine
 10
7.3455432453
 20
13.2629753233
 30
0.0
 11
12.8455432453
 21
13.2629753233
 31
0.0
  0
LINE
  5
8E
330
1F
100
AcDbEntity
  8
0
  6
Continuous
 62
     7
370
    25
100
AcDbLine
 10
7.3455432453
 20
13.3567253233
 30
0.0
 11
12.8455432453
 21
13.3567253233
 31
0.0
  0
LINE
  5
8F
330
1F
100
AcDbEntity
  8
0
  6
Continuous
 62
     7
370
    25
100
AcDbLine
 10
7.6105432453
 20
13.3954753233
 30
0.0
 11
12.5805432453
 21
13.3954753233
 31
0.0
  0
LINE
  5
90
330
1F
100
AcDbEntity
  8
0
  6
Continuous
 62
     7
370
    25
100
AcDbLine
 10
7.6105432453
 20
11.6454753233
 30
0.0
 11
12.5805432453
 21
11.6454753233
 31
0.0
  0
LINE
  5
91
330
1F
100
AcDbEntity
  8
0
  6
Continuous
 62
     7
370
    25
100
AcDbLine
 10
10.3665313819
 20
6.7754753233
 30
0.0
 11
13.842487572
 21
6.7754753233
 31
0.0
  0
LINE
  5
92
330
1F
100
AcDbEntity
  8
0
  6
Continuous
 62
     7
370
    25
100
AcDbLine
 10
6.3485989186
 20
6.7754753233
 30
0.0
 11
10.3665313819
 21
6.7754753233
 31
0.0
  0
LINE
  5
93
330
1F
100
AcDbEntity
  8
0
  6
Continuous
 62
     7
370
    25
100
AcDbLine
 10
10.3687412426
 20
7.6504753233
 30
0.0
 11
13.8730432453
 21
7.6504753233
 31
0.0
  0
LINE
  5
94
330
1F
100
AcDbEntity
  8
0
  6
Continuous
 62
     7
370
    25
100
AcDbLine
 10
6.3180432453
 20
7.6504753233
 30
0.0
 11
10.3687412426
 21
7.6504753233
 31
0.0
  0
LINE
  5
95
330
1F
100
AcDbEntity
  8
0
  6
Continuous
 62
     7
370
    25
100
AcDbLine
 10
12.3455432453
 20
2.2754753233
 30
0.0
 11
7.8455432453
 21
2.2754753233
 31
0.0
  0
LINE
  5
96
330
1F
100
AcDbEntity
  8
0
  6
Continuous
 62
     7
370
    25
100
AcDbLine
 10
12.5805432453
 20
13.2429753233
 30
0.0
 11
7.6105432453
 21
13.2429753233
 31
0.0
  0
DIMENSION
  5
97
330
1F
100
AcDbEntity
  8
0
  6
Continuous
 62
     7
370
    18
100
AcDbDimension
  2
_D
 10
5.897010338
 20
13.2629753233
 30
0.0
 11
5.897010338
 21
14.5765776855
 31
0.0
 70
   160
  1
<>
 71
     2
 42
-1.0
  3
SLDDIMSTYLE0
100
AcDbAlignedDimension
 13
7.6105432453
 23
13.3954753233
 33
0.0
 14
7.3455432453
 24
13.2629753233
 34
0.0
 50
90.0
100
AcDbRotatedDimension
  0
DIMENSION
  5
AD
330
1F
100
AcDbEntity
  8
0
  6
Continuous
 62
     7
370
    18
100
AcDbDimension
  2
_D_1
 10
6.7924986282
 20
11.6454753233
 30
0.0
 11
6.7924986282
 21
10.3968357383
 31
0.0
 70
   160
  1
<>
 71
     2
 42
-1.0
  3
SLDDIMSTYLE0
100
AcDbAlignedDimension
 13
7.6105432453
 23
13.3954753233
 33
0.0
 14
7.6105432453
 24
11.6454753233
 34
0.0
 50
90.0
100
AcDbRotatedDimension
  0
DIMENSION
  5
C2
330
1F
100
AcDbEntity
  8
0
  6
Continuous
 62
     7
370
    18
100
AcDbDimension
  2
_D_2
 10
16.0261128978
 20
2.2754753233
 30
0.0
 11
16.0261128978
 21
7.8354753233
 31
0.0
 70
   160
  1
<>
 71
     2
 42
-1.0
  3
SLDDIMSTYLE1
100
AcDbAlignedDimension
 13
12.5805432453
 23
13.3954753233
 33
0.0
 14
12.3455432453
 24
2.2754753233
 34
0.0
 50
90.0
100
AcDbRotatedDimension
  0
DIMENSION
  5
D7
330
1F
100
AcDbEntity
  8
0
  6
Continuous
 62
     7
370
    18
100
AcDbDimension
  2
_D_3
 10
13.8730432453
 20
5.5025367784
 30
0.0
 11
3.9825652355
 21
5.5025367784
 31
0.0
 70
   160
  1
%%c<>
 71
     2
 42
-1.0
  3
SLDDIMSTYLE0
100
AcDbAlignedDimension
 13
6.3180432453
 23
7.6504753233
 33
0.0
 14
13.8730432453
 24
7.6504753233
 34
0.0
100
AcDbRotatedDimension
  0
DIMENSION
  5
EA
330
1F
100
AcDbEntity
  8
0
  6
Continuous
 62
     7
370
    18
100
AcDbDimension
  2
_D_4
 10
5.7681843451
 20
7.6504753233
 30
0.0
 11
5.7681843451
 21
8.6555527648
 31
0.0
 70
   160
  1
<>
 71
     2
 42
-1.0
  3
SLDDIMSTYLE0
100
AcDbAlignedDimension
 13
6.3485989186
 23
6.7754753233
 33
0.0
 14
6.8460826423
 24
7.6504753233
 34
0.0
 50
90.0
100
AcDbRotatedDimension
  0
DIMENSION
  5
FF
330
1F
100
AcDbEntity
  8
0
  6
Continuous
 62
     7
370
    18
100
AcDbDimension
  2
_D_5
 10
12.3455432453
 20
1.0943729611
 30
0.0
 11
10.0955432453
 21
1.0943729611
 31
0.0
 70
   160
  1
%%c<>
 71
     2
 42
-1.0
  3
SLDDIMSTYLE1
100
AcDbAlignedDimension
 13
7.8455432453
 23
2.2754753233
 33
0.0
 14
12.3455432453
 24
2.2754753233
 34
0.0
 50
0.0
100
AcDbRotatedDimension
  0
DIMENSION
  5
112
330
1F
100
AcDbEntity
  8
0
  6
Continuous
 62
     7
370
    18
100
AcDbDimension
  2
_D_6
 10
7.6105432453
 20
12.1880989017
 30
0.0
 11
4.0143527604
 21
12.1880989017
 31
0.0
 70
   160
  1
%%c<>
 71
     2
 42
-1.0
  3
SLDDIMSTYLE2
100
AcDbAlignedDimension
 13
12.5805432453
 23
11.6454753233
 33
0.0
 14
7.6105432453
 24
11.6454753233
 34
0.0
100
AcDbRotatedDimension
  0
LINE
  5
124
330
1F
100
AcDbEntity
  8
0
  6
Continuous
 62
     7
370
    25
100
AcDbLine
 10
23.7278660339
 20
21.3729123172
 30
0.0
 11
23.7278660339
 21
21.2963616161
 31
0.0
  0
LINE
  5
125
330
1F
100
AcDbEntity
  8
0
  6
Continuous
 62
     7
370
    25
100
AcDbLine
 10
29.2278660339
 20
21.2963616161
 30
0.0
 11
29.2278660339
 21
21.3729123172
 31
0.0
  0
LINE
  5
126
330
1F
100
AcDbEntity
  8
0
  6
Continuous
 62
     7
370
    25
100
AcDbLine
 10
28.9628660339
 20
19.9756068529
 30
0.0
 11
28.9628660339
 21
20.6164169154
 31
0.0
  0
LINE
  5
127
330
1F
100
AcDbEntity
  8
0
  6
Continuous
 62
     7
370
    25
100
AcDbLine
 10
23.9928660339
 20
20.6164169154
 30
0.0
 11
23.9928660339
 21
19.9756068529
 31
0.0
  0
LINE
  5
128
330
1F
100
AcDbEntity
  8
0
  6
Continuous
 62
     7
370
    25
100
AcDbLine
 10
22.7015174628
 20
16.6596875544
 30
0.0
 11
22.7320638223
 21
15.9456498382
 31
0.0
  0
LINE
  5
129
330
1F
100
AcDbEntity
  8
0
  6
Continuous
 62
     7
370
    25
100
AcDbLine
 10
30.2236682455
 20
15.9456498382
 30
0.0
 11
30.254214605
 21
16.6596875544
 31
0.0
  0
LINE
  5
12A
330
1F
100
AcDbEntity
  8
0
  6
Continuous
 62
     7
370
    25
100
AcDbLine
 10
25.159127398
 20
22.2621787835
 30
0.0
 11
25.1478118512
 21
22.268713233
 31
0.0
  0
LINE
  5
12B
330
1F
100
AcDbEntity
  8
0
  6
Continuous
 62
     7
370
    25
100
AcDbLine
 10
24.9794930918
 20
22.268713233
 30
0.0
 11
24.968177545
 21
22.2621787835
 31
0.0
  0
LINE
  5
12C
330
1F
100
AcDbEntity
  8
0
  6
Continuous
 62
     7
370
    25
100
AcDbLine
 10
24.9286524715
 20
22.2070801917
 30
0.0
 11
24.9286524715
 21
22.1904141911
 31
0.0
  0
LINE
  5
12D
330
1F
100
AcDbEntity
  8
0
  6
Continuous
 62
     7
370
    25
100
AcDbLine
 10
25.1986524715
 20
22.1904141911
 30
0.0
 11
25.1986524715
 21
22.2070801917
 31
0.0
  0
LINE
  5
12E
330
1F
100
AcDbEntity
  8
0
  6
Continuous
 62
     7
370
    25
100
AcDbLine
 10
27.9875545228
 20
20.6293625598
 30
0.0
 11
27.9762389759
 21
20.6358970093
 31
0.0
  0
LINE
  5
12F
330
1F
100
AcDbEntity
  8
0
  6
Continuous
 62
     7
370
    25
100
AcDbLine
 10
27.8079202166
 20
20.6358970093
 30
0.0
 11
27.7966046697
 21
20.6293625598
 31
0.0
  0
LINE
  5
130
330
1F
100
AcDbEntity
  8
0
  6
Continuous
 62
     7
370
    25
100
AcDbLine
 10
27.7570795963
 20
20.5742639681
 30
0.0
 11
27.7570795963
 21
20.5575979675
 31
0.0
  0
LINE
  5
131
330
1F
100
AcDbEntity
  8
0
  6
Continuous
 62
     7
370
    25
100
AcDbLine
 10
28.0270795963
 20
20.5575979675
 30
0.0
 11
28.0270795963
 21
20.5742639681
 31
0.0
  0
LINE
  5
132
330
1F
100
AcDbEntity
  8
0
  6
Continuous
 62
     7
370
    25
100
AcDbLine
 10
24.2278660339
 20
19.366650401
 30
0.0
 11
24.2278660339
 21
16.6864874952
 31
0.0
  0
LINE
  5
133
330
1F
100
AcDbEntity
  8
0
  6
Continuous
 62
     7
370
    25
100
AcDbLine
 10
24.2278660339
 20
14.2693954721
 30
0.0
 11
24.2278660339
 21
12.3246194455
 31
0.0
  0
LINE
  5
134
330
1F
100
AcDbEntity
  8
0
  6
Continuous
 62
     7
370
    25
100
AcDbLine
 10
28.7278660339
 20
12.3246194455
 30
0.0
 11
28.7278660339
 21
14.2693954721
 31
0.0
  0
LINE
  5
135
330
1F
100
AcDbEntity
  8
0
  6
Continuous
 62
     7
370
    25
100
AcDbLine
 10
28.7278660339
 20
16.3597924252
 30
0.0
 11
28.7278660339
 21
19.366650401
 31
0.0
  0
LINE
  5
136
330
1F
100
AcDbEntity
  8
0
  6
Continuous
 62
     7
370
    25
100
AcDbLine
 10
27.8428660339
 20
21.2943202641
 30
0.0
 11
27.8428660339
 21
21.3963878656
 31
0.0
  0
LINE
  5
137
330
1F
100
AcDbEntity
  8
0
  6
Continuous
 62
     7
370
    25
100
AcDbLine
 10
25.1128660339
 20
21.3963878656
 30
0.0
 11
25.1128660339
 21
21.2943202641
 31
0.0
  0
LINE
  5
138
330
1F
100
AcDbEntity
  8
0
  6
Continuous
 62
     7
370
    25
100
AcDbLine
 10
28.8216160339
 20
21.1828710809
 30
0.0
 11
28.8216160339
 21
21.4045532737
 31
0.0
  0
LINE
  5
139
330
1F
100
AcDbEntity
  8
0
  6
Continuous
 62
     7
370
    25
100
AcDbLine
 10
24.1341160339
 20
21.4045532737
 30
0.0
 11
24.1341160339
 21
21.1828710809
 31
0.0
  0
LWPOLYLINE
  5
13A
330
1F
100
AcDbEntity
  8
0
  6
Continuous
 62
     7
370
    25
100
AcDbPolyline
 90
      216
 70
   128
 43
0.0
 10
28.4224096822
 20
22.495473471
 10
28.3647598895
 20
22.5277953338
 10
28.3054987117
 20
22.5591309401
 10
28.244676757
 20
22.5894535296
 10
28.1823459666
 20
22.6187372071
 10
28.1185595703
 20
22.6469569648
 10
28.0533720411
 20
22.6740887033
 10
27.9868390481
 20
22.7001092524
 10
27.9190174099
 20
22.724996391
 10
27.8499650453
 20
22.7487288655
 10
27.7797409243
 20
22.7712864089
 10
27.7084050173
 20
22.7926497572
 10
27.6360182445
 20
22.8128006663
 10
27.5626424233
 20
22.8317219277
 10
27.4883402158
 20
22.8493973828
 10
27.4131750752
 20
22.865811937
 10
27.3372111916
 20
22.8809515724
 10
27.2605134373
 20
22.8948033599
 10
27.1831473114
 20
22.9073554704
 10
27.1051788834
 20
22.9185971844
 10
27.0266747377
 20
22.9285189016
 10
26.9477019158
 20
22.9371121491
 10
26.8683278595
 20
22.9443695882
 10
26.7886203534
 20
22.9502850212
 10
26.7086474668
 20
22.9548533965
 10
26.6284774955
 20
22.9580708126
 10
26.5481789038
 20
22.959934522
 10
26.4678202658
 20
22.960442933
 10
26.3874702067
 20
22.9595956115
 10
26.3071973446
 20
22.957393281
 10
26.2270702315
 20
22.9538378224
 10
26.1471572951
 20
22.9489322719
 10
26.0675267801
 20
22.9426808189
 10
25.9882466901
 20
22.935088802
 10
25.9093847292
 20
22.9261627047
 10
25.8310082446
 20
22.9159101498
 10
25.7531841691
 20
22.9043398928
 10
25.6759789633
 20
22.8914618146
 10
25.5994585597
 20
22.8772869129
 10
25.5236883058
 20
22.861827293
 10
25.4487329085
 20
22.8450961572
 10
25.3746563788
 20
22.8271077936
 10
25.3015219772
 20
22.8078775642
 10
25.2293921596
 20
22.7874218912
 10
25.1583285241
 20
22.7657582436
 10
25.0883917581
 20
22.742905122
 10
25.0196415869
 20
22.7188820426
 10
24.9521367223
 20
22.6937095208
 10
24.8859348126
 20
22.6674090537
 10
24.8210923935
 20
22.6400031015
 10
24.7576648397
 20
22.6115150687
 10
24.6957063175
 20
22.5819692837
 10
24.6352697388
 20
22.5513909781
 10
24.5764067158
 20
22.5198062657
 10
24.5191675167
 20
22.4872421192
 10
24.4636010231
 20
22.4537263482
 10
24.4097546883
 20
22.4192875746
 10
24.3576744963
 20
22.3839552088
 10
24.3074049231
 20
22.3477594243
 10
24.2589888981
 20
22.3107311318
 10
24.2124677682
 20
22.272901953
 10
24.1678812619
 20
22.2343041936
 10
24.1252674555
 20
22.1949708156
 10
24.0846627407
 20
22.1549354094
 10
24.0461017934
 20
22.1142321645
 10
24.0096175443
 20
22.0728958412
 10
23.9752411504
 20
22.0309617402
 10
23.9430019689
 20
21.9884656727
 10
23.9129275315
 20
21.9454439299
 10
23.8850435216
 20
21.9019332518
 10
23.8593737517
 20
21.857970796
 10
23.8359401434
 20
21.8135941059
 10
23.8147627089
 20
21.7688410788
 10
23.7958595335
 20
21.7237499331
 10
23.7792467601
 20
21.6783591763
 10
23.7649385759
 20
21.6327075714
 10
23.7529472
 20
21.5868341044
 10
23.7432828728
 20
21.5407779507
 10
23.7359538476
 20
21.4945784417
 10
23.7309663832
 20
21.4482750313
 10
23.7283247389
 20
21.401907262
 10
23.7280311706
 20
21.3555147313
 10
23.7300859291
 20
21.309137058
 10
23.7344872596
 20
21.262813848
 10
23.7412314033
 20
21.2165846608
 10
23.750312601
 20
21.1704889756
 10
23.7617230973
 20
21.1245661576
 10
23.7754531478
 20
21.0788554243
 10
23.7914910272
 20
21.0333958121
 10
23.8098230394
 20
20.988226143
 10
23.830433529
 20
20.9433849914
 10
23.8533048949
 20
20.8989106511
 10
23.8784176053
 20
20.8548411027
 10
23.9057502142
 20
20.811213981
 10
23.9352793798
 20
20.7680665431
 10
23.9669798846
 20
20.7254356364
 10
24.0008246567
 20
20.6833576672
 10
24.0367847931
 20
20.6418685696
 10
24.0748295843
 20
20.6010037748
 10
24.1149265404
 20
20.5607981808
 10
24.1570414191
 20
20.5212861227
 10
24.2011382548
 20
20.4825013435
 10
24.2471793894
 20
20.4444769648
 10
24.2951255042
 20
20.407245459
 10
24.3449356539
 20
20.3708386213
 10
24.396567301
 20
20.3352875429
 10
24.4499763529
 20
20.3006225838
 10
24.5051171988
 20
20.2668733476
 10
24.561942749
 20
20.2340686557
 10
24.6204044753
 20
20.2022365229
 10
24.680452452
 20
20.1714041336
 10
24.7420353988
 20
20.1415978181
 10
24.8051007246
 20
20.1128430308
 10
24.8695945723
 20
20.0851643279
 10
24.935461865
 20
20.0585853466
 10
25.0026463528
 20
20.0331287852
 10
25.0710906609
 20
20.0088163832
 10
25.1407363387
 20
19.9856689032
 10
25.2115239096
 20
19.9637061127
 10
25.2833929218
 20
19.9429467678
 10
25.356282
 20
19.9234085968
 10
25.4301288978
 20
19.9051082849
 10
25.5048705509
 20
19.8880614604
 10
25.5804431307
 20
19.8722826812
 10
25.6567820991
 20
19.8577854221
 10
25.7338222636
 20
19.8445820636
 10
25.8114978328
 20
19.8326838812
 10
25.8897424725
 20
19.8221010358
 10
25.9684893629
 20
19.8128425651
 10
26.047671255
 20
19.8049163757
 10
26.1272205284
 20
19.7983292364
 10
26.207069249
 20
19.7930867725
 10
26.2871492268
 20
19.7891934612
 10
26.3673920745
 20
19.7866526272
 10
26.4477292658
 20
19.7854664404
 10
26.5280921934
 20
19.7856359138
 10
26.6084122285
 20
19.7871609026
 10
26.6886207787
 20
19.7900401045
 10
26.7686493468
 20
19.7942710607
 10
26.8484295894
 20
19.799850158
 10
26.927893375
 20
19.806772632
 10
27.0069728426
 20
19.8150325709
 10
27.0856004591
 20
19.8246229208
 10
27.1637090776
 20
19.8355354917
 10
27.2412319942
 20
19.8477609644
 10
27.3181030051
 20
19.8612888985
 10
27.3942564636
 20
19.8761077413
 10
27.4696273354
 20
19.8922048376
 10
27.5441512546
 20
19.9095664407
 10
27.6177645788
 20
19.9281777241
 10
27.690404443
 20
19.9480227938
 10
27.7620088136
 20
19.9690847025
 10
27.8325165413
 20
19.9913454635
 10
27.9018674134
 20
20.0147860665
 10
27.970002205
 20
20.0393864933
 10
28.0368627298
 20
20.0651257355
 10
28.1023918897
 20
20.0919818121
 10
28.1665337236
 20
20.1199317884
 10
28.2292334551
 20
20.1489517953
 10
28.2904375393
 20
20.1790170502
 10
28.3500937087
 20
20.2101018776
 10
28.4081510177
 20
20.2421797316
 10
28.4645598859
 20
20.2752232178
 10
28.5192721408
 20
20.3092041178
 10
28.5722410589
 20
20.344093412
 10
28.6234214052
 20
20.3798613055
 10
28.6727694724
 20
20.4164772529
 10
28.7202431179
 20
20.4539099847
 10
28.7658017995
 20
20.4921275337
 10
28.8094066109
 20
20.5310972625
 10
28.851020314
 20
20.5707858916
 10
28.8906073711
 20
20.6111595272
 10
28.9281339754
 20
20.6521836908
 10
28.9635680796
 20
20.6938233481
 10
28.9968794235
 20
20.7360429395
 10
29.0280395594
 20
20.7788064098
 10
29.057021877
 20
20.8220772397
 10
29.0838016258
 20
20.8658184762
 10
29.1083559362
 20
20.9099927649
 10
29.130663839
 20
20.9545623815
 10
29.1507062836
 20
20.999489264
 10
29.168466154
 20
21.0447350455
 10
29.1839282834
 20
21.0902610864
 10
29.1970794674
 20
21.1360285083
 10
29.207908475
 20
21.1819982261
 10
29.2164060583
 20
21.2281309823
 10
29.2225649606
 20
21.2743873801
 10
29.2263799222
 20
21.320727917
 10
29.2278476852
 20
21.3671130187
 10
29.2269669961
 20
21.4135030731
 10
29.223738607
 20
21.4598584633
 10
29.2181652749
 20
21.5061396026
 10
29.2102517594
 20
21.5523069674
 10
29.2000048185
 20
21.5983211312
 10
29.187433203
 20
21.6441427985
 10
29.172547649
 20
21.6897328382
 10
29.1553608684
 20
21.7350523169
 10
29.1358875386
 20
21.7800625323
 10
29.1141442897
 20
21.8247250461
 10
29.09014969
 20
21.8690017172
 10
29.0639242307
 20
21.9128547338
 10
29.035490308
 20
21.9562466458
 10
29.0048722042
 20
21.9991403972
 10
28.9720960668
 20
22.0414993572
 10
28.9371898861
 20
22.0832873516
 10
28.9001834718
 20
22.1244686941
 10
28.8611084267
 20
22.1650082163
 10
28.8199981206
 20
22.2048712979
 10
28.7768876611
 20
22.2440238962
 10
28.7318138641
 20
22.2824325755
 10
28.6848152221
 20
22.3200645351
 10
28.6359318714
 20
22.3568876379
 10
28.5852055578
 20
22.3928704372
 10
28.5326796009
 20
22.4279822043
 10
28.4783988573
 20
22.4621929541
 10
28.4224096822
 20
22.495473471
  0
LWPOLYLINE
  5
13B
330
1F
100
AcDbEntity
  8
0
  6
Continuous
 62
     7
370
    25
100
AcDbPolyline
 90
      206
 70
   128
 43
0.0
 10
28.2350263851
 20
22.4189403526
 10
28.1803531303
 20
22.449549707
 10
28.1240806788
 20
22.4791774653
 10
28.0662618892
 20
22.5077957973
 10
28.0069510723
 20
22.5353778209
 10
27.9462039406
 20
22.5618976275
 10
27.8840775556
 20
22.5873303062
 10
27.8206302744
 20
22.6116519675
 10
27.755921695
 20
22.6348397652
 10
27.6900126001
 20
22.6568719184
 10
27.6229649
 20
22.6777277316
 10
27.5548415747
 20
22.6973876143
 10
27.4857066143
 20
22.7158330994
 10
27.4156249594
 20
22.7330468605
 10
27.3446624397
 20
22.7490127283
 10
27.2728857126
 20
22.7637157055
 10
27.2003621999
 20
22.7771419811
 10
27.1271600251
 20
22.7892789436
 10
27.0533479493
 20
22.8001151921
 10
26.9789953063
 20
22.8096405481
 10
26.9041719377
 20
22.8178460639
 10
26.8289481273
 20
22.824724032
 10
26.7533945352
 20
22.8302679916
 10
26.6775821309
 20
22.8344727352
 10
26.6015821274
 20
22.8373343131
 10
26.5254659137
 20
22.8388500373
 10
26.4493049881
 20
22.839018484
 10
26.3731708906
 20
22.8378394951
 10
26.2971351365
 20
22.835314178
 10
26.2212691482
 20
22.8314449049
 10
26.1456441889
 20
22.8262353101
 10
26.0703312955
 20
22.8196902873
 10
25.9954012115
 20
22.8118159844
 10
25.9209243211
 20
22.8026197979
 10
25.8469705824
 20
22.7921103662
 10
25.7736094626
 20
22.780297561
 10
25.7009098718
 20
22.7671924784
 10
25.628940099
 20
22.7528074284
 10
25.5577677474
 20
22.7371559234
 10
25.4874596714
 20
22.7202526653
 10
25.4180819134
 20
22.7021135318
 10
25.349699642
 20
22.6827555614
 10
25.2823770908
 20
22.6621969378
 10
25.2161774977
 20
22.6404569723
 10
25.151163046
 20
22.6175560858
 10
25.0873948058
 20
22.5935157899
 10
25.0249326763
 20
22.5683586662
 10
24.9638353302
 20
22.5421083457
 10
24.9041601579
 20
22.514789486
 10
24.8459632142
 20
22.4864277485
 10
24.7892991652
 20
22.4570497743
 10
24.734221237
 20
22.426683159
 10
24.680781166
 20
22.3953564268
 10
24.6290291501
 20
22.3630990038
 10
24.5790138014
 20
22.3299411905
 10
24.5307821009
 20
22.2959141329
 10
24.4843793539
 20
22.2610497936
 10
24.4398491481
 20
22.2253809217
 10
24.3972333118
 20
22.1889410222
 10
24.3565718755
 20
22.151764324
 10
24.3179030337
 20
22.1138857483
 10
24.281263109
 20
22.0753408757
 10
24.2466865185
 20
22.0361659123
 10
24.2142057411
 20
21.9963976565
 10
24.1838512868
 20
21.9560734638
 10
24.1556516685
 20
21.9152312118
 10
24.1296333749
 20
21.8739092649
 10
24.1058208458
 20
21.832146438
 10
24.084236449
 20
21.7899819602
 10
24.0649004594
 20
21.7474554378
 10
24.0478310398
 20
21.7046068172
 10
24.033044224
 20
21.6614763475
 10
24.0205539018
 20
21.6181045423
 10
24.0103718057
 20
21.5745321421
 10
24.0025074999
 20
21.5308000757
 10
23.9969683718
 20
21.4869494219
 10
23.9937596243
 20
21.443021371
 10
23.9928842715
 20
21.3990571859
 10
23.9943431357
 20
21.3550981634
 10
23.9981348465
 20
21.3111855955
 10
24.0042558423
 20
21.2673607307
 10
24.0127003733
 20
21.2236647349
 10
24.0234605075
 20
21.1801386531
 10
24.0365261375
 20
21.1368233705
 10
24.0518849904
 20
21.0937595746
 10
24.0695226391
 20
21.0509877165
 10
24.0894225161
 20
21.0085479729
 10
24.1115659288
 20
20.9664802088
 10
24.1359320773
 20
20.9248239397
 10
24.1624980737
 20
20.8836182946
 10
24.1912389639
 20
20.8429019792
 10
24.2221277505
 20
20.8027132394
 10
24.255135419
 20
20.7630898259
 10
24.2902309641
 20
20.7240689579
 10
24.3273814197
 20
20.685687289
 10
24.3665518891
 20
20.6479808722
 10
24.4077055785
 20
20.6109851263
 10
24.4508038309
 20
20.5747348025
 10
24.4958061628
 20
20.5392639517
 10
24.5426703023
 20
20.5046058928
 10
24.5913522285
 20
20.4707931811
 10
24.6418062129
 20
20.437857578
 10
24.6939848627
 20
20.4058300207
 10
24.747839165
 20
20.3747405938
 10
24.8033185327
 20
20.3446185004
 10
24.8603708525
 20
20.3154920351
 10
24.9189425334
 20
20.2873885574
 10
24.9789785573
 20
20.2603344655
 10
25.0404225306
 20
20.2343551723
 10
25.1032167372
 20
20.2094750807
 10
25.1673021926
 20
20.1857175616
 10
25.2326186994
 20
20.1631049309
 10
25.2991049039
 20
20.1416584294
 10
25.3666983537
 20
20.1213982024
 10
25.4353355562
 20
20.102343281
 10
25.5049520384
 20
20.0845115641
 10
25.5754824075
 20
20.0679198013
 10
25.6468604124
 20
20.052583578
 10
25.7190190054
 20
20.0385172999
 10
25.7918904059
 20
20.0257341799
 10
25.8654061636
 20
20.0142462254
 10
25.9394972231
 20
20.0040642275
 10
26.0140939883
 20
19.9951977505
 10
26.0891263883
 20
19.9876551228
 10
26.1645239429
 20
19.9814434296
 10
26.2402158291
 20
19.9765685056
 10
26.3161309472
 20
19.9730349299
 10
26.3921979878
 20
19.9708460219
 10
26.468345499
 20
19.9700038375
 10
26.544501953
 20
19.9705091679
 10
26.620595814
 20
19.9723615384
 10
26.6965556047
 20
19.975559209
 10
26.7723099738
 20
19.9800991761
 10
26.8477877629
 20
19.9859771751
 10
26.9229180736
 20
19.9931876846
 10
26.9976303338
 20
20.0017239317
 10
27.071854364
 20
20.0115778979
 10
27.1455204433
 20
20.0227403271
 10
27.2185593751
 20
20.0352007341
 10
27.2909025517
 20
20.0489474145
 10
27.362482019
 20
20.0639674557
 10
27.4332305403
 20
20.0802467488
 10
27.5030816594
 20
20.0977700023
 10
27.5719697631
 20
20.116520756
 10
27.6398301428
 20
20.1364813968
 10
27.7065990552
 20
20.1576331751
 10
27.7722137822
 20
20.1799562224
 10
27.8366126901
 20
20.2034295699
 10
27.899735287
 20
20.2280311685
 10
27.9615222801
 20
20.2537379091
 10
28.0219156308
 20
20.2805256448
 10
28.08085861
 20
20.3083692128
 10
28.1382958509
 20
20.337242459
 10
28.1941734008
 20
20.3671182619
 10
28.2484387724
 20
20.3979685582
 10
28.3010409926
 20
20.4297643694
 10
28.3519306505
 20
20.4624758286
 10
28.401059944
 20
20.4960722091
 10
28.4483827246
 20
20.5305219527
 10
28.4938545404
 20
20.5657926999
 10
28.5374326785
 20
20.6018513197
 10
28.5790762047
 20
20.6386639412
 10
28.618746002
 20
20.6761959853
 10
28.6564048072
 20
20.7144121969
 10
28.6920172465
 20
20.7532766785
 10
28.725549868
 20
20.7927529235
 10
28.7569711734
 20
20.8328038506
 10
28.7862516479
 20
20.873391839
 10
28.8133637875
 20
20.914478763
 10
28.8382821248
 20
20.9560260285
 10
28.8609832534
 20
20.9979946089
 10
28.8814458494
 20
21.040345082
 10
28.8996506916
 20
21.0830376665
 10
28.9155806799
 20
21.1260322602
 10
28.9292208505
 20
21.169288477
 10
28.940558391
 20
21.2127656849
 10
28.9495826516
 20
21.2564230446
 10
28.9562851556
 20
21.3002195474
 10
28.9606596071
 20
21.344114054
 10
28.962701897
 20
21.3880653329
 10
28.962410107
 20
21.4320320994
 10
28.9597845112
 20
21.4759730543
 10
28.9548275759
 20
21.5198469224
 10
28.9475439572
 20
21.5636124918
 10
28.9379404969
 20
21.6072286522
 10
28.9260262158
 20
21.6506544335
 10
28.9118123054
 20
21.6938490448
 10
28.8953121171
 20
21.736771912
 10
28.8765411501
 20
21.7793827164
 10
28.8555170365
 20
21.8216414324
 10
28.8322595249
 20
21.8635083651
 10
28.8067904618
 20
21.9049441877
 10
28.779133771
 20
21.9459099783
 10
28.7493154312
 20
21.9863672565
 10
28.7173634518
 20
22.0262780196
 10
28.683307846
 20
22.0656047782
 10
28.6471806035
 20
22.1043105916
 10
28.6090156596
 20
22.1423591022
 10
28.5688488637
 20
22.17971457
 10
28.5267179456
 20
22.2163419058
 10
28.4826624804
 20
22.2522067044
 10
28.4367238504
 20
22.2872752771
 10
28.3889452072
 20
22.3215146829
 10
28.3393714308
 20
22.3548927597
 10
28.2880490873
 20
22.3873781544
 10
28.2350263851
 20
22.4189403526
  0
LWPOLYLINE
  5
13C
330
1F
100
AcDbEntity
  8
0
  6
Continuous
 62
     7
370
    25
100
AcDbPolyline
 90
      110
 70
   128
 43
0.0
 10
23.7278660339
 20
21.2963616161
 10
23.7280311706
 20
21.2789640302
 10
23.7300859291
 20
21.2325863569
 10
23.7344872596
 20
21.1862631469
 10
23.7412314033
 20
21.1400339597
 10
23.750312601
 20
21.0939382745
 10
23.7617230973
 20
21.0480154565
 10
23.7754531478
 20
21.0023047232
 10
23.7914910272
 20
20.956845111
 10
23.8098230394
 20
20.9116754419
 10
23.830433529
 20
20.8668342903
 10
23.8533048949
 20
20.82235995
 10
23.8784176053
 20
20.7782904016
 10
23.9057502142
 20
20.7346632799
 10
23.9352793798
 20
20.691515842
 10
23.9669798846
 20
20.6488849353
 10
24.0008246567
 20
20.6068069661
 10
24.0367847931
 20
20.5653178685
 10
24.0748295843
 20
20.5244530736
 10
24.1149265404
 20
20.4842474797
 10
24.1570414191
 20
20.4447354216
 10
24.2011382548
 20
20.4059506424
 10
24.2471793894
 20
20.3679262637
 10
24.2951255042
 20
20.3306947578
 10
24.3449356539
 20
20.2942879202
 10
24.396567301
 20
20.2587368417
 10
24.4499763529
 20
20.2240718827
 10
24.5051171988
 20
20.1903226465
 10
24.561942749
 20
20.1575179546
 10
24.6204044753
 20
20.1256858218
 10
24.680452452
 20
20.0948534325
 10
24.7420353988
 20
20.065047117
 10
24.8051007246
 20
20.0362923297
 10
24.8695945723
 20
20.0086136268
 10
24.935461865
 20
19.9820346455
 10
25.0026463528
 20
19.9565780841
 10
25.0710906609
 20
19.9322656821
 10
25.1407363387
 20
19.9091182021
 10
25.2115239096
 20
19.8871554116
 10
25.2833929218
 20
19.8663960667
 10
25.356282
 20
19.8468578957
 10
25.4301288978
 20
19.8285575838
 10
25.5048705509
 20
19.8115107593
 10
25.5804431307
 20
19.7957319801
 10
25.6567820991
 20
19.781234721
 10
25.7338222636
 20
19.7680313625
 10
25.8114978328
 20
19.7561331801
 10
25.8897424725
 20
19.7455503347
 10
25.9684893629
 20
19.736291864
 10
26.047671255
 20
19.7283656745
 10
26.1272205284
 20
19.7217785352
 10
26.207069249
 20
19.7165360714
 10
26.2871492268
 20
19.7126427601
 10
26.3673920745
 20
19.7101019261
 10
26.4477292658
 20
19.7089157393
 10
26.5280921934
 20
19.7090852127
 10
26.6084122285
 20
19.7106102014
 10
26.6886207787
 20
19.7134894033
 10
26.7686493468
 20
19.7177203595
 10
26.8484295894
 20
19.7232994569
 10
26.927893375
 20
19.7302219309
 10
27.0069728426
 20
19.7384818698
 10
27.0856004591
 20
19.7480722197
 10
27.1637090776
 20
19.7589847906
 10
27.2412319942
 20
19.7712102633
 10
27.3181030051
 20
19.7847381974
 10
27.3942564636
 20
19.7995570401
 10
27.4696273354
 20
19.8156541365
 10
27.5441512546
 20
19.8330157396
 10
27.6177645788
 20
19.8516270229
 10
27.690404443
 20
19.8714720927
 10
27.7620088136
 20
19.8925340014
 10
27.8325165413
 20
19.9147947624
 10
27.9018674134
 20
19.9382353653
 10
27.970002205
 20
19.9628357922
 10
28.0368627298
 20
19.9885750344
 10
28.1023918897
 20
20.015431111
 10
28.1665337236
 20
20.0433810873
 10
28.2292334551
 20
20.0724010942
 10
28.2904375393
 20
20.1024663491
 10
28.3500937087
 20
20.1335511765
 10
28.4081510177
 20
20.1656290304
 10
28.4645598859
 20
20.1986725167
 10
28.5192721408
 20
20.2326534166
 10
28.5722410589
 20
20.2675427109
 10
28.6234214052
 20
20.3033106044
 10
28.6727694724
 20
20.3399265518
 10
28.7202431179
 20
20.3773592836
 10
28.7658017995
 20
20.4155768326
 10
28.8094066109
 20
20.4545465614
 10
28.851020314
 20
20.4942351905
 10
28.8906073711
 20
20.5346088261
 10
28.9281339754
 20
20.5756329896
 10
28.9635680796
 20
20.617272647
 10
28.9968794235
 20
20.6594922384
 10
29.0280395594
 20
20.7022557087
 10
29.057021877
 20
20.7455265385
 10
29.0838016258
 20
20.7892677751
 10
29.1083559362
 20
20.8334420638
 10
29.130663839
 20
20.8780116804
 10
29.1507062836
 20
20.9229385629
 10
29.168466154
 20
20.9681843444
 10
29.1839282834
 20
21.0137103853
 10
29.1970794674
 20
21.0594778072
 10
29.207908475
 20
21.105447525
 10
29.2164060583
 20
21.1515802812
 10
29.2225649606
 20
21.1978366789
 10
29.2263799222
 20
21.2441772159
 10
29.2278476852
 20
21.2905623176
 10
29.2278660339
 20
21.2963616161
  0
LWPOLYLINE
  5
13D
330
1F
100
AcDbEntity
  8
0
  6
Continuous
 62
     7
370
    25
100
AcDbPolyline
 90
      201
 70
   128
 43
0.0
 10
28.1572446392
 20
22.3740379065
 10
28.1036654105
 20
22.4040117726
 10
28.048481714
 20
22.4329992938
 10
27.9917480095
 20
22.460971863
 10
27.9335202863
 20
22.4879018745
 10
27.8738560081
 20
22.5137627518
 10
27.8128140563
 20
22.5385289732
 10
27.750454672
 20
22.5621760976
 10
27.6868393963
 20
22.5846807879
 10
27.6220310099
 20
22.6060208349
 10
27.5560934708
 20
22.6261751785
 10
27.4890918514
 20
22.6451239287
 10
27.4210922742
 20
22.6628483855
 10
27.3521618465
 20
22.6793310569
 10
27.2823685945
 20
22.6945556765
 10
27.2117813955
 20
22.7085072195
 10
27.1404699107
 20
22.7211719174
 10
27.0685045159
 20
22.7325372717
 10
26.9959562322
 20
22.7425920661
 10
26.922896656
 20
22.7513263777
 10
26.8493978884
 20
22.7587315869
 10
26.7755324636
 20
22.7648003856
 10
26.701373278
 20
22.7695267846
 10
26.6269935178
 20
22.7729061195
 10
26.5524665867
 20
22.7749350554
 10
26.4778660339
 20
22.7756115899
 10
26.4032654811
 20
22.7749350554
 10
26.32873855
 20
22.7729061195
 10
26.2543587898
 20
22.7695267846
 10
26.1801996042
 20
22.7648003856
 10
26.1063341794
 20
22.7587315869
 10
26.0328354118
 20
22.7513263777
 10
25.9597758356
 20
22.7425920661
 10
25.8872275519
 20
22.7325372717
 10
25.8152621571
 20
22.7211719174
 10
25.7439506723
 20
22.7085072195
 10
25.6733634733
 20
22.6945556765
 10
25.6035702213
 20
22.6793310569
 10
25.5346397936
 20
22.6628483855
 10
25.4666402164
 20
22.6451239287
 10
25.399638597
 20
22.6261751785
 10
25.3337010579
 20
22.6060208349
 10
25.2688926715
 20
22.5846807879
 10
25.2052773958
 20
22.5621760976
 10
25.1429180115
 20
22.5385289732
 10
25.0818760597
 20
22.5137627518
 10
25.0222117815
 20
22.4879018745
 10
24.9639840582
 20
22.460971863
 10
24.9072503538
 20
22.4329992938
 10
24.8520666573
 20
22.4040117726
 10
24.7984874286
 20
22.3740379065
 10
24.7465655438
 20
22.3431072761
 10
24.6963522435
 20
22.3112504063
 10
24.6478970823
 20
22.2784987358
 10
24.6012478795
 20
22.2448845867
 10
24.5564506723
 20
22.210441132
 10
24.51354967
 20
22.1752023633
 10
24.4725872108
 20
22.139203057
 10
24.4336037198
 20
22.1024787401
 10
24.3966376688
 20
22.0650656549
 10
24.3617255389
 20
22.0270007238
 10
24.3289017843
 20
21.9883215123
 10
24.2981987979
 20
21.9490661919
 10
24.2696468799
 20
21.9092735031
 10
24.2432742076
 20
21.8689827163
 10
24.2191068077
 20
21.8282335937
 10
24.1971685304
 20
21.7870663498
 10
24.1774810262
 20
21.7455216117
 10
24.1600637243
 20
21.7036403789
 10
24.1449338134
 20
21.6614639834
 10
24.132106225
 20
21.6190340479
 10
24.1215936183
 20
21.5763924459
 10
24.113406368
 20
21.5335812593
 10
24.1075525539
 20
21.4906427377
 10
24.104037953
 20
21.4476192562
 10
24.1028660339
 20
21.4045532737
 10
24.104037953
 20
21.3614872912
 10
24.1075525539
 20
21.3184638097
 10
24.113406368
 20
21.2755252881
 10
24.1215936183
 20
21.2327141015
 10
24.132106225
 20
21.1900724995
 10
24.1449338134
 20
21.147642564
 10
24.1600637243
 20
21.1054661685
 10
24.1774810262
 20
21.0635849357
 10
24.1971685304
 20
21.0220401976
 10
24.2191068077
 20
20.9808729537
 10
24.2432742076
 20
20.9401238311
 10
24.2696468799
 20
20.8998330443
 10
24.2981987979
 20
20.8600403555
 10
24.3289017843
 20
20.8207850351
 10
24.3617255389
 20
20.7821058236
 10
24.3966376688
 20
20.7440408925
 10
24.4336037198
 20
20.7066278073
 10
24.4725872108
 20
20.6699034904
 10
24.51354967
 20
20.6339041841
 10
24.5564506723
 20
20.5986654154
 10
24.6012478795
 20
20.5642219607
 10
24.6478970823
 20
20.5306078116
 10
24.6963522435
 20
20.4978561411
 10
24.7465655438
 20
20.4659992713
 10
24.7984874286
 20
20.4350686409
 10
24.8520666573
 20
20.4050947748
 10
24.9072503538
 20
20.3761072536
 10
24.9639840582
 20
20.3481346844
 10
25.0222117815
 20
20.3212046729
 10
25.0818760597
 20
20.2953437956
 10
25.1429180115
 20
20.2705775742
 10
25.2052773958
 20
20.2469304498
 10
25.2688926715
 20
20.2244257595
 10
25.3337010579
 20
20.2030857125
 10
25.399638597
 20
20.1829313689
 10
25.4666402164
 20
20.1639826187
 10
25.5346397936
 20
20.1462581619
 10
25.6035702213
 20
20.1297754905
 10
25.6733634733
 20
20.1145508709
 10
25.7439506723
 20
20.1005993279
 10
25.8152621571
 20
20.08793463
 10
25.8872275519
 20
20.0765692757
 10
25.9597758356
 20
20.0665144813
 10
26.0328354118
 20
20.0577801697
 10
26.1063341794
 20
20.0503749605
 10
26.1801996042
 20
20.0443061618
 10
26.2543587898
 20
20.0395797628
 10
26.32873855
 20
20.0362004279
 10
26.4032654811
 20
20.034171492
 10
26.4778660339
 20
20.0334949575
 10
26.5524665867
 20
20.034171492
 10
26.6269935178
 20
20.0362004279
 10
26.701373278
 20
20.0395797628
 10
26.7755324636
 20
20.0443061618
 10
26.8493978884
 20
20.0503749605
 10
26.922896656
 20
20.0577801697
 10
26.9959562322
 20
20.0665144813
 10
27.0685045159
 20
20.0765692757
 10
27.1404699107
 20
20.08793463
 10
27.2117813955
 20
20.1005993279
 10
27.2823685945
 20
20.1145508709
 10
27.3521618465
 20
20.1297754905
 10
27.4210922742
 20
20.1462581619
 10
27.4890918514
 20
20.1639826187
 10
27.5560934708
 20
20.1829313689
 10
27.6220310099
 20
20.2030857125
 10
27.6868393963
 20
20.2244257595
 10
27.750454672
 20
20.2469304498
 10
27.8128140563
 20
20.2705775742
 10
27.8738560081
 20
20.2953437956
 10
27.9335202863
 20
20.3212046729
 10
27.9917480095
 20
20.3481346844
 10
28.048481714
 20
20.3761072536
 10
28.1036654105
 20
20.4050947748
 10
28.1572446392
 20
20.4350686409
 10
28.209166524
 20
20.4659992713
 10
28.2593798243
 20
20.4978561411
 10
28.3078349855
 20
20.5306078116
 10
28.3544841883
 20
20.5642219607
 10
28.3992813955
 20
20.5986654154
 10
28.4421823978
 20
20.6339041841
 10
28.483144857
 20
20.6699034904
 10
28.522128348
 20
20.7066278073
 10
28.559094399
 20
20.7440408925
 10
28.5940065288
 20
20.7821058236
 10
28.6268302835
 20
20.8207850351
 10
28.6575332699
 20
20.8600403555
 10
28.6860851879
 20
20.8998330443
 10
28.7124578602
 20
20.9401238311
 10
28.7366252601
 20
20.9808729537
 10
28.7585635374
 20
21.0220401976
 10
28.7782510416
 20
21.0635849357
 10
28.7956683435
 20
21.1054661685
 10
28.8107982544
 20
21.147642564
 10
28.8236258428
 20
21.1900724995
 10
28.8341384495
 20
21.2327141015
 10
28.8423256998
 20
21.2755252881
 10
28.8481795139
 20
21.3184638097
 10
28.8516941148
 20
21.3614872912
 10
28.8528660339
 20
21.4045532737
 10
28.8516941148
 20
21.4476192562
 10
28.8481795139
 20
21.4906427377
 10
28.8423256998
 20
21.5335812593
 10
28.8341384495
 20
21.5763924459
 10
28.8236258428
 20
21.6190340479
 10
28.8107982544
 20
21.6614639834
 10
28.7956683435
 20
21.7036403789
 10
28.7782510416
 20
21.7455216117
 10
28.7585635374
 20
21.7870663498
 10
28.7366252601
 20
21.8282335937
 10
28.7124578602
 20
21.8689827163
 10
28.6860851879
 20
21.9092735031
 10
28.6575332699
 20
21.9490661919
 10
28.6268302835
 20
21.9883215123
 10
28.5940065288
 20
22.0270007238
 10
28.559094399
 20
22.0650656549
 10
28.522128348
 20
22.1024787401
 10
28.483144857
 20
22.139203057
 10
28.4421823978
 20
22.1752023633
 10
28.3992813955
 20
22.210441132
 10
28.3544841883
 20
22.2448845867
 10
28.3078349855
 20
22.2784987358
 10
28.2593798243
 20
22.3112504063
 10
28.209166524
 20
22.3431072761
 10
28.1572446392
 20
22.3740379065
  0
LWPOLYLINE
  5
13E
330
1F
100
AcDbEntity
  8
0
  6
Continuous
 62
     7
370
    25
100
AcDbPolyline
 90
      105
 70
   128
 43
0.0
 10
23.9928660339
 20
19.9756068529
 10
23.9928842715
 20
19.9701107651
 10
23.9943431357
 20
19.9261517426
 10
23.9981348465
 20
19.8822391747
 10
24.0042558423
 20
19.8384143099
 10
24.0127003733
 20
19.7947183141
 10
24.0234605075
 20
19.7511922323
 10
24.0365261375
 20
19.7078769497
 10
24.0518849904
 20
19.6648131538
 10
24.0695226391
 20
19.6220412957
 10
24.0894225161
 20
19.5796015521
 10
24.1115659288
 20
19.537533788
 10
24.1359320773
 20
19.4958775189
 10
24.1624980737
 20
19.4546718738
 10
24.1912389639
 20
19.4139555584
 10
24.2221277505
 20
19.3737668186
 10
24.255135419
 20
19.3341434051
 10
24.2902309641
 20
19.2951225371
 10
24.3273814197
 20
19.2567408682
 10
24.3665518891
 20
19.2190344514
 10
24.4077055785
 20
19.1820387055
 10
24.4508038309
 20
19.1457883817
 10
24.4958061628
 20
19.1103175309
 10
24.5426703023
 20
19.075659472
 10
24.5913522285
 20
19.0418467603
 10
24.6418062129
 20
19.0089111572
 10
24.6939848627
 20
18.9768835999
 10
24.747839165
 20
18.945794173
 10
24.8033185327
 20
18.9156720796
 10
24.8603708525
 20
18.8865456143
 10
24.9189425334
 20
18.8584421366
 10
24.9789785573
 20
18.8313880447
 10
25.0404225306
 20
18.8054087515
 10
25.1032167372
 20
18.7805286599
 10
25.1673021926
 20
18.7567711408
 10
25.2326186994
 20
18.7341585101
 10
25.2991049039
 20
18.7127120086
 10
25.3666983537
 20
18.6924517816
 10
25.4353355562
 20
18.6733968602
 10
25.5049520384
 20
18.6555651433
 10
25.5754824075
 20
18.6389733805
 10
25.6468604124
 20
18.6236371572
 10
25.7190190054
 20
18.6095708791
 10
25.7918904059
 20
18.5967877591
 10
25.8654061636
 20
18.5852998046
 10
25.9394972231
 20
18.5751178067
 10
26.0140939883
 20
18.5662513297
 10
26.0891263883
 20
18.558708702
 10
26.1645239429
 20
18.5524970088
 10
26.2402158291
 20
18.5476220848
 10
26.3161309472
 20
18.5440885091
 10
26.3921979878
 20
18.5418996011
 10
26.468345499
 20
18.5410574167
 10
26.544501953
 20
18.5415627471
 10
26.620595814
 20
18.5434151176
 10
26.6965556047
 20
18.5466127882
 10
26.7723099738
 20
18.5511527553
 10
26.8477877629
 20
18.5570307543
 10
26.9229180736
 20
18.5642412638
 10
26.9976303338
 20
18.5727775109
 10
27.071854364
 20
18.5826314771
 10
27.1455204433
 20
18.5937939063
 10
27.2185593751
 20
18.6062543133
 10
27.2909025517
 20
18.6200009937
 10
27.362482019
 20
18.6350210349
 10
27.4332305403
 20
18.651300328
 10
27.5030816594
 20
18.6688235815
 10
27.5719697631
 20
18.6875743352
 10
27.6398301428
 20
18.707534976
 10
27.7065990552
 20
18.7286867543
 10
27.7722137822
 20
18.7510098016
 10
27.8366126901
 20
18.7744831491
 10
27.899735287
 20
18.7990847477
 10
27.9615222801
 20
18.8247914883
 10
28.0219156308
 20
18.851579224
 10
28.08085861
 20
18.879422792
 10
28.1382958509
 20
18.9082960382
 10
28.1941734008
 20
18.9381718411
 10
28.2484387724
 20
18.9690221374
 10
28.3010409926
 20
19.0008179486
 10
28.3519306505
 20
19.0335294078
 10
28.401059944
 20
19.0671257883
 10
28.4483827246
 20
19.1015755319
 10
28.4938545404
 20
19.1368462791
 10
28.5374326785
 20
19.1729048989
 10
28.5790762047
 20
19.2097175204
 10
28.618746002
 20
19.2472495645
 10
28.6564048072
 20
19.2854657761
 10
28.6920172465
 20
19.3243302577
 10
28.725549868
 20
19.3638065027
 10
28.7569711734
 20
19.4038574298
 10
28.7862516479
 20
19.4444454182
 10
28.8133637875
 20
19.4855323422
 10
28.8382821248
 20
19.5270796077
 10
28.8609832534
 20
19.5690481881
 10
28.8814458494
 20
19.6113986612
 10
28.8996506916
 20
19.6540912457
 10
28.9155806799
 20
19.6970858394
 10
28.9292208505
 20
19.7403420562
 10
28.940558391
 20
19.7838192641
 10
28.9495826516
 20
19.8274766238
 10
28.9562851556
 20
19.8712731266
 10
28.9606596071
 20
19.9151676332
 10
28.962701897
 20
19.9591189121
 10
28.9628660339
 20
19.9756068529
  0
ARC
  5
13F
330
1F
100
AcDbEntity
  8
0
  6
Continuous
 62
     7
370
    25
100
AcDbCircle
 10
24.9397990806
 20
21.0911618236
 30
0.0
 40
0.8375601664340928
100
AcDbArc
 50
164.141712308
 51
168.9668241211
  0
ARC
  5
140
330
1F
100
AcDbEntity
  8
0
  6
Continuous
 62
     7
370
    25
100
AcDbCircle
 10
28.0159329872
 20
21.0911618236
 30
0.0
 40
0.8375601664094612
100
AcDbArc
 50
11.0331758788
 51
15.8582876921
  0
LWPOLYLINE
  5
141
330
1F
100
AcDbEntity
  8
0
  6
Continuous
 62
     7
370
    25
100
AcDbPolyline
 90
      120
 70
   128
 43
0.0
 10
22.7320638223
 20
15.9456498382
 10
22.734920795
 20
15.8991427466
 10
22.7407338156
 20
15.8426149776
 10
22.7491080799
 20
15.7861944235
 10
22.7600378487
 20
15.729919752
 10
22.7735156312
 20
15.6738295312
 10
22.7895321904
 20
15.6179622023
 10
22.8080765494
 20
15.562356054
 10
22.8291359988
 20
15.5070491961
 10
22.8526961055
 20
15.4520795331
 10
22.8787407226
 20
15.3974847385
 10
22.9072520004
 20
15.3433022288
 10
22.9382103987
 20
15.2895691379
 10
22.9715947002
 20
15.236322292
 10
23.0073820249
 20
15.1835981836
 10
23.045547846
 20
15.1314329473
 10
23.0860660065
 20
15.0798623345
 10
23.1289087374
 20
15.0289216891
 10
23.1740466762
 20
14.9786459234
 10
23.2214488879
 20
14.9290694938
 10
23.2710828852
 20
14.8802263774
 10
23.3229146515
 20
14.8321500491
 10
23.3769086638
 20
14.7848734577
 10
23.4330279175
 20
14.7384290045
 10
23.4912339511
 20
14.69284852
 10
23.5514868731
 20
14.648163243
 10
23.6137453893
 20
14.6044037983
 10
23.6779668307
 20
14.5616001766
 10
23.7441071831
 20
14.5197817134
 10
23.8121211173
 20
14.4789770688
 10
23.8819620199
 20
14.4392142085
 10
23.9535820254
 20
14.4005203838
 10
24.0269320492
 20
14.3629221136
 10
24.1019618206
 20
14.3264451658
 10
24.1786199181
 20
14.2911145399
 10
24.256853804
 20
14.2569544499
 10
24.3366098608
 20
14.2239883072
 10
24.4178334276
 20
14.1922387053
 10
24.5004688379
 20
14.1617274037
 10
24.5844594574
 20
14.1324753133
 10
24.6697477232
 20
14.1045024822
 10
24.756275183
 20
14.0778280813
 10
24.8439825352
 20
14.0524703922
 10
24.9328096695
 20
14.0284467936
 10
25.0226957082
 20
14.0057737501
 10
25.113579048
 20
13.9844668008
 10
25.205397402
 20
13.9645405482
 10
25.2980878424
 20
13.9460086489
 10
25.3915868438
 20
13.9288838038
 10
25.4858303267
 20
13.9131777492
 10
25.5807537014
 20
13.8989012495
 10
25.676291912
 20
13.8860640889
 10
25.7723794815
 20
13.8746750654
 10
25.8689505562
 20
13.8647419845
 10
25.9659389512
 20
13.8562716539
 10
26.0632781955
 20
13.8492698786
 10
26.1609015775
 20
13.8437414574
 10
26.2587421912
 20
13.8396901791
 10
26.3567329813
 20
13.8371188202
 10
26.4548067901
 20
13.8360291432
 10
26.5528964024
 20
13.8364218947
 10
26.6509345927
 20
13.8382968056
 10
26.7488541705
 20
13.8416525909
 10
26.8465880265
 20
13.8464869508
 10
26.9440691789
 20
13.852796572
 10
27.041230819
 20
13.8605771303
 10
27.1380063569
 20
13.8698232931
 10
27.2343294677
 20
13.8805287237
 10
27.3301341362
 20
13.892686085
 10
27.4253547027
 20
13.9062870451
 10
27.5199259079
 20
13.9213222825
 10
27.6137829372
 20
13.9377814929
 10
27.7068614658
 20
13.9556533958
 10
27.7990977024
 20
13.9749257428
 10
27.8904284327
 20
13.9955853256
 10
27.9807910634
 20
14.0176179852
 10
28.0701236643
 20
14.0410086214
 10
28.1583650114
 20
14.0657412034
 10
28.2454546284
 20
14.0917987809
 10
28.3313328285
 20
14.1191634952
 10
28.415940755
 20
14.1478165919
 10
28.4992204219
 20
14.1777384337
 10
28.5811147535
 20
14.2089085136
 10
28.6615676235
 20
14.2413054691
 10
28.7405238934
 20
14.2749070971
 10
28.8179294507
 20
14.3096903686
 10
28.8937312455
 20
14.345631445
 10
28.9678773269
 20
14.3827056939
 10
29.0403168789
 20
14.4208877066
 10
29.1110002551
 20
14.4601513151
 10
29.1798790127
 20
14.50046961
 10
29.2469059455
 20
14.5418149591
 10
29.3120351167
 20
14.5841590265
 10
29.3752218899
 20
14.6274727916
 10
29.4364229602
 20
14.6717265693
 10
29.4955963834
 20
14.7168900303
 10
29.5527016049
 20
14.7629322219
 10
29.6076994877
 20
14.8098215889
 10
29.660552339
 20
14.8575259959
 10
29.7112239361
 20
14.9060127484
 10
29.7596795511
 20
14.9552486163
 10
29.8058859752
 20
15.0051998556
 10
29.8498115406
 20
15.0558322322
 10
29.8914261429
 20
15.1071110453
 10
29.9307012617
 20
15.159001151
 10
29.9676099797
 20
15.2114669863
 10
30.0021270015
 20
15.2644725938
 10
30.0342286709
 20
15.3179816461
 10
30.063892987
 20
15.3719574707
 10
30.0910996193
 20
15.4263630753
 10
30.1158299219
 20
15.4811611731
 10
30.1380669457
 20
15.5363142081
 10
30.1577954506
 20
15.5917843813
 10
30.1750019157
 20
15.6475336761
 10
30.1896745485
 20
15.7035238847
 10
30.2018032932
 20
15.7597166343
 10
30.2113798374
 20
15.8160734132
 10
30.2183976176
 20
15.8725555972
 10
30.2228518244
 20
15.9291244762
 10
30.2236682455
 20
15.9456498382
  0
LWPOLYLINE
  5
142
330
1F
100
AcDbEntity
  8
0
  6
Continuous
 62
     7
370
    25
100
AcDbPolyline
 90
      184
 70
   128
 43
0.0
 10
23.6205847997
 20
18.1399585948
 10
23.5568827494
 20
18.0962916135
 10
23.4951825951
 20
18.051676954
 10
23.4355266231
 20
18.0061451929
 10
23.3779557185
 20
17.9597275353
 10
23.3225093376
 20
17.9124557937
 10
23.2692254806
 20
17.8643623657
 10
23.2181406656
 20
17.8154802122
 10
23.1692899035
 20
17.7658428345
 10
23.1227066741
 20
17.7154842516
 10
23.0784229035
 20
17.6644389768
 10
23.0364689413
 20
17.612741994
 10
22.9968735408
 20
17.5604287336
 10
22.9596638387
 20
17.5075350486
 10
22.9248653366
 20
17.4540971897
 10
22.8925018838
 20
17.4001517805
 10
22.8625956604
 20
17.3457357925
 10
22.8351671628
 20
17.2908865197
 10
22.810235189
 20
17.2356415531
 10
22.7878168262
 20
17.1800387547
 10
22.7679274387
 20
17.1241162321
 10
22.7505806579
 20
17.0679123116
 10
22.7357883723
 20
17.0114655126
 10
22.7235607198
 20
16.954814521
 10
22.7139060807
 20
16.8979981625
 10
22.7068310717
 20
16.8410553762
 10
22.7023405416
 20
16.7840251878
 10
22.7004375682
 20
16.7269466831
 10
22.7011234555
 20
16.6698589807
 10
22.7043977336
 20
16.6128012057
 10
22.7102581583
 20
16.5558124626
 10
22.7187007133
 20
16.4989318087
 10
22.7297196124
 20
16.4421982272
 10
22.7433073038
 20
16.3856506005
 10
22.7594544753
 20
16.3293276833
 10
22.7781500603
 20
16.2732680767
 10
22.7993812458
 20
16.2175102011
 10
22.823133481
 20
16.1620922701
 10
22.8493904874
 20
16.1070522645
 10
22.8781342697
 20
16.0524279059
 10
22.9093451283
 20
15.9982566312
 10
22.9430016729
 20
15.9445755665
 10
22.979080837
 20
15.8914215023
 10
23.0175578936
 20
15.8388308676
 10
23.0584064726
 20
15.7868397056
 10
23.1015985784
 20
15.7354836482
 10
23.1471046093
 20
15.6847978924
 10
23.1948933776
 20
15.6348171757
 10
23.2449321315
 20
15.5855757523
 10
23.2971865767
 20
15.5371073699
 10
23.3516209008
 20
15.4894452463
 10
23.4081977971
 20
15.4426220467
 10
23.4668784907
 20
15.3966698614
 10
23.5276227647
 20
15.3516201837
 10
23.5903889882
 20
15.3075038885
 10
23.6551341441
 20
15.2643512108
 10
23.7218138595
 20
15.2221917253
 10
23.7903824354
 20
15.181054326
 10
23.8607928783
 20
15.1409672065
 10
23.9329969324
 20
15.1019578405
 10
24.0069451127
 20
15.0640529629
 10
24.0825867388
 20
15.0272785521
 10
24.1598699696
 20
14.9916598112
 10
24.2387418392
 20
14.9572211516
 10
24.3191482926
 20
14.9239861758
 10
24.4010342233
 20
14.8919776614
 10
24.4843435108
 20
14.8612175455
 10
24.5690190591
 20
14.8317269095
 10
24.6550028358
 20
14.8035259648
 10
24.7422359118
 20
14.7766340389
 10
24.830658502
 20
14.7510695623
 10
24.920210006
 20
14.7268500555
 10
25.0108290496
 20
14.7039921173
 10
25.1024535271
 20
14.6825114135
 10
25.1950206436
 20
14.6624226659
 10
25.2884669583
 20
14.6437396422
 10
25.3827284277
 20
14.6264751469
 10
25.4777404497
 20
14.6106410123
 10
25.5734379078
 20
14.5962480902
 10
25.6697552157
 20
14.5833062448
 10
25.7666263625
 20
14.5718243458
 10
25.8639849574
 20
14.5618102624
 10
25.9617642757
 20
14.5532708577
 10
26.0598973044
 20
14.5462119842
 10
26.158316788
 20
14.5406384796
 10
26.2569552747
 20
14.5365541639
 10
26.3557451626
 20
14.5339618361
 10
26.454618746
 20
14.5328632729
 10
26.5535082619
 20
14.5332592272
 10
26.6523459365
 20
14.5351494277
 10
26.7510640312
 20
14.5385325789
 10
26.8495948897
 20
14.5434063621
 10
26.9478709838
 20
14.5497674372
 10
27.0458249599
 20
14.5576114445
 10
27.1433896854
 20
14.5669330081
 10
27.2404982942
 20
14.5777257396
 10
27.337084233
 20
14.5899822421
 10
27.4330813065
 20
14.6036941157
 10
27.5284237232
 20
14.6188519628
 10
27.6230461402
 20
14.6354453951
 10
27.7168837079
 20
14.6534630403
 10
27.8098721147
 20
14.6728925499
 10
27.9019476312
 20
14.693720608
 10
27.9930471532
 20
14.71593294
 10
28.0831082458
 20
14.7395143227
 10
28.1720691856
 20
14.7644485947
 10
28.2598690031
 20
14.7907186671
 10
28.3464475248
 20
14.8183065358
 10
28.4317454142
 20
14.8471932936
 10
28.5157042121
 20
14.8773591427
 10
28.5982663776
 20
14.9087834091
 10
28.6793753266
 20
14.9414445561
 10
28.7589754711
 20
14.9753201995
 10
28.8370122572
 20
15.0103871225
 10
28.9134322022
 20
15.046621292
 10
28.9881829319
 20
15.0839978749
 10
29.0612132158
 20
15.1224912553
 10
29.1324730025
 20
15.1620750516
 10
29.2019134542
 20
15.2027221351
 10
29.2694869799
 20
15.2444046483
 10
29.3351472681
 20
15.2870940241
 10
29.3988493184
 20
15.3307610053
 10
29.4605494727
 20
15.3753756648
 10
29.5202054447
 20
15.420907426
 10
29.5777763493
 20
15.4673250835
 10
29.6332227301
 20
15.5145968251
 10
29.6865065872
 20
15.5626902531
 10
29.7375914022
 20
15.6115724066
 10
29.7864421643
 20
15.6612097843
 10
29.8330253936
 20
15.7115683672
 10
29.8773091643
 20
15.762613642
 10
29.9192631265
 20
15.8143106249
 10
29.958858527
 20
15.8666238852
 10
29.9960682291
 20
15.9195175702
 10
30.0308667311
 20
15.9729554291
 10
30.063230184
 20
16.0269008383
 10
30.0931364074
 20
16.0813168263
 10
30.120564905
 20
16.1361660991
 10
30.1454968788
 20
16.1914110657
 10
30.1679152416
 20
16.2470138641
 10
30.1878046291
 20
16.3029363868
 10
30.2051514099
 20
16.3591403073
 10
30.2199436955
 20
16.4155871062
 10
30.232171348
 20
16.4722380979
 10
30.2418259871
 20
16.5290544564
 10
30.2489009961
 20
16.5859972427
 10
30.2533915262
 20
16.643027431
 10
30.2552944996
 20
16.7001059358
 10
30.2546086123
 20
16.7571936382
 10
30.2513343342
 20
16.8142514132
 10
30.2454739095
 20
16.8712401562
 10
30.2370313545
 20
16.9281208101
 10
30.2260124554
 20
16.9848543916
 10
30.212424764
 20
17.0414020184
 10
30.1962775925
 20
17.0977249355
 10
30.1775820075
 20
17.1537845422
 10
30.156350822
 20
17.2095424178
 10
30.1325985868
 20
17.2649603487
 10
30.1063415804
 20
17.3200003543
 10
30.0775977981
 20
17.3746247129
 10
30.0463869395
 20
17.4287959877
 10
30.0127303949
 20
17.4824770523
 10
29.9766512308
 20
17.5356311165
 10
29.9381741742
 20
17.5882217512
 10
29.8973255952
 20
17.6402129133
 10
29.8541334894
 20
17.6915689707
 10
29.8086274585
 20
17.7422547264
 10
29.7608386901
 20
17.7922354432
 10
29.7107999363
 20
17.8414768665
 10
29.6585454911
 20
17.8899452489
 10
29.604111167
 20
17.9376073726
 10
29.5475342707
 20
17.9844305722
 10
29.4888535771
 20
18.0303827575
 10
29.428109303
 20
18.0754324351
 10
29.3653430796
 20
18.1195487304
 10
29.3005979237
 20
18.1627014081
 10
29.2339182083
 20
18.2048608936
 10
29.1653496324
 20
18.2459982928
 10
29.0949391895
 20
18.2860854123
 10
29.0227351354
 20
18.3250947784
 10
28.9487869551
 20
18.3629996559
 10
28.873145329
 20
18.3997740668
 10
28.7958620982
 20
18.4353928077
 10
28.7278660339
 20
18.4651932452
  0
ARC
  5
143
330
1F
100
AcDbEntity
  8
0
  6
Continuous
 62
     7
370
    25
100
AcDbCircle
 10
25.6936565388
 20
14.9986772911
 30
0.0
 40
3.763678342258666
100
AcDbArc
 50
112.920710442
 51
123.4226014171
  0
LWPOLYLINE
  5
144
330
1F
100
AcDbEntity
  8
0
  6
Continuous
 62
     7
370
    25
100
AcDbPolyline
 90
       37
 70
   128
 43
0.0
 10
24.2278660339
 20
17.7728863521
 10
24.2105679814
 20
17.7692882463
 10
24.190147653
 20
17.7663948637
 10
24.1692945542
 20
17.7648395567
 10
24.1482709248
 20
17.7646418841
 10
24.1273411492
 20
17.7658043317
 10
24.1067684313
 20
17.7683122812
 10
24.0868114851
 20
17.7721341936
 10
24.0677212807
 20
17.7772220061
 10
24.0497378886
 20
17.7835117365
 10
24.0330874603
 20
17.7909242878
 10
24.0179793847
 20
17.799366443
 10
24.0046036544
 20
17.8087320369
 10
23.9931284772
 20
17.8189032919
 10
23.9836981601
 20
17.8297522984
 10
23.9764312946
 20
17.841142624
 10
23.9714192659
 20
17.8529310286
 10
23.9687251032
 20
17.8649692663
 10
23.9683826871
 20
17.8771059492
 10
23.9703963237
 20
17.8891884515
 10
23.9747406903
 20
17.9010648288
 10
23.9813611541
 20
17.9125857286
 10
23.9901744588
 20
17.923606269
 10
24.001069772
 20
17.9339878603
 10
24.0139100788
 20
17.9435999479
 10
24.028533905
 20
17.9523216544
 10
24.0447573474
 20
17.9600432991
 10
24.0623763868
 20
17.9666677779
 10
24.0811694536
 20
17.9721117841
 10
24.100900214
 20
17.9763068562
 10
24.1213205424
 20
17.9792002388
 10
24.1421736412
 20
17.9807555458
 10
24.1631972706
 20
17.9809532184
 10
24.1841270463
 20
17.9797907708
 10
24.2046997641
 20
17.9772828213
 10
24.2246567103
 20
17.9734609089
 10
24.2278660339
 20
17.9727087504
  0
LWPOLYLINE
  5
145
330
1F
100
AcDbEntity
  8
0
  6
Continuous
 62
     7
370
    25
100
AcDbPolyline
 90
       57
 70
   128
 43
0.0
 10
28.941821989
 20
15.4834526709
 10
28.9271981628
 20
15.4747309645
 10
28.9109747204
 20
15.4670093198
 10
28.893355681
 20
15.460384841
 10
28.8745626142
 20
15.4549408347
 10
28.8548318538
 20
15.4507457626
 10
28.8344115254
 20
15.4478523801
 10
28.8135584266
 20
15.446297073
 10
28.7925347972
 20
15.4460994004
 10
28.7716050215
 20
15.4472618481
 10
28.7510323037
 20
15.4497697975
 10
28.7310753575
 20
15.4535917099
 10
28.7119851531
 20
15.4586795224
 10
28.694001761
 20
15.4649692528
 10
28.6773513327
 20
15.4723818042
 10
28.662243257
 20
15.4808239593
 10
28.6488675268
 20
15.4901895533
 10
28.6373923496
 20
15.5003608082
 10
28.6279620324
 20
15.5112098148
 10
28.620695167
 20
15.5226001403
 10
28.6156831383
 20
15.534388545
 10
28.6129889756
 20
15.5464267827
 10
28.6126465595
 20
15.5585634656
 10
28.6146601961
 20
15.5706459679
 10
28.6190045627
 20
15.5825223451
 10
28.6256250265
 20
15.5940432449
 10
28.6344383311
 20
15.6050637853
 10
28.6453336443
 20
15.6154453766
 10
28.6581739512
 20
15.6250574643
 10
28.6727977773
 20
15.6337791707
 10
28.6890212197
 20
15.6415008154
 10
28.7066402591
 20
15.6481252942
 10
28.7254333259
 20
15.6535693004
 10
28.7451640864
 20
15.6577643726
 10
28.7655844148
 20
15.6606577551
 10
28.7864375136
 20
15.6622130622
 10
28.807461143
 20
15.6624107348
 10
28.8283909186
 20
15.6612482871
 10
28.8489636365
 20
15.6587403376
 10
28.8689205827
 20
15.6549184253
 10
28.8880107871
 20
15.6498306128
 10
28.9059941792
 20
15.6435408823
 10
28.9226446075
 20
15.636128331
 10
28.9377526831
 20
15.6276861758
 10
28.9511284133
 20
15.6183205819
 10
28.9626035906
 20
15.6081493269
 10
28.9720339077
 20
15.5973003204
 10
28.9793007732
 20
15.5859099948
 10
28.9843128019
 20
15.5741215902
 10
28.9870069646
 20
15.5620833525
 10
28.9873493807
 20
15.5499466696
 10
28.9853357441
 20
15.5378641673
 10
28.9809913775
 20
15.5259877901
 10
28.9743709137
 20
15.5144668902
 10
28.965557609
 20
15.5034463498
 10
28.9546622958
 20
15.4930647586
 10
28.941821989
 20
15.4834526709
  0
LWPOLYLINE
  5
146
330
1F
100
AcDbEntity
  8
0
  6
Continuous
 62
     7
370
    25
100
AcDbPolyline
 90
       57
 70
   128
 43
0.0
 10
24.6115557767
 20
15.3021856801
 10
24.5969319505
 20
15.2934639737
 10
24.5807085081
 20
15.285742329
 10
24.5630894687
 20
15.2791178502
 10
24.5442964019
 20
15.273673844
 10
24.5245656414
 20
15.2694787718
 10
24.5041453131
 20
15.2665853893
 10
24.4832922143
 20
15.2650300822
 10
24.4622685849
 20
15.2648324096
 10
24.4413388092
 20
15.2659948573
 10
24.4207660914
 20
15.2685028068
 10
24.4008091452
 20
15.2723247191
 10
24.3817189408
 20
15.2774125316
 10
24.3637355487
 20
15.2837022621
 10
24.3470851204
 20
15.2911148134
 10
24.3319770447
 20
15.2995569686
 10
24.3186013145
 20
15.3089225625
 10
24.3071261373
 20
15.3190938175
 10
24.2976958201
 20
15.329942824
 10
24.2904289547
 20
15.3413331496
 10
24.285416926
 20
15.3531215542
 10
24.2827227633
 20
15.3651597919
 10
24.2823803472
 20
15.3772964748
 10
24.2843939838
 20
15.3893789771
 10
24.2887383504
 20
15.4012553544
 10
24.2953588141
 20
15.4127762542
 10
24.3041721188
 20
15.4237967946
 10
24.315067432
 20
15.4341783859
 10
24.3279077389
 20
15.4437904735
 10
24.342531565
 20
15.4525121799
 10
24.3587550074
 20
15.4602338246
 10
24.3763740468
 20
15.4668583034
 10
24.3951671136
 20
15.4723023097
 10
24.4148978741
 20
15.4764973818
 10
24.4353182025
 20
15.4793907643
 10
24.4561713013
 20
15.4809460714
 10
24.4771949307
 20
15.481143744
 10
24.4981247063
 20
15.4799812963
 10
24.5186974242
 20
15.4774733469
 10
24.5386543704
 20
15.4736514345
 10
24.5577445748
 20
15.468563622
 10
24.5757279669
 20
15.4622738916
 10
24.5923783952
 20
15.4548613402
 10
24.6074864708
 20
15.4464191851
 10
24.620862201
 20
15.4370535911
 10
24.6323373782
 20
15.4268823362
 10
24.6417676954
 20
15.4160333296
 10
24.6490345609
 20
15.4046430041
 10
24.6540465895
 20
15.3928545994
 10
24.6567407523
 20
15.3808163617
 10
24.6570831684
 20
15.3686796788
 10
24.6550695318
 20
15.3565971765
 10
24.6507251651
 20
15.3447207993
 10
24.6441047014
 20
15.3331998995
 10
24.6352913967
 20
15.3221793591
 10
24.6243960835
 20
15.3117977678
 10
24.6115557767
 20
15.3021856801
  0
ARC
  5
147
330
1F
100
AcDbEntity
  8
0
  6
Continuous
 62
     7
370
    25
100
AcDbCircle
 10
27.9282782091
 20
16.6884829433
 30
0.0
 40
0.8847671416716358
100
AcDbArc
 50
15.1332296049
 51
25.3476462376
  0
ARC
  5
148
330
1F
100
AcDbEntity
  8
0
  6
Continuous
 62
     7
370
    25
100
AcDbCircle
 10
24.9745461932
 20
16.7077489073
 30
0.0
 40
0.8287216814372657
100
AcDbArc
 50
154.2901323696
 51
178.7806388462
  0
SPLINE
  5
149
330
1F
100
AcDbEntity
  8
0
  6
Continuous
 62
     7
370
    25
100
AcDbSpline
210
0.0
220
0.0
230
1.0
 70
     8
 71
     3
 72
    12
 73
     8
 74
     0
 42
0.00000001
 43
0.00000001
 40
0.0
 40
0.0
 40
0.0
 40
0.0
 40
0.1396721217146356
 40
0.360525706511901
 40
0.5812079333477768
 40
0.8017997377680678
 40
1.0
 40
1.0
 40
1.0
 40
1.0
 10
24.20283961667681
 20
16.69051020352912
 30
0.0
 10
24.19860806493432
 20
16.6907933413675
 30
0.0
 10
24.18768546160536
 20
16.69152418491716
 30
0.0
 10
24.17131046468511
 20
16.69604633494175
 30
0.0
 10
24.15670071940498
 20
16.70425387983401
 30
0.0
 10
24.14751123885025
 20
16.71451047464907
 30
0.0
 10
24.14649372930296
 20
16.72189124776624
 30
0.0
 10
24.1460121761047
 20
16.72538432054336
 30
0.0
  0
SPLINE
  5
14A
330
1F
100
AcDbEntity
  8
0
  6
Continuous
 62
     7
370
    25
100
AcDbSpline
210
0.0
220
0.0
230
1.0
 70
     8
 71
     3
 72
    10
 73
     6
 74
     0
 42
0.00000001
 43
0.00000001
 40
0.0
 40
0.0
 40
0.0
 40
0.0
 40
0.0066230024138629
 40
0.7776811598558515
 40
1.0
 40
1.0
 40
1.0
 40
1.0
 10
24.22786603389494
 20
16.68648749516205
 30
0.0
 10
24.22782037904847
 20
16.68650778758179
 30
0.0
 10
24.22245953033636
 20
16.68889054868229
 30
0.0
 10
24.21331338892901
 20
16.68995235530048
 30
0.0
 10
24.20475499454254
 20
16.69040818773922
 30
0.0
 10
24.20283961667681
 20
16.69051020352912
 30
0.0
  0
SPLINE
  5
14B
330
1F
100
AcDbEntity
  8
0
  6
Continuous
 62
     7
370
    25
100
AcDbSpline
210
0.0
220
0.0
230
1.0
 70
     8
 71
     3
 72
     9
 73
     5
 74
     0
 42
0.00000001
 43
0.00000001
 40
0.0
 40
0.0
 40
0.0
 40
0.0
 40
0.7570597261189901
 40
1.0
 40
1.0
 40
1.0
 40
1.0
 10
24.22088702513322
 20
16.54683052566577
 30
0.0
 10
24.22758930662743
 20
16.54779146797359
 30
0.0
 10
24.23644234855132
 20
16.549060776424
 30
0.0
 10
24.24302147563894
 20
16.55254886725906
 30
0.0
 10
24.2446198105755
 20
16.55339626500185
 30
0.0
  0
SPLINE
  5
14C
330
1F
100
AcDbEntity
  8
0
  6
Continuous
 62
     7
370
    25
100
AcDbSpline
210
0.0
220
0.0
230
1.0
 70
     8
 71
     3
 72
    12
 73
     8
 74
     0
 42
0.00000001
 43
0.00000001
 40
0.0
 40
0.0
 40
0.0
 40
0.0
 40
0.2208865173273783
 40
0.441780630724439
 40
0.6625033604127607
 40
0.8831356450140507
 40
1.0
 40
1.0
 40
1.0
 40
1.0
 10
24.17336921632192
 20
16.50758846718314
 30
0.0
 10
24.17299217226785
 20
16.51149476717768
 30
0.0
 10
24.17223807119353
 20
16.51930750150057
 30
0.0
 10
24.1797068058961
 20
16.53047357557363
 30
0.0
 10
24.1926700308809
 20
16.5395565378884
 30
0.0
 10
24.20747963436811
 20
16.54485149954269
 30
0.0
 10
24.21743856434428
 20
16.54632150835544
 30
0.0
 10
24.22088702513322
 20
16.54683052566577
 30
0.0
  0
LWPOLYLINE
  5
14D
330
1F
100
AcDbEntity
  8
0
  6
Continuous
 62
     7
370
    25
100
AcDbPolyline
 90
       20
 70
   128
 43
0.0
 10
24.1733692163
 20
16.5075884672
 10
24.1863031717
 20
16.4640845766
 10
24.2017007559
 20
16.4208488576
 10
24.2195454152
 20
16.3779277922
 10
24.239817965
 20
16.3353675243
 10
24.2624966106
 20
16.2932138099
 10
24.2875569704
 20
16.2515119679
 10
24.3149721024
 20
16.2103068314
 10
24.344712533
 20
16.1696426994
 10
24.3767462885
 20
16.1295632895
 10
24.4110389301
 20
16.0901116905
 10
24.44755359
 20
16.0513303163
 10
24.4862510118
 20
16.0132608602
 10
24.5270895926
 20
15.9759442502
 10
24.5700254272
 20
15.9394206048
 10
24.6150123558
 20
15.9037291903
 10
24.6620020138
 20
15.8689083778
 10
24.7109438831
 20
15.8349956029
 10
24.7617853469
 20
15.8020273247
 10
24.8144717462
 20
15.770038987
  0
SPLINE
  5
14E
330
1F
100
AcDbEntity
  8
0
  6
Continuous
 62
     7
370
    25
100
AcDbSpline
210
0.0
220
0.0
230
1.0
 70
     8
 71
     3
 72
    12
 73
     8
 74
     0
 42
0.00000001
 43
0.00000001
 40
0.0
 40
0.0
 40
0.0
 40
0.0
 40
0.1396721217146758
 40
0.3605257065119252
 40
0.5812079333477483
 40
0.8017997377680678
 40
1.0
 40
1.0
 40
1.0
 40
1.0
 10
24.8973713391977
 20
15.76857645405283
 30
0.0
 10
24.89403237107269
 20
15.76704932615428
 30
0.0
 10
24.88541373030522
 20
15.76310745960424
 30
0.0
 10
24.86829577871984
 20
15.75962076239378
 30
0.0
 10
24.84791189095809
 20
15.75946061576482
 30
0.0
 10
24.82885087380944
 20
15.76296194027627
 30
0.0
 10
24.81909084232473
 20
15.76776558347368
 30
0.0
 10
24.81447174622981
 20
15.7700389869529
 30
0.0
  0
SPLINE
  5
14F
330
1F
100
AcDbEntity
  8
0
  6
Continuous
 62
     7
370
    25
100
AcDbSpline
210
0.0
220
0.0
230
1.0
 70
     8
 71
     3
 72
    10
 73
     6
 74
     0
 42
0.00000001
 43
0.00000001
 40
0.0
 40
0.0
 40
0.0
 40
0.0
 40
0.0264666421913879
 40
0.7821221877741649
 40
1.0
 40
1.0
 40
1.0
 40
1.0
 10
24.92052241790485
 20
15.77598784681961
 30
0.0
 10
24.92028923391468
 20
15.77597089170959
 30
0.0
 10
24.91339835704314
 20
15.77546984712492
 30
0.0
 10
24.90545949580508
 20
15.77246073248942
 30
0.0
 10
24.8988504506169
 20
15.76928678656366
 30
0.0
 10
24.8973713391977
 20
15.76857645405283
 30
0.0
  0
SPLINE
  5
150
330
1F
100
AcDbEntity
  8
0
  6
Continuous
 62
     7
370
    25
100
AcDbSpline
210
0.0
220
0.0
230
1.0
 70
     8
 71
     3
 72
     9
 73
     5
 74
     0
 42
0.00000001
 43
0.00000001
 40
0.0
 40
0.0
 40
0.0
 40
0.0
 40
0.7570597261196256
 40
1.0
 40
1.0
 40
1.0
 40
1.0
 10
25.08612280157133
 20
15.67434660484755
 30
0.0
 10
25.08968499356772
 20
15.67776199215954
 30
0.0
 10
25.09439029207125
 20
15.68227337639272
 30
0.0
 10
25.09476995315543
 20
15.68742545543711
 30
0.0
 10
25.09486218812321
 20
15.6886771029312
 30
0.0
  0
SPLINE
  5
151
330
1F
100
AcDbEntity
  8
0
  6
Continuous
 62
     7
370
    25
100
AcDbSpline
210
0.0
220
0.0
230
1.0
 70
     8
 71
     3
 72
    12
 73
     8
 74
     0
 42
0.00000001
 43
0.00000001
 40
0.0
 40
0.0
 40
0.0
 40
0.0
 40
0.2208865173273858
 40
0.4417806307244581
 40
0.6625033604127643
 40
0.8831356450140537
 40
1.0
 40
1.0
 40
1.0
 40
1.0
 10
25.10058935473218
 20
15.62720131690197
 30
0.0
 10
25.09553800500385
 20
15.62980957720533
 30
0.0
 10
25.08543513183623
 20
15.63502618750755
 30
0.0
 10
25.07703925089729
 20
15.64597056200196
 30
0.0
 10
25.0750801182051
 20
15.65768482726448
 30
0.0
 10
25.07906640939036
 20
15.66747427076627
 30
0.0
 10
25.08430785545886
 20
15.67257899957498
 30
0.0
 10
25.08612280157133
 20
15.67434660484755
 30
0.0
  0
ARC
  5
152
330
1F
100
AcDbEntity
  8
0
  6
Continuous
 62
     7
370
    25
100
AcDbCircle
 10
26.4417090901
 20
18.9579913588
 30
0.0
 40
3.590649585813749
100
AcDbArc
 50
248.0681576164
 51
270.2491850029
  0
SPLINE
  5
153
330
1F
100
AcDbEntity
  8
0
  6
Continuous
 62
     7
370
    25
100
AcDbSpline
210
0.0
220
0.0
230
1.0
 70
     8
 71
     3
 72
    12
 73
     8
 74
     0
 42
0.00000001
 43
0.00000001
 40
0.0
 40
0.0
 40
0.0
 40
0.0
 40
0.1396721217146671
 40
0.3605257065119169
 40
0.5812079333477481
 40
0.8017997377680535
 40
1.0
 40
1.0
 40
1.0
 40
1.0
 10
26.51773541861352
 20
15.40018151408554
 30
0.0
 10
26.51724495634929
 20
15.39773869126154
 30
0.0
 10
26.51597896101566
 20
15.39143320657575
 30
0.0
 10
26.50814551864384
 20
15.38198012206825
 30
0.0
 10
26.4939280933974
 20
15.37354609564134
 30
0.0
 10
26.47616122498788
 20
15.36824112143664
 30
0.0
 10
26.46337596564032
 20
15.36765372567806
 30
0.0
 10
26.45732513049522
 20
15.36737573093399
 30
0.0
  0
SPLINE
  5
154
330
1F
100
AcDbEntity
  8
0
  6
Continuous
 62
     7
370
    25
100
AcDbSpline
210
0.0
220
0.0
230
1.0
 70
     8
 71
     3
 72
    10
 73
     6
 74
     0
 42
0.00000001
 43
0.00000001
 40
0.0
 40
0.0
 40
0.0
 40
0.0
 40
0.0264666421914506
 40
0.7821221877741581
 40
1.0
 40
1.0
 40
1.0
 40
1.0
 10
26.52502765445264
 20
15.41487252439594
 30
0.0
 10
26.52488353640622
 20
15.41476534867211
 30
0.0
 10
26.52062466892509
 20
15.41159817276087
 30
0.0
 10
26.51869684338983
 20
15.40622973204004
 30
0.0
 10
26.51791123795461
 20
15.4012875743013
 30
0.0
 10
26.51773541861352
 20
15.40018151408554
 30
0.0
  0
SPLINE
  5
155
330
1F
100
AcDbEntity
  8
0
  6
Continuous
 62
     7
370
    25
100
AcDbSpline
210
0.0
220
0.0
230
1.0
 70
     8
 71
     3
 72
     9
 73
     5
 74
     0
 42
0.00000001
 43
0.00000001
 40
0.0
 40
0.0
 40
0.0
 40
0.0
 40
0.7518161668939228
 40
1.0
 40
1.0
 40
1.0
 40
1.0
 10
26.76662288816365
 20
15.41060006122241
 30
0.0
 10
26.76495322112376
 20
15.41446746896493
 30
0.0
 10
26.76273237630371
 20
15.41961155592771
 30
0.0
 10
26.75664126491312
 20
15.42343378431914
 30
0.0
 10
26.75512954954033
 20
15.42438239961233
 30
0.0
  0
SPLINE
  5
156
330
1F
100
AcDbEntity
  8
0
  6
Continuous
 62
     7
370
    25
100
AcDbSpline
210
0.0
220
0.0
230
1.0
 70
     8
 71
     3
 72
    12
 73
     8
 74
     0
 42
0.00000001
 43
0.00000001
 40
0.0
 40
0.0
 40
0.0
 40
0.0
 40
0.2208865173273546
 40
0.4417806307243753
 40
0.6625033604127466
 40
0.8831356450140667
 40
1.0
 40
1.0
 40
1.0
 40
1.0
 10
26.83459949265581
 20
15.38316861409042
 30
0.0
 10
26.82783284941578
 20
15.38295095119109
 30
0.0
 10
26.81429933023752
 20
15.38251561790721
 30
0.0
 10
26.79495702684304
 20
15.38682722667584
 30
0.0
 10
26.77922316983445
 20
15.39431073716857
 30
0.0
 10
26.770051033405
 20
15.40286013928258
 30
0.0
 10
26.76750462754536
 20
15.40860930718335
 30
0.0
 10
26.76662288816365
 20
15.41060006122241
 30
0.0
  0
ARC
  5
157
330
1F
100
AcDbEntity
  8
0
  6
Continuous
 62
     7
370
    25
100
AcDbCircle
 10
26.6077860797
 20
18.5563932622
 30
0.0
 40
3.181320322093826
100
AcDbArc
 50
274.0883924341
 51
298.2222704248
  0
SPLINE
  5
158
330
1F
100
AcDbEntity
  8
0
  6
Continuous
 62
     7
370
    25
100
AcDbSpline
210
0.0
220
0.0
230
1.0
 70
     8
 71
     3
 72
    12
 73
     8
 74
     0
 42
0.00000001
 43
0.00000001
 40
0.0
 40
0.0
 40
0.0
 40
0.0
 40
0.1396721217146308
 40
0.3605257065119182
 40
0.5812079333477421
 40
0.8017997377680748
 40
0.9999999999999999
 40
0.9999999999999999
 40
0.9999999999999999
 40
0.9999999999999999
 10
28.11474455318466
 20
15.80112614315046
 30
0.0
 10
28.11738990292377
 20
15.79919859788084
 30
0.0
 10
28.12421815592052
 20
15.7942231624709
 30
0.0
 10
28.1302579470636
 20
15.78434117936459
 30
0.0
 10
28.13053535921981
 20
15.7725738114352
 30
0.0
 10
28.12447023010282
 20
15.76157012045543
 30
0.0
 10
28.11614917441975
 20
15.75593577420974
 30
0.0
 10
28.11221109738879
 20
15.7532692267932
 30
0.0
  0
SPLINE
  5
159
330
1F
100
AcDbEntity
  8
0
  6
Continuous
 62
     7
370
    25
100
AcDbSpline
210
0.0
220
0.0
230
1.0
 70
     8
 71
     3
 72
    10
 73
     6
 74
     0
 42
0.00000001
 43
0.00000001
 40
0.0
 40
0.0
 40
0.0
 40
0.0
 40
0.0264666421934952
 40
0.7821221877744734
 40
1.0
 40
1.0
 40
1.0
 40
1.0
 10
28.10190625330122
 20
15.81449097640965
 30
0.0
 10
28.10193562359556
 20
15.81435636215746
 30
0.0
 10
28.10280355231494
 20
15.81037834361402
 30
0.0
 10
28.10801605653513
 20
15.80579533657332
 30
0.0
 10
28.11351408786216
 20
15.80198001599756
 30
0.0
 10
28.11474455318466
 20
15.80112614315046
 30
0.0
  0
SPLINE
  5
15A
330
1F
100
AcDbEntity
  8
0
  6
Continuous
 62
     7
370
    25
100
AcDbSpline
210
0.0
220
0.0
230
1.0
 70
     8
 71
     3
 72
     9
 73
     5
 74
     0
 42
0.00000001
 43
0.00000001
 40
0.0
 40
0.0
 40
0.0
 40
0.0
 40
0.7570597261189059
 40
1.0
 40
1.0
 40
1.0
 40
1.0
 10
28.27797312575355
 20
15.91009004301693
 30
0.0
 10
28.27205686036198
 20
15.91214645268454
 30
0.0
 10
28.2642420669085
 20
15.91486276369232
 30
0.0
 10
28.25531743723679
 20
15.91508193737098
 30
0.0
 10
28.25314928526005
 20
15.9151351834845
 30
0.0
  0
SPLINE
  5
15B
330
1F
100
AcDbEntity
  8
0
  6
Continuous
 62
     7
370
    25
100
AcDbSpline
210
0.0
220
0.0
230
1.0
 70
     8
 71
     3
 72
    12
 73
     8
 74
     0
 42
0.00000001
 43
0.00000001
 40
0.0
 40
0.0
 40
0.0
 40
0.0
 40
0.2208865173273678
 40
0.4417806307244388
 40
0.6625033604127748
 40
0.8831356450140564
 40
1.0
 40
1.0
 40
1.0
 40
1.0
 10
28.3596400085896
 20
15.91844140639292
 30
0.0
 10
28.35512187967614
 20
15.91552532426531
 30
0.0
 10
28.34608546647521
 20
15.90969305972888
 30
0.0
 10
28.32712719962614
 20
15.9048462208307
 30
0.0
 10
28.30683529834834
 20
15.90371523760115
 30
0.0
 10
28.28987764742863
 20
15.90601647451919
 30
0.0
 10
28.28103503965811
 20
15.9090422969281
 30
0.0
 10
28.27797312575355
 20
15.91009004301693
 30
0.0
  0
LWPOLYLINE
  5
15C
330
1F
100
AcDbEntity
  8
0
  6
Continuous
 62
     7
370
    25
100
AcDbPolyline
 90
       20
 70
   128
 43
0.0
 10
28.3596400086
 20
15.9184414064
 10
28.4037812616
 20
15.9544829955
 10
28.4458519887
 20
15.9913406219
 10
28.4858069602
 20
16.0289746606
 10
28.5236032212
 20
16.0673446517
 10
28.5592001372
 20
16.1064093441
 10
28.5925594385
 20
16.1461267399
 10
28.6236452611
 20
16.1864541394
 10
28.6524241848
 20
16.2273481873
 10
28.67886527
 20
16.2687649187
 10
28.7029400902
 20
16.3106598073
 10
28.7246227627
 20
16.3529878122
 10
28.7438899769
 20
16.3957034274
 10
28.7607210189
 20
16.4387607297
 10
28.7750977937
 20
16.4821134288
 10
28.7870048452
 20
16.5257149168
 10
28.7964293722
 20
16.5695183184
 10
28.8033612426
 20
16.613476541
 10
28.8077930039
 20
16.6575423258
 10
28.8097198917
 20
16.7016682983
  0
SPLINE
  5
15D
330
1F
100
AcDbEntity
  8
0
  6
Continuous
 62
     7
370
    25
100
AcDbSpline
210
0.0
220
0.0
230
1.0
 70
     8
 71
     3
 72
    12
 73
     8
 74
     0
 42
0.00000001
 43
0.00000001
 40
0.0
 40
0.0
 40
0.0
 40
0.0
 40
0.1396721217146654
 40
0.3605257065119302
 40
0.5812079333477262
 40
0.8017997377680807
 40
1.0
 40
1.0
 40
1.0
 40
1.0
 10
28.75289245111308
 20
16.736542415302
 30
0.0
 10
28.75712400285557
 20
16.73625927746361
 30
0.0
 10
28.76804660618452
 20
16.73552843391395
 30
0.0
 10
28.78442160310478
 20
16.73100628388937
 30
0.0
 10
28.7990313483849
 20
16.7227987389971
 30
0.0
 10
28.80822082893963
 20
16.71254214418204
 30
0.0
 10
28.80923833848693
 20
16.70516137106487
 30
0.0
 10
28.80971989168518
 20
16.70166829828775
 30
0.0
  0
SPLINE
  5
15E
330
1F
100
AcDbEntity
  8
0
  6
Continuous
 62
     7
370
    25
100
AcDbSpline
210
0.0
220
0.0
230
1.0
 70
     8
 71
     3
 72
    10
 73
     6
 74
     0
 42
0.00000001
 43
0.00000001
 40
0.0
 40
0.0
 40
0.0
 40
0.0
 40
0.0066230024137998
 40
0.7776811598560247
 40
0.9999999999999999
 40
0.9999999999999999
 40
0.9999999999999999
 40
0.9999999999999999
 10
28.72786603389494
 20
16.74056512366907
 30
0.0
 10
28.72791168874142
 20
16.74054483124933
 30
0.0
 10
28.73327253745353
 20
16.73816207014882
 30
0.0
 10
28.74241867886087
 20
16.73710026353063
 30
0.0
 10
28.75097707324735
 20
16.7366444310919
 30
0.0
 10
28.75289245111308
 20
16.736542415302
 30
0.0
  0
LINE
  5
15F
330
1F
100
AcDbEntity
  8
0
  6
Continuous
 62
     7
370
    25
100
AcDbLine
 10
28.7348450427
 20
16.8802220932
 30
0.0
 11
28.7278660339
 21
16.8786801373
 31
0.0
  0
SPLINE
  5
160
330
1F
100
AcDbEntity
  8
0
  6
Continuous
 62
     7
370
    25
100
AcDbSpline
210
0.0
220
0.0
230
1.0
 70
     8
 71
     3
 72
    12
 73
     8
 74
     0
 42
0.00000001
 43
0.00000001
 40
0.0
 40
0.0
 40
0.0
 40
0.0
 40
0.2208865173273762
 40
0.4417806307244413
 40
0.6625033604127705
 40
0.8831356450140407
 40
1.0
 40
1.0
 40
1.0
 40
1.0
 10
28.78236285146797
 20
16.91946415164798
 30
0.0
 10
28.78273989552204
 20
16.91555785165344
 30
0.0
 10
28.78349399659636
 20
16.90774511733055
 30
0.0
 10
28.77602526189378
 20
16.89657904325749
 30
0.0
 10
28.76306203690898
 20
16.88749608094272
 30
0.0
 10
28.74825243342178
 20
16.88220111928842
 30
0.0
 10
28.73829350344561
 20
16.88073111047567
 30
0.0
 10
28.73484504265667
 20
16.88022209316535
 30
0.0
  0
LWPOLYLINE
  5
161
330
1F
100
AcDbEntity
  8
0
  6
Continuous
 62
     7
370
    25
100
AcDbPolyline
 90
       45
 70
   128
 43
0.0
 10
24.9736414942
 20
22.2650807658
 10
24.9634799272
 20
22.2572283864
 10
24.9553575844
 20
22.248621093
 10
24.9494398131
 20
22.2394341053
 10
24.9458470822
 20
22.229854444
 10
24.9446525293
 20
22.2200771231
 10
24.9458804721
 20
22.2103011809
 10
24.9495059132
 20
22.2007256273
 10
24.955455049
 20
22.1915453929
 10
24.9636067723
 20
22.182947361
 10
24.9737951376
 20
22.1751065625
 10
24.985812739
 20
22.1681826135
 10
24.9994149329
 20
22.1623164658
 10
25.0143248179
 20
22.1576275371
 10
25.0302388716
 20
22.1542112804
 10
25.0468331299
 20
22.1521372411
 10
25.0637697815
 20
22.1514476404
 10
25.080704045
 20
22.1521565166
 10
25.0972911876
 20
22.1542494392
 10
25.1131935429
 20
22.1576838022
 10
25.128087385
 20
22.1623896919
 10
25.1416695179
 20
22.16827131
 10
25.1536634489
 20
22.1752089236
 10
25.1638250158
 20
22.183061303
 10
25.1719473587
 20
22.1916685964
 10
25.1778651299
 20
22.2008555841
 10
25.1814578608
 20
22.2104352455
 10
25.1826524137
 20
22.2202125663
 10
25.1814244709
 20
22.2299885085
 10
25.1777990299
 20
22.2395640621
 10
25.1718498941
 20
22.2487442965
 10
25.1636981707
 20
22.2573423285
 10
25.1535098055
 20
22.2651831269
 10
25.141492204
 20
22.2721070759
 10
25.1278900101
 20
22.2779732236
 10
25.1129801252
 20
22.2826621524
 10
25.0970660714
 20
22.286078409
 10
25.0804718131
 20
22.2881524484
 10
25.0635351616
 20
22.2888420491
 10
25.0466008981
 20
22.2881331728
 10
25.0300137555
 20
22.2860402502
 10
25.0141114001
 20
22.2826058872
 10
24.9992175581
 20
22.2778999975
 10
24.9856354251
 20
22.2720183795
 10
24.9736414942
 20
22.2650807658
  0
ARC
  5
162
330
1F
100
AcDbEntity
  8
0
  6
Continuous
 62
     7
370
    25
100
AcDbCircle
 10
24.9850461161
 20
22.2078056912
 30
0.0
 40
0.0554784857173044
100
AcDbArc
 50
115.0692077448
 51
209.591801318
  0
ARC
  5
163
330
1F
100
AcDbEntity
  8
0
  6
Continuous
 62
     7
370
    25
100
AcDbCircle
 10
25.1385380523
 20
22.207375525
 30
0.0
 40
0.0585433027743671
100
AcDbArc
 50
332.5730303768
 51
69.4090189718
  0
LINE
  5
164
330
1F
100
AcDbEntity
  8
0
  6
Continuous
 62
     7
370
    25
100
AcDbLine
 10
24.968177545
 20
22.2621787835
 30
0.0
 11
24.9615391779
 21
22.2580579173
 31
0.0
  0
LINE
  5
165
330
1F
100
AcDbEntity
  8
0
  6
Continuous
 62
     7
370
    25
100
AcDbLine
 10
25.0107809533
 20
22.1848502469
 30
0.0
 11
25.0901643461
 21
22.176064651
 31
0.0
  0
LINE
  5
166
330
1F
100
AcDbEntity
  8
0
  6
Continuous
 62
     7
370
    25
100
AcDbLine
 10
25.0901643461
 20
22.176064651
 30
0.0
 11
25.1430358644
 21
22.2113592489
 31
0.0
  0
LINE
  5
167
330
1F
100
AcDbEntity
  8
0
  6
Continuous
 62
     7
370
    25
100
AcDbLine
 10
25.1165239898
 20
22.2554394425
 30
0.0
 11
25.1430358644
 21
22.2113592489
 31
0.0
  0
LINE
  5
168
330
1F
100
AcDbEntity
  8
0
  6
Continuous
 62
     7
370
    25
100
AcDbLine
 10
25.0371405969
 20
22.2642250384
 30
0.0
 11
25.1165239898
 21
22.2554394425
 31
0.0
  0
LINE
  5
169
330
1F
100
AcDbEntity
  8
0
  6
Continuous
 62
     7
370
    25
100
AcDbLine
 10
25.0371405969
 20
22.2642250384
 30
0.0
 11
24.9842690787
 21
22.2289304406
 31
0.0
  0
LINE
  5
16A
330
1F
100
AcDbEntity
  8
0
  6
Continuous
 62
     7
370
    25
100
AcDbLine
 10
25.0107809533
 20
22.1848502469
 30
0.0
 11
24.9842690787
 21
22.2289304406
 31
0.0
  0
ARC
  5
16B
330
1F
100
AcDbEntity
  8
0
  6
Continuous
 62
     7
370
    25
100
AcDbCircle
 10
25.0629430553
 20
22.0938788416
 30
0.0
 40
0.1040112834944996
100
AcDbArc
 50
82.3260346523
 51
119.1805861993
  0
ARC
  5
16C
330
1F
100
AcDbEntity
  8
0
  6
Continuous
 62
     7
370
    25
100
AcDbCircle
 10
25.0670998983
 20
22.0991388704
 30
0.0
 40
0.0983026887347675
100
AcDbArc
 50
65.0963169286
 51
84.3181598284
  0
LINE
  5
16D
330
1F
100
AcDbEntity
  8
0
  6
Continuous
 62
     7
370
    25
100
AcDbLine
 10
25.1165239898
 20
22.1936611388
 30
0.0
 11
25.1165239898
 21
22.2554394425
 31
0.0
  0
LINE
  5
16E
330
1F
100
AcDbEntity
  8
0
  6
Continuous
 62
     7
370
    25
100
AcDbLine
 10
25.0371405969
 20
22.2013513959
 30
0.0
 11
25.0371405969
 21
22.2642250384
 31
0.0
  0
LINE
  5
16F
330
1F
100
AcDbEntity
  8
0
  6
Continuous
 62
     7
370
    25
100
AcDbLine
 10
25.0371405969
 20
22.2013513959
 30
0.0
 11
25.0121884329
 21
22.1846944769
 31
0.0
  0
LINE
  5
170
330
1F
100
AcDbEntity
  8
0
  6
Continuous
 62
     7
370
    25
100
AcDbLine
 10
25.0768322934
 20
22.1969585979
 30
0.0
 11
25.1151165101
 21
22.19272157
 31
0.0
  0
LINE
  5
171
330
1F
100
AcDbEntity
  8
0
  6
Continuous
 62
     7
370
    25
100
AcDbLine
 10
25.0371405969
 20
22.2013513959
 30
0.0
 11
25.0768322934
 21
22.1969585979
 31
0.0
  0
LWPOLYLINE
  5
172
330
1F
100
AcDbEntity
  8
0
  6
Continuous
 62
     7
370
    25
100
AcDbPolyline
 90
       45
 70
   128
 43
0.0
 10
27.8020686189
 20
20.6322645422
 10
27.791907052
 20
20.6244121628
 10
27.7837847091
 20
20.6158048694
 10
27.7778669379
 20
20.6066178817
 10
27.774274207
 20
20.5970382203
 10
27.7730796541
 20
20.5872608995
 10
27.7743075969
 20
20.5774849573
 10
27.7779330379
 20
20.5679094036
 10
27.7838821737
 20
20.5587291693
 10
27.7920338971
 20
20.5501311373
 10
27.8022222623
 20
20.5422903388
 10
27.8142398637
 20
20.5353663899
 10
27.8278420577
 20
20.5295002421
 10
27.8427519426
 20
20.5248113134
 10
27.8586659964
 20
20.5213950568
 10
27.8752602546
 20
20.5193210174
 10
27.8921969062
 20
20.5186314167
 10
27.9091311697
 20
20.519340293
 10
27.9257183123
 20
20.5214332156
 10
27.9416206677
 20
20.5248675786
 10
27.9565145097
 20
20.5295734683
 10
27.9700966427
 20
20.5354550863
 10
27.9820905736
 20
20.5423927
 10
27.9922521406
 20
20.5502450794
 10
28.0003744834
 20
20.5588523728
 10
28.0062922547
 20
20.5680393604
 10
28.0098849856
 20
20.5776190218
 10
28.0110795384
 20
20.5873963427
 10
28.0098515957
 20
20.5971722849
 10
28.0062261546
 20
20.6067478385
 10
28.0002770188
 20
20.6159280728
 10
27.9921252955
 20
20.6245261048
 10
27.9819369302
 20
20.6323669033
 10
27.9699193288
 20
20.6392908522
 10
27.9563171349
 20
20.645157
 10
27.9414072499
 20
20.6498459287
 10
27.9254931962
 20
20.6532621853
 10
27.9088989379
 20
20.6553362247
 10
27.8919622863
 20
20.6560258254
 10
27.8750280228
 20
20.6553169491
 10
27.8584408802
 20
20.6532240266
 10
27.8425385249
 20
20.6497896636
 10
27.8276446828
 20
20.6450837739
 10
27.8140625498
 20
20.6392021558
 10
27.8020686189
 20
20.6322645422
  0
ARC
  5
173
330
1F
100
AcDbEntity
  8
0
  6
Continuous
 62
     7
370
    25
100
AcDbCircle
 10
27.8134732408
 20
20.5749894675
 30
0.0
 40
0.055478485717538
100
AcDbArc
 50
115.0692077449
 51
209.5918013137
  0
ARC
  5
174
330
1F
100
AcDbEntity
  8
0
  6
Continuous
 62
     7
370
    25
100
AcDbCircle
 10
27.966965177
 20
20.5745593013
 30
0.0
 40
0.0585433027750068
100
AcDbArc
 50
332.5730303835
 51
69.4090189716
  0
LINE
  5
175
330
1F
100
AcDbEntity
  8
0
  6
Continuous
 62
     7
370
    25
100
AcDbLine
 10
27.7966046697
 20
20.6293625598
 30
0.0
 11
27.7899663027
 21
20.6252416937
 31
0.0
  0
LINE
  5
176
330
1F
100
AcDbEntity
  8
0
  6
Continuous
 62
     7
370
    25
100
AcDbLine
 10
27.839208078
 20
20.5520340232
 30
0.0
 11
27.9185914709
 21
20.5432484274
 31
0.0
  0
LINE
  5
177
330
1F
100
AcDbEntity
  8
0
  6
Continuous
 62
     7
370
    25
100
AcDbLine
 10
27.9185914709
 20
20.5432484274
 30
0.0
 11
27.9714629891
 21
20.5785430252
 31
0.0
  0
LINE
  5
178
330
1F
100
AcDbEntity
  8
0
  6
Continuous
 62
     7
370
    25
100
AcDbLine
 10
27.9449511145
 20
20.6226232189
 30
0.0
 11
27.9714629891
 21
20.5785430252
 31
0.0
  0
LINE
  5
179
330
1F
100
AcDbEntity
  8
0
  6
Continuous
 62
     7
370
    25
100
AcDbLine
 10
27.8655677217
 20
20.6314088147
 30
0.0
 11
27.9449511145
 21
20.6226232189
 31
0.0
  0
LINE
  5
17A
330
1F
100
AcDbEntity
  8
0
  6
Continuous
 62
     7
370
    25
100
AcDbLine
 10
27.8655677217
 20
20.6314088147
 30
0.0
 11
27.8126962034
 21
20.5961142169
 31
0.0
  0
LINE
  5
17B
330
1F
100
AcDbEntity
  8
0
  6
Continuous
 62
     7
370
    25
100
AcDbLine
 10
27.839208078
 20
20.5520340232
 30
0.0
 11
27.8126962034
 21
20.5961142169
 31
0.0
  0
ARC
  5
17C
330
1F
100
AcDbEntity
  8
0
  6
Continuous
 62
     7
370
    25
100
AcDbCircle
 10
27.89137018
 20
20.461062618
 30
0.0
 40
0.1040112834945139
100
AcDbArc
 50
82.3260346523
 51
119.1805861993
  0
ARC
  5
17D
330
1F
100
AcDbEntity
  8
0
  6
Continuous
 62
     7
370
    25
100
AcDbCircle
 10
27.895527023
 20
20.4663226467
 30
0.0
 40
0.0983026887346493
100
AcDbArc
 50
65.0963169286
 51
84.3181598284
  0
LINE
  5
17E
330
1F
100
AcDbEntity
  8
0
  6
Continuous
 62
     7
370
    25
100
AcDbLine
 10
27.9449511145
 20
20.5608449151
 30
0.0
 11
27.9449511145
 21
20.6226232189
 31
0.0
  0
LINE
  5
17F
330
1F
100
AcDbEntity
  8
0
  6
Continuous
 62
     7
370
    25
100
AcDbLine
 10
27.8655677217
 20
20.5685351722
 30
0.0
 11
27.8655677217
 21
20.6314088147
 31
0.0
  0
LINE
  5
180
330
1F
100
AcDbEntity
  8
0
  6
Continuous
 62
     7
370
    25
100
AcDbLine
 10
27.8655677217
 20
20.5685351722
 30
0.0
 11
27.8406155577
 21
20.5518782533
 31
0.0
  0
LINE
  5
181
330
1F
100
AcDbEntity
  8
0
  6
Continuous
 62
     7
370
    25
100
AcDbLine
 10
27.9052594181
 20
20.5641423743
 30
0.0
 11
27.9435436349
 21
20.5599053463
 31
0.0
  0
LINE
  5
182
330
1F
100
AcDbEntity
  8
0
  6
Continuous
 62
     7
370
    25
100
AcDbLine
 10
27.8655677217
 20
20.5685351722
 30
0.0
 11
27.9052594181
 21
20.5641423743
 31
0.0
  0
LWPOLYLINE
  5
183
330
1F
100
AcDbEntity
  8
0
  6
Continuous
 62
     7
370
    25
100
AcDbPolyline
 90
       99
 70
   128
 43
0.0
 10
28.7278660339
 20
12.3246194455
 10
28.7274097991
 20
12.2984634804
 10
28.7247824871
 20
12.2566404105
 10
28.7198225773
 20
12.214887912
 10
28.7125352187
 20
12.1732493294
 10
28.7029279766
 20
12.131767889
 10
28.6910108245
 20
12.0904866542
 10
28.6767961342
 20
12.0494484803
 10
28.6602986622
 20
12.0086959705
 10
28.6415355352
 20
11.9682714312
 10
28.6205262318
 20
11.9282168285
 10
28.5972925624
 20
11.8885737443
 10
28.5718586467
 20
11.8493833336
 10
28.5442508884
 20
11.810686281
 10
28.5144979481
 20
11.7725227594
 10
28.4826307133
 20
11.7349323875
 10
28.4486822664
 20
11.6979541891
 10
28.4126878504
 20
11.6616265525
 10
28.3746848323
 20
11.6259871906
 10
28.3347126643
 20
11.5910731018
 10
28.2928128427
 20
11.5569205316
 10
28.2490288653
 20
11.5235649348
 10
28.2034061855
 20
11.4910409391
 10
28.1559921657
 20
11.4593823086
 10
28.1068360281
 20
11.4286219092
 10
28.0559888032
 20
11.3987916743
 10
28.0035032771
 20
11.3699225716
 10
27.9494339369
 20
11.3420445711
 10
27.8938369138
 20
11.3151866139
 10
27.8367699247
 20
11.2893765821
 10
27.7782922128
 20
11.2646412699
 10
27.7184644858
 20
11.2410063559
 10
27.6573488527
 20
11.2184963763
 10
27.5950087598
 20
11.1971346994
 10
27.5315089243
 20
11.1769435014
 10
27.4669152675
 20
11.1579437436
 10
27.4012948462
 20
11.1401551501
 10
27.334715783
 20
11.123596188
 10
27.267247196
 20
11.1082840475
 10
27.1989591265
 20
11.0942346248
 10
27.1299224666
 20
11.081462505
 10
27.0602088854
 20
11.0699809473
 10
26.9898907549
 20
11.0598018711
 10
26.9190410748
 20
11.0509358435
 10
26.8477333964
 20
11.0433920688
 10
26.7760417465
 20
11.0371783783
 10
26.7040405506
 20
11.0323012227
 10
26.6318045555
 20
11.0287656651
 10
26.5594087518
 20
11.0265753758
 10
26.4869282959
 20
11.0257326288
 10
26.4144384322
 20
11.0262382989
 10
26.3420144147
 20
11.0280918611
 10
26.2697314293
 20
11.0312913912
 10
26.1976645152
 20
11.0358335677
 10
26.1258884876
 20
11.0417136751
 10
26.0544778594
 20
11.0489256092
 10
25.9835067643
 20
11.057461883
 10
25.9130488799
 20
11.0673136347
 10
25.8431773508
 20
11.0784706368
 10
25.7739647128
 20
11.090921307
 10
25.7054828179
 20
11.1046527198
 10
25.6378027594
 20
11.1196506201
 10
25.5709947982
 20
11.1358994382
 10
25.5051282898
 20
11.1533823055
 10
25.4402716125
 20
11.1720810727
 10
25.376492096
 20
11.1919763278
 10
25.313855952
 20
11.2130474169
 10
25.2524282051
 20
11.2352724655
 10
25.1922726255
 20
11.2586284009
 10
25.1334516627
 20
11.2830909768
 10
25.0760263806
 20
11.3086347975
 10
25.0200563943
 20
11.3352333453
 10
24.9655998081
 20
11.3628590073
 10
24.9127131552
 20
11.3914831045
 10
24.8614513389
 20
11.4210759211
 10
24.8118675758
 20
11.451606736
 10
24.7640133405
 20
11.483043854
 10
24.717938312
 20
11.5153546394
 10
24.6736903223
 20
11.5485055491
 10
24.6313153066
 20
11.5824621681
 10
24.590857256
 20
11.617189245
 10
24.5523581712
 20
11.6526507285
 10
24.5158580194
 20
11.6888098048
 10
24.4813946926
 20
11.7256289359
 10
24.4490039683
 20
11.7630698988
 10
24.4187194724
 20
11.8010938247
 10
24.3905726442
 20
11.8396612398
 10
24.3645927038
 20
11.8787321059
 10
24.340806622
 20
11.9182658623
 10
24.3192390917
 20
11.9582214678
 10
24.299912503
 20
11.998557443
 10
24.2828469195
 20
12.0392319139
 10
24.2680600574
 20
12.0802026549
 10
24.2555672676
 20
12.1214271331
 10
24.2453815191
 20
12.1628625519
 10
24.2375133861
 20
12.2044658958
 10
24.2319710369
 20
12.2461939751
 10
24.2287602251
 20
12.2880034704
 10
24.2278660339
 20
12.3246194455
  0
ARC
  5
184
330
1F
100
AcDbEntity
  8
0
  6
Continuous
 62
     7
370
    25
100
AcDbCircle
 10
25.5734224742
 20
21.2945815918
 30
0.0
 40
0.4605565144105872
100
AcDbArc
 50
180.0325106169
 51
191.4507157385
  0
ARC
  5
185
330
1F
100
AcDbEntity
  8
0
  6
Continuous
 62
     7
370
    25
100
AcDbCircle
 10
27.3823095936
 20
21.2945815918
 30
0.0
 40
0.4605565144104137
100
AcDbArc
 50
348.5492842615
 51
359.9674893831
  0
LWPOLYLINE
  5
186
330
1F
100
AcDbEntity
  8
0
  6
Continuous
 62
     7
370
    25
100
AcDbPolyline
 90
      153
 70
   128
 43
0.0
 10
27.4430667902
 20
21.9535864019
 10
27.4023553792
 20
21.9761366349
 10
27.3600644936
 20
21.9976963768
 10
27.3162663867
 20
22.0182287933
 10
27.2710358869
 20
22.0376988049
 10
27.2244502697
 20
22.0560731476
 10
27.1765891259
 20
22.073320429
 10
27.1275342254
 20
22.0894111825
 10
27.0773693777
 20
22.1043179173
 10
27.0261802885
 20
22.1180151654
 10
26.9740544137
 20
22.1304795255
 10
26.9210808094
 20
22.1416897022
 10
26.86734998
 20
22.1516265432
 10
26.8129537238
 20
22.1602730717
 10
26.757984976
 20
22.1676145151
 10
26.7025376496
 20
22.1736383307
 10
26.6467064756
 20
22.1783342269
 10
26.5905868405
 20
22.1816941808
 10
26.5342746237
 20
22.1837124521
 10
26.4778660339
 20
22.1843855926
 10
26.421457444
 20
22.1837124521
 10
26.3651452273
 20
22.1816941808
 10
26.3090255922
 20
22.1783342269
 10
26.2531944182
 20
22.1736383307
 10
26.1977470918
 20
22.1676145151
 10
26.1427783439
 20
22.1602730717
 10
26.0883820878
 20
22.1516265432
 10
26.0346512584
 20
22.1416897022
 10
25.9816776541
 20
22.1304795255
 10
25.9295517792
 20
22.1180151654
 10
25.8783626901
 20
22.1043179173
 10
25.8281978424
 20
22.0894111825
 10
25.7791429419
 20
22.073320429
 10
25.7312817981
 20
22.0560731476
 10
25.6846961809
 20
22.0376988049
 10
25.6394656811
 20
22.0182287933
 10
25.5956675742
 20
21.9976963768
 10
25.5533766886
 20
21.9761366349
 10
25.5126652776
 20
21.9535864019
 10
25.4736028958
 20
21.9300842046
 10
25.4362562808
 20
21.905670196
 10
25.4006892386
 20
21.8803860871
 10
25.3669625348
 20
21.8542750753
 10
25.3351337911
 20
21.827381771
 10
25.3052573862
 20
21.7997521207
 10
25.2773843635
 20
21.7714333295
 10
25.2515623436
 20
21.7424737793
 10
25.227835443
 20
21.7129229472
 10
25.2062441987
 20
21.6828313201
 10
25.186825499
 20
21.6522503093
 10
25.1696125203
 20
21.6212321617
 10
25.1546346709
 20
21.5898298715
 10
25.14191754
 20
21.5580970888
 10
25.1314828548
 20
21.5260880286
 10
25.1233484426
 20
21.4938573779
 10
25.1175282009
 20
21.4614602021
 10
25.1140320737
 20
21.4289518514
 10
25.1128660339
 20
21.3963878656
 10
25.1140320737
 20
21.3638238798
 10
25.1175282009
 20
21.3313155291
 10
25.1233484426
 20
21.2989183533
 10
25.1314828548
 20
21.2666877026
 10
25.14191754
 20
21.2346786424
 10
25.1546346709
 20
21.2029458597
 10
25.1696125203
 20
21.1715435694
 10
25.186825499
 20
21.1405254219
 10
25.2062441987
 20
21.109944411
 10
25.227835443
 20
21.079852784
 10
25.2515623436
 20
21.0503019519
 10
25.2773843635
 20
21.0213424017
 10
25.3052573862
 20
20.9930236104
 10
25.3351337911
 20
20.9653939602
 10
25.3669625348
 20
20.9385006558
 10
25.4006892386
 20
20.9123896441
 10
25.4362562808
 20
20.8871055352
 10
25.4736028958
 20
20.8626915266
 10
25.5126652776
 20
20.8391893293
 10
25.5533766886
 20
20.8166390963
 10
25.5956675742
 20
20.7950793543
 10
25.6394656811
 20
20.7745469379
 10
25.6846961809
 20
20.7550769263
 10
25.7312817981
 20
20.7367025836
 10
25.7791429419
 20
20.7194553022
 10
25.8281978424
 20
20.7033645487
 10
25.8783626901
 20
20.6884578139
 10
25.9295517792
 20
20.6747605657
 10
25.9816776541
 20
20.6622962057
 10
26.0346512584
 20
20.651086029
 10
26.0883820878
 20
20.6411491879
 10
26.1427783439
 20
20.6325026595
 10
26.1977470918
 20
20.6251612161
 10
26.2531944182
 20
20.6191374005
 10
26.3090255922
 20
20.6144415043
 10
26.3651452273
 20
20.6110815503
 10
26.421457444
 20
20.609063279
 10
26.4778660339
 20
20.6083901386
 10
26.5342746237
 20
20.609063279
 10
26.5905868405
 20
20.6110815503
 10
26.6467064756
 20
20.6144415043
 10
26.7025376496
 20
20.6191374005
 10
26.757984976
 20
20.6251612161
 10
26.8129537238
 20
20.6325026595
 10
26.86734998
 20
20.6411491879
 10
26.9210808094
 20
20.651086029
 10
26.9740544137
 20
20.6622962057
 10
27.0261802885
 20
20.6747605657
 10
27.0773693777
 20
20.6884578139
 10
27.1275342254
 20
20.7033645487
 10
27.1765891259
 20
20.7194553022
 10
27.2244502697
 20
20.7367025836
 10
27.2710358869
 20
20.7550769263
 10
27.3162663867
 20
20.7745469379
 10
27.3600644936
 20
20.7950793543
 10
27.4023553792
 20
20.8166390963
 10
27.4430667902
 20
20.8391893293
 10
27.482129172
 20
20.8626915266
 10
27.519475787
 20
20.8871055352
 10
27.5550428292
 20
20.9123896441
 10
27.588769533
 20
20.9385006558
 10
27.6205982767
 20
20.9653939602
 10
27.6504746816
 20
20.9930236104
 10
27.6783477043
 20
21.0213424017
 10
27.7041697242
 20
21.0503019519
 10
27.7278966248
 20
21.079852784
 10
27.7494878691
 20
21.109944411
 10
27.7689065688
 20
21.1405254219
 10
27.7861195475
 20
21.1715435694
 10
27.8010973969
 20
21.2029458597
 10
27.8138145278
 20
21.2346786424
 10
27.824249213
 20
21.2666877026
 10
27.8323836252
 20
21.2989183533
 10
27.8382038668
 20
21.3313155291
 10
27.8416999941
 20
21.3638238798
 10
27.8428660339
 20
21.3963878656
 10
27.8416999941
 20
21.4289518514
 10
27.8382038668
 20
21.4614602021
 10
27.8323836252
 20
21.4938573779
 10
27.824249213
 20
21.5260880286
 10
27.8138145278
 20
21.5580970888
 10
27.8010973969
 20
21.5898298715
 10
27.7861195475
 20
21.6212321617
 10
27.7689065688
 20
21.6522503093
 10
27.7494878691
 20
21.6828313201
 10
27.7278966248
 20
21.7129229472
 10
27.7041697242
 20
21.7424737793
 10
27.6783477043
 20
21.7714333295
 10
27.6504746816
 20
21.7997521207
 10
27.6205982767
 20
21.827381771
 10
27.588769533
 20
21.8542750753
 10
27.5550428292
 20
21.8803860871
 10
27.519475787
 20
21.905670196
 10
27.482129172
 20
21.9300842046
 10
27.4430667902
 20
21.9535864019
  0
LWPOLYLINE
  5
187
330
1F
100
AcDbEntity
  8
0
  6
Continuous
 62
     7
370
    25
100
AcDbPolyline
 90
      200
 70
   128
 43
0.0
 10
24.8205845155
 20
22.3612815297
 10
24.7690925485
 20
22.3306021624
 10
24.7193039241
 20
22.2989996894
 10
24.6712682727
 20
22.2665056128
 10
24.6250334772
 20
22.2331523233
 10
24.5806456255
 20
22.1989730683
 10
24.5381489644
 20
22.1640019183
 10
24.4975858554
 20
22.1282737334
 10
24.4589967328
 20
22.0918241283
 10
24.4224200629
 20
22.0546894365
 10
24.3878923064
 20
22.016906675
 10
24.3554478811
 20
21.9785135062
 10
24.3251191283
 20
21.9395482014
 10
24.2969362806
 20
21.900049602
 10
24.270927431
 20
21.8600570811
 10
24.2471185058
 20
21.8196105041
 10
24.2255332382
 20
21.778750189
 10
24.206193145
 20
21.7375168663
 10
24.1891175047
 20
21.6959516383
 10
24.1743233387
 20
21.654095938
 10
24.1618253942
 20
21.6119914882
 10
24.1516361293
 20
21.5696802594
 10
24.1437657011
 20
21.5272044285
 10
24.1382219547
 20
21.4846063362
 10
24.1350104165
 20
21.4419284453
 10
24.1341342877
 20
21.3992132981
 10
24.1355944417
 20
21.3565034738
 10
24.139389423
 20
21.3138415466
 10
24.1455154486
 20
21.2712700428
 10
24.153966412
 20
21.2288313987
 10
24.164733889
 20
21.1865679179
 10
24.1778071465
 20
21.1445217297
 10
24.1931731527
 20
21.1027347466
 10
24.2108165905
 20
21.0612486227
 10
24.2307198724
 20
21.0201047124
 10
24.2528631585
 20
20.9793440288
 10
24.2772243759
 20
20.939007203
 10
24.3037792407
 20
20.8991344437
 10
24.3325012826
 20
20.8597654968
 10
24.3633618706
 20
20.8209396062
 10
24.3963302424
 20
20.7826954745
 10
24.4313735344
 20
20.7450712241
 10
24.4684568146
 20
20.7081043597
 10
24.5075431175
 20
20.6718317308
 10
24.5485934813
 20
20.6362894947
 10
24.5915669858
 20
20.6015130806
 10
24.6364207943
 20
20.5675371544
 10
24.6831101954
 20
20.5343955841
 10
24.7315886482
 20
20.5021214059
 10
24.7818078283
 20
20.4707467914
 10
24.8337176761
 20
20.4403030156
 10
24.8872664467
 20
20.4108204253
 10
24.9424007615
 20
20.3823284096
 10
24.9990656616
 20
20.3548553698
 10
25.057204662
 20
20.3284286918
 10
25.1167598085
 20
20.3030747181
 10
25.1776717354
 20
20.2788187222
 10
25.2398797242
 20
20.255684883
 10
25.3033217647
 20
20.2336962608
 10
25.3679346164
 20
20.2128747743
 10
25.433653872
 20
20.1932411789
 10
25.5004140209
 20
20.1748150457
 10
25.5681485152
 20
20.1576147423
 10
25.6367898358
 20
20.1416574144
 10
25.7062695594
 20
20.1269589685
 10
25.7765184271
 20
20.1135340564
 10
25.8474664134
 20
20.1013960603
 10
25.9190427958
 20
20.0905570797
 10
25.9911762253
 20
20.0810279191
 10
26.0637947977
 20
20.0728180773
 10
26.1368261254
 20
20.0659357382
 10
26.2101974091
 20
20.0603877621
 10
26.2838355107
 20
20.0561796794
 10
26.3576670262
 20
20.0533156848
 10
26.4316183586
 20
20.0517986333
 10
26.5056157917
 20
20.051630037
 10
26.5795855633
 20
20.052810064
 10
26.6534539386
 20
20.055337538
 10
26.7271472841
 20
20.0592099397
 10
26.8005921406
 20
20.0644234088
 10
26.8737152967
 20
20.0709727485
 10
26.9464438616
 20
20.0788514303
 10
27.018705338
 20
20.0880516005
 10
27.090427694
 20
20.0985640882
 10
27.1615394352
 20
20.1103784143
 10
27.2319696759
 20
20.1234828021
 10
27.3016482097
 20
20.1378641888
 10
27.3705055795
 20
20.1535082387
 10
27.4384731468
 20
20.1703993575
 10
27.50548316
 20
20.1885207078
 10
27.5714688222
 20
20.2078542258
 10
27.6363643573
 20
20.2283806394
 10
27.700105076
 20
20.2500794875
 10
27.7626274403
 20
20.2729291401
 10
27.8238691265
 20
20.2969068203
 10
27.8837690876
 20
20.3219886266
 10
27.9422676139
 20
20.3481495569
 10
27.9993063928
 20
20.3753635333
 10
28.0548285669
 20
20.4036034285
 10
28.1087787905
 20
20.4328410922
 10
28.1611032848
 20
20.4630473798
 10
28.2117498916
 20
20.494192181
 10
28.2606681252
 20
20.5262444498
 10
28.3078092229
 20
20.559172236
 10
28.3531261935
 20
20.5929427164
 10
28.396573864
 20
20.6275222279
 10
28.4381089247
 20
20.6628763008
 10
28.4776899727
 20
20.6989696934
 10
28.5152775528
 20
20.7357664271
 10
28.5508341967
 20
20.7732298221
 10
28.5843244609
 20
20.811322534
 10
28.6157149615
 20
20.8500065913
 10
28.6449744078
 20
20.8892434327
 10
28.6720736333
 20
20.9289939462
 10
28.696985625
 20
20.9692185075
 10
28.71968555
 20
21.00987702
 10
28.7401507806
 20
21.0509289544
 10
28.7583609165
 20
21.0923333892
 10
28.7742978055
 20
21.1340490516
 10
28.7879455615
 20
21.1760343585
 10
28.7992905798
 20
21.2182474579
 10
28.8083215518
 20
21.2606462711
 10
28.815029475
 20
21.3031885339
 10
28.8194076628
 20
21.3458318393
 10
28.821451751
 20
21.3885336795
 10
28.821159702
 20
21.4312514884
 10
28.8185318069
 20
21.4739426839
 10
28.8135706853
 20
21.5165647105
 10
28.8062812825
 20
21.5590750817
 10
28.7966708647
 20
21.6014314222
 10
28.7847490118
 20
21.6435915103
 10
28.7705276078
 20
21.6855133198
 10
28.7540208289
 20
21.7271550623
 10
28.7352451294
 20
21.7684752283
 10
28.7142192254
 20
21.809432629
 10
28.6909640758
 20
21.8499864371
 10
28.665502862
 20
21.8900962278
 10
28.6378609642
 20
21.9297220187
 10
28.6080659364
 20
21.96882431
 10
28.5761474791
 20
22.0073641236
 10
28.5421374092
 20
22.0453030423
 10
28.5060696287
 20
22.0826032476
 10
28.4679800908
 20
22.119227558
 10
28.4279067639
 20
22.1551394655
 10
28.385889594
 20
22.1903031724
 10
28.3419704647
 20
22.2246836267
 10
28.2961931555
 20
22.2582465573
 10
28.2486032984
 20
22.2909585078
 10
28.1992483318
 20
22.3227868703
 10
28.1481774539
 20
22.3536999175
 10
28.0954415733
 20
22.3836668348
 10
28.0410932582
 20
22.4126577503
 10
27.9851866842
 20
22.4406437654
 10
27.9277775802
 20
22.467596983
 10
27.8689231728
 20
22.4934905355
 10
27.8086821295
 20
22.5182986116
 10
27.7471144997
 20
22.5419964821
 10
27.6842816554
 20
22.5645605246
 10
27.6202462298
 20
22.5859682465
 10
27.5550720547
 20
22.6061983084
 10
27.4888240973
 20
22.6252305443
 10
27.4215683949
 20
22.6430459826
 10
27.3533719895
 20
22.6596268644
 10
27.2843028607
 20
22.6749566616
 10
27.2144298581
 20
22.689020093
 10
27.1438226327
 20
22.70180314
 10
27.0725515673
 20
22.7132930601
 10
27.0006877063
 20
22.7234783999
 10
26.9283026854
 20
22.7323490065
 10
26.8554686595
 20
22.7398960374
 10
26.782258231
 20
22.7461119696
 10
26.7087443777
 20
22.7509906069
 10
26.6350003799
 20
22.7545270862
 10
26.5610997472
 20
22.7567178822
 10
26.4871161453
 20
22.7575608112
 10
26.4131233227
 20
22.7570550328
 10
26.339195037
 20
22.7552010512
 10
26.2654049816
 20
22.7520007146
 10
26.191826712
 20
22.7474572131
 10
26.1185335726
 20
22.7415750757
 10
26.0455986236
 20
22.7343601659
 10
25.9730945681
 20
22.7258196757
 10
25.9010936799
 20
22.7159621183
 10
25.8296677309
 20
22.7047973202
 10
25.75888792
 20
22.6923364105
 10
25.6888248022
 20
22.6785918105
 10
25.6195482178
 20
22.6635772212
 10
25.5511272232
 20
22.6473076095
 10
25.4836300221
 20
22.6297991932
 10
25.4171238971
 20
22.6110694252
 10
25.3516751429
 20
22.5911369756
 10
25.2873490002
 20
22.5700217136
 10
25.2242095909
 20
22.5477446872
 10
25.1623198535
 20
22.5243281029
 10
25.1017414812
 20
22.4997953026
 10
25.0425348598
 20
22.4741707412
 10
24.9847590077
 20
22.4474799619
 10
24.9284715171
 20
22.4197495706
 10
24.8737284967
 20
22.3910072095
 10
24.8205845155
 20
22.3612815297
  0
LWPOLYLINE
  5
188
330
1F
100
AcDbEntity
  8
0
  6
Continuous
 62
     7
370
    25
100
AcDbPolyline
 90
      155
 70
   128
 43
0.0
 10
25.4879165402
 20
21.976038952
 10
25.4483617367
 20
21.9522532684
 10
25.4105204415
 20
21.9275559923
 10
25.3744556377
 20
21.9019882298
 10
25.3402273516
 20
21.8755925359
 10
25.3078925529
 20
21.8484128436
 10
25.2775050595
 20
21.8204943909
 10
25.2491154485
 20
21.7918836452
 10
25.2227709716
 20
21.7626282263
 10
25.1985154765
 20
21.7327768271
 10
25.1763893342
 20
21.7023791321
 10
25.1564293715
 20
21.6714857353
 10
25.1386688096
 20
21.6401480559
 10
25.1231372094
 20
21.6084182521
 10
25.1098604215
 20
21.5763491352
 10
25.0988605441
 20
21.5439940811
 10
25.0901558851
 20
21.5114069415
 10
25.0837609328
 20
21.4786419545
 10
25.0796863308
 20
21.4457536543
 10
25.0779388609
 20
21.41279678
 10
25.0785214317
 20
21.3798261853
 10
25.0814330734
 20
21.3468967463
 10
25.08666894
 20
21.314063271
 10
25.0942203169
 20
21.2813804073
 10
25.1040746355
 20
21.2489025527
 10
25.1162154944
 20
21.2166837634
 10
25.1306226861
 20
21.1847776643
 10
25.1472722315
 20
21.15323736
 10
25.1661364189
 20
21.1221153463
 10
25.1871838508
 20
21.0914634227
 10
25.2103794958
 20
21.0613326062
 10
25.2356847471
 20
21.0317730466
 10
25.2630574866
 20
21.0028339429
 10
25.292452155
 20
20.9745634614
 10
25.3238198278
 20
20.9470086555
 10
25.3571082966
 20
20.9202153875
 10
25.3922621561
 20
20.8942282521
 10
25.4292228961
 20
20.8690905023
 10
25.4679289991
 20
20.8448439775
 10
25.5083160426
 20
20.8215290335
 10
25.5503168064
 20
20.7991844759
 10
25.5938613843
 20
20.7778474948
 10
25.6388773008
 20
20.7575536037
 10
25.6852896312
 20
20.7383365797
 10
25.7330211268
 20
20.7202284077
 10
25.7819923432
 20
20.7032592268
 10
25.8321217727
 20
20.6874572807
 10
25.8833259799
 20
20.67284887
 10
25.9355197402
 20
20.6594583092
 10
25.9886161825
 20
20.6473078854
 10
26.0425269328
 20
20.6364178218
 10
26.0971622621
 20
20.6268062438
 10
26.1524312353
 20
20.6184891491
 10
26.2082418625
 20
20.6114803805
 10
26.2645012526
 20
20.6057916034
 10
26.3211157674
 20
20.6014322863
 10
26.3779911774
 20
20.5984096849
 10
26.4350328193
 20
20.5967288299
 10
26.4921457529
 20
20.5963925189
 10
26.5492349193
 20
20.5974013118
 10
26.6062052992
 20
20.5997535295
 10
26.6629620711
 20
20.6034452569
 10
26.7194107689
 20
20.6084703495
 10
26.7754574393
 20
20.6148204436
 10
26.8310087982
 20
20.6224849701
 10
26.8859723858
 20
20.6314511721
 10
26.9402567206
 20
20.6417041262
 10
26.9937714518
 20
20.6532267674
 10
27.0464275094
 20
20.6659999175
 10
27.0981372525
 20
20.6800023167
 10
27.1488146153
 20
20.6952106595
 10
27.1983752505
 20
20.7115996331
 10
27.2467366691
 20
20.7291419596
 10
27.2938183785
 20
20.7478084416
 10
27.3395420157
 20
20.7675680106
 10
27.3838314783
 20
20.7883877787
 10
27.4266130508
 20
20.8102330934
 10
27.4678155276
 20
20.8330675954
 10
27.5073703311
 20
20.856853279
 10
27.5452116263
 20
20.8815505551
 10
27.5812764301
 20
20.9071183176
 10
27.6155047161
 20
20.9335140115
 10
27.6478395149
 20
20.9606937038
 10
27.6782270083
 20
20.9886121565
 10
27.7066166193
 20
21.0172229022
 10
27.7329610962
 20
21.0464783211
 10
27.7572165912
 20
21.0763297203
 10
27.7793427336
 20
21.1067274153
 10
27.7993026963
 20
21.1376208121
 10
27.8170632582
 20
21.1689584915
 10
27.8325948584
 20
21.2006882953
 10
27.8458716463
 20
21.2327574122
 10
27.8568715237
 20
21.2651124663
 10
27.8655761827
 20
21.2976996059
 10
27.871971135
 20
21.3304645929
 10
27.876045737
 20
21.3633528931
 10
27.8777932069
 20
21.3963097674
 10
27.8772106361
 20
21.4292803621
 10
27.8742989943
 20
21.4622098011
 10
27.8690631277
 20
21.4950432764
 10
27.8615117509
 20
21.5277261401
 10
27.8516574323
 20
21.5602039947
 10
27.8395165734
 20
21.592422784
 10
27.8251093817
 20
21.6243288831
 10
27.8084598363
 20
21.6558691874
 10
27.7895956489
 20
21.6869912011
 10
27.768548217
 20
21.7176431247
 10
27.7453525719
 20
21.7477739412
 10
27.7200473207
 20
21.7773335008
 10
27.6926745812
 20
21.8062726045
 10
27.6632799128
 20
21.834543086
 10
27.63191224
 20
21.8620978919
 10
27.5986237712
 20
21.8888911599
 10
27.5634699117
 20
21.9148782953
 10
27.5265091717
 20
21.9400160451
 10
27.4878030687
 20
21.9642625699
 10
27.4474160252
 20
21.9875775139
 10
27.4054152614
 20
22.0099220715
 10
27.3618706835
 20
22.0312590526
 10
27.316854767
 20
22.0515529437
 10
27.2704424366
 20
22.0707699677
 10
27.222710941
 20
22.0888781397
 10
27.1737397246
 20
22.1058473206
 10
27.1236102951
 20
22.1216492667
 10
27.0724060879
 20
22.1362576773
 10
27.0202123276
 20
22.1496482382
 10
26.9671158853
 20
22.161798662
 10
26.913205135
 20
22.1726887256
 10
26.8585698057
 20
22.1823003036
 10
26.8033008325
 20
22.1906173983
 10
26.7474902053
 20
22.1976261669
 10
26.6912308152
 20
22.203314944
 10
26.6346163004
 20
22.2076742611
 10
26.5777408904
 20
22.2106968625
 10
26.5206992485
 20
22.2123777175
 10
26.4635863149
 20
22.2127140285
 10
26.4064971485
 20
22.2117052356
 10
26.3495267686
 20
22.2093530179
 10
26.2927699967
 20
22.2056612905
 10
26.2363212989
 20
22.2006361979
 10
26.1802746285
 20
22.1942861038
 10
26.1247232696
 20
22.1866215773
 10
26.069759682
 20
22.1776553753
 10
26.0154753472
 20
22.1674024212
 10
25.961960616
 20
22.15587978
 10
25.9093045584
 20
22.1431066299
 10
25.8575948153
 20
22.1291042307
 10
25.8069174525
 20
22.1138958879
 10
25.7573568173
 20
22.0975069143
 10
25.7089953987
 20
22.0799645878
 10
25.6619136893
 20
22.0612981058
 10
25.6161900521
 20
22.0415385368
 10
25.5719005895
 20
22.0207187687
 10
25.529119017
 20
21.998873454
 10
25.4879165402
 20
21.976038952
  0
LWPOLYLINE
  5
189
330
1F
100
AcDbEntity
  8
0
  6
Continuous
 62
     7
370
    25
100
AcDbPolyline
 90
       50
 70
   128
 43
0.0
 10
24.9611219882
 20
22.2801509736
 10
24.9488524549
 20
22.2720960314
 10
24.9384679347
 20
22.2632014597
 10
24.9301389411
 20
22.2536133071
 10
24.9240022359
 20
22.2434890109
 10
24.9201585838
 20
22.2329948118
 10
24.9186710974
 20
22.222303024
 10
24.9195642011
 20
22.2115892067
 10
24.9228232302
 20
22.2010292802
 10
24.9283946716
 20
22.1907966384
 10
24.9361870423
 20
22.1810593008
 10
24.9460723918
 20
22.1719771544
 10
24.957888403
 20
22.1636993277
 10
24.9714410573
 20
22.1563617425
 10
24.9865078204
 20
22.1500848815
 10
25.0028412966
 20
22.1449718109
 10
25.0201732906
 20
22.1411064869
 10
25.0382192115
 20
22.1385523781
 10
25.0566827459
 20
22.137351423
 10
25.075260723
 20
22.1375233412
 10
25.0936480929
 20
22.1390653097
 10
25.1115429355
 20
22.1419520095
 10
25.128651418
 20
22.1461360411
 10
25.1446926197
 20
22.1515487028
 10
25.1594031443
 20
22.1581011188
 10
25.1725414455
 20
22.1656856987
 10
25.1838917928
 20
22.1741779038
 10
25.1932678138
 20
22.1834382924
 10
25.2005155544
 20
22.1933148091
 10
25.205516007
 20
22.2036452819
 10
25.2081870643
 20
22.2142600846
 10
25.2084848675
 20
22.2249849225
 10
25.2064045268
 20
22.235643694
 10
25.2019802013
 20
22.2460613824
 10
25.1952845383
 20
22.2560669296
 10
25.1864274804
 20
22.2654960447
 10
25.1755544603
 20
22.2741939019
 10
25.1628440126
 20
22.2820176827
 10
25.1485048425
 20
22.2888389207
 10
25.1327723988
 20
22.2945456115
 10
25.1159050079
 20
22.2990440514
 10
25.0981796317
 20
22.302260376
 10
25.0798873206
 20
22.3041417735
 10
25.0613284336
 20
22.3046573513
 10
25.0428077073
 20
22.3037986436
 10
25.0246292515
 20
22.3015797505
 10
25.0070915558
 20
22.298037106
 10
24.9904825888
 20
22.2932288804
 10
24.9750750693
 20
22.2872340245
 10
24.9611219882
 20
22.2801509736
  0
LWPOLYLINE
  5
18A
330
1F
100
AcDbEntity
  8
0
  6
Continuous
 62
     7
370
    25
100
AcDbPolyline
 90
       50
 70
   128
 43
0.0
 10
27.789549113
 20
20.64733475
 10
27.7772795797
 20
20.6392798078
 10
27.7668950594
 20
20.6303852361
 10
27.7585660658
 20
20.6207970835
 10
27.7524293607
 20
20.6106727873
 10
27.7485857086
 20
20.6001785881
 10
27.7470982221
 20
20.5894868004
 10
27.7479913258
 20
20.578772983
 10
27.751250355
 20
20.5682130566
 10
27.7568217963
 20
20.5579804147
 10
27.764614167
 20
20.5482430772
 10
27.7744995166
 20
20.5391609308
 10
27.7863155278
 20
20.5308831041
 10
27.799868182
 20
20.5235455188
 10
27.8149349452
 20
20.5172686579
 10
27.8312684214
 20
20.5121555872
 10
27.8486004153
 20
20.5082902632
 10
27.8666463363
 20
20.5057361545
 10
27.8851098707
 20
20.5045351994
 10
27.9036878477
 20
20.5047071175
 10
27.9220752176
 20
20.506249086
 10
27.9399700603
 20
20.5091357859
 10
27.9570785428
 20
20.5133198175
 10
27.9731197444
 20
20.5187324792
 10
27.987830269
 20
20.5252848952
 10
28.0009685703
 20
20.5328694751
 10
28.0123189176
 20
20.5413616802
 10
28.0216949385
 20
20.5506220688
 10
28.0289426792
 20
20.5604985855
 10
28.0339431318
 20
20.5708290583
 10
28.036614189
 20
20.581443861
 10
28.0369119922
 20
20.5921686988
 10
28.0348316515
 20
20.6028274703
 10
28.030407326
 20
20.6132451588
 10
28.0237116631
 20
20.6232507059
 10
28.0148546052
 20
20.632679821
 10
28.003981585
 20
20.6413776782
 10
27.9912711373
 20
20.649201459
 10
27.9769319672
 20
20.6560226971
 10
27.9611995236
 20
20.6617293879
 10
27.9443321326
 20
20.6662278277
 10
27.9266067565
 20
20.6694441524
 10
27.9083144453
 20
20.6713255499
 10
27.8897555584
 20
20.6718411276
 10
27.8712348321
 20
20.67098242
 10
27.8530563762
 20
20.6687635269
 10
27.8355186806
 20
20.6652208824
 10
27.8189097136
 20
20.6604126567
 10
27.803502194
 20
20.6544178008
 10
27.789549113
 20
20.64733475
  0
ARC
  5
18B
330
1F
100
AcDbEntity
  8
0
  6
Continuous
 62
     7
370
    25
100
AcDbCircle
 10
25.5863091668
 20
21.2871379351
 30
0.0
 40
0.5090106415973572
100
AcDbArc
 50
154.8646661434
 51
172.9698277325
  0
ARC
  5
18C
330
1F
100
AcDbEntity
  8
0
  6
Continuous
 62
     7
370
    25
100
AcDbCircle
 10
27.3724428229
 20
21.2880086061
 30
0.0
 40
0.5059071024296822
100
AcDbArc
 50
6.9741671468
 51
25.1913389773
  0
LINE
  5
18D
330
1F
100
AcDbEntity
  8
0
  6
Continuous
 62
     7
370
    25
100
AcDbLine
 10
25.0839401887
 20
15.6388205388
 30
0.0
 11
25.0861228016
 21
15.6743466048
 31
0.0
  0
LINE
  5
18E
330
1F
100
AcDbEntity
  8
0
  6
Continuous
 62
     7
370
    25
100
AcDbLine
 10
28.1147445532
 20
15.8011261432
 30
0.0
 11
28.1174584016
 21
15.7573119891
 31
0.0
  0
LINE
  5
18F
330
1F
100
AcDbEntity
  8
0
  6
Continuous
 62
     7
370
    25
100
AcDbLine
 10
24.2134764827
 20
16.3944408583
 30
0.0
 11
24.2208870251
 21
16.5468305257
 31
0.0
  0
LWPOLYLINE
  5
190
330
1F
100
AcDbEntity
  8
0
  6
Continuous
 62
     7
370
    25
100
AcDbPolyline
 90
        3
 70
   128
 43
0.0
 10
28.7528924511
 20
16.7365424153
 10
28.7569368428
 20
16.6412866845
 10
28.7649534535
 20
16.4519551297
  0
CIRCLE
  5
191
330
1F
100
AcDbEntity
  8
0
  6
Continuous
 62
     7
370
    25
100
AcDbCircle
 10
10.0955432453
 20
20.8581563741
 30
0.0
 40
2.485000000000003
  0
CIRCLE
  5
192
330
1F
100
AcDbEntity
  8
0
  6
Continuous
 62
     7
370
    25
100
AcDbCircle
 10
10.0955432453
 20
20.8581563741
 30
0.0
 40
2.375
  0
CIRCLE
  5
193
330
1F
100
AcDbEntity
  8
0
  6
Continuous
 62
     7
370
    25
100
AcDbCircle
 10
10.0955432453
 20
20.8581563741
 30
0.0
 40
2.75
  0
CIRCLE
  5
194
330
1F
100
AcDbEntity
  8
0
  6
Continuous
 62
     7
370
    25
100
AcDbCircle
 10
12.0955432453
 20
20.8581563741
 30
0.0
 40
0.1190000000000005
  0
LINE
  5
195
330
1F
100
AcDbEntity
  8
0
  6
Continuous
 62
     7
370
    25
100
AcDbLine
 10
12.168282813
 20
20.8229102591
 30
0.0
 11
12.1624370602
 21
20.9035276301
 31
0.0
  0
LINE
  5
196
330
1F
100
AcDbEntity
  8
0
  6
Continuous
 62
     7
370
    25
100
AcDbLine
 10
12.0896974925
 20
20.9387737451
 30
0.0
 11
12.1624370602
 21
20.9035276301
 31
0.0
  0
LINE
  5
197
330
1F
100
AcDbEntity
  8
0
  6
Continuous
 62
     7
370
    25
100
AcDbLine
 10
12.0228036777
 20
20.8934024892
 30
0.0
 11
12.0896974925
 21
20.9387737451
 31
0.0
  0
LINE
  5
198
330
1F
100
AcDbEntity
  8
0
  6
Continuous
 62
     7
370
    25
100
AcDbLine
 10
12.0228036777
 20
20.8934024892
 30
0.0
 11
12.0286494305
 21
20.8127851182
 31
0.0
  0
LINE
  5
199
330
1F
100
AcDbEntity
  8
0
  6
Continuous
 62
     7
370
    25
100
AcDbLine
 10
12.1013889981
 20
20.7775390031
 30
0.0
 11
12.0286494305
 21
20.8127851182
 31
0.0
  0
LINE
  5
19A
330
1F
100
AcDbEntity
  8
0
  6
Continuous
 62
     7
370
    25
100
AcDbLine
 10
12.1013889981
 20
20.7775390031
 30
0.0
 11
12.168282813
 21
20.8229102591
 31
0.0
  0
CIRCLE
  5
19B
330
1F
100
AcDbEntity
  8
0
  6
Continuous
 62
     7
370
    25
100
AcDbCircle
 10
12.0955432453
 20
20.8581563741
 30
0.0
 40
0.1349999999999996
  0
ARC
  5
19C
330
1F
100
AcDbEntity
  8
0
  6
Continuous
 62
     7
370
    25
100
AcDbCircle
 10
12.0955432453
 20
20.8581563741
 30
0.0
 40
0.0700000000000019
100
AcDbArc
 50
184.1473911605
 51
244.1473911605
  0
ARC
  5
19D
330
1F
100
AcDbEntity
  8
0
  6
Continuous
 62
     7
370
    25
100
AcDbCircle
 10
12.0955432453
 20
20.8581563741
 30
0.0
 40
0.0700000000000019
100
AcDbArc
 50
244.1473911605
 51
304.1473911605
  0
ARC
  5
19E
330
1F
100
AcDbEntity
  8
0
  6
Continuous
 62
     7
370
    25
100
AcDbCircle
 10
12.0955432453
 20
20.8581563741
 30
0.0
 40
0.0700000000000009
100
AcDbArc
 50
304.1473911605
 51
4.1473911605
  0
ARC
  5
19F
330
1F
100
AcDbEntity
  8
0
  6
Continuous
 62
     7
370
    25
100
AcDbCircle
 10
12.0955432453
 20
20.8581563741
 30
0.0
 40
0.0699999999999999
100
AcDbArc
 50
124.1473911605
 51
184.1473911605
  0
ARC
  5
1A0
330
1F
100
AcDbEntity
  8
0
  6
Continuous
 62
     7
370
    25
100
AcDbCircle
 10
12.0955432453
 20
20.8581563741
 30
0.0
 40
0.0700000000000011
100
AcDbArc
 50
64.1473911605
 51
124.1473911605
  0
ARC
  5
1A1
330
1F
100
AcDbEntity
  8
0
  6
Continuous
 62
     7
370
    25
100
AcDbCircle
 10
12.0955432453
 20
20.8581563741
 30
0.0
 40
0.0700000000000011
100
AcDbArc
 50
4.1473911605
 51
64.1473911605
  0
CIRCLE
  5
1A2
330
1F
100
AcDbEntity
  8
0
  6
Continuous
 62
     7
370
    25
100
AcDbCircle
 10
8.0955432453
 20
20.8581563741
 30
0.0
 40
0.1189999999999987
  0
LINE
  5
1A3
330
1F
100
AcDbEntity
  8
0
  6
Continuous
 62
     7
370
    25
100
AcDbLine
 10
8.1013889981
 20
20.7775390031
 30
0.0
 11
8.168282813
 21
20.8229102591
 31
0.0
  0
LINE
  5
1A4
330
1F
100
AcDbEntity
  8
0
  6
Continuous
 62
     7
370
    25
100
AcDbLine
 10
8.0228036777
 20
20.8934024892
 30
0.0
 11
8.0896974925
 21
20.9387737451
 31
0.0
  0
LINE
  5
1A5
330
1F
100
AcDbEntity
  8
0
  6
Continuous
 62
     7
370
    25
100
AcDbLine
 10
8.1013889981
 20
20.7775390031
 30
0.0
 11
8.0286494305
 21
20.8127851182
 31
0.0
  0
LINE
  5
1A6
330
1F
100
AcDbEntity
  8
0
  6
Continuous
 62
     7
370
    25
100
AcDbLine
 10
8.0896974925
 20
20.9387737451
 30
0.0
 11
8.1624370602
 21
20.9035276301
 31
0.0
  0
LINE
  5
1A7
330
1F
100
AcDbEntity
  8
0
  6
Continuous
 62
     7
370
    25
100
AcDbLine
 10
8.168282813
 20
20.8229102591
 30
0.0
 11
8.1624370602
 21
20.9035276301
 31
0.0
  0
LINE
  5
1A8
330
1F
100
AcDbEntity
  8
0
  6
Continuous
 62
     7
370
    25
100
AcDbLine
 10
8.0228036777
 20
20.8934024892
 30
0.0
 11
8.0286494305
 21
20.8127851182
 31
0.0
  0
CIRCLE
  5
1A9
330
1F
100
AcDbEntity
  8
0
  6
Continuous
 62
     7
370
    25
100
AcDbCircle
 10
8.0955432453
 20
20.8581563741
 30
0.0
 40
0.1349999999999996
  0
ARC
  5
1AA
330
1F
100
AcDbEntity
  8
0
  6
Continuous
 62
     7
370
    25
100
AcDbCircle
 10
8.0955432453
 20
20.8581563741
 30
0.0
 40
0.0699999999999999
100
AcDbArc
 50
124.1473911605
 51
184.1473911605
  0
ARC
  5
1AB
330
1F
100
AcDbEntity
  8
0
  6
Continuous
 62
     7
370
    25
100
AcDbCircle
 10
8.0955432453
 20
20.8581563741
 30
0.0
 40
0.0700000000000013
100
AcDbArc
 50
304.1473911605
 51
4.1473911605
  0
ARC
  5
1AC
330
1F
100
AcDbEntity
  8
0
  6
Continuous
 62
     7
370
    25
100
AcDbCircle
 10
8.0955432453
 20
20.8581563741
 30
0.0
 40
0.0700000000000019
100
AcDbArc
 50
64.1473911605
 51
124.1473911605
  0
ARC
  5
1AD
330
1F
100
AcDbEntity
  8
0
  6
Continuous
 62
     7
370
    25
100
AcDbCircle
 10
8.0955432453
 20
20.8581563741
 30
0.0
 40
0.0700000000000019
100
AcDbArc
 50
4.1473911605
 51
64.1473911605
  0
ARC
  5
1AE
330
1F
100
AcDbEntity
  8
0
  6
Continuous
 62
     7
370
    25
100
AcDbCircle
 10
8.0955432453
 20
20.8581563741
 30
0.0
 40
0.0700000000000011
100
AcDbArc
 50
244.1473911605
 51
304.1473911605
  0
ARC
  5
1AF
330
1F
100
AcDbEntity
  8
0
  6
Continuous
 62
     7
370
    25
100
AcDbCircle
 10
8.0955432453
 20
20.8581563741
 30
0.0
 40
0.0700000000000011
100
AcDbArc
 50
184.1473911605
 51
244.1473911605
  0
CIRCLE
  5
1B0
330
1F
100
AcDbEntity
  8
0
  6
Continuous
 62
     7
370
    25
100
AcDbCircle
 10
10.0955432453
 20
20.8581563741
 30
0.0
 40
1.365000000000002
  0
CIRCLE
  5
1B1
330
1F
100
AcDbEntity
  8
0
  6
Continuous
 62
     7
370
    25
100
AcDbCircle
 10
10.0955432453
 20
20.8581563741
 30
0.0
 40
1.399999999999999
  0
CIRCLE
  5
1B2
330
1F
100
AcDbEntity
  8
0
  6
Continuous
 62
     7
370
    25
100
AcDbCircle
 10
8.0955432453
 20
20.8581563741
 30
0.0
 40
0.1449999999999978
  0
CIRCLE
  5
1B3
330
1F
100
AcDbEntity
  8
0
  6
Continuous
 62
     7
370
    25
100
AcDbCircle
 10
12.0955432453
 20
20.8581563741
 30
0.0
 40
0.1450000000000014
  0
CIRCLE
  5
1B4
330
1F
100
AcDbEntity
  8
0
  6
Continuous
 62
     7
370
    25
100
AcDbCircle
 10
10.0955432453
 20
20.8581563741
 30
0.0
 40
2.343749999999999
  0
DIMENSION
  5
1B5
330
1F
100
AcDbEntity
  8
0
  6
Continuous
 62
     7
370
    18
100
AcDbDimension
  2
_D_7
 10
12.0955432453
 20
24.6496600855
 30
0.0
 11
10.0955432453
 21
24.6496600855
 31
0.0
 70
   160
  1
4" O.C.\P[102mm]
 71
     2
 42
-1.0
  3
SLDDIMSTYLE3
100
AcDbAlignedDimension
 13
8.0955432453
 23
20.8581563741
 33
0.0
 14
12.0955432453
 24
20.8581563741
 34
0.0
100
AcDbRotatedDimension
  0
DIMENSION
  5
1C2
330
1F
100
AcDbEntity
  8
0
  6
Continuous
 62
     7
370
    18
100
AcDbDimension
  2
_D_8
 10
11.3287956916
 20
21.5207938343
 30
0.0
 11
5.5104632803
 21
19.4592143849
 31
0.0
 70
   163
  1
<>
 71
     1
 42
-1.0
  3
SLDDIMSTYLE4
100
AcDbDiametricDimension
 15
8.862290799
 25
20.1955189139
 35
0.0
 40
0.0
  0
DIMENSION
  5
1D3
330
1F
100
AcDbEntity
  8
0
  6
Continuous
 62
     7
370
    18
100
AcDbDimension
  2
_D_9
 10
11.8598527082
 20
22.9675904497
 30
0.0
 11
5.5104632803
 21
17.6034671252
 31
0.0
 70
   163
  1
<>
 71
     1
 42
-1.0
  3
SLDDIMSTYLE4
100
AcDbDiametricDimension
 15
8.3312337824
 25
18.7487222986
 35
0.0
 40
0.0
  0
ENDSEC
  0
SECTION
  2
OBJECTS
  0
DICTIONARY
  5
C
330
0
100
AcDbDictionary
281
     1
  3
ACAD_GROUP
350
D
  3
ACAD_LAYOUT
350
1A
  3
ACAD_MLINESTYLE
350
17
  3
ACAD_PLOTSETTINGS
350
19
  3
ACAD_PLOTSTYLENAME
350
E
  3
ACAD_SCALELIST
350
47
  3
DWGPROPS
350
1E3
  0
DICTIONARY
  5
D
102
{ACAD_REACTORS
330
C
102
}
330
C
100
AcDbDictionary
281
     1
  0
DICTIONARY
  5
1A
102
{ACAD_REACTORS
330
C
102
}
330
C
100
AcDbDictionary
281
     1
  3
Layout1
350
1E
  3
Layout2
350
26
  3
Model
350
22
  0
DICTIONARY
  5
17
102
{ACAD_REACTORS
330
C
102
}
330
C
100
AcDbDictionary
281
     1
  3
Standard
350
18
  0
DICTIONARY
  5
19
102
{ACAD_REACTORS
330
C
102
}
330
C
100
AcDbDictionary
281
     1
  0
ACDBDICTIONARYWDFLT
  5
E
102
{ACAD_REACTORS
330
C
102
}
330
C
100
AcDbDictionary
281
     1
  3
Normal
350
F
100
AcDbDictionaryWithDefault
340
F
  0
DICTIONARY
  5
47
102
{ACAD_REACTORS
330
C
102
}
330
C
100
AcDbDictionary
281
     1
  3
A0
350
48
  3
A1
350
49
  3
A2
350
4A
  3
A3
350
4B
  3
A4
350
4C
  3
A5
350
4D
  3
A6
350
4E
  3
A7
350
4F
  3
A8
350
50
  3
A9
350
51
  3
B1
350
52
  3
B2
350
53
  3
B3
350
54
  3
B4
350
55
  3
B5
350
56
  3
B6
350
57
  3
B7
350
58
  0
XRECORD
  5
1E3
102
{ACAD_REACTORS
330
C
102
}
330
C
100
AcDbXrecord
280
     1
  1
DWGPROPS COOKIE
  2

  3

  4

  6

  7

  8
stevend
  9

300
=
301
=
302
=
303
=
304
=
305
=
306
=
307
=
308
=
309
=
 40
0.0
 41
2460606.756599225
 42
2460606.756600116
  1

 90
        0
  0
LAYOUT
  5
1E
102
{ACAD_REACTORS
330
1A
102
}
330
1A
100
AcDbPlotSettings
  1

  2
none_device
  4

  6

 40
0.0
 41
0.0
 42
0.0
 43
0.0
 44
0.0
 45
0.0
 46
0.0
 47
0.0
 48
0.0
 49
0.0
140
0.0
141
0.0
142
1.0
143
1.0
 70
   688
 72
     0
 73
     0
 74
     5
  7

 75
    16
147
1.0
148
0.0
149
0.0
100
AcDbLayout
  1
Layout1
 70
     1
 71
     1
 10
0.0
 20
0.0
 11
12.0
 21
9.0
 12
0.0
 22
0.0
 32
0.0
 14
1.0000000000E+20
 24
1.0000000000E+20
 34
1.0000000000E+20
 15
-1.0000000000E+20
 25
-1.0000000000E+20
 35
-1.0000000000E+20
146
0.0
 13
0.0
 23
0.0
 33
0.0
 16
1.0
 26
0.0
 36
0.0
 17
0.0
 27
1.0
 37
0.0
 76
     0
330
1B
  0
LAYOUT
  5
26
102
{ACAD_REACTORS
330
1A
102
}
330
1A
100
AcDbPlotSettings
  1

  2
none_device
  4

  6

 40
0.0
 41
0.0
 42
0.0
 43
0.0
 44
0.0
 45
0.0
 46
0.0
 47
0.0
 48
0.0
 49
0.0
140
0.0
141
0.0
142
1.0
143
1.0
 70
   688
 72
     0
 73
     0
 74
     5
  7

 75
    16
147
1.0
148
0.0
149
0.0
100
AcDbLayout
  1
Layout2
 70
     1
 71
     2
 10
0.0
 20
0.0
 11
0.0
 21
0.0
 12
0.0
 22
0.0
 32
0.0
 14
0.0
 24
0.0
 34
0.0
 15
0.0
 25
0.0
 35
0.0
146
0.0
 13
0.0
 23
0.0
 33
0.0
 16
1.0
 26
0.0
 36
0.0
 17
0.0
 27
1.0
 37
0.0
 76
     0
330
23
  0
LAYOUT
  5
22
102
{ACAD_REACTORS
330
1A
102
}
330
1A
100
AcDbPlotSettings
  1

  2
none_device
  4
Letter_(8.50_x_11.00_Inches)
  6

 40
6.35
 41
6.35
 42
6.35000508
 43
6.35000508
 44
215.9
 45
279.4
 46
0.0
 47
0.0
 48
0.0
 49
0.0
140
0.0
141
0.0
142
1.0
143
1.0
 70
  1712
 72
     0
 73
     0
 74
     0
  7

 75
     0
147
1.0
148
0.0
149
0.0
100
AcDbLayout
  1
Model
 70
     1
 71
     0
 10
0.0
 20
0.0
 11
33.0
 21
25.5
 12
0.0
 22
0.0
 32
0.0
 14
0.0
 24
0.0
 34
0.0
 15
33.0
 25
25.5
 35
0.0
146
0.0
 13
0.0
 23
0.0
 33
0.0
 16
1.0
 26
0.0
 36
0.0
 17
0.0
 27
1.0
 37
0.0
 76
     0
330
1F
331
29
  0
MLINESTYLE
  5
18
102
{ACAD_REACTORS
330
17
102
}
330
17
100
AcDbMlineStyle
  2
Standard
 70
     0
  3

 62
   256
 51
90.0
 52
90.0
 71
     2
 49
0.5
 62
   256
  6
BYLAYER
 49
-0.5
 62
   256
  6
BYLAYER
  0
ACDBPLACEHOLDER
  5
F
102
{ACAD_REACTORS
330
E
102
}
330
E
  0
SCALE
  5
48
102
{ACAD_REACTORS
330
47
102
}
330
47
100
AcDbScale
 70
     0
300
1:1
140
1.0
141
1.0
290
     1
  0
SCALE
  5
49
102
{ACAD_REACTORS
330
47
102
}
330
47
100
AcDbScale
 70
     0
300
1/128" = 1'-0"
140
0.0078125
141
12.0
290
     0
  0
SCALE
  5
4A
102
{ACAD_REACTORS
330
47
102
}
330
47
100
AcDbScale
 70
     0
300
1/64" = 1'-0"
140
0.015625
141
12.0
290
     0
  0
SCALE
  5
4B
102
{ACAD_REACTORS
330
47
102
}
330
47
100
AcDbScale
 70
     0
300
1/32" = 1'-0"
140
0.03125
141
12.0
290
     0
  0
SCALE
  5
4C
102
{ACAD_REACTORS
330
47
102
}
330
47
100
AcDbScale
 70
     0
300
1/16" = 1'-0"
140
0.0625
141
12.0
290
     0
  0
SCALE
  5
4D
102
{ACAD_REACTORS
330
47
102
}
330
47
100
AcDbScale
 70
     0
300
3/32" = 1'-0"
140
0.09375
141
12.0
290
     0
  0
SCALE
  5
4E
102
{ACAD_REACTORS
330
47
102
}
330
47
100
AcDbScale
 70
     0
300
1/8" = 1'-0"
140
0.125
141
12.0
290
     0
  0
SCALE
  5
4F
102
{ACAD_REACTORS
330
47
102
}
330
47
100
AcDbScale
 70
     0
300
3/16" = 1'-0"
140
0.1875
141
12.0
290
     0
  0
SCALE
  5
50
102
{ACAD_REACTORS
330
47
102
}
330
47
100
AcDbScale
 70
     0
300
1/4" = 1'-0"
140
0.25
141
12.0
290
     0
  0
SCALE
  5
51
102
{ACAD_REACTORS
330
47
102
}
330
47
100
AcDbScale
 70
     0
300
3/8" = 1'-0"
140
0.375
141
12.0
290
     0
  0
SCALE
  5
52
102
{ACAD_REACTORS
330
47
102
}
330
47
100
AcDbScale
 70
     0
300
1/2" = 1'-0"
140
0.5
141
12.0
290
     0
  0
SCALE
  5
53
102
{ACAD_REACTORS
330
47
102
}
330
47
100
AcDbScale
 70
     0
300
3/4" = 1'-0"
140
0.75
141
12.0
290
     0
  0
SCALE
  5
54
102
{ACAD_REACTORS
330
47
102
}
330
47
100
AcDbScale
 70
     0
300
1" = 1'-0"
140
1.0
141
12.0
290
     0
  0
SCALE
  5
55
102
{ACAD_REACTORS
330
47
102
}
330
47
100
AcDbScale
 70
     0
300
1-1/2" = 1'-0"
140
1.5
141
12.0
290
     0
  0
SCALE
  5
56
102
{ACAD_REACTORS
330
47
102
}
330
47
100
AcDbScale
 70
     0
300
3" = 1'-0"
140
3.0
141
12.0
290
     0
  0
SCALE
  5
57
102
{ACAD_REACTORS
330
47
102
}
330
47
100
AcDbScale
 70
     0
300
6" = 1'-0"
140
6.0
141
12.0
290
     0
  0
SCALE
  5
58
102
{ACAD_REACTORS
330
47
102
}
330
47
100
AcDbScale
 70
     0
300
1'-0" = 1'-0"
140
12.0
141
12.0
290
     0
  0
ENDSEC
  0
EOF
