  0
SECTION
  2
HEADER
  9
$ACADVER
  1
AC1015
  9
$ACADMAINTVER
 70
     6
  9
$DWGCODEPAGE
  3
ANSI_1252
  9
$INSBASE
 10
0.0
 20
0.0
 30
0.0
  9
$EXTMIN
 10
0.0
 20
0.0
 30
0.0
  9
$EXTMAX
 10
44.0
 20
34.0
 30
0.0
  9
$LIMMIN
 10
0.0
 20
0.0
  9
$LIMMAX
 10
44.0
 20
34.0
  9
$ORTHOMODE
 70
     0
  9
$REGENMODE
 70
     1
  9
$FILLMODE
 70
     1
  9
$QTEXTMODE
 70
     0
  9
$MIRRTEXT
 70
     1
  9
$LTSCALE
 40
4.0
  9
$ATTMODE
 70
     1
  9
$TEXTSIZE
 40
0.5
  9
$TRACEWID
 40
0.05
  9
$TEXTSTYLE
  7
Standard
  9
$CLAYER
  8
0
  9
$CELTYPE
  6
ByLayer
  9
$CECOLOR
 62
   256
  9
$CELTSCALE
 40
1.0
  9
$DISPSILH
 70
     0
  9
$DIMSCALE
 40
1.0
  9
$DIMASZ
 40
0.52
  9
$DIMEXO
 40
0.2
  9
$DIMDLI
 40
0.38
  9
$DIMRND
 40
0.0
  9
$DIMDLE
 40
0.0
  9
$DIMEXE
 40
0.5
  9
$DIMTP
 40
0.0
  9
$DIMTM
 40
0.0
  9
$DIMTXT
 40
0.5
  9
$DIMCEN
 40
0.09
  9
$DIMTSZ
 40
0.0
  9
$DIMTOL
 70
     0
  9
$DIMLIM
 70
     0
  9
$DIMTIH
 70
     1
  9
$DIMTOH
 70
     1
  9
$DIMSE1
 70
     0
  9
$DIMSE2
 70
     0
  9
$DIMTAD
 70
     0
  9
$DIMZIN
 70
     1
  9
$DIMBLK
  1

  9
$DIMASO
 70
     1
  9
$DIMSHO
 70
     1
  9
$DIMPOST
  1

  9
$DIMAPOST
  1

  9
$DIMALT
 70
     0
  9
$DIMALTD
 70
     2
  9
$DIMALTF
 40
25.4
  9
$DIMLFAC
 40
1.0
  9
$DIMTOFL
 70
     0
  9
$DIMTVP
 40
0.0
  9
$DIMTIX
 70
     0
  9
$DIMSOXD
 70
     0
  9
$DIMSAH
 70
     0
  9
$DIMBLK1
  1

  9
$DIMBLK2
  1

  9
$DIMSTYLE
  2
Standard
  9
$DIMCLRD
 70
     0
  9
$DIMCLRE
 70
     0
  9
$DIMCLRT
 70
     0
  9
$DIMTFAC
 40
1.0
  9
$DIMGAP
 40
0.24
  9
$DIMJUST
 70
     0
  9
$DIMSD1
 70
     0
  9
$DIMSD2
 70
     0
  9
$DIMTOLJ
 70
     1
  9
$DIMTZIN
 70
     1
  9
$DIMALTZ
 70
     0
  9
$DIMALTTZ
 70
     0
  9
$DIMUPT
 70
     0
  9
$DIMDEC
 70
     0
  9
$DIMTDEC
 70
     0
  9
$DIMALTU
 70
     2
  9
$DIMALTTD
 70
     2
  9
$DIMTXSTY
  7
Standard
  9
$DIMAUNIT
 70
     0
  9
$DIMADEC
 70
     0
  9
$DIMALTRND
 40
0.0
  9
$DIMAZIN
 70
     0
  9
$DIMDSEP
 70
    46
  9
$DIMATFIT
 70
     3
  9
$DIMFRAC
 70
     0
  9
$DIMLDRBLK
  1

  9
$DIMLUNIT
 70
     2
  9
$DIMLWD
 70
    -2
  9
$DIMLWE
 70
    -2
  9
$DIMTMOVE
 70
     0
  9
$LUNITS
 70
     2
  9
$LUPREC
 70
     6
  9
$SKETCHINC
 40
0.1
  9
$FILLETRAD
 40
0.0
  9
$AUNITS
 70
     0
  9
$AUPREC
 70
     2
  9
$MENU
  1
.
  9
$ELEVATION
 40
0.0
  9
$PELEVATION
 40
0.0
  9
$THICKNESS
 40
0.0
  9
$LIMCHECK
 70
     0
  9
$CHAMFERA
 40
0.0
  9
$CHAMFERB
 40
0.0
  9
$CHAMFERC
 40
0.0
  9
$CHAMFERD
 40
0.0
  9
$SKPOLY
 70
     0
  9
$TDCREATE
 40
2460647.72857022
  9
$TDUCREATE
 40
2460648.061903553
  9
$TDUPDATE
 40
2460647.72857088
  9
$TDUUPDATE
 40
2460648.061904213
  9
$TDINDWG
 40
0.0000000116
  9
$TDUSRTIMER
 40
0.0000000116
  9
$USRTIMER
 70
     1
  9
$ANGBASE
 50
0.0
  9
$ANGDIR
 70
     0
  9
$PDMODE
 70
     0
  9
$PDSIZE
 40
-1.0
  9
$PLINEWID
 40
0.0
  9
$SPLFRAME
 70
     0
  9
$SPLINETYPE
 70
     6
  9
$SPLINESEGS
 70
     8
  9
$HANDSEED
  5
1DC
  9
$SURFTAB1
 70
     6
  9
$SURFTAB2
 70
     6
  9
$SURFTYPE
 70
     6
  9
$SURFU
 70
     6
  9
$SURFV
 70
     6
  9
$UCSBASE
  2

  9
$UCSNAME
  2

  9
$UCSORG
 10
0.0
 20
0.0
 30
0.0
  9
$UCSXDIR
 10
1.0
 20
0.0
 30
0.0
  9
$UCSYDIR
 10
0.0
 20
1.0
 30
0.0
  9
$UCSORTHOREF
  2

  9
$UCSORTHOVIEW
 70
     0
  9
$UCSORGTOP
 10
0.0
 20
0.0
 30
0.0
  9
$UCSORGBOTTOM
 10
0.0
 20
0.0
 30
0.0
  9
$UCSORGLEFT
 10
0.0
 20
0.0
 30
0.0
  9
$UCSORGRIGHT
 10
0.0
 20
0.0
 30
0.0
  9
$UCSORGFRONT
 10
0.0
 20
0.0
 30
0.0
  9
$UCSORGBACK
 10
0.0
 20
0.0
 30
0.0
  9
$PUCSBASE
  2

  9
$PUCSNAME
  2

  9
$PUCSORG
 10
0.0
 20
0.0
 30
0.0
  9
$PUCSXDIR
 10
1.0
 20
0.0
 30
0.0
  9
$PUCSYDIR
 10
0.0
 20
1.0
 30
0.0
  9
$PUCSORTHOREF
  2

  9
$PUCSORTHOVIEW
 70
     0
  9
$PUCSORGTOP
 10
0.0
 20
0.0
 30
0.0
  9
$PUCSORGBOTTOM
 10
0.0
 20
0.0
 30
0.0
  9
$PUCSORGLEFT
 10
0.0
 20
0.0
 30
0.0
  9
$PUCSORGRIGHT
 10
0.0
 20
0.0
 30
0.0
  9
$PUCSORGFRONT
 10
0.0
 20
0.0
 30
0.0
  9
$PUCSORGBACK
 10
0.0
 20
0.0
 30
0.0
  9
$USERI1
 70
     0
  9
$USERI2
 70
     0
  9
$USERI3
 70
     0
  9
$USERI4
 70
     0
  9
$USERI5
 70
     0
  9
$USERR1
 40
0.0
  9
$USERR2
 40
0.0
  9
$USERR3
 40
0.0
  9
$USERR4
 40
0.0
  9
$USERR5
 40
0.0
  9
$WORLDVIEW
 70
     1
  9
$SHADEDGE
 70
     3
  9
$SHADEDIF
 70
    70
  9
$TILEMODE
 70
     1
  9
$MAXACTVP
 70
    64
  9
$PINSBASE
 10
0.0
 20
0.0
 30
0.0
  9
$PLIMCHECK
 70
     0
  9
$PEXTMIN
 10
1.0000000000E+20
 20
1.0000000000E+20
 30
1.0000000000E+20
  9
$PEXTMAX
 10
-1.0000000000E+20
 20
-1.0000000000E+20
 30
-1.0000000000E+20
  9
$PLIMMIN
 10
0.0
 20
0.0
  9
$PLIMMAX
 10
12.0
 20
9.0
  9
$UNITMODE
 70
     0
  9
$VISRETAIN
 70
     1
  9
$PLINEGEN
 70
     0
  9
$PSLTSCALE
 70
     1
  9
$TREEDEPTH
 70
  3020
  9
$CMLSTYLE
  2
Standard
  9
$CMLJUST
 70
     0
  9
$CMLSCALE
 40
1.0
  9
$PROXYGRAPHICS
 70
     1
  9
$MEASUREMENT
 70
     0
  9
$CELWEIGHT
370
    -1
  9
$ENDCAPS
280
     0
  9
$JOINSTYLE
280
     0
  9
$LWDISPLAY
290
     1
  9
$INSUNITS
 70
     1
  9
$HYPERLINKBASE
  1

  9
$STYLESHEET
  1

  9
$XEDIT
290
     1
  9
$CEPSNTYPE
380
     0
  9
$PSTYLEMODE
290
     1
  9
$FINGERPRINTGUID
  2
{322c1fb3-41c3-4a60-a152-4cc186e1a700}
  9
$VERSIONGUID
  2
{FAEB1C32-E019-11D5-929B-00C0DF256EC4}
  9
$EXTNAMES
290
     1
  9
$PSVPSCALE
 40
0.0
  9
$OLESTARTUP
290
     0
  0
ENDSEC
  0
SECTION
  2
CLASSES
  0
CLASS
  1
ACDBDICTIONARYWDFLT
  2
AcDbDictionaryWithDefault
  3
ObjectDBX Classes
 90
        0
280
     0
281
     0
  0
CLASS
  1
VISUALSTYLE
  2
AcDbVisualStyle
  3
ObjectDBX Classes
 90
     4095
280
     0
281
     0
  0
CLASS
  1
MATERIAL
  2
AcDbMaterial
  3
ObjectDBX Classes
 90
     1153
280
     0
281
     0
  0
CLASS
  1
SCALE
  2
AcDbScale
  3
ObjectDBX Classes
 90
     1153
280
     0
281
     0
  0
CLASS
  1
TABLESTYLE
  2
AcDbTableStyle
  3
ObjectDBX Classes
 90
     4095
280
     0
281
     0
  0
CLASS
  1
MLEADERSTYLE
  2
AcDbMLeaderStyle
  3
ACDB_MLEADERSTYLE_CLASS
 90
     4095
280
     0
281
     0
  0
CLASS
  1
SUN
  2
AcDbSun
  3
SCENEOE
 90
     1153
280
     0
281
     0
  0
CLASS
  1
ACDBPLACEHOLDER
  2
AcDbPlaceHolder
  3
ObjectDBX Classes
 90
        0
280
     0
281
     0
  0
CLASS
  1
LAYOUT
  2
AcDbLayout
  3
ObjectDBX Classes
 90
        0
280
     0
281
     0
  0
ENDSEC
  0
SECTION
  2
TABLES
  0
TABLE
  2
VPORT
  5
8
330
0
100
AcDbSymbolTable
 70
     1
  0
VPORT
  5
29
330
8
100
AcDbSymbolTableRecord
100
AcDbViewportTableRecord
  2
*Active
 70
     0
 10
0.0
 20
0.0
 11
1.0
 21
1.0
 12
22.0
 22
17.0
 13
0.0
 23
0.0
 14
0.5
 24
0.5
 15
0.5
 25
0.5
 16
0.0
 26
0.0
 36
1.0
 17
0.0
 27
0.0
 37
0.0
 40
34.0
 41
1.2941176471
 42
50.0
 43
0.0
 44
0.0
 50
0.0
 51
0.0
 71
     0
 72
  2000
 73
     1
 74
     3
 75
     0
 76
     0
 77
     0
 78
     0
281
     0
 65
     1
110
0.0
120
0.0
130
0.0
111
1.0
121
0.0
131
0.0
112
0.0
122
1.0
132
0.0
 79
     0
146
0.0
  0
ENDTAB
  0
TABLE
  2
LTYPE
  5
5
330
0
100
AcDbSymbolTable
 70
     6
  0
LTYPE
  5
14
330
5
100
AcDbSymbolTableRecord
100
AcDbLinetypeTableRecord
  2
ByBlock
 70
     0
  3

 72
    65
 73
     0
 40
0.0
  0
LTYPE
  5
15
330
5
100
AcDbSymbolTableRecord
100
AcDbLinetypeTableRecord
  2
ByLayer
 70
     0
  3

 72
    65
 73
     0
 40
0.0
  0
LTYPE
  5
16
330
5
100
AcDbSymbolTableRecord
100
AcDbLinetypeTableRecord
  2
Continuous
 70
     0
  3
Solid line
 72
    65
 73
     0
 40
0.0
  0
LTYPE
  5
5E
330
5
100
AcDbSymbolTableRecord
100
AcDbLinetypeTableRecord
  2
HIDDEN
 70
     0
  3
Hidden __ __ __ __ __ __ __ __ __ __ __ __ __ __
 72
    65
 73
     2
 40
0.075
 49
0.05
 74
     0
 49
-0.025
 74
     0
  0
LTYPE
  5
5F
330
5
100
AcDbSymbolTableRecord
100
AcDbLinetypeTableRecord
  2
PHANTOM
 70
     0
  3
Phantom ______  __  __  ______  __  __  ______
 72
    65
 73
     6
 40
0.5
 49
0.25
 74
     0
 49
-0.05
 74
     0
 49
0.05
 74
     0
 49
-0.05
 74
     0
 49
0.05
 74
     0
 49
-0.05
 74
     0
  0
LTYPE
  5
60
330
5
100
AcDbSymbolTableRecord
100
AcDbLinetypeTableRecord
  2
CENTER
 70
     0
  3
Center ____ _ ____ _ ____ _ ____ _ ____ _ ____
 72
    65
 73
     4
 40
0.4
 49
0.25
 74
     0
 49
-0.05
 74
     0
 49
0.05
 74
     0
 49
-0.05
 74
     0
  0
LTYPE
  5
61
330
5
100
AcDbSymbolTableRecord
100
AcDbLinetypeTableRecord
  2
CENTERX2
 70
     0
  3
Center (2x) ________  __  ________  __  _____
 72
    65
 73
     4
 40
0.8
 49
0.5
 74
     0
 49
-0.1
 74
     0
 49
0.1
 74
     0
 49
-0.1
 74
     0
  0
LTYPE
  5
62
330
5
100
AcDbSymbolTableRecord
100
AcDbLinetypeTableRecord
  2
DOT2
 70
     0
  3
Dot (.5x) ........................................
 72
    65
 73
     2
 40
0.025
 49
0.0
 74
     0
 49
-0.025
 74
     0
  0
ENDTAB
  0
TABLE
  2
LAYER
  5
2
330
0
100
AcDbSymbolTable
 70
    12
  0
LAYER
  5
10
330
2
100
AcDbSymbolTableRecord
100
AcDbLayerTableRecord
  2
0
 70
     0
 62
     7
  6
Continuous
370
    -3
390
F
  0
LAYER
  5
63
330
2
100
AcDbSymbolTableRecord
100
AcDbLayerTableRecord
  2
SLD-0
 70
     0
 62
     7
  6
Continuous
370
    -3
390
F
  0
LAYER
  5
64
330
2
100
AcDbSymbolTableRecord
100
AcDbLayerTableRecord
  2
DIM
 70
     0
 62
     7
  6
Continuous
370
    -3
390
F
  0
LAYER
  5
65
330
2
100
AcDbSymbolTableRecord
100
AcDbLayerTableRecord
  2
CEN
 70
     0
 62
     1
  6
CENTER
370
    -3
390
F
  0
LAYER
  5
66
330
2
100
AcDbSymbolTableRecord
100
AcDbLayerTableRecord
  2
HAT
 70
     0
 62
     4
  6
Continuous
370
    -3
390
F
  0
LAYER
  5
67
330
2
100
AcDbSymbolTableRecord
100
AcDbLayerTableRecord
  2
OBJ
 70
     0
 62
     5
  6
Continuous
370
    -3
390
F
  0
LAYER
  5
68
330
2
100
AcDbSymbolTableRecord
100
AcDbLayerTableRecord
  2
SLD-DEFPOINTS
 70
     0
 62
     7
  6
Continuous
370
    -3
390
F
  0
LAYER
  5
69
330
2
100
AcDbSymbolTableRecord
100
AcDbLayerTableRecord
  2
HID
 70
     0
 62
     4
  6
HIDDEN
370
    -3
390
F
  0
LAYER
  5
6A
330
2
100
AcDbSymbolTableRecord
100
AcDbLayerTableRecord
  2
NOTE
 70
     0
 62
     7
  6
Continuous
370
    -3
390
F
  0
LAYER
  5
6B
330
2
100
AcDbSymbolTableRecord
100
AcDbLayerTableRecord
  2
VP
 70
     0
 62
    -5
  6
Continuous
290
     0
370
    -3
390
F
  0
LAYER
  5
6C
330
2
100
AcDbSymbolTableRecord
100
AcDbLayerTableRecord
  2
TITLE
 70
     0
 62
     7
  6
Continuous
370
    -3
390
F
  0
LAYER
  5
6D
330
2
100
AcDbSymbolTableRecord
100
AcDbLayerTableRecord
  2
THICK_TITLE
 70
     0
 62
     7
  6
Continuous
370
   100
390
F
  0
ENDTAB
  0
TABLE
  2
STYLE
  5
3
330
0
100
AcDbSymbolTable
 70
     3
  0
STYLE
  5
11
330
3
100
AcDbSymbolTableRecord
100
AcDbTextStyleTableRecord
  2
Standard
 70
     0
 40
0.0
 41
1.0
 50
0.0
 71
     0
 42
0.5
  3
txt
  4

  0
STYLE
  5
74
330
3
100
AcDbSymbolTableRecord
100
AcDbTextStyleTableRecord
  2
SLDTEXTSTYLE0
 70
     0
 40
0.0
 41
0.75
 50
0.0
 71
     0
 42
0.5
  3
TXT
  4

  0
STYLE
  5
7D
330
3
100
AcDbSymbolTableRecord
100
AcDbTextStyleTableRecord
  2
SLDTEXTSTYLE1
 70
     0
 40
0.0
 41
0.7
 50
0.0
 71
     0
 42
0.5
  3
TXT
  4

  0
ENDTAB
  0
TABLE
  2
VIEW
  5
6
330
0
100
AcDbSymbolTable
 70
     0
  0
ENDTAB
  0
TABLE
  2
UCS
  5
7
330
0
100
AcDbSymbolTable
 70
     0
  0
ENDTAB
  0
TABLE
  2
APPID
  5
9
330
0
100
AcDbSymbolTable
 70
     1
  0
APPID
  5
12
330
9
100
AcDbSymbolTableRecord
100
AcDbRegAppTableRecord
  2
ACAD
 70
     0
  0
ENDTAB
  0
TABLE
  2
DIMSTYLE
  5
A
330
0
100
AcDbSymbolTable
 70
     4
100
AcDbDimStyleTable
  0
DIMSTYLE
105
27
330
A
100
AcDbSymbolTableRecord
100
AcDbDimStyleTableRecord
  2
Standard
 70
     0
178
     0
340
11
  0
DIMSTYLE
105
96
102
{ACAD_REACTORS
330
95
330
AA
330
10D
330
127
330
16F
330
182
102
}
330
A
100
AcDbSymbolTableRecord
100
AcDbDimStyleTableRecord
  2
SLDDIMSTYLE0
 70
     0
 41
0.52
 44
0.0
 45
0.000000001
 78
    12
 79
     3
140
0.5
147
0.125
148
0.000000001
170
     1
173
     1
178
     0
271
     6
272
     0
276
     2
277
     5
284
    12
340
74
  0
DIMSTYLE
105
14E
102
{ACAD_REACTORS
330
14D
102
}
330
A
100
AcDbSymbolTableRecord
100
AcDbDimStyleTableRecord
  2
SLDDIMSTYLE1
 70
     0
 41
0.52
 44
0.0
 45
0.000000001
 78
    12
 79
     3
140
0.5
141
0.0
147
0.125
148
0.000000001
170
     1
173
     1
178
     0
271
     0
272
     0
276
     2
277
     5
284
    12
340
74
  0
DIMSTYLE
105
15F
102
{ACAD_REACTORS
330
15E
102
}
330
A
100
AcDbSymbolTableRecord
100
AcDbDimStyleTableRecord
  2
SLDDIMSTYLE2
 70
     0
 41
0.52
 44
0.0
 45
0.000000001
 78
    12
 79
     3
140
0.5
141
0.0
147
0.125
148
0.000000001
170
     1
173
     1
178
     0
271
     0
272
     0
276
     2
277
     5
284
    12
340
74
  0
ENDTAB
  0
TABLE
  2
BLOCK_RECORD
  5
1
330
0
100
AcDbSymbolTable
 70
    18
  0
BLOCK_RECORD
  5
1F
330
1
100
AcDbSymbolTableRecord
100
AcDbBlockTableRecord
  2
*Model_Space
340
22
  0
BLOCK_RECORD
  5
1B
330
1
100
AcDbSymbolTableRecord
100
AcDbBlockTableRecord
  2
*Paper_Space
340
1E
  0
BLOCK_RECORD
  5
23
330
1
100
AcDbSymbolTableRecord
100
AcDbBlockTableRecord
  2
*Paper_Space0
340
26
  0
BLOCK_RECORD
  5
6E
330
1
100
AcDbSymbolTableRecord
100
AcDbBlockTableRecord
  2
Block2
340
0
102
{BLKREFS
331
10C
102
}
  0
BLOCK_RECORD
  5
71
330
1
100
AcDbSymbolTableRecord
100
AcDbBlockTableRecord
  2
SW_NOTE_0
340
0
102
{BLKREFS
331
76
102
}
  0
BLOCK_RECORD
  5
77
330
1
100
AcDbSymbolTableRecord
100
AcDbBlockTableRecord
  2
Block3
340
0
102
{BLKREFS
331
126
102
}
  0
BLOCK_RECORD
  5
7A
330
1
100
AcDbSymbolTableRecord
100
AcDbBlockTableRecord
  2
SW_NOTE_0_1
340
0
102
{BLKREFS
331
7F
102
}
  0
BLOCK_RECORD
  5
97
330
1
100
AcDbSymbolTableRecord
100
AcDbBlockTableRecord
  2
_D
340
0
  0
BLOCK_RECORD
  5
AB
330
1
100
AcDbSymbolTableRecord
100
AcDbBlockTableRecord
  2
_D_1
340
0
  0
BLOCK_RECORD
  5
10E
330
1
100
AcDbSymbolTableRecord
100
AcDbBlockTableRecord
  2
_D_2
340
0
  0
BLOCK_RECORD
  5
128
330
1
100
AcDbSymbolTableRecord
100
AcDbBlockTableRecord
  2
_D_3
340
0
  0
BLOCK_RECORD
  5
14F
330
1
100
AcDbSymbolTableRecord
100
AcDbBlockTableRecord
  2
_D_4
340
0
  0
BLOCK_RECORD
  5
160
330
1
100
AcDbSymbolTableRecord
100
AcDbBlockTableRecord
  2
_D_5
340
0
  0
BLOCK_RECORD
  5
170
330
1
100
AcDbSymbolTableRecord
100
AcDbBlockTableRecord
  2
_D_6
340
0
  0
BLOCK_RECORD
  5
183
330
1
100
AcDbSymbolTableRecord
100
AcDbBlockTableRecord
  2
_D_7
340
0
  0
BLOCK_RECORD
  5
196
330
1
100
AcDbSymbolTableRecord
100
AcDbBlockTableRecord
  2
SW_CENTERMARKSYMBOL_0
340
0
102
{BLKREFS
331
1A9
102
}
  0
BLOCK_RECORD
  5
1AA
330
1
100
AcDbSymbolTableRecord
100
AcDbBlockTableRecord
  2
SW_CENTERMARKSYMBOL_1
340
0
102
{BLKREFS
331
1B5
102
}
  0
BLOCK_RECORD
  5
1B6
330
1
100
AcDbSymbolTableRecord
100
AcDbBlockTableRecord
  2
SW_CENTERMARKSYMBOL_2
340
0
102
{BLKREFS
331
1C1
102
}
  0
BLOCK_RECORD
  5
1C2
330
1
100
AcDbSymbolTableRecord
100
AcDbBlockTableRecord
  2
SW_CENTERMARKSYMBOL_3
340
0
102
{BLKREFS
331
1CD
102
}
  0
BLOCK_RECORD
  5
1CE
330
1
100
AcDbSymbolTableRecord
100
AcDbBlockTableRecord
  2
SW_CENTERMARKSYMBOL_4
340
0
102
{BLKREFS
331
1D9
102
}
  0
ENDTAB
  0
ENDSEC
  0
SECTION
  2
BLOCKS
  0
BLOCK
  5
20
330
1F
100
AcDbEntity
  8
0
100
AcDbBlockBegin
  2
*Model_Space
 70
     0
 10
0.0
 20
0.0
 30
0.0
  3
*Model_Space
  1

  0
ENDBLK
  5
21
330
1F
100
AcDbEntity
  8
0
100
AcDbBlockEnd
  0
BLOCK
  5
1C
330
1B
100
AcDbEntity
 67
     1
  8
0
100
AcDbBlockBegin
  2
*Paper_Space
 70
     0
 10
0.0
 20
0.0
 30
0.0
  3
*Paper_Space
  1

  0
ENDBLK
  5
1D
330
1B
100
AcDbEntity
 67
     1
  8
0
100
AcDbBlockEnd
  0
BLOCK
  5
24
330
23
100
AcDbEntity
  8
0
100
AcDbBlockBegin
  2
*Paper_Space0
 70
     0
 10
0.0
 20
0.0
 30
0.0
  3
*Paper_Space0
  1

  0
ENDBLK
  5
25
330
23
100
AcDbEntity
  8
0
100
AcDbBlockEnd
  0
BLOCK
  5
6F
330
6E
100
AcDbEntity
  8
0
100
AcDbBlockBegin
  2
Block2
 70
     0
 10
0.0
 20
0.0
 30
0.0
  3
Block2
  1

  0
INSERT
  5
76
330
6E
100
AcDbEntity
  8
0
  6
Continuous
 62
     7
370
     0
100
AcDbBlockReference
  2
SW_NOTE_0
 10
0.0157657503
 20
1.1367231226
 30
0.0
  0
ENDBLK
  5
70
330
6E
100
AcDbEntity
  8
0
100
AcDbBlockEnd
  0
BLOCK
  5
72
330
71
100
AcDbEntity
  8
0
100
AcDbBlockBegin
  2
SW_NOTE_0
 70
     0
 10
0.0
 20
0.0
 30
0.0
  3
SW_NOTE_0
  1

  0
MTEXT
  5
75
330
71
100
AcDbEntity
  8
0
  6
Continuous
 62
     0
370
     0
100
AcDbMText
 10
2.1484375
 20
1.0742231165
 30
0.0
 40
0.8333333333
 41
0.0
 71
     2
 72
     1
  1
B/E CAP
  7
SLDTEXTSTYLE0
 73
     1
 44
1.0
  0
ENDBLK
  5
73
330
71
100
AcDbEntity
  8
0
100
AcDbBlockEnd
  0
BLOCK
  5
78
330
77
100
AcDbEntity
  8
0
100
AcDbBlockBegin
  2
Block3
 70
     0
 10
0.0
 20
0.0
 30
0.0
  3
Block3
  1

  0
INSERT
  5
7F
330
77
100
AcDbEntity
  8
0
  6
Continuous
 62
     7
370
     0
100
AcDbBlockReference
  2
SW_NOTE_0_1
 10
0.0452535328
 20
-0.0370986524
 30
0.0
  0
ENDBLK
  5
79
330
77
100
AcDbEntity
  8
0
100
AcDbBlockEnd
  0
BLOCK
  5
7B
330
7A
100
AcDbEntity
  8
0
100
AcDbBlockBegin
  2
SW_NOTE_0_1
 70
     0
 10
0.0
 20
0.0
 30
0.0
  3
SW_NOTE_0_1
  1

  0
MTEXT
  5
7E
330
7A
100
AcDbEntity
  8
0
  6
Continuous
 62
     0
370
     0
100
AcDbMText
 10
1.7447916667
 20
1.0742231165
 30
0.0
 40
0.8333333333
 41
0.0
 71
     2
 72
     1
  1
C CAP
  7
SLDTEXTSTYLE1
 73
     1
 44
1.0
  0
ENDBLK
  5
7C
330
7A
100
AcDbEntity
  8
0
100
AcDbBlockEnd
  0
BLOCK
  5
98
330
97
100
AcDbEntity
  8
0
100
AcDbBlockBegin
  2
_D
 70
     0
 10
0.0
 20
0.0
 30
0.0
  3
_D
  1

  0
SOLID
  5
9A
330
97
100
AcDbEntity
  8
0
  6
Continuous
 62
     7
370
    18
100
AcDbTrace
 10
14.1025245068
 20
27.3297130925
 30
0.0
 11
14.0225245068
 21
26.8097130925
 31
0.0
 12
14.1825245068
 22
26.8097130925
 32
0.0
 13
14.1825245068
 23
26.8097130925
 33
0.0
  0
SOLID
  5
9B
330
97
100
AcDbEntity
  8
0
  6
Continuous
 62
     7
370
    18
100
AcDbTrace
 10
14.1025245068
 20
23.4922130925
 30
0.0
 11
14.1825245068
 21
24.0122130925
 31
0.0
 12
14.0225245068
 22
24.0122130925
 32
0.0
 13
14.0225245068
 23
24.0122130925
 33
0.0
  0
LINE
  5
9C
330
97
100
AcDbEntity
  8
0
  6
Continuous
 62
     7
370
     0
100
AcDbLine
 10
13.1080801147
 20
25.4071435699
 30
0.0
 11
12.9557363662
 21
25.4071435699
 31
0.0
  0
LINE
  5
9D
330
97
100
AcDbEntity
  8
0
  6
Continuous
 62
     7
370
     0
100
AcDbLine
 10
12.9557363662
 20
25.4071435699
 30
0.0
 11
12.9557363662
 21
24.6133935461
 31
0.0
  0
LINE
  5
9E
330
97
100
AcDbEntity
  8
0
  6
Continuous
 62
     7
370
     0
100
AcDbLine
 10
12.9557363662
 20
24.6133935461
 30
0.0
 11
13.1080801147
 21
24.6133935461
 31
0.0
  0
LINE
  5
9F
330
97
100
AcDbEntity
  8
0
  6
Continuous
 62
     7
370
     0
100
AcDbLine
 10
15.0969690455
 20
25.4071435699
 30
0.0
 11
15.249312794
 21
25.4071435699
 31
0.0
  0
LINE
  5
A0
330
97
100
AcDbEntity
  8
0
  6
Continuous
 62
     7
370
     0
100
AcDbLine
 10
15.249312794
 20
25.4071435699
 30
0.0
 11
15.249312794
 21
24.6133935461
 31
0.0
  0
LINE
  5
A1
330
97
100
AcDbEntity
  8
0
  6
Continuous
 62
     7
370
     0
100
AcDbLine
 10
15.249312794
 20
24.6133935461
 30
0.0
 11
15.0969690455
 21
24.6133935461
 31
0.0
  0
LINE
  5
A2
330
97
100
AcDbEntity
  8
0
  6
Continuous
 62
     7
370
     0
100
AcDbLine
 10
12.6507731341
 20
27.3297130925
 30
0.0
 11
14.6025245068
 21
27.3297130925
 31
0.0
  0
LINE
  5
A3
330
97
100
AcDbEntity
  8
0
  6
Continuous
 62
     7
370
     0
100
AcDbLine
 10
12.6507731341
 20
23.4922130925
 30
0.0
 11
14.6025245068
 21
23.4922130925
 31
0.0
  0
LINE
  5
A4
330
97
100
AcDbEntity
  8
0
  6
Continuous
 62
     7
370
     0
100
AcDbLine
 10
14.1025245068
 20
27.3297130925
 30
0.0
 11
14.1025245068
 21
26.310094979
 31
0.0
  0
LINE
  5
A5
330
97
100
AcDbEntity
  8
0
  6
Continuous
 62
     7
370
     0
100
AcDbLine
 10
14.1025245068
 20
23.4922130925
 30
0.0
 11
14.1025245068
 21
24.511831206
 31
0.0
  0
MTEXT
  5
A6
330
97
100
AcDbEntity
  8
0
  6
Continuous
 62
     7
370
    18
100
AcDbMText
 10
12.8061703951
 20
26.16087888
 30
0.0
 40
0.5
 41
0.0
 71
     1
 72
     1
  1

  7
SLDTEXTSTYLE0
 73
     1
 44
1.0
  0
MTEXT
  5
A7
330
97
100
AcDbEntity
  8
0
  6
Continuous
 62
     7
370
    18
100
AcDbMText
 10
12.8375940094
 20
26.1532399541
 30
0.0
 40
0.5
 41
0.0
 71
     1
 72
     1
  1
3 13/16"
  7
SLDTEXTSTYLE0
 73
     1
 44
1.0
  0
MTEXT
  5
A8
330
97
100
AcDbEntity
  8
0
  6
Continuous
 62
     7
370
    18
100
AcDbMText
 10
13.1080801147
 20
25.257927471
 30
0.0
 40
0.5
 41
0.0
 71
     1
 72
     1
  1
97mm
  7
SLDTEXTSTYLE0
 73
     1
 44
1.0
  0
MTEXT
  5
A9
330
97
100
AcDbEntity
  8
0
  6
Continuous
 62
     7
370
    18
100
AcDbMText
 10
15.5891564324
 20
26.16087888
 30
0.0
 40
0.5
 41
0.0
 71
     1
 72
     1
  1

  7
SLDTEXTSTYLE0
 73
     1
 44
1.0
  0
ENDBLK
  5
99
330
97
100
AcDbEntity
  8
0
100
AcDbBlockEnd
  0
BLOCK
  5
AC
330
AB
100
AcDbEntity
  8
0
100
AcDbBlockBegin
  2
_D_1
 70
     0
 10
0.0
 20
0.0
 30
0.0
  3
_D_1
  1

  0
SOLID
  5
AE
330
AB
100
AcDbEntity
  8
0
  6
Continuous
 62
     7
370
    18
100
AcDbTrace
 10
6.9807731341
 20
28.9045162421
 30
0.0
 11
7.5007731341
 21
28.8245162421
 31
0.0
 12
7.5007731341
 22
28.9845162421
 32
0.0
 13
7.5007731341
 23
28.9845162421
 33
0.0
  0
SOLID
  5
AF
330
AB
100
AcDbEntity
  8
0
  6
Continuous
 62
     7
370
    18
100
AcDbTrace
 10
12.4507731341
 20
28.9045162421
 30
0.0
 11
11.9307731341
 21
28.9845162421
 31
0.0
 12
11.9307731341
 22
28.8245162421
 32
0.0
 13
11.9307731341
 23
28.8245162421
 33
0.0
  0
LINE
  5
B0
330
AB
100
AcDbEntity
  8
0
  6
Continuous
 62
     7
370
     0
100
AcDbLine
 10
8.5366065192
 20
28.9045161688
 30
0.0
 11
8.3842627708
 21
28.9045161688
 31
0.0
  0
LINE
  5
B1
330
AB
100
AcDbEntity
  8
0
  6
Continuous
 62
     7
370
     0
100
AcDbLine
 10
8.3842627708
 20
28.9045161688
 30
0.0
 11
8.3842627708
 21
28.1107661449
 31
0.0
  0
LINE
  5
B2
330
AB
100
AcDbEntity
  8
0
  6
Continuous
 62
     7
370
     0
100
AcDbLine
 10
8.3842627708
 20
28.1107661449
 30
0.0
 11
8.5366065192
 21
28.1107661449
 31
0.0
  0
LINE
  5
B3
330
AB
100
AcDbEntity
  8
0
  6
Continuous
 62
     7
370
     0
100
AcDbLine
 10
10.8949398222
 20
28.9045161688
 30
0.0
 11
11.0472835707
 21
28.9045161688
 31
0.0
  0
LINE
  5
B4
330
AB
100
AcDbEntity
  8
0
  6
Continuous
 62
     7
370
     0
100
AcDbLine
 10
11.0472835707
 20
28.9045161688
 30
0.0
 11
11.0472835707
 21
28.1107661449
 31
0.0
  0
LINE
  5
B5
330
AB
100
AcDbEntity
  8
0
  6
Continuous
 62
     7
370
     0
100
AcDbLine
 10
11.0472835707
 20
28.1107661449
 30
0.0
 11
10.8949398222
 21
28.1107661449
 31
0.0
  0
LINE
  5
B6
330
AB
100
AcDbEntity
  8
0
  6
Continuous
 62
     7
370
     0
100
AcDbLine
 10
6.9807731341
 20
27.5297130925
 30
0.0
 11
6.9807731341
 21
29.4045162421
 31
0.0
  0
LINE
  5
B7
330
AB
100
AcDbEntity
  8
0
  6
Continuous
 62
     7
370
     0
100
AcDbLine
 10
12.4507731341
 20
27.5297130925
 30
0.0
 11
12.4507731341
 21
29.4045162421
 31
0.0
  0
LINE
  5
B8
330
AB
100
AcDbEntity
  8
0
  6
Continuous
 62
     7
370
     0
100
AcDbLine
 10
6.9807731341
 20
28.9045162421
 30
0.0
 11
8.1305062951
 21
28.9045162421
 31
0.0
  0
LINE
  5
B9
330
AB
100
AcDbEntity
  8
0
  6
Continuous
 62
     7
370
     0
100
AcDbLine
 10
12.4507731341
 20
28.9045162421
 30
0.0
 11
11.3010399731
 21
28.9045162421
 31
0.0
  0
MTEXT
  5
BA
330
AB
100
AcDbEntity
  8
0
  6
Continuous
 62
     7
370
    18
100
AcDbMText
 10
8.4432557676
 20
29.6506125896
 30
0.0
 40
0.5
 41
0.0
 71
     1
 72
     1
  1
%%c
  7
SLDTEXTSTYLE0
 73
     1
 44
1.0
  0
MTEXT
  5
BB
330
AB
100
AcDbEntity
  8
0
  6
Continuous
 62
     7
370
    18
100
AcDbMText
 10
9.19731825
 20
29.6506125896
 30
0.0
 40
0.5
 41
0.0
 71
     1
 72
     1
  1
5 1/2"
  7
SLDTEXTSTYLE0
 73
     1
 44
1.0
  0
MTEXT
  5
BC
330
AB
100
AcDbEntity
  8
0
  6
Continuous
 62
     7
370
    18
100
AcDbMText
 10
8.5366065192
 20
28.7553000698
 30
0.0
 40
0.5
 41
0.0
 71
     1
 72
     1
  1
139mm
  7
SLDTEXTSTYLE0
 73
     1
 44
1.0
  0
ENDBLK
  5
AD
330
AB
100
AcDbEntity
  8
0
100
AcDbBlockEnd
  0
BLOCK
  5
10F
330
10E
100
AcDbEntity
  8
0
100
AcDbBlockBegin
  2
_D_2
 70
     0
 10
0.0
 20
0.0
 30
0.0
  3
_D_2
  1

  0
SOLID
  5
111
330
10E
100
AcDbEntity
  8
0
  6
Continuous
 62
     7
370
    18
100
AcDbTrace
 10
12.5114361521
 20
9.3649383097
 30
0.0
 11
12.4314361521
 21
8.8449383097
 31
0.0
 12
12.5914361521
 22
8.8449383097
 32
0.0
 13
12.5914361521
 23
8.8449383097
 33
0.0
  0
SOLID
  5
112
330
10E
100
AcDbEntity
  8
0
  6
Continuous
 62
     7
370
    18
100
AcDbTrace
 10
12.5114361521
 20
2.6149383097
 30
0.0
 11
12.5914361521
 21
3.1349383097
 31
0.0
 12
12.4314361521
 22
3.1349383097
 32
0.0
 13
12.4314361521
 23
3.1349383097
 33
0.0
  0
LINE
  5
113
330
10E
100
AcDbEntity
  8
0
  6
Continuous
 62
     7
370
     0
100
AcDbLine
 10
11.3322695739
 20
5.9861187872
 30
0.0
 11
11.1799258255
 21
5.9861187872
 31
0.0
  0
LINE
  5
114
330
10E
100
AcDbEntity
  8
0
  6
Continuous
 62
     7
370
     0
100
AcDbLine
 10
11.1799258255
 20
5.9861187872
 30
0.0
 11
11.1799258255
 21
5.1923687633
 31
0.0
  0
LINE
  5
115
330
10E
100
AcDbEntity
  8
0
  6
Continuous
 62
     7
370
     0
100
AcDbLine
 10
11.1799258255
 20
5.1923687633
 30
0.0
 11
11.3322695739
 21
5.1923687633
 31
0.0
  0
LINE
  5
116
330
10E
100
AcDbEntity
  8
0
  6
Continuous
 62
     7
370
     0
100
AcDbLine
 10
13.6906028769
 20
5.9861187872
 30
0.0
 11
13.8429466254
 21
5.9861187872
 31
0.0
  0
LINE
  5
117
330
10E
100
AcDbEntity
  8
0
  6
Continuous
 62
     7
370
     0
100
AcDbLine
 10
13.8429466254
 20
5.9861187872
 30
0.0
 11
13.8429466254
 21
5.1923687633
 31
0.0
  0
LINE
  5
118
330
10E
100
AcDbEntity
  8
0
  6
Continuous
 62
     7
370
     0
100
AcDbLine
 10
13.8429466254
 20
5.1923687633
 30
0.0
 11
13.6906028769
 21
5.1923687633
 31
0.0
  0
LINE
  5
119
330
10E
100
AcDbEntity
  8
0
  6
Continuous
 62
     7
370
     0
100
AcDbLine
 10
13.8862393017
 20
9.3649383097
 30
0.0
 11
12.0114361521
 21
9.3649383097
 31
0.0
  0
LINE
  5
11A
330
10E
100
AcDbEntity
  8
0
  6
Continuous
 62
     7
370
     0
100
AcDbLine
 10
13.8862393017
 20
2.6149383097
 30
0.0
 11
12.0114361521
 21
2.6149383097
 31
0.0
  0
LINE
  5
11B
330
10E
100
AcDbEntity
  8
0
  6
Continuous
 62
     7
370
     0
100
AcDbLine
 10
12.5114361521
 20
9.3649383097
 30
0.0
 11
12.5114361521
 21
6.8890701962
 31
0.0
  0
LINE
  5
11C
330
10E
100
AcDbEntity
  8
0
  6
Continuous
 62
     7
370
     0
100
AcDbLine
 10
12.5114361521
 20
2.6149383097
 30
0.0
 11
12.5114361521
 21
5.0908064232
 31
0.0
  0
MTEXT
  5
11D
330
10E
100
AcDbEntity
  8
0
  6
Continuous
 62
     7
370
    18
100
AcDbMText
 10
11.0303598543
 20
6.7398540972
 30
0.0
 40
0.5
 41
0.0
 71
     1
 72
     1
  1

  7
SLDTEXTSTYLE0
 73
     1
 44
1.0
  0
MTEXT
  5
11E
330
10E
100
AcDbEntity
  8
0
  6
Continuous
 62
     7
370
    18
100
AcDbMText
 10
11.6159501002
 20
6.7322151713
 30
0.0
 40
0.5
 41
0.0
 71
     1
 72
     1
  1
6 3/4"
  7
SLDTEXTSTYLE0
 73
     1
 44
1.0
  0
MTEXT
  5
11F
330
10E
100
AcDbEntity
  8
0
  6
Continuous
 62
     7
370
    18
100
AcDbMText
 10
11.3322695739
 20
5.8369026882
 30
0.0
 40
0.5
 41
0.0
 71
     1
 72
     1
  1
171mm
  7
SLDTEXTSTYLE0
 73
     1
 44
1.0
  0
MTEXT
  5
120
330
10E
100
AcDbEntity
  8
0
  6
Continuous
 62
     7
370
    18
100
AcDbMText
 10
14.1827902638
 20
6.7398540972
 30
0.0
 40
0.5
 41
0.0
 71
     1
 72
     1
  1

  7
SLDTEXTSTYLE0
 73
     1
 44
1.0
  0
ENDBLK
  5
110
330
10E
100
AcDbEntity
  8
0
100
AcDbBlockEnd
  0
BLOCK
  5
129
330
128
100
AcDbEntity
  8
0
100
AcDbBlockBegin
  2
_D_3
 70
     0
 10
0.0
 20
0.0
 30
0.0
  3
_D_3
  1

  0
SOLID
  5
12B
330
128
100
AcDbEntity
  8
0
  6
Continuous
 62
     7
370
    18
100
AcDbTrace
 10
23.4949592907
 20
8.3949383097
 30
0.0
 11
23.4149592907
 21
7.8749383097
 31
0.0
 12
23.5749592907
 22
7.8749383097
 32
0.0
 13
23.5749592907
 23
7.8749383097
 33
0.0
  0
SOLID
  5
12C
330
128
100
AcDbEntity
  8
0
  6
Continuous
 62
     7
370
    18
100
AcDbTrace
 10
23.4949592907
 20
2.5849383097
 30
0.0
 11
23.5749592907
 21
3.1049383097
 31
0.0
 12
23.4149592907
 22
3.1049383097
 32
0.0
 13
23.4149592907
 23
3.1049383097
 33
0.0
  0
LINE
  5
12D
330
128
100
AcDbEntity
  8
0
  6
Continuous
 62
     7
370
     0
100
AcDbLine
 10
22.3157927125
 20
5.4861187872
 30
0.0
 11
22.1634489641
 21
5.4861187872
 31
0.0
  0
LINE
  5
12E
330
128
100
AcDbEntity
  8
0
  6
Continuous
 62
     7
370
     0
100
AcDbLine
 10
22.1634489641
 20
5.4861187872
 30
0.0
 11
22.1634489641
 21
4.6923687633
 31
0.0
  0
LINE
  5
12F
330
128
100
AcDbEntity
  8
0
  6
Continuous
 62
     7
370
     0
100
AcDbLine
 10
22.1634489641
 20
4.6923687633
 30
0.0
 11
22.3157927125
 21
4.6923687633
 31
0.0
  0
LINE
  5
130
330
128
100
AcDbEntity
  8
0
  6
Continuous
 62
     7
370
     0
100
AcDbLine
 10
24.6741260155
 20
5.4861187872
 30
0.0
 11
24.826469764
 21
5.4861187872
 31
0.0
  0
LINE
  5
131
330
128
100
AcDbEntity
  8
0
  6
Continuous
 62
     7
370
     0
100
AcDbLine
 10
24.826469764
 20
5.4861187872
 30
0.0
 11
24.826469764
 21
4.6923687633
 31
0.0
  0
LINE
  5
132
330
128
100
AcDbEntity
  8
0
  6
Continuous
 62
     7
370
     0
100
AcDbLine
 10
24.826469764
 20
4.6923687633
 30
0.0
 11
24.6741260155
 21
4.6923687633
 31
0.0
  0
LINE
  5
133
330
128
100
AcDbEntity
  8
0
  6
Continuous
 62
     7
370
     0
100
AcDbLine
 10
25.3036967366
 20
8.3949383097
 30
0.0
 11
22.9949592907
 21
8.3949383097
 31
0.0
  0
LINE
  5
134
330
128
100
AcDbEntity
  8
0
  6
Continuous
 62
     7
370
     0
100
AcDbLine
 10
25.3036967366
 20
2.5849383097
 30
0.0
 11
22.9949592907
 21
2.5849383097
 31
0.0
  0
LINE
  5
135
330
128
100
AcDbEntity
  8
0
  6
Continuous
 62
     7
370
     0
100
AcDbLine
 10
23.4949592907
 20
8.3949383097
 30
0.0
 11
23.4949592907
 21
6.3890701962
 31
0.0
  0
LINE
  5
136
330
128
100
AcDbEntity
  8
0
  6
Continuous
 62
     7
370
     0
100
AcDbLine
 10
23.4949592907
 20
2.5849383097
 30
0.0
 11
23.4949592907
 21
4.5908064232
 31
0.0
  0
MTEXT
  5
137
330
128
100
AcDbEntity
  8
0
  6
Continuous
 62
     7
370
    18
100
AcDbMText
 10
22.0138829929
 20
6.2398540972
 30
0.0
 40
0.5
 41
0.0
 71
     1
 72
     1
  1

  7
SLDTEXTSTYLE0
 73
     1
 44
1.0
  0
MTEXT
  5
138
330
128
100
AcDbEntity
  8
0
  6
Continuous
 62
     7
370
    18
100
AcDbMText
 10
22.2300287933
 20
6.2322151713
 30
0.0
 40
0.5
 41
0.0
 71
     1
 72
     1
  1
5 13/16"
  7
SLDTEXTSTYLE0
 73
     1
 44
1.0
  0
MTEXT
  5
139
330
128
100
AcDbEntity
  8
0
  6
Continuous
 62
     7
370
    18
100
AcDbMText
 10
22.3157927125
 20
5.3369026882
 30
0.0
 40
0.5
 41
0.0
 71
     1
 72
     1
  1
148mm
  7
SLDTEXTSTYLE0
 73
     1
 44
1.0
  0
MTEXT
  5
13A
330
128
100
AcDbEntity
  8
0
  6
Continuous
 62
     7
370
    18
100
AcDbMText
 10
25.1663134024
 20
6.2398540972
 30
0.0
 40
0.5
 41
0.0
 71
     1
 72
     1
  1

  7
SLDTEXTSTYLE0
 73
     1
 44
1.0
  0
ENDBLK
  5
12A
330
128
100
AcDbEntity
  8
0
100
AcDbBlockEnd
  0
BLOCK
  5
150
330
14F
100
AcDbEntity
  8
0
100
AcDbBlockBegin
  2
_D_4
 70
     0
 10
0.0
 20
0.0
 30
0.0
  3
_D_4
  1

  0
SOLID
  5
152
330
14F
100
AcDbEntity
  8
0
  6
Continuous
 62
     7
370
    18
100
AcDbTrace
 10
25.296930456
 20
23.7690018344
 30
0.0
 11
25.7112315234
 21
24.0932773741
 31
0.0
 12
25.5946029881
 22
24.202811774
 32
0.0
 13
25.5946029881
 23
24.202811774
 33
0.0
  0
LINE
  5
153
330
14F
100
AcDbEntity
  8
0
  6
Continuous
 62
     7
370
     0
100
AcDbLine
 10
27.7131831731
 20
25.0261700359
 30
0.0
 11
27.5608394247
 21
25.0261700359
 31
0.0
  0
LINE
  5
154
330
14F
100
AcDbEntity
  8
0
  6
Continuous
 62
     7
370
     0
100
AcDbLine
 10
27.5608394247
 20
25.0261700359
 30
0.0
 11
27.5608394247
 21
24.232420012
 31
0.0
  0
LINE
  5
155
330
14F
100
AcDbEntity
  8
0
  6
Continuous
 62
     7
370
     0
100
AcDbLine
 10
27.5608394247
 20
24.232420012
 30
0.0
 11
27.7131831731
 21
24.232420012
 31
0.0
  0
LINE
  5
156
330
14F
100
AcDbEntity
  8
0
  6
Continuous
 62
     7
370
     0
100
AcDbLine
 10
30.0715164761
 20
25.0261700359
 30
0.0
 11
30.2238602246
 21
25.0261700359
 31
0.0
  0
LINE
  5
157
330
14F
100
AcDbEntity
  8
0
  6
Continuous
 62
     7
370
     0
100
AcDbLine
 10
30.2238602246
 20
25.0261700359
 30
0.0
 11
30.2238602246
 21
24.232420012
 31
0.0
  0
LINE
  5
158
330
14F
100
AcDbEntity
  8
0
  6
Continuous
 62
     7
370
     0
100
AcDbLine
 10
30.2238602246
 20
24.232420012
 30
0.0
 11
30.0715164761
 21
24.232420012
 31
0.0
  0
LINE
  5
159
330
14F
100
AcDbEntity
  8
0
  6
Continuous
 62
     7
370
     0
100
AcDbLine
 10
25.296930456
 20
23.7690018344
 30
0.0
 11
26.4084956763
 21
24.9525589962
 31
0.0
  0
LINE
  5
15A
330
14F
100
AcDbEntity
  8
0
  6
Continuous
 62
     7
370
     0
100
AcDbLine
 10
26.4084956763
 20
24.9525589962
 30
0.0
 11
27.4084956763
 21
24.9525589962
 31
0.0
  0
MTEXT
  5
15B
330
14F
100
AcDbEntity
  8
0
  6
Continuous
 62
     7
370
    18
100
AcDbMText
 10
27.4351102355
 20
25.77226642
 30
0.0
 40
0.5
 41
0.0
 71
     1
 72
     1
  1
%%c
  7
SLDTEXTSTYLE0
 73
     1
 44
1.0
  0
MTEXT
  5
15C
330
14F
100
AcDbEntity
  8
0
  6
Continuous
 62
     7
370
    18
100
AcDbMText
 10
28.1891727178
 20
25.77226642
 30
0.0
 40
0.5
 41
0.0
 71
     1
 72
     1
  1
5 1/16"
  7
SLDTEXTSTYLE0
 73
     1
 44
1.0
  0
MTEXT
  5
15D
330
14F
100
AcDbEntity
  8
0
  6
Continuous
 62
     7
370
    18
100
AcDbMText
 10
27.7131831731
 20
24.8769539369
 30
0.0
 40
0.5
 41
0.0
 71
     1
 72
     1
  1
129mm
  7
SLDTEXTSTYLE0
 73
     1
 44
1.0
  0
ENDBLK
  5
151
330
14F
100
AcDbEntity
  8
0
100
AcDbBlockEnd
  0
BLOCK
  5
161
330
160
100
AcDbEntity
  8
0
100
AcDbBlockBegin
  2
_D_5
 70
     0
 10
0.0
 20
0.0
 30
0.0
  3
_D_5
  1

  0
SOLID
  5
163
330
160
100
AcDbEntity
  8
0
  6
Continuous
 62
     7
370
    18
100
AcDbTrace
 10
24.4402438589
 20
21.0318180399
 30
0.0
 11
24.7513708427
 21
20.6075539712
 31
0.0
 12
24.8645079277
 22
20.7206910562
 32
0.0
 13
24.8645079277
 23
20.7206910562
 33
0.0
  0
LINE
  5
164
330
160
100
AcDbEntity
  8
0
  6
Continuous
 62
     7
370
     0
100
AcDbLine
 10
27.8979053592
 20
18.8788439632
 30
0.0
 11
27.7455616108
 21
18.8788439632
 31
0.0
  0
LINE
  5
165
330
160
100
AcDbEntity
  8
0
  6
Continuous
 62
     7
370
     0
100
AcDbLine
 10
27.7455616108
 20
18.8788439632
 30
0.0
 11
27.7455616108
 21
18.0850939393
 31
0.0
  0
LINE
  5
166
330
160
100
AcDbEntity
  8
0
  6
Continuous
 62
     7
370
     0
100
AcDbLine
 10
27.7455616108
 20
18.0850939393
 30
0.0
 11
27.8979053592
 21
18.0850939393
 31
0.0
  0
LINE
  5
167
330
160
100
AcDbEntity
  8
0
  6
Continuous
 62
     7
370
     0
100
AcDbLine
 10
29.8867942901
 20
18.8788439632
 30
0.0
 11
30.0391380385
 21
18.8788439632
 31
0.0
  0
LINE
  5
168
330
160
100
AcDbEntity
  8
0
  6
Continuous
 62
     7
370
     0
100
AcDbLine
 10
30.0391380385
 20
18.8788439632
 30
0.0
 11
30.0391380385
 21
18.0850939393
 31
0.0
  0
LINE
  5
169
330
160
100
AcDbEntity
  8
0
  6
Continuous
 62
     7
370
     0
100
AcDbLine
 10
30.0391380385
 20
18.0850939393
 30
0.0
 11
29.8867942901
 21
18.0850939393
 31
0.0
  0
LINE
  5
16A
330
160
100
AcDbEntity
  8
0
  6
Continuous
 62
     7
370
     0
100
AcDbLine
 10
24.4402438589
 20
21.0318180399
 30
0.0
 11
26.5932178623
 21
18.8788440365
 31
0.0
  0
LINE
  5
16B
330
160
100
AcDbEntity
  8
0
  6
Continuous
 62
     7
370
     0
100
AcDbLine
 10
26.5932178623
 20
18.8788440365
 30
0.0
 11
27.5932178623
 21
18.8788440365
 31
0.0
  0
MTEXT
  5
16C
330
160
100
AcDbEntity
  8
0
  6
Continuous
 62
     7
370
    18
100
AcDbMText
 10
27.6198324215
 20
19.624940384
 30
0.0
 40
0.5
 41
0.0
 71
     1
 72
     1
  1
%%c
  7
SLDTEXTSTYLE0
 73
     1
 44
1.0
  0
MTEXT
  5
16D
330
160
100
AcDbEntity
  8
0
  6
Continuous
 62
     7
370
    18
100
AcDbMText
 10
28.3738949039
 20
19.624940384
 30
0.0
 40
0.5
 41
0.0
 71
     1
 72
     1
  1
2 1/2"
  7
SLDTEXTSTYLE0
 73
     1
 44
1.0
  0
MTEXT
  5
16E
330
160
100
AcDbEntity
  8
0
  6
Continuous
 62
     7
370
    18
100
AcDbMText
 10
27.8979053592
 20
18.7296278642
 30
0.0
 40
0.5
 41
0.0
 71
     1
 72
     1
  1
64mm
  7
SLDTEXTSTYLE0
 73
     1
 44
1.0
  0
ENDBLK
  5
162
330
160
100
AcDbEntity
  8
0
100
AcDbBlockEnd
  0
BLOCK
  5
171
330
170
100
AcDbEntity
  8
0
100
AcDbBlockBegin
  2
_D_6
 70
     0
 10
0.0
 20
0.0
 30
0.0
  3
_D_6
  1

  0
SOLID
  5
173
330
170
100
AcDbEntity
  8
0
  6
Continuous
 62
     7
370
    18
100
AcDbTrace
 10
21.8063603825
 20
26.9778865557
 30
0.0
 11
22.3263603825
 21
26.8978865557
 31
0.0
 12
22.3263603825
 22
27.0578865557
 32
0.0
 13
22.3263603825
 23
27.0578865557
 33
0.0
  0
SOLID
  5
174
330
170
100
AcDbEntity
  8
0
  6
Continuous
 62
     7
370
    18
100
AcDbTrace
 10
25.3063603825
 20
26.9778865557
 30
0.0
 11
24.7863603825
 21
27.0578865557
 31
0.0
 12
24.7863603825
 22
26.8978865557
 32
0.0
 13
24.7863603825
 23
26.8978865557
 33
0.0
  0
LINE
  5
175
330
170
100
AcDbEntity
  8
0
  6
Continuous
 62
     7
370
     0
100
AcDbLine
 10
25.9340802312
 20
26.9740670332
 30
0.0
 11
25.7817364828
 21
26.9740670332
 31
0.0
  0
LINE
  5
176
330
170
100
AcDbEntity
  8
0
  6
Continuous
 62
     7
370
     0
100
AcDbLine
 10
25.7817364828
 20
26.9740670332
 30
0.0
 11
25.7817364828
 21
26.1803170093
 31
0.0
  0
LINE
  5
177
330
170
100
AcDbEntity
  8
0
  6
Continuous
 62
     7
370
     0
100
AcDbLine
 10
25.7817364828
 20
26.1803170093
 30
0.0
 11
25.9340802312
 21
26.1803170093
 31
0.0
  0
LINE
  5
178
330
170
100
AcDbEntity
  8
0
  6
Continuous
 62
     7
370
     0
100
AcDbLine
 10
27.9229691621
 20
26.9740670332
 30
0.0
 11
28.0753129105
 21
26.9740670332
 31
0.0
  0
LINE
  5
179
330
170
100
AcDbEntity
  8
0
  6
Continuous
 62
     7
370
     0
100
AcDbLine
 10
28.0753129105
 20
26.9740670332
 30
0.0
 11
28.0753129105
 21
26.1803170093
 31
0.0
  0
LINE
  5
17A
330
170
100
AcDbEntity
  8
0
  6
Continuous
 62
     7
370
     0
100
AcDbLine
 10
28.0753129105
 20
26.1803170093
 30
0.0
 11
27.9229691621
 21
26.1803170093
 31
0.0
  0
LINE
  5
17B
330
170
100
AcDbEntity
  8
0
  6
Continuous
 62
     7
370
     0
100
AcDbLine
 10
21.8063603825
 20
22.3172665164
 30
0.0
 11
21.8063603825
 21
27.4778865557
 31
0.0
  0
LINE
  5
17C
330
170
100
AcDbEntity
  8
0
  6
Continuous
 62
     7
370
     0
100
AcDbLine
 10
25.3063603825
 20
22.3172665164
 30
0.0
 11
25.3063603825
 21
27.4778865557
 31
0.0
  0
LINE
  5
17D
330
170
100
AcDbEntity
  8
0
  6
Continuous
 62
     7
370
     0
100
AcDbLine
 10
21.8063603825
 20
26.9778865557
 30
0.0
 11
25.3063603825
 21
26.9778865557
 31
0.0
  0
LINE
  5
17E
330
170
100
AcDbEntity
  8
0
  6
Continuous
 62
     7
370
     0
100
AcDbLine
 10
25.3063603825
 20
26.9778865557
 30
0.0
 11
25.5279800071
 21
26.9778865557
 31
0.0
  0
MTEXT
  5
17F
330
170
100
AcDbEntity
  8
0
  6
Continuous
 62
     7
370
    18
100
AcDbMText
 10
26.0330385714
 20
27.7201634173
 30
0.0
 40
0.5
 41
0.0
 71
     1
 72
     1
  1
3 1/2"
  7
SLDTEXTSTYLE0
 73
     1
 44
1.0
  0
MTEXT
  5
180
330
170
100
AcDbEntity
  8
0
  6
Continuous
 62
     7
370
    18
100
AcDbMText
 10
25.9340802312
 20
26.8248509342
 30
0.0
 40
0.5
 41
0.0
 71
     1
 72
     1
  1
89mm
  7
SLDTEXTSTYLE0
 73
     1
 44
1.0
  0
MTEXT
  5
181
330
170
100
AcDbEntity
  8
0
  6
Continuous
 62
     7
370
    18
100
AcDbMText
 10
28.2276565856
 20
27.7278023432
 30
0.0
 40
0.5
 41
0.0
 71
     1
 72
     1
  1
O.C.
  7
SLDTEXTSTYLE0
 73
     1
 44
1.0
  0
ENDBLK
  5
172
330
170
100
AcDbEntity
  8
0
100
AcDbBlockEnd
  0
BLOCK
  5
184
330
183
100
AcDbEntity
  8
0
100
AcDbBlockBegin
  2
_D_7
 70
     0
 10
0.0
 20
0.0
 30
0.0
  3
_D_7
  1

  0
SOLID
  5
186
330
183
100
AcDbEntity
  8
0
  6
Continuous
 62
     7
370
    18
100
AcDbTrace
 10
18.387467933
 20
24.0563265164
 30
0.0
 11
18.307467933
 21
23.5363265164
 31
0.0
 12
18.467467933
 22
23.5363265164
 32
0.0
 13
18.467467933
 23
23.5363265164
 33
0.0
  0
SOLID
  5
187
330
183
100
AcDbEntity
  8
0
  6
Continuous
 62
     7
370
    18
100
AcDbTrace
 10
18.387467933
 20
19.7750765164
 30
0.0
 11
18.467467933
 21
20.2950765164
 31
0.0
 12
18.307467933
 22
20.2950765164
 32
0.0
 13
18.307467933
 23
20.2950765164
 33
0.0
  0
LINE
  5
188
330
183
100
AcDbEntity
  8
0
  6
Continuous
 62
     7
370
     0
100
AcDbLine
 10
16.4631624461
 20
21.9118819938
 30
0.0
 11
16.3108186976
 21
21.9118819938
 31
0.0
  0
LINE
  5
189
330
183
100
AcDbEntity
  8
0
  6
Continuous
 62
     7
370
     0
100
AcDbLine
 10
16.3108186976
 20
21.9118819938
 30
0.0
 11
16.3108186976
 21
21.11813197
 31
0.0
  0
LINE
  5
18A
330
183
100
AcDbEntity
  8
0
  6
Continuous
 62
     7
370
     0
100
AcDbLine
 10
16.3108186976
 20
21.11813197
 30
0.0
 11
16.4631624461
 21
21.11813197
 31
0.0
  0
LINE
  5
18B
330
183
100
AcDbEntity
  8
0
  6
Continuous
 62
     7
370
     0
100
AcDbLine
 10
18.8214957491
 20
21.9118819938
 30
0.0
 11
18.9738394975
 21
21.9118819938
 31
0.0
  0
LINE
  5
18C
330
183
100
AcDbEntity
  8
0
  6
Continuous
 62
     7
370
     0
100
AcDbLine
 10
18.9738394975
 20
21.9118819938
 30
0.0
 11
18.9738394975
 21
21.11813197
 31
0.0
  0
LINE
  5
18D
330
183
100
AcDbEntity
  8
0
  6
Continuous
 62
     7
370
     0
100
AcDbLine
 10
18.9738394975
 20
21.11813197
 30
0.0
 11
18.8214957491
 21
21.11813197
 31
0.0
  0
LINE
  5
18E
330
183
100
AcDbEntity
  8
0
  6
Continuous
 62
     7
370
     0
100
AcDbLine
 10
23.3563603825
 20
24.0563265164
 30
0.0
 11
17.887467933
 21
24.0563265164
 31
0.0
  0
LINE
  5
18F
330
183
100
AcDbEntity
  8
0
  6
Continuous
 62
     7
370
     0
100
AcDbLine
 10
23.3563603825
 20
19.7750765164
 30
0.0
 11
17.887467933
 21
19.7750765164
 31
0.0
  0
LINE
  5
190
330
183
100
AcDbEntity
  8
0
  6
Continuous
 62
     7
370
     0
100
AcDbLine
 10
18.387467933
 20
24.0563265164
 30
0.0
 11
18.387467933
 21
22.8148334028
 31
0.0
  0
LINE
  5
191
330
183
100
AcDbEntity
  8
0
  6
Continuous
 62
     7
370
     0
100
AcDbLine
 10
18.387467933
 20
19.7750765164
 30
0.0
 11
18.387467933
 21
21.0165696299
 31
0.0
  0
MTEXT
  5
192
330
183
100
AcDbEntity
  8
0
  6
Continuous
 62
     7
370
    18
100
AcDbMText
 10
16.5621207129
 20
22.6579783779
 30
0.0
 40
0.5
 41
0.0
 71
     1
 72
     1
  1
4 5/16"
  7
SLDTEXTSTYLE0
 73
     1
 44
1.0
  0
MTEXT
  5
193
330
183
100
AcDbEntity
  8
0
  6
Continuous
 62
     7
370
    18
100
AcDbMText
 10
16.4631624461
 20
21.7626658948
 30
0.0
 40
0.5
 41
0.0
 71
     1
 72
     1
  1
109mm
  7
SLDTEXTSTYLE0
 73
     1
 44
1.0
  0
MTEXT
  5
194
330
183
100
AcDbEntity
  8
0
  6
Continuous
 62
     7
370
    18
100
AcDbMText
 10
19.1261831726
 20
22.6656173039
 30
0.0
 40
0.5
 41
0.0
 71
     1
 72
     1
  1
O.C.
  7
SLDTEXTSTYLE0
 73
     1
 44
1.0
  0
ENDBLK
  5
185
330
183
100
AcDbEntity
  8
0
100
AcDbBlockEnd
  0
BLOCK
  5
197
330
196
100
AcDbEntity
  8
0
100
AcDbBlockBegin
  2
SW_CENTERMARKSYMBOL_0
 70
     0
 10
0.0
 20
0.0
 30
0.0
  3
SW_CENTERMARKSYMBOL_0
  1

  0
LINE
  5
199
330
196
100
AcDbEntity
  8
0
  6
Continuous
 62
     0
370
    18
100
AcDbLine
 10
0.0
 20
0.0
 30
0.0
 11
0.0
 21
0.1
 31
0.0
  0
LINE
  5
19A
330
196
100
AcDbEntity
  8
0
  6
Continuous
 62
     0
370
    18
100
AcDbLine
 10
0.0
 20
0.0
 30
0.0
 11
-0.1
 21
0.0
 31
0.0
  0
LINE
  5
19B
330
196
100
AcDbEntity
  8
0
  6
Continuous
 62
     0
370
    18
100
AcDbLine
 10
0.0
 20
0.0
 30
0.0
 11
0.0
 21
-0.1
 31
0.0
  0
LINE
  5
19C
330
196
100
AcDbEntity
  8
0
  6
Continuous
 62
     0
370
    18
100
AcDbLine
 10
0.0
 20
0.0
 30
0.0
 11
0.1
 21
0.0
 31
0.0
  0
LINE
  5
19D
330
196
100
AcDbEntity
  8
0
  6
Continuous
 62
     0
370
    18
100
AcDbLine
 10
0.0
 20
0.2
 30
0.0
 11
0.0
 21
0.2005
 31
0.0
  0
LINE
  5
19E
330
196
100
AcDbEntity
  8
0
  6
Continuous
 62
     0
370
    18
100
AcDbLine
 10
-0.2
 20
0.0
 30
0.0
 11
-0.2005
 21
0.0
 31
0.0
  0
LINE
  5
19F
330
196
100
AcDbEntity
  8
0
  6
Continuous
 62
     0
370
    18
100
AcDbLine
 10
0.0
 20
-0.2
 30
0.0
 11
0.0
 21
-0.2005
 31
0.0
  0
LINE
  5
1A0
330
196
100
AcDbEntity
  8
0
  6
Continuous
 62
     0
370
    18
100
AcDbLine
 10
0.2
 20
0.0
 30
0.0
 11
0.2005
 21
0.0
 31
0.0
  0
LINE
  5
1A1
330
196
100
AcDbEntity
  8
0
  6
Continuous
 62
     0
370
    18
100
AcDbLine
 10
0.0
 20
4.28125
 30
0.0
 11
0.0
 21
4.38125
 31
0.0
  0
LINE
  5
1A2
330
196
100
AcDbEntity
  8
0
  6
Continuous
 62
     0
370
    18
100
AcDbLine
 10
0.0
 20
4.28125
 30
0.0
 11
-0.1
 21
4.28125
 31
0.0
  0
LINE
  5
1A3
330
196
100
AcDbEntity
  8
0
  6
Continuous
 62
     0
370
    18
100
AcDbLine
 10
0.0
 20
4.28125
 30
0.0
 11
0.0
 21
4.18125
 31
0.0
  0
LINE
  5
1A4
330
196
100
AcDbEntity
  8
0
  6
Continuous
 62
     0
370
    18
100
AcDbLine
 10
0.0
 20
4.28125
 30
0.0
 11
0.1
 21
4.28125
 31
0.0
  0
LINE
  5
1A5
330
196
100
AcDbEntity
  8
0
  6
Continuous
 62
     0
370
    18
100
AcDbLine
 10
0.0
 20
4.48125
 30
0.0
 11
0.0
 21
4.48175
 31
0.0
  0
LINE
  5
1A6
330
196
100
AcDbEntity
  8
0
  6
Continuous
 62
     0
370
    18
100
AcDbLine
 10
-0.2
 20
4.28125
 30
0.0
 11
-0.2005
 21
4.28125
 31
0.0
  0
LINE
  5
1A7
330
196
100
AcDbEntity
  8
0
  6
Continuous
 62
     0
370
    18
100
AcDbLine
 10
0.0
 20
4.08125
 30
0.0
 11
0.0
 21
4.08075
 31
0.0
  0
LINE
  5
1A8
330
196
100
AcDbEntity
  8
0
  6
Continuous
 62
     0
370
    18
100
AcDbLine
 10
0.2
 20
4.28125
 30
0.0
 11
0.2005
 21
4.28125
 31
0.0
  0
ENDBLK
  5
198
330
196
100
AcDbEntity
  8
0
100
AcDbBlockEnd
  0
BLOCK
  5
1AB
330
1AA
100
AcDbEntity
  8
0
100
AcDbBlockBegin
  2
SW_CENTERMARKSYMBOL_1
 70
     0
 10
0.0
 20
0.0
 30
0.0
  3
SW_CENTERMARKSYMBOL_1
  1

  0
LINE
  5
1AD
330
1AA
100
AcDbEntity
  8
0
  6
Continuous
 62
     0
370
    18
100
AcDbLine
 10
0.0
 20
0.0
 30
0.0
 11
0.0
 21
0.1
 31
0.0
  0
LINE
  5
1AE
330
1AA
100
AcDbEntity
  8
0
  6
Continuous
 62
     0
370
    18
100
AcDbLine
 10
0.0
 20
0.0
 30
0.0
 11
-0.1
 21
0.0
 31
0.0
  0
LINE
  5
1AF
330
1AA
100
AcDbEntity
  8
0
  6
Continuous
 62
     0
370
    18
100
AcDbLine
 10
0.0
 20
0.0
 30
0.0
 11
0.0
 21
-0.1
 31
0.0
  0
LINE
  5
1B0
330
1AA
100
AcDbEntity
  8
0
  6
Continuous
 62
     0
370
    18
100
AcDbLine
 10
0.0
 20
0.0
 30
0.0
 11
0.1
 21
0.0
 31
0.0
  0
LINE
  5
1B1
330
1AA
100
AcDbEntity
  8
0
  6
Continuous
 62
     0
370
    18
100
AcDbLine
 10
0.0
 20
0.2
 30
0.0
 11
0.0
 21
1.35
 31
0.0
  0
LINE
  5
1B2
330
1AA
100
AcDbEntity
  8
0
  6
Continuous
 62
     0
370
    18
100
AcDbLine
 10
-0.2
 20
0.0
 30
0.0
 11
-1.35
 21
0.0
 31
0.0
  0
LINE
  5
1B3
330
1AA
100
AcDbEntity
  8
0
  6
Continuous
 62
     0
370
    18
100
AcDbLine
 10
0.0
 20
-0.2
 30
0.0
 11
0.0
 21
-1.35
 31
0.0
  0
LINE
  5
1B4
330
1AA
100
AcDbEntity
  8
0
  6
Continuous
 62
     0
370
    18
100
AcDbLine
 10
0.2
 20
0.0
 30
0.0
 11
1.35
 21
0.0
 31
0.0
  0
ENDBLK
  5
1AC
330
1AA
100
AcDbEntity
  8
0
100
AcDbBlockEnd
  0
BLOCK
  5
1B7
330
1B6
100
AcDbEntity
  8
0
100
AcDbBlockBegin
  2
SW_CENTERMARKSYMBOL_2
 70
     0
 10
0.0
 20
0.0
 30
0.0
  3
SW_CENTERMARKSYMBOL_2
  1

  0
LINE
  5
1B9
330
1B6
100
AcDbEntity
  8
0
  6
Continuous
 62
     0
370
    18
100
AcDbLine
 10
0.0
 20
0.0
 30
0.0
 11
0.0
 21
0.1
 31
0.0
  0
LINE
  5
1BA
330
1B6
100
AcDbEntity
  8
0
  6
Continuous
 62
     0
370
    18
100
AcDbLine
 10
0.0
 20
0.0
 30
0.0
 11
-0.1
 21
0.0
 31
0.0
  0
LINE
  5
1BB
330
1B6
100
AcDbEntity
  8
0
  6
Continuous
 62
     0
370
    18
100
AcDbLine
 10
0.0
 20
0.0
 30
0.0
 11
0.0
 21
-0.1
 31
0.0
  0
LINE
  5
1BC
330
1B6
100
AcDbEntity
  8
0
  6
Continuous
 62
     0
370
    18
100
AcDbLine
 10
0.0
 20
0.0
 30
0.0
 11
0.1
 21
0.0
 31
0.0
  0
LINE
  5
1BD
330
1B6
100
AcDbEntity
  8
0
  6
Continuous
 62
     0
370
    18
100
AcDbLine
 10
0.0
 20
0.2
 30
0.0
 11
0.0
 21
0.201565
 31
0.0
  0
LINE
  5
1BE
330
1B6
100
AcDbEntity
  8
0
  6
Continuous
 62
     0
370
    18
100
AcDbLine
 10
-0.2
 20
0.0
 30
0.0
 11
-0.201565
 21
0.0
 31
0.0
  0
LINE
  5
1BF
330
1B6
100
AcDbEntity
  8
0
  6
Continuous
 62
     0
370
    18
100
AcDbLine
 10
0.0
 20
-0.2
 30
0.0
 11
0.0
 21
-0.201565
 31
0.0
  0
LINE
  5
1C0
330
1B6
100
AcDbEntity
  8
0
  6
Continuous
 62
     0
370
    18
100
AcDbLine
 10
0.2
 20
0.0
 30
0.0
 11
0.201565
 21
0.0
 31
0.0
  0
ENDBLK
  5
1B8
330
1B6
100
AcDbEntity
  8
0
100
AcDbBlockEnd
  0
BLOCK
  5
1C3
330
1C2
100
AcDbEntity
  8
0
100
AcDbBlockBegin
  2
SW_CENTERMARKSYMBOL_3
 70
     0
 10
0.0
 20
0.0
 30
0.0
  3
SW_CENTERMARKSYMBOL_3
  1

  0
LINE
  5
1C5
330
1C2
100
AcDbEntity
  8
0
  6
Continuous
 62
     0
370
    18
100
AcDbLine
 10
0.0
 20
0.0
 30
0.0
 11
0.0
 21
0.1
 31
0.0
  0
LINE
  5
1C6
330
1C2
100
AcDbEntity
  8
0
  6
Continuous
 62
     0
370
    18
100
AcDbLine
 10
0.0
 20
0.0
 30
0.0
 11
-0.1
 21
0.0
 31
0.0
  0
LINE
  5
1C7
330
1C2
100
AcDbEntity
  8
0
  6
Continuous
 62
     0
370
    18
100
AcDbLine
 10
0.0
 20
0.0
 30
0.0
 11
0.0
 21
-0.1
 31
0.0
  0
LINE
  5
1C8
330
1C2
100
AcDbEntity
  8
0
  6
Continuous
 62
     0
370
    18
100
AcDbLine
 10
0.0
 20
0.0
 30
0.0
 11
0.1
 21
0.0
 31
0.0
  0
LINE
  5
1C9
330
1C2
100
AcDbEntity
  8
0
  6
Continuous
 62
     0
370
    18
100
AcDbLine
 10
0.0
 20
0.2
 30
0.0
 11
0.0
 21
0.201565
 31
0.0
  0
LINE
  5
1CA
330
1C2
100
AcDbEntity
  8
0
  6
Continuous
 62
     0
370
    18
100
AcDbLine
 10
-0.2
 20
0.0
 30
0.0
 11
-0.201565
 21
0.0
 31
0.0
  0
LINE
  5
1CB
330
1C2
100
AcDbEntity
  8
0
  6
Continuous
 62
     0
370
    18
100
AcDbLine
 10
0.0
 20
-0.2
 30
0.0
 11
0.0
 21
-0.201565
 31
0.0
  0
LINE
  5
1CC
330
1C2
100
AcDbEntity
  8
0
  6
Continuous
 62
     0
370
    18
100
AcDbLine
 10
0.2
 20
0.0
 30
0.0
 11
0.201565
 21
0.0
 31
0.0
  0
ENDBLK
  5
1C4
330
1C2
100
AcDbEntity
  8
0
100
AcDbBlockEnd
  0
BLOCK
  5
1CF
330
1CE
100
AcDbEntity
  8
0
100
AcDbBlockBegin
  2
SW_CENTERMARKSYMBOL_4
 70
     0
 10
0.0
 20
0.0
 30
0.0
  3
SW_CENTERMARKSYMBOL_4
  1

  0
LINE
  5
1D1
330
1CE
100
AcDbEntity
  8
0
  6
Continuous
 62
     0
370
    18
100
AcDbLine
 10
0.0
 20
0.0
 30
0.0
 11
0.0
 21
0.1
 31
0.0
  0
LINE
  5
1D2
330
1CE
100
AcDbEntity
  8
0
  6
Continuous
 62
     0
370
    18
100
AcDbLine
 10
0.0
 20
0.0
 30
0.0
 11
-0.1
 21
0.0
 31
0.0
  0
LINE
  5
1D3
330
1CE
100
AcDbEntity
  8
0
  6
Continuous
 62
     0
370
    18
100
AcDbLine
 10
0.0
 20
0.0
 30
0.0
 11
0.0
 21
-0.1
 31
0.0
  0
LINE
  5
1D4
330
1CE
100
AcDbEntity
  8
0
  6
Continuous
 62
     0
370
    18
100
AcDbLine
 10
0.0
 20
0.0
 30
0.0
 11
0.1
 21
0.0
 31
0.0
  0
LINE
  5
1D5
330
1CE
100
AcDbEntity
  8
0
  6
Continuous
 62
     0
370
    18
100
AcDbLine
 10
0.0
 20
0.1
 30
0.0
 11
0.0
 21
0.168
 31
0.0
  0
LINE
  5
1D6
330
1CE
100
AcDbEntity
  8
0
  6
Continuous
 62
     0
370
    18
100
AcDbLine
 10
-0.1
 20
0.0
 30
0.0
 11
-0.168
 21
0.0
 31
0.0
  0
LINE
  5
1D7
330
1CE
100
AcDbEntity
  8
0
  6
Continuous
 62
     0
370
    18
100
AcDbLine
 10
0.0
 20
-0.1
 30
0.0
 11
0.0
 21
-0.168
 31
0.0
  0
LINE
  5
1D8
330
1CE
100
AcDbEntity
  8
0
  6
Continuous
 62
     0
370
    18
100
AcDbLine
 10
0.1
 20
0.0
 30
0.0
 11
0.168
 21
0.0
 31
0.0
  0
ENDBLK
  5
1D0
330
1CE
100
AcDbEntity
  8
0
100
AcDbBlockEnd
  0
ENDSEC
  0
SECTION
  2
ENTITIES
  0
LINE
  5
80
330
1F
100
AcDbEntity
  8
0
  6
Continuous
 62
     7
370
    25
100
AcDbLine
 10
6.9807731341
 20
27.3297130925
 30
0.0
 11
6.9807731341
 21
23.4922130925
 31
0.0
  0
LINE
  5
81
330
1F
100
AcDbEntity
  8
0
  6
Continuous
 62
     7
370
    25
100
AcDbLine
 10
12.4507731341
 20
23.4922130925
 30
0.0
 11
12.4507731341
 21
27.3297130925
 31
0.0
  0
ARC
  5
82
330
1F
100
AcDbEntity
  8
0
  6
Continuous
 62
     7
370
    25
100
AcDbCircle
 10
12.4207731341
 20
16.7122130925
 30
0.0
 40
0.0300000000000011
100
AcDbArc
 50
270.0
 51
0.0
  0
ARC
  5
83
330
1F
100
AcDbEntity
  8
0
  6
Continuous
 62
     7
370
    25
100
AcDbCircle
 10
7.0107731341
 20
16.7122130925
 30
0.0
 40
0.0299999999999994
100
AcDbArc
 50
180.0
 51
270.0
  0
LINE
  5
84
330
1F
100
AcDbEntity
  8
0
  6
Continuous
 62
     7
370
    25
100
AcDbLine
 10
6.9807731341
 20
23.4622130925
 30
0.0
 11
6.9807731341
 21
16.7122130925
 31
0.0
  0
LINE
  5
85
330
1F
100
AcDbEntity
  8
0
  6
Continuous
 62
     7
370
    25
100
AcDbLine
 10
12.4507731341
 20
16.7122130925
 30
0.0
 11
12.4507731341
 21
23.4622130925
 31
0.0
  0
ARC
  5
86
330
1F
100
AcDbEntity
  8
0
  6
Continuous
 62
     7
370
    25
100
AcDbCircle
 10
7.0107731341
 20
23.4622130925
 30
0.0
 40
0.0300000000000011
100
AcDbArc
 50
90.0
 51
180.0
  0
ARC
  5
87
330
1F
100
AcDbEntity
  8
0
  6
Continuous
 62
     7
370
    25
100
AcDbCircle
 10
12.4207731341
 20
23.4622130925
 30
0.0
 40
0.0300000000000011
100
AcDbArc
 50
0.0
 51
90.0
  0
LINE
  5
88
330
1F
100
AcDbEntity
  8
0
  6
Continuous
 62
     7
370
    25
100
AcDbLine
 10
12.4507731341
 20
23.4922130925
 30
0.0
 11
6.9807731341
 21
23.4922130925
 31
0.0
  0
LINE
  5
89
330
1F
100
AcDbEntity
  8
0
  6
Continuous
 62
     7
370
    25
100
AcDbLine
 10
12.4507731341
 20
27.3297130925
 30
0.0
 11
6.9807731341
 21
27.3297130925
 31
0.0
  0
LINE
  5
8A
330
1F
100
AcDbEntity
  8
0
  6
Continuous
 62
     7
370
    25
100
AcDbLine
 10
9.7128742688
 20
23.358733088
 30
0.0
 11
9.667541013
 21
23.3292125992
 31
0.0
  0
LINE
  5
8B
330
1F
100
AcDbEntity
  8
0
  6
Continuous
 62
     7
370
    25
100
AcDbLine
 10
9.6704398783
 20
23.2751926038
 30
0.0
 11
9.667541013
 21
23.3292125992
 31
0.0
  0
LINE
  5
8C
330
1F
100
AcDbEntity
  8
0
  6
Continuous
 62
     7
370
    25
100
AcDbLine
 10
9.7186719994
 20
23.250693097
 30
0.0
 11
9.6704398783
 21
23.2751926038
 31
0.0
  0
LINE
  5
8D
330
1F
100
AcDbEntity
  8
0
  6
Continuous
 62
     7
370
    25
100
AcDbLine
 10
9.7186719994
 20
23.250693097
 30
0.0
 11
9.7640052551
 21
23.2802135857
 31
0.0
  0
LINE
  5
8E
330
1F
100
AcDbEntity
  8
0
  6
Continuous
 62
     7
370
    25
100
AcDbLine
 10
9.7611063898
 20
23.3342335812
 30
0.0
 11
9.7640052551
 21
23.2802135857
 31
0.0
  0
LINE
  5
8F
330
1F
100
AcDbEntity
  8
0
  6
Continuous
 62
     7
370
    25
100
AcDbLine
 10
9.7611063898
 20
23.3342335812
 30
0.0
 11
9.7128742688
 21
23.358733088
 31
0.0
  0
CIRCLE
  5
90
330
1F
100
AcDbEntity
  8
0
  6
Continuous
 62
     7
370
    25
100
AcDbCircle
 10
9.7157731341
 20
23.3047130925
 30
0.0
 40
0.0764000000000016
  0
LINE
  5
91
330
1F
100
AcDbEntity
  8
0
  6
Continuous
 62
     7
370
    25
100
AcDbLine
 10
12.4207731341
 20
16.6822130925
 30
0.0
 11
7.0107731341
 21
16.6822130925
 31
0.0
  0
SPLINE
  5
92
330
1F
100
AcDbEntity
  8
0
  6
Continuous
 62
     7
370
    25
100
AcDbSpline
210
0.0
220
0.0
230
1.0
 70
    11
 71
     3
 72
    26
 73
    22
 74
     0
 42
0.00000001
 43
0.00000001
 40
0.0
 40
0.0
 40
0.0
 40
0.0
 40
0.0536750643289565
 40
0.107349642998921
 40
0.1610368245232683
 40
0.2147322126651436
 40
0.2684139093946449
 40
0.3220813954451792
 40
0.3757563163972593
 40
0.4294487206345761
 40
0.4831413779985551
 40
0.536816645641194
 40
0.5904840298559546
 40
0.6441653367015147
 40
0.6978606434325781
 40
0.7515481785370186
 40
0.8052183088844891
 40
0.8588885589374464
 40
0.9125762604136114
 40
0.9662715254958685
 40
0.9999999999999999
 40
0.9999999999999999
 40
0.9999999999999999
 40
0.9999999999999999
 10
9.790523134063383
 20
23.30471309249046
 30
0.0
 10
9.78969698496783
 20
23.29630934334416
 30
0.0
 10
9.788044694251825
 20
23.27950192108976
 30
0.0
 10
9.775164576864704
 20
23.25713192972979
 30
0.0
 10
9.756194333504194
 20
23.24012226286232
 30
0.0
 10
9.732502600807107
 20
23.23039274659984
 30
0.0
 10
9.706969979088266
 20
23.22904278041915
 30
0.0
 10
9.682422278419708
 20
23.23622060060155
 30
0.0
 10
9.66163563403805
 20
23.25111585462453
 30
0.0
 10
9.64694660014191
 20
23.27205488260412
 30
0.0
 10
9.640016697182554
 20
23.29667776668966
 30
0.0
 10
9.641627380820488
 20
23.32220301046433
 30
0.0
 10
9.651592611123553
 20
23.34575386028324
 30
0.0
 10
9.668790928552797
 20
23.3646818453321
 30
0.0
 10
9.69128795697665
 20
23.37685288863234
 30
0.0
 10
9.716548033790936
 20
23.38089017199212
 30
0.0
 10
9.741707373601786
 20
23.37634170119144
 30
0.0
 10
9.763976112399783
 20
23.36372004430591
 30
0.0
 10
9.78069058776803
 20
23.34445704187578
 30
0.0
 10
9.789332949919968
 20
23.32361804369549
 30
0.0
 10
9.79019178976367
 20
23.30997618379678
 30
0.0
 10
9.790523134063383
 20
23.30471309249046
 30
0.0
  0
LINE
  5
93
330
1F
100
AcDbEntity
  8
0
  6
Continuous
 62
     7
370
    25
100
AcDbLine
 10
6.9807731341
 20
16.7122130925
 30
0.0
 11
12.4507731341
 21
16.7122130925
 31
0.0
  0
LINE
  5
94
330
1F
100
AcDbEntity
  8
0
  6
Continuous
 62
     7
370
    25
100
AcDbLine
 10
12.4507731341
 20
23.4622130925
 30
0.0
 11
6.9807731341
 21
23.4622130925
 31
0.0
  0
DIMENSION
  5
95
330
1F
100
AcDbEntity
  8
0
  6
Continuous
 62
     7
370
    18
100
AcDbDimension
  2
_D
 10
14.1025245068
 20
23.4922130925
 30
0.0
 11
14.1025245068
 21
25.4109630925
 31
0.0
 70
   160
  1
<>
 71
     2
 42
-1.0
  3
SLDDIMSTYLE0
100
AcDbAlignedDimension
 13
12.4507731341
 23
27.3297130925
 33
0.0
 14
12.4507731341
 24
23.4922130925
 34
0.0
 50
90.0
100
AcDbRotatedDimension
  0
DIMENSION
  5
AA
330
1F
100
AcDbEntity
  8
0
  6
Continuous
 62
     7
370
    18
100
AcDbDimension
  2
_D_1
 10
12.4507731341
 20
28.9045162421
 30
0.0
 11
9.7157731341
 21
28.9045162421
 31
0.0
 70
   160
  1
%%c<>
 71
     2
 42
-1.0
  3
SLDDIMSTYLE0
100
AcDbAlignedDimension
 13
6.9807731341
 23
27.3297130925
 33
0.0
 14
12.4507731341
 24
27.3297130925
 34
0.0
 50
0.0
100
AcDbRotatedDimension
  0
LINE
  5
BD
330
1F
100
AcDbEntity
  8
0
  6
Continuous
 62
     7
370
    25
100
AcDbLine
 10
31.5141974582
 20
26.3691397685
 30
0.0
 11
31.5141974582
 21
23.2356644029
 31
0.0
  0
LINE
  5
BE
330
1F
100
AcDbEntity
  8
0
  6
Continuous
 62
     7
370
    25
100
AcDbLine
 10
36.9841974582
 20
23.2356644029
 30
0.0
 11
36.9841974582
 21
26.3691397685
 31
0.0
  0
LINE
  5
BF
330
1F
100
AcDbEntity
  8
0
  6
Continuous
 62
     7
370
    25
100
AcDbLine
 10
36.1765675482
 20
24.8853854495
 30
0.0
 11
36.1831425725
 21
24.8891823643
 31
0.0
  0
LINE
  5
C0
330
1F
100
AcDbEntity
  8
0
  6
Continuous
 62
     7
370
    25
100
AcDbLine
 10
36.2327734008
 20
24.9751547958
 30
0.0
 11
36.2327734008
 21
24.9827473913
 31
0.0
  0
LINE
  5
C1
330
1F
100
AcDbEntity
  8
0
  6
Continuous
 62
     7
370
    25
100
AcDbLine
 10
31.5141974582
 20
23.2111681785
 30
0.0
 11
31.5141974582
 21
17.6995176983
 31
0.0
  0
LINE
  5
C2
330
1F
100
AcDbEntity
  8
0
  6
Continuous
 62
     7
370
    25
100
AcDbLine
 10
36.9841974582
 20
17.6995176983
 30
0.0
 11
36.9841974582
 21
23.2111681785
 31
0.0
  0
SPLINE
  5
C3
330
1F
100
AcDbEntity
  8
0
  6
Continuous
 62
     7
370
    25
100
AcDbSpline
210
0.0
220
0.0
230
1.0
 70
     8
 71
     3
 72
    78
 73
    74
 74
     0
 42
0.00000001
 43
0.00000001
 40
0.0
 40
0.0
 40
0.0
 40
0.0
 40
0.0044771974205566
 40
0.0187451113484031
 40
0.0330204298222193
 40
0.0473056240099251
 40
0.0616026460931096
 40
0.0759128692945873
 40
0.0902370755832164
 40
0.1045754862768333
 40
0.118927826555205
 40
0.1332934125957591
 40
0.1476712496916993
 40
0.1620601309694486
 40
0.1764587286276055
 40
0.1908656723572911
 40
0.2052796122482853
 40
0.2196992656828453
 40
0.2341234493036151
 40
0.2485510981038002
 40
0.2629812741174662
 40
0.2774131672228741
 40
0.2918460903535355
 40
0.3062794710602234
 40
0.3207127181866614
 40
0.3351454720891817
 40
0.3495774627440983
 40
0.3640084864650516
 40
0.3784383959094694
 40
0.3928670911075745
 40
0.4072945115564147
 40
0.4217206293556638
 40
0.4361454433217563
 40
0.450568973994242
 40
0.4649912594387076
 40
0.4794123517492069
 40
0.493832314156835
 40
0.5082512186582167
 40
0.5226691440857822
 40
0.5370861745506929
 40
0.5515023981978776
 40
0.5659179062207265
 40
0.5803327920903337
 40
0.5947471509605515
 40
0.6091610792157857
 40
0.6235746741330851
 40
0.6379880336339873
 40
0.6524012561047242
 40
0.6668144402658285
 40
0.6812276760551125
 40
0.6956410386116849
 40
0.7100546271507371
 40
0.7244685408998739
 40
0.7388828789820419
 40
0.7532977402584685
 40
0.767713223111224
 40
0.7821294251447877
 40
0.7965464427833082
 40
0.8109643707364111
 40
0.8253833013020705
 40
0.8398033234697206
 40
0.854224521780518
 40
0.8686469748945586
 40
0.883070753806823
 40
0.897495919644898
 40
0.9119225209723119
 40
0.9263505905121746
 40
0.9407801411977126
 40
0.9552111614500378
 40
0.9696436095815774
 40
0.9840774072283524
 40
0.9977520063577655
 40
1.0
 40
1.0
 40
1.0
 40
1.0
 10
31.52282683989697
 20
17.57517294761708
 30
0.0
 10
31.52346781474322
 20
17.56971863787825
 30
0.0
 10
31.5261514455363
 20
17.54688255678124
 30
0.0
 10
31.53384656275258
 20
17.50681666516711
 30
0.0
 10
31.54594692613239
 20
17.45504501875189
 30
0.0
 10
31.56115948183445
 20
17.40354383353789
 30
0.0
 10
31.57920320060245
 20
17.35235280920153
 30
0.0
 10
31.60013381230505
 20
17.30152921290398
 30
0.0
 10
31.62391282395476
 20
17.2511264701152
 30
0.0
 10
31.65052275342126
 20
17.20119976479235
 30
0.0
 10
31.67993591808519
 20
17.15180427415562
 30
0.0
 10
31.7121226294235
 20
17.10299529919166
 30
0.0
 10
31.74704893308274
 20
17.05482784858004
 30
0.0
 10
31.78467726397489
 20
17.00735637050034
 30
0.0
 10
31.82496640821386
 20
16.96063447673673
 30
0.0
 10
31.8678717141019
 20
16.9147147209613
 30
0.0
 10
31.91334527298038
 20
16.86964842411902
 30
0.0
 10
31.96133612165978
 20
16.82548554940596
 30
0.0
 10
32.01179043458357
 20
16.78227462035096
 30
0.0
 10
32.06465170211206
 20
16.74006267415616
 30
0.0
 10
32.11986088913443
 20
16.69889524134819
 30
0.0
 10
32.17735657319506
 20
16.65881634331861
 30
0.0
 10
32.23707506313789
 20
16.61986850050262
 30
0.0
 10
32.29895032540215
 20
16.58209285253339
 30
0.0
 10
32.36291424445145
 20
16.54552903583755
 30
0.0
 10
32.42889672033135
 20
16.51021518917216
 30
0.0
 10
32.4968259419848
 20
16.47618787634131
 30
0.0
 10
32.56662824941561
 20
16.4434822141931
 30
0.0
 10
32.63822817674178
 20
16.41213187948551
 30
0.0
 10
32.71154851365409
 20
16.38216910056273
 30
0.0
 10
32.7865103681411
 20
16.35362464494485
 30
0.0
 10
32.8630332313302
 20
16.32652780354436
 30
0.0
 10
32.94103504499802
 20
16.30090637224967
 30
0.0
 10
33.02043227207552
 20
16.27678663159062
 30
0.0
 10
33.10113997029606
 20
16.254193325148
 30
0.0
 10
33.18307186900501
 20
16.23314963730125
 30
0.0
 10
33.2661404490548
 20
16.21367717083542
 30
0.0
 10
33.35025702564447
 20
16.19579592485611
 30
0.0
 10
33.4353318339193
 20
16.17952427339375
 30
0.0
 10
33.52127411711832
 20
16.16487894501705
 30
0.0
 10
33.60799221704293
 20
16.15187500372157
 30
0.0
 10
33.69539366661185
 20
16.14052583131251
 30
0.0
 10
33.78338528426649
 20
16.13084311146083
 30
0.0
 10
33.87187326999249
 20
16.12283681557786
 30
0.0
 10
33.96076330272736
 20
16.11651519062507
 30
0.0
 10
34.04996063892904
 20
16.1118847489521
 30
0.0
 10
34.13937021208546
 20
16.10895026023548
 30
0.0
 10
34.22889673294991
 20
16.10771474557426
 30
0.0
 10
34.3184447716149
 20
16.10817947368675
 30
0.0
 10
34.40791882771045
 20
16.11034395673273
 30
0.0
 10
34.49722348191285
 20
16.11420594805138
 30
0.0
 10
34.58626351653231
 20
16.11976144692602
 30
0.0
 10
34.6749440470509
 20
16.12700470925313
 30
0.0
 10
34.76317057280625
 20
16.13592825390654
 30
0.0
 10
34.85084907657265
 20
16.14652287252003
 30
0.0
 10
34.93788612323547
 20
16.15877764145392
 30
0.0
 10
35.0241889573304
 20
16.17267993589744
 30
0.0
 10
35.10966559922363
 20
16.18821544603979
 30
0.0
 10
35.19422493969373
 20
16.20536819522652
 30
0.0
 10
35.27777683269377
 20
16.22412055997944
 30
0.0
 10
35.36023218597075
 20
16.24445329178016
 30
0.0
 10
35.4415030495643
 20
16.26634554028693
 30
0.0
 10
35.52150270089292
 20
16.28977487833783
 30
0.0
 10
35.60014573002507
 20
16.31471732632774
 30
0.0
 10
35.67734811049408
 20
16.34114738361281
 30
0.0
 10
35.75302730913484
 20
16.36903803672214
 30
0.0
 10
35.82710223425691
 20
16.39836085516955
 30
0.0
 10
35.89949377032884
 20
16.42908575890817
 30
0.0
 10
35.97012310588661
 20
16.4611820071747
 30
0.0
 10
36.03891828070106
 20
16.4946146207611
 30
0.0
 10
36.10461568327369
 20
16.52874770292242
 30
0.0
 10
36.15016855180923
 20
16.55395148655153
 30
0.0
 10
36.17361048794211
 20
16.5674399275129
 30
0.0
 10
36.17692008231184
 20
16.56934426118265
 30
0.0
  0
SPLINE
  5
C4
330
1F
100
AcDbEntity
  8
0
  6
Continuous
 62
     7
370
    25
100
AcDbSpline
210
0.0
220
0.0
230
1.0
 70
     8
 71
     3
 72
    30
 73
    26
 74
     0
 42
0.00000001
 43
0.00000001
 40
0.0
 40
0.0
 40
0.0
 40
0.0
 40
0.024287711868885
 40
0.0703971038129619
 40
0.1165107324735529
 40
0.1626250678769721
 40
0.2087382189181199
 40
0.254848270253821
 40
0.3009529241515242
 40
0.3470494729178832
 40
0.3931347838945285
 40
0.4392053035320882
 40
0.4852570882615492
 40
0.5312858705642666
 40
0.5772871684327074
 40
0.6232564448263777
 40
0.6691893202948012
 40
0.7150818363680423
 40
0.760930759684385
 40
0.8067339077802994
 40
0.85249046832896
 40
0.8982012762890687
 40
0.9438690100811286
 40
0.9894982703972385
 40
1.0
 40
1.0
 40
1.0
 40
1.0
 10
36.17692008231184
 20
16.56934426118265
 30
0.0
 10
36.18803936640769
 20
16.57583076962241
 30
0.0
 10
36.22026823181282
 20
16.59463169292397
 30
0.0
 10
36.27200911432656
 20
16.62667383002287
 30
0.0
 10
36.33137899582863
 20
16.66582296722193
 30
0.0
 10
36.38849168456417
 20
16.70611769424069
 30
0.0
 10
36.44331804701329
 20
16.74749404631281
 30
0.0
 10
36.49578753408856
 20
16.7899143059584
 30
0.0
 10
36.54584392468816
 20
16.83333215223263
 30
0.0
 10
36.59343013997953
 20
16.87770171804644
 30
0.0
 10
36.63849241513887
 20
16.92297509556069
 30
0.0
 10
36.680979348754
 20
16.96910296907309
 30
0.0
 10
36.72084235426544
 20
17.01603442721839
 30
0.0
 10
36.7580357713489
 20
17.06371702423078
 30
0.0
 10
36.79251708033948
 20
17.11209681870763
 30
0.0
 10
36.82424716643565
 20
17.16111847371865
 30
0.0
 10
36.85319035518404
 20
17.21072542131146
 30
0.0
 10
36.8793153059566
 20
17.26086005148782
 30
0.0
 10
36.90259259087667
 20
17.31146411323235
 30
0.0
 10
36.92300441048724
 20
17.36247860934732
 30
0.0
 10
36.94050875214042
 20
17.41384580521751
 30
0.0
 10
36.95517289255786
 20
17.46550348166466
 30
0.0
 10
36.96667534253488
 20
17.51740806416313
 30
0.0
 10
36.97372922801539
 20
17.55610797984178
 30
0.0
 10
36.97602418224243
 20
17.57752615825517
 30
0.0
 10
36.97645355269853
 20
17.58153335496783
 30
0.0
  0
LINE
  5
C5
330
1F
100
AcDbEntity
  8
0
  6
Continuous
 62
     7
370
    25
100
AcDbLine
 10
36.7916974582
 20
26.2318229288
 30
0.0
 11
36.7916974582
 21
26.3691397685
 31
0.0
  0
LINE
  5
C6
330
1F
100
AcDbEntity
  8
0
  6
Continuous
 62
     7
370
    25
100
AcDbLine
 10
31.7066974582
 20
26.3691397685
 30
0.0
 11
31.7066974582
 21
26.2318229288
 31
0.0
  0
LWPOLYLINE
  5
C7
330
1F
100
AcDbEntity
  8
0
  6
Continuous
 62
     7
370
    25
100
AcDbPolyline
 90
       93
 70
   128
 43
0.0
 10
36.9841974582
 20
23.2356644029
 10
36.984095594
 20
23.2220376387
 10
36.9816512324
 20
23.1675508812
 10
36.9759505539
 20
23.1131452959
 10
36.9670003523
 20
23.058885719
 10
36.9548112936
 20
23.0048368125
 10
36.9393979037
 20
22.9510629876
 10
36.9207785512
 20
22.8976283277
 10
36.8989754249
 20
22.8445965117
 10
36.8740145082
 20
22.7920307387
 10
36.8459255474
 20
22.7399936523
 10
36.8147420167
 20
22.6885472661
 10
36.780501078
 20
22.6377528898
 10
36.743243537
 20
22.5876710559
 10
36.7030137941
 20
22.5383614479
 10
36.659859792
 20
22.489882829
 10
36.6138329579
 20
22.4422929722
 10
36.5649881431
 20
22.395648591
 10
36.5133835567
 20
22.3500052726
 10
36.459080697
 20
22.3054174109
 10
36.4021442777
 20
22.2619381421
 10
36.3426421509
 20
22.2196192813
 10
36.2806452266
 20
22.1785112607
 10
36.2162273875
 20
22.1386630694
 10
36.1494654017
 20
22.1001221954
 10
36.0804388307
 20
22.0629345685
 10
36.0092299348
 20
22.0271445058
 10
35.9359235749
 20
21.9927946592
 10
35.8606071115
 20
21.959925964
 10
35.7833703009
 20
21.9285775903
 10
35.7043051875
 20
21.8987868967
 10
35.6235059947
 20
21.8705893853
 10
35.5410690124
 20
21.8440186596
 10
35.4570924824
 20
21.8191063844
 10
35.3716764811
 20
21.7958822482
 10
35.2849228003
 20
21.7743739276
 10
35.1969348261
 20
21.7546070545
 10
35.1078174153
 20
21.7366051854
 10
35.0176767709
 20
21.7203897734
 10
34.9266203152
 20
21.7059801429
 10
34.8347565618
 20
21.6933934661
 10
34.7421949866
 20
21.6826447426
 10
34.649045897
 20
21.6737467821
 10
34.5554203004
 20
21.6667101883
 10
34.4614297722
 20
21.6615433468
 10
34.3671863228
 20
21.6582524152
 10
34.2728022638
 20
21.6568413153
 10
34.1783900745
 20
21.6573117286
 10
34.0840622678
 20
21.6596630947
 10
33.9899312557
 20
21.6638926113
 10
33.8961092161
 20
21.6699952381
 10
33.8027079584
 20
21.6779637024
 10
33.7098387907
 20
21.6877885081
 10
33.6176123869
 20
21.6994579467
 10
33.526138655
 20
21.7129581116
 10
33.4355266059
 20
21.7282729143
 10
33.3458842238
 20
21.745384104
 10
33.2573183371
 20
21.7642712888
 10
33.1699344915
 20
21.7849119607
 10
33.0838368239
 20
21.8072815216
 10
32.9991279387
 20
21.8313533134
 10
32.9159087849
 20
21.8570986493
 10
32.8342785364
 20
21.8844868481
 10
32.7543344736
 20
21.9134852706
 10
32.6761718672
 20
21.944059359
 10
32.5998838652
 20
21.9761726776
 10
32.5255613813
 20
22.0097869563
 10
32.4532929871
 20
22.0448621362
 10
32.3831648062
 20
22.0813564178
 10
32.3152604117
 20
22.11922631
 10
32.2496607265
 20
22.1584266825
 10
32.186443927
 20
22.1989108196
 10
32.1256853499
 20
22.2406304756
 10
32.0674574023
 20
22.2835359322
 10
32.0118294755
 20
22.3275760584
 10
31.9588678625
 20
22.3726983706
 10
31.9086356785
 20
22.4188490957
 10
31.8611927862
 20
22.4659732351
 10
31.8165957242
 20
22.51401463
 10
31.7748976397
 20
22.5629160286
 10
31.736148225
 20
22.6126191541
 10
31.7003936586
 20
22.6630647744
 10
31.6676765498
 20
22.7141927725
 10
31.6380358883
 20
22.7659422182
 10
31.6115069974
 20
22.8182514407
 10
31.588121492
 20
22.8710581021
 10
31.5679072412
 20
22.9242992717
 10
31.5508883346
 20
22.9779115011
 10
31.537085054
 20
23.0318308994
 10
31.5265138489
 20
23.08599321
 10
31.5191873174
 20
23.1403338866
 10
31.5151141906
 20
23.1947881704
 10
31.5141974582
 20
23.2356644029
  0
LWPOLYLINE
  5
C8
330
1F
100
AcDbEntity
  8
0
  6
Continuous
 62
     7
370
    25
100
AcDbPolyline
 90
      183
 70
   128
 43
0.0
 10
36.1831345048
 20
27.4855778614
 10
36.24873419
 20
27.4463774889
 10
36.3119509894
 20
27.4058933518
 10
36.3727095666
 20
27.3641736958
 10
36.4309375142
 20
27.3212682391
 10
36.4865654409
 20
27.277228113
 10
36.539527054
 20
27.2321058008
 10
36.589759238
 20
27.1859550756
 10
36.6372021302
 20
27.1388309363
 10
36.6817991922
 20
27.0907895414
 10
36.7234972768
 20
27.0418881428
 10
36.7622466914
 20
26.9921850173
 10
36.7980012578
 20
26.941739397
 10
36.8307183666
 20
26.8906113989
 10
36.8603590281
 20
26.8388619532
 10
36.886887919
 20
26.7865527307
 10
36.9102734244
 20
26.7337460693
 10
36.9304876752
 20
26.6805048996
 10
36.9475065818
 20
26.6268926703
 10
36.9613098625
 20
26.5729732719
 10
36.9718810675
 20
26.5188109614
 10
36.979207599
 20
26.4644702848
 10
36.9832807259
 20
26.410016001
 10
36.984095594
 20
26.3555130043
 10
36.9816512324
 20
26.3010262468
 10
36.9759505539
 20
26.2466206615
 10
36.9670003523
 20
26.1923610846
 10
36.9548112936
 20
26.1383121781
 10
36.9393979037
 20
26.0845383532
 10
36.9207785512
 20
26.0311036933
 10
36.8989754249
 20
25.9780718773
 10
36.8740145082
 20
25.9255061043
 10
36.8459255474
 20
25.8734690179
 10
36.8147420167
 20
25.8220226317
 10
36.780501078
 20
25.7712282554
 10
36.743243537
 20
25.7211464215
 10
36.7030137941
 20
25.6718368135
 10
36.659859792
 20
25.6233581946
 10
36.6138329579
 20
25.5757683378
 10
36.5649881431
 20
25.5291239566
 10
36.5133835567
 20
25.4834806382
 10
36.459080697
 20
25.4388927765
 10
36.4021442777
 20
25.3954135077
 10
36.3426421509
 20
25.3530946469
 10
36.2806452266
 20
25.3119866263
 10
36.2162273875
 20
25.272138435
 10
36.1494654017
 20
25.233597561
 10
36.0804388307
 20
25.1964099341
 10
36.0092299348
 20
25.1606198715
 10
35.9359235749
 20
25.1262700248
 10
35.8606071115
 20
25.0934013296
 10
35.7833703009
 20
25.0620529559
 10
35.7043051875
 20
25.0322622623
 10
35.6235059947
 20
25.0040647509
 10
35.5410690124
 20
24.9774940252
 10
35.4570924824
 20
24.95258175
 10
35.3716764811
 20
24.9293576138
 10
35.2849228003
 20
24.9078492932
 10
35.1969348261
 20
24.8880824201
 10
35.1078174153
 20
24.870080551
 10
35.0176767709
 20
24.8538651391
 10
34.9266203152
 20
24.8394555086
 10
34.8347565618
 20
24.8268688317
 10
34.7421949866
 20
24.8161201083
 10
34.649045897
 20
24.8072221477
 10
34.5554203004
 20
24.8001855539
 10
34.4614297722
 20
24.7950187125
 10
34.3671863228
 20
24.7917277808
 10
34.2728022638
 20
24.7903166809
 10
34.1783900745
 20
24.7907870943
 10
34.0840622678
 20
24.7931384603
 10
33.9899312557
 20
24.797367977
 10
33.8961092161
 20
24.8034706037
 10
33.8027079584
 20
24.811439068
 10
33.7098387907
 20
24.8212638737
 10
33.6176123869
 20
24.8329333123
 10
33.526138655
 20
24.8464334772
 10
33.4355266059
 20
24.8617482799
 10
33.3458842238
 20
24.8788594696
 10
33.2573183371
 20
24.8977466544
 10
33.1699344915
 20
24.9183873263
 10
33.0838368239
 20
24.9407568872
 10
32.9991279387
 20
24.964828679
 10
32.9159087849
 20
24.9905740149
 10
32.8342785364
 20
25.0179622137
 10
32.7543344736
 20
25.0469606362
 10
32.6761718672
 20
25.0775347247
 10
32.5998838652
 20
25.1096480432
 10
32.5255613813
 20
25.1432623219
 10
32.4532929871
 20
25.1783375019
 10
32.3831648062
 20
25.2148317834
 10
32.3152604117
 20
25.2527016756
 10
32.2496607265
 20
25.2919020481
 10
32.186443927
 20
25.3323861852
 10
32.1256853499
 20
25.3741058412
 10
32.0674574023
 20
25.4170112978
 10
32.0118294755
 20
25.461051424
 10
31.9588678625
 20
25.5061737362
 10
31.9086356785
 20
25.5523244614
 10
31.8611927862
 20
25.5994486007
 10
31.8165957242
 20
25.6474899956
 10
31.7748976397
 20
25.6963913942
 10
31.736148225
 20
25.7460945197
 10
31.7003936586
 20
25.79654014
 10
31.6676765498
 20
25.8476681381
 10
31.6380358883
 20
25.8994175838
 10
31.6115069974
 20
25.9517268063
 10
31.588121492
 20
26.0045334677
 10
31.5679072412
 20
26.0577746373
 10
31.5508883346
 20
26.1113868667
 10
31.537085054
 20
26.165306265
 10
31.5265138489
 20
26.2194685756
 10
31.5191873174
 20
26.2738092522
 10
31.5151141906
 20
26.328263536
 10
31.5142993224
 20
26.3827665327
 10
31.5167436841
 20
26.4372532902
 10
31.5224443625
 20
26.4916588755
 10
31.5313945642
 20
26.5459184524
 10
31.5435836229
 20
26.5999673589
 10
31.5589970127
 20
26.6537411837
 10
31.5776163653
 20
26.7071758437
 10
31.5994194915
 20
26.7602076597
 10
31.6243804082
 20
26.8127734327
 10
31.652469369
 20
26.8648105191
 10
31.6836528997
 20
26.9162569053
 10
31.7178938384
 20
26.9670512816
 10
31.7551513794
 20
27.0171331155
 10
31.7953811223
 20
27.0664427235
 10
31.8385351245
 20
27.1149213423
 10
31.8845619585
 20
27.1625111992
 10
31.9334067733
 20
27.2091555804
 10
31.9850113597
 20
27.2547988988
 10
32.0393142194
 20
27.2993867605
 10
32.0962506387
 20
27.3428660293
 10
32.1557527655
 20
27.3851848901
 10
32.2177496899
 20
27.4262929107
 10
32.2821675289
 20
27.466141102
 10
32.3489295147
 20
27.504681976
 10
32.4179560857
 20
27.5418696029
 10
32.4891649817
 20
27.5776596655
 10
32.5624713416
 20
27.6120095121
 10
32.6377878049
 20
27.6448782074
 10
32.7150246155
 20
27.676226581
 10
32.7940897289
 20
27.7060172746
 10
32.8748889217
 20
27.734214786
 10
32.957325904
 20
27.7607855118
 10
33.041302434
 20
27.7856977869
 10
33.1267184353
 20
27.8089219232
 10
33.2134721161
 20
27.8304302438
 10
33.3014600903
 20
27.8501971169
 10
33.3905775011
 20
27.868198986
 10
33.4807181455
 20
27.8844143979
 10
33.5717746012
 20
27.8988240284
 10
33.6636383546
 20
27.9114107053
 10
33.7561999298
 20
27.9221594287
 10
33.8493490195
 20
27.9310573893
 10
33.9429746161
 20
27.9380939831
 10
34.0369651442
 20
27.9432608245
 10
34.1312085936
 20
27.9465517561
 10
34.2255926526
 20
27.9479628561
 10
34.3200048419
 20
27.9474924427
 10
34.4143326487
 20
27.9451410766
 10
34.5084636607
 20
27.94091156
 10
34.6022857003
 20
27.9348089333
 10
34.695686958
 20
27.926840469
 10
34.7885561257
 20
27.9170156633
 10
34.8807825295
 20
27.9053462247
 10
34.9722562614
 20
27.8918460598
 10
35.0628683105
 20
27.8765312571
 10
35.1525106927
 20
27.8594200674
 10
35.2410765794
 20
27.8405328825
 10
35.328460425
 20
27.8198922107
 10
35.4145580925
 20
27.7975226498
 10
35.4992669777
 20
27.7734508579
 10
35.5824861315
 20
27.7477055221
 10
35.66411638
 20
27.7203173233
 10
35.7440604428
 20
27.6913189007
 10
35.8222230492
 20
27.6607448123
 10
35.8985110513
 20
27.6286314938
 10
35.9728335351
 20
27.5950172151
 10
36.0451019293
 20
27.5599420351
 10
36.1152301102
 20
27.5234477536
 10
36.1831345048
 20
27.4855778614
  0
SPLINE
  5
C9
330
1F
100
AcDbEntity
  8
0
  6
Continuous
 62
     7
370
    25
100
AcDbSpline
210
0.0
220
0.0
230
1.0
 70
    11
 71
     3
 72
    26
 73
    22
 74
     0
 42
0.00000001
 43
0.00000001
 40
0.0
 40
0.0
 40
0.0
 40
0.0
 40
0.0536732726068198
 40
0.1073459958763349
 40
0.1610329743399861
 40
0.2147292364974702
 40
0.268410012754884
 40
0.32207471535672
 40
0.3757478245427317
 40
0.4294407089397523
 40
0.4831338844454277
 40
0.536807390069263
 40
0.590471974441738
 40
0.6441523042929862
 40
0.697848473242554
 40
0.7515358564720171
 40
0.8052035525048417
 40
0.8588713773076821
 40
0.9125589382941962
 40
0.9662550629294646
 40
1.0
 40
1.0
 40
1.0
 40
1.0
 10
36.12610232441991
 20
24.91451840312912
 30
0.0
 10
36.12674217525365
 20
24.9221641754631
 30
0.0
 10
36.12802187037234
 20
24.9374556418778
 30
0.0
 10
36.13796600521752
 20
24.96232436374157
 30
0.0
 10
36.15251873355773
 20
24.98516609822585
 30
0.0
 10
36.17054173908874
 20
25.00378252276472
 30
0.0
 10
36.18977363065463
 20
25.01602240939548
 30
0.0
 10
36.20807697526037
 20
25.02053748967727
 30
0.0
 10
36.22343314281912
 20
25.01678713645209
 30
0.0
 10
36.23420622257933
 20
25.00513995372935
 30
0.0
 10
36.23926647455887
 20
24.98685408298328
 30
0.0
 10
36.2380928466752
 20
24.96396773468212
 30
0.0
 10
36.23080939291754
 20
24.93906930828577
 30
0.0
 10
36.21816743738287
 20
24.9149976477508
 30
0.0
 10
36.20149383904987
 20
24.89451895075969
 30
0.0
 10
36.18258850611494
 20
24.8799923333319
 30
0.0
 10
36.16356598684636
 20
24.87307662460169
 30
0.0
 10
36.14656776606898
 20
24.87451216692886
 30
0.0
 10
36.13370953532233
 20
24.88414719723999
 30
0.0
 10
36.12702430019562
 20
24.89859805973426
 30
0.0
 10
36.12635905386759
 20
24.91008529211443
 30
0.0
 10
36.12610232441991
 20
24.91451840312912
 30
0.0
  0
LWPOLYLINE
  5
CA
330
1F
100
AcDbEntity
  8
0
  6
Continuous
 62
     7
370
    25
100
AcDbPolyline
 90
       55
 70
   128
 43
0.0
 10
32.5807945541
 20
27.5052137884
 10
32.6521816443
 20
27.538904811
 10
32.7256085764
 20
27.571101712
 10
32.8009815634
 20
27.6017633669
 10
32.8782043326
 20
27.630850612
 10
32.9571782487
 20
27.6583262947
 10
33.0378024395
 20
27.6841553208
 10
33.1199739252
 20
27.7083046993
 10
33.2035877495
 20
27.7307435845
 10
33.2885371137
 20
27.7514433157
 10
33.3747135136
 20
27.7703774534
 10
33.4620068773
 20
27.7875218133
 10
33.5503057066
 20
27.8028544974
 10
33.6394972187
 20
27.8163559213
 10
33.7294674908
 20
27.8280088399
 10
33.8201016055
 20
27.8377983691
 10
33.9112837972
 20
27.8457120051
 10
34.0028976004
 20
27.8517396397
 10
34.0948259984
 20
27.8558735739
 10
34.1869515725
 20
27.8581085277
 10
34.2791566522
 20
27.8584416463
 10
34.3713234656
 20
27.8568725042
 10
34.4633342894
 20
27.8534031057
 10
34.5550715998
 20
27.8480378821
 10
34.6464182222
 20
27.8407836865
 10
34.7372574811
 20
27.8316497843
 10
34.8274733489
 20
27.8206478423
 10
34.9169505946
 20
27.8077919131
 10
35.0055749302
 20
27.7930984172
 10
35.0932331573
 20
27.7765861225
 10
35.1798133116
 20
27.7582761198
 10
35.2652048057
 20
27.7381917962
 10
35.3492985703
 20
27.7163588051
 10
35.431987194
 20
27.6928050334
 10
35.51316506
 20
27.6675605659
 10
35.5927284809
 20
27.6406576469
 10
35.670575832
 20
27.6121306393
 10
35.7466076799
 20
27.5820159799
 10
35.8207269105
 20
27.5503521338
 10
35.8928388524
 20
27.5171795446
 10
35.9628513985
 20
27.4825405832
 10
36.0306751226
 20
27.4464794934
 10
36.0962233948
 20
27.4090423353
 10
36.1594124912
 20
27.3702769269
 10
36.2201617016
 20
27.3302327825
 10
36.2783934319
 20
27.2889610499
 10
36.3340333038
 20
27.2465144448
 10
36.3870102493
 20
27.2029471835
 10
36.4372566018
 20
27.1583149138
 10
36.4847081826
 20
27.1126746437
 10
36.5293043824
 20
27.0660846688
 10
36.5709882394
 20
27.0186044977
 10
36.6097065114
 20
26.9702947761
 10
36.6454097441
 20
26.921217209
 10
36.6780523346
 20
26.8714344826
  0
LWPOLYLINE
  5
CB
330
1F
100
AcDbEntity
  8
0
  6
Continuous
 62
     7
370
    25
100
AcDbPolyline
 90
       14
 70
   128
 43
0.0
 10
32.5807945541
 20
27.5052137884
 10
32.5464275946
 20
27.5014670318
 10
32.5128782044
 20
27.4957623894
 10
32.4804801972
 20
27.4881566219
 10
32.4495559308
 20
27.478725406
 10
32.4204130993
 20
27.4675625818
 10
32.3933416718
 20
27.4547792184
 10
32.3686110068
 20
27.4405025094
 10
32.3464671726
 20
27.4248745069
 10
32.3271304987
 20
27.4080507084
 10
32.3107933835
 20
27.3901985094
 10
32.2976183802
 20
27.371495538
 10
32.2877365789
 20
27.3521278872
 10
32.281246303
 20
27.3322882639
  0
LWPOLYLINE
  5
CC
330
1F
100
AcDbEntity
  8
0
  6
Continuous
 62
     7
370
    25
100
AcDbPolyline
 90
       55
 70
   128
 43
0.0
 10
33.3791032164
 20
24.9669916939
 10
33.2928676612
 20
24.9858358603
 10
33.2078536101
 20
25.0064468978
 10
33.1241696504
 20
25.0287984805
 10
33.04192267
 20
25.0528620589
 10
32.9612177218
 20
25.0786068971
 10
32.8821578889
 20
25.1060001116
 10
32.804844153
 20
25.1350067135
 10
32.7293752657
 20
25.1655896531
 10
32.6558476221
 20
25.1977098674
 10
32.584355138
 20
25.2313263298
 10
32.5149891294
 20
25.2663961025
 10
32.4478381965
 20
25.3028743914
 10
32.38298811
 20
25.3407146035
 10
32.3205217019
 20
25.379868406
 10
32.2605187594
 20
25.4202857885
 10
32.2030559233
 20
25.4619151265
 10
32.1482065901
 20
25.5047032476
 10
32.0960408177
 20
25.5485954991
 10
32.0466252367
 20
25.5935358183
 10
32.0000229648
 20
25.6394668035
 10
31.9562935263
 20
25.686329788
 10
31.9154927762
 20
25.7340649144
 10
31.8776728284
 20
25.7826112114
 10
31.8428819898
 20
25.8319066716
 10
31.8111646983
 20
25.8818883308
 10
31.7825614656
 20
25.9324923482
 10
31.7571088264
 20
25.9836540882
 10
31.7348392908
 20
26.0353082026
 10
31.7157813033
 20
26.0873887145
 10
31.6999592064
 20
26.1398291025
 10
31.6873932093
 20
26.1925623851
 10
31.6780993625
 20
26.2455212071
 10
31.6720895369
 20
26.2986379251
 10
31.6693714085
 20
26.3518446939
 10
31.6699484494
 20
26.4050735534
 10
31.6738199223
 20
26.4582565153
 10
31.6809808824
 20
26.5113256499
 10
31.6914221832
 20
26.5642131727
 10
31.7051304879
 20
26.6168515316
 10
31.7220882874
 20
26.6691734923
 10
31.7422739217
 20
26.7211122248
 10
31.765661608
 20
26.7726013888
 10
31.7922214735
 20
26.8235752179
 10
31.8219195939
 20
26.8739686041
 10
31.8547180362
 20
26.9237171808
 10
31.8905749074
 20
26.972757405
 10
31.9294444083
 20
27.0210266383
 10
31.9712768914
 20
27.0684632273
 10
32.0160189248
 20
27.1150065819
 10
32.0636133602
 20
27.1605972533
 10
32.1139994061
 20
27.205177009
 10
32.1671127051
 20
27.2486889083
 10
32.2228854166
 20
27.2910773739
 10
32.281246303
 20
27.3322882639
  0
ARC
  5
CD
330
1F
100
AcDbEntity
  8
0
  6
Continuous
 62
     7
370
    25
100
AcDbCircle
 10
33.6572932269
 20
25.411119621
 30
0.0
 40
0.5240603949641981
100
AcDbArc
 50
237.9380572241
 51
284.4758649102
  0
LWPOLYLINE
  5
CE
330
1F
100
AcDbEntity
  8
0
  6
Continuous
 62
     7
370
    25
100
AcDbPolyline
 90
       55
 70
   128
 43
0.0
 10
36.7876946041
 20
26.6352138231
 10
36.8025430692
 20
26.5826786342
 10
36.8141301882
 20
26.5298706957
 10
36.8224411609
 20
26.4768574581
 10
36.827465372
 20
26.4237066346
 10
36.8291964041
 20
26.3704861137
 10
36.8276320462
 20
26.3172638731
 10
36.8227742964
 20
26.2641078927
 10
36.8146293595
 20
26.2110860679
 10
36.8032076388
 20
26.1582661224
 10
36.7885237231
 20
26.1057155223
 10
36.7705963679
 20
26.0535013896
 10
36.7494484716
 20
26.0016904167
 10
36.7251070459
 20
25.9503487807
 10
36.6976031819
 20
25.8995420596
 10
36.6669720097
 20
25.8493351478
 10
36.6332526541
 20
25.7997921739
 10
36.5964881841
 20
25.7509764182
 10
36.5567255585
 20
25.7029502324
 10
36.5140155654
 20
25.6557749595
 10
36.4684127576
 20
25.6095108556
 10
36.4199753827
 20
25.5642170132
 10
36.3687653091
 20
25.5199512854
 10
36.3148479465
 20
25.4767702119
 10
36.2582921626
 20
25.4347289474
 10
36.1991701953
 20
25.3938811903
 10
36.1375575601
 20
25.3542791149
 10
36.0735329537
 20
25.3159733042
 10
36.0071781537
 20
25.2790126857
 10
35.938577914
 20
25.2434444685
 10
35.8678198566
 20
25.2093140832
 10
35.7949943596
 20
25.1766651242
 10
35.7201944417
 20
25.1455392933
 10
35.6435156437
 20
25.115976347
 10
35.5650559062
 20
25.0880140457
 10
35.4849154443
 20
25.0616881051
 10
35.4031966204
 20
25.0370321509
 10
35.3200038123
 20
25.0140776757
 10
35.235443281
 20
24.992853999
 10
35.1496230342
 20
24.9733882293
 10
35.0626526887
 20
24.95570523
 10
34.9746433303
 20
24.9398275873
 10
34.8857073719
 20
24.9257755814
 10
34.7959584099
 20
24.9135671607
 10
34.7055110791
 20
24.9032179188
 10
34.6144809065
 20
24.8947410747
 10
34.5229841634
 20
24.8881474557
 10
34.4311377171
 20
24.8834454837
 10
34.3390588814
 20
24.8806411644
 10
34.2468652673
 20
24.8797380798
 10
34.154674632
 20
24.8807373834
 10
34.0626047292
 20
24.8836377987
 10
33.9707731582
 20
24.8884356212
 10
33.8792972139
 20
24.8951247225
 10
33.7882937371
 20
24.903696559
  0
LWPOLYLINE
  5
CF
330
1F
100
AcDbEntity
  8
0
  6
Continuous
 62
     7
370
    25
100
AcDbPolyline
 90
       14
 70
   128
 43
0.0
 10
36.7876946041
 20
26.6352138231
 10
36.79925734
 20
26.6542688193
 10
36.8074741442
 20
26.6738940181
 10
36.8122632602
 20
26.6938941502
 10
36.8135770366
 20
26.714070216
 10
36.8114024016
 20
26.734221465
 10
36.8057609924
 20
26.7541473938
 10
36.7967089408
 20
26.773649741
 10
36.7843363139
 20
26.7925344597
 10
36.7687662184
 20
26.8106136483
 10
36.7501535757
 20
26.8277074203
 10
36.7286835801
 20
26.8436456939
 10
36.7045698565
 20
26.8582698846
 10
36.6780523346
 20
26.8714344826
  0
ARC
  5
D0
330
1F
100
AcDbEntity
  8
0
  6
Continuous
 62
     7
370
    25
100
AcDbCircle
 10
34.2491974582
 20
22.5084627117
 30
0.0
 40
4.312408431364449
100
AcDbArc
 50
78.2855812734
 51
101.7144187266
  0
LWPOLYLINE
  5
D1
330
1F
100
AcDbEntity
  8
0
  6
Continuous
 62
     7
370
    25
100
AcDbPolyline
 90
       29
 70
   128
 43
0.0
 10
31.7431222562
 20
26.6166968216
 10
31.7431060495
 20
26.6166470639
 10
31.7278430469
 20
26.5646741883
 10
31.7158132155
 20
26.5124191641
 10
31.7070319814
 20
26.4599489987
 10
31.7015106049
 20
26.4073309753
 10
31.6992561661
 20
26.3546325669
 10
31.7002715559
 20
26.3019213494
 10
31.7045554723
 20
26.2492649152
 10
31.712102422
 20
26.1967307865
 10
31.7229027274
 20
26.1443863285
 10
31.736942539
 20
26.0922986635
 10
31.7542038535
 20
26.0405345841
 10
31.7746645363
 20
25.9891604683
 10
31.7982983505
 20
25.9382421939
 10
31.82507499
 20
25.8878450541
 10
31.8549601187
 20
25.8380336741
 10
31.8879154145
 20
25.7888719275
 10
31.9238986184
 20
25.7404228554
 10
31.9628635884
 20
25.6927485847
 10
32.0047603592
 20
25.6459102489
 10
32.0495352059
 20
25.5999679094
 10
32.0971307132
 20
25.5549804789
 10
32.1474858484
 20
25.5110056454
 10
32.2005360406
 20
25.4680997984
 10
32.2562132625
 20
25.4263179569
 10
32.3144461185
 20
25.3857136983
 10
32.3751599356
 20
25.3463390901
 10
32.4352359125
 20
25.3100184131
  0
LINE
  5
D2
330
1F
100
AcDbEntity
  8
0
  6
Continuous
 62
     7
370
    25
100
AcDbLine
 10
36.7651471685
 20
26.5844070918
 30
0.0
 11
36.7651471685
 21
26.5807007941
 31
0.0
  0
LWPOLYLINE
  5
D3
330
1F
100
AcDbEntity
  8
0
  6
Continuous
 62
     7
370
    25
100
AcDbPolyline
 90
       28
 70
   128
 43
0.0
 10
36.0631590038
 20
25.3100184131
 10
36.0843150962
 20
25.3225274454
 10
36.146530678
 20
25.3611128844
 10
36.2063132804
 20
25.4009595197
 10
36.2635862433
 20
25.4420162555
 10
36.3182761247
 20
25.484230444
 10
36.370312795
 20
25.5275479534
 10
36.4196295267
 20
25.5719132369
 10
36.4661630802
 20
25.6172694043
 10
36.5098537849
 20
25.6635582947
 10
36.5506456155
 20
25.710720551
 10
36.588486264
 20
25.7586956965
 10
36.6233272068
 20
25.8074222119
 10
36.6551237668
 20
25.8568376143
 10
36.6838351707
 20
25.9068785378
 10
36.7094246015
 20
25.957480814
 10
36.7318592456
 20
26.0085795549
 10
36.7511103345
 20
26.0601092357
 10
36.7671531824
 20
26.1120037793
 10
36.7799672172
 20
26.1641966404
 10
36.7895360073
 20
26.2166208912
 10
36.7958472826
 20
26.2692093075
 10
36.7988929499
 20
26.3218944543
 10
36.7986691038
 20
26.3746087726
 10
36.7951760312
 20
26.427284666
 10
36.7884182115
 20
26.4798545874
 10
36.7784043103
 20
26.5322511256
 10
36.7651471685
 20
26.5844070918
  0
LINE
  5
D4
330
1F
100
AcDbEntity
  8
0
  6
Continuous
 62
     7
370
    25
100
AcDbLine
 10
36.7651471685
 20
26.5844070918
 30
0.0
 11
36.7876946041
 21
26.6352138231
 31
0.0
  0
LINE
  5
D5
330
1F
100
AcDbEntity
  8
0
  6
Continuous
 62
     7
370
    25
100
AcDbLine
 10
32.281246303
 20
27.3322882639
 30
0.0
 11
32.279011515
 21
27.2954299372
 31
0.0
  0
LINE
  5
D6
330
1F
100
AcDbEntity
  8
0
  6
Continuous
 62
     7
370
    25
100
AcDbLine
 10
32.6122980821
 20
27.4911745437
 30
0.0
 11
32.5807945541
 21
27.5052137884
 31
0.0
  0
LINE
  5
D7
330
1F
100
AcDbEntity
  8
0
  6
Continuous
 62
     7
370
    25
100
AcDbLine
 10
36.6780523346
 20
26.8714344826
 30
0.0
 11
36.6413139842
 21
26.8642987462
 31
0.0
  0
LWPOLYLINE
  5
D8
330
1F
100
AcDbEntity
  8
0
  6
Continuous
 62
     7
370
    25
100
AcDbPolyline
 90
       31
 70
   128
 43
0.0
 10
33.5982108647
 20
21.5089390008
 10
33.6067423843
 20
21.5184854582
 10
33.6124149538
 20
21.5297361731
 10
33.6149806549
 20
21.5421994353
 10
33.6143273539
 20
21.5553305404
 10
33.6104836034
 20
21.5685555961
 10
33.6036173936
 20
21.581296604
 10
33.5940288108
 20
21.5929967209
 10
33.5821369222
 20
21.6031445957
 10
33.5684614604
 20
21.6112967174
 10
33.5536001085
 20
21.6170967992
 10
33.5382023791
 20
21.6202913497
 10
33.5229412268
 20
21.6207407518
 10
33.5084836372
 20
21.6184253644
 10
33.4954614763
 20
21.613446381
 10
33.484443875
 20
21.6060214071
 10
33.4759123554
 20
21.5964749497
 10
33.4702397859
 20
21.5852242348
 10
33.4676740848
 20
21.5727609727
 10
33.4683273858
 20
21.5596298676
 10
33.4721711364
 20
21.5464048119
 10
33.4790373462
 20
21.533663804
 10
33.4886259289
 20
21.521963687
 10
33.5005178175
 20
21.5118158123
 10
33.5141932794
 20
21.5036636906
 10
33.5290546312
 20
21.4978636087
 10
33.5444523606
 20
21.4946690582
 10
33.5597135129
 20
21.4942196561
 10
33.5741711025
 20
21.4965350436
 10
33.5871932634
 20
21.501514027
 10
33.5982108647
 20
21.5089390008
  0
LINE
  5
D9
330
1F
100
AcDbEntity
  8
0
  6
Continuous
 62
     7
370
    25
100
AcDbLine
 10
33.5500175162
 20
21.5996938413
 30
0.0
 11
33.5010490009
 21
21.5918515185
 31
0.0
  0
LINE
  5
DA
330
1F
100
AcDbEntity
  8
0
  6
Continuous
 62
     7
370
    25
100
AcDbLine
 10
33.4923588545
 20
21.5496378812
 30
0.0
 11
33.5010490009
 21
21.5918515185
 31
0.0
  0
LINE
  5
DB
330
1F
100
AcDbEntity
  8
0
  6
Continuous
 62
     7
370
    25
100
AcDbLine
 10
33.5326372235
 20
21.5152665667
 30
0.0
 11
33.4923588545
 21
21.5496378812
 31
0.0
  0
LINE
  5
DC
330
1F
100
AcDbEntity
  8
0
  6
Continuous
 62
     7
370
    25
100
AcDbLine
 10
33.5326372235
 20
21.5152665667
 30
0.0
 11
33.5816057388
 21
21.5231088895
 31
0.0
  0
LINE
  5
DD
330
1F
100
AcDbEntity
  8
0
  6
Continuous
 62
     7
370
    25
100
AcDbLine
 10
33.5902958852
 20
21.5653225268
 30
0.0
 11
33.5816057388
 21
21.5231088895
 31
0.0
  0
LINE
  5
DE
330
1F
100
AcDbEntity
  8
0
  6
Continuous
 62
     7
370
    25
100
AcDbLine
 10
33.5902958852
 20
21.5653225268
 30
0.0
 11
33.5500175162
 21
21.5996938413
 31
0.0
  0
LINE
  5
DF
330
1F
100
AcDbEntity
  8
0
  6
Continuous
 62
     7
370
    25
100
AcDbLine
 10
33.5128279738
 20
21.5937379246
 30
0.0
 11
33.4923588545
 21
21.5496378812
 31
0.0
  0
LINE
  5
E0
330
1F
100
AcDbEntity
  8
0
  6
Continuous
 62
     7
370
    25
100
AcDbLine
 10
33.5533427471
 20
21.5598759355
 30
0.0
 11
33.5326372235
 21
21.5152665667
 31
0.0
  0
LINE
  5
E1
330
1F
100
AcDbEntity
  8
0
  6
Continuous
 62
     7
370
    25
100
AcDbLine
 10
33.5533427471
 20
21.5598759355
 30
0.0
 11
33.5898306975
 21
21.565719492
 31
0.0
  0
LINE
  5
E2
330
1F
100
AcDbEntity
  8
0
  6
Continuous
 62
     7
370
    25
100
AcDbLine
 10
33.5533427471
 20
21.5598759355
 30
0.0
 11
33.5135295658
 21
21.5938502848
 31
0.0
  0
LWPOLYLINE
  5
E3
330
1F
100
AcDbEntity
  8
0
  6
Continuous
 62
     7
370
    25
100
AcDbPolyline
 90
       30
 70
   128
 43
0.0
 10
36.1658156292
 20
24.9902200559
 10
36.1562201882
 20
24.9791255652
 10
36.1478832308
 20
24.9665054865
 10
36.1411945837
 20
24.9529499208
 10
36.1364670007
 20
24.9390927111
 10
36.1339215384
 20
24.9255818052
 10
36.1336772197
 20
24.9130489581
 10
36.1357454686
 20
24.9020801918
 10
36.1400295762
 20
24.8931883935
 10
36.1463292224
 20
24.8867893339
 10
36.1543498427
 20
24.8831822259
 10
36.1637164017
 20
24.8825357339
 10
36.1739909297
 20
24.8848800871
 10
36.1846930011
 20
24.8901056661
 10
36.1953221989
 20
24.8979681287
 10
36.2053815137
 20
24.9080998349
 10
36.2144005831
 20
24.9200270374
 10
36.2219576854
 20
24.9331920333
 10
36.227699459
 20
24.9469792423
 10
36.2313574248
 20
24.9607439896
 10
36.2327605404
 20
24.973842651
 10
36.2318431978
 20
24.9856627476
 10
36.2286482908
 20
24.9956515849
 10
36.2233252098
 20
25.003342096
 10
36.2161228561
 20
25.008374681
 10
36.2073780037
 20
25.0105140219
 10
36.1974995523
 20
25.0096600855
 10
36.1869494072
 20
25.0058528009
 10
36.1762208815
 20
24.9992701926
 10
36.1658156292
 20
24.9902200559
  0
LINE
  5
E4
330
1F
100
AcDbEntity
  8
0
  6
Continuous
 62
     7
370
    25
100
AcDbLine
 10
36.1587614405
 20
24.8983829531
 30
0.0
 11
36.1964808251
 21
24.9128063295
 31
0.0
  0
LINE
  5
E5
330
1F
100
AcDbEntity
  8
0
  6
Continuous
 62
     7
370
    25
100
AcDbLine
 10
36.2208538893
 20
24.9609222475
 30
0.0
 11
36.1964808251
 21
24.9128063295
 31
0.0
  0
LINE
  5
E6
330
1F
100
AcDbEntity
  8
0
  6
Continuous
 62
     7
370
    25
100
AcDbLine
 10
36.207507569
 20
24.9946147891
 30
0.0
 11
36.2208538893
 21
24.9609222475
 31
0.0
  0
LINE
  5
E7
330
1F
100
AcDbEntity
  8
0
  6
Continuous
 62
     7
370
    25
100
AcDbLine
 10
36.207507569
 20
24.9946147891
 30
0.0
 11
36.1697881845
 21
24.9801914127
 31
0.0
  0
LINE
  5
E8
330
1F
100
AcDbEntity
  8
0
  6
Continuous
 62
     7
370
    25
100
AcDbLine
 10
36.1454151202
 20
24.9320754948
 30
0.0
 11
36.1697881845
 21
24.9801914127
 31
0.0
  0
LINE
  5
E9
330
1F
100
AcDbEntity
  8
0
  6
Continuous
 62
     7
370
    25
100
AcDbLine
 10
36.1454151202
 20
24.9320754948
 30
0.0
 11
36.1587614405
 21
24.8983829531
 31
0.0
  0
LINE
  5
EA
330
1F
100
AcDbEntity
  8
0
  6
Continuous
 62
     7
370
    25
100
AcDbLine
 10
36.1804276708
 20
24.9842598067
 30
0.0
 11
36.2208538893
 21
24.9609222475
 31
0.0
  0
LINE
  5
EB
330
1F
100
AcDbEntity
  8
0
  6
Continuous
 62
     7
370
    25
100
AcDbLine
 10
36.1494169683
 20
24.9399757157
 30
0.0
 11
36.1964808251
 21
24.9128063295
 31
0.0
  0
ARC
  5
EC
330
1F
100
AcDbEntity
  8
0
  6
Continuous
 62
     7
370
    25
100
AcDbCircle
 10
36.0694699252
 20
23.2112194226
 30
0.0
 40
0.9147265575825424
100
AcDbArc
 50
352.9660979143
 51
0.7639985593
  0
ARC
  5
ED
330
1F
100
AcDbEntity
  8
0
  6
Continuous
 62
     7
370
    25
100
AcDbCircle
 10
32.4304528116
 20
23.2112920108
 30
0.0
 40
0.9162532790288845
100
AcDbArc
 50
179.2418140731
 51
187.6082674681
  0
SPLINE
  5
EE
330
1F
100
AcDbEntity
  8
0
  6
Continuous
 62
     7
370
    25
100
AcDbSpline
210
0.0
220
0.0
230
1.0
 70
    11
 71
     3
 72
    26
 73
    22
 74
     0
 42
0.00000001
 43
0.00000001
 40
0.0
 40
0.0
 40
0.0
 40
0.0
 40
0.0536750643289569
 40
0.1073496429989223
 40
0.1610368245232698
 40
0.2147322126651463
 40
0.2684139093946462
 40
0.3220813954451807
 40
0.3757563163972606
 40
0.4294487206345773
 40
0.483141377998556
 40
0.5368166456411944
 40
0.5904840298559573
 40
0.6441653367015172
 40
0.6978606434325801
 40
0.7515481785370206
 40
0.8052183088844895
 40
0.8588885589374499
 40
0.9125762604136142
 40
0.9662715254958691
 40
0.9999999999999999
 40
0.9999999999999999
 40
0.9999999999999999
 40
0.9999999999999999
 10
33.61379475640626
 20
21.54688128611263
 30
0.0
 10
33.61299074370844
 20
21.54012976256418
 30
0.0
 10
33.61138272558759
 20
21.52662677655593
 30
0.0
 10
33.59885790185994
 20
21.51010514069512
 30
0.0
 10
33.58044122230408
 20
21.49885045295865
 30
0.0
 10
33.55749008878472
 20
21.49430210651433
 30
0.0
 10
33.53281758783345
 20
21.4969934201128
 30
0.0
 10
33.50915716319742
 20
21.50663166908766
 30
0.0
 10
33.48916819271997
 20
21.52209262749417
 30
0.0
 10
33.47506846054164
 20
21.54157621623448
 30
0.0
 10
33.46842394774252
 20
21.56282335181237
 30
0.0
 10
33.46996787821259
 20
21.5833995234239
 30
0.0
 10
33.47952578708047
 20
21.6009948216891
 30
0.0
 10
33.49604411254727
 20
21.61367817800466
 30
0.0
 10
33.51769554589735
 20
21.6200847198784
 30
0.0
 10
33.54206549180343
 20
21.61954376835718
 30
0.0
 10
33.56640054022594
 20
21.61214170339093
 30
0.0
 10
33.58799169700551
 20
21.59868332264564
 30
0.0
 10
33.60422949118423
 20
21.58065697806311
 30
0.0
 10
33.61263664606324
 20
21.56247750788947
 30
0.0
 10
33.61347234137266
 20
21.55122323539115
 30
0.0
 10
33.61379475640626
 20
21.54688128611263
 30
0.0
  0
ARC
  5
EF
330
1F
100
AcDbEntity
  8
0
  6
Continuous
 62
     7
370
    25
100
AcDbCircle
 10
36.0678646969
 20
17.6996713055
 30
0.0
 40
0.916332774231647
100
AcDbArc
 50
352.7502209917
 51
359.9903953594
  0
ARC
  5
F0
330
1F
100
AcDbEntity
  8
0
  6
Continuous
 62
     7
370
    25
100
AcDbCircle
 10
32.4297304618
 20
17.699608005
 30
0.0
 40
0.915533008035023
100
AcDbArc
 50
180.0056515646
 51
187.6457084115
  0
LWPOLYLINE
  5
F1
330
1F
100
AcDbEntity
  8
0
  6
Continuous
 62
     7
370
    25
100
AcDbPolyline
 90
      176
 70
   128
 43
0.0
 10
32.451378467
 20
27.4069985806
 10
32.3880022441
 20
27.369074515
 10
32.3270250137
 20
27.3298615807
 10
32.2685253728
 20
27.2894103214
 10
32.2125787244
 20
27.2477728769
 10
32.1592571814
 20
27.2050029158
 10
32.1086294725
 20
27.1611555667
 10
32.0607608546
 20
27.1162873467
 10
32.0157130279
 20
27.0704560888
 10
31.9735440571
 20
27.0237208673
 10
31.9343082958
 20
26.9761419217
 10
31.8980563173
 20
26.927780579
 10
31.8648348485
 20
26.8786991748
 10
31.8346867103
 20
26.8289609726
 10
31.8076507624
 20
26.7786300826
 10
31.7837618527
 20
26.7277713789
 10
31.7630507728
 20
26.6764504161
 10
31.7455442185
 20
26.6247333443
 10
31.7312647549
 20
26.5726868246
 10
31.7202307874
 20
26.5203779422
 10
31.7124565384
 20
26.4678741211
 10
31.7079520285
 20
26.415243036
 10
31.7067230638
 20
26.362552526
 10
31.7087712283
 20
26.3098705067
 10
31.7140938821
 20
26.2572648826
 10
31.7226841646
 20
26.2048034599
 10
31.7345310032
 20
26.152553859
 10
31.7496191279
 20
26.1005834271
 10
31.767929091
 20
26.0489591516
 10
31.7894372916
 20
25.9977475738
 10
31.8141160068
 20
25.947014703
 10
31.8419334268
 20
25.8968259314
 10
31.8728536963
 20
25.84724595
 10
31.9068369606
 20
25.798338665
 10
31.9438394168
 20
25.7501671157
 10
31.9838133705
 20
25.7027933929
 10
32.0267072971
 20
25.6562785591
 10
32.0724659085
 20
25.6106825696
 10
32.1210302239
 20
25.5660641956
 10
32.1723376462
 20
25.522480948
 10
32.2263220427
 20
25.4799890037
 10
32.2829138299
 20
25.4386431326
 10
32.3420400637
 20
25.3984966276
 10
32.4036245332
 20
25.3596012358
 10
32.4675878589
 20
25.3220070914
 10
32.5338475952
 20
25.2857626516
 10
32.6023183363
 20
25.2509146336
 10
32.6729118267
 20
25.2175079549
 10
32.7455370748
 20
25.1855856751
 10
32.82010047
 20
25.1551889407
 10
32.8965059037
 20
25.1263569314
 10
32.9746548928
 20
25.0991268105
 10
33.054446707
 20
25.0735336762
 10
33.1357784984
 20
25.0496105169
 10
33.2185454342
 20
25.0273881684
 10
33.3026408317
 20
25.0068952742
 10
33.387956296
 20
24.9881582488
 10
33.4743818594
 20
24.9712012433
 10
33.5618061234
 20
24.9560461144
 10
33.6501164024
 20
24.9427123965
 10
33.7391988686
 20
24.9312172759
 10
33.8289386988
 20
24.9215755695
 10
33.9192202227
 20
24.9137997049
 10
34.0099270716
 20
24.9078997048
 10
34.1009423287
 20
24.903883174
 10
34.1921486797
 20
24.9017552897
 10
34.2834285639
 20
24.9015187946
 10
34.3746643258
 20
24.9031739935
 10
34.4657383668
 20
24.906718753
 10
34.5565332969
 20
24.9121485041
 10
34.6469320856
 20
24.919456248
 10
34.7368182131
 20
24.9286325653
 10
34.8260758206
 20
24.9396656284
 10
34.9145898591
 20
24.952541216
 10
35.0022462383
 20
24.9672427322
 10
35.0889319732
 20
24.9837512274
 10
35.1745353301
 20
25.0020454229
 10
35.2589459702
 20
25.0221017383
 10
35.3420550921
 20
25.0438943221
 10
35.4237555723
 20
25.0673950846
 10
35.5039421026
 20
25.0925737344
 10
35.5825113264
 20
25.1193978175
 10
35.6593619717
 20
25.1478327588
 10
35.7343949816
 20
25.1778419072
 10
35.8075136421
 20
25.2093865822
 10
35.8786237068
 20
25.2424261241
 10
35.947633518
 20
25.2769179467
 10
36.0144541255
 20
25.3128175916
 10
36.0789994006
 20
25.3500787858
 10
36.1411861476
 20
25.3886535014
 10
36.2009342106
 20
25.4284920174
 10
36.2581665772
 20
25.469542984
 10
36.3128094776
 20
25.5117534882
 10
36.3647924797
 20
25.5550691228
 10
36.4140485798
 20
25.599434056
 10
36.4605142893
 20
25.6447911035
 10
36.5041297159
 20
25.6910818021
 10
36.5448386414
 20
25.7382464854
 10
36.582588594
 20
25.7862243603
 10
36.6173309158
 20
25.8349535855
 10
36.6490208255
 20
25.8843713516
 10
36.6776174764
 20
25.9344139611
 10
36.7030840087
 20
25.9850169117
 10
36.7253875973
 20
26.0361149785
 10
36.7444994939
 20
26.0876422985
 10
36.7603950642
 20
26.1395324554
 10
36.7730538195
 20
26.1917185653
 10
36.7824594433
 20
26.2441333628
 10
36.7885998121
 20
26.2967092876
 10
36.7914670115
 20
26.3493785718
 10
36.7910573456
 20
26.4020733273
 10
36.7873713424
 20
26.454725633
 10
36.7804137532
 20
26.5072676225
 10
36.7701935459
 20
26.5596315718
 10
36.7567238938
 20
26.6117499862
 10
36.7400221587
 20
26.6635556875
 10
36.7201098684
 20
26.7149819005
 10
36.6970126888
 20
26.7659623394
 10
36.6707603911
 20
26.8164312928
 10
36.6413868133
 20
26.8663237086
 10
36.6089298165
 20
26.9155752778
 10
36.5734312363
 20
26.9641225174
 10
36.5349368287
 20
27.0119028524
 10
36.4934962111
 20
27.0588546962
 10
36.4491627986
 20
27.1049175301
 10
36.4019937348
 20
27.1500319812
 10
36.3520498183
 20
27.1941398992
 10
36.2993954246
 20
27.237184431
 10
36.2440984227
 20
27.2791100943
 10
36.1862300877
 20
27.3198628489
 10
36.1258650093
 20
27.3593901663
 10
36.0630809952
 20
27.3976410979
 10
35.9979589709
 20
27.4345663399
 10
35.9305828758
 20
27.4701182974
 10
35.8610395544
 20
27.5042511456
 10
35.7894186447
 20
27.536920889
 10
35.7158124627
 20
27.5680854177
 10
35.6403158834
 20
27.5977045621
 10
35.5630262182
 20
27.6257401447
 10
35.4840430898
 20
27.6521560287
 10
35.4034683038
 20
27.6769181655
 10
35.3214057173
 20
27.6999946378
 10
35.237961105
 20
27.721355701
 10
35.1532420231
 20
27.7409738219
 10
35.0673576706
 20
27.7588237136
 10
34.9804187482
 20
27.7748823683
 10
34.8925373162
 20
27.7891290873
 10
34.8038266495
 20
27.8015455073
 10
34.714401092
 20
27.812115624
 10
34.624375909
 20
27.820825813
 10
34.5338671387
 20
27.8276648473
 10
34.4429914427
 20
27.8326239118
 10
34.3518659554
 20
27.8356966145
 10
34.2606081332
 20
27.8368789947
 10
34.1693356033
 20
27.8361695285
 10
34.0781660114
 20
27.8335691302
 10
33.9872168711
 20
27.8290811518
 10
33.8966054113
 20
27.822711378
 10
33.806448426
 20
27.8144680191
 10
33.7168621233
 20
27.8043617004
 10
33.6279619756
 20
27.7924054485
 10
33.5398625711
 20
27.7786146745
 10
33.4526774657
 20
27.7630071539
 10
33.366519037
 20
27.7456030042
 10
33.2814983389
 20
27.7264246585
 10
33.1977249593
 20
27.7054968368
 10
33.1153068781
 20
27.6828465139
 10
33.0343503281
 20
27.6585028852
 10
32.9549596587
 20
27.6324973285
 10
32.8772372006
 20
27.6048633635
 10
32.8012831343
 20
27.5756366093
 10
32.7271953612
 20
27.5448547377
 10
32.6550693768
 20
27.5125574251
 10
32.5849981481
 20
27.4787863012
 10
32.5170719937
 20
27.4435848954
 10
32.451378467
 20
27.4069985806
  0
LWPOLYLINE
  5
F2
330
1F
100
AcDbEntity
  8
0
  6
Continuous
 62
     7
370
    25
100
AcDbPolyline
 90
      124
 70
   128
 43
0.0
 10
33.3653139817
 20
26.8793948384
 10
33.321335342
 20
26.8526753129
 10
33.2797773886
 20
26.8246942983
 10
33.2407485415
 20
26.795524794
 10
33.2043506224
 20
26.7652428999
 10
33.1706785895
 20
26.7339276179
 10
33.1398202891
 20
26.701660646
 10
33.1118562271
 20
26.6685261652
 10
33.0868593585
 20
26.6346106194
 10
33.0648948973
 20
26.6000024905
 10
33.0460201463
 20
26.5647920671
 10
33.0302843475
 20
26.5290712092
 10
33.0177285538
 20
26.4929331085
 10
33.0083855219
 20
26.456472045
 10
33.0022796267
 20
26.4197831416
 10
32.9994267977
 20
26.3829621154
 10
32.9998344776
 20
26.3461050283
 10
33.003501603
 20
26.3093080362
 10
33.0104186066
 20
26.2726671383
 10
33.0205674427
 20
26.2362779265
 10
33.0339216343
 20
26.200235336
 10
33.0504463418
 20
26.1646333979
 10
33.070098454
 20
26.1295649936
 10
33.092826701
 20
26.0951216125
 10
33.1185717871
 20
26.0613931134
 10
33.1472665466
 20
26.0284674903
 10
33.178836118
 20
25.9964306423
 10
33.21319814
 20
25.9653661498
 10
33.2502629659
 20
25.9353550565
 10
33.2899338978
 20
25.9064756581
 10
33.3321074388
 20
25.8788032975
 10
33.3766735629
 20
25.8524101688
 10
33.4235160023
 20
25.8273651285
 10
33.4725125503
 20
25.8037335165
 10
33.5235353806
 20
25.7815769848
 10
33.5764513803
 20
25.7609533374
 10
33.6311224978
 20
25.7419163789
 10
33.6874061023
 20
25.7245157746
 10
33.7451553563
 20
25.7087969207
 10
33.8042195985
 20
25.6948008258
 10
33.8644447372
 20
25.6825640043
 10
33.9256736518
 20
25.6721183806
 10
33.9877466031
 20
25.6634912061
 10
34.0505016498
 20
25.6567049881
 10
34.1137750712
 20
25.6517774311
 10
34.1774017942
 20
25.6487213906
 10
34.2412158238
 20
25.6475448393
 10
34.3050506766
 20
25.6482508468
 10
34.3687398147
 20
25.6508375712
 10
34.4321170805
 20
25.6552982641
 10
34.4950171299
 20
25.6616212879
 10
34.5572758638
 20
25.6697901466
 10
34.6187308563
 20
25.6797835287
 10
34.6792217784
 20
25.6915753624
 10
34.7385908161
 20
25.7051348844
 10
34.7966830824
 20
25.7204267192
 10
34.8533470213
 20
25.7374109724
 10
34.9084348029
 20
25.7560433338
 10
34.9618027096
 20
25.7762751939
 10
35.0133115105
 20
25.7980537699
 10
35.0628268251
 20
25.8213222441
 10
35.1102194736
 20
25.8460199116
 10
35.155365814
 20
25.8720823392
 10
35.1981480646
 20
25.8994415328
 10
35.2384546114
 20
25.9280261155
 10
35.2761802992
 20
25.9577615133
 10
35.3112267061
 20
25.98857015
 10
35.3435023999
 20
26.0203716495
 10
35.3729231771
 20
26.0530830451
 10
35.3994122822
 20
26.0866189966
 10
35.4229006081
 20
26.1208920126
 10
35.4433268765
 20
26.1558126786
 10
35.4606377977
 20
26.1912898906
 10
35.4747882092
 20
26.2272310927
 10
35.4857411945
 20
26.2635425182
 10
35.4934681784
 20
26.300129435
 10
35.497949002
 20
26.3368963918
 10
35.4991719754
 20
26.373747468
 10
35.497133908
 20
26.4105865231
 10
35.4918401169
 20
26.4473174484
 10
35.483304413
 20
26.4838444171
 10
35.4715490649
 20
26.5200721344
 10
35.4566047411
 20
26.5559060865
 10
35.4385104295
 20
26.5912527865
 10
35.4173133362
 20
26.626020019
 10
35.3930687619
 20
26.6601170803
 10
35.365839958
 20
26.693455015
 10
35.3356979614
 20
26.7259468483
 10
35.3027214089
 20
26.7575078126
 10
35.2669963328
 20
26.788055569
 10
35.2286159356
 20
26.817510422
 10
35.1876803474
 20
26.8457955271
 10
35.1442963646
 20
26.8728370917
 10
35.0985771708
 20
26.8985645676
 10
35.0506420424
 20
26.9229108346
 10
35.0006160366
 20
26.9458123761
 10
34.9486296655
 20
26.9672094446
 10
34.8948185557
 20
26.9870462177
 10
34.8393230941
 20
27.0052709433
 10
34.7822880621
 20
27.0218360754
 10
34.7238622576
 20
27.0366983973
 10
34.6641981068
 20
27.0498191349
 10
34.6034512667
 20
27.0611640579
 10
34.5417802189
 20
27.0707035684
 10
34.479345856
 20
27.0784127791
 10
34.4163110623
 20
27.0842715775
 10
34.3528402883
 20
27.0882646787
 10
34.2890991219
 20
27.0903816651
 10
34.2252538567
 20
27.0906170137
 10
34.1614710576
 20
27.0889701106
 10
34.0979171266
 20
27.0854452523
 10
34.0347578688
 20
27.0800516348
 10
33.9721580593
 20
27.0728033294
 10
33.9102810141
 20
27.0637192461
 10
33.8492881631
 20
27.0528230843
 10
33.7893386298
 20
27.0401432707
 10
33.7305888157
 20
27.0257128856
 10
33.6731919923
 20
27.0095695763
 10
33.6172979015
 20
26.9917554587
 10
33.5630523644
 20
26.9723170078
 10
33.5105969015
 20
26.9513049364
 10
33.4600683632
 20
26.9287740625
 10
33.4115985725
 20
26.9047831667
 10
33.3653139817
 20
26.8793948384
  0
LWPOLYLINE
  5
F3
330
1F
100
AcDbEntity
  8
0
  6
Continuous
 62
     7
370
    25
100
AcDbPolyline
 90
       35
 70
   128
 43
0.0
 10
35.6917836802
 20
25.5363524689
 10
35.6799356655
 20
25.5281157152
 10
35.6709111279
 20
25.5187624139
 10
35.6650173872
 20
25.5086110804
 10
35.6624551477
 20
25.4980074062
 10
35.6633116634
 20
25.4873124867
 10
35.6675577666
 20
25.4768905246
 10
35.6750488614
 20
25.4670964273
 10
35.6855298476
 20
25.458263721
 10
35.6986438077
 20
25.450693193
 10
35.7139441616
 20
25.4446426485
 10
35.730909874
 20
25.4403181315
 10
35.748963198
 20
25.4378669083
 10
35.7674893493
 20
25.4373724523
 10
35.785857442
 20
25.4388516017
 10
35.8034419727
 20
25.4422539857
 10
35.8196441213
 20
25.4474637404
 10
35.8339121432
 20
25.4543034537
 10
35.8457601579
 20
25.4625402074
 10
35.8547846955
 20
25.4718935087
 10
35.8606784362
 20
25.4820448422
 10
35.8632406757
 20
25.4926485164
 10
35.86238416
 20
25.5033434359
 10
35.8581380568
 20
25.513765398
 10
35.850646962
 20
25.5235594953
 10
35.8401659758
 20
25.5323922016
 10
35.8270520157
 20
25.5399627296
 10
35.8117516618
 20
25.5460132742
 10
35.7947859494
 20
25.5503377911
 10
35.7767326254
 20
25.5527890144
 10
35.7582064741
 20
25.5532834703
 10
35.7398383814
 20
25.5518043209
 10
35.7222538507
 20
25.5484019369
 10
35.706051702
 20
25.5431921822
 10
35.6917836802
 20
25.5363524689
  0
LWPOLYLINE
  5
F4
330
1F
100
AcDbEntity
  8
0
  6
Continuous
 62
     7
370
    25
100
AcDbPolyline
 90
       35
 70
   128
 43
0.0
 10
32.6644827732
 20
27.2839760833
 10
32.6526347585
 20
27.2757393296
 10
32.643610221
 20
27.2663860283
 10
32.6377164803
 20
27.2562346948
 10
32.6351542408
 20
27.2456310206
 10
32.6360107564
 20
27.2349361011
 10
32.6402568597
 20
27.224514139
 10
32.6477479545
 20
27.2147200417
 10
32.6582289407
 20
27.2058873354
 10
32.6713429008
 20
27.1983168074
 10
32.6866432546
 20
27.1922662628
 10
32.7036089671
 20
27.1879417458
 10
32.7216622911
 20
27.1854905226
 10
32.7401884423
 20
27.1849960667
 10
32.758556535
 20
27.186475216
 10
32.7761410657
 20
27.1898776001
 10
32.7923432144
 20
27.1950873548
 10
32.8066112362
 20
27.2019270681
 10
32.8184592509
 20
27.2101638218
 10
32.8274837885
 20
27.2195171231
 10
32.8333775292
 20
27.2296684566
 10
32.8359397687
 20
27.2402721308
 10
32.835083253
 20
27.2509670503
 10
32.8308371498
 20
27.2613890124
 10
32.823346055
 20
27.2711831097
 10
32.8128650688
 20
27.280015816
 10
32.7997511087
 20
27.287586344
 10
32.7844507548
 20
27.2936368885
 10
32.7674850424
 20
27.2979614055
 10
32.7494317184
 20
27.3004126287
 10
32.7309055671
 20
27.3009070847
 10
32.7125374745
 20
27.2994279353
 10
32.6949529437
 20
27.2960255512
 10
32.6787507951
 20
27.2908157966
 10
32.6644827732
 20
27.2839760833
  0
LWPOLYLINE
  5
F5
330
1F
100
AcDbEntity
  8
0
  6
Continuous
 62
     7
370
    25
100
AcDbPolyline
 90
       36
 70
   128
 43
0.0
 10
32.9399432909
 20
25.6962419156
 10
32.9282739503
 20
25.6881728144
 10
32.9192879391
 20
25.6790305266
 10
32.913274075
 20
25.6691088927
 10
32.9104256486
 20
25.6587268022
 10
32.9108342105
 20
25.6482179441
 10
32.9144866294
 20
25.6379200817
 10
32.9212655135
 20
25.6281641968
 10
32.9309529838
 20
25.6192638516
 10
32.9432376771
 20
25.6115051104
 10
32.9577247533
 20
25.6051373456
 10
32.9739485857
 20
25.6003652224
 10
32.9913877271
 20
25.5973421208
 10
33.0094816691
 20
25.5961652057
 10
33.0276488576
 20
25.5968723042
 10
33.0453053841
 20
25.5994406895
 10
33.0618837533
 20
25.6037878115
 10
33.0768511229
 20
25.6097739504
 10
33.0897264292
 20
25.6172067065
 10
33.1000958493
 20
25.625847185
 10
33.1076261016
 20
25.6354176739
 10
33.1120751574
 20
25.6456105697
 10
33.1133000206
 20
25.6560982643
 10
33.111261323
 20
25.6665436747
 10
33.1060245899
 20
25.6766110767
 10
33.0977581344
 20
25.6859768959
 10
33.0867276471
 20
25.6943401069
 10
33.0732876569
 20
25.7014319094
 10
33.0578701362
 20
25.707024367
 10
33.0409706168
 20
25.7109377334
 10
33.0231322632
 20
25.71304623
 10
33.0049284146
 20
25.7132820878
 10
32.9869441578
 20
25.7116377262
 10
32.9697575216
 20
25.7081659964
 10
32.9539208986
 20
25.7029784825
 10
32.9399432909
 20
25.6962419156
  0
LWPOLYLINE
  5
F6
330
1F
100
AcDbEntity
  8
0
  6
Continuous
 62
     7
370
    25
100
AcDbPolyline
 90
       36
 70
   128
 43
0.0
 10
35.4148170251
 20
27.1249561113
 10
35.4031476845
 20
27.1168870101
 10
35.3941616733
 20
27.1077447223
 10
35.3881478092
 20
27.0978230884
 10
35.3852993827
 20
27.0874409979
 10
35.3857079447
 20
27.0769321398
 10
35.3893603636
 20
27.0666342774
 10
35.3961392477
 20
27.0568783925
 10
35.405826718
 20
27.0479780473
 10
35.4181114113
 20
27.0402193061
 10
35.4325984874
 20
27.0338515413
 10
35.4488223199
 20
27.0290794181
 10
35.4662614613
 20
27.0260563165
 10
35.4843554033
 20
27.0248794014
 10
35.5025225917
 20
27.0255864999
 10
35.5201791182
 20
27.0281548851
 10
35.5367574875
 20
27.0325020072
 10
35.551724857
 20
27.0384881461
 10
35.5646001633
 20
27.0459209022
 10
35.5749695835
 20
27.0545613807
 10
35.5824998357
 20
27.0641318696
 10
35.5869488916
 20
27.0743247654
 10
35.5881737548
 20
27.08481246
 10
35.5861350571
 20
27.0952578704
 10
35.5808983241
 20
27.1053252724
 10
35.5726318686
 20
27.1146910915
 10
35.5616013813
 20
27.1230543026
 10
35.5481613911
 20
27.1301461051
 10
35.5327438704
 20
27.1357385627
 10
35.515844351
 20
27.1396519291
 10
35.4980059973
 20
27.1417604257
 10
35.4798021487
 20
27.1419962835
 10
35.4618178919
 20
27.1403519219
 10
35.4446312557
 20
27.1368801921
 10
35.4287946327
 20
27.1316926782
 10
35.4148170251
 20
27.1249561113
  0
LWPOLYLINE
  5
F7
330
1F
100
AcDbEntity
  8
0
  6
Continuous
 62
     7
370
    25
100
AcDbPolyline
 90
       29
 70
   128
 43
0.0
 10
32.8480632193
 20
26.3413818927
 10
32.8361581394
 20
26.3359011321
 10
32.8224389344
 20
26.3320870956
 10
32.8075935426
 20
26.3301310348
 10
32.7923663738
 20
26.3301310348
 10
32.777520982
 20
26.3320870956
 10
32.763801777
 20
26.3359011321
 10
32.7518966971
 20
26.3413818927
 10
32.7424027127
 20
26.348254549
 10
32.7357958918
 20
26.3561744775
 10
32.7324075279
 20
26.3647445398
 10
32.7324075279
 20
26.3735349972
 10
32.7357958918
 20
26.3821050595
 10
32.7424027127
 20
26.3900249879
 10
32.7518966971
 20
26.3968976443
 10
32.763801777
 20
26.4023784048
 10
32.777520982
 20
26.4061924414
 10
32.7923663738
 20
26.4081485022
 10
32.8075935426
 20
26.4081485022
 10
32.8224389344
 20
26.4061924414
 10
32.8361581394
 20
26.4023784048
 10
32.8480632193
 20
26.3968976443
 10
32.8575572038
 20
26.3900249879
 10
32.8641640247
 20
26.3821050595
 10
32.8675523885
 20
26.3735349972
 10
32.8675523885
 20
26.3647445398
 10
32.8641640247
 20
26.3561744775
 10
32.8575572038
 20
26.348254549
 10
32.8480632193
 20
26.3413818927
  0
LWPOLYLINE
  5
F8
330
1F
100
AcDbEntity
  8
0
  6
Continuous
 62
     7
370
    25
100
AcDbPolyline
 90
       46
 70
   128
 43
0.0
 10
33.3653139817
 20
26.7262934362
 10
33.4115985725
 20
26.7516817645
 10
33.4600683632
 20
26.7756726603
 10
33.5105969015
 20
26.7982035342
 10
33.5630523644
 20
26.8192156056
 10
33.6172979015
 20
26.8386540564
 10
33.6731919923
 20
26.856468174
 10
33.7305888157
 20
26.8726114834
 10
33.7893386298
 20
26.8870418685
 10
33.8492881631
 20
26.899721682
 10
33.9102810141
 20
26.9106178439
 10
33.9721580593
 20
26.9197019272
 10
34.0347578688
 20
26.9269502326
 10
34.0979171266
 20
26.9323438501
 10
34.1614710576
 20
26.9358687084
 10
34.2252538567
 20
26.9375156115
 10
34.2890991219
 20
26.9372802629
 10
34.3528402883
 20
26.9351632765
 10
34.4163110623
 20
26.9311701753
 10
34.479345856
 20
26.9253113769
 10
34.5417802189
 20
26.9176021662
 10
34.6034512667
 20
26.9080626556
 10
34.6641981068
 20
26.8967177327
 10
34.7238622576
 20
26.883596995
 10
34.7822880621
 20
26.8687346731
 10
34.8393230941
 20
26.8521695411
 10
34.8948185557
 20
26.8339448154
 10
34.9486296655
 20
26.8141080424
 10
35.0006160366
 20
26.7927109739
 10
35.0506420424
 20
26.7698094324
 10
35.0985771708
 20
26.7454631654
 10
35.1442963646
 20
26.7197356895
 10
35.1876803474
 20
26.6926941249
 10
35.2286159356
 20
26.6644090198
 10
35.2669963328
 20
26.6349541668
 10
35.3027214089
 20
26.6044064104
 10
35.3356979614
 20
26.5728454461
 10
35.365839958
 20
26.5403536128
 10
35.3930687619
 20
26.5070156781
 10
35.4173133362
 20
26.4729186168
 10
35.4385104295
 20
26.4381513843
 10
35.4566047411
 20
26.4028046843
 10
35.4715490649
 20
26.3669707322
 10
35.483304413
 20
26.3307430149
 10
35.4918401169
 20
26.2942160462
 10
35.4921440219
 20
26.2925890674
  0
LWPOLYLINE
  5
F9
330
1F
100
AcDbEntity
  8
0
  6
Continuous
 62
     7
370
    25
100
AcDbPolyline
 90
       15
 70
   128
 43
0.0
 10
33.0062508945
 20
26.2925890674
 10
33.0083855219
 20
26.3033706428
 10
33.0177285538
 20
26.3398317062
 10
33.0302843475
 20
26.375969807
 10
33.0460201463
 20
26.4116906649
 10
33.0648948973
 20
26.4469010883
 10
33.0868593585
 20
26.4815092172
 10
33.1118562271
 20
26.515424763
 10
33.1398202891
 20
26.5485592438
 10
33.1706785895
 20
26.5808262156
 10
33.2043506224
 20
26.6121414976
 10
33.2407485415
 20
26.6424233918
 10
33.2797773886
 20
26.6715928961
 10
33.321335342
 20
26.6995739106
 10
33.3653139817
 20
26.7262934362
  0
ARC
  5
FA
330
1F
100
AcDbEntity
  8
0
  6
Continuous
 62
     7
370
    25
100
AcDbCircle
 10
35.7628479117
 20
25.3435514768
 30
0.0
 40
0.1441917160476862
100
AcDbArc
 50
55.222088634
 51
124.777911366
  0
ARC
  5
FB
330
1F
100
AcDbEntity
  8
0
  6
Continuous
 62
     7
370
    25
100
AcDbCircle
 10
35.7628479117
 20
25.1276646065
 30
0.0
 40
0.3257304560987244
100
AcDbArc
 50
79.6698999674
 51
100.3301000326
  0
ARC
  5
FC
330
1F
100
AcDbEntity
  8
0
  6
Continuous
 62
     7
370
    25
100
AcDbCircle
 10
32.7355470047
 20
27.0911750912
 30
0.0
 40
0.1441917160476855
100
AcDbArc
 50
55.222088634
 51
124.777911366
  0
ARC
  5
FD
330
1F
100
AcDbEntity
  8
0
  6
Continuous
 62
     7
370
    25
100
AcDbCircle
 10
32.7355470047
 20
26.8752882208
 30
0.0
 40
0.3257304560985849
100
AcDbArc
 50
79.6698999674
 51
100.3301000326
  0
LWPOLYLINE
  5
FE
330
1F
100
AcDbEntity
  8
0
  6
Continuous
 62
     7
370
    25
100
AcDbPolyline
 90
       89
 70
   128
 43
0.0
 10
36.9773121295
 20
23.0992051051
 10
36.9759505539
 20
23.0886490716
 10
36.9670003523
 20
23.0343894946
 10
36.9548112936
 20
22.9803405881
 10
36.9393979037
 20
22.9265667633
 10
36.9207785512
 20
22.8731321033
 10
36.8989754249
 20
22.8201002873
 10
36.8740145082
 20
22.7675345143
 10
36.8459255474
 20
22.7154974279
 10
36.8147420167
 20
22.6640510418
 10
36.780501078
 20
22.6132566654
 10
36.743243537
 20
22.5631748315
 10
36.7030137941
 20
22.5138652235
 10
36.659859792
 20
22.4653866047
 10
36.6138329579
 20
22.4177967478
 10
36.5649881431
 20
22.3711523667
 10
36.5133835567
 20
22.3255090482
 10
36.459080697
 20
22.2809211865
 10
36.4021442777
 20
22.2374419177
 10
36.3426421509
 20
22.1951230569
 10
36.2806452266
 20
22.1540150363
 10
36.2162273875
 20
22.1141668451
 10
36.1494654017
 20
22.075625971
 10
36.0804388307
 20
22.0384383441
 10
36.0092299348
 20
22.0026482815
 10
35.9359235749
 20
21.9682984349
 10
35.8606071115
 20
21.9354297396
 10
35.7833703009
 20
21.904081366
 10
35.7043051875
 20
21.8742906724
 10
35.6235059947
 20
21.846093161
 10
35.5410690124
 20
21.8195224353
 10
35.4570924824
 20
21.7946101601
 10
35.3716764811
 20
21.7713860239
 10
35.2849228003
 20
21.7498777032
 10
35.1969348261
 20
21.7301108301
 10
35.1078174153
 20
21.712108961
 10
35.0176767709
 20
21.6958935491
 10
34.9266203152
 20
21.6814839186
 10
34.8347565618
 20
21.6688972417
 10
34.7421949866
 20
21.6581485183
 10
34.649045897
 20
21.6492505577
 10
34.5554203004
 20
21.6422139639
 10
34.4614297722
 20
21.6370471225
 10
34.3671863228
 20
21.6337561909
 10
34.2728022638
 20
21.6323450909
 10
34.1783900745
 20
21.6328155043
 10
34.0840622678
 20
21.6351668704
 10
33.9899312557
 20
21.639396387
 10
33.8961092161
 20
21.6454990138
 10
33.8027079584
 20
21.6534674781
 10
33.7098387907
 20
21.6632922837
 10
33.6176123869
 20
21.6749617223
 10
33.526138655
 20
21.6884618872
 10
33.4355266059
 20
21.7037766899
 10
33.3458842238
 20
21.7208878796
 10
33.2573183371
 20
21.7397750645
 10
33.1699344915
 20
21.7604157363
 10
33.0838368239
 20
21.7827852973
 10
32.9991279387
 20
21.8068570891
 10
32.9159087849
 20
21.832602425
 10
32.8342785364
 20
21.8599906237
 10
32.7543344736
 20
21.8889890463
 10
32.6761718672
 20
21.9195631347
 10
32.5998838652
 20
21.9516764533
 10
32.5255613813
 20
21.9852907319
 10
32.4532929871
 20
22.0203659119
 10
32.3831648062
 20
22.0568601934
 10
32.3152604117
 20
22.0947300856
 10
32.2496607265
 20
22.1339304582
 10
32.186443927
 20
22.1744145953
 10
32.1256853499
 20
22.2161342512
 10
32.0674574023
 20
22.2590397079
 10
32.0118294755
 20
22.303079834
 10
31.9588678625
 20
22.3482021462
 10
31.9086356785
 20
22.3943528714
 10
31.8611927862
 20
22.4414770108
 10
31.8165957242
 20
22.4895184056
 10
31.7748976397
 20
22.5384198042
 10
31.736148225
 20
22.5881229297
 10
31.7003936586
 20
22.63856855
 10
31.6676765498
 20
22.6896965481
 10
31.6380358883
 20
22.7414459938
 10
31.6115069974
 20
22.7937552163
 10
31.588121492
 20
22.8465618777
 10
31.5679072412
 20
22.8998030474
 10
31.5508883346
 20
22.9534152767
 10
31.537085054
 20
23.0073346751
 10
31.5265138489
 20
23.0614969857
 10
31.5222658178
 20
23.0899806118
  0
LWPOLYLINE
  5
FF
330
1F
100
AcDbEntity
  8
0
  6
Continuous
 62
     7
370
    25
100
AcDbPolyline
 90
       22
 70
   128
 43
0.0
 10
36.1831345048
 20
16.5830796054
 10
36.24873419
 20
16.6222799779
 10
36.3119509894
 20
16.662764115
 10
36.3727095666
 20
16.704483771
 10
36.4309375142
 20
16.7473892276
 10
36.4865654409
 20
16.7914293538
 10
36.539527054
 20
16.836551666
 10
36.589759238
 20
16.8827023912
 10
36.6372021302
 20
16.9298265305
 10
36.6817991922
 20
16.9778679254
 10
36.7234972768
 20
17.026769324
 10
36.7622466914
 20
17.0764724495
 10
36.7980012578
 20
17.1269180698
 10
36.8307183666
 20
17.1780460679
 10
36.8603590281
 20
17.2297955136
 10
36.886887919
 20
17.2821047361
 10
36.9102734244
 20
17.3349113975
 10
36.9304876752
 20
17.3881525671
 10
36.9475065818
 20
17.4417647965
 10
36.9613098625
 20
17.4956841948
 10
36.9718810675
 20
17.5498465054
 10
36.9768717905
 20
17.5840345601
  0
LWPOLYLINE
  5
100
330
1F
100
AcDbEntity
  8
0
  6
Continuous
 62
     7
370
    25
100
AcDbPolyline
 90
       68
 70
   128
 43
0.0
 10
31.5223368025
 20
17.5777989911
 10
31.5224443625
 20
17.5769985913
 10
31.5313945642
 20
17.5227390144
 10
31.5435836229
 20
17.4686901079
 10
31.5589970127
 20
17.414916283
 10
31.5776163653
 20
17.3614816231
 10
31.5994194915
 20
17.3084498071
 10
31.6243804082
 20
17.2558840341
 10
31.652469369
 20
17.2038469477
 10
31.6836528997
 20
17.1524005615
 10
31.7178938384
 20
17.1016061852
 10
31.7551513794
 20
17.0515243513
 10
31.7953811223
 20
17.0022147433
 10
31.8385351245
 20
16.9537361244
 10
31.8845619585
 20
16.9061462676
 10
31.9334067733
 20
16.8595018864
 10
31.9850113597
 20
16.813858568
 10
32.0393142194
 20
16.7692707063
 10
32.0962506387
 20
16.7257914375
 10
32.1557527655
 20
16.6834725767
 10
32.2177496899
 20
16.6423645561
 10
32.2821675289
 20
16.6025163648
 10
32.3489295147
 20
16.5639754908
 10
32.4179560857
 20
16.5267878639
 10
32.4891649817
 20
16.4909978013
 10
32.5624713416
 20
16.4566479546
 10
32.6377878049
 20
16.4237792594
 10
32.7150246155
 20
16.3924308857
 10
32.7940897289
 20
16.3626401921
 10
32.8748889217
 20
16.3344426807
 10
32.957325904
 20
16.307871955
 10
33.041302434
 20
16.2829596799
 10
33.1267184353
 20
16.2597355436
 10
33.2134721161
 20
16.238227223
 10
33.3014600903
 20
16.2184603499
 10
33.3905775011
 20
16.2004584808
 10
33.4807181455
 20
16.1842430689
 10
33.5717746012
 20
16.1698334384
 10
33.6636383546
 20
16.1572467615
 10
33.7561999298
 20
16.1464980381
 10
33.8493490195
 20
16.1376000775
 10
33.9429746161
 20
16.1305634837
 10
34.0369651442
 20
16.1253966423
 10
34.1312085936
 20
16.1221057106
 10
34.2255926526
 20
16.1206946107
 10
34.3200048419
 20
16.1211650241
 10
34.4143326487
 20
16.1235163901
 10
34.5084636607
 20
16.1277459068
 10
34.6022857003
 20
16.1338485335
 10
34.695686958
 20
16.1418169978
 10
34.7885561257
 20
16.1516418035
 10
34.8807825295
 20
16.1633112421
 10
34.9722562614
 20
16.176811407
 10
35.0628683105
 20
16.1921262097
 10
35.1525106927
 20
16.2092373994
 10
35.2410765794
 20
16.2281245842
 10
35.328460425
 20
16.2487652561
 10
35.4145580925
 20
16.271134817
 10
35.4992669777
 20
16.2952066089
 10
35.5824861315
 20
16.3209519447
 10
35.66411638
 20
16.3483401435
 10
35.7440604428
 20
16.377338566
 10
35.8222230492
 20
16.4079126545
 10
35.8985110513
 20
16.440025973
 10
35.9728335351
 20
16.4736402517
 10
36.0451019293
 20
16.5087154317
 10
36.1152301102
 20
16.5452097132
 10
36.1831345048
 20
16.5830796054
  0
LINE
  5
101
330
1F
100
AcDbEntity
  8
0
  6
Continuous
 62
     7
370
    25
100
AcDbLine
 10
19.5562393017
 20
2.6149383097
 30
0.0
 11
19.5562393017
 21
9.3649383097
 31
0.0
  0
LINE
  5
102
330
1F
100
AcDbEntity
  8
0
  6
Continuous
 62
     7
370
    25
100
AcDbLine
 10
14.0862393017
 20
9.3649383097
 30
0.0
 11
14.0862393017
 21
2.6149383097
 31
0.0
  0
ARC
  5
103
330
1F
100
AcDbEntity
  8
0
  6
Continuous
 62
     7
370
    25
100
AcDbCircle
 10
14.1162393017
 20
9.3649383097
 30
0.0
 40
0.0300000000000011
100
AcDbArc
 50
90.0
 51
180.0
  0
ARC
  5
104
330
1F
100
AcDbEntity
  8
0
  6
Continuous
 62
     7
370
    25
100
AcDbCircle
 10
19.5262393017
 20
9.3649383097
 30
0.0
 40
0.0300000000000011
100
AcDbArc
 50
0.0
 51
90.0
  0
ARC
  5
105
330
1F
100
AcDbEntity
  8
0
  6
Continuous
 62
     7
370
    25
100
AcDbCircle
 10
19.5262393017
 20
2.6149383097
 30
0.0
 40
0.0300000000000007
100
AcDbArc
 50
270.0
 51
0.0
  0
ARC
  5
106
330
1F
100
AcDbEntity
  8
0
  6
Continuous
 62
     7
370
    25
100
AcDbCircle
 10
14.1162393017
 20
2.6149383097
 30
0.0
 40
0.0300000000000007
100
AcDbArc
 50
180.0
 51
270.0
  0
SPLINE
  5
107
330
1F
100
AcDbEntity
  8
0
  6
Continuous
 62
     7
370
    25
100
AcDbSpline
210
0.0
220
0.0
230
1.0
 70
    11
 71
     3
 72
    44
 73
    40
 74
     0
 42
0.00000001
 43
0.00000001
 40
0.0
 40
0.0
 40
0.0
 40
0.0
 40
0.0268407075037031
 40
0.0536814436170719
 40
0.0805218400163033
 40
0.107362277557186
 40
0.1342090195496376
 40
0.1610557510294832
 40
0.1879066918425144
 40
0.2147575868473572
 40
0.2416016629618196
 40
0.2684457294808756
 40
0.295282596540789
 40
0.3221195051029314
 40
0.3489600629385156
 40
0.3758006486318445
 40
0.4026500400926231
 40
0.4294994022402254
 40
0.4563489875144757
 40
0.4831985319786824
 40
0.5100393597322476
 40
0.5368801989115243
 40
0.5637169903473095
 40
0.5905538275122298
 40
0.6173976012520601
 40
0.644241383681131
 40
0.6710922612288798
 40
0.6979430968125394
 40
0.7247901131574624
 40
0.7516371023785389
 40
0.7784753233244064
 40
0.8053135742610162
 40
0.8321517896325082
 40
0.8589900452760785
 40
0.8858370504679901
 40
0.9126840433798977
 40
0.9395349242133718
 40
0.9663857592584212
 40
0.9999999999999999
 40
0.9999999999999999
 40
0.9999999999999999
 40
0.9999999999999999
 10
16.74648930171805
 20
2.772438309727292
 30
0.0
 10
16.74669861771262
 20
2.77663963901047
 30
0.0
 10
16.74711724992486
 20
2.785042302055048
 30
0.0
 10
16.7503851661386
 20
2.79729572586718
 30
0.0
 10
16.75554924567572
 20
2.808828911778679
 30
0.0
 10
16.76258063724508
 20
2.819351377541784
 30
0.0
 10
16.77130015176002
 20
2.828515901653261
 30
0.0
 10
16.78141216306634
 20
2.836122735590536
 30
0.0
 10
16.79267812277198
 20
2.841885009966608
 30
0.0
 10
16.8047385042571
 20
2.845716162215753
 30
0.0
 10
16.81727615396651
 20
2.847424000843718
 30
0.0
 10
16.82992188117958
 20
2.847047328873669
 30
0.0
 10
16.84231481492397
 20
2.844510184604859
 30
0.0
 10
16.85412131590023
 20
2.839970905482793
 30
0.0
 10
16.86497599759802
 20
2.83347636503087
 30
0.0
 10
16.87461674485935
 20
2.825284765366527
 30
0.0
 10
16.88271254860073
 20
2.815561565863126
 30
0.0
 10
16.88910018636284
 20
2.804638052679885
 30
0.0
 10
16.89352172387091
 20
2.792781139156501
 30
0.0
 10
16.89593312513223
 20
2.780359504856373
 30
0.0
 10
16.89618053235167
 20
2.76770963382264
 30
0.0
 10
16.89434533998624
 20
2.755193272175299
 30
0.0
 10
16.89039361064016
 20
2.743177200748343
 30
0.0
 10
16.8845206085483
 20
2.731974024252368
 30
0.0
 10
16.87681494443834
 20
2.721941755188668
 30
0.0
 10
16.8675632801686
 20
2.713311338057491
 30
0.0
 10
16.85696863091917
 20
2.706392895202427
 30
0.0
 10
16.84537970592679
 20
2.701310504251034
 30
0.0
 10
16.83309150264549
 20
2.698289162100648
 30
0.0
 10
16.82047548358944
 20
2.697329594859218
 30
0.0
 10
16.80788304604773
 20
2.69854549260678
 30
0.0
 10
16.79566328783268
 20
2.701814315853544
 30
0.0
 10
16.78418462047734
 20
2.707127705905359
 30
0.0
 10
16.77373376156208
 20
2.7142561462296
 30
0.0
 10
16.76466069596364
 20
2.723070260047626
 30
0.0
 10
16.75714742468521
 20
2.733258099986438
 30
0.0
 10
16.75153390818526
 20
2.744582608757853
 30
0.0
 10
16.74737444364044
 20
2.757695888791841
 30
0.0
 10
16.74680556011328
 20
2.76717088958942
 30
0.0
 10
16.74648930171805
 20
2.772438309727292
 30
0.0
  0
LINE
  5
108
330
1F
100
AcDbEntity
  8
0
  6
Continuous
 62
     7
370
    25
100
AcDbLine
 10
14.1162393017
 20
9.3949383097
 30
0.0
 11
19.5262393017
 21
9.3949383097
 31
0.0
  0
LINE
  5
109
330
1F
100
AcDbEntity
  8
0
  6
Continuous
 62
     7
370
    25
100
AcDbLine
 10
19.5262393017
 20
2.5849383097
 30
0.0
 11
14.1162393017
 21
2.5849383097
 31
0.0
  0
LINE
  5
10A
330
1F
100
AcDbEntity
  8
0
  6
Continuous
 62
     7
370
    25
100
AcDbLine
 10
14.0862393017
 20
2.6149383097
 30
0.0
 11
19.5562393017
 21
2.6149383097
 31
0.0
  0
LINE
  5
10B
330
1F
100
AcDbEntity
  8
0
  6
Continuous
 62
     7
370
    25
100
AcDbLine
 10
19.5562393017
 20
9.3649383097
 30
0.0
 11
14.0862393017
 21
9.3649383097
 31
0.0
  0
INSERT
  5
10C
330
1F
100
AcDbEntity
  8
0
  6
Continuous
 62
     7
100
AcDbBlockReference
  2
Block2
 10
15.7883966214
 20
0.5236970474
 30
0.0
 41
0.5
 42
0.5
 43
0.5
  0
DIMENSION
  5
10D
330
1F
100
AcDbEntity
  8
0
  6
Continuous
 62
     7
370
    18
100
AcDbDimension
  2
_D_2
 10
12.5114361521
 20
2.6149383097
 30
0.0
 11
12.5114361521
 21
5.9899383097
 31
0.0
 70
   160
  1
<>
 71
     2
 42
-1.0
  3
SLDDIMSTYLE0
100
AcDbAlignedDimension
 13
14.0862393017
 23
9.3649383097
 33
0.0
 14
14.0862393017
 24
2.6149383097
 34
0.0
 50
90.0
100
AcDbRotatedDimension
  0
LINE
  5
121
330
1F
100
AcDbEntity
  8
0
  6
Continuous
 62
     7
370
    25
100
AcDbLine
 10
30.9736967366
 20
2.5849383097
 30
0.0
 11
30.9736967366
 21
8.3949383097
 31
0.0
  0
LINE
  5
122
330
1F
100
AcDbEntity
  8
0
  6
Continuous
 62
     7
370
    25
100
AcDbLine
 10
25.5036967366
 20
8.3949383097
 30
0.0
 11
25.5036967366
 21
2.5849383097
 31
0.0
  0
LINE
  5
123
330
1F
100
AcDbEntity
  8
0
  6
Continuous
 62
     7
370
    25
100
AcDbLine
 10
30.9736967366
 20
2.5849383097
 30
0.0
 11
25.5036967366
 21
2.5849383097
 31
0.0
  0
SPLINE
  5
124
330
1F
100
AcDbEntity
  8
0
  6
Continuous
 62
     7
370
    25
100
AcDbSpline
210
0.0
220
0.0
230
1.0
 70
    11
 71
     3
 72
    44
 73
    40
 74
     0
 42
0.00000001
 43
0.00000001
 40
0.0
 40
0.0
 40
0.0
 40
0.0
 40
0.0268407075037204
 40
0.0536814436171067
 40
0.0805218400163184
 40
0.1073622775571836
 40
0.1342090195496475
 40
0.1610557510295037
 40
0.1879066918425304
 40
0.2147575868473701
 40
0.2416016629618334
 40
0.2684457294808887
 40
0.2952825965408042
 40
0.3221195051029496
 40
0.3489600629385368
 40
0.3758006486318693
 40
0.4026500400926408
 40
0.4294994022402347
 40
0.456348987514486
 40
0.4831985319786936
 40
0.5100393597322637
 40
0.5368801989115448
 40
0.5637169903473238
 40
0.5905538275122381
 40
0.6173976012520723
 40
0.6442413836811461
 40
0.6710922612288873
 40
0.6979430968125415
 40
0.7247901131574681
 40
0.7516371023785455
 40
0.7784753233244116
 40
0.805313574261019
 40
0.8321517896325136
 40
0.8589900452760881
 40
0.8858370504679965
 40
0.912684043379901
 40
0.9395349242133848
 40
0.966385759258445
 40
1.0
 40
1.0
 40
1.0
 40
1.0
 10
28.16394673662757
 20
2.772438309727278
 30
0.0
 10
28.16415605262214
 20
2.77663963901046
 30
0.0
 10
28.16457468483437
 20
2.785042302055043
 30
0.0
 10
28.16784260104811
 20
2.797295725867179
 30
0.0
 10
28.17300668058525
 20
2.808828911778673
 30
0.0
 10
28.1800380721546
 20
2.81935137754177
 30
0.0
 10
28.18875758666954
 20
2.828515901653253
 30
0.0
 10
28.19886959797585
 20
2.836122735590537
 30
0.0
 10
28.2101355576815
 20
2.841885009966604
 30
0.0
 10
28.22219593916662
 20
2.845716162215743
 30
0.0
 10
28.23473358887603
 20
2.847424000843715
 30
0.0
 10
28.2473793160891
 20
2.847047328873671
 30
0.0
 10
28.25977224983349
 20
2.844510184604858
 30
0.0
 10
28.27157875080974
 20
2.839970905482788
 30
0.0
 10
28.28243343250754
 20
2.833476365030862
 30
0.0
 10
28.29207417976887
 20
2.825284765366516
 30
0.0
 10
28.30016998351025
 20
2.815561565863119
 30
0.0
 10
28.30655762127235
 20
2.80463805267988
 30
0.0
 10
28.31097915878043
 20
2.792781139156497
 30
0.0
 10
28.31339056004175
 20
2.780359504856369
 30
0.0
 10
28.31363796726119
 20
2.767709633822633
 30
0.0
 10
28.31180277489576
 20
2.755193272175292
 30
0.0
 10
28.30785104554968
 20
2.743177200748337
 30
0.0
 10
28.30197804345782
 20
2.731974024252364
 30
0.0
 10
28.29427237934786
 20
2.721941755188663
 30
0.0
 10
28.28502071507812
 20
2.713311338057482
 30
0.0
 10
28.27442606582869
 20
2.706392895202425
 30
0.0
 10
28.26283714083631
 20
2.701310504251042
 30
0.0
 10
28.25054893755501
 20
2.698289162100645
 30
0.0
 10
28.23793291849896
 20
2.697329594859208
 30
0.0
 10
28.22534048095726
 20
2.698545492606768
 30
0.0
 10
28.21312072274219
 20
2.701814315853526
 30
0.0
 10
28.20164205538686
 20
2.707127705905347
 30
0.0
 10
28.1911911964716
 20
2.714256146229591
 30
0.0
 10
28.18211813087316
 20
2.723070260047616
 30
0.0
 10
28.17460485959472
 20
2.733258099986427
 30
0.0
 10
28.16899134309478
 20
2.744582608757846
 30
0.0
 10
28.16483187854996
 20
2.757695888791835
 30
0.0
 10
28.1642629950228
 20
2.76717088958941
 30
0.0
 10
28.16394673662757
 20
2.772438309727278
 30
0.0
  0
LINE
  5
125
330
1F
100
AcDbEntity
  8
0
  6
Continuous
 62
     7
370
    25
100
AcDbLine
 10
30.9736967366
 20
8.3949383097
 30
0.0
 11
25.5036967366
 21
8.3949383097
 31
0.0
  0
INSERT
  5
126
330
1F
100
AcDbEntity
  8
0
  6
Continuous
 62
     7
100
AcDbBlockReference
  2
Block3
 10
27.3682228261
 20
1.0596127445
 30
0.0
 41
0.5
 42
0.5
 43
0.5
  0
DIMENSION
  5
127
330
1F
100
AcDbEntity
  8
0
  6
Continuous
 62
     7
370
    18
100
AcDbDimension
  2
_D_3
 10
23.4949592907
 20
2.5849383097
 30
0.0
 11
23.4949592907
 21
5.4899383097
 31
0.0
 70
   160
  1
<>
 71
     2
 42
-1.0
  3
SLDDIMSTYLE0
100
AcDbAlignedDimension
 13
25.5036967366
 23
8.3949383097
 33
0.0
 14
25.5036967366
 24
2.5849383097
 34
0.0
 50
90.0
100
AcDbRotatedDimension
  0
SPLINE
  5
13B
330
1F
100
AcDbEntity
  8
0
  6
Continuous
 62
     7
370
    25
100
AcDbSpline
210
0.0
220
0.0
230
1.0
 70
     8
 71
     3
 72
    11
 73
     7
 74
     0
 42
0.00000001
 43
0.00000001
 40
0.0
 40
0.0
 40
0.0
 40
0.0
 40
0.25
 40
0.5
 40
0.75
 40
1.0
 40
1.0
 40
1.0
 40
1.0
 10
25.01467847188383
 20
19.83300744375506
 30
0.0
 10
25.01049651662042
 20
19.8125668315458
 30
0.0
 10
24.99779808446078
 20
19.77257299185203
 30
0.0
 10
24.96658599362403
 20
19.71791393983534
 30
0.0
 10
24.92460399290696
 20
19.67101705083878
 30
0.0
 10
24.89067915477671
 20
19.64632165145752
 30
0.0
 10
24.8726103824613
 20
19.63588964089729
 30
0.0
  0
SPLINE
  5
13C
330
1F
100
AcDbEntity
  8
0
  6
Continuous
 62
     7
370
    25
100
AcDbSpline
210
0.0
220
0.0
230
1.0
 70
     8
 71
     3
 72
    11
 73
     7
 74
     0
 42
0.00000001
 43
0.00000001
 40
0.0
 40
0.0
 40
0.0
 40
0.0
 40
0.25
 40
0.5
 40
0.75
 40
1.0
 40
1.0
 40
1.0
 40
1.0
 10
24.8726103824613
 20
19.63588964089729
 30
0.0
 10
24.85454161014589
 20
19.62545763033706
 30
0.0
 10
24.81619234785999
 20
19.6084255583876
 30
0.0
 10
24.75458745027197
 20
19.59551652376321
 30
0.0
 10
24.69164527726037
 20
19.5958155862017
 30
0.0
 10
24.65066038001086
 20
19.60481534121011
 30
0.0
 10
24.63086731293702
 20
19.61141396781914
 30
0.0
  0
SPLINE
  5
13D
330
1F
100
AcDbEntity
  8
0
  6
Continuous
 62
     7
370
    25
100
AcDbSpline
210
0.0
220
0.0
230
1.0
 70
     8
 71
     3
 72
    11
 73
     7
 74
     0
 42
0.00000001
 43
0.00000001
 40
0.0
 40
0.0
 40
0.0
 40
0.0
 40
0.25
 40
0.5
 40
0.75
 40
1.0
 40
1.0
 40
1.0
 40
1.0
 10
21.023535362563
 20
21.69410804042391
 30
0.0
 10
21.00792425075258
 20
21.70795002602415
 30
0.0
 10
20.97963778566271
 20
21.73894411070952
 30
0.0
 10
20.94790770348786
 20
21.79330410028771
 30
0.0
 10
20.92828480661692
 20
21.85311002390867
 30
0.0
 10
20.92386038246127
 20
21.89483749523938
 30
0.0
 10
20.92386038246127
 20
21.91570151635984
 30
0.0
  0
SPLINE
  5
13E
330
1F
100
AcDbEntity
  8
0
  6
Continuous
 62
     7
370
    25
100
AcDbSpline
210
0.0
220
0.0
230
1.0
 70
     8
 71
     3
 72
    11
 73
     7
 74
     0
 42
0.00000001
 43
0.00000001
 40
0.0
 40
0.0
 40
0.0
 40
0.0
 40
0.25
 40
0.5
 40
0.75
 40
1.0
 40
1.0
 40
1.0
 40
1.0
 10
24.63086731293699
 20
24.21998906490054
 30
0.0
 10
24.65066038001083
 20
24.22658769150956
 30
0.0
 10
24.69164527726033
 20
24.23558744651797
 30
0.0
 10
24.75458745027193
 20
24.23588650895647
 30
0.0
 10
24.81619234785995
 20
24.22297747433206
 30
0.0
 10
24.85454161014585
 20
24.20594540238262
 30
0.0
 10
24.87261038246127
 20
24.1955133918224
 30
0.0
  0
SPLINE
  5
13F
330
1F
100
AcDbEntity
  8
0
  6
Continuous
 62
     7
370
    25
100
AcDbSpline
210
0.0
220
0.0
230
1.0
 70
     8
 71
     3
 72
    11
 73
     7
 74
     0
 42
0.00000001
 43
0.00000001
 40
0.0
 40
0.0
 40
0.0
 40
0.0
 40
0.25
 40
0.5
 40
0.75
 40
1.0
 40
1.0
 40
1.0
 40
1.0
 10
24.87261038246127
 20
24.1955133918224
 30
0.0
 10
24.89067915477668
 20
24.18508138126217
 30
0.0
 10
24.92460399290694
 20
24.16038598188091
 30
0.0
 10
24.96658599362401
 20
24.11348909288435
 30
0.0
 10
24.99779808446077
 20
24.05883004086767
 30
0.0
 10
25.0104965166204
 20
24.01883620117389
 30
0.0
 10
25.0146784718838
 20
23.99839558896462
 30
0.0
  0
SPLINE
  5
140
330
1F
100
AcDbEntity
  8
0
  6
Continuous
 62
     7
370
    25
100
AcDbSpline
210
0.0
220
0.0
230
1.0
 70
     8
 71
     3
 72
    11
 73
     7
 74
     0
 42
0.00000001
 43
0.00000001
 40
0.0
 40
0.0
 40
0.0
 40
0.0
 40
0.25
 40
0.5
 40
0.75
 40
1.0
 40
1.0
 40
1.0
 40
1.0
 10
20.92386038246127
 20
21.91570151635984
 30
0.0
 10
20.92386038246126
 20
21.93656553748029
 30
0.0
 10
20.9282848066169
 20
21.978293008811
 30
0.0
 10
20.94790770348785
 20
22.03809893243196
 30
0.0
 10
20.9796377856627
 20
22.09245892201016
 30
0.0
 10
21.00792425075257
 20
22.12345300669552
 30
0.0
 10
21.023535362563
 20
22.13729499229576
 30
0.0
  0
ARC
  5
141
330
1F
100
AcDbEntity
  8
0
  6
Continuous
 62
     7
370
    25
100
AcDbCircle
 10
23.5563603825
 20
21.9157015164
 30
0.0
 40
2.54250000000001
100
AcDbArc
 50
185.0
 51
295.0
  0
ARC
  5
142
330
1F
100
AcDbEntity
  8
0
  6
Continuous
 62
     7
370
    25
100
AcDbCircle
 10
23.5563603825
 20
21.9157015164
 30
0.0
 40
2.542500000000012
100
AcDbArc
 50
305.0
 51
55.0
  0
ARC
  5
143
330
1F
100
AcDbEntity
  8
0
  6
Continuous
 62
     7
370
    25
100
AcDbCircle
 10
23.5563603825
 20
21.9157015164
 30
0.0
 40
2.542500000000009
100
AcDbArc
 50
65.0
 51
175.0
  0
CIRCLE
  5
144
330
1F
100
AcDbEntity
  8
0
  6
Continuous
 62
     7
370
    25
100
AcDbCircle
 10
23.5563603825
 20
21.9157015164
 30
0.0
 40
2.400000000000009
  0
CIRCLE
  5
145
330
1F
100
AcDbEntity
  8
0
  6
Continuous
 62
     7
370
    25
100
AcDbCircle
 10
25.3063603825
 20
21.9157015164
 30
0.0
 40
0.1015650000000008
  0
CIRCLE
  5
146
330
1F
100
AcDbEntity
  8
0
  6
Continuous
 62
     7
370
    25
100
AcDbCircle
 10
23.5563603825
 20
19.7750765164
 30
0.0
 40
0.1925000000000026
  0
CIRCLE
  5
147
330
1F
100
AcDbEntity
  8
0
  6
Continuous
 62
     7
370
    25
100
AcDbCircle
 10
23.5563603825
 20
21.9157015164
 30
0.0
 40
1.25
  0
CIRCLE
  5
148
330
1F
100
AcDbEntity
  8
0
  6
Continuous
 62
     7
370
    25
100
AcDbCircle
 10
23.5563603825
 20
24.0563265164
 30
0.0
 40
0.192499999999999
  0
CIRCLE
  5
149
330
1F
100
AcDbEntity
  8
0
  6
Continuous
 62
     7
370
    25
100
AcDbCircle
 10
21.8063603825
 20
21.9157015164
 30
0.0
 40
0.1015650000000008
  0
CIRCLE
  5
14A
330
1F
100
AcDbEntity
  8
0
  6
Continuous
 62
     7
370
    25
100
AcDbCircle
 10
24.5811119041
 20
22.940453038
 30
0.0
 40
0.0680000000000014
  0
CIRCLE
  5
14B
330
1F
100
AcDbEntity
  8
0
  6
Continuous
 62
     7
370
    25
100
AcDbCircle
 10
23.5563603825
 20
19.7750765164
 30
0.0
 40
0.1005000000000038
  0
CIRCLE
  5
14C
330
1F
100
AcDbEntity
  8
0
  6
Continuous
 62
     7
370
    25
100
AcDbCircle
 10
23.5563603825
 20
24.0563265164
 30
0.0
 40
0.1005000000000003
  0
DIMENSION
  5
14D
330
1F
100
AcDbEntity
  8
0
  6
Continuous
 62
     7
370
    18
100
AcDbDimension
  2
_D_4
 10
21.8157903089
 20
20.0624011983
 30
0.0
 11
28.892349788
 21
24.9525589962
 31
0.0
 70
   163
  1
<>
 71
     1
 42
-1.0
  3
SLDDIMSTYLE1
100
AcDbDiametricDimension
 15
25.296930456
 25
23.7690018344
 35
0.0
 40
0.0
  0
DIMENSION
  5
15E
330
1F
100
AcDbEntity
  8
0
  6
Continuous
 62
     7
370
    18
100
AcDbDimension
  2
_D_5
 10
22.672476906
 20
22.7995849928
 30
0.0
 11
28.892349788
 21
18.8788440365
 31
0.0
 70
   163
  1
<>
 71
     1
 42
-1.0
  3
SLDDIMSTYLE2
100
AcDbDiametricDimension
 15
24.4402438589
 25
21.0318180399
 35
0.0
 40
0.0
  0
DIMENSION
  5
16F
330
1F
100
AcDbEntity
  8
0
  6
Continuous
 62
     7
370
    18
100
AcDbDimension
  2
_D_6
 10
25.3063603825
 20
26.9778865557
 30
0.0
 11
27.6736635321
 21
26.9778865557
 31
0.0
 70
   160
  1
<>O.C.
 71
     2
 42
-1.0
  3
SLDDIMSTYLE0
100
AcDbAlignedDimension
 13
21.8063603825
 23
22.1172665164
 33
0.0
 14
25.3063603825
 24
22.1172665164
 34
0.0
100
AcDbRotatedDimension
  0
DIMENSION
  5
182
330
1F
100
AcDbEntity
  8
0
  6
Continuous
 62
     7
370
    18
100
AcDbDimension
  2
_D_7
 10
18.387467933
 20
19.7750765164
 30
0.0
 11
18.387467933
 21
21.9157015164
 31
0.0
 70
   160
  1
<>O.C.
 71
     2
 42
-1.0
  3
SLDDIMSTYLE0
100
AcDbAlignedDimension
 13
23.5563603825
 23
24.0563265164
 33
0.0
 14
23.5563603825
 24
19.7750765164
 34
0.0
 50
90.0
100
AcDbRotatedDimension
  0
MTEXT
  5
195
330
1F
100
AcDbEntity
  8
0
  6
Continuous
 62
     7
370
     0
100
AcDbMText
 10
23.4495346963
 20
18.6127076158
 30
0.0
 40
0.5
 41
0.0
 71
     2
 72
     1
  1
CANOPY DETAIL
  7
SLDTEXTSTYLE0
 73
     1
 44
1.0
  0
INSERT
  5
1A9
330
1F
100
AcDbEntity
  8
0
  6
Continuous
 62
     7
370
     0
100
AcDbBlockReference
  2
SW_CENTERMARKSYMBOL_0
 10
23.5563603825
 20
19.7750765164
 30
0.0
  0
INSERT
  5
1B5
330
1F
100
AcDbEntity
  8
0
  6
Continuous
 62
     7
370
     0
100
AcDbBlockReference
  2
SW_CENTERMARKSYMBOL_1
 10
23.5563603825
 20
21.9157015164
 30
0.0
  0
INSERT
  5
1C1
330
1F
100
AcDbEntity
  8
0
  6
Continuous
 62
     7
370
     0
100
AcDbBlockReference
  2
SW_CENTERMARKSYMBOL_2
 10
25.3063603825
 20
21.9157015164
 30
0.0
  0
INSERT
  5
1CD
330
1F
100
AcDbEntity
  8
0
  6
Continuous
 62
     7
370
     0
100
AcDbBlockReference
  2
SW_CENTERMARKSYMBOL_3
 10
21.8063603825
 20
21.9157015164
 30
0.0
  0
INSERT
  5
1D9
330
1F
100
AcDbEntity
  8
0
  6
Continuous
 62
     7
370
     0
100
AcDbBlockReference
  2
SW_CENTERMARKSYMBOL_4
 10
24.5811119041
 20
22.940453038
 30
0.0
  0
CIRCLE
  5
1DA
330
1F
100
AcDbEntity
  8
0
  6
HIDDEN
 62
     7
370
    18
100
AcDbCircle
 10
24.5811119041
 20
22.940453038
 30
0.0
 40
0.0820000000000007
  0
ENDSEC
  0
SECTION
  2
OBJECTS
  0
DICTIONARY
  5
C
330
0
100
AcDbDictionary
281
     1
  3
ACAD_GROUP
350
D
  3
ACAD_LAYOUT
350
1A
  3
ACAD_MLINESTYLE
350
17
  3
ACAD_PLOTSETTINGS
350
19
  3
ACAD_PLOTSTYLENAME
350
E
  3
ACAD_SCALELIST
350
47
  3
DWGPROPS
350
1DB
  0
DICTIONARY
  5
D
102
{ACAD_REACTORS
330
C
102
}
330
C
100
AcDbDictionary
281
     1
  0
DICTIONARY
  5
1A
102
{ACAD_REACTORS
330
C
102
}
330
C
100
AcDbDictionary
281
     1
  3
Layout1
350
1E
  3
Layout2
350
26
  3
Model
350
22
  0
DICTIONARY
  5
17
102
{ACAD_REACTORS
330
C
102
}
330
C
100
AcDbDictionary
281
     1
  3
Standard
350
18
  0
DICTIONARY
  5
19
102
{ACAD_REACTORS
330
C
102
}
330
C
100
AcDbDictionary
281
     1
  0
ACDBDICTIONARYWDFLT
  5
E
102
{ACAD_REACTORS
330
C
102
}
330
C
100
AcDbDictionary
281
     1
  3
Normal
350
F
100
AcDbDictionaryWithDefault
340
F
  0
DICTIONARY
  5
47
102
{ACAD_REACTORS
330
C
102
}
330
C
100
AcDbDictionary
281
     1
  3
A0
350
48
  3
A1
350
49
  3
A2
350
4A
  3
A3
350
4B
  3
A4
350
4C
  3
A5
350
4D
  3
A6
350
4E
  3
A7
350
4F
  3
A8
350
50
  3
A9
350
51
  3
B1
350
52
  3
B2
350
53
  3
B3
350
54
  3
B4
350
55
  3
B5
350
56
  3
B6
350
57
  3
B7
350
58
  0
XRECORD
  5
1DB
102
{ACAD_REACTORS
330
C
102
}
330
C
100
AcDbXrecord
280
     1
  1
DWGPROPS COOKIE
  2

  3

  4

  6

  7

  8
alekseyb
  9

300
=
301
=
302
=
303
=
304
=
305
=
306
=
307
=
308
=
309
=
 40
0.0
 41
2460648.061903553
 42
2460648.061904213
  1

 90
        0
  0
LAYOUT
  5
1E
102
{ACAD_REACTORS
330
1A
102
}
330
1A
100
AcDbPlotSettings
  1

  2
none_device
  4

  6

 40
0.0
 41
0.0
 42
0.0
 43
0.0
 44
0.0
 45
0.0
 46
0.0
 47
0.0
 48
0.0
 49
0.0
140
0.0
141
0.0
142
1.0
143
1.0
 70
   688
 72
     0
 73
     0
 74
     5
  7

 75
    16
147
1.0
148
0.0
149
0.0
100
AcDbLayout
  1
Layout1
 70
     1
 71
     1
 10
0.0
 20
0.0
 11
12.0
 21
9.0
 12
0.0
 22
0.0
 32
0.0
 14
1.0000000000E+20
 24
1.0000000000E+20
 34
1.0000000000E+20
 15
-1.0000000000E+20
 25
-1.0000000000E+20
 35
-1.0000000000E+20
146
0.0
 13
0.0
 23
0.0
 33
0.0
 16
1.0
 26
0.0
 36
0.0
 17
0.0
 27
1.0
 37
0.0
 76
     0
330
1B
  0
LAYOUT
  5
26
102
{ACAD_REACTORS
330
1A
102
}
330
1A
100
AcDbPlotSettings
  1

  2
none_device
  4

  6

 40
0.0
 41
0.0
 42
0.0
 43
0.0
 44
0.0
 45
0.0
 46
0.0
 47
0.0
 48
0.0
 49
0.0
140
0.0
141
0.0
142
1.0
143
1.0
 70
   688
 72
     0
 73
     0
 74
     5
  7

 75
    16
147
1.0
148
0.0
149
0.0
100
AcDbLayout
  1
Layout2
 70
     1
 71
     2
 10
0.0
 20
0.0
 11
0.0
 21
0.0
 12
0.0
 22
0.0
 32
0.0
 14
0.0
 24
0.0
 34
0.0
 15
0.0
 25
0.0
 35
0.0
146
0.0
 13
0.0
 23
0.0
 33
0.0
 16
1.0
 26
0.0
 36
0.0
 17
0.0
 27
1.0
 37
0.0
 76
     0
330
23
  0
LAYOUT
  5
22
102
{ACAD_REACTORS
330
1A
102
}
330
1A
100
AcDbPlotSettings
  1

  2
none_device
  4
Letter_(8.50_x_11.00_Inches)
  6

 40
6.35
 41
6.35
 42
6.35000508
 43
6.35000508
 44
215.9
 45
279.4
 46
0.0
 47
0.0
 48
0.0
 49
0.0
140
0.0
141
0.0
142
1.0
143
1.0
 70
  1712
 72
     0
 73
     0
 74
     0
  7

 75
     0
147
1.0
148
0.0
149
0.0
100
AcDbLayout
  1
Model
 70
     1
 71
     0
 10
0.0
 20
0.0
 11
44.0
 21
34.0
 12
0.0
 22
0.0
 32
0.0
 14
0.0
 24
0.0
 34
0.0
 15
44.0
 25
34.0
 35
0.0
146
0.0
 13
0.0
 23
0.0
 33
0.0
 16
1.0
 26
0.0
 36
0.0
 17
0.0
 27
1.0
 37
0.0
 76
     0
330
1F
331
29
  0
MLINESTYLE
  5
18
102
{ACAD_REACTORS
330
17
102
}
330
17
100
AcDbMlineStyle
  2
Standard
 70
     0
  3

 62
   256
 51
90.0
 52
90.0
 71
     2
 49
0.5
 62
   256
  6
BYLAYER
 49
-0.5
 62
   256
  6
BYLAYER
  0
ACDBPLACEHOLDER
  5
F
102
{ACAD_REACTORS
330
E
102
}
330
E
  0
SCALE
  5
48
102
{ACAD_REACTORS
330
47
102
}
330
47
100
AcDbScale
 70
     0
300
1:1
140
1.0
141
1.0
290
     1
  0
SCALE
  5
49
102
{ACAD_REACTORS
330
47
102
}
330
47
100
AcDbScale
 70
     0
300
1/128" = 1'-0"
140
0.0078125
141
12.0
290
     0
  0
SCALE
  5
4A
102
{ACAD_REACTORS
330
47
102
}
330
47
100
AcDbScale
 70
     0
300
1/64" = 1'-0"
140
0.015625
141
12.0
290
     0
  0
SCALE
  5
4B
102
{ACAD_REACTORS
330
47
102
}
330
47
100
AcDbScale
 70
     0
300
1/32" = 1'-0"
140
0.03125
141
12.0
290
     0
  0
SCALE
  5
4C
102
{ACAD_REACTORS
330
47
102
}
330
47
100
AcDbScale
 70
     0
300
1/16" = 1'-0"
140
0.0625
141
12.0
290
     0
  0
SCALE
  5
4D
102
{ACAD_REACTORS
330
47
102
}
330
47
100
AcDbScale
 70
     0
300
3/32" = 1'-0"
140
0.09375
141
12.0
290
     0
  0
SCALE
  5
4E
102
{ACAD_REACTORS
330
47
102
}
330
47
100
AcDbScale
 70
     0
300
1/8" = 1'-0"
140
0.125
141
12.0
290
     0
  0
SCALE
  5
4F
102
{ACAD_REACTORS
330
47
102
}
330
47
100
AcDbScale
 70
     0
300
3/16" = 1'-0"
140
0.1875
141
12.0
290
     0
  0
SCALE
  5
50
102
{ACAD_REACTORS
330
47
102
}
330
47
100
AcDbScale
 70
     0
300
1/4" = 1'-0"
140
0.25
141
12.0
290
     0
  0
SCALE
  5
51
102
{ACAD_REACTORS
330
47
102
}
330
47
100
AcDbScale
 70
     0
300
3/8" = 1'-0"
140
0.375
141
12.0
290
     0
  0
SCALE
  5
52
102
{ACAD_REACTORS
330
47
102
}
330
47
100
AcDbScale
 70
     0
300
1/2" = 1'-0"
140
0.5
141
12.0
290
     0
  0
SCALE
  5
53
102
{ACAD_REACTORS
330
47
102
}
330
47
100
AcDbScale
 70
     0
300
3/4" = 1'-0"
140
0.75
141
12.0
290
     0
  0
SCALE
  5
54
102
{ACAD_REACTORS
330
47
102
}
330
47
100
AcDbScale
 70
     0
300
1" = 1'-0"
140
1.0
141
12.0
290
     0
  0
SCALE
  5
55
102
{ACAD_REACTORS
330
47
102
}
330
47
100
AcDbScale
 70
     0
300
1-1/2" = 1'-0"
140
1.5
141
12.0
290
     0
  0
SCALE
  5
56
102
{ACAD_REACTORS
330
47
102
}
330
47
100
AcDbScale
 70
     0
300
3" = 1'-0"
140
3.0
141
12.0
290
     0
  0
SCALE
  5
57
102
{ACAD_REACTORS
330
47
102
}
330
47
100
AcDbScale
 70
     0
300
6" = 1'-0"
140
6.0
141
12.0
290
     0
  0
SCALE
  5
58
102
{ACAD_REACTORS
330
47
102
}
330
47
100
AcDbScale
 70
     0
300
1'-0" = 1'-0"
140
12.0
141
12.0
290
     0
  0
ENDSEC
  0
EOF
