  0
SECTION
  2
HEADER
  9
$ACADVER
  1
AC1015
  9
$ACADMAINTVER
 70
     6
  9
$DWGCODEPAGE
  3
ANSI_1252
  9
$INSBASE
 10
0.0
 20
0.0
 30
0.0
  9
$EXTMIN
 10
0.0
 20
0.0
 30
0.0
  9
$EXTMAX
 10
44.0
 20
34.0
 30
0.0
  9
$LIMMIN
 10
0.0
 20
0.0
  9
$LIMMAX
 10
44.0
 20
34.0
  9
$ORTHOMODE
 70
     0
  9
$REGENMODE
 70
     1
  9
$FILLMODE
 70
     1
  9
$QTEXTMODE
 70
     0
  9
$MIRRTEXT
 70
     1
  9
$LTSCALE
 40
4.0
  9
$ATTMODE
 70
     1
  9
$TEXTSIZE
 40
0.5
  9
$TRACEWID
 40
0.05
  9
$TEXTSTYLE
  7
Standard
  9
$CLAYER
  8
0
  9
$CELTYPE
  6
ByLayer
  9
$CECOLOR
 62
   256
  9
$CELTSCALE
 40
1.0
  9
$DISPSILH
 70
     0
  9
$DIMSCALE
 40
1.0
  9
$DIMASZ
 40
0.52
  9
$DIMEXO
 40
0.2
  9
$DIMDLI
 40
0.38
  9
$DIMRND
 40
0.0
  9
$DIMDLE
 40
0.0
  9
$DIMEXE
 40
0.5
  9
$DIMTP
 40
0.0
  9
$DIMTM
 40
0.0
  9
$DIMTXT
 40
0.5
  9
$DIMCEN
 40
0.09
  9
$DIMTSZ
 40
0.0
  9
$DIMTOL
 70
     0
  9
$DIMLIM
 70
     0
  9
$DIMTIH
 70
     1
  9
$DIMTOH
 70
     1
  9
$DIMSE1
 70
     0
  9
$DIMSE2
 70
     0
  9
$DIMTAD
 70
     0
  9
$DIMZIN
 70
     1
  9
$DIMBLK
  1

  9
$DIMASO
 70
     1
  9
$DIMSHO
 70
     1
  9
$DIMPOST
  1

  9
$DIMAPOST
  1

  9
$DIMALT
 70
     0
  9
$DIMALTD
 70
     2
  9
$DIMALTF
 40
25.4
  9
$DIMLFAC
 40
1.0
  9
$DIMTOFL
 70
     0
  9
$DIMTVP
 40
0.0
  9
$DIMTIX
 70
     0
  9
$DIMSOXD
 70
     0
  9
$DIMSAH
 70
     0
  9
$DIMBLK1
  1

  9
$DIMBLK2
  1

  9
$DIMSTYLE
  2
Standard
  9
$DIMCLRD
 70
     0
  9
$DIMCLRE
 70
     0
  9
$DIMCLRT
 70
     0
  9
$DIMTFAC
 40
1.0
  9
$DIMGAP
 40
0.24
  9
$DIMJUST
 70
     0
  9
$DIMSD1
 70
     0
  9
$DIMSD2
 70
     0
  9
$DIMTOLJ
 70
     1
  9
$DIMTZIN
 70
     1
  9
$DIMALTZ
 70
     0
  9
$DIMALTTZ
 70
     0
  9
$DIMUPT
 70
     0
  9
$DIMDEC
 70
     0
  9
$DIMTDEC
 70
     0
  9
$DIMALTU
 70
     2
  9
$DIMALTTD
 70
     2
  9
$DIMTXSTY
  7
Standard
  9
$DIMAUNIT
 70
     0
  9
$DIMADEC
 70
     0
  9
$DIMALTRND
 40
0.0
  9
$DIMAZIN
 70
     0
  9
$DIMDSEP
 70
    46
  9
$DIMATFIT
 70
     3
  9
$DIMFRAC
 70
     0
  9
$DIMLDRBLK
  1

  9
$DIMLUNIT
 70
     2
  9
$DIMLWD
 70
    -2
  9
$DIMLWE
 70
    -2
  9
$DIMTMOVE
 70
     0
  9
$LUNITS
 70
     2
  9
$LUPREC
 70
     6
  9
$SKETCHINC
 40
0.1
  9
$FILLETRAD
 40
0.0
  9
$AUNITS
 70
     0
  9
$AUPREC
 70
     2
  9
$MENU
  1
.
  9
$ELEVATION
 40
0.0
  9
$PELEVATION
 40
0.0
  9
$THICKNESS
 40
0.0
  9
$LIMCHECK
 70
     0
  9
$CHAMFERA
 40
0.0
  9
$CHAMFERB
 40
0.0
  9
$CHAMFERC
 40
0.0
  9
$CHAMFERD
 40
0.0
  9
$SKPOLY
 70
     0
  9
$TDCREATE
 40
2460789.583871088
  9
$TDUCREATE
 40
2460789.875537755
  9
$TDUPDATE
 40
2460789.583871806
  9
$TDUUPDATE
 40
2460789.875538472
  9
$TDINDWG
 40
0.0000000116
  9
$TDUSRTIMER
 40
0.0000000116
  9
$USRTIMER
 70
     1
  9
$ANGBASE
 50
0.0
  9
$ANGDIR
 70
     0
  9
$PDMODE
 70
     0
  9
$PDSIZE
 40
-1.0
  9
$PLINEWID
 40
0.0
  9
$SPLFRAME
 70
     0
  9
$SPLINETYPE
 70
     6
  9
$SPLINESEGS
 70
     8
  9
$HANDSEED
  5
27F
  9
$SURFTAB1
 70
     6
  9
$SURFTAB2
 70
     6
  9
$SURFTYPE
 70
     6
  9
$SURFU
 70
     6
  9
$SURFV
 70
     6
  9
$UCSBASE
  2

  9
$UCSNAME
  2

  9
$UCSORG
 10
0.0
 20
0.0
 30
0.0
  9
$UCSXDIR
 10
1.0
 20
0.0
 30
0.0
  9
$UCSYDIR
 10
0.0
 20
1.0
 30
0.0
  9
$UCSORTHOREF
  2

  9
$UCSORTHOVIEW
 70
     0
  9
$UCSORGTOP
 10
0.0
 20
0.0
 30
0.0
  9
$UCSORGBOTTOM
 10
0.0
 20
0.0
 30
0.0
  9
$UCSORGLEFT
 10
0.0
 20
0.0
 30
0.0
  9
$UCSORGRIGHT
 10
0.0
 20
0.0
 30
0.0
  9
$UCSORGFRONT
 10
0.0
 20
0.0
 30
0.0
  9
$UCSORGBACK
 10
0.0
 20
0.0
 30
0.0
  9
$PUCSBASE
  2

  9
$PUCSNAME
  2

  9
$PUCSORG
 10
0.0
 20
0.0
 30
0.0
  9
$PUCSXDIR
 10
1.0
 20
0.0
 30
0.0
  9
$PUCSYDIR
 10
0.0
 20
1.0
 30
0.0
  9
$PUCSORTHOREF
  2

  9
$PUCSORTHOVIEW
 70
     0
  9
$PUCSORGTOP
 10
0.0
 20
0.0
 30
0.0
  9
$PUCSORGBOTTOM
 10
0.0
 20
0.0
 30
0.0
  9
$PUCSORGLEFT
 10
0.0
 20
0.0
 30
0.0
  9
$PUCSORGRIGHT
 10
0.0
 20
0.0
 30
0.0
  9
$PUCSORGFRONT
 10
0.0
 20
0.0
 30
0.0
  9
$PUCSORGBACK
 10
0.0
 20
0.0
 30
0.0
  9
$USERI1
 70
     0
  9
$USERI2
 70
     0
  9
$USERI3
 70
     0
  9
$USERI4
 70
     0
  9
$USERI5
 70
     0
  9
$USERR1
 40
0.0
  9
$USERR2
 40
0.0
  9
$USERR3
 40
0.0
  9
$USERR4
 40
0.0
  9
$USERR5
 40
0.0
  9
$WORLDVIEW
 70
     1
  9
$SHADEDGE
 70
     3
  9
$SHADEDIF
 70
    70
  9
$TILEMODE
 70
     1
  9
$MAXACTVP
 70
    64
  9
$PINSBASE
 10
0.0
 20
0.0
 30
0.0
  9
$PLIMCHECK
 70
     0
  9
$PEXTMIN
 10
1.0000000000E+20
 20
1.0000000000E+20
 30
1.0000000000E+20
  9
$PEXTMAX
 10
-1.0000000000E+20
 20
-1.0000000000E+20
 30
-1.0000000000E+20
  9
$PLIMMIN
 10
0.0
 20
0.0
  9
$PLIMMAX
 10
12.0
 20
9.0
  9
$UNITMODE
 70
     0
  9
$VISRETAIN
 70
     1
  9
$PLINEGEN
 70
     0
  9
$PSLTSCALE
 70
     1
  9
$TREEDEPTH
 70
  3020
  9
$CMLSTYLE
  2
Standard
  9
$CMLJUST
 70
     0
  9
$CMLSCALE
 40
1.0
  9
$PROXYGRAPHICS
 70
     1
  9
$MEASUREMENT
 70
     0
  9
$CELWEIGHT
370
    -1
  9
$ENDCAPS
280
     0
  9
$JOINSTYLE
280
     0
  9
$LWDISPLAY
290
     1
  9
$INSUNITS
 70
     1
  9
$HYPERLINKBASE
  1

  9
$STYLESHEET
  1

  9
$XEDIT
290
     1
  9
$CEPSNTYPE
380
     0
  9
$PSTYLEMODE
290
     1
  9
$FINGERPRINTGUID
  2
{b96428a4-1035-4866-8800-cea2ad09de15}
  9
$VERSIONGUID
  2
{FAEB1C32-E019-11D5-929B-00C0DF256EC4}
  9
$EXTNAMES
290
     1
  9
$PSVPSCALE
 40
0.0
  9
$OLESTARTUP
290
     0
  0
ENDSEC
  0
SECTION
  2
CLASSES
  0
CLASS
  1
ACDBDICTIONARYWDFLT
  2
AcDbDictionaryWithDefault
  3
ObjectDBX Classes
 90
        0
280
     0
281
     0
  0
CLASS
  1
VISUALSTYLE
  2
AcDbVisualStyle
  3
ObjectDBX Classes
 90
     4095
280
     0
281
     0
  0
CLASS
  1
MATERIAL
  2
AcDbMaterial
  3
ObjectDBX Classes
 90
     1153
280
     0
281
     0
  0
CLASS
  1
SCALE
  2
AcDbScale
  3
ObjectDBX Classes
 90
     1153
280
     0
281
     0
  0
CLASS
  1
TABLESTYLE
  2
AcDbTableStyle
  3
ObjectDBX Classes
 90
     4095
280
     0
281
     0
  0
CLASS
  1
MLEADERSTYLE
  2
AcDbMLeaderStyle
  3
ACDB_MLEADERSTYLE_CLASS
 90
     4095
280
     0
281
     0
  0
CLASS
  1
SUN
  2
AcDbSun
  3
SCENEOE
 90
     1153
280
     0
281
     0
  0
CLASS
  1
ACDBPLACEHOLDER
  2
AcDbPlaceHolder
  3
ObjectDBX Classes
 90
        0
280
     0
281
     0
  0
CLASS
  1
LAYOUT
  2
AcDbLayout
  3
ObjectDBX Classes
 90
        0
280
     0
281
     0
  0
ENDSEC
  0
SECTION
  2
TABLES
  0
TABLE
  2
VPORT
  5
8
330
0
100
AcDbSymbolTable
 70
     1
  0
VPORT
  5
29
330
8
100
AcDbSymbolTableRecord
100
AcDbViewportTableRecord
  2
*Active
 70
     0
 10
0.0
 20
0.0
 11
1.0
 21
1.0
 12
22.0
 22
17.0
 13
0.0
 23
0.0
 14
0.5
 24
0.5
 15
0.5
 25
0.5
 16
0.0
 26
0.0
 36
1.0
 17
0.0
 27
0.0
 37
0.0
 40
34.0
 41
1.2941176471
 42
50.0
 43
0.0
 44
0.0
 50
0.0
 51
0.0
 71
     0
 72
  2000
 73
     1
 74
     3
 75
     0
 76
     0
 77
     0
 78
     0
281
     0
 65
     1
110
0.0
120
0.0
130
0.0
111
1.0
121
0.0
131
0.0
112
0.0
122
1.0
132
0.0
 79
     0
146
0.0
  0
ENDTAB
  0
TABLE
  2
LTYPE
  5
5
330
0
100
AcDbSymbolTable
 70
     6
  0
LTYPE
  5
14
330
5
100
AcDbSymbolTableRecord
100
AcDbLinetypeTableRecord
  2
ByBlock
 70
     0
  3

 72
    65
 73
     0
 40
0.0
  0
LTYPE
  5
15
330
5
100
AcDbSymbolTableRecord
100
AcDbLinetypeTableRecord
  2
ByLayer
 70
     0
  3

 72
    65
 73
     0
 40
0.0
  0
LTYPE
  5
16
330
5
100
AcDbSymbolTableRecord
100
AcDbLinetypeTableRecord
  2
Continuous
 70
     0
  3
Solid line
 72
    65
 73
     0
 40
0.0
  0
LTYPE
  5
5E
330
5
100
AcDbSymbolTableRecord
100
AcDbLinetypeTableRecord
  2
HIDDEN
 70
     0
  3
Hidden __ __ __ __ __ __ __ __ __ __ __ __ __ __
 72
    65
 73
     2
 40
0.075
 49
0.05
 74
     0
 49
-0.025
 74
     0
  0
LTYPE
  5
5F
330
5
100
AcDbSymbolTableRecord
100
AcDbLinetypeTableRecord
  2
PHANTOM
 70
     0
  3
Phantom ______  __  __  ______  __  __  ______
 72
    65
 73
     6
 40
0.5
 49
0.25
 74
     0
 49
-0.05
 74
     0
 49
0.05
 74
     0
 49
-0.05
 74
     0
 49
0.05
 74
     0
 49
-0.05
 74
     0
  0
LTYPE
  5
60
330
5
100
AcDbSymbolTableRecord
100
AcDbLinetypeTableRecord
  2
CENTER
 70
     0
  3
Center ____ _ ____ _ ____ _ ____ _ ____ _ ____
 72
    65
 73
     4
 40
0.4
 49
0.25
 74
     0
 49
-0.05
 74
     0
 49
0.05
 74
     0
 49
-0.05
 74
     0
  0
LTYPE
  5
61
330
5
100
AcDbSymbolTableRecord
100
AcDbLinetypeTableRecord
  2
CENTERX2
 70
     0
  3
Center (2x) ________  __  ________  __  _____
 72
    65
 73
     4
 40
0.8
 49
0.5
 74
     0
 49
-0.1
 74
     0
 49
0.1
 74
     0
 49
-0.1
 74
     0
  0
LTYPE
  5
62
330
5
100
AcDbSymbolTableRecord
100
AcDbLinetypeTableRecord
  2
DOT2
 70
     0
  3
Dot (.5x) ........................................
 72
    65
 73
     2
 40
0.025
 49
0.0
 74
     0
 49
-0.025
 74
     0
  0
ENDTAB
  0
TABLE
  2
LAYER
  5
2
330
0
100
AcDbSymbolTable
 70
    11
  0
LAYER
  5
10
330
2
100
AcDbSymbolTableRecord
100
AcDbLayerTableRecord
  2
0
 70
     0
 62
     7
  6
Continuous
370
    -3
390
F
  0
LAYER
  5
63
330
2
100
AcDbSymbolTableRecord
100
AcDbLayerTableRecord
  2
SLD-0
 70
     0
 62
     7
  6
Continuous
370
    -3
390
F
  0
LAYER
  5
64
330
2
100
AcDbSymbolTableRecord
100
AcDbLayerTableRecord
  2
DIM
 70
     0
 62
     7
  6
Continuous
370
    -3
390
F
  0
LAYER
  5
65
330
2
100
AcDbSymbolTableRecord
100
AcDbLayerTableRecord
  2
CEN
 70
     0
 62
     1
  6
CENTER
370
    -3
390
F
  0
LAYER
  5
66
330
2
100
AcDbSymbolTableRecord
100
AcDbLayerTableRecord
  2
HAT
 70
     0
 62
     4
  6
Continuous
370
    -3
390
F
  0
LAYER
  5
67
330
2
100
AcDbSymbolTableRecord
100
AcDbLayerTableRecord
  2
OBJ
 70
     0
 62
     5
  6
Continuous
370
    -3
390
F
  0
LAYER
  5
68
330
2
100
AcDbSymbolTableRecord
100
AcDbLayerTableRecord
  2
SLD-DEFPOINTS
 70
     0
 62
     7
  6
Continuous
370
    -3
390
F
  0
LAYER
  5
69
330
2
100
AcDbSymbolTableRecord
100
AcDbLayerTableRecord
  2
HID
 70
     0
 62
     4
  6
HIDDEN
370
    -3
390
F
  0
LAYER
  5
6A
330
2
100
AcDbSymbolTableRecord
100
AcDbLayerTableRecord
  2
NOTE
 70
     0
 62
     7
  6
Continuous
370
    -3
390
F
  0
LAYER
  5
6B
330
2
100
AcDbSymbolTableRecord
100
AcDbLayerTableRecord
  2
TITLE
 70
     0
 62
     7
  6
Continuous
370
    -3
390
F
  0
LAYER
  5
6C
330
2
100
AcDbSymbolTableRecord
100
AcDbLayerTableRecord
  2
THICK_TITLE
 70
     0
 62
     7
  6
Continuous
370
   100
390
F
  0
ENDTAB
  0
TABLE
  2
STYLE
  5
3
330
0
100
AcDbSymbolTable
 70
     3
  0
STYLE
  5
11
330
3
100
AcDbSymbolTableRecord
100
AcDbTextStyleTableRecord
  2
Standard
 70
     0
 40
0.0
 41
1.0
 50
0.0
 71
     0
 42
0.5
  3
txt
  4

  0
STYLE
  5
CB
330
3
100
AcDbSymbolTableRecord
100
AcDbTextStyleTableRecord
  2
SLDTEXTSTYLE0
 70
     0
 40
0.0
 41
0.75
 50
0.0
 71
     0
 42
0.5
  3
TXT
  4

  0
STYLE
  5
25C
330
3
100
AcDbSymbolTableRecord
100
AcDbTextStyleTableRecord
  2
SLDTEXTSTYLE1
 70
     0
 40
0.0
 41
0.7
 50
0.0
 71
     0
 42
0.5
  3
TXT
  4

  0
ENDTAB
  0
TABLE
  2
VIEW
  5
6
330
0
100
AcDbSymbolTable
 70
     0
  0
ENDTAB
  0
TABLE
  2
UCS
  5
7
330
0
100
AcDbSymbolTable
 70
     0
  0
ENDTAB
  0
TABLE
  2
APPID
  5
9
330
0
100
AcDbSymbolTable
 70
     1
  0
APPID
  5
12
330
9
100
AcDbSymbolTableRecord
100
AcDbRegAppTableRecord
  2
ACAD
 70
     0
  0
ENDTAB
  0
TABLE
  2
DIMSTYLE
  5
A
330
0
100
AcDbSymbolTable
 70
     5
100
AcDbDimStyleTable
  0
DIMSTYLE
105
27
330
A
100
AcDbSymbolTableRecord
100
AcDbDimStyleTableRecord
  2
Standard
 70
     0
178
     0
340
11
  0
DIMSTYLE
105
CC
102
{ACAD_REACTORS
330
CA
330
E0
330
11C
330
1E8
102
}
330
A
100
AcDbSymbolTableRecord
100
AcDbDimStyleTableRecord
  2
SLDDIMSTYLE0
 70
     0
 41
0.52
 44
0.0
 45
0.000000001
 78
    12
 79
     3
140
0.5
147
0.125
148
0.000000001
170
     1
172
     1
173
     1
178
     0
271
     6
272
     0
276
     2
277
     5
284
    12
289
     0
340
CB
  0
DIMSTYLE
105
F5
102
{ACAD_REACTORS
330
F4
330
109
330
1FB
330
248
330
269
102
}
330
A
100
AcDbSymbolTableRecord
100
AcDbDimStyleTableRecord
  2
SLDDIMSTYLE1
 70
     0
 41
0.52
 44
0.0
 45
0.000000001
 78
    12
 79
     3
140
0.5
147
0.125
148
0.000000001
170
     1
173
     1
178
     0
271
     6
272
     0
276
     2
277
     5
284
    12
340
CB
  0
DIMSTYLE
105
1C8
102
{ACAD_REACTORS
330
1C7
102
}
330
A
100
AcDbSymbolTableRecord
100
AcDbDimStyleTableRecord
  2
SLDDIMSTYLE2
 70
     0
 41
0.52
 44
0.0
 45
0.000000001
 78
    12
 79
     3
140
0.5
141
0.0
147
0.125
148
0.000000001
170
     1
173
     1
178
     0
271
     0
272
     0
276
     2
277
     5
284
    12
340
CB
  0
DIMSTYLE
105
1D9
102
{ACAD_REACTORS
330
1D8
102
}
330
A
100
AcDbSymbolTableRecord
100
AcDbDimStyleTableRecord
  2
SLDDIMSTYLE3
 70
     0
 41
0.52
 44
0.0
 45
0.000000001
 78
    12
 79
     3
140
0.5
141
0.0
147
0.125
148
0.000000001
170
     1
173
     1
178
     0
271
     0
272
     0
276
     2
277
     5
284
    12
340
CB
  0
ENDTAB
  0
TABLE
  2
BLOCK_RECORD
  5
1
330
0
100
AcDbSymbolTable
 70
    16
  0
BLOCK_RECORD
  5
1F
330
1
100
AcDbSymbolTableRecord
100
AcDbBlockTableRecord
  2
*Model_Space
340
22
  0
BLOCK_RECORD
  5
1B
330
1
100
AcDbSymbolTableRecord
100
AcDbBlockTableRecord
  2
*Paper_Space
340
1E
  0
BLOCK_RECORD
  5
23
330
1
100
AcDbSymbolTableRecord
100
AcDbBlockTableRecord
  2
*Paper_Space0
340
26
  0
BLOCK_RECORD
  5
CD
330
1
100
AcDbSymbolTableRecord
100
AcDbBlockTableRecord
  2
_D
340
0
  0
BLOCK_RECORD
  5
E1
330
1
100
AcDbSymbolTableRecord
100
AcDbBlockTableRecord
  2
_D_1
340
0
  0
BLOCK_RECORD
  5
F6
330
1
100
AcDbSymbolTableRecord
100
AcDbBlockTableRecord
  2
_D_2
340
0
  0
BLOCK_RECORD
  5
10A
330
1
100
AcDbSymbolTableRecord
100
AcDbBlockTableRecord
  2
_D_3
340
0
  0
BLOCK_RECORD
  5
11D
330
1
100
AcDbSymbolTableRecord
100
AcDbBlockTableRecord
  2
_D_4
340
0
  0
BLOCK_RECORD
  5
1C9
330
1
100
AcDbSymbolTableRecord
100
AcDbBlockTableRecord
  2
_D_5
340
0
  0
BLOCK_RECORD
  5
1DA
330
1
100
AcDbSymbolTableRecord
100
AcDbBlockTableRecord
  2
_D_6
340
0
  0
BLOCK_RECORD
  5
1E9
330
1
100
AcDbSymbolTableRecord
100
AcDbBlockTableRecord
  2
_D_7
340
0
  0
BLOCK_RECORD
  5
1FC
330
1
100
AcDbSymbolTableRecord
100
AcDbBlockTableRecord
  2
_D_8
340
0
  0
BLOCK_RECORD
  5
210
330
1
100
AcDbSymbolTableRecord
100
AcDbBlockTableRecord
  2
SW_CENTERMARKSYMBOL_0
340
0
102
{BLKREFS
331
21B
102
}
  0
BLOCK_RECORD
  5
21C
330
1
100
AcDbSymbolTableRecord
100
AcDbBlockTableRecord
  2
SW_CENTERMARKSYMBOL_1
340
0
102
{BLKREFS
331
227
102
}
  0
BLOCK_RECORD
  5
228
330
1
100
AcDbSymbolTableRecord
100
AcDbBlockTableRecord
  2
SW_CENTERMARKSYMBOL_2
340
0
102
{BLKREFS
331
233
102
}
  0
BLOCK_RECORD
  5
234
330
1
100
AcDbSymbolTableRecord
100
AcDbBlockTableRecord
  2
SW_CENTERMARKSYMBOL_3
340
0
102
{BLKREFS
331
23F
102
}
  0
BLOCK_RECORD
  5
249
330
1
100
AcDbSymbolTableRecord
100
AcDbBlockTableRecord
  2
_D_9
340
0
  0
BLOCK_RECORD
  5
26A
330
1
100
AcDbSymbolTableRecord
100
AcDbBlockTableRecord
  2
_D_10
340
0
  0
ENDTAB
  0
ENDSEC
  0
SECTION
  2
BLOCKS
  0
BLOCK
  5
20
330
1F
100
AcDbEntity
  8
0
100
AcDbBlockBegin
  2
*Model_Space
 70
     0
 10
0.0
 20
0.0
 30
0.0
  3
*Model_Space
  1

  0
ENDBLK
  5
21
330
1F
100
AcDbEntity
  8
0
100
AcDbBlockEnd
  0
BLOCK
  5
1C
330
1B
100
AcDbEntity
 67
     1
  8
0
100
AcDbBlockBegin
  2
*Paper_Space
 70
     0
 10
0.0
 20
0.0
 30
0.0
  3
*Paper_Space
  1

  0
ENDBLK
  5
1D
330
1B
100
AcDbEntity
 67
     1
  8
0
100
AcDbBlockEnd
  0
BLOCK
  5
24
330
23
100
AcDbEntity
  8
0
100
AcDbBlockBegin
  2
*Paper_Space0
 70
     0
 10
0.0
 20
0.0
 30
0.0
  3
*Paper_Space0
  1

  0
ENDBLK
  5
25
330
23
100
AcDbEntity
  8
0
100
AcDbBlockEnd
  0
BLOCK
  5
CE
330
CD
100
AcDbEntity
  8
0
100
AcDbBlockBegin
  2
_D
 70
     0
 10
0.0
 20
0.0
 30
0.0
  3
_D
  1

  0
SOLID
  5
D0
330
CD
100
AcDbEntity
  8
0
  6
Continuous
 62
     7
370
    18
100
AcDbTrace
 10
9.8151130936
 20
24.9709605906
 30
0.0
 11
9.2951130936
 21
25.0509605906
 31
0.0
 12
9.2951130936
 22
24.8909605906
 32
0.0
 13
9.2951130936
 23
24.8909605906
 33
0.0
  0
SOLID
  5
D1
330
CD
100
AcDbEntity
  8
0
  6
Continuous
 62
     7
370
    18
100
AcDbTrace
 10
10.3401130936
 20
24.9709605906
 30
0.0
 11
10.8601130936
 21
24.8909605906
 31
0.0
 12
10.8601130936
 22
25.0509605906
 32
0.0
 13
10.8601130936
 23
25.0509605906
 33
0.0
  0
LINE
  5
D2
330
CD
100
AcDbEntity
  8
0
  6
Continuous
 62
     7
370
     0
100
AcDbLine
 10
6.2009836622
 20
24.9671410681
 30
0.0
 11
6.0486399137
 21
24.9671410681
 31
0.0
  0
LINE
  5
D3
330
CD
100
AcDbEntity
  8
0
  6
Continuous
 62
     7
370
     0
100
AcDbLine
 10
6.0486399137
 20
24.9671410681
 30
0.0
 11
6.0486399137
 21
24.1733910442
 31
0.0
  0
LINE
  5
D4
330
CD
100
AcDbEntity
  8
0
  6
Continuous
 62
     7
370
     0
100
AcDbLine
 10
6.0486399137
 20
24.1733910442
 30
0.0
 11
6.2009836622
 21
24.1733910442
 31
0.0
  0
LINE
  5
D5
330
CD
100
AcDbEntity
  8
0
  6
Continuous
 62
     7
370
     0
100
AcDbLine
 10
8.189872593
 20
24.9671410681
 30
0.0
 11
8.3422163415
 21
24.9671410681
 31
0.0
  0
LINE
  5
D6
330
CD
100
AcDbEntity
  8
0
  6
Continuous
 62
     7
370
     0
100
AcDbLine
 10
8.3422163415
 20
24.9671410681
 30
0.0
 11
8.3422163415
 21
24.1733910442
 31
0.0
  0
LINE
  5
D7
330
CD
100
AcDbEntity
  8
0
  6
Continuous
 62
     7
370
     0
100
AcDbLine
 10
8.3422163415
 20
24.1733910442
 30
0.0
 11
8.189872593
 21
24.1733910442
 31
0.0
  0
LINE
  5
D8
330
CD
100
AcDbEntity
  8
0
  6
Continuous
 62
     7
370
     0
100
AcDbLine
 10
9.8151130936
 20
24.3630608369
 30
0.0
 11
9.8151130936
 21
25.4709605906
 31
0.0
  0
LINE
  5
D9
330
CD
100
AcDbEntity
  8
0
  6
Continuous
 62
     7
370
     0
100
AcDbLine
 10
10.3401130936
 20
24.3280608369
 30
0.0
 11
10.3401130936
 21
25.4709605906
 31
0.0
  0
LINE
  5
DA
330
CD
100
AcDbEntity
  8
0
  6
Continuous
 62
     7
370
     0
100
AcDbLine
 10
9.8151130936
 20
24.9709605906
 30
0.0
 11
8.780671009
 21
24.9709605906
 31
0.0
  0
LINE
  5
DB
330
CD
100
AcDbEntity
  8
0
  6
Continuous
 62
     7
370
     0
100
AcDbLine
 10
10.3401130936
 20
24.9709605906
 30
0.0
 11
11.3401130936
 21
24.9709605906
 31
0.0
  0
MTEXT
  5
DC
330
CD
100
AcDbEntity
  8
0
  6
Continuous
 62
     7
370
    18
100
AcDbMText
 10
5.8990739425
 20
25.7208763782
 30
0.0
 40
0.5
 41
0.0
 71
     1
 72
     1
  1

  7
SLDTEXTSTYLE0
 73
     1
 44
1.0
  0
MTEXT
  5
DD
330
CD
100
AcDbEntity
  8
0
  6
Continuous
 62
     7
370
    18
100
AcDbMText
 10
6.5770252814
 20
25.7132374522
 30
0.0
 40
0.5
 41
0.0
 71
     1
 72
     1
  1
1/2"
  7
SLDTEXTSTYLE0
 73
     1
 44
1.0
  0
MTEXT
  5
DE
330
CD
100
AcDbEntity
  8
0
  6
Continuous
 62
     7
370
    18
100
AcDbMText
 10
6.2009836622
 20
24.8179249691
 30
0.0
 40
0.5
 41
0.0
 71
     1
 72
     1
  1
13mm
  7
SLDTEXTSTYLE0
 73
     1
 44
1.0
  0
MTEXT
  5
DF
330
CD
100
AcDbEntity
  8
0
  6
Continuous
 62
     7
370
    18
100
AcDbMText
 10
8.6820599799
 20
25.7208763782
 30
0.0
 40
0.5
 41
0.0
 71
     1
 72
     1
  1

  7
SLDTEXTSTYLE0
 73
     1
 44
1.0
  0
ENDBLK
  5
CF
330
CD
100
AcDbEntity
  8
0
100
AcDbBlockEnd
  0
BLOCK
  5
E2
330
E1
100
AcDbEntity
  8
0
100
AcDbBlockBegin
  2
_D_1
 70
     0
 10
0.0
 20
0.0
 30
0.0
  3
_D_1
  1

  0
SOLID
  5
E4
330
E1
100
AcDbEntity
  8
0
  6
Continuous
 62
     7
370
    18
100
AcDbTrace
 10
9.8151130936
 20
18.0986610304
 30
0.0
 11
10.3351130936
 21
18.0186610304
 31
0.0
 12
10.3351130936
 22
18.1786610304
 32
0.0
 13
10.3351130936
 23
18.1786610304
 33
0.0
  0
SOLID
  5
E5
330
E1
100
AcDbEntity
  8
0
  6
Continuous
 62
     7
370
    18
100
AcDbTrace
 10
9.7151130936
 20
18.0986610304
 30
0.0
 11
9.1951130936
 21
18.1786610304
 31
0.0
 12
9.1951130936
 22
18.0186610304
 32
0.0
 13
9.1951130936
 23
18.0186610304
 33
0.0
  0
LINE
  5
E6
330
E1
100
AcDbEntity
  8
0
  6
Continuous
 62
     7
370
     0
100
AcDbLine
 10
6.3857058482
 20
18.0948415078
 30
0.0
 11
6.2333620998
 21
18.0948415078
 31
0.0
  0
LINE
  5
E7
330
E1
100
AcDbEntity
  8
0
  6
Continuous
 62
     7
370
     0
100
AcDbLine
 10
6.2333620998
 20
18.0948415078
 30
0.0
 11
6.2333620998
 21
17.301091484
 31
0.0
  0
LINE
  5
E8
330
E1
100
AcDbEntity
  8
0
  6
Continuous
 62
     7
370
     0
100
AcDbLine
 10
6.2333620998
 20
17.301091484
 30
0.0
 11
6.3857058482
 21
17.301091484
 31
0.0
  0
LINE
  5
E9
330
E1
100
AcDbEntity
  8
0
  6
Continuous
 62
     7
370
     0
100
AcDbLine
 10
8.0051502603
 20
18.0948415078
 30
0.0
 11
8.1574940087
 21
18.0948415078
 31
0.0
  0
LINE
  5
EA
330
E1
100
AcDbEntity
  8
0
  6
Continuous
 62
     7
370
     0
100
AcDbLine
 10
8.1574940087
 20
18.0948415078
 30
0.0
 11
8.1574940087
 21
17.301091484
 31
0.0
  0
LINE
  5
EB
330
E1
100
AcDbEntity
  8
0
  6
Continuous
 62
     7
370
     0
100
AcDbLine
 10
8.1574940087
 20
17.301091484
 30
0.0
 11
8.0051502603
 21
17.301091484
 31
0.0
  0
LINE
  5
EC
330
E1
100
AcDbEntity
  8
0
  6
Continuous
 62
     7
370
     0
100
AcDbLine
 10
9.8151130936
 20
19.0230608369
 30
0.0
 11
9.8151130936
 21
17.5986610304
 31
0.0
  0
LINE
  5
ED
330
E1
100
AcDbEntity
  8
0
  6
Continuous
 62
     7
370
     0
100
AcDbLine
 10
9.7151130936
 20
21.1421874246
 30
0.0
 11
9.7151130936
 21
17.5986610304
 31
0.0
  0
LINE
  5
EE
330
E1
100
AcDbEntity
  8
0
  6
Continuous
 62
     7
370
     0
100
AcDbLine
 10
9.8151130936
 20
18.0986610304
 30
0.0
 11
10.8151130936
 21
18.0986610304
 31
0.0
  0
LINE
  5
EF
330
E1
100
AcDbEntity
  8
0
  6
Continuous
 62
     7
370
     0
100
AcDbLine
 10
9.7151130936
 20
18.0986610304
 30
0.0
 11
8.5959488229
 21
18.0986610304
 31
0.0
  0
MTEXT
  5
F0
330
E1
100
AcDbEntity
  8
0
  6
Continuous
 62
     7
370
    18
100
AcDbMText
 10
6.0837961286
 20
18.8485768179
 30
0.0
 40
0.5
 41
0.0
 71
     1
 72
     1
  1

  7
SLDTEXTSTYLE0
 73
     1
 44
1.0
  0
MTEXT
  5
F1
330
E1
100
AcDbEntity
  8
0
  6
Continuous
 62
     7
370
    18
100
AcDbMText
 10
6.5770252081
 20
18.840937892
 30
0.0
 40
0.5
 41
0.0
 71
     1
 72
     1
  1
1/8"
  7
SLDTEXTSTYLE0
 73
     1
 44
1.0
  0
MTEXT
  5
F2
330
E1
100
AcDbEntity
  8
0
  6
Continuous
 62
     7
370
    18
100
AcDbMText
 10
6.3857058482
 20
17.9456254088
 30
0.0
 40
0.5
 41
0.0
 71
     1
 72
     1
  1
3mm
  7
SLDTEXTSTYLE0
 73
     1
 44
1.0
  0
MTEXT
  5
F3
330
E1
100
AcDbEntity
  8
0
  6
Continuous
 62
     7
370
    18
100
AcDbMText
 10
8.4973376472
 20
18.8485768179
 30
0.0
 40
0.5
 41
0.0
 71
     1
 72
     1
  1

  7
SLDTEXTSTYLE0
 73
     1
 44
1.0
  0
ENDBLK
  5
E3
330
E1
100
AcDbEntity
  8
0
100
AcDbBlockEnd
  0
BLOCK
  5
F7
330
F6
100
AcDbEntity
  8
0
100
AcDbBlockBegin
  2
_D_2
 70
     0
 10
0.0
 20
0.0
 30
0.0
  3
_D_2
  1

  0
SOLID
  5
F9
330
F6
100
AcDbEntity
  8
0
  6
Continuous
 62
     7
370
    18
100
AcDbTrace
 10
9.8151130936
 20
32.4647458762
 30
0.0
 11
10.3351130936
 21
32.3847458762
 31
0.0
 12
10.3351130936
 22
32.5447458762
 32
0.0
 13
10.3351130936
 23
32.5447458762
 33
0.0
  0
SOLID
  5
FA
330
F6
100
AcDbEntity
  8
0
  6
Continuous
 62
     7
370
    18
100
AcDbTrace
 10
16.9551130936
 20
32.4647458762
 30
0.0
 11
16.4351130936
 21
32.5447458762
 31
0.0
 12
16.4351130936
 22
32.3847458762
 32
0.0
 13
16.4351130936
 23
32.3847458762
 33
0.0
  0
LINE
  5
FB
330
F6
100
AcDbEntity
  8
0
  6
Continuous
 62
     7
370
     0
100
AcDbLine
 10
12.2059465155
 20
32.4609263537
 30
0.0
 11
12.053602767
 21
32.4609263537
 31
0.0
  0
LINE
  5
FC
330
F6
100
AcDbEntity
  8
0
  6
Continuous
 62
     7
370
     0
100
AcDbLine
 10
12.053602767
 20
32.4609263537
 30
0.0
 11
12.053602767
 21
31.6671763298
 31
0.0
  0
LINE
  5
FD
330
F6
100
AcDbEntity
  8
0
  6
Continuous
 62
     7
370
     0
100
AcDbLine
 10
12.053602767
 20
31.6671763298
 30
0.0
 11
12.2059465155
 21
31.6671763298
 31
0.0
  0
LINE
  5
FE
330
F6
100
AcDbEntity
  8
0
  6
Continuous
 62
     7
370
     0
100
AcDbLine
 10
14.5642798185
 20
32.4609263537
 30
0.0
 11
14.7166235669
 21
32.4609263537
 31
0.0
  0
LINE
  5
FF
330
F6
100
AcDbEntity
  8
0
  6
Continuous
 62
     7
370
     0
100
AcDbLine
 10
14.7166235669
 20
32.4609263537
 30
0.0
 11
14.7166235669
 21
31.6671763298
 31
0.0
  0
LINE
  5
100
330
F6
100
AcDbEntity
  8
0
  6
Continuous
 62
     7
370
     0
100
AcDbLine
 10
14.7166235669
 20
31.6671763298
 30
0.0
 11
14.5642798185
 21
31.6671763298
 31
0.0
  0
LINE
  5
101
330
F6
100
AcDbEntity
  8
0
  6
Continuous
 62
     7
370
     0
100
AcDbLine
 10
9.8151130936
 20
24.3630608369
 30
0.0
 11
9.8151130936
 21
32.9647458762
 31
0.0
  0
LINE
  5
102
330
F6
100
AcDbEntity
  8
0
  6
Continuous
 62
     7
370
     0
100
AcDbLine
 10
16.9551130936
 20
23.3350608369
 30
0.0
 11
16.9551130936
 21
32.9647458762
 31
0.0
  0
LINE
  5
103
330
F6
100
AcDbEntity
  8
0
  6
Continuous
 62
     7
370
     0
100
AcDbLine
 10
9.8151130936
 20
32.4647458762
 30
0.0
 11
11.6151479529
 21
32.4647458762
 31
0.0
  0
LINE
  5
104
330
F6
100
AcDbEntity
  8
0
  6
Continuous
 62
     7
370
     0
100
AcDbLine
 10
16.9551130936
 20
32.4647458762
 30
0.0
 11
15.1550782344
 21
32.4647458762
 31
0.0
  0
MTEXT
  5
105
330
F6
100
AcDbEntity
  8
0
  6
Continuous
 62
     7
370
    18
100
AcDbMText
 10
11.9040367958
 20
33.2146616637
 30
0.0
 40
0.5
 41
0.0
 71
     1
 72
     1
  1

  7
SLDTEXTSTYLE0
 73
     1
 44
1.0
  0
MTEXT
  5
106
330
F6
100
AcDbEntity
  8
0
  6
Continuous
 62
     7
370
    18
100
AcDbMText
 10
12.4896270417
 20
33.2070227378
 30
0.0
 40
0.5
 41
0.0
 71
     1
 72
     1
  1
7 1/8"
  7
SLDTEXTSTYLE0
 73
     1
 44
1.0
  0
MTEXT
  5
107
330
F6
100
AcDbEntity
  8
0
  6
Continuous
 62
     7
370
    18
100
AcDbMText
 10
12.2059465155
 20
32.3117102547
 30
0.0
 40
0.5
 41
0.0
 71
     1
 72
     1
  1
181mm
  7
SLDTEXTSTYLE0
 73
     1
 44
1.0
  0
MTEXT
  5
108
330
F6
100
AcDbEntity
  8
0
  6
Continuous
 62
     7
370
    18
100
AcDbMText
 10
15.0564672054
 20
33.2146616637
 30
0.0
 40
0.5
 41
0.0
 71
     1
 72
     1
  1

  7
SLDTEXTSTYLE0
 73
     1
 44
1.0
  0
ENDBLK
  5
F8
330
F6
100
AcDbEntity
  8
0
100
AcDbBlockEnd
  0
BLOCK
  5
10B
330
10A
100
AcDbEntity
  8
0
100
AcDbBlockBegin
  2
_D_3
 70
     0
 10
0.0
 20
0.0
 30
0.0
  3
_D_3
  1

  0
SOLID
  5
10D
330
10A
100
AcDbEntity
  8
0
  6
Continuous
 62
     7
370
    18
100
AcDbTrace
 10
11.4851130936
 20
11.8662576872
 30
0.0
 11
12.0051130936
 21
11.7862576872
 31
0.0
 12
12.0051130936
 22
11.9462576872
 32
0.0
 13
12.0051130936
 23
11.9462576872
 33
0.0
  0
SOLID
  5
10E
330
10A
100
AcDbEntity
  8
0
  6
Continuous
 62
     7
370
    18
100
AcDbTrace
 10
16.9551130936
 20
11.8662576872
 30
0.0
 11
16.4351130936
 21
11.9462576872
 31
0.0
 12
16.4351130936
 22
11.7862576872
 32
0.0
 13
16.4351130936
 23
11.7862576872
 33
0.0
  0
LINE
  5
10F
330
10A
100
AcDbEntity
  8
0
  6
Continuous
 62
     7
370
     0
100
AcDbLine
 10
13.0409464788
 20
11.8662576139
 30
0.0
 11
12.8886027304
 21
11.8662576139
 31
0.0
  0
LINE
  5
110
330
10A
100
AcDbEntity
  8
0
  6
Continuous
 62
     7
370
     0
100
AcDbLine
 10
12.8886027304
 20
11.8662576139
 30
0.0
 11
12.8886027304
 21
11.07250759
 31
0.0
  0
LINE
  5
111
330
10A
100
AcDbEntity
  8
0
  6
Continuous
 62
     7
370
     0
100
AcDbLine
 10
12.8886027304
 20
11.07250759
 30
0.0
 11
13.0409464788
 21
11.07250759
 31
0.0
  0
LINE
  5
112
330
10A
100
AcDbEntity
  8
0
  6
Continuous
 62
     7
370
     0
100
AcDbLine
 10
15.3992797818
 20
11.8662576139
 30
0.0
 11
15.5516235302
 21
11.8662576139
 31
0.0
  0
LINE
  5
113
330
10A
100
AcDbEntity
  8
0
  6
Continuous
 62
     7
370
     0
100
AcDbLine
 10
15.5516235302
 20
11.8662576139
 30
0.0
 11
15.5516235302
 21
11.07250759
 31
0.0
  0
LINE
  5
114
330
10A
100
AcDbEntity
  8
0
  6
Continuous
 62
     7
370
     0
100
AcDbLine
 10
15.5516235302
 20
11.07250759
 30
0.0
 11
15.3992797818
 21
11.07250759
 31
0.0
  0
LINE
  5
115
330
10A
100
AcDbEntity
  8
0
  6
Continuous
 62
     7
370
     0
100
AcDbLine
 10
11.4851130936
 20
20.0510608369
 30
0.0
 11
11.4851130936
 21
11.3662576872
 31
0.0
  0
LINE
  5
116
330
10A
100
AcDbEntity
  8
0
  6
Continuous
 62
     7
370
     0
100
AcDbLine
 10
16.9551130936
 20
20.0510608369
 30
0.0
 11
16.9551130936
 21
11.3662576872
 31
0.0
  0
LINE
  5
117
330
10A
100
AcDbEntity
  8
0
  6
Continuous
 62
     7
370
     0
100
AcDbLine
 10
11.4851130936
 20
11.8662576872
 30
0.0
 11
12.6348701389
 21
11.8662576872
 31
0.0
  0
LINE
  5
118
330
10A
100
AcDbEntity
  8
0
  6
Continuous
 62
     7
370
     0
100
AcDbLine
 10
16.9551130936
 20
11.8662576872
 30
0.0
 11
15.8053560483
 21
11.8662576872
 31
0.0
  0
MTEXT
  5
119
330
10A
100
AcDbEntity
  8
0
  6
Continuous
 62
     7
370
    18
100
AcDbMText
 10
12.9475957272
 20
12.6123540347
 30
0.0
 40
0.5
 41
0.0
 71
     1
 72
     1
  1
%%c
  7
SLDTEXTSTYLE0
 73
     1
 44
1.0
  0
MTEXT
  5
11A
330
10A
100
AcDbEntity
  8
0
  6
Continuous
 62
     7
370
    18
100
AcDbMText
 10
13.7016582095
 20
12.6123540347
 30
0.0
 40
0.5
 41
0.0
 71
     1
 72
     1
  1
5 1/2"
  7
SLDTEXTSTYLE0
 73
     1
 44
1.0
  0
MTEXT
  5
11B
330
10A
100
AcDbEntity
  8
0
  6
Continuous
 62
     7
370
    18
100
AcDbMText
 10
13.0409464788
 20
11.7170415149
 30
0.0
 40
0.5
 41
0.0
 71
     1
 72
     1
  1
139mm
  7
SLDTEXTSTYLE0
 73
     1
 44
1.0
  0
ENDBLK
  5
10C
330
10A
100
AcDbEntity
  8
0
100
AcDbBlockEnd
  0
BLOCK
  5
11E
330
11D
100
AcDbEntity
  8
0
100
AcDbBlockBegin
  2
_D_4
 70
     0
 10
0.0
 20
0.0
 30
0.0
  3
_D_4
  1

  0
SOLID
  5
120
330
11D
100
AcDbEntity
  8
0
  6
Continuous
 62
     7
370
    18
100
AcDbTrace
 10
18.6981355003
 20
23.1350608369
 30
0.0
 11
18.7781355003
 21
23.6550608369
 31
0.0
 12
18.6181355003
 22
23.6550608369
 32
0.0
 13
18.6181355003
 23
23.6550608369
 33
0.0
  0
SOLID
  5
121
330
11D
100
AcDbEntity
  8
0
  6
Continuous
 62
     7
370
    18
100
AcDbTrace
 10
18.6981355003
 20
20.2510608369
 30
0.0
 11
18.6181355003
 21
19.7310608369
 31
0.0
 12
18.7781355003
 22
19.7310608369
 32
0.0
 13
18.7781355003
 23
19.7310608369
 33
0.0
  0
LINE
  5
122
330
11D
100
AcDbEntity
  8
0
  6
Continuous
 62
     7
370
     0
100
AcDbLine
 10
17.7036911082
 20
21.6892413143
 30
0.0
 11
17.5513473598
 21
21.6892413143
 31
0.0
  0
LINE
  5
123
330
11D
100
AcDbEntity
  8
0
  6
Continuous
 62
     7
370
     0
100
AcDbLine
 10
17.5513473598
 20
21.6892413143
 30
0.0
 11
17.5513473598
 21
20.8954912904
 31
0.0
  0
LINE
  5
124
330
11D
100
AcDbEntity
  8
0
  6
Continuous
 62
     7
370
     0
100
AcDbLine
 10
17.5513473598
 20
20.8954912904
 30
0.0
 11
17.7036911082
 21
20.8954912904
 31
0.0
  0
LINE
  5
125
330
11D
100
AcDbEntity
  8
0
  6
Continuous
 62
     7
370
     0
100
AcDbLine
 10
19.6925800391
 20
21.6892413143
 30
0.0
 11
19.8449237875
 21
21.6892413143
 31
0.0
  0
LINE
  5
126
330
11D
100
AcDbEntity
  8
0
  6
Continuous
 62
     7
370
     0
100
AcDbLine
 10
19.8449237875
 20
21.6892413143
 30
0.0
 11
19.8449237875
 21
20.8954912904
 31
0.0
  0
LINE
  5
127
330
11D
100
AcDbEntity
  8
0
  6
Continuous
 62
     7
370
     0
100
AcDbLine
 10
19.8449237875
 20
20.8954912904
 30
0.0
 11
19.6925800391
 21
20.8954912904
 31
0.0
  0
LINE
  5
128
330
11D
100
AcDbEntity
  8
0
  6
Continuous
 62
     7
370
     0
100
AcDbLine
 10
17.1551130936
 20
23.1350608369
 30
0.0
 11
19.1981355003
 21
23.1350608369
 31
0.0
  0
LINE
  5
129
330
11D
100
AcDbEntity
  8
0
  6
Continuous
 62
     7
370
     0
100
AcDbLine
 10
17.1551130936
 20
20.2510608369
 30
0.0
 11
19.1981355003
 21
20.2510608369
 31
0.0
  0
LINE
  5
12A
330
11D
100
AcDbEntity
  8
0
  6
Continuous
 62
     7
370
     0
100
AcDbLine
 10
18.6981355003
 20
23.1350608369
 30
0.0
 11
18.6981355003
 21
24.1350608369
 31
0.0
  0
LINE
  5
12B
330
11D
100
AcDbEntity
  8
0
  6
Continuous
 62
     7
370
     0
100
AcDbLine
 10
18.6981355003
 20
20.2510608369
 30
0.0
 11
18.6981355003
 21
19.2510608369
 31
0.0
  0
MTEXT
  5
12C
330
11D
100
AcDbEntity
  8
0
  6
Continuous
 62
     7
370
    18
100
AcDbMText
 10
17.4017813886
 20
22.4429766244
 30
0.0
 40
0.5
 41
0.0
 71
     1
 72
     1
  1

  7
SLDTEXTSTYLE0
 73
     1
 44
1.0
  0
MTEXT
  5
12D
330
11D
100
AcDbEntity
  8
0
  6
Continuous
 62
     7
370
    18
100
AcDbMText
 10
17.8026494484
 20
22.4353376984
 30
0.0
 40
0.5
 41
0.0
 71
     1
 72
     1
  1
2 7/8"
  7
SLDTEXTSTYLE0
 73
     1
 44
1.0
  0
MTEXT
  5
12E
330
11D
100
AcDbEntity
  8
0
  6
Continuous
 62
     7
370
    18
100
AcDbMText
 10
17.7036911082
 20
21.5400252153
 30
0.0
 40
0.5
 41
0.0
 71
     1
 72
     1
  1
73mm
  7
SLDTEXTSTYLE0
 73
     1
 44
1.0
  0
MTEXT
  5
12F
330
11D
100
AcDbEntity
  8
0
  6
Continuous
 62
     7
370
    18
100
AcDbMText
 10
20.184767426
 20
22.4429766244
 30
0.0
 40
0.5
 41
0.0
 71
     1
 72
     1
  1

  7
SLDTEXTSTYLE0
 73
     1
 44
1.0
  0
ENDBLK
  5
11F
330
11D
100
AcDbEntity
  8
0
100
AcDbBlockEnd
  0
BLOCK
  5
1CA
330
1C9
100
AcDbEntity
  8
0
100
AcDbBlockBegin
  2
_D_5
 70
     0
 10
0.0
 20
0.0
 30
0.0
  3
_D_5
  1

  0
SOLID
  5
1CC
330
1C9
100
AcDbEntity
  8
0
  6
Continuous
 62
     7
370
    18
100
AcDbTrace
 10
22.5238670229
 20
19.7073331848
 30
0.0
 11
22.1945849906
 21
19.2969999748
 31
0.0
 12
22.3331490552
 22
19.2169999748
 32
0.0
 13
22.3331490552
 23
19.2169999748
 33
0.0
  0
LINE
  5
1CD
330
1C9
100
AcDbEntity
  8
0
  6
Continuous
 62
     7
370
     0
100
AcDbLine
 10
17.8755336359
 20
18.0007215222
 30
0.0
 11
17.7231898875
 21
18.0007215222
 31
0.0
  0
LINE
  5
1CE
330
1C9
100
AcDbEntity
  8
0
  6
Continuous
 62
     7
370
     0
100
AcDbLine
 10
17.7231898875
 20
18.0007215222
 30
0.0
 11
17.7231898875
 21
17.2069714983
 31
0.0
  0
LINE
  5
1CF
330
1C9
100
AcDbEntity
  8
0
  6
Continuous
 62
     7
370
     0
100
AcDbLine
 10
17.7231898875
 20
17.2069714983
 30
0.0
 11
17.8755336359
 21
17.2069714983
 31
0.0
  0
LINE
  5
1D0
330
1C9
100
AcDbEntity
  8
0
  6
Continuous
 62
     7
370
     0
100
AcDbLine
 10
20.2338669389
 20
18.0007215222
 30
0.0
 11
20.3862106874
 21
18.0007215222
 31
0.0
  0
LINE
  5
1D1
330
1C9
100
AcDbEntity
  8
0
  6
Continuous
 62
     7
370
     0
100
AcDbLine
 10
20.3862106874
 20
18.0007215222
 30
0.0
 11
20.3862106874
 21
17.2069714983
 31
0.0
  0
LINE
  5
1D2
330
1C9
100
AcDbEntity
  8
0
  6
Continuous
 62
     7
370
     0
100
AcDbLine
 10
20.3862106874
 20
17.2069714983
 30
0.0
 11
20.2338669389
 21
17.2069714983
 31
0.0
  0
LINE
  5
1D3
330
1C9
100
AcDbEntity
  8
0
  6
Continuous
 62
     7
370
     0
100
AcDbLine
 10
22.5238670229
 20
19.7073331848
 30
0.0
 11
21.5385543625
 21
18.0007215955
 31
0.0
  0
LINE
  5
1D4
330
1C9
100
AcDbEntity
  8
0
  6
Continuous
 62
     7
370
     0
100
AcDbLine
 10
21.5385543625
 20
18.0007215955
 30
0.0
 11
20.5385543625
 21
18.0007215955
 31
0.0
  0
MTEXT
  5
1D5
330
1C9
100
AcDbEntity
  8
0
  6
Continuous
 62
     7
370
    18
100
AcDbMText
 10
18.3898218048
 20
18.746817943
 30
0.0
 40
0.5
 41
0.0
 71
     1
 72
     1
  1
%%c
  7
SLDTEXTSTYLE0
 73
     1
 44
1.0
  0
MTEXT
  5
1D6
330
1C9
100
AcDbEntity
  8
0
  6
Continuous
 62
     7
370
    18
100
AcDbMText
 10
19.1438842872
 20
18.746817943
 30
0.0
 40
0.5
 41
0.0
 71
     1
 72
     1
  1
5"
  7
SLDTEXTSTYLE0
 73
     1
 44
1.0
  0
MTEXT
  5
1D7
330
1C9
100
AcDbEntity
  8
0
  6
Continuous
 62
     7
370
    18
100
AcDbMText
 10
17.8755336359
 20
17.8515054232
 30
0.0
 40
0.5
 41
0.0
 71
     1
 72
     1
  1
127mm
  7
SLDTEXTSTYLE0
 73
     1
 44
1.0
  0
ENDBLK
  5
1CB
330
1C9
100
AcDbEntity
  8
0
100
AcDbBlockEnd
  0
BLOCK
  5
1DB
330
1DA
100
AcDbEntity
  8
0
100
AcDbBlockBegin
  2
_D_6
 70
     0
 10
0.0
 20
0.0
 30
0.0
  3
_D_6
  1

  0
SOLID
  5
1DD
330
1DA
100
AcDbEntity
  8
0
  6
Continuous
 62
     7
370
    18
100
AcDbTrace
 10
24.2238670229
 20
21.0929738308
 30
0.0
 11
24.4145849906
 21
20.6026406208
 31
0.0
 12
24.5531490552
 22
20.6826406208
 32
0.0
 13
24.5531490552
 23
20.6826406208
 33
0.0
  0
LINE
  5
1DE
330
1DA
100
AcDbEntity
  8
0
  6
Continuous
 62
     7
370
     0
100
AcDbLine
 10
27.2145959093
 20
18.2462755201
 30
0.0
 11
27.0622521609
 21
18.2462755201
 31
0.0
  0
LINE
  5
1DF
330
1DA
100
AcDbEntity
  8
0
  6
Continuous
 62
     7
370
     0
100
AcDbLine
 10
27.0622521609
 20
18.2462755201
 30
0.0
 11
27.0622521609
 21
17.4525254963
 31
0.0
  0
LINE
  5
1E0
330
1DA
100
AcDbEntity
  8
0
  6
Continuous
 62
     7
370
     0
100
AcDbLine
 10
27.0622521609
 20
17.4525254963
 30
0.0
 11
27.2145959093
 21
17.4525254963
 31
0.0
  0
LINE
  5
1E1
330
1DA
100
AcDbEntity
  8
0
  6
Continuous
 62
     7
370
     0
100
AcDbLine
 10
29.2034848402
 20
18.2462755201
 30
0.0
 11
29.3558285886
 21
18.2462755201
 31
0.0
  0
LINE
  5
1E2
330
1DA
100
AcDbEntity
  8
0
  6
Continuous
 62
     7
370
     0
100
AcDbLine
 10
29.3558285886
 20
18.2462755201
 30
0.0
 11
29.3558285886
 21
17.4525254963
 31
0.0
  0
LINE
  5
1E3
330
1DA
100
AcDbEntity
  8
0
  6
Continuous
 62
     7
370
     0
100
AcDbLine
 10
29.3558285886
 20
17.4525254963
 30
0.0
 11
29.2034848402
 21
17.4525254963
 31
0.0
  0
LINE
  5
1E4
330
1DA
100
AcDbEntity
  8
0
  6
Continuous
 62
     7
370
     0
100
AcDbLine
 10
24.2238670229
 20
21.0929738308
 30
0.0
 11
25.9099084125
 21
18.1726644805
 31
0.0
  0
LINE
  5
1E5
330
1DA
100
AcDbEntity
  8
0
  6
Continuous
 62
     7
370
     0
100
AcDbLine
 10
25.9099084125
 20
18.1726644805
 30
0.0
 11
26.9099084125
 21
18.1726644805
 31
0.0
  0
MTEXT
  5
1E6
330
1DA
100
AcDbEntity
  8
0
  6
Continuous
 62
     7
370
    18
100
AcDbMText
 10
27.3882070138
 20
18.9923719042
 30
0.0
 40
0.5
 41
0.0
 71
     1
 72
     1
  1
R7/8"
  7
SLDTEXTSTYLE0
 73
     1
 44
1.0
  0
MTEXT
  5
1E7
330
1DA
100
AcDbEntity
  8
0
  6
Continuous
 62
     7
370
    18
100
AcDbMText
 10
27.2145959093
 20
18.0970594211
 30
0.0
 40
0.5
 41
0.0
 71
     1
 72
     1
  1
23mm
  7
SLDTEXTSTYLE0
 73
     1
 44
1.0
  0
ENDBLK
  5
1DC
330
1DA
100
AcDbEntity
  8
0
100
AcDbBlockEnd
  0
BLOCK
  5
1EA
330
1E9
100
AcDbEntity
  8
0
100
AcDbBlockBegin
  2
_D_7
 70
     0
 10
0.0
 20
0.0
 30
0.0
  3
_D_7
  1

  0
SOLID
  5
1EC
330
1E9
100
AcDbEntity
  8
0
  6
Continuous
 62
     7
370
    18
100
AcDbTrace
 10
28.7935520623
 20
23.6223966942
 30
0.0
 11
28.8735520623
 21
24.1423966942
 31
0.0
 12
28.7135520623
 22
24.1423966942
 32
0.0
 13
28.7135520623
 23
24.1423966942
 33
0.0
  0
SOLID
  5
1ED
330
1E9
100
AcDbEntity
  8
0
  6
Continuous
 62
     7
370
    18
100
AcDbTrace
 10
28.7935520623
 20
20.1223966942
 30
0.0
 11
28.7135520623
 21
19.6023966942
 31
0.0
 12
28.8735520623
 22
19.6023966942
 32
0.0
 13
28.8735520623
 23
19.6023966942
 33
0.0
  0
LINE
  5
1EE
330
1E9
100
AcDbEntity
  8
0
  6
Continuous
 62
     7
370
     0
100
AcDbLine
 10
27.0539687614
 20
21.8685771717
 30
0.0
 11
26.901625013
 21
21.8685771717
 31
0.0
  0
LINE
  5
1EF
330
1E9
100
AcDbEntity
  8
0
  6
Continuous
 62
     7
370
     0
100
AcDbLine
 10
26.901625013
 20
21.8685771717
 30
0.0
 11
26.901625013
 21
21.0748271478
 31
0.0
  0
LINE
  5
1F0
330
1E9
100
AcDbEntity
  8
0
  6
Continuous
 62
     7
370
     0
100
AcDbLine
 10
26.901625013
 20
21.0748271478
 30
0.0
 11
27.0539687614
 21
21.0748271478
 31
0.0
  0
LINE
  5
1F1
330
1E9
100
AcDbEntity
  8
0
  6
Continuous
 62
     7
370
     0
100
AcDbLine
 10
29.0428576923
 20
21.8685771717
 30
0.0
 11
29.1952014407
 21
21.8685771717
 31
0.0
  0
LINE
  5
1F2
330
1E9
100
AcDbEntity
  8
0
  6
Continuous
 62
     7
370
     0
100
AcDbLine
 10
29.1952014407
 20
21.8685771717
 30
0.0
 11
29.1952014407
 21
21.0748271478
 31
0.0
  0
LINE
  5
1F3
330
1E9
100
AcDbEntity
  8
0
  6
Continuous
 62
     7
370
     0
100
AcDbLine
 10
29.1952014407
 20
21.0748271478
 30
0.0
 11
29.0428576923
 21
21.0748271478
 31
0.0
  0
LINE
  5
1F4
330
1E9
100
AcDbEntity
  8
0
  6
Continuous
 62
     7
370
     0
100
AcDbLine
 10
24.0988670229
 20
23.6223966942
 30
0.0
 11
29.2935520623
 21
23.6223966942
 31
0.0
  0
LINE
  5
1F5
330
1E9
100
AcDbEntity
  8
0
  6
Continuous
 62
     7
370
     0
100
AcDbLine
 10
24.0988670229
 20
20.1223966942
 30
0.0
 11
29.2935520623
 21
20.1223966942
 31
0.0
  0
LINE
  5
1F6
330
1E9
100
AcDbEntity
  8
0
  6
Continuous
 62
     7
370
     0
100
AcDbLine
 10
28.7935520623
 20
23.6223966942
 30
0.0
 11
28.7935520623
 21
24.6223966942
 31
0.0
  0
LINE
  5
1F7
330
1E9
100
AcDbEntity
  8
0
  6
Continuous
 62
     7
370
     0
100
AcDbLine
 10
28.7935520623
 20
20.1223966942
 30
0.0
 11
28.7935520623
 21
19.1223966942
 31
0.0
  0
MTEXT
  5
1F8
330
1E9
100
AcDbEntity
  8
0
  6
Continuous
 62
     7
370
    18
100
AcDbMText
 10
27.1529271016
 20
22.6146735558
 30
0.0
 40
0.5
 41
0.0
 71
     1
 72
     1
  1
3 1/2"
  7
SLDTEXTSTYLE0
 73
     1
 44
1.0
  0
MTEXT
  5
1F9
330
1E9
100
AcDbEntity
  8
0
  6
Continuous
 62
     7
370
    18
100
AcDbMText
 10
27.0539687614
 20
21.7193610727
 30
0.0
 40
0.5
 41
0.0
 71
     1
 72
     1
  1
89mm
  7
SLDTEXTSTYLE0
 73
     1
 44
1.0
  0
MTEXT
  5
1FA
330
1E9
100
AcDbEntity
  8
0
  6
Continuous
 62
     7
370
    18
100
AcDbMText
 10
29.3475451159
 20
22.6223124817
 30
0.0
 40
0.5
 41
0.0
 71
     1
 72
     1
  1
O.C.
  7
SLDTEXTSTYLE0
 73
     1
 44
1.0
  0
ENDBLK
  5
1EB
330
1E9
100
AcDbEntity
  8
0
100
AcDbBlockEnd
  0
BLOCK
  5
1FD
330
1FC
100
AcDbEntity
  8
0
100
AcDbBlockBegin
  2
_D_8
 70
     0
 10
0.0
 20
0.0
 30
0.0
  3
_D_8
  1

  0
SOLID
  5
1FF
330
1FC
100
AcDbEntity
  8
0
  6
Continuous
 62
     7
370
    18
100
AcDbTrace
 10
22.0238670229
 20
25.9471998438
 30
0.0
 11
22.5438670229
 21
25.8671998438
 31
0.0
 12
22.5438670229
 22
26.0271998438
 32
0.0
 13
22.5438670229
 23
26.0271998438
 33
0.0
  0
SOLID
  5
200
330
1FC
100
AcDbEntity
  8
0
  6
Continuous
 62
     7
370
    18
100
AcDbTrace
 10
25.5238670229
 20
25.9471998438
 30
0.0
 11
25.0038670229
 21
26.0271998438
 31
0.0
 12
25.0038670229
 22
25.8671998438
 32
0.0
 13
25.0038670229
 23
25.8671998438
 33
0.0
  0
LINE
  5
201
330
1FC
100
AcDbEntity
  8
0
  6
Continuous
 62
     7
370
     0
100
AcDbLine
 10
26.7586931709
 20
25.9433803213
 30
0.0
 11
26.6063494225
 21
25.9433803213
 31
0.0
  0
LINE
  5
202
330
1FC
100
AcDbEntity
  8
0
  6
Continuous
 62
     7
370
     0
100
AcDbLine
 10
26.6063494225
 20
25.9433803213
 30
0.0
 11
26.6063494225
 21
25.1496302974
 31
0.0
  0
LINE
  5
203
330
1FC
100
AcDbEntity
  8
0
  6
Continuous
 62
     7
370
     0
100
AcDbLine
 10
26.6063494225
 20
25.1496302974
 30
0.0
 11
26.7586931709
 21
25.1496302974
 31
0.0
  0
LINE
  5
204
330
1FC
100
AcDbEntity
  8
0
  6
Continuous
 62
     7
370
     0
100
AcDbLine
 10
28.7475821017
 20
25.9433803213
 30
0.0
 11
28.8999258502
 21
25.9433803213
 31
0.0
  0
LINE
  5
205
330
1FC
100
AcDbEntity
  8
0
  6
Continuous
 62
     7
370
     0
100
AcDbLine
 10
28.8999258502
 20
25.9433803213
 30
0.0
 11
28.8999258502
 21
25.1496302974
 31
0.0
  0
LINE
  5
206
330
1FC
100
AcDbEntity
  8
0
  6
Continuous
 62
     7
370
     0
100
AcDbLine
 10
28.8999258502
 20
25.1496302974
 30
0.0
 11
28.7475821017
 21
25.1496302974
 31
0.0
  0
LINE
  5
207
330
1FC
100
AcDbEntity
  8
0
  6
Continuous
 62
     7
370
     0
100
AcDbLine
 10
22.0238670229
 20
22.1973966942
 30
0.0
 11
22.0238670229
 21
26.4471998438
 31
0.0
  0
LINE
  5
208
330
1FC
100
AcDbEntity
  8
0
  6
Continuous
 62
     7
370
     0
100
AcDbLine
 10
25.5238670229
 20
22.1973966942
 30
0.0
 11
25.5238670229
 21
26.4471998438
 31
0.0
  0
LINE
  5
209
330
1FC
100
AcDbEntity
  8
0
  6
Continuous
 62
     7
370
     0
100
AcDbLine
 10
22.0238670229
 20
25.9471998438
 30
0.0
 11
25.5238670229
 21
25.9471998438
 31
0.0
  0
LINE
  5
20A
330
1FC
100
AcDbEntity
  8
0
  6
Continuous
 62
     7
370
     0
100
AcDbLine
 10
25.5238670229
 20
25.9471998438
 30
0.0
 11
26.352616831
 21
25.9471998438
 31
0.0
  0
MTEXT
  5
20B
330
1FC
100
AcDbEntity
  8
0
  6
Continuous
 62
     7
370
    18
100
AcDbMText
 10
26.8576515111
 20
26.6894767054
 30
0.0
 40
0.5
 41
0.0
 71
     1
 72
     1
  1
3 1/2"
  7
SLDTEXTSTYLE0
 73
     1
 44
1.0
  0
MTEXT
  5
20C
330
1FC
100
AcDbEntity
  8
0
  6
Continuous
 62
     7
370
    18
100
AcDbMText
 10
26.7586931709
 20
25.7941642223
 30
0.0
 40
0.5
 41
0.0
 71
     1
 72
     1
  1
89mm
  7
SLDTEXTSTYLE0
 73
     1
 44
1.0
  0
MTEXT
  5
20D
330
1FC
100
AcDbEntity
  8
0
  6
Continuous
 62
     7
370
    18
100
AcDbMText
 10
29.0522695253
 20
26.6971156313
 30
0.0
 40
0.5
 41
0.0
 71
     1
 72
     1
  1
O.C.
  7
SLDTEXTSTYLE0
 73
     1
 44
1.0
  0
ENDBLK
  5
1FE
330
1FC
100
AcDbEntity
  8
0
100
AcDbBlockEnd
  0
BLOCK
  5
211
330
210
100
AcDbEntity
  8
0
100
AcDbBlockBegin
  2
SW_CENTERMARKSYMBOL_0
 70
     0
 10
0.0
 20
0.0
 30
0.0
  3
SW_CENTERMARKSYMBOL_0
  1

  0
LINE
  5
213
330
210
100
AcDbEntity
  8
0
  6
Continuous
 62
     0
370
    18
100
AcDbLine
 10
0.0
 20
0.0
 30
0.0
 11
0.0
 21
0.1
 31
0.0
  0
LINE
  5
214
330
210
100
AcDbEntity
  8
0
  6
Continuous
 62
     0
370
    18
100
AcDbLine
 10
0.0
 20
0.0
 30
0.0
 11
-0.1
 21
0.0
 31
0.0
  0
LINE
  5
215
330
210
100
AcDbEntity
  8
0
  6
Continuous
 62
     0
370
    18
100
AcDbLine
 10
0.0
 20
0.0
 30
0.0
 11
0.0
 21
-0.1
 31
0.0
  0
LINE
  5
216
330
210
100
AcDbEntity
  8
0
  6
Continuous
 62
     0
370
    18
100
AcDbLine
 10
0.0
 20
0.0
 30
0.0
 11
0.1
 21
0.0
 31
0.0
  0
LINE
  5
217
330
210
100
AcDbEntity
  8
0
  6
Continuous
 62
     0
370
    18
100
AcDbLine
 10
0.0
 20
0.2
 30
0.0
 11
0.0
 21
2.6
 31
0.0
  0
LINE
  5
218
330
210
100
AcDbEntity
  8
0
  6
Continuous
 62
     0
370
    18
100
AcDbLine
 10
-0.2
 20
0.0
 30
0.0
 11
-2.6
 21
0.0
 31
0.0
  0
LINE
  5
219
330
210
100
AcDbEntity
  8
0
  6
Continuous
 62
     0
370
    18
100
AcDbLine
 10
0.0
 20
-0.2
 30
0.0
 11
0.0
 21
-2.6
 31
0.0
  0
LINE
  5
21A
330
210
100
AcDbEntity
  8
0
  6
Continuous
 62
     0
370
    18
100
AcDbLine
 10
0.2
 20
0.0
 30
0.0
 11
2.6
 21
0.0
 31
0.0
  0
ENDBLK
  5
212
330
210
100
AcDbEntity
  8
0
100
AcDbBlockEnd
  0
BLOCK
  5
21D
330
21C
100
AcDbEntity
  8
0
100
AcDbBlockBegin
  2
SW_CENTERMARKSYMBOL_1
 70
     0
 10
0.0
 20
0.0
 30
0.0
  3
SW_CENTERMARKSYMBOL_1
  1

  0
LINE
  5
21F
330
21C
100
AcDbEntity
  8
0
  6
Continuous
 62
     0
370
    18
100
AcDbLine
 10
0.0
 20
0.0
 30
0.0
 11
0.0
 21
0.1
 31
0.0
  0
LINE
  5
220
330
21C
100
AcDbEntity
  8
0
  6
Continuous
 62
     0
370
    18
100
AcDbLine
 10
0.0
 20
0.0
 30
0.0
 11
-0.1
 21
0.0
 31
0.0
  0
LINE
  5
221
330
21C
100
AcDbEntity
  8
0
  6
Continuous
 62
     0
370
    18
100
AcDbLine
 10
0.0
 20
0.0
 30
0.0
 11
0.0
 21
-0.1
 31
0.0
  0
LINE
  5
222
330
21C
100
AcDbEntity
  8
0
  6
Continuous
 62
     0
370
    18
100
AcDbLine
 10
0.0
 20
0.0
 30
0.0
 11
0.1
 21
0.0
 31
0.0
  0
LINE
  5
223
330
21C
100
AcDbEntity
  8
0
  6
Continuous
 62
     0
370
    18
100
AcDbLine
 10
0.0
 20
0.1
 30
0.0
 11
0.0
 21
0.17475
 31
0.0
  0
LINE
  5
224
330
21C
100
AcDbEntity
  8
0
  6
Continuous
 62
     0
370
    18
100
AcDbLine
 10
-0.1
 20
0.0
 30
0.0
 11
-0.17475
 21
0.0
 31
0.0
  0
LINE
  5
225
330
21C
100
AcDbEntity
  8
0
  6
Continuous
 62
     0
370
    18
100
AcDbLine
 10
0.0
 20
-0.1
 30
0.0
 11
0.0
 21
-0.17475
 31
0.0
  0
LINE
  5
226
330
21C
100
AcDbEntity
  8
0
  6
Continuous
 62
     0
370
    18
100
AcDbLine
 10
0.1
 20
0.0
 30
0.0
 11
0.17475
 21
0.0
 31
0.0
  0
ENDBLK
  5
21E
330
21C
100
AcDbEntity
  8
0
100
AcDbBlockEnd
  0
BLOCK
  5
229
330
228
100
AcDbEntity
  8
0
100
AcDbBlockBegin
  2
SW_CENTERMARKSYMBOL_2
 70
     0
 10
0.0
 20
0.0
 30
0.0
  3
SW_CENTERMARKSYMBOL_2
  1

  0
LINE
  5
22B
330
228
100
AcDbEntity
  8
0
  6
Continuous
 62
     0
370
    18
100
AcDbLine
 10
0.0
 20
0.0
 30
0.0
 11
0.0
 21
0.1
 31
0.0
  0
LINE
  5
22C
330
228
100
AcDbEntity
  8
0
  6
Continuous
 62
     0
370
    18
100
AcDbLine
 10
0.0
 20
0.0
 30
0.0
 11
-0.1
 21
0.0
 31
0.0
  0
LINE
  5
22D
330
228
100
AcDbEntity
  8
0
  6
Continuous
 62
     0
370
    18
100
AcDbLine
 10
0.0
 20
0.0
 30
0.0
 11
0.0
 21
-0.1
 31
0.0
  0
LINE
  5
22E
330
228
100
AcDbEntity
  8
0
  6
Continuous
 62
     0
370
    18
100
AcDbLine
 10
0.0
 20
0.0
 30
0.0
 11
0.1
 21
0.0
 31
0.0
  0
LINE
  5
22F
330
228
100
AcDbEntity
  8
0
  6
Continuous
 62
     0
370
    18
100
AcDbLine
 10
0.0
 20
0.1
 30
0.0
 11
0.0
 21
0.17475
 31
0.0
  0
LINE
  5
230
330
228
100
AcDbEntity
  8
0
  6
Continuous
 62
     0
370
    18
100
AcDbLine
 10
-0.1
 20
0.0
 30
0.0
 11
-0.17475
 21
0.0
 31
0.0
  0
LINE
  5
231
330
228
100
AcDbEntity
  8
0
  6
Continuous
 62
     0
370
    18
100
AcDbLine
 10
0.0
 20
-0.1
 30
0.0
 11
0.0
 21
-0.17475
 31
0.0
  0
LINE
  5
232
330
228
100
AcDbEntity
  8
0
  6
Continuous
 62
     0
370
    18
100
AcDbLine
 10
0.1
 20
0.0
 30
0.0
 11
0.17475
 21
0.0
 31
0.0
  0
ENDBLK
  5
22A
330
228
100
AcDbEntity
  8
0
100
AcDbBlockEnd
  0
BLOCK
  5
235
330
234
100
AcDbEntity
  8
0
100
AcDbBlockBegin
  2
SW_CENTERMARKSYMBOL_3
 70
     0
 10
0.0
 20
0.0
 30
0.0
  3
SW_CENTERMARKSYMBOL_3
  1

  0
LINE
  5
237
330
234
100
AcDbEntity
  8
0
  6
Continuous
 62
     0
370
    18
100
AcDbLine
 10
0.0
 20
0.0
 30
0.0
 11
0.0
 21
0.1
 31
0.0
  0
LINE
  5
238
330
234
100
AcDbEntity
  8
0
  6
Continuous
 62
     0
370
    18
100
AcDbLine
 10
0.0
 20
0.0
 30
0.0
 11
-0.1
 21
0.0
 31
0.0
  0
LINE
  5
239
330
234
100
AcDbEntity
  8
0
  6
Continuous
 62
     0
370
    18
100
AcDbLine
 10
0.0
 20
0.0
 30
0.0
 11
0.0
 21
-0.1
 31
0.0
  0
LINE
  5
23A
330
234
100
AcDbEntity
  8
0
  6
Continuous
 62
     0
370
    18
100
AcDbLine
 10
0.0
 20
0.0
 30
0.0
 11
0.1
 21
0.0
 31
0.0
  0
LINE
  5
23B
330
234
100
AcDbEntity
  8
0
  6
Continuous
 62
     0
370
    18
100
AcDbLine
 10
0.0
 20
0.1
 30
0.0
 11
0.0
 21
0.17475
 31
0.0
  0
LINE
  5
23C
330
234
100
AcDbEntity
  8
0
  6
Continuous
 62
     0
370
    18
100
AcDbLine
 10
-0.1
 20
0.0
 30
0.0
 11
-0.17475
 21
0.0
 31
0.0
  0
LINE
  5
23D
330
234
100
AcDbEntity
  8
0
  6
Continuous
 62
     0
370
    18
100
AcDbLine
 10
0.0
 20
-0.1
 30
0.0
 11
0.0
 21
-0.17475
 31
0.0
  0
LINE
  5
23E
330
234
100
AcDbEntity
  8
0
  6
Continuous
 62
     0
370
    18
100
AcDbLine
 10
0.1
 20
0.0
 30
0.0
 11
0.17475
 21
0.0
 31
0.0
  0
ENDBLK
  5
236
330
234
100
AcDbEntity
  8
0
100
AcDbBlockEnd
  0
BLOCK
  5
24A
330
249
100
AcDbEntity
  8
0
100
AcDbBlockBegin
  2
_D_9
 70
     0
 10
0.0
 20
0.0
 30
0.0
  3
_D_9
  1

  0
SOLID
  5
24C
330
249
100
AcDbEntity
  8
0
  6
Continuous
 62
     7
370
    18
100
AcDbTrace
 10
23.1136881906
 20
2.3192740414
 30
0.0
 11
23.1936881906
 21
2.8392740414
 31
0.0
 12
23.0336881906
 22
2.8392740414
 32
0.0
 13
23.0336881906
 23
2.8392740414
 33
0.0
  0
SOLID
  5
24D
330
249
100
AcDbEntity
  8
0
  6
Continuous
 62
     7
370
    18
100
AcDbTrace
 10
23.1136881906
 20
8.1292740414
 30
0.0
 11
23.0336881906
 21
7.6092740414
 31
0.0
 12
23.1936881906
 22
7.6092740414
 32
0.0
 13
23.1936881906
 23
7.6092740414
 33
0.0
  0
LINE
  5
24E
330
249
100
AcDbEntity
  8
0
  6
Continuous
 62
     7
370
     0
100
AcDbLine
 10
21.9345216125
 20
5.2204545189
 30
0.0
 11
21.782177864
 21
5.2204545189
 31
0.0
  0
LINE
  5
24F
330
249
100
AcDbEntity
  8
0
  6
Continuous
 62
     7
370
     0
100
AcDbLine
 10
21.782177864
 20
5.2204545189
 30
0.0
 11
21.782177864
 21
4.426704495
 31
0.0
  0
LINE
  5
250
330
249
100
AcDbEntity
  8
0
  6
Continuous
 62
     7
370
     0
100
AcDbLine
 10
21.782177864
 20
4.426704495
 30
0.0
 11
21.9345216125
 21
4.426704495
 31
0.0
  0
LINE
  5
251
330
249
100
AcDbEntity
  8
0
  6
Continuous
 62
     7
370
     0
100
AcDbLine
 10
24.2928549155
 20
5.2204545189
 30
0.0
 11
24.4451986639
 21
5.2204545189
 31
0.0
  0
LINE
  5
252
330
249
100
AcDbEntity
  8
0
  6
Continuous
 62
     7
370
     0
100
AcDbLine
 10
24.4451986639
 20
5.2204545189
 30
0.0
 11
24.4451986639
 21
4.426704495
 31
0.0
  0
LINE
  5
253
330
249
100
AcDbEntity
  8
0
  6
Continuous
 62
     7
370
     0
100
AcDbLine
 10
24.4451986639
 20
4.426704495
 30
0.0
 11
24.2928549155
 21
4.426704495
 31
0.0
  0
LINE
  5
254
330
249
100
AcDbEntity
  8
0
  6
Continuous
 62
     7
370
     0
100
AcDbLine
 10
24.9224256366
 20
2.3192740414
 30
0.0
 11
22.6136881906
 21
2.3192740414
 31
0.0
  0
LINE
  5
255
330
249
100
AcDbEntity
  8
0
  6
Continuous
 62
     7
370
     0
100
AcDbLine
 10
24.9224256366
 20
8.1292740414
 30
0.0
 11
22.6136881906
 21
8.1292740414
 31
0.0
  0
LINE
  5
256
330
249
100
AcDbEntity
  8
0
  6
Continuous
 62
     7
370
     0
100
AcDbLine
 10
23.1136881906
 20
2.3192740414
 30
0.0
 11
23.1136881906
 21
4.3251421549
 31
0.0
  0
LINE
  5
257
330
249
100
AcDbEntity
  8
0
  6
Continuous
 62
     7
370
     0
100
AcDbLine
 10
23.1136881906
 20
8.1292740414
 30
0.0
 11
23.1136881906
 21
6.1234059279
 31
0.0
  0
MTEXT
  5
258
330
249
100
AcDbEntity
  8
0
  6
Continuous
 62
     7
370
    18
100
AcDbMText
 10
21.6326118928
 20
5.9741898289
 30
0.0
 40
0.5
 41
0.0
 71
     1
 72
     1
  1

  7
SLDTEXTSTYLE0
 73
     1
 44
1.0
  0
MTEXT
  5
259
330
249
100
AcDbEntity
  8
0
  6
Continuous
 62
     7
370
    18
100
AcDbMText
 10
21.8487576932
 20
5.966550903
 30
0.0
 40
0.5
 41
0.0
 71
     1
 72
     1
  1
5 13/16"
  7
SLDTEXTSTYLE0
 73
     1
 44
1.0
  0
MTEXT
  5
25A
330
249
100
AcDbEntity
  8
0
  6
Continuous
 62
     7
370
    18
100
AcDbMText
 10
21.9345216125
 20
5.0712384199
 30
0.0
 40
0.5
 41
0.0
 71
     1
 72
     1
  1
148mm
  7
SLDTEXTSTYLE0
 73
     1
 44
1.0
  0
MTEXT
  5
25B
330
249
100
AcDbEntity
  8
0
  6
Continuous
 62
     7
370
    18
100
AcDbMText
 10
24.7850423024
 20
5.9741898289
 30
0.0
 40
0.5
 41
0.0
 71
     1
 72
     1
  1

  7
SLDTEXTSTYLE0
 73
     1
 44
1.0
  0
ENDBLK
  5
24B
330
249
100
AcDbEntity
  8
0
100
AcDbBlockEnd
  0
BLOCK
  5
26B
330
26A
100
AcDbEntity
  8
0
100
AcDbBlockBegin
  2
_D_10
 70
     0
 10
0.0
 20
0.0
 30
0.0
  3
_D_10
  1

  0
SOLID
  5
26D
330
26A
100
AcDbEntity
  8
0
  6
Continuous
 62
     7
370
    18
100
AcDbTrace
 10
11.3235794234
 20
9.0992740414
 30
0.0
 11
11.2435794234
 21
8.5792740414
 31
0.0
 12
11.4035794234
 22
8.5792740414
 32
0.0
 13
11.4035794234
 23
8.5792740414
 33
0.0
  0
SOLID
  5
26E
330
26A
100
AcDbEntity
  8
0
  6
Continuous
 62
     7
370
    18
100
AcDbTrace
 10
11.3235794234
 20
2.3492740414
 30
0.0
 11
11.4035794234
 21
2.8692740414
 31
0.0
 12
11.2435794234
 22
2.8692740414
 32
0.0
 13
11.2435794234
 23
2.8692740414
 33
0.0
  0
LINE
  5
26F
330
26A
100
AcDbEntity
  8
0
  6
Continuous
 62
     7
370
     0
100
AcDbLine
 10
10.1444128453
 20
5.7204545189
 30
0.0
 11
9.9920690968
 21
5.7204545189
 31
0.0
  0
LINE
  5
270
330
26A
100
AcDbEntity
  8
0
  6
Continuous
 62
     7
370
     0
100
AcDbLine
 10
9.9920690968
 20
5.7204545189
 30
0.0
 11
9.9920690968
 21
4.926704495
 31
0.0
  0
LINE
  5
271
330
26A
100
AcDbEntity
  8
0
  6
Continuous
 62
     7
370
     0
100
AcDbLine
 10
9.9920690968
 20
4.926704495
 30
0.0
 11
10.1444128453
 21
4.926704495
 31
0.0
  0
LINE
  5
272
330
26A
100
AcDbEntity
  8
0
  6
Continuous
 62
     7
370
     0
100
AcDbLine
 10
12.5027461483
 20
5.7204545189
 30
0.0
 11
12.6550898967
 21
5.7204545189
 31
0.0
  0
LINE
  5
273
330
26A
100
AcDbEntity
  8
0
  6
Continuous
 62
     7
370
     0
100
AcDbLine
 10
12.6550898967
 20
5.7204545189
 30
0.0
 11
12.6550898967
 21
4.926704495
 31
0.0
  0
LINE
  5
274
330
26A
100
AcDbEntity
  8
0
  6
Continuous
 62
     7
370
     0
100
AcDbLine
 10
12.6550898967
 20
4.926704495
 30
0.0
 11
12.5027461483
 21
4.926704495
 31
0.0
  0
LINE
  5
275
330
26A
100
AcDbEntity
  8
0
  6
Continuous
 62
     7
370
     0
100
AcDbLine
 10
13.6432644628
 20
9.0992740414
 30
0.0
 11
10.8235794234
 21
9.0992740414
 31
0.0
  0
LINE
  5
276
330
26A
100
AcDbEntity
  8
0
  6
Continuous
 62
     7
370
     0
100
AcDbLine
 10
13.6432644628
 20
2.3492740414
 30
0.0
 11
10.8235794234
 21
2.3492740414
 31
0.0
  0
LINE
  5
277
330
26A
100
AcDbEntity
  8
0
  6
Continuous
 62
     7
370
     0
100
AcDbLine
 10
11.3235794234
 20
9.0992740414
 30
0.0
 11
11.3235794234
 21
6.6234059279
 31
0.0
  0
LINE
  5
278
330
26A
100
AcDbEntity
  8
0
  6
Continuous
 62
     7
370
     0
100
AcDbLine
 10
11.3235794234
 20
2.3492740414
 30
0.0
 11
11.3235794234
 21
4.8251421549
 31
0.0
  0
MTEXT
  5
279
330
26A
100
AcDbEntity
  8
0
  6
Continuous
 62
     7
370
    18
100
AcDbMText
 10
9.8425031256
 20
6.4741898289
 30
0.0
 40
0.5
 41
0.0
 71
     1
 72
     1
  1

  7
SLDTEXTSTYLE0
 73
     1
 44
1.0
  0
MTEXT
  5
27A
330
26A
100
AcDbEntity
  8
0
  6
Continuous
 62
     7
370
    18
100
AcDbMText
 10
10.4280933715
 20
6.466550903
 30
0.0
 40
0.5
 41
0.0
 71
     1
 72
     1
  1
6 3/4"
  7
SLDTEXTSTYLE0
 73
     1
 44
1.0
  0
MTEXT
  5
27B
330
26A
100
AcDbEntity
  8
0
  6
Continuous
 62
     7
370
    18
100
AcDbMText
 10
10.1444128453
 20
5.5712384199
 30
0.0
 40
0.5
 41
0.0
 71
     1
 72
     1
  1
171mm
  7
SLDTEXTSTYLE0
 73
     1
 44
1.0
  0
MTEXT
  5
27C
330
26A
100
AcDbEntity
  8
0
  6
Continuous
 62
     7
370
    18
100
AcDbMText
 10
12.9949335352
 20
6.4741898289
 30
0.0
 40
0.5
 41
0.0
 71
     1
 72
     1
  1

  7
SLDTEXTSTYLE0
 73
     1
 44
1.0
  0
ENDBLK
  5
26C
330
26A
100
AcDbEntity
  8
0
100
AcDbBlockEnd
  0
ENDSEC
  0
SECTION
  2
ENTITIES
  0
ARC
  5
6D
330
1F
100
AcDbEntity
  8
0
  6
Continuous
 62
     7
370
    25
100
AcDbCircle
 10
11.5151130936
 20
29.9150608369
 30
0.0
 40
0.0300000000000011
100
AcDbArc
 50
90.0
 51
180.0
  0
ARC
  5
6E
330
1F
100
AcDbEntity
  8
0
  6
Continuous
 62
     7
370
    25
100
AcDbCircle
 10
16.9251130936
 20
29.9150608369
 30
0.0
 40
0.0300000000000011
100
AcDbArc
 50
0.0
 51
90.0
  0
LINE
  5
6F
330
1F
100
AcDbEntity
  8
0
  6
Continuous
 62
     7
370
    25
100
AcDbLine
 10
16.9551130936
 20
23.3989608369
 30
0.0
 11
16.9551130936
 21
29.9150608369
 31
0.0
  0
LINE
  5
70
330
1F
100
AcDbEntity
  8
0
  6
Continuous
 62
     7
370
    25
100
AcDbLine
 10
16.9551130936
 20
23.1650608369
 30
0.0
 11
16.9551130936
 21
23.2461608369
 31
0.0
  0
LINE
  5
71
330
1F
100
AcDbEntity
  8
0
  6
Continuous
 62
     7
370
    25
100
AcDbLine
 10
11.4851130936
 20
29.9150608369
 30
0.0
 11
11.4851130936
 21
23.1650608369
 31
0.0
  0
ARC
  5
72
330
1F
100
AcDbEntity
  8
0
  6
Continuous
 62
     7
370
    25
100
AcDbCircle
 10
16.9251130936
 20
23.1650608369
 30
0.0
 40
0.0300000000000011
100
AcDbArc
 50
270.0
 51
0.0
  0
ARC
  5
73
330
1F
100
AcDbEntity
  8
0
  6
Continuous
 62
     7
370
    25
100
AcDbCircle
 10
11.5151130936
 20
23.1650608369
 30
0.0
 40
0.0300000000000011
100
AcDbArc
 50
180.0
 51
270.0
  0
LINE
  5
74
330
1F
100
AcDbEntity
  8
0
  6
Continuous
 62
     7
370
    25
100
AcDbLine
 10
11.4851130936
 20
20.2210608369
 30
0.0
 11
11.4851130936
 21
13.4710608369
 31
0.0
  0
LINE
  5
75
330
1F
100
AcDbEntity
  8
0
  6
Continuous
 62
     7
370
    25
100
AcDbLine
 10
16.9551130936
 20
20.1399608369
 30
0.0
 11
16.9551130936
 21
20.2210608369
 31
0.0
  0
LINE
  5
76
330
1F
100
AcDbEntity
  8
0
  6
Continuous
 62
     7
370
    25
100
AcDbLine
 10
16.9551130936
 20
13.4710608369
 30
0.0
 11
16.9551130936
 21
19.9871608369
 31
0.0
  0
ARC
  5
77
330
1F
100
AcDbEntity
  8
0
  6
Continuous
 62
     7
370
    25
100
AcDbCircle
 10
16.9251130936
 20
13.4710608369
 30
0.0
 40
0.0300000000000011
100
AcDbArc
 50
270.0
 51
0.0
  0
ARC
  5
78
330
1F
100
AcDbEntity
  8
0
  6
Continuous
 62
     7
370
    25
100
AcDbCircle
 10
11.5151130936
 20
13.4710608369
 30
0.0
 40
0.0300000000000011
100
AcDbArc
 50
180.0
 51
270.0
  0
ARC
  5
79
330
1F
100
AcDbEntity
  8
0
  6
Continuous
 62
     7
370
    25
100
AcDbCircle
 10
11.5151130936
 20
20.2210608369
 30
0.0
 40
0.0300000000000011
100
AcDbArc
 50
90.0
 51
180.0
  0
ARC
  5
7A
330
1F
100
AcDbEntity
  8
0
  6
Continuous
 62
     7
370
    25
100
AcDbCircle
 10
16.9251130936
 20
20.2210608369
 30
0.0
 40
0.0300000000000011
100
AcDbArc
 50
0.0
 51
90.0
  0
LINE
  5
7B
330
1F
100
AcDbEntity
  8
0
  6
Continuous
 62
     7
370
    25
100
AcDbLine
 10
9.9651130936
 20
19.2080608369
 30
0.0
 11
10.2901130936
 21
19.2080608369
 31
0.0
  0
LINE
  5
7C
330
1F
100
AcDbEntity
  8
0
  6
Continuous
 62
     7
370
    25
100
AcDbLine
 10
10.2901130936
 20
24.1780608369
 30
0.0
 11
9.9651130936
 21
24.1780608369
 31
0.0
  0
LINE
  5
7D
330
1F
100
AcDbEntity
  8
0
  6
Continuous
 62
     7
370
    25
100
AcDbLine
 10
10.2901130936
 20
19.2080608369
 30
0.0
 11
10.3401130936
 21
19.2580608369
 31
0.0
  0
LINE
  5
7E
330
1F
100
AcDbEntity
  8
0
  6
Continuous
 62
     7
370
    25
100
AcDbLine
 10
10.3401130936
 20
24.1280608369
 30
0.0
 11
10.2901130936
 21
24.1780608369
 31
0.0
  0
LINE
  5
7F
330
1F
100
AcDbEntity
  8
0
  6
Continuous
 62
     7
370
    25
100
AcDbLine
 10
10.3501130936
 20
21.0380608369
 30
0.0
 11
11.4872222253
 21
21.0380608369
 31
0.0
  0
LINE
  5
80
330
1F
100
AcDbEntity
  8
0
  6
Continuous
 62
     7
370
    25
100
AcDbLine
 10
11.4872202283
 20
22.3480608369
 30
0.0
 11
10.3501130936
 21
22.3480608369
 31
0.0
  0
ARC
  5
81
330
1F
100
AcDbEntity
  8
0
  6
Continuous
 62
     7
370
    25
100
AcDbCircle
 10
10.3501130936
 20
22.3380608369
 30
0.0
 40
0.0099999999999998
100
AcDbArc
 50
90.0
 51
180.0
  0
ARC
  5
82
330
1F
100
AcDbEntity
  8
0
  6
Continuous
 62
     7
370
    25
100
AcDbCircle
 10
10.3501130936
 20
21.0480608369
 30
0.0
 40
0.0099999999999998
100
AcDbArc
 50
180.0
 51
270.0
  0
LINE
  5
83
330
1F
100
AcDbEntity
  8
0
  6
Continuous
 62
     7
370
    25
100
AcDbLine
 10
9.7463630936
 20
22.0980608369
 30
0.0
 11
9.7151130936
 21
22.0439342491
 31
0.0
  0
LINE
  5
84
330
1F
100
AcDbEntity
  8
0
  6
Continuous
 62
     7
370
    25
100
AcDbLine
 10
9.7151130936
 20
21.3421874246
 30
0.0
 11
9.7463630936
 21
21.2880608369
 31
0.0
  0
LINE
  5
85
330
1F
100
AcDbEntity
  8
0
  6
Continuous
 62
     7
370
    25
100
AcDbLine
 10
9.7552916651
 20
22.0980608369
 30
0.0
 11
9.7463630936
 21
22.0980608369
 31
0.0
  0
LINE
  5
86
330
1F
100
AcDbEntity
  8
0
  6
Continuous
 62
     7
370
    25
100
AcDbLine
 10
9.7463630936
 20
21.2880608369
 30
0.0
 11
9.7552916651
 21
21.2880608369
 31
0.0
  0
LINE
  5
87
330
1F
100
AcDbEntity
  8
0
  6
Continuous
 62
     7
370
    25
100
AcDbLine
 10
9.8151130936
 20
22.093421415
 30
0.0
 11
9.7865416651
 21
22.0439342491
 31
0.0
  0
LINE
  5
88
330
1F
100
AcDbEntity
  8
0
  6
Continuous
 62
     7
370
    25
100
AcDbLine
 10
9.7865416651
 20
21.3421874246
 30
0.0
 11
9.8151130936
 21
21.2927002587
 31
0.0
  0
LINE
  5
89
330
1F
100
AcDbEntity
  8
0
  6
Continuous
 62
     7
370
    25
100
AcDbLine
 10
9.7552916651
 20
21.2880608369
 30
0.0
 11
9.7865416651
 21
21.3421874246
 31
0.0
  0
LINE
  5
8A
330
1F
100
AcDbEntity
  8
0
  6
Continuous
 62
     7
370
    25
100
AcDbLine
 10
9.7865416651
 20
22.0439342491
 30
0.0
 11
9.7552916651
 21
22.0980608369
 31
0.0
  0
LINE
  5
8B
330
1F
100
AcDbEntity
  8
0
  6
Continuous
 62
     7
370
    25
100
AcDbLine
 10
16.9551130936
 20
20.2510608369
 30
0.0
 11
16.9551130936
 21
23.1350608369
 31
0.0
  0
LINE
  5
8C
330
1F
100
AcDbEntity
  8
0
  6
Continuous
 62
     7
370
    25
100
AcDbLine
 10
11.4851130936
 20
21.0296969324
 30
0.0
 11
11.4851130936
 21
20.2510608369
 31
0.0
  0
LINE
  5
8D
330
1F
100
AcDbEntity
  8
0
  6
Continuous
 62
     7
370
    25
100
AcDbLine
 10
11.4851130936
 20
23.1350608369
 30
0.0
 11
11.4851130936
 21
22.3562692988
 31
0.0
  0
LINE
  5
8E
330
1F
100
AcDbEntity
  8
0
  6
Continuous
 62
     7
370
    25
100
AcDbLine
 10
9.8451130936
 20
19.1930608369
 30
0.0
 11
9.9651130936
 21
19.1930608369
 31
0.0
  0
LINE
  5
8F
330
1F
100
AcDbEntity
  8
0
  6
Continuous
 62
     7
370
    25
100
AcDbLine
 10
9.9651130936
 20
24.1930608369
 30
0.0
 11
9.8451130936
 21
24.1930608369
 31
0.0
  0
LINE
  5
90
330
1F
100
AcDbEntity
  8
0
  6
Continuous
 62
     7
370
    25
100
AcDbLine
 10
9.8451130936
 20
24.1930608369
 30
0.0
 11
9.8151130936
 21
24.1630608369
 31
0.0
  0
LINE
  5
91
330
1F
100
AcDbEntity
  8
0
  6
Continuous
 62
     7
370
    25
100
AcDbLine
 10
9.8151130936
 20
19.2230608369
 30
0.0
 11
9.8451130936
 21
19.1930608369
 31
0.0
  0
LINE
  5
92
330
1F
100
AcDbEntity
  8
0
  6
Continuous
 62
     7
370
    25
100
AcDbLine
 10
11.5151130936
 20
29.9450608369
 30
0.0
 11
16.9251130936
 21
29.9450608369
 31
0.0
  0
SPLINE
  5
93
330
1F
100
AcDbEntity
  8
0
  6
Continuous
 62
     7
370
    25
100
AcDbSpline
210
0.0
220
0.0
230
1.0
 70
    11
 71
     3
 72
    44
 73
    40
 74
     0
 42
0.00000001
 43
0.00000001
 40
0.0
 40
0.0
 40
0.0
 40
0.0
 40
0.0268407075037029
 40
0.0536814436170719
 40
0.080521840016304
 40
0.1073622775571871
 40
0.134209019549638
 40
0.1610557510294834
 40
0.1879066918425144
 40
0.2147575868473579
 40
0.2416016629618198
 40
0.2684457294808748
 40
0.2952825965407889
 40
0.3221195051029324
 40
0.3489600629385167
 40
0.3758006486318452
 40
0.4026500400926227
 40
0.4294994022402246
 40
0.4563489875144752
 40
0.4831985319786825
 40
0.5100393597322475
 40
0.5368801989115243
 40
0.56371699034731
 40
0.5905538275122307
 40
0.6173976012520608
 40
0.6442413836811314
 40
0.6710922612288803
 40
0.6979430968125402
 40
0.7247901131574633
 40
0.7516371023785398
 40
0.7784753233244059
 40
0.8053135742610156
 40
0.8321517896325075
 40
0.8589900452760785
 40
0.8858370504679909
 40
0.9126840433798994
 40
0.9395349242133724
 40
0.9663857592584213
 40
1.0
 40
1.0
 40
1.0
 40
1.0
 10
12.7883885362332
 20
23.32256083685137
 30
0.0
 10
12.78856687836916
 20
23.32676216613455
 30
0.0
 10
12.78892356283118
 20
23.33516482917913
 30
0.0
 10
12.7917100968824
 20
23.34741825299126
 30
0.0
 10
12.79611716458143
 20
23.35895143890276
 30
0.0
 10
12.802125834314
 20
23.36947390466586
 30
0.0
 10
12.80958992386791
 20
23.37863842877734
 30
0.0
 10
12.81826315746229
 20
23.38624526271461
 30
0.0
 10
12.82794908306979
 20
23.39200753709069
 30
0.0
 10
12.83834304525323
 20
23.39583868933983
 30
0.0
 10
12.84917785936625
 20
23.3975465279678
 30
0.0
 10
12.86013431401637
 20
23.39716985599775
 30
0.0
 10
12.87090147277125
 20
23.39463271172894
 30
0.0
 10
12.8811845083361
 20
23.39009343260687
 30
0.0
 10
12.8906620213858
 20
23.38359889215495
 30
0.0
 10
12.89909731542302
 20
23.37540729249061
 30
0.0
 10
12.90619436115305
 20
23.36568409298721
 30
0.0
 10
12.91180250432195
 20
23.35476057980397
 30
0.0
 10
12.91568868838284
 20
23.34290366628058
 30
0.0
 10
12.91780996655568
 20
23.33048203198045
 30
0.0
 10
12.91802737870438
 20
23.31783216094672
 30
0.0
 10
12.9164132295492
 20
23.30531579929938
 30
0.0
 10
12.9129388686973
 20
23.29329972787242
 30
0.0
 10
12.90778100936096
 20
23.28209655137645
 30
0.0
 10
12.90102324286953
 20
23.27206428231275
 30
0.0
 10
12.89292389715033
 20
23.26343386518157
 30
0.0
 10
12.88366877749394
 20
23.25651542232651
 30
0.0
 10
12.8735680245198
 20
23.25143303137511
 30
0.0
 10
12.8628858526957
 20
23.24841168922473
 30
0.0
 10
12.85194658656708
 20
23.2474521219833
 30
0.0
 10
12.84105818632598
 20
23.24866801973086
 30
0.0
 10
12.8305189374481
 20
23.25193684297762
 30
0.0
 10
12.82064487003986
 20
23.25725023302944
 30
0.0
 10
12.81167539101912
 20
23.26437867335368
 30
0.0
 10
12.80390517887622
 20
23.27319278717171
 30
0.0
 10
12.79748214164446
 20
23.28338062711052
 30
0.0
 10
12.7926898786012
 20
23.29470513588193
 30
0.0
 10
12.78914287279067
 20
23.30781841591592
 30
0.0
 10
12.78865805828734
 20
23.3172934167135
 30
0.0
 10
12.7883885362332
 20
23.32256083685137
 30
0.0
  0
SPLINE
  5
94
330
1F
100
AcDbEntity
  8
0
  6
Continuous
 62
     7
370
    25
100
AcDbSpline
210
0.0
220
0.0
230
1.0
 70
    11
 71
     3
 72
    44
 73
    40
 74
     0
 42
0.00000001
 43
0.00000001
 40
0.0
 40
0.0
 40
0.0
 40
0.0
 40
0.0268407075037041
 40
0.0536814436170725
 40
0.0805218400163044
 40
0.1073622775571871
 40
0.1342090195496382
 40
0.1610557510294832
 40
0.1879066918425142
 40
0.2147575868473567
 40
0.2416016629618195
 40
0.2684457294808751
 40
0.2952825965407881
 40
0.3221195051029311
 40
0.3489600629385159
 40
0.3758006486318451
 40
0.4026500400926236
 40
0.4294994022402261
 40
0.4563489875144762
 40
0.4831985319786827
 40
0.5100393597322478
 40
0.536880198911525
 40
0.5637169903473102
 40
0.5905538275122314
 40
0.6173976012520609
 40
0.6442413836811313
 40
0.6710922612288799
 40
0.6979430968125403
 40
0.724790113157464
 40
0.7516371023785408
 40
0.7784753233244076
 40
0.8053135742610171
 40
0.8321517896325084
 40
0.8589900452760779
 40
0.8858370504679912
 40
0.9126840433798997
 40
0.9395349242133737
 40
0.9663857592584219
 40
1.0
 40
1.0
 40
1.0
 40
1.0
 10
12.917859334099
 20
20.06356083685137
 30
0.0
 10
12.91767513029754
 20
20.05935950756819
 30
0.0
 10
12.91730672249828
 20
20.05095684452361
 30
0.0
 10
12.91443305963242
 20
20.03870342071148
 30
0.0
 10
12.90989567919883
 20
20.02717023479998
 30
0.0
 10
12.90372562148536
 20
20.01664776903688
 30
0.0
 10
12.89608706888205
 20
20.0074832449254
 30
0.0
 10
12.88724578512718
 20
19.99987641098813
 30
0.0
 10
12.87741849612849
 20
19.99411413661205
 30
0.0
 10
12.86692326482103
 20
19.99028298436291
 30
0.0
 10
12.85604223262985
 20
19.98857514573494
 30
0.0
 10
12.84509564524829
 20
19.98895181770499
 30
0.0
 10
12.83439761310304
 20
19.9914889619738
 30
0.0
 10
12.82423118911741
 20
19.99602824109587
 30
0.0
 10
12.81490784196654
 20
20.00252278154779
 30
0.0
 10
12.8066448719242
 20
20.01071438121214
 30
0.0
 10
12.79971957424606
 20
20.02043758071554
 30
0.0
 10
12.79426400427065
 20
20.03136109389878
 30
0.0
 10
12.79049186071998
 20
20.04321800742216
 30
0.0
 10
12.78843646939078
 20
20.05563964172229
 30
0.0
 10
12.78822535966525
 20
20.06828951275602
 30
0.0
 10
12.78978985692866
 20
20.08080587440336
 30
0.0
 10
12.79316009208193
 20
20.09282194583032
 30
0.0
 10
12.79817457076165
 20
20.10402512232629
 30
0.0
 10
12.80476340601474
 20
20.11405739138999
 30
0.0
 10
12.81268841286529
 20
20.12268780852117
 30
0.0
 10
12.82178376399728
 20
20.12960625137623
 30
0.0
 10
12.83175561791505
 20
20.13468864232763
 30
0.0
 10
12.84235723850789
 20
20.13770998447801
 30
0.0
 10
12.85326955837362
 20
20.13866955171945
 30
0.0
 10
12.86419189974588
 20
20.13745365397188
 30
0.0
 10
12.87481789295269
 20
20.13418483072511
 30
0.0
 10
12.88482546060708
 20
20.1288714406733
 30
0.0
 10
12.89395740021031
 20
20.12174300034906
 30
0.0
 10
12.9019021986643
 20
20.11292888653103
 30
0.0
 10
12.90849252901784
 20
20.10274104659222
 30
0.0
 10
12.91342316176161
 20
20.09141653782081
 30
0.0
 10
12.917080559875
 20
20.07830325778682
 30
0.0
 10
12.91758108054429
 20
20.06882825698924
 30
0.0
 10
12.917859334099
 20
20.06356083685137
 30
0.0
  0
LINE
  5
95
330
1F
100
AcDbEntity
  8
0
  6
Continuous
 62
     7
370
    25
100
AcDbLine
 10
16.9251130936
 20
13.4410608369
 30
0.0
 11
11.5151130936
 21
13.4410608369
 31
0.0
  0
LINE
  5
96
330
1F
100
AcDbEntity
  8
0
  6
Continuous
 62
     7
370
    25
100
AcDbLine
 10
10.2901130936
 20
21.6930608369
 30
0.0
 11
10.2901130936
 21
24.1780608369
 31
0.0
  0
LINE
  5
97
330
1F
100
AcDbEntity
  8
0
  6
Continuous
 62
     7
370
    25
100
AcDbLine
 10
10.2901130936
 20
19.2080608369
 30
0.0
 11
10.2901130936
 21
21.6930608369
 31
0.0
  0
LINE
  5
98
330
1F
100
AcDbEntity
  8
0
  6
Continuous
 62
     7
370
    25
100
AcDbLine
 10
10.3401130936
 20
21.6930608369
 30
0.0
 11
10.3401130936
 21
19.2580608369
 31
0.0
  0
LINE
  5
99
330
1F
100
AcDbEntity
  8
0
  6
Continuous
 62
     7
370
    25
100
AcDbLine
 10
10.3401130936
 20
24.1280608369
 30
0.0
 11
10.3401130936
 21
21.6930608369
 31
0.0
  0
LINE
  5
9A
330
1F
100
AcDbEntity
  8
0
  6
Continuous
 62
     7
370
    25
100
AcDbLine
 10
16.9551130936
 20
23.3989608369
 30
0.0
 11
16.9551130936
 21
23.2461608369
 31
0.0
  0
LWPOLYLINE
  5
9B
330
1F
100
AcDbEntity
  8
0
  6
Continuous
 62
     7
370
    25
100
AcDbPolyline
 90
       40
 70
   128
 43
0.0
 10
12.9182291788
 20
20.0537459254
 10
12.9187429576
 20
20.066026896
 10
12.9175440077
 20
20.078243997
 10
12.9146633813
 20
20.0900808119
 10
12.9101756849
 20
20.1012307733
 10
12.9041971477
 20
20.1114051032
 10
12.8968826106
 20
20.1203402917
 10
12.8884215162
 20
20.1278049221
 10
12.8790330025
 20
20.1336056645
 10
12.8689602271
 20
20.1375922827
 10
12.8584640695
 20
20.1396615253
 10
12.8478163746
 20
20.1397598
 10
12.8372929123
 20
20.1378845616
 10
12.8271662347
 20
20.1340843778
 10
12.8176986173
 20
20.1284576713
 10
12.8091352665
 20
20.1211501709
 10
12.8016979686
 20
20.112351137
 10
12.7955793456
 20
20.1022884599
 10
12.7909378669
 20
20.0912227578
 10
12.787893744
 20
20.0794406264
 10
12.7865258184
 20
20.0672472168
 10
12.7868695184
 20
20.0549583319
 10
12.7889159425
 20
20.0428922474
 10
12.7926120894
 20
20.0313614685
 10
12.7978622308
 20
20.0206646363
 10
12.8045303907
 20
20.0110787932
 10
12.8124438674
 20
20.0028522074
 10
12.821397706
 20
19.9961979433
 10
12.8311600067
 20
19.9912883427
 10
12.8414779311
 20
19.9882505617
 10
12.8520842503
 20
19.9871632773
 10
12.8627042664
 20
19.9880546496
 10
12.8730629263
 20
19.9909015925
 10
12.8828919463
 20
19.9956303716
 10
12.8919367599
 20
20.0021185141
 10
12.8999631113
 20
20.0101979805
 10
12.906763122
 20
20.0196595168
 10
12.9121606755
 20
20.0302580743
 10
12.9160159778
 20
20.0417191558
 10
12.9182291788
 20
20.0537459254
  0
LINE
  5
9C
330
1F
100
AcDbEntity
  8
0
  6
Continuous
 62
     7
370
    25
100
AcDbLine
 10
12.8345945458
 20
20.1134975225
 30
0.0
 11
12.8061513054
 21
20.0705106318
 31
0.0
  0
LINE
  5
9D
330
1F
100
AcDbEntity
  8
0
  6
Continuous
 62
     7
370
    25
100
AcDbLine
 10
12.8241698533
 20
20.0205739461
 30
0.0
 11
12.8061513054
 21
20.0705106318
 31
0.0
  0
LINE
  5
9E
330
1F
100
AcDbEntity
  8
0
  6
Continuous
 62
     7
370
    25
100
AcDbLine
 10
12.8706316415
 20
20.0136241512
 30
0.0
 11
12.8241698533
 21
20.0205739461
 31
0.0
  0
LINE
  5
9F
330
1F
100
AcDbEntity
  8
0
  6
Continuous
 62
     7
370
    25
100
AcDbLine
 10
12.8706316415
 20
20.0136241512
 30
0.0
 11
12.8990748818
 21
20.0566110419
 31
0.0
  0
LINE
  5
A0
330
1F
100
AcDbEntity
  8
0
  6
Continuous
 62
     7
370
    25
100
AcDbLine
 10
12.881056334
 20
20.1065477276
 30
0.0
 11
12.8990748818
 21
20.0566110419
 31
0.0
  0
LINE
  5
A1
330
1F
100
AcDbEntity
  8
0
  6
Continuous
 62
     7
370
    25
100
AcDbLine
 10
12.881056334
 20
20.1065477276
 30
0.0
 11
12.8345945458
 21
20.1134975225
 31
0.0
  0
LINE
  5
A2
330
1F
100
AcDbEntity
  8
0
  6
Continuous
 62
     7
370
    25
100
AcDbLine
 10
12.8641698533
 20
20.0205739461
 30
0.0
 11
12.8241698533
 21
20.0205739461
 31
0.0
  0
LINE
  5
A3
330
1F
100
AcDbEntity
  8
0
  6
Continuous
 62
     7
370
    25
100
AcDbLine
 10
12.8742340409
 20
20.0190685361
 30
0.0
 11
12.8641698533
 21
20.0205739461
 31
0.0
  0
LINE
  5
A4
330
1F
100
AcDbEntity
  8
0
  6
Continuous
 62
     7
370
    25
100
AcDbLine
 10
12.8709921463
 20
20.1080531376
 30
0.0
 11
12.8461513054
 21
20.0705106318
 31
0.0
  0
LINE
  5
A5
330
1F
100
AcDbEntity
  8
0
  6
Continuous
 62
     7
370
    25
100
AcDbLine
 10
12.8461513054
 20
20.0705106318
 30
0.0
 11
12.8061513054
 21
20.0705106318
 31
0.0
  0
LINE
  5
A6
330
1F
100
AcDbEntity
  8
0
  6
Continuous
 62
     7
370
    25
100
AcDbLine
 10
12.8641698533
 20
20.0205739461
 30
0.0
 11
12.8461513054
 21
20.0705106318
 31
0.0
  0
LWPOLYLINE
  5
A7
330
1F
100
AcDbEntity
  8
0
  6
Continuous
 62
     7
370
    25
100
AcDbPolyline
 90
       40
 70
   128
 43
0.0
 10
12.9155749141
 20
23.2990795206
 10
12.9180216053
 20
23.3110458261
 10
12.9187742503
 20
23.3233103643
 10
12.9178133562
 20
23.3355554902
 10
12.9151638095
 20
23.3474640614
 10
12.9108942321
 20
23.3587276522
 10
12.9051152039
 20
23.3690545414
 10
12.8979763985
 20
23.3781772681
 10
12.8896627074
 20
23.3858595585
 10
12.8803894508
 20
23.3919024452
 10
12.8703968011
 20
23.3961494206
 10
12.8599435627
 20
23.3984904905
 10
12.8493004691
 20
23.3988650221
 10
12.8387431706
 20
23.3972633155
 10
12.8285450959
 20
23.3937268539
 10
12.8189703697
 20
23.3883472298
 10
12.8102669723
 20
23.3812637727
 10
12.8026603173
 20
23.3726599404
 10
12.7963474129
 20
23.3627585677
 10
12.7914917601
 20
23.3518160948
 10
12.7882191178
 20
23.3401159261
 10
12.7866142455
 20
23.3279610899
 10
12.7867187088
 20
23.3156663899
 10
12.7885298021
 20
23.3035502524
 10
12.7920006189
 20
23.2919264791
 10
12.797041267
 20
23.2810961196
 10
12.8035211962
 20
23.2713396745
 10
12.8112725797
 20
23.2629098306
 10
12.8200946609
 20
23.2560249164
 10
12.8297589524
 20
23.2508632476
 10
12.8400151541
 20
23.2475585087
 10
12.8505976359
 20
23.2461962907
 10
12.8612323169
 20
23.2468118744
 10
12.8716437646
 20
23.2493893163
 10
12.8815623279
 20
23.2538618623
 10
12.8907311213
 20
23.2601136755
 10
12.8989126777
 20
23.2679828375
 10
12.9058950993
 20
23.277265541
 10
12.9114975449
 20
23.2877213688
 10
12.9155749141
 20
23.2990795206
  0
LINE
  5
A8
330
1F
100
AcDbEntity
  8
0
  6
Continuous
 62
     7
370
    25
100
AcDbLine
 10
12.8427920044
 20
23.3754565671
 30
0.0
 11
12.8080307514
 21
23.3391876128
 31
0.0
  0
LINE
  5
A9
330
1F
100
AcDbEntity
  8
0
  6
Continuous
 62
     7
370
    25
100
AcDbLine
 10
12.8178518406
 20
23.2862918825
 30
0.0
 11
12.8080307514
 21
23.3391876128
 31
0.0
  0
LINE
  5
AA
330
1F
100
AcDbEntity
  8
0
  6
Continuous
 62
     7
370
    25
100
AcDbLine
 10
12.8624341828
 20
23.2696651066
 30
0.0
 11
12.8178518406
 21
23.2862918825
 31
0.0
  0
LINE
  5
AB
330
1F
100
AcDbEntity
  8
0
  6
Continuous
 62
     7
370
    25
100
AcDbLine
 10
12.8624341828
 20
23.2696651066
 30
0.0
 11
12.8971954359
 21
23.3059340609
 31
0.0
  0
LINE
  5
AC
330
1F
100
AcDbEntity
  8
0
  6
Continuous
 62
     7
370
    25
100
AcDbLine
 10
12.8873743467
 20
23.3588297912
 30
0.0
 11
12.8971954359
 21
23.3059340609
 31
0.0
  0
LINE
  5
AD
330
1F
100
AcDbEntity
  8
0
  6
Continuous
 62
     7
370
    25
100
AcDbLine
 10
12.8873743467
 20
23.3588297912
 30
0.0
 11
12.8427920044
 21
23.3754565671
 31
0.0
  0
LINE
  5
AE
330
1F
100
AcDbEntity
  8
0
  6
Continuous
 62
     7
370
    25
100
AcDbLine
 10
12.8578518406
 20
23.2862918825
 30
0.0
 11
12.8178518406
 21
23.2862918825
 31
0.0
  0
LINE
  5
AF
330
1F
100
AcDbEntity
  8
0
  6
Continuous
 62
     7
370
    25
100
AcDbLine
 10
12.8729669933
 20
23.2806547571
 30
0.0
 11
12.8578518406
 21
23.2862918825
 31
0.0
  0
LINE
  5
B0
330
1F
100
AcDbEntity
  8
0
  6
Continuous
 62
     7
370
    25
100
AcDbLine
 10
12.872259194
 20
23.3644669166
 30
0.0
 11
12.8480307514
 21
23.3391876128
 31
0.0
  0
LINE
  5
B1
330
1F
100
AcDbEntity
  8
0
  6
Continuous
 62
     7
370
    25
100
AcDbLine
 10
12.8480307514
 20
23.3391876128
 30
0.0
 11
12.8080307514
 21
23.3391876128
 31
0.0
  0
LINE
  5
B2
330
1F
100
AcDbEntity
  8
0
  6
Continuous
 62
     7
370
    25
100
AcDbLine
 10
12.8578518406
 20
23.2862918825
 30
0.0
 11
12.8480307514
 21
23.3391876128
 31
0.0
  0
LINE
  5
B3
330
1F
100
AcDbEntity
  8
0
  6
Continuous
 62
     7
370
    25
100
AcDbLine
 10
16.9551130936
 20
20.1399608369
 30
0.0
 11
16.9551130936
 21
19.9871608369
 31
0.0
  0
LINE
  5
B4
330
1F
100
AcDbEntity
  8
0
  6
Continuous
 62
     7
370
    25
100
AcDbLine
 10
9.7151130936
 20
21.6930608369
 30
0.0
 11
9.7151130936
 21
22.0439342491
 31
0.0
  0
LINE
  5
B5
330
1F
100
AcDbEntity
  8
0
  6
Continuous
 62
     7
370
    25
100
AcDbLine
 10
9.7151130936
 20
21.3421874246
 30
0.0
 11
9.7151130936
 21
21.6930608369
 31
0.0
  0
LINE
  5
B6
330
1F
100
AcDbEntity
  8
0
  6
Continuous
 62
     7
370
    25
100
AcDbLine
 10
9.7463630936
 20
21.6930608369
 30
0.0
 11
9.7463630936
 21
22.0980608369
 31
0.0
  0
LINE
  5
B7
330
1F
100
AcDbEntity
  8
0
  6
Continuous
 62
     7
370
    25
100
AcDbLine
 10
9.7463630936
 20
21.2880608369
 30
0.0
 11
9.7463630936
 21
21.6930608369
 31
0.0
  0
LINE
  5
B8
330
1F
100
AcDbEntity
  8
0
  6
Continuous
 62
     7
370
    25
100
AcDbLine
 10
9.7552916651
 20
21.6930608369
 30
0.0
 11
9.7552916651
 21
22.0980608369
 31
0.0
  0
LINE
  5
B9
330
1F
100
AcDbEntity
  8
0
  6
Continuous
 62
     7
370
    25
100
AcDbLine
 10
9.7552916651
 20
21.2880608369
 30
0.0
 11
9.7552916651
 21
21.6930608369
 31
0.0
  0
LINE
  5
BA
330
1F
100
AcDbEntity
  8
0
  6
Continuous
 62
     7
370
    25
100
AcDbLine
 10
9.7865416651
 20
21.6930608369
 30
0.0
 11
9.7865416651
 21
22.0439342491
 31
0.0
  0
LINE
  5
BB
330
1F
100
AcDbEntity
  8
0
  6
Continuous
 62
     7
370
    25
100
AcDbLine
 10
9.7865416651
 20
21.3421874246
 30
0.0
 11
9.7865416651
 21
21.6930608369
 31
0.0
  0
SPLINE
  5
BC
330
1F
100
AcDbEntity
  8
0
  6
Continuous
 62
     7
370
    25
100
AcDbSpline
210
0.0
220
0.0
230
1.0
 70
     8
 71
     3
 72
    26
 73
    22
 74
     0
 42
0.00000001
 43
0.00000001
 40
0.0
 40
0.0
 40
0.0
 40
0.0
 40
0.0518445558183832
 40
0.103689408919715
 40
0.1570680140485357
 40
0.2104474653472369
 40
0.2622816940217728
 40
0.3141167795995151
 40
0.3674039317148904
 40
0.4206917508885381
 40
0.4734924296991404
 40
0.5262932267676623
 40
0.5805873167690305
 40
0.6348809170973067
 40
0.6883258439459414
 40
0.7417699205320835
 40
0.7968269243558497
 40
0.8518829359495199
 40
0.904293467649332
 40
0.9567035126824003
 40
1.0
 40
1.0
 40
1.0
 40
1.0
 10
11.56687715661521
 20
21.69306083685137
 30
0.0
 10
11.56676897467606
 20
21.67497506716733
 30
0.0
 10
11.56655261017741
 20
21.63880342409325
 30
0.0
 10
11.56482612238474
 20
21.58439753833338
 30
0.0
 10
11.56206970874863
 20
21.53025275390854
 30
0.0
 10
11.55828744498154
 20
21.4773015888148
 30
0.0
 10
11.55366108591058
 20
21.4264110797903
 30
0.0
 10
11.54830806784084
 20
21.37738509966255
 30
0.0
 10
11.5422986494316
 20
21.3301210995109
 30
0.0
 10
11.53581493934023
 20
21.28511928591905
 30
0.0
 10
11.52909071867388
 20
21.24310109112756
 30
0.0
 10
11.5222488546963
 20
21.20390808143825
 30
0.0
 10
11.51545500040237
 20
21.1678016469207
 30
0.0
 10
11.50893581419954
 20
21.13528330836738
 30
0.0
 10
11.50293875363045
 20
21.10688918705172
 30
0.0
 10
11.4975528059141
 20
21.08246393944608
 30
0.0
 10
11.49294037548971
 20
21.06225127842696
 30
0.0
 10
11.48929663012148
 20
21.04672927231409
 30
0.0
 10
11.48678242561097
 20
21.03620040491774
 30
0.0
 10
11.48531669632495
 20
21.03015105812048
 30
0.0
 10
11.48524151575627
 20
21.02983838289785
 30
0.0
 10
11.48520750496873
 20
21.0296969323774
 30
0.0
  0
SPLINE
  5
BD
330
1F
100
AcDbEntity
  8
0
  6
Continuous
 62
     7
370
    25
100
AcDbSpline
210
0.0
220
0.0
230
1.0
 70
     8
 71
     3
 72
    27
 73
    23
 74
     0
 42
0.00000001
 43
0.00000001
 40
0.0
 40
0.0
 40
0.0
 40
0.0
 40
0.0293576025460283
 40
0.0810036125836841
 40
0.1341658362070435
 40
0.1873287374948564
 40
0.238765954004893
 40
0.2902039577336709
 40
0.3430708127569373
 40
0.395938403555917
 40
0.448550660195308
 40
0.5011632096741565
 40
0.5552524675517223
 40
0.6093414254210782
 40
0.6628050041566734
 40
0.7162677877867152
 40
0.7713322768596478
 40
0.8263956639217795
 40
0.86936750645053
 40
0.9123390329203153
 40
0.9561695812833236
 40
1.0
 40
1.0
 40
1.0
 40
1.0
 10
11.48524481924566
 20
22.35626929875171
 30
0.0
 10
11.48522763140448
 20
22.35634121594661
 30
0.0
 10
11.48518020664538
 20
22.35653965015405
 30
0.0
 10
11.486288531766
 20
22.35195896025449
 30
0.0
 10
11.48848620621145
 20
22.34280999628552
 30
0.0
 10
11.49174440893358
 20
22.32899383843089
 30
0.0
 10
11.49586829428034
 20
22.31110292287363
 30
0.0
 10
11.50076259872587
 20
22.2892032630869
 30
0.0
 10
11.50637885629922
 20
22.26310406763359
 30
0.0
 10
11.51256525098385
 20
22.23295099188543
 30
0.0
 10
11.51911106779236
 20
22.1991764259632
 30
0.0
 10
11.52589836162712
 20
22.16171041420001
 30
0.0
 10
11.53276212052121
 20
22.12059966629445
 30
0.0
 10
11.53948189476505
 20
22.07621892032698
 30
0.0
 10
11.54580185895389
 20
22.0292517438862
 30
0.0
 10
11.55161400894938
 20
21.97957702945713
 30
0.0
 10
11.55673890267704
 20
21.92724365853738
 30
0.0
 10
11.56069102614087
 20
21.8765821723451
 30
0.0
 10
11.56352633985954
 20
21.82885279327553
 30
0.0
 10
11.56542854993758
 20
21.78426647130999
 30
0.0
 10
11.56664612356088
 20
21.73892847971475
 30
0.0
 10
11.56680014567303
 20
21.70835003606448
 30
0.0
 10
11.56687715661521
 20
21.69306083685137
 30
0.0
  0
LINE
  5
BE
330
1F
100
AcDbEntity
  8
0
  6
Continuous
 62
     7
370
    25
100
AcDbLine
 10
11.4851130936
 20
23.1350608369
 30
0.0
 11
16.9551130936
 21
23.1350608369
 31
0.0
  0
LINE
  5
BF
330
1F
100
AcDbEntity
  8
0
  6
Continuous
 62
     7
370
    25
100
AcDbLine
 10
16.9551130936
 20
20.2510608369
 30
0.0
 11
11.4851130936
 21
20.2510608369
 31
0.0
  0
LINE
  5
C0
330
1F
100
AcDbEntity
  8
0
  6
Continuous
 62
     7
370
    25
100
AcDbLine
 10
9.8451130936
 20
24.1930608369
 30
0.0
 11
9.8451130936
 21
19.1930608369
 31
0.0
  0
LINE
  5
C1
330
1F
100
AcDbEntity
  8
0
  6
Continuous
 62
     7
370
    25
100
AcDbLine
 10
9.9651130936
 20
24.1930608369
 30
0.0
 11
9.9651130936
 21
19.1930608369
 31
0.0
  0
LINE
  5
C2
330
1F
100
AcDbEntity
  8
0
  6
Continuous
 62
     7
370
    25
100
AcDbLine
 10
9.8151130936
 20
19.2230608369
 30
0.0
 11
9.8151130936
 21
24.1630608369
 31
0.0
  0
LINE
  5
C3
330
1F
100
AcDbEntity
  8
0
  6
Continuous
 62
     7
370
    25
100
AcDbLine
 10
16.9551130936
 20
29.9150608369
 30
0.0
 11
11.4851130936
 21
29.9150608369
 31
0.0
  0
LINE
  5
C4
330
1F
100
AcDbEntity
  8
0
  6
Continuous
 62
     7
370
    25
100
AcDbLine
 10
11.4851130936
 20
23.1650608369
 30
0.0
 11
16.9551130936
 21
23.1650608369
 31
0.0
  0
LINE
  5
C5
330
1F
100
AcDbEntity
  8
0
  6
Continuous
 62
     7
370
    25
100
AcDbLine
 10
14.2201130936
 20
20.2210608369
 30
0.0
 11
11.4851130936
 21
20.2210608369
 31
0.0
  0
LINE
  5
C6
330
1F
100
AcDbEntity
  8
0
  6
Continuous
 62
     7
370
    25
100
AcDbLine
 10
16.9551130936
 20
20.2210608369
 30
0.0
 11
14.2201130936
 21
20.2210608369
 31
0.0
  0
LINE
  5
C7
330
1F
100
AcDbEntity
  8
0
  6
Continuous
 62
     7
370
    25
100
AcDbLine
 10
11.4851130936
 20
13.4710608369
 30
0.0
 11
16.9551130936
 21
13.4710608369
 31
0.0
  0
LINE
  5
C8
330
1F
100
AcDbEntity
  8
0
  6
Continuous
 62
     7
370
    25
100
AcDbLine
 10
11.5601130936
 20
21.5052956609
 30
0.0
 11
11.5601130936
 21
21.8818151036
 31
0.0
  0
LINE
  5
C9
330
1F
100
AcDbEntity
  8
0
  6
Continuous
 62
     7
370
    25
100
AcDbLine
 10
10.3501130936
 20
22.3480608369
 30
0.0
 11
10.3501130936
 21
21.0380608369
 31
0.0
  0
DIMENSION
  5
CA
330
1F
100
AcDbEntity
  8
0
  6
Continuous
 62
     7
370
    18
100
AcDbDimension
  2
_D
 10
10.3401130936
 20
24.9709605906
 30
0.0
 11
7.1954280543
 21
24.9709605906
 31
0.0
 70
   160
  1
<>
 71
     2
 42
-1.0
  3
SLDDIMSTYLE0
100
AcDbAlignedDimension
 13
9.8151130936
 23
24.1630608369
 33
0.0
 14
10.3401130936
 24
24.1280608369
 34
0.0
100
AcDbRotatedDimension
  0
DIMENSION
  5
E0
330
1F
100
AcDbEntity
  8
0
  6
Continuous
 62
     7
370
    18
100
AcDbDimension
  2
_D_1
 10
9.7151130936
 20
18.0986610304
 30
0.0
 11
7.1954280543
 21
18.0986610304
 31
0.0
 70
   160
  1
<>
 71
     2
 42
-1.0
  3
SLDDIMSTYLE0
100
AcDbAlignedDimension
 13
9.8151130936
 23
19.2230608369
 33
0.0
 14
9.7151130936
 24
21.3421874246
 34
0.0
100
AcDbRotatedDimension
  0
DIMENSION
  5
F4
330
1F
100
AcDbEntity
  8
0
  6
Continuous
 62
     7
370
    18
100
AcDbDimension
  2
_D_2
 10
16.9551130936
 20
32.4647458762
 30
0.0
 11
13.3851130936
 21
32.4647458762
 31
0.0
 70
   160
  1
<>
 71
     2
 42
-1.0
  3
SLDDIMSTYLE1
100
AcDbAlignedDimension
 13
9.8151130936
 23
24.1630608369
 33
0.0
 14
16.9551130936
 24
23.1350608369
 34
0.0
100
AcDbRotatedDimension
  0
DIMENSION
  5
109
330
1F
100
AcDbEntity
  8
0
  6
Continuous
 62
     7
370
    18
100
AcDbDimension
  2
_D_3
 10
16.9551130936
 20
11.8662576872
 30
0.0
 11
14.2201130936
 21
11.8662576872
 31
0.0
 70
   160
  1
%%c<>
 71
     2
 42
-1.0
  3
SLDDIMSTYLE1
100
AcDbAlignedDimension
 13
11.4851130936
 23
20.2510608369
 33
0.0
 14
16.9551130936
 24
20.2510608369
 34
0.0
100
AcDbRotatedDimension
  0
DIMENSION
  5
11C
330
1F
100
AcDbEntity
  8
0
  6
Continuous
 62
     7
370
    18
100
AcDbDimension
  2
_D_4
 10
18.6981355003
 20
20.2510608369
 30
0.0
 11
18.6981355003
 21
21.6930608369
 31
0.0
 70
   160
  1
<>
 71
     2
 42
-1.0
  3
SLDDIMSTYLE0
100
AcDbAlignedDimension
 13
16.9551130936
 23
23.1350608369
 33
0.0
 14
16.9551130936
 24
20.2510608369
 34
0.0
 50
90.0
100
AcDbRotatedDimension
  0
SPLINE
  5
130
330
1F
100
AcDbEntity
  8
0
  6
Continuous
 62
     7
370
    25
100
AcDbSpline
210
0.0
220
0.0
230
1.0
 70
     8
 71
     3
 72
    31
 73
    27
 74
     0
 42
0.00000001
 43
0.00000001
 40
0.0
 40
0.0
 40
0.0
 40
0.0
 40
0.0247748444952701
 40
0.0674503715995723
 40
0.1101465872238904
 40
0.1528701411152112
 40
0.1956263983191121
 40
0.238419283745684
 40
0.2812512340139106
 40
0.324123248357657
 40
0.367035021286732
 40
0.4099851340813371
 40
0.4529712803219395
 40
0.4959905021024313
 40
0.5390394174499055
 40
0.5821144246823836
 40
0.6252118749330682
 40
0.6683282090519159
 40
0.7114600590707916
 40
0.7546043172012978
 40
0.7977581769746814
 40
0.8409191518204291
 40
0.8840850763681886
 40
0.9272540952936654
 40
0.9704246438249267
 40
0.9999999999999999
 40
0.9999999999999999
 40
0.9999999999999999
 40
0.9999999999999999
 10
36.70552813622729
 20
28.68868652702749
 30
0.0
 10
36.70444105397021
 20
28.698203842446
 30
0.0
 10
36.70148143490123
 20
28.72411506306864
 30
0.0
 10
36.69376009248678
 20
28.76627338751981
 30
0.0
 10
36.68263700497635
 20
28.81511957703063
 30
0.0
 10
36.66881340541862
 20
28.86373695296712
 30
0.0
 10
36.65245053944753
 20
28.91208809779918
 30
0.0
 10
36.63352089190019
 20
28.96012610336319
 30
0.0
 10
36.61205060424485
 20
29.00780589606195
 30
0.0
 10
36.58805474521711
 20
29.05508128849264
 30
0.0
 10
36.56155491552939
 20
29.10190594975622
 30
0.0
 10
36.53257468676523
 20
29.14823338936422
 30
0.0
 10
36.50114090298018
 20
29.1940172422946
 30
0.0
 10
36.46728332756461
 20
29.23921148208279
 30
0.0
 10
36.43103466431234
 20
29.2837706392081
 30
0.0
 10
36.39243042216358
 20
29.32764998575218
 30
0.0
 10
36.35150879257692
 20
29.370805692043
 30
0.0
 10
36.30831047873175
 20
29.41319493063398
 30
0.0
 10
36.26287862857948
 20
29.4547760085108
 30
0.0
 10
36.2152583887024
 20
29.49550823882361
 30
0.0
 10
36.16549790749839
 20
29.5353526517975
 30
0.0
 10
36.11364398511007
 20
29.57426946670203
 30
0.0
 10
36.05975777378628
 20
29.61222757658579
 30
0.0
 10
36.0038557040968
 20
29.64916914042261
 30
0.0
 10
35.95218940095192
 20
29.68136546394748
 30
0.0
 10
35.9186864742373
 20
29.70095152570304
 30
0.0
 10
35.90506562513943
 20
29.70891437604941
 30
0.0
  0
SPLINE
  5
131
330
1F
100
AcDbEntity
  8
0
  6
Continuous
 62
     7
370
    25
100
AcDbSpline
210
0.0
220
0.0
230
1.0
 70
     8
 71
     3
 72
    82
 73
    78
 74
     0
 42
0.00000001
 43
0.00000001
 40
0.0
 40
0.0
 40
0.0
 40
0.0
 40
0.0071312299088977
 40
0.0206673996927292
 40
0.0342030148105396
 40
0.0477378046150247
 40
0.0612716354506092
 40
0.0748044127890587
 40
0.0883360751175754
 40
0.1018665885701148
 40
0.1153959422638105
 40
0.1289241442884316
 40
0.142451218287605
 40
0.1559772005675887
 40
0.1695021376700163
 40
0.1830260843485427
 40
0.1965491018938738
 40
0.2100712567571136
 40
0.2235926194267259
 40
0.2371132635200512
 40
0.2506332650549492
 40
0.2641527018719721
 40
0.2776716531812952
 40
0.2911901992122947
 40
0.3047084209465179
 40
0.3182263999173777
 40
0.3317442180619442
 40
0.3452619576118773
 40
0.3587797010117217
 40
0.3722975113867542
 40
0.385815463376834
 40
0.3993336397229782
 40
0.4128521231427691
 40
0.4263709962370871
 40
0.4398903413648556
 40
0.4534102404728256
 40
0.4669307748665644
 40
0.4804520249070045
 40
0.4939740696145267
 40
0.5074969861598435
 40
0.5210208492176237
 40
0.534545730154927
 40
0.5480716960223199
 40
0.5615988083104058
 40
0.5751271214294013
 40
0.5886566808636793
 40
0.6021875209473094
 40
0.6157196622013668
 40
0.6292531081691802
 40
0.6427878416827277
 40
0.6563238204937878
 40
0.6698609722079965
 40
0.68339918847196
 40
0.6969383183851604
 40
0.7104781611439173
 40
0.7240184579783303
 40
0.7375588166285761
 40
0.7510987521036973
 40
0.7646377493819276
 40
0.7781751983299883
 40
0.7917103875273636
 40
0.8052425009278255
 40
0.8187706187165549
 40
0.8322937239558741
 40
0.8458107167528371
 40
0.8593204376652106
 40
0.8728217018042483
 40
0.8863133445093089
 40
0.8997942784997116
 40
0.9132635610446612
 40
0.9267204680080032
 40
0.9401645698041647
 40
0.9535958026362813
 40
0.9670145272427504
 40
0.9804215671230537
 40
0.9938182191220295
 40
1.0
 40
1.0
 40
1.0
 40
1.0
 10
35.90506562513943
 20
29.70891437604941
 30
0.0
 10
35.89447494218433
 20
29.71496824411539
 30
0.0
 10
35.86378151616271
 20
29.73251328369551
 30
0.0
 10
35.81159913543965
 20
29.76070714570165
 30
0.0
 10
35.74799362885969
 20
29.79309830402991
 30
0.0
 10
35.68267957697889
 20
29.8243077934008
 30
0.0
 10
35.61575190162979
 20
29.85432550505875
 30
0.0
 10
35.54726627390784
 20
29.88311902195867
 30
0.0
 10
35.4772905660112
 20
29.91066337897909
 30
0.0
 10
35.40589104440733
 20
29.93693308327725
 30
0.0
 10
35.33313600687412
 20
29.9619042681752
 30
0.0
 10
35.25909474348815
 20
29.98555413422097
 30
0.0
 10
35.18383774767187
 20
30.00786111860334
 30
0.0
 10
35.10743658950589
 20
30.02880487042724
 30
0.0
 10
35.02996387670486
 20
30.04836627851052
 30
0.0
 10
34.95149318936047
 20
30.06652748518771
 30
0.0
 10
34.87209901908942
 20
30.08327190356761
 30
0.0
 10
34.79185670453489
 20
30.09858423325106
 30
0.0
 10
34.71084236555662
 20
30.11245047557598
 30
0.0
 10
34.62913283567476
 20
30.12485794787638
 30
0.0
 10
34.54680559308071
 20
30.13579529670334
 30
0.0
 10
34.46393869033013
 20
30.14525250986496
 30
0.0
 10
34.38061068288462
 20
30.15322092719478
 30
0.0
 10
34.2969005566524
 20
30.15969324996771
 30
0.0
 10
34.21288765467872
 20
30.16466354890016
 30
0.0
 10
34.12865160313253
 20
30.1681272706834
 30
0.0
 10
34.04427223673229
 20
30.17008124301036
 30
0.0
 10
33.95982952375439
 20
30.17052367806547
 30
0.0
 10
33.87540353127957
 20
30.16945417496863
 30
0.0
 10
33.79107432578167
 20
30.16687372339512
 30
0.0
 10
33.70692188019706
 20
30.16278470316536
 30
0.0
 10
33.62302595787381
 20
30.15719087761508
 30
0.0
 10
33.53946606136601
 20
30.15009738781609
 30
0.0
 10
33.45632137450189
 20
30.14151074708718
 30
0.0
 10
33.3736706882309
 20
30.13143883343782
 30
0.0
 10
33.29159232713624
 20
30.11989088048156
 30
0.0
 10
33.21016407676048
 20
30.10687746685348
 30
0.0
 10
33.12946311189479
 20
30.09241050417651
 30
0.0
 10
33.0495659259864
 20
30.07650322363466
 30
0.0
 10
32.97054826182428
 20
30.05917016122658
 30
0.0
 10
32.89248504366721
 20
30.04042714179088
 30
0.0
 10
32.81545031098216
 20
30.02029126191734
 30
0.0
 10
32.73951715396441
 20
29.99878087188398
 30
0.0
 10
32.66475765100983
 20
29.97591555679131
 30
0.0
 10
32.59124280830767
 20
29.95171611710193
 30
0.0
 10
32.51904250171295
 20
29.92620454883618
 30
0.0
 10
32.44822542104192
 20
29.89940402372398
 30
0.0
 10
32.37885901690782
 20
29.87133886966839
 30
0.0
 10
32.31100945017447
 20
29.84203455193752
 30
0.0
 10
32.24474154404675
 20
29.81151765556709
 30
0.0
 10
32.18011873873708
 20
29.77981586952259
 30
0.0
 10
32.11720304853603
 20
29.74695797323339
 30
0.0
 10
32.05605502097175
 20
29.7129738261641
 30
0.0
 10
31.99673369755444
 20
29.67789436111892
 30
0.0
 10
31.93929657537672
 20
29.64175158197386
 30
0.0
 10
31.88379965992706
 20
29.6045786276703
 30
0.0
 10
31.83029742961731
 20
29.56640980573434
 30
0.0
 10
31.7788426991211
 20
29.52728056413845
 30
0.0
 10
31.72948648699358
 20
29.48722744722069
 30
0.0
 10
31.68227795109611
 20
29.44628809839129
 30
0.0
 10
31.63726439223841
 20
29.40450133934948
 30
0.0
 10
31.59449116878487
 20
29.36190719468857
 30
0.0
 10
31.55400159534224
 20
29.31854691146971
 30
0.0
 10
31.51583682385332
 20
29.27446296836261
 30
0.0
 10
31.48003570797779
 20
29.22969906769259
 30
0.0
 10
31.44663464931164
 20
29.18430010306301
 30
0.0
 10
31.41566744306868
 20
29.13831209430652
 30
0.0
 10
31.38716508301112
 20
29.09178208496133
 30
0.0
 10
31.36115571626608
 20
29.04475798977349
 30
0.0
 10
31.33766409336252
 20
28.9972884200934
 30
0.0
 10
31.31671302204963
 20
28.94942238346184
 30
0.0
 10
31.29831754987633
 20
28.90120926952273
 30
0.0
 10
31.28250651258215
 20
28.85269764153271
 30
0.0
 10
31.2692424168957
 20
28.80393843656827
 30
0.0
 10
31.25872057200493
 20
28.75497180043908
 30
0.0
 10
31.25177282491365
 20
28.71467797158026
 30
0.0
 10
31.24930152929842
 20
28.69068101937985
 30
0.0
 10
31.24852123150471
 20
28.68310411569331
 30
0.0
  0
LINE
  5
132
330
1F
100
AcDbEntity
  8
0
  6
Continuous
 62
     7
370
    25
100
AcDbLine
 10
36.712343001
 20
23.0670904587
 30
0.0
 11
36.712343001
 21
28.5787409389
 31
0.0
  0
LINE
  5
133
330
1F
100
AcDbEntity
  8
0
  6
Continuous
 62
     7
370
    25
100
AcDbLine
 10
31.242343001
 20
28.5787409389
 30
0.0
 11
31.242343001
 21
23.0670904587
 31
0.0
  0
SPLINE
  5
134
330
1F
100
AcDbEntity
  8
0
  6
Continuous
 62
     7
370
    25
100
AcDbSpline
210
0.0
220
0.0
230
1.0
 70
     8
 71
     3
 72
   104
 73
   100
 74
     0
 42
0.00000001
 43
0.00000001
 40
0.0
 40
0.0
 40
0.0
 40
0.0
 40
0.0062675023134969
 40
0.0168165859495654
 40
0.0273587899681268
 40
0.0378922502285577
 40
0.0484155977842503
 40
0.0589279817181143
 40
0.0694290465533889
 40
0.0799188752409586
 40
0.0903979108604251
 40
0.1008668695528333
 40
0.1113266548128313
 40
0.1217782801482492
 40
0.132222804069118
 40
0.1426612788653584
 40
0.1530947128451899
 40
0.1635240446084952
 40
0.1739501273911027
 40
0.1843737213782409
 40
0.1947954920005358
 40
0.2052160124775194
 40
0.215635769178651
 40
0.2260551686785635
 40
0.2364745002661569
 40
0.2468939962628138
 40
0.2573138897054364
 40
0.2677343628979575
 40
0.2781555545372754
 40
0.2885775661821394
 40
0.2990004680192243
 40
0.3094243039322401
 40
0.3198490959075361
 40
0.3302748478257884
 40
0.3407015486975012
 40
0.3511291754029037
 40
0.3615576949956679
 40
0.371987066626901
 40
0.3824172431413039
 40
0.3928481723923666
 40
0.4032797983183939
 40
0.4137120618159917
 40
0.4241449014430901
 40
0.4345782539792313
 40
0.4450120548670553
 40
0.4554462385556811
 40
0.4658807387636709
 40
0.4763154886770127
 40
0.4867504210954267
 40
0.4971854685387326
 40
0.5076205633236868
 40
0.5180556306657824
 40
0.5284905869763789
 40
0.5389253642860593
 40
0.5493598946364012
 40
0.5597941101478837
 40
0.5702279431155264
 40
0.580661326141023
 40
0.591094192312812
 40
0.6015264754468668
 40
0.6119581104031346
 40
0.6223890334946067
 40
0.6328191830090106
 40
0.6432484998661494
 40
0.6536769284376861
 40
0.6641044175603452
 40
0.6745309217781726
 40
0.6849564028544103
 40
0.6953808315989485
 40
0.7058041900624074
 40
0.7162264741528088
 40
0.7266476967346891
 40
0.737067891272296
 40
0.7474871160776214
 40
0.7579054592178888
 40
0.7683230441242366
 40
0.778740035920245
 40
0.7891566484518373
 40
0.7995731356896868
 40
0.8099897302237459
 40
0.8204068147218654
 40
0.8308248502118787
 40
0.8412443837512359
 40
0.8516660547604193
 40
0.8620905990041707
 40
0.8725188489111583
 40
0.8829517286178761
 40
0.893390241850437
 40
0.9038354505869354
 40
0.9142884424734622
 40
0.9247502853282832
 40
0.9352219679105717
 40
0.9457043275897488
 40
0.9561979677005865
 40
0.9667031701324882
 40
0.9772198117649282
 40
0.9877472961063819
 40
0.9982845130202355
 40
0.9999999999999999
 40
0.9999999999999999
 40
0.9999999999999999
 40
0.9999999999999999
 10
36.59148045479802
 20
28.48149965627823
 30
0.0
 10
36.59045033247772
 20
28.47217957804255
 30
0.0
 10
36.58768637010942
 20
28.44717250363436
 30
0.0
 10
36.58028500222579
 20
28.40659577156665
 30
0.0
 10
36.56956882145787
 20
28.3598228751826
 30
0.0
 10
36.55616233268625
 20
28.31327724169303
 30
0.0
 10
36.54022888135084
 20
28.26700194473394
 30
0.0
 10
36.52174827237648
 20
28.22104449190757
 30
0.0
 10
36.50075234323894
 20
28.1754493889836
 30
0.0
 10
36.47726155082459
 20
28.1302602848406
 30
0.0
 10
36.4513016748047
 20
28.0855196451219
 30
0.0
 10
36.42289920552803
 20
28.04126912487888
 30
0.0
 10
36.39208253980041
 20
27.99754974610955
 30
0.0
 10
36.35888170425224
 20
27.95440208689006
 30
0.0
 10
36.32332852629707
 20
27.911866408486
 30
0.0
 10
36.28545671278912
 20
27.86998273401631
 30
0.0
 10
36.2453019591354
 20
27.82879087784465
 30
0.0
 10
36.20290204000597
 20
27.7883304342376
 30
0.0
 10
36.15829688433403
 20
27.7486407339296
 30
0.0
 10
36.1115286283124
 20
27.70976077768208
 30
0.0
 10
36.06264164620399
 20
27.67172915492518
 30
0.0
 10
36.01168255973107
 20
27.63458395424201
 30
0.0
 10
35.9587002281712
 20
27.59836267096869
 30
0.0
 10
35.90374580155441
 20
27.56310216697465
 30
0.0
 10
35.84687268318032
 20
27.52883856751271
 30
0.0
 10
35.78813638317234
 20
27.4956071109287
 30
0.0
 10
35.7275943631049
 20
27.46344203280741
 30
0.0
 10
35.66530596755159
 20
27.43237651630673
 30
0.0
 10
35.60133246069532
 20
27.40244269251163
 30
0.0
 10
35.53573695113612
 20
27.37367158216433
 30
0.0
 10
35.46858431365613
 20
27.34609304323845
 30
0.0
 10
35.39994110887971
 20
27.31973572392362
 30
0.0
 10
35.32987550151624
 20
27.29462702052928
 30
0.0
 10
35.25845717769249
 20
27.27079303981639
 30
0.0
 10
35.18575726173493
 20
27.24825856528796
 30
0.0
 10
35.11184823265019
 20
27.22704702700862
 30
0.0
 10
35.03680384046707
 20
27.20718047456846
 30
0.0
 10
34.96069902254124
 20
27.18867955285521
 30
0.0
 10
34.88360981987996
 20
27.17156348034548
 30
0.0
 10
34.80561329351335
 20
27.15585002966995
 30
0.0
 10
34.7267874409199
 20
27.14155551024724
 30
0.0
 10
34.64721111250184
 20
27.12869475281623
 30
0.0
 10
34.56696392810044
 20
27.11728109572738
 30
0.0
 10
34.48612619353945
 20
27.10732637287908
 30
0.0
 10
34.4047788171861
 20
27.09884090320764
 30
0.0
 10
34.32300322652158
 20
27.0918334816571
 30
0.0
 10
34.24088128471656
 20
27.08631137157031
 30
0.0
 10
34.15849520721168
 20
27.08228029845504
 30
0.0
 10
34.07592747830636
 20
27.07974444508871
 30
0.0
 10
33.99326076776392
 20
27.07870644793327
 30
0.0
 10
33.91057786581064
 20
27.07916739473619
 30
0.0
 10
33.82796162269865
 20
27.08112682113009
 30
0.0
 10
33.74549482348372
 20
27.08458270848723
 30
0.0
 10
33.66326008579279
 20
27.08953148705308
 30
0.0
 10
33.58133975385863
 20
27.09596804298196
 30
0.0
 10
33.49981585677547
 20
27.10388572139496
 30
0.0
 10
33.41877002552314
 20
27.11327633167948
 30
0.0
 10
33.33828341008101
 20
27.12413015406342
 30
0.0
 10
33.2584365966415
 20
27.13643594748379
 30
0.0
 10
33.17930952492033
 20
27.15018095877728
 30
0.0
 10
33.10098140555645
 20
27.16535093323126
 30
0.0
 10
33.02353063758819
 20
27.18193012654571
 30
0.0
 10
32.94703472598668
 20
27.19990131827328
 30
0.0
 10
32.87157019922209
 20
27.2192458268235
 30
0.0
 10
32.79721252683419
 20
27.23994352614168
 30
0.0
 10
32.72403603697666
 20
27.26197286420144
 30
0.0
 10
32.6521138339063
 20
27.28531088348475
 30
0.0
 10
32.58151771539416
 20
27.30993324366404
 30
0.0
 10
32.51231809004977
 20
27.33581424674866
 30
0.0
 10
32.44458389457252
 20
27.36292686501235
 30
0.0
 10
32.37838251098107
 20
27.39124277207966
 30
0.0
 10
32.31377968392541
 20
27.42073237761578
 30
0.0
 10
32.25083943826234
 20
27.45136486613411
 30
0.0
 10
32.18962399717947
 20
27.48310824050496
 30
0.0
 10
32.13019370129108
 20
27.51592937081185
 30
0.0
 10
32.07260692930917
 20
27.54979404924683
 30
0.0
 10
32.01692002111782
 20
27.58466705175552
 30
0.0
 10
31.96318723231172
 20
27.62051218846078
 30
0.0
 10
31.91146080215616
 20
27.65729227697555
 30
0.0
 10
31.86179073186932
 20
27.69496930505121
 30
0.0
 10
31.81422470101584
 20
27.73350454022301
 30
0.0
 10
31.76880790752718
 20
27.77285874049003
 30
0.0
 10
31.72558316860335
 20
27.8129921700694
 30
0.0
 10
31.68459090637799
 20
27.85386471503247
 30
0.0
 10
31.64586915420296
 20
27.89543600152565
 30
0.0
 10
31.60945358635943
 20
27.93766551175437
 30
0.0
 10
31.57537757513963
 20
27.98051269110002
 30
0.0
 10
31.54367227072285
 20
28.02393703755369
 30
0.0
 10
31.51436672329565
 20
28.0678981634505
 30
0.0
 10
31.48748796483155
 20
28.11235581564895
 30
0.0
 10
31.46306133190124
 20
28.15726984952562
 30
0.0
 10
31.44110992905491
 20
28.2026001187755
 30
0.0
 10
31.42165727151106
 20
28.24830637863433
 30
0.0
 10
31.40471791396506
 20
28.29434781740895
 30
0.0
 10
31.39033274130688
 20
28.34068367526173
 30
0.0
 10
31.37843694481714
 20
28.38726957035955
 30
0.0
 10
31.36935295827029
 20
28.43406977946857
 30
0.0
 10
31.36401575746478
 20
28.46789787069542
 30
0.0
 10
31.36249139295999
 20
28.48613051579757
 30
0.0
 10
31.36227796843891
 20
28.48868324746815
 30
0.0
  0
SPLINE
  5
135
330
1F
100
AcDbEntity
  8
0
  6
Continuous
 62
     7
370
    25
100
AcDbSpline
210
0.0
220
0.0
230
1.0
 70
     8
 71
     3
 72
    82
 73
    78
 74
     0
 42
0.00000001
 43
0.00000001
 40
0.0
 40
0.0
 40
0.0
 40
0.0
 40
0.0045616212107346
 40
0.0179399394240303
 40
0.0313239068341711
 40
0.0447157354314108
 40
0.0581172602023426
 40
0.0715298783011501
 40
0.0849545219218946
 40
0.0983916635385017
 40
0.1118413490017071
 40
0.1253032518063253
 40
0.1387767408353311
 40
0.152260953990676
 40
0.1657548710988208
 40
0.1792573810009997
 40
0.192767339463144
 40
0.206283616183645
 40
0.2198051305490277
 40
0.2333308767968631
 40
0.2468599398833657
 40
0.2603915036683063
 40
0.2739248530955004
 40
0.2874593719448956
 40
0.3009945375316769
 40
0.3145298742547393
 40
0.3280649593512562
 40
0.3415995253691146
 40
0.3551333629915152
 40
0.3686663131213996
 40
0.382198259618044
 40
0.3957291227610548
 40
0.4092588534610965
 40
0.4227874281982657
 40
0.4363148446448666
 40
0.4498411179156809
 40
0.463366277382662
 40
0.4768903639896942
 40
0.490413428005137
 40
0.5039355271538772
 40
0.5174567250756998
 40
0.5309770900621905
 40
0.5444966940299142
 40
0.5580156116928273
 40
0.5715339199016453
 40
0.585051697122277
 40
0.5985690230291426
 40
0.6120859781925786
 40
0.6256026438422352
 40
0.6391191016907118
 40
0.6526354338035905
 40
0.6661517225034227
 40
0.6796680465999745
 40
0.6931844649042146
 40
0.7067010601277978
 40
0.7202179150029875
 40
0.7337351122016801
 40
0.7472527342302905
 40
0.7607708632869058
 40
0.7742895810677742
 40
0.7878089685085874
 40
0.8013291054439271
 40
0.8148500701658044
 40
0.8283719388591314
 40
0.8418947848885664
 40
0.855418677907022
 40
0.868943682751543
 40
0.882469858087321
 40
0.8959972547548561
 40
0.9095259137698295
 40
0.9230558639193428
 40
0.936587118893217
 40
0.9501196738849758
 40
0.963653501595433
 40
0.9771885475737802
 40
0.9907247248384372
 40
1.0
 40
1.0
 40
1.0
 40
1.0
 10
31.24844585143358
 20
22.96311755777528
 30
0.0
 10
31.24899128822151
 20
22.95752473803941
 30
0.0
 10
31.25113638148619
 20
22.93552930206702
 30
0.0
 10
31.25754860401835
 20
22.89724744602194
 30
0.0
 10
31.26768899703454
 20
22.8483299275275
 30
0.0
 10
31.28059401046724
 20
22.79962721334254
 30
0.0
 10
31.29602610145746
 20
22.75117409446678
 30
0.0
 10
31.31403425874811
 20
22.70301792483707
 30
0.0
 10
31.33458771030039
 20
22.65520340663957
 30
0.0
 10
31.35767386061736
 20
22.60777661883089
 30
0.0
 10
31.38327175475067
 20
22.56078378701037
 30
0.0
 10
31.41135900622707
 20
22.51427138946229
 30
0.0
 10
31.44190982971418
 20
22.46828585784311
 30
0.0
 10
31.47489554416949
 20
22.42287336811066
 30
0.0
 10
31.51028448820479
 20
22.3780796138165
 30
0.0
 10
31.54804215345348
 20
22.33394961002791
 30
0.0
 10
31.58813130210996
 20
22.29052752739332
 30
0.0
 10
31.63051211378169
 20
22.24785656227605
 30
0.0
 10
31.67514233407361
 20
22.20597884156833
 30
0.0
 10
31.72197742013777
 20
22.16493535869218
 30
0.0
 10
31.77097067598759
 20
22.12476593539006
 30
0.0
 10
31.82207337450157
 20
22.08550920335457
 30
0.0
 10
31.87523486483742
 20
22.04720259990347
 30
0.0
 10
31.93040266567567
 20
22.00988237258362
 30
0.0
 10
31.98752249054508
 20
21.97358362357165
 30
0.0
 10
32.04653827084626
 20
21.93834033681883
 30
0.0
 10
32.1073923304595
 20
21.90418530599309
 30
0.0
 10
32.17002550655098
 20
21.87115011650865
 30
0.0
 10
32.23437725199881
 20
21.83926514216651
 30
0.0
 10
32.30038555262326
 20
21.80855962233508
 30
0.0
 10
32.36798697264956
 20
21.77906165850374
 30
0.0
 10
32.4371167004316
 20
21.75079820755665
 30
0.0
 10
32.50770859518186
 20
21.72379507220616
 30
0.0
 10
32.57969523524619
 20
21.69807688907081
 30
0.0
 10
32.65300796828027
 20
21.67366711489458
 30
0.0
 10
32.72757696354186
 20
21.65058801138673
 30
0.0
 10
32.80333126640218
 20
21.62886062912754
 30
0.0
 10
32.8801988550959
 20
21.6085047909425
 30
0.0
 10
32.95810669966757
 20
21.58953907510125
 30
0.0
 10
33.03698082302839
 20
21.57198079865153
 30
0.0
 10
33.11674636400718
 20
21.5558460011546
 30
0.0
 10
33.19732764225947
 20
21.54114942904891
 30
0.0
 10
33.27864822488686
 20
21.52790452083286
 30
0.0
 10
33.36063099461199
 20
21.5161233932259
 30
0.0
 10
33.44319821935286
 20
21.50581682844053
 30
0.0
 10
33.52627162303934
 20
21.49699426267396
 30
0.0
 10
33.60977245751773
 20
21.48966377590846
 30
0.0
 10
33.69362157539104
 20
21.48383208309296
 30
0.0
 10
33.77773950364701
 20
21.4795045267635
 30
0.0
 10
33.86204651792794
 20
21.47668507114885
 30
0.0
 10
33.94646271730094
 20
21.47537629779673
 30
0.0
 10
34.03090809168918
 20
21.47557940272874
 30
0.0
 10
34.11530255537598
 20
21.47729419357158
 30
0.0
 10
34.19956607247931
 20
21.48051908689279
 30
0.0
 10
34.2836187407872
 20
21.48525111077753
 30
0.0
 10
34.36738090872571
 20
21.49148591333798
 30
0.0
 10
34.45077320071086
 20
21.49921776680884
 30
0.0
 10
34.53371659161446
 20
21.50843957421489
 30
0.0
 10
34.61613248065202
 20
21.51914287758423
 30
0.0
 10
34.69794276454117
 20
21.53131786767831
 30
0.0
 10
34.77906990978279
 20
21.54495339520053
 30
0.0
 10
34.85943702391572
 20
21.56003698343128
 30
0.0
 10
34.9389679255752
 20
21.57655484223299
 30
0.0
 10
35.01758721324225
 20
21.59449188331543
 30
0.0
 10
35.09522033233511
 20
21.61383173676808
 30
0.0
 10
35.17179364115564
 20
21.63455676833484
 30
0.0
 10
35.24723447297188
 20
21.65664809877149
 30
0.0
 10
35.32147120357601
 20
21.68008561952618
 30
0.0
 10
35.39443328865725
 20
21.70484802532065
 30
0.0
 10
35.46605140332569
 20
21.73091278571166
 30
0.0
 10
35.53625718912667
 20
21.75825634514145
 30
0.0
 10
35.6049844543035
 20
21.78685346927632
 30
0.0
 10
35.67216493742452
 20
21.81667977517382
 30
0.0
 10
35.73774435124896
 20
21.84770237265162
 30
0.0
 10
35.80162271687148
 20
21.87991487405376
 30
0.0
 10
35.85734357508618
 20
21.90971275502194
 30
0.0
 10
35.89127066445648
 20
21.92905311408714
 30
0.0
 10
35.90506562513941
 20
21.93691702159733
 30
0.0
  0
SPLINE
  5
136
330
1F
100
AcDbEntity
  8
0
  6
Continuous
 62
     7
370
    25
100
AcDbSpline
210
0.0
220
0.0
230
1.0
 70
     8
 71
     3
 72
    31
 73
    27
 74
     0
 42
0.00000001
 43
0.00000001
 40
0.0
 40
0.0
 40
0.0
 40
0.0
 40
0.0227464537110023
 40
0.0659290045490813
 40
0.1091152281867166
 40
0.1523022027261689
 40
0.1954883510697313
 40
0.2386721341388549
 40
0.2818517181272046
 40
0.3250249524409626
 40
0.3681893553313135
 40
0.4113421112423206
 40
0.454480084716108
 40
0.497599856266528
 40
0.5406977857897037
 40
0.5837701085668705
 40
0.6268130674568398
 40
0.6698230822421849
 40
0.7127969531843121
 40
0.7557320907904687
 40
0.7986267580570694
 40
0.8414803058369962
 40
0.8842933775868371
 40
0.9270680577865813
 40
0.9698079398126799
 40
1.0
 40
1.0
 40
1.0
 40
1.0
 10
35.90506562513941
 20
21.93691702159733
 30
0.0
 10
35.91555444399431
 20
21.94303209926899
 30
0.0
 10
35.94595555155965
 20
21.96075622403825
 30
0.0
 10
35.9948492835041
 20
21.99091410237043
 30
0.0
 10
36.05107202716972
 20
22.02770653016889
 30
0.0
 10
36.10529572314657
 20
22.06552283538448
 30
0.0
 10
36.15749741211944
 20
22.10430849283107
 30
0.0
 10
36.20761700938228
 20
22.14403241092457
 30
0.0
 10
36.25560695087763
 20
22.18465600496621
 30
0.0
 10
36.30141865410881
 20
22.22614124634818
 30
0.0
 10
36.34500620951021
 20
22.26844844993412
 30
0.0
 10
36.38632550829594
 20
22.31153683811528
 30
0.0
 10
36.42533461412041
 20
22.35536437020829
 30
0.0
 10
36.46199382328297
 20
22.39988778546179
 30
0.0
 10
36.49626583115545
 20
22.44506261443843
 30
0.0
 10
36.52811588123921
 20
22.4908432344753
 30
0.0
 10
36.5575119510501
 20
22.53718295695563
 30
0.0
 10
36.58442484110397
 20
22.58403416243355
 30
0.0
 10
36.60882858720414
 20
22.6313484643494
 30
0.0
 10
36.63069957270485
 20
22.67907697612613
 30
0.0
 10
36.65002031586096
 20
22.72717038830994
 30
0.0
 10
36.66676559089901
 20
22.77557990437179
 30
0.0
 10
36.68095408290495
 20
22.82425505285101
 30
0.0
 10
36.69245546533165
 20
22.8731531164795
 30
0.0
 10
36.70080535686765
 20
22.91741635911907
 30
0.0
 10
36.70416790825092
 20
22.94542312854778
 30
0.0
 10
36.7055599231989
 20
22.95701725373603
 30
0.0
  0
LINE
  5
137
330
1F
100
AcDbEntity
  8
0
  6
Continuous
 62
     7
370
    25
100
AcDbLine
 10
31.242343001
 20
20.6631943085
 30
0.0
 11
31.242343001
 21
15.1515438283
 31
0.0
  0
LINE
  5
138
330
1F
100
AcDbEntity
  8
0
  6
Continuous
 62
     7
370
    25
100
AcDbLine
 10
36.712343001
 20
15.1515438283
 30
0.0
 11
36.712343001
 21
20.6631943085
 31
0.0
  0
SPLINE
  5
139
330
1F
100
AcDbEntity
  8
0
  6
Continuous
 62
     7
370
    25
100
AcDbSpline
210
0.0
220
0.0
230
1.0
 70
     8
 71
     3
 72
   106
 73
   102
 74
     0
 42
0.00000001
 43
0.00000001
 40
0.0
 40
0.0
 40
0.0
 40
0.0
 40
0.002574269906414
 40
0.0127473133464547
 40
0.022924593151302
 40
0.033107799718202
 40
0.0432983387050271
 40
0.0534972839478347
 40
0.0637053559913114
 40
0.0739229253075437
 40
0.084150036841526
 40
0.0943864508392106
 40
0.1046316941189377
 40
0.1148851160001006
 40
0.1251459438286869
 40
0.1354133341873688
 40
0.1456864171880364
 40
0.1559643324991806
 40
0.1662462568119727
 40
0.1765314232255982
 40
0.1868191335269259
 40
0.1971087645860238
 40
0.2073997701446313
 40
0.2176916791998639
 40
0.2279840920348734
 40
0.2382766478254203
 40
0.2485690197811816
 40
0.2588610029661318
 40
0.2691524368565915
 40
0.2794431993074263
 40
0.2897332010113243
 40
0.300022380510056
 40
0.3103106997736566
 40
0.3205981403336979
 40
0.3308846999383145
 40
0.3411703896858896
 40
0.3514552315895509
 40
0.3617392565235468
 40
0.3720225025039826
 40
0.3823050132596083
 40
0.3925868370519562
 40
0.4028680257084247
 40
0.4131486338360489
 40
0.4234287181875877
 40
0.4337083371553637
 40
0.4439875503714749
 40
0.4542664183959489
 40
0.4645450024769086
 40
0.4748233643689505
 40
0.485101566197719
 40
0.4953796703600558
 40
0.5056577394502881
 40
0.5159358340809322
 40
0.5262139982827564
 40
0.5364922949500466
 40
0.5467707869945544
 40
0.5570495372843647
 40
0.5673286085647645
 40
0.5776080633507049
 40
0.5878879637810939
 40
0.5981683714238709
 40
0.6084493470193139
 40
0.6187309501471223
 40
0.6290132388005022
 40
0.6392962688479302
 40
0.6495800933600826
 40
0.6598647617760206
 40
0.6701503188788768
 40
0.6804368035470004
 40
0.6907242472423658
 40
0.7010126721935127
 40
0.7113020892265179
 40
0.7215924951943766
 40
0.7318838699537804
 40
0.7421761728396767
 40
0.7524693385934579
 40
0.7627632727122248
 40
0.7730578462069395
 40
0.7833528897891395
 40
0.7936481875533498
 40
0.8039433767583152
 40
0.8142380981593496
 40
0.8245319323290027
 40
0.8348243854712616
 40
0.8451148854669039
 40
0.855402780457723
 40
0.8656873410801956
 40
0.8759677676123157
 40
0.8862432033641653
 40
0.8965127555655944
 40
0.9067755247178172
 40
0.9170306428203122
 40
0.9272773200265412
 40
0.9375148981376649
 40
0.9477429080006157
 40
0.9579611265088317
 40
0.9681696277588099
 40
0.9783688222805508
 40
0.988559478396082
 40
0.9987427208270513
 40
1.0
 40
1.0
 40
1.0
 40
1.0
 10
31.24870636573146
 20
15.04486112647734
 30
0.0
 10
31.24910881178058
 20
15.04071046994396
 30
0.0
 10
31.2511016509465
 20
15.02015717858447
 30
0.0
 10
31.25727255024183
 20
14.98331211467111
 30
0.0
 10
31.26730513396593
 20
14.93438759089517
 30
0.0
 10
31.28013141660078
 20
14.88567761294552
 30
0.0
 10
31.29547741682061
 20
14.83721544847157
 30
0.0
 10
31.31340198580155
 20
14.78904883672054
 30
0.0
 10
31.33387180674021
 20
14.74122235318528
 30
0.0
 10
31.35687507719317
 20
14.69378209083724
 30
0.0
 10
31.38239074737869
 20
14.64677425777892
 30
0.0
 10
31.41039657922857
 20
14.60024533151763
 30
0.0
 10
31.44086687275907
 20
14.55424174779305
 30
0.0
 10
31.47377304874713
 20
14.50880969487237
 30
0.0
 10
31.50908354049908
 20
14.46399488538009
 30
0.0
 10
31.54676393184029
 20
14.41984235952509
 30
0.0
 10
31.58677707229873
 20
14.3763963179652
 30
0.0
 10
31.62908322402686
 20
14.33369999078197
 30
0.0
 10
31.67364021026519
 20
14.29179554119134
 30
0.0
 10
31.72040356116367
 20
14.25072400060098
 30
0.0
 10
31.76932664948352
 20
14.21052522964654
 30
0.0
 10
31.8203608130721
 20
14.17123789926412
 30
0.0
 10
31.87345546275623
 20
14.13289948598955
 30
0.0
 10
31.92855817603352
 20
14.09554627634084
 30
0.0
 10
31.9856147281922
 20
14.05921340774926
 30
0.0
 10
32.0445691045236
 20
14.02393490352861
 30
0.0
 10
32.1053636807781
 20
13.9897435962609
 30
0.0
 10
32.16793933804155
 20
13.95667111281413
 30
0.0
 10
32.23223557818597
 20
13.92474786425615
 30
0.0
 10
32.29819043452482
 20
13.89400312727565
 30
0.0
 10
32.36574051728284
 20
13.86446504084994
 30
0.0
 10
32.43482105929823
 20
13.83616059961988
 30
0.0
 10
32.50536596270972
 20
13.80911564440909
 30
0.0
 10
32.57730784717419
 20
13.78335485037146
 30
0.0
 10
32.6505780999764
 20
13.75890171326369
 30
0.0
 10
32.72510692824959
 20
13.7357785343232
 30
0.0
 10
32.80082341341322
 20
13.71400640419793
 30
0.0
 10
32.87765556784977
 20
13.69360518633204
 30
0.0
 10
32.95553039378015
 20
13.67459350016551
 30
0.0
 10
33.03437394425278
 20
13.65698870445906
 30
0.0
 10
33.11411138613118
 20
13.64080688101269
 30
0.0
 10
33.19466706494422
 20
13.62606281900546
 30
0.0
 10
33.27596457145171
 20
13.61277000014855
 30
0.0
 10
33.35792680977082
 20
13.60094058481207
 30
0.0
 10
33.44047606690675
 20
13.59058539925865
 30
0.0
 10
33.52353408353103
 20
13.58171392409348
 30
0.0
 10
33.60702212585262
 20
13.57433428402049
 30
0.0
 10
33.69086105842995
 20
13.56845323897743
 30
0.0
 10
33.77497141777525
 20
13.56407617670841
 30
0.0
 10
33.85927348660564
 20
13.56120710681995
 30
0.0
 10
33.94368736859924
 20
13.5598486563568
 30
0.0
 10
34.02813305769981
 20
13.56000206691363
 30
0.0
 10
34.11253046784309
 20
13.56166719185038
 30
0.0
 10
34.19679956029234
 20
13.56484249343146
 30
0.0
 10
34.28086042561929
 20
13.56952504519018
 30
0.0
 10
34.36463340444875
 20
13.57571054055393
 30
0.0
 10
34.44803911093977
 20
13.58339329687988
 30
0.0
 10
34.53099850726809
 20
13.59256626207149
 30
0.0
 10
34.61343297753556
 20
13.60322102274128
 30
0.0
 10
34.69526440095474
 20
13.61534781389168
 30
0.0
 10
34.77641522416172
 20
13.62893553007539
 30
0.0
 10
34.85680853250503
 20
13.64397173798579
 30
0.0
 10
34.93636812015374
 20
13.66044269041344
 30
0.0
 10
35.01501855886324
 20
13.67833334148867
 30
0.0
 10
35.09268526523291
 20
13.69762736311019
 30
0.0
 10
35.16929456628596
 20
13.71830716243616
 30
0.0
 10
35.24477376320049
 20
13.74035390028581
 30
0.0
 10
35.31905119302113
 20
13.76374751026665
 30
0.0
 10
35.3920562881864
 20
13.78846671840291
 30
0.0
 10
35.46371963371725
 20
13.81448906299592
 30
0.0
 10
35.53397302193275
 20
13.84179091439515
 30
0.0
 10
35.60274950458914
 20
13.87034749430098
 30
0.0
 10
35.66998344238556
 20
13.90013289415695
 30
0.0
 10
35.73561055184565
 20
13.931120092123
 30
0.0
 10
35.79956794967607
 20
13.96328096805491
 30
0.0
 10
35.86179419482576
 20
13.9965863158552
 30
0.0
 10
35.92222932862951
 20
14.0310058525141
 30
0.0
 10
35.98081491362657
 20
14.06650822314283
 30
0.0
 10
36.03749407188207
 20
14.10306100131519
 30
0.0
 10
36.09221135829065
 20
14.14063057038996
 30
0.0
 10
36.14491294373699
 20
14.17918217590569
 30
0.0
 10
36.195546684186
 20
14.21867991410012
 30
0.0
 10
36.24406231749976
 20
14.25908683229794
 30
0.0
 10
36.29041140837899
 20
14.30036482582848
 30
0.0
 10
36.33454741044193
 20
14.34247460172515
 30
0.0
 10
36.37642575769163
 20
14.38537565554174
 30
0.0
 10
36.41600397254252
 20
14.42902625517582
 30
0.0
 10
36.45324179181559
 20
14.47338343759954
 30
0.0
 10
36.48810130836604
 20
14.51840302557492
 30
0.0
 10
36.5205471314955
 20
14.56403967178225
 30
0.0
 10
36.55054653725485
 20
14.61024693873726
 30
0.0
 10
36.57806968501949
 20
14.65697741749438
 30
0.0
 10
36.6030895687236
 20
14.70418290060597
 30
0.0
 10
36.62558287746415
 20
14.75181456381208
 30
0.0
 10
36.64552731533088
 20
14.79982331663506
 30
0.0
 10
36.66291189159991
 20
14.84815968791924
 30
0.0
 10
36.67769858190041
 20
14.89677554179475
 30
0.0
 10
36.68996488697722
 20
14.94561897414057
 30
0.0
 10
36.69937182893982
 20
14.99465451333801
 30
0.0
 10
36.70487623062483
 20
15.02944307856023
 30
0.0
 10
36.70647646126661
 20
15.04789579166585
 30
0.0
 10
36.70665232183726
 20
15.0499236897526
 30
0.0
  0
LINE
  5
13A
330
1F
100
AcDbEntity
  8
0
  6
Continuous
 62
     7
370
    25
100
AcDbLine
 10
36.7206374703
 20
21.4608588191
 30
0.0
 11
36.7559870631
 21
21.440445299
 31
0.0
  0
LINE
  5
13B
330
1F
100
AcDbEntity
  8
0
  6
Continuous
 62
     7
370
    25
100
AcDbLine
 10
37.9986716764
 20
21.3172529003
 30
0.0
 11
38.2284813803
 21
21.4499192185
 31
0.0
  0
LINE
  5
13C
330
1F
100
AcDbEntity
  8
0
  6
Continuous
 62
     7
370
    25
100
AcDbLine
 10
31.9893829964
 20
22.1113409165
 30
0.0
 11
31.9893829964
 21
22.1104443335
 31
0.0
  0
LINE
  5
13D
330
1F
100
AcDbEntity
  8
0
  6
Continuous
 62
     7
370
    25
100
AcDbLine
 10
36.6110120084
 20
22.712658618
 30
0.0
 11
36.6111975374
 21
22.7128012203
 31
0.0
  0
LINE
  5
13E
330
1F
100
AcDbEntity
  8
0
  6
Continuous
 62
     7
370
    25
100
AcDbLine
 10
36.6340028888
 20
22.8602333034
 30
0.0
 11
36.6335308729
 21
22.8609107497
 31
0.0
  0
LINE
  5
13F
330
1F
100
AcDbEntity
  8
0
  6
Continuous
 62
     7
370
    25
100
AcDbLine
 10
36.6110120084
 20
20.0515521121
 30
0.0
 11
36.6111975374
 21
20.0516947143
 31
0.0
  0
LINE
  5
140
330
1F
100
AcDbEntity
  8
0
  6
Continuous
 62
     7
370
    25
100
AcDbLine
 10
36.6340028888
 20
20.1991267975
 30
0.0
 11
36.6335308729
 21
20.1998042438
 31
0.0
  0
LINE
  5
141
330
1F
100
AcDbEntity
  8
0
  6
Continuous
 62
     7
370
    25
100
AcDbLine
 10
31.9893829964
 20
19.4502344105
 30
0.0
 11
31.9893829964
 21
19.4493378276
 31
0.0
  0
LINE
  5
142
330
1F
100
AcDbEntity
  8
0
  6
Continuous
 62
     7
370
    25
100
AcDbLine
 10
36.712343001
 20
22.6877159101
 30
0.0
 11
37.0413196292
 21
22.8776300751
 31
0.0
  0
SPLINE
  5
143
330
1F
100
AcDbEntity
  8
0
  6
Continuous
 62
     7
370
    25
100
AcDbSpline
210
0.0
220
0.0
230
1.0
 70
     8
 71
     3
 72
    43
 73
    39
 74
     0
 42
0.00000001
 43
0.00000001
 40
0.0
 40
0.0
 40
0.0
 40
0.0
 40
0.0067665786812171
 40
0.0358314152875809
 40
0.0649701066480744
 40
0.0941827927230739
 40
0.1234616079569656
 40
0.1527941401212865
 40
0.1821666079978039
 40
0.2115661056629376
 40
0.2409818062558392
 40
0.266399163301997
 40
0.2819023879952735
 40
0.311324409946508
 40
0.3407439323127143
 40
0.3701576447518028
 40
0.3995648167767755
 40
0.4289653477778105
 40
0.458359563216415
 40
0.4877480689409531
 40
0.517131650137436
 40
0.5465112033360249
 40
0.5758876921432686
 40
0.6052621195464034
 40
0.6346355114316155
 40
0.6640089073030496
 40
0.6933831245999782
 40
0.7227590984176168
 40
0.7521378842800185
 40
0.7815205334545205
 40
0.8109080813919755
 40
0.8403015275642287
 40
0.8697018020831615
 40
0.8991097129411219
 40
0.9285258656452241
 40
0.9579505445746562
 40
0.987383542981121
 40
1.0
 40
1.0
 40
1.0
 40
1.0
 10
37.10450085028277
 20
22.93174586077834
 30
0.0
 10
37.10579239866845
 20
22.93320176835367
 30
0.0
 10
37.11263160186869
 20
22.94091131130142
 30
0.0
 10
37.12345681155084
 20
22.95687451911184
 30
0.0
 10
37.13684213469453
 20
22.97962847532332
 30
0.0
 10
37.14840717010308
 20
23.00441748036434
 30
0.0
 10
37.15826787566424
 20
23.03093169762375
 30
0.0
 10
37.16633594605633
 20
23.05912104747802
 30
0.0
 10
37.17258853273758
 20
23.08885360612827
 30
0.0
 10
37.17699665591936
 20
23.12000973266597
 30
0.0
 10
37.17942891157553
 20
23.15098602029968
 30
0.0
 10
37.18007179833531
 20
23.1777060282339
 30
0.0
 10
37.17967973525736
 20
23.20499946700019
 30
0.0
 10
37.17806581693413
 20
23.23447479138215
 30
0.0
 10
37.17429519776302
 20
23.27029414349247
 30
0.0
 10
37.16868822373917
 20
23.30679963486373
 30
0.0
 10
37.16127014141476
 20
23.34384511905867
 30
0.0
 10
37.15207289281504
 20
23.38128459695652
 30
0.0
 10
37.14113503713627
 20
23.41897046649483
 30
0.0
 10
37.12850161697731
 20
23.45675436916547
 30
0.0
 10
37.11422400876652
 20
23.49448757671474
 30
0.0
 10
37.09835975269541
 20
23.53202154335415
 30
0.0
 10
37.08097235569677
 20
23.56920844398042
 30
0.0
 10
37.06213106536422
 20
23.60590173505935
 30
0.0
 10
37.04191061418417
 20
23.64195671829605
 30
0.0
 10
37.0203909910058
 20
23.67723101045153
 30
0.0
 10
36.99765711727191
 20
23.71158515669204
 30
0.0
 10
36.97379848180231
 20
23.74488322295809
 30
0.0
 10
36.948908706091
 20
23.7769934301953
 30
0.0
 10
36.92308518119415
 20
23.80778850556839
 30
0.0
 10
36.89642870226489
 20
23.83714646737722
 30
0.0
 10
36.86904305732065
 20
23.86494972021825
 30
0.0
 10
36.84103462964907
 20
23.8910904708766
 30
0.0
 10
36.81251194028492
 20
23.91545236655603
 30
0.0
 10
36.78358545060994
 20
23.93798070972945
 30
0.0
 10
36.75436648974097
 20
23.9584217588569
 30
0.0
 10
36.7305707731497
 20
23.97370086800536
 30
0.0
 10
36.71654982560582
 20
23.98136014121341
 30
0.0
 10
36.71234300104027
 20
23.98365821832873
 30
0.0
  0
LINE
  5
144
330
1F
100
AcDbEntity
  8
0
  6
Continuous
 62
     7
370
    25
100
AcDbLine
 10
36.712343001
 20
20.6876905329
 30
0.0
 11
36.712343001
 21
23.0425942344
 31
0.0
  0
LINE
  5
145
330
1F
100
AcDbEntity
  8
0
  6
Continuous
 62
     7
370
    25
100
AcDbLine
 10
31.242343001
 20
23.0425942344
 30
0.0
 11
31.242343001
 21
20.6876905329
 31
0.0
  0
LINE
  5
146
330
1F
100
AcDbEntity
  8
0
  6
Continuous
 62
     7
370
    25
100
AcDbLine
 10
38.2359807708
 20
21.4369284856
 30
0.0
 11
38.3208335845
 21
21.4859129723
 31
0.0
  0
LINE
  5
147
330
1F
100
AcDbEntity
  8
0
  6
Continuous
 62
     7
370
    25
100
AcDbLine
 10
38.8387021217
 20
22.6305249884
 30
0.0
 11
38.8387021217
 21
22.6550172318
 31
0.0
  0
LINE
  5
148
330
1F
100
AcDbEntity
  8
0
  6
Continuous
 62
     7
370
    25
100
AcDbLine
 10
37.0924322363
 20
25.6799731574
 30
0.0
 11
37.0712224806
 21
25.6922212694
 31
0.0
  0
LWPOLYLINE
  5
149
330
1F
100
AcDbEntity
  8
0
  6
Continuous
 62
     7
370
    25
100
AcDbPolyline
 90
      193
 70
   128
 43
0.0
 10
35.8900668441
 20
29.7074291345
 10
35.826460178
 20
29.7429660849
 10
35.7608734309
 20
29.777282585
 10
35.6933768347
 20
29.8103418878
 10
35.6240426665
 20
29.8421085926
 10
35.5529451711
 20
29.8725486829
 10
35.4801604814
 20
29.9016295627
 10
35.405766537
 20
29.9293200913
 10
35.329843001
 20
29.9555906171
 10
35.2524711742
 20
29.980413009
 10
35.1737339081
 20
30.0037606864
 10
35.0937155167
 20
30.0256086482
 10
35.0125016856
 20
30.045933499
 10
34.9301793807
 20
30.0647134744
 10
34.8468367547
 20
30.0819284644
 10
34.762563053
 20
30.0975600347
 10
34.677448518
 20
30.1115914467
 10
34.5915842925
 20
30.1240076751
 10
34.5050623221
 20
30.1347954243
 10
34.4179752566
 20
30.1439431426
 10
34.330416351
 20
30.1514410343
 10
34.2424793656
 20
30.1572810706
 10
34.1542584656
 20
30.1614569977
 10
34.0658481201
 20
30.163964344
 10
33.977343001
 20
30.1648004245
 10
33.888837882
 20
30.163964344
 10
33.8004275365
 20
30.1614569977
 10
33.7122066364
 20
30.1572810706
 10
33.6242696511
 20
30.1514410343
 10
33.5367107455
 20
30.1439431426
 10
33.44962368
 20
30.1347954243
 10
33.3631017095
 20
30.1240076751
 10
33.277237484
 20
30.1115914467
 10
33.1921229491
 20
30.0975600347
 10
33.1078492474
 20
30.0819284644
 10
33.0245066214
 20
30.0647134744
 10
32.9421843165
 20
30.045933499
 10
32.8609704854
 20
30.0256086482
 10
32.780952094
 20
30.0037606864
 10
32.7022148279
 20
29.980413009
 10
32.624843001
 20
29.9555906171
 10
32.548919465
 20
29.9293200913
 10
32.4745255207
 20
29.9016295627
 10
32.401740831
 20
29.8725486829
 10
32.3306433356
 20
29.8421085926
 10
32.2613091674
 20
29.8103418878
 10
32.1938125712
 20
29.777282585
 10
32.1282258241
 20
29.7429660849
 10
32.0646191579
 20
29.7074291345
 10
32.0030606844
 20
29.6707097878
 10
31.9436163218
 20
29.6328473646
 10
31.8863497247
 20
29.593882409
 10
31.8313222156
 20
29.5538566457
 10
31.7785927192
 20
29.5128129352
 10
31.7282176998
 20
29.4707952282
 10
31.6802511
 20
29.4278485183
 10
31.6347442838
 20
29.3840187939
 10
31.591745981
 20
29.339352989
 10
31.5513022352
 20
29.2938989328
 10
31.5134563546
 20
29.2477052987
 10
31.4782488656
 20
29.2008215519
 10
31.4457174692
 20
29.1532978969
 10
31.4158970008
 20
29.105185223
 10
31.3888193929
 20
29.0565350506
 10
31.3645136409
 20
29.0073994754
 10
31.3430057721
 20
28.9578311131
 10
31.3243188175
 20
28.9078830428
 10
31.3084727878
 20
28.85760875
 10
31.295484651
 20
28.8070620697
 10
31.2853683154
 20
28.7562971286
 10
31.2781346137
 20
28.7053682871
 10
31.2737912919
 20
28.654330081
 10
31.272343001
 20
28.6032371633
 10
31.2737912919
 20
28.5521442456
 10
31.2781346137
 20
28.5011060395
 10
31.2853683154
 20
28.450177198
 10
31.295484651
 20
28.3994122569
 10
31.3084727878
 20
28.3488655766
 10
31.3243188175
 20
28.2985912838
 10
31.3430057721
 20
28.2486432135
 10
31.3645136409
 20
28.1990748512
 10
31.3888193929
 20
28.149939276
 10
31.4158970008
 20
28.1012891036
 10
31.4457174692
 20
28.0531764297
 10
31.4782488656
 20
28.0056527746
 10
31.5134563546
 20
27.9587690279
 10
31.5513022352
 20
27.9125753938
 10
31.591745981
 20
27.8671213376
 10
31.6347442838
 20
27.8224555327
 10
31.6802511
 20
27.7786258083
 10
31.7282176998
 20
27.7356790984
 10
31.7785927192
 20
27.6936613914
 10
31.8313222156
 20
27.6526176809
 10
31.8863497247
 20
27.6125919176
 10
31.9436163218
 20
27.573626962
 10
32.0030606844
 20
27.5357645388
 10
32.0646191579
 20
27.4990451921
 10
32.1282258241
 20
27.4635082417
 10
32.1938125712
 20
27.4291917416
 10
32.2613091674
 20
27.3961324388
 10
32.3306433356
 20
27.364365734
 10
32.401740831
 20
27.3339256437
 10
32.4745255207
 20
27.3048447639
 10
32.548919465
 20
27.2771542353
 10
32.624843001
 20
27.2508837095
 10
32.7022148279
 20
27.2260613176
 10
32.780952094
 20
27.2027136402
 10
32.8609704854
 20
27.1808656783
 10
32.9421843165
 20
27.1605408276
 10
33.0245066214
 20
27.1417608521
 10
33.1078492474
 20
27.1245458622
 10
33.1921229491
 20
27.1089142919
 10
33.277237484
 20
27.0948828799
 10
33.3631017095
 20
27.0824666515
 10
33.44962368
 20
27.0716789023
 10
33.5367107455
 20
27.062531184
 10
33.6242696511
 20
27.0550332923
 10
33.7122066364
 20
27.049193256
 10
33.8004275365
 20
27.0450173289
 10
33.888837882
 20
27.0425099826
 10
33.977343001
 20
27.0416739021
 10
34.0658481201
 20
27.0425099826
 10
34.1542584656
 20
27.0450173289
 10
34.2424793656
 20
27.049193256
 10
34.330416351
 20
27.0550332923
 10
34.4179752566
 20
27.062531184
 10
34.5050623221
 20
27.0716789023
 10
34.5915842925
 20
27.0824666515
 10
34.677448518
 20
27.0948828799
 10
34.762563053
 20
27.1089142919
 10
34.8468367547
 20
27.1245458622
 10
34.9301793807
 20
27.1417608521
 10
35.0125016856
 20
27.1605408276
 10
35.0937155167
 20
27.1808656783
 10
35.1737339081
 20
27.2027136402
 10
35.2524711742
 20
27.2260613176
 10
35.329843001
 20
27.2508837095
 10
35.405766537
 20
27.2771542353
 10
35.4801604814
 20
27.3048447639
 10
35.5529451711
 20
27.3339256437
 10
35.6240426665
 20
27.364365734
 10
35.6933768347
 20
27.3961324388
 10
35.7608734309
 20
27.4291917416
 10
35.826460178
 20
27.4635082417
 10
35.8900668441
 20
27.4990451921
 10
35.9516253177
 20
27.5357645388
 10
36.0110696803
 20
27.573626962
 10
36.0683362774
 20
27.6125919176
 10
36.1233637865
 20
27.6526176809
 10
36.1760932829
 20
27.6936613914
 10
36.2264683023
 20
27.7356790984
 10
36.2744349021
 20
27.7786258083
 10
36.3199417183
 20
27.8224555327
 10
36.3629400211
 20
27.8671213376
 10
36.4033837669
 20
27.9125753938
 10
36.4412296475
 20
27.9587690279
 10
36.4764371365
 20
28.0056527746
 10
36.5089685329
 20
28.0531764297
 10
36.5387890013
 20
28.1012891036
 10
36.5658666092
 20
28.149939276
 10
36.5901723612
 20
28.1990748512
 10
36.61168023
 20
28.2486432135
 10
36.6303671845
 20
28.2985912838
 10
36.6462132143
 20
28.3488655766
 10
36.6592013511
 20
28.3994122569
 10
36.6693176867
 20
28.450177198
 10
36.6765513884
 20
28.5011060395
 10
36.6808947102
 20
28.5521442456
 10
36.682343001
 20
28.6032371633
 10
36.6808947102
 20
28.654330081
 10
36.6765513884
 20
28.7053682871
 10
36.6693176867
 20
28.7562971286
 10
36.6592013511
 20
28.8070620697
 10
36.6462132143
 20
28.85760875
 10
36.6303671845
 20
28.9078830428
 10
36.61168023
 20
28.9578311131
 10
36.5901723612
 20
29.0073994754
 10
36.5658666092
 20
29.0565350506
 10
36.5387890013
 20
29.105185223
 10
36.5089685329
 20
29.1532978969
 10
36.4764371365
 20
29.2008215519
 10
36.4412296475
 20
29.2477052987
 10
36.4033837669
 20
29.2938989328
 10
36.3629400211
 20
29.339352989
 10
36.3199417183
 20
29.3840187939
 10
36.2744349021
 20
29.4278485183
 10
36.2264683023
 20
29.4707952282
 10
36.1760932829
 20
29.5128129352
 10
36.1233637865
 20
29.5538566457
 10
36.0683362774
 20
29.593882409
 10
36.0110696803
 20
29.6328473646
 10
35.9516253177
 20
29.6707097878
 10
35.8900668441
 20
29.7074291345
  0
ARC
  5
14A
330
1F
100
AcDbEntity
  8
0
  6
Continuous
 62
     7
370
    25
100
AcDbCircle
 10
35.7978828279
 20
28.5787415382
 30
0.0
 40
0.9144540452867141
100
AcDbArc
 50
353.2987149345
 51
6.7578612191
  0
ARC
  5
14B
330
1F
100
AcDbEntity
  8
0
  6
Continuous
 62
     7
370
    25
100
AcDbCircle
 10
32.1564595424
 20
28.5787414592
 30
0.0
 40
0.914111862083576
100
AcDbArc
 50
173.5839969986
 51
186.3637971594
  0
SPLINE
  5
14C
330
1F
100
AcDbEntity
  8
0
  6
Continuous
 62
     7
370
    25
100
AcDbSpline
210
0.0
220
0.0
230
1.0
 70
    11
 71
     3
 72
    26
 73
    22
 74
     0
 42
0.00000001
 43
0.00000001
 40
0.0
 40
0.0
 40
0.0
 40
0.0
 40
0.0536750643289565
 40
0.1073496429989192
 40
0.1610368245232679
 40
0.2147322126651427
 40
0.2684139093946442
 40
0.3220813954451787
 40
0.3757563163972584
 40
0.4294487206345758
 40
0.4831413779985544
 40
0.5368166456411934
 40
0.590484029855956
 40
0.644165336701514
 40
0.6978606434325789
 40
0.751548178537019
 40
0.8052183088844896
 40
0.8588885589374468
 40
0.9125762604136118
 40
0.9662715254958685
 40
1.0
 40
1.0
 40
1.0
 40
1.0
 10
31.99127216162106
 20
22.1101878520116
 30
0.0
 10
31.99183990683165
 20
22.11670313367289
 30
0.0
 10
31.99297539211581
 20
22.12973363804436
 30
0.0
 10
32.00185465008958
 20
22.14261010315593
 30
0.0
 10
32.015015017264
 20
22.14860904804337
 30
0.0
 10
32.03158543705747
 20
22.14677737212541
 30
0.0
 10
32.04961272828872
 20
22.13744156882924
 30
0.0
 10
32.06710945336854
 20
22.12164028814785
 30
0.0
 10
32.08205203813416
 20
22.1011334908159
 30
0.0
 10
32.09268131881098
 20
22.07817982660475
 30
0.0
 10
32.09771607948752
 20
22.05532311332426
 30
0.0
 10
32.09654472348192
 20
22.03511947580799
 30
0.0
 10
32.08931310564702
 20
22.01985021651728
 30
0.0
 10
32.07689531837259
 20
22.01126695409223
 30
0.0
 10
32.06077161009291
 20
22.01038753834838
 30
0.0
 10
32.04282967613072
 20
22.01735580532501
 30
0.0
 10
32.02512947305345
 20
22.03139199673718
 30
0.0
 10
32.00960495809658
 20
22.0509163619719
 30
0.0
 10
31.99803971217984
 20
22.07361474853607
 30
0.0
 10
31.9920905790848
 20
22.09425197416192
 30
0.0
 10
31.99150000700356
 20
22.10575134332879
 30
0.0
 10
31.99127216162106
 20
22.1101878520116
 30
0.0
  0
SPLINE
  5
14D
330
1F
100
AcDbEntity
  8
0
  6
Continuous
 62
     7
370
    25
100
AcDbSpline
210
0.0
220
0.0
230
1.0
 70
     8
 71
     3
 72
    14
 73
    10
 74
     0
 42
0.00000001
 43
0.00000001
 40
0.0
 40
0.0
 40
0.0
 40
0.0
 40
0.1531242571147323
 40
0.3062471287411832
 40
0.4594059537985135
 40
0.6125881906994601
 40
0.7657313687306175
 40
0.9188340065279245
 40
1.0
 40
1.0
 40
1.0
 40
1.0
 10
36.59881654226586
 20
22.74552170661191
 30
0.0
 10
36.59905274274972
 20
22.7528405004631
 30
0.0
 10
36.59952514158027
 20
22.76747802194405
 30
0.0
 10
36.60317171245196
 20
22.79288415497921
 30
0.0
 10
36.60842420433276
 20
22.81727421255157
 30
0.0
 10
36.6148191962642
 20
22.83847927575357
 30
0.0
 10
36.62141113034471
 20
22.8534846047856
 30
0.0
 10
36.6267769574556
 20
22.86114477612619
 30
0.0
 10
36.62921862953637
 20
22.86024450106274
 30
0.0
 10
36.63006458462262
 20
22.85993258683194
 30
0.0
  0
SPLINE
  5
14E
330
1F
100
AcDbEntity
  8
0
  6
Continuous
 62
     7
370
    25
100
AcDbSpline
210
0.0
220
0.0
230
1.0
 70
     8
 71
     3
 72
    13
 73
     9
 74
     0
 42
0.00000001
 43
0.00000001
 40
0.0
 40
0.0
 40
0.0
 40
0.0
 40
0.1130808972983608
 40
0.3152822231078049
 40
0.51753628227225
 40
0.719761068058318
 40
0.9219202953633824
 40
0.9999999999999999
 40
0.9999999999999999
 40
0.9999999999999999
 40
0.9999999999999999
 10
36.63603357338836
 20
22.80301936844791
 30
0.0
 10
36.63565763062601
 20
22.79850222119494
 30
0.0
 10
36.63460946004455
 20
22.7859079080789
 30
0.0
 10
36.63089162917358
 20
22.76431090295057
 30
0.0
 10
36.6254210881551
 20
22.74173499922738
 30
0.0
 10
36.61902154457878
 20
22.72473960239844
 30
0.0
 10
36.61360796944844
 20
22.71530351568228
 30
0.0
 10
36.61091014284803
 20
22.71483801818132
 30
0.0
 10
36.61015847889234
 20
22.71470832204263
 30
0.0
  0
SPLINE
  5
14F
330
1F
100
AcDbEntity
  8
0
  6
Continuous
 62
     7
370
    25
100
AcDbSpline
210
0.0
220
0.0
230
1.0
 70
     8
 71
     3
 72
     9
 73
     5
 74
     0
 42
0.00000001
 43
0.00000001
 40
0.0
 40
0.0
 40
0.0
 40
0.0
 40
0.3385921627924
 40
1.0
 40
1.0
 40
1.0
 40
1.0
 10
36.60013783063673
 20
22.72917644823619
 30
0.0
 10
36.59982123439767
 20
22.73057238637303
 30
0.0
 10
36.59888619728262
 20
22.73469515792604
 30
0.0
 10
36.59884427198577
 20
22.74121164860546
 30
0.0
 10
36.59881654226586
 20
22.74552170661191
 30
0.0
  0
ARC
  5
150
330
1F
100
AcDbEntity
  8
0
  6
Continuous
 62
     7
370
    25
100
AcDbCircle
 10
35.7978070269
 20
23.0671461893
 30
0.0
 40
0.9145359757936897
100
AcDbArc
 50
353.2313902394
 51
359.99650847
  0
ARC
  5
151
330
1F
100
AcDbEntity
  8
0
  6
Continuous
 62
     7
370
    25
100
AcDbCircle
 10
32.1570349137
 20
23.0671646116
 30
0.0
 40
0.9146919156846567
100
AcDbArc
 50
180.0046448962
 51
186.3924460608
  0
LWPOLYLINE
  5
152
330
1F
100
AcDbEntity
  8
0
  6
Continuous
 62
     7
370
    25
100
AcDbPolyline
 90
      191
 70
   128
 43
0.0
 10
35.8511759712
 20
29.6849779115
 10
35.9121066983
 20
29.6486204838
 10
35.9709217897
 20
29.6111199448
 10
36.027556932
 20
29.5725173008
 10
36.0819501954
 20
29.5328547632
 10
36.1340421018
 20
29.4921757024
 10
36.1837756894
 20
29.4505246003
 10
36.2310965752
 20
29.4079470019
 10
36.2759530146
 20
29.3644894651
 10
36.3182959577
 20
29.32019951
 10
36.3580791031
 20
29.2751255672
 10
36.3952589485
 20
29.2293169243
 10
36.4297948383
 20
29.1828236723
 10
36.461649008
 20
29.135696651
 10
36.4907866257
 20
29.0879873931
 10
36.5171758296
 20
29.0397480679
 10
36.5407877635
 20
28.9910314244
 10
36.5615966083
 20
28.9418907336
 10
36.5795796097
 20
28.8923797301
 10
36.5947171036
 20
28.8425525535
 10
36.6069925373
 20
28.792463689
 10
36.6163924879
 20
28.742167908
 10
36.6229066766
 20
28.6917202084
 10
36.6265279803
 20
28.6411757538
 10
36.6272524391
 20
28.5905898139
 10
36.6250792608
 20
28.5400177037
 10
36.6200108218
 20
28.4895147231
 10
36.6120526643
 20
28.4391360963
 10
36.6012134905
 20
28.3889369116
 10
36.5875051528
 20
28.3389720611
 10
36.5709426412
 20
28.2892961805
 10
36.5515440664
 20
28.2399635899
 10
36.5293306405
 20
28.1910282335
 10
36.5043266537
 20
28.1425436216
 10
36.4765594473
 20
28.0945627713
 10
36.4460593844
 20
28.047138149
 10
36.4128598164
 20
28.0003216127
 10
36.3769970465
 20
27.9541643558
 10
36.3385102901
 20
27.9087168505
 10
36.297441632
 20
27.8640287929
 10
36.2538359801
 20
27.8201490489
 10
36.2077410166
 20
27.7771256002
 10
36.1592071455
 20
27.7350054923
 10
36.1082874381
 20
27.6938347831
 10
36.0550375742
 20
27.6536584919
 10
35.9995157818
 20
27.6145205512
 10
35.9417827731
 20
27.5764637575
 10
35.8819016784
 20
27.5395297255
 10
35.8199379767
 20
27.5037588419
 10
35.7559594245
 20
27.4691902217
 10
35.6900359814
 20
27.4358616653
 10
35.6222397336
 20
27.4038096168
 10
35.5526448154
 20
27.3730691247
 10
35.4813273278
 20
27.3436738032
 10
35.4083652554
 20
27.3156557959
 10
35.3338383811
 20
27.2890457398
 10
35.2578281991
 20
27.2638727328
 10
35.1804178254
 20
27.2401643011
 10
35.1016919069
 20
27.2179463696
 10
35.0217365295
 20
27.1972432332
 10
34.940639123
 20
27.1780775306
 10
34.8584883664
 20
27.160470219
 10
34.7753740903
 20
27.144440552
 10
34.6913871789
 20
27.1300060576
 10
34.6066194707
 20
27.1171825198
 10
34.5211636579
 20
27.105983961
 10
34.4351131851
 20
27.0964226265
 10
34.3485621475
 20
27.0885089716
 10
34.2616051871
 20
27.0822516498
 10
34.1743373902
 20
27.0776575033
 10
34.0868541828
 20
27.0747315557
 10
33.9992512266
 20
27.0734770066
 10
33.911624314
 20
27.0738952277
 10
33.8240692638
 20
27.0759857618
 10
33.7366818163
 20
27.0797463229
 10
33.6495575282
 20
27.0851727989
 10
33.5627916687
 20
27.0922592559
 10
33.476479115
 20
27.1009979452
 10
33.3907142486
 20
27.1113793109
 10
33.3055908521
 20
27.1233920013
 10
33.2212020068
 20
27.1370228806
 10
33.1376399905
 20
27.1522570438
 10
33.0549961771
 20
27.1690778324
 10
32.9733609365
 20
27.1874668532
 10
32.8928235355
 20
27.207403998
 10
32.8134720406
 20
27.2288674659
 10
32.7353932215
 20
27.2518337869
 10
32.6586724563
 20
27.2762778476
 10
32.5833936379
 20
27.3021729189
 10
32.5096390827
 20
27.3294906848
 10
32.4374894402
 20
27.3582012738
 10
32.367023605
 20
27.3882732912
 10
32.2983186304
 20
27.4196738538
 10
32.2314496442
 20
27.4523686255
 10
32.1664897668
 20
27.4863218551
 10
32.1035100309
 20
27.5214964151
 10
32.0425793038
 20
27.5578538428
 10
31.9837642124
 20
27.5953543818
 10
31.9271290701
 20
27.6339570258
 10
31.8727358067
 20
27.6736195634
 10
31.8206439003
 20
27.7142986242
 10
31.7709103127
 20
27.7559497263
 10
31.7235894269
 20
27.7985273247
 10
31.6787329875
 20
27.8419848615
 10
31.6363900444
 20
27.8862748165
 10
31.596606899
 20
27.9313487594
 10
31.5594270536
 20
27.9771574023
 10
31.5248911638
 20
28.0236506543
 10
31.493036994
 20
28.0707776756
 10
31.4638993764
 20
28.1184869335
 10
31.4375101725
 20
28.1667262587
 10
31.4138982385
 20
28.2154429022
 10
31.3930893937
 20
28.264583593
 10
31.3751063923
 20
28.3140945964
 10
31.3599688985
 20
28.3639217731
 10
31.3476934647
 20
28.4140106376
 10
31.3382935142
 20
28.4643064186
 10
31.3317793255
 20
28.5147541182
 10
31.3281580218
 20
28.5652985728
 10
31.327433563
 20
28.6158845127
 10
31.3296067413
 20
28.6664566229
 10
31.3346751803
 20
28.7169596035
 10
31.3426333378
 20
28.7673382303
 10
31.3534725116
 20
28.817537415
 10
31.3671808493
 20
28.8675022655
 10
31.3837433609
 20
28.9171781461
 10
31.4031419357
 20
28.9665107367
 10
31.4253553616
 20
29.0154460931
 10
31.4503593484
 20
29.063930705
 10
31.4781265548
 20
29.1119115553
 10
31.5086266177
 20
29.1593361776
 10
31.5418261857
 20
29.2061527138
 10
31.5776889556
 20
29.2523099708
 10
31.6161757119
 20
29.2977574761
 10
31.6572443701
 20
29.3424455337
 10
31.700850022
 20
29.3863252777
 10
31.7469449855
 20
29.4293487264
 10
31.7954788566
 20
29.4714688343
 10
31.846398564
 20
29.5126395435
 10
31.8996484279
 20
29.5528158346
 10
31.9551702203
 20
29.5919537754
 10
32.012903229
 20
29.6300105691
 10
32.0727843237
 20
29.6669446011
 10
32.1347480253
 20
29.7027154847
 10
32.1987265776
 20
29.7372841048
 10
32.2646500207
 20
29.7706126613
 10
32.3324462685
 20
29.8026647098
 10
32.4020411867
 20
29.8334052019
 10
32.4733586743
 20
29.8628005233
 10
32.5463207467
 20
29.8908185307
 10
32.620847621
 20
29.9174285868
 10
32.696857803
 20
29.9426015938
 10
32.7742681767
 20
29.9663100255
 10
32.8529940952
 20
29.988527957
 10
32.9329494726
 20
30.0092310934
 10
33.014046879
 20
30.028396796
 10
33.0961976357
 20
30.0460041075
 10
33.1793119118
 20
30.0620337746
 10
33.2632988232
 20
30.076468269
 10
33.3480665314
 20
30.0892918067
 10
33.4335223442
 20
30.1004903656
 10
33.5195728169
 20
30.1100517001
 10
33.6061238546
 20
30.1179653549
 10
33.693080815
 20
30.1242226768
 10
33.7803486119
 20
30.1288168233
 10
33.8678318193
 20
30.1317427709
 10
33.9554347755
 20
30.13299732
 10
34.0430616881
 20
30.1325790988
 10
34.1306167382
 20
30.1304885647
 10
34.2180041858
 20
30.1267280036
 10
34.3051284739
 20
30.1213015277
 10
34.3918943334
 20
30.1142150706
 10
34.4782068871
 20
30.1054763814
 10
34.5639717535
 20
30.0950950157
 10
34.6490951499
 20
30.0830823253
 10
34.7334839953
 20
30.0694514459
 10
34.8170460116
 20
30.0542172828
 10
34.8996898249
 20
30.0373964942
 10
34.9813250656
 20
30.0190074734
 10
35.0618624666
 20
29.9990703286
 10
35.1412139615
 20
29.9776068607
 10
35.2192927806
 20
29.9546405397
 10
35.2960135458
 20
29.930196479
 10
35.3712923642
 20
29.9043014077
 10
35.4450469194
 20
29.8769836418
 10
35.5171965619
 20
29.8482730528
 10
35.5876623971
 20
29.8182010354
 10
35.6563673717
 20
29.7868004728
 10
35.7232363579
 20
29.7541057011
 10
35.7881962352
 20
29.7201524715
 10
35.8511759712
 20
29.6849779115
  0
ARC
  5
153
330
1F
100
AcDbEntity
  8
0
  6
Continuous
 62
     7
370
    25
100
AcDbCircle
 10
32.2324011205
 20
28.5787392248
 30
0.0
 40
0.8750563195523704
100
AcDbArc
 50
174.1118141893
 51
186.0454943753
  0
ARC
  5
154
330
1F
100
AcDbEntity
  8
0
  6
Continuous
 62
     7
370
    25
100
AcDbCircle
 10
35.721547135
 20
28.5787400075
 30
0.0
 40
0.8757908388965421
100
AcDbArc
 50
353.4755387764
 51
6.4253069848
  0
LWPOLYLINE
  5
155
330
1F
100
AcDbEntity
  8
0
  6
Continuous
 62
     7
370
    25
100
AcDbPolyline
 90
       64
 70
   128
 43
0.0
 10
32.1247232343
 20
28.8561909779
 10
32.1873247135
 20
28.8911481589
 10
32.251904317
 20
28.9248848255
 10
32.3183906788
 20
28.9573636958
 10
32.3867103259
 20
28.9885488778
 10
32.4567877591
 20
29.0184059093
 10
32.5285455369
 20
29.0469017956
 10
32.6019043606
 20
29.0740050464
 10
32.6767831624
 20
29.0996857101
 10
32.753099195
 20
29.1239154076
 10
32.8307681223
 20
29.1466673628
 10
32.9097041137
 20
29.1679164329
 10
32.989819938
 20
29.1876391358
 10
33.0710270604
 20
29.2058136763
 10
33.1532357399
 20
29.2224199699
 10
33.236355129
 20
29.2374396652
 10
33.3202933734
 20
29.2508561642
 10
33.4049577143
 20
29.2626546406
 10
33.4902545903
 20
29.2728220558
 10
33.5760897409
 20
29.2813471742
 10
33.6623683109
 20
29.2882205746
 10
33.748994955
 20
29.2934346615
 10
33.8358739435
 20
29.2969836728
 10
33.9229092674
 20
29.2988636864
 10
34.0100047453
 20
29.2990726249
 10
34.0970641291
 20
29.2976102574
 10
34.1839912108
 20
29.2944781998
 10
34.2706899284
 20
29.2896799135
 10
34.3570644724
 20
29.2832207008
 10
34.4430193915
 20
29.2751076999
 10
34.528459698
 20
29.2653498762
 10
34.6132909731
 20
29.2539580129
 10
34.697419471
 20
29.2409446992
 10
34.7807522223
 20
29.2263243158
 10
34.8631971372
 20
29.2101130195
 10
34.944663107
 20
29.1923287251
 10
35.0250601048
 20
29.1729910859
 10
35.1042992849
 20
29.1521214716
 10
35.1822930812
 20
29.129742945
 10
35.2589553039
 20
29.1058802362
 10
35.3342012347
 20
29.0805597155
 10
35.4079477202
 20
29.0538093644
 10
35.4801132643
 20
29.0256587443
 10
35.5506181178
 20
28.996138964
 10
35.6193843668
 20
28.9652826455
 10
35.6863360186
 20
28.9331238875
 10
35.7513990859
 20
28.8996982284
 10
35.8145016685
 20
28.8650426064
 10
35.8755740325
 20
28.8291953189
 10
35.9345486877
 20
28.7921959802
 10
35.991360462
 20
28.7540854778
 10
36.0459465736
 20
28.7149059271
 10
36.0982467
 20
28.6747006249
 10
36.1482030452
 20
28.6335140014
 10
36.195760403
 20
28.5913915716
 10
36.2408662185
 20
28.5483798841
 10
36.2834706459
 20
28.5045264708
 10
36.3235266036
 20
28.4598797934
 10
36.3609898264
 20
28.4144891903
 10
36.3958189141
 20
28.368404822
 10
36.4279753776
 20
28.3216776157
 10
36.4574236812
 20
28.2743592091
 10
36.484131282
 20
28.226501893
 10
36.5054355112
 20
28.183788168
  0
LWPOLYLINE
  5
156
330
1F
100
AcDbEntity
  8
0
  6
Continuous
 62
     7
370
    25
100
AcDbPolyline
 90
       17
 70
   128
 43
0.0
 10
31.4495087343
 20
28.184335681
 10
31.4643095804
 20
28.2144595448
 10
31.4903272749
 20
28.2624433467
 10
31.519093336
 20
28.3099014072
 10
31.5505759747
 20
28.3567812811
 10
31.5847404
 20
28.403031162
 10
31.6215488573
 20
28.4485999399
 10
31.6609606701
 20
28.4934372573
 10
31.7029322848
 20
28.5374935651
 10
31.7474173193
 20
28.5807201773
 10
31.7943666137
 20
28.6230693248
 10
31.843728285
 20
28.6644942081
 10
31.8954477844
 20
28.7049490492
 10
31.9494679574
 20
28.7443891419
 10
32.0057291069
 20
28.7827709017
 10
32.0641690596
 20
28.8200519132
 10
32.1247232343
 20
28.8561909779
  0
LWPOLYLINE
  5
157
330
1F
100
AcDbEntity
  8
0
  6
Continuous
 62
     7
370
    25
100
AcDbPolyline
 90
       87
 70
   128
 43
0.0
 10
31.699115488
 20
27.8385861328
 10
31.7031521797
 20
27.8805941246
 10
31.710406713
 20
27.927393419
 10
31.7205501136
 20
27.9740134162
 10
31.7335694552
 20
28.0203947062
 10
31.7494481466
 20
28.0664781831
 10
31.768165953
 20
28.1122051203
 10
31.7896990212
 20
28.1575172458
 10
31.8140199107
 20
28.2023568162
 10
31.841097628
 20
28.2466666903
 10
31.8708976669
 20
28.2903904017
 10
31.9033820516
 20
28.3334722313
 10
31.9385093858
 20
28.3758572778
 10
31.9762349048
 20
28.4174915278
 10
32.0165105334
 20
28.4583219249
 10
32.0592849462
 20
28.4982964367
 10
32.1045036338
 20
28.5373641219
 10
32.1521089717
 20
28.5754751947
 10
32.2020402943
 20
28.6125810881
 10
32.2542339715
 20
28.6486345164
 10
32.3086234905
 20
28.683589535
 10
32.3651395399
 20
28.7174015989
 10
32.4237100988
 20
28.7500276198
 10
32.4842605276
 20
28.7814260207
 10
32.5467136642
 20
28.8115567892
 10
32.6109899214
 20
28.8403815282
 10
32.6770073888
 20
28.8678635048
 10
32.7446819372
 20
28.8939676975
 10
32.8139273257
 20
28.9186608405
 10
32.8846553113
 20
28.9419114659
 10
32.9567757621
 20
28.9636899445
 10
33.0301967714
 20
28.9839685228
 10
33.1048247752
 20
29.002721359
 10
33.1805646716
 20
29.0199245552
 10
33.2573199413
 20
29.0355561888
 10
33.3349927714
 20
29.0495963394
 10
33.4134841798
 20
29.0620271151
 10
33.4926941409
 20
29.0728326747
 10
33.5725217136
 20
29.0819992482
 10
33.6528651698
 20
29.0895151541
 10
33.7336221239
 20
29.0953708146
 10
33.8146896633
 20
29.0995587675
 10
33.8959644799
 20
29.1020736759
 10
33.977343001
 20
29.102912335
 10
34.0587215222
 20
29.1020736759
 10
34.1399963387
 20
29.0995587675
 10
34.2210638782
 20
29.0953708146
 10
34.3018208323
 20
29.0895151541
 10
34.3821642885
 20
29.0819992482
 10
34.4619918612
 20
29.0728326747
 10
34.5412018223
 20
29.0620271151
 10
34.6196932306
 20
29.0495963394
 10
34.6973660608
 20
29.0355561888
 10
34.7741213305
 20
29.0199245552
 10
34.8498612268
 20
29.002721359
 10
34.9244892307
 20
28.9839685228
 10
34.99791024
 20
28.9636899445
 10
35.0700306908
 20
28.9419114659
 10
35.1407586764
 20
28.9186608405
 10
35.2100040648
 20
28.8939676975
 10
35.2776786133
 20
28.8678635048
 10
35.3436960807
 20
28.8403815282
 10
35.4079723379
 20
28.8115567892
 10
35.4704254744
 20
28.7814260207
 10
35.5309759033
 20
28.7500276198
 10
35.5895464621
 20
28.7174015989
 10
35.6460625116
 20
28.683589535
 10
35.7004520306
 20
28.6486345164
 10
35.7526457078
 20
28.6125810881
 10
35.8025770303
 20
28.5754751947
 10
35.8501823683
 20
28.5373641219
 10
35.8954010559
 20
28.4982964367
 10
35.9381754687
 20
28.4583219249
 10
35.9784510973
 20
28.4174915278
 10
36.0161766163
 20
28.3758572778
 10
36.0513039504
 20
28.3334722313
 10
36.0837883352
 20
28.2903904017
 10
36.113588374
 20
28.2466666903
 10
36.1406660914
 20
28.2023568162
 10
36.1649869809
 20
28.1575172458
 10
36.1865200491
 20
28.1122051203
 10
36.2052378555
 20
28.0664781831
 10
36.2211165469
 20
28.0203947062
 10
36.2341358885
 20
27.9740134162
 10
36.2442792891
 20
27.927393419
 10
36.2515338224
 20
27.8805941246
 10
36.2555733271
 20
27.8385449556
  0
LWPOLYLINE
  5
158
330
1F
100
AcDbEntity
  8
0
  6
Continuous
 62
     7
370
    25
100
AcDbPolyline
 90
       85
 70
   128
 43
0.0
 10
31.7076485197
 20
27.8300446722
 10
31.710406713
 20
27.8457393378
 10
31.7205501136
 20
27.8923593351
 10
31.7335694552
 20
27.9387406251
 10
31.7494481466
 20
27.9848241019
 10
31.768165953
 20
28.0305510391
 10
31.7896990212
 20
28.0758631646
 10
31.8140199107
 20
28.120702735
 10
31.841097628
 20
28.1650126091
 10
31.8708976669
 20
28.2087363205
 10
31.9033820516
 20
28.2518181501
 10
31.9385093858
 20
28.2942031966
 10
31.9762349048
 20
28.3358374466
 10
32.0165105334
 20
28.3766678437
 10
32.0592849462
 20
28.4166423555
 10
32.1045036338
 20
28.4557100407
 10
32.1521089717
 20
28.4938211135
 10
32.2020402943
 20
28.5309270069
 10
32.2542339715
 20
28.5669804352
 10
32.3086234905
 20
28.6019354538
 10
32.3651395399
 20
28.6357475177
 10
32.4237100988
 20
28.6683735386
 10
32.4842605276
 20
28.6997719396
 10
32.5467136642
 20
28.7299027081
 10
32.6109899214
 20
28.758727447
 10
32.6770073888
 20
28.7862094237
 10
32.7446819372
 20
28.8123136164
 10
32.8139273257
 20
28.8370067593
 10
32.8846553113
 20
28.8602573847
 10
32.9567757621
 20
28.8820358633
 10
33.0301967714
 20
28.9023144417
 10
33.1048247752
 20
28.9210672778
 10
33.1805646716
 20
28.9382704741
 10
33.2573199413
 20
28.9539021076
 10
33.3349927714
 20
28.9679422582
 10
33.4134841798
 20
28.9803730339
 10
33.4926941409
 20
28.9911785935
 10
33.5725217136
 20
29.000345167
 10
33.6528651698
 20
29.0078610729
 10
33.7336221239
 20
29.0137167334
 10
33.8146896633
 20
29.0179046863
 10
33.8959644799
 20
29.0204195947
 10
33.977343001
 20
29.0212582538
 10
34.0587215222
 20
29.0204195947
 10
34.1399963387
 20
29.0179046863
 10
34.2210638782
 20
29.0137167334
 10
34.3018208323
 20
29.0078610729
 10
34.3821642885
 20
29.000345167
 10
34.4619918612
 20
28.9911785935
 10
34.5412018223
 20
28.9803730339
 10
34.6196932306
 20
28.9679422582
 10
34.6973660608
 20
28.9539021076
 10
34.7741213305
 20
28.9382704741
 10
34.8498612268
 20
28.9210672778
 10
34.9244892307
 20
28.9023144417
 10
34.99791024
 20
28.8820358633
 10
35.0700306908
 20
28.8602573847
 10
35.1407586764
 20
28.8370067593
 10
35.2100040648
 20
28.8123136164
 10
35.2776786133
 20
28.7862094237
 10
35.3436960807
 20
28.758727447
 10
35.4079723379
 20
28.7299027081
 10
35.4704254744
 20
28.6997719396
 10
35.5309759033
 20
28.6683735386
 10
35.5895464621
 20
28.6357475177
 10
35.6460625116
 20
28.6019354538
 10
35.7004520306
 20
28.5669804352
 10
35.7526457078
 20
28.5309270069
 10
35.8025770303
 20
28.4938211135
 10
35.8501823683
 20
28.4557100407
 10
35.8954010559
 20
28.4166423555
 10
35.9381754687
 20
28.3766678437
 10
35.9784510973
 20
28.3358374466
 10
36.0161766163
 20
28.2942031966
 10
36.0513039504
 20
28.2518181501
 10
36.0837883352
 20
28.2087363205
 10
36.113588374
 20
28.1650126091
 10
36.1406660914
 20
28.120702735
 10
36.1649869809
 20
28.0758631646
 10
36.1865200491
 20
28.0305510391
 10
36.2052378555
 20
27.9848241019
 10
36.2211165469
 20
27.9387406251
 10
36.2341358885
 20
27.8923593351
 10
36.2442792891
 20
27.8457393378
 10
36.2469759693
 20
27.8304163357
  0
ARC
  5
159
330
1F
100
AcDbEntity
  8
0
  6
Continuous
 62
     7
370
    25
100
AcDbCircle
 10
35.7973560522
 20
20.6632694117
 30
0.0
 40
0.9149856326639207
100
AcDbArc
 50
353.4125653076
 51
0.7622880517
  0
ARC
  5
15A
330
1F
100
AcDbEntity
  8
0
  6
Continuous
 62
     7
370
    25
100
AcDbCircle
 10
32.1567705519
 20
20.6632496387
 30
0.0
 40
0.9144265476570771
100
AcDbArc
 50
179.2360068175
 51
186.1497811739
  0
SPLINE
  5
15B
330
1F
100
AcDbEntity
  8
0
  6
Continuous
 62
     7
370
    25
100
AcDbSpline
210
0.0
220
0.0
230
1.0
 70
    11
 71
     3
 72
    26
 73
    22
 74
     0
 42
0.00000001
 43
0.00000001
 40
0.0
 40
0.0
 40
0.0
 40
0.0
 40
0.0536750643289565
 40
0.1073496429989192
 40
0.1610368245232679
 40
0.2147322126651427
 40
0.2684139093946442
 40
0.3220813954451787
 40
0.3757563163972584
 40
0.4294487206345758
 40
0.4831413779985544
 40
0.5368166456411934
 40
0.590484029855956
 40
0.644165336701514
 40
0.6978606434325789
 40
0.751548178537019
 40
0.8052183088844896
 40
0.8588885589374468
 40
0.9125762604136118
 40
0.9662715254958685
 40
1.0
 40
1.0
 40
1.0
 40
1.0
 10
32.09698462540845
 20
19.38805483971719
 30
0.0
 10
32.09638401936357
 20
19.38152058790005
 30
0.0
 10
32.09518281270817
 20
19.36845214338854
 30
0.0
 10
32.08584683398811
 20
19.35531201900228
 30
0.0
 10
32.07217922572058
 20
19.34902025006474
 30
0.0
 10
32.05524447581771
 20
19.35064160268739
 30
0.0
 10
32.03716318713125
 20
19.35994623391618
 30
0.0
 10
32.01994422100051
 20
19.3759078614258
 30
0.0
 10
32.00549005136536
 20
19.39669661481096
 30
0.0
 10
31.9953459010881
 20
19.41993033884055
 30
0.0
 10
31.99058029901359
 20
19.44294243407458
 30
0.0
 10
31.99168679365345
 20
19.46310862792143
 30
0.0
 10
31.99854813966531
 20
19.47816413383857
 30
0.0
 10
32.01045244614932
 20
19.48645097011291
 30
0.0
 10
32.02614434057974
 20
19.48708110502767
 30
0.0
 10
32.0439255498349
 20
19.48002005365265
 30
0.0
 10
32.06180602633849
 20
19.46608793187431
 30
0.0
 10
32.0777742638067
 20
19.44681972219296
 30
0.0
 10
32.08984685564369
 20
19.42441422019433
 30
0.0
 10
32.09611986831486
 20
19.40396396626798
 30
0.0
 10
32.09674387918848
 20
19.39248390090505
 30
0.0
 10
32.09698462540845
 20
19.38805483971719
 30
0.0
  0
SPLINE
  5
15C
330
1F
100
AcDbEntity
  8
0
  6
Continuous
 62
     7
370
    25
100
AcDbSpline
210
0.0
220
0.0
230
1.0
 70
     8
 71
     3
 72
    14
 73
    10
 74
     0
 42
0.00000001
 43
0.00000001
 40
0.0
 40
0.0
 40
0.0
 40
0.0
 40
0.1531242571147277
 40
0.3062471287411772
 40
0.4594059537985056
 40
0.612588190699452
 40
0.7657313687306028
 40
0.9188340065279114
 40
1.0
 40
1.0
 40
1.0
 40
1.0
 10
36.63750998950869
 20
20.16777895866654
 30
0.0
 10
36.63731867097776
 20
20.16045322230539
 30
0.0
 10
36.63693603564696
 20
20.14580181586733
 30
0.0
 10
36.63391345864648
 20
20.12029916110381
 30
0.0
 10
36.62935348430655
 20
20.0958019823031
 30
0.0
 10
36.62345762167689
 20
20.07451971189587
 30
0.0
 10
36.61693405739064
 20
20.05950380716587
 30
0.0
 10
36.61126520652238
 20
20.05189050868437
 30
0.0
 10
36.60849089898759
 20
20.05284223705597
 30
0.0
 10
36.60752969719955
 20
20.05317197808181
 30
0.0
  0
SPLINE
  5
15D
330
1F
100
AcDbEntity
  8
0
  6
Continuous
 62
     7
370
    25
100
AcDbSpline
210
0.0
220
0.0
230
1.0
 70
     8
 71
     3
 72
    14
 73
    10
 74
     0
 42
0.00000001
 43
0.00000001
 40
0.0
 40
0.0
 40
0.0
 40
0.0
 40
0.0398195558315858
 40
0.2006802876897308
 40
0.3614889207425838
 40
0.52227393540812
 40
0.6831006616351458
 40
0.8439693308752207
 40
1.0
 40
1.0
 40
1.0
 40
1.0
 10
36.60186532404614
 20
20.06007051070957
 30
0.0
 10
36.60151742459708
 20
20.06074118572527
 30
0.0
 10
36.59976410113415
 20
20.06412121476592
 30
0.0
 10
36.59862581423265
 20
20.07768649803255
 30
0.0
 10
36.5989640806372
 20
20.09892042967296
 30
0.0
 10
36.60182996465248
 20
20.12383031336854
 30
0.0
 10
36.60661964424328
 20
20.14867327187501
 30
0.0
 10
36.61269139315575
 20
20.17131379074709
 30
0.0
 10
36.61702053218306
 20
20.18175256234959
 30
0.0
 10
36.61915205591122
 20
20.18689226546915
 30
0.0
  0
ARC
  5
15E
330
1F
100
AcDbEntity
  8
0
  6
Continuous
 62
     7
370
    25
100
AcDbCircle
 10
32.1576433258
 20
15.1516490604
 30
0.0
 40
0.915300330813226
100
AcDbArc
 50
180.0065873006
 51
186.5571611202
  0
ARC
  5
15F
330
1F
100
AcDbEntity
  8
0
  6
Continuous
 62
     7
370
    25
100
AcDbCircle
 10
35.7967453627
 20
15.1516704101
 30
0.0
 40
0.9155976470561924
100
AcDbArc
 50
353.7560521037
 51
359.9920788316
  0
LWPOLYLINE
  5
160
330
1F
100
AcDbEntity
  8
0
  6
Continuous
 62
     7
370
    25
100
AcDbPolyline
 90
       95
 70
   128
 43
0.0
 10
36.712343001
 20
25.5232140755
 10
36.7562726511
 20
25.4984882409
 10
36.8162640563
 20
25.4626730176
 10
36.8761855141
 20
25.424533709
 10
36.935967159
 20
25.3841147835
 10
36.9955392881
 20
25.3414633681
 10
37.0548324429
 20
25.2966291922
 10
37.1137774905
 20
25.2496645305
 10
37.1723057033
 20
25.2006241417
 10
37.2303488403
 20
25.1495652048
 10
37.2878392256
 20
25.0965472521
 10
37.3447098281
 20
25.0416321002
 10
37.4008943391
 20
24.9848837777
 10
37.4563272501
 20
24.9263684507
 10
37.5109439287
 20
24.8661543453
 10
37.5646806944
 20
24.8043116686
 10
37.6174748925
 20
24.7409125263
 10
37.6692649673
 20
24.676030839
 10
37.7199905338
 20
24.6097422558
 10
37.7695924485
 20
24.5421240663
 10
37.8180128776
 20
24.4732551103
 10
37.865195365
 20
24.4032156858
 10
37.9110848982
 20
24.3320874557
 10
37.955627972
 20
24.2599533524
 10
37.9987726511
 20
24.1868974809
 10
38.0404686308
 20
24.1130050212
 10
38.0806672954
 20
24.0383621285
 10
38.1193217751
 20
23.9630558332
 10
38.1563870006
 20
23.887173939
 10
38.1918197553
 20
23.8108049208
 10
38.2255787263
 20
23.7340378214
 10
38.2576245521
 20
23.6569621479
 10
38.2879198688
 20
23.579667767
 10
38.3164293533
 20
23.5022448006
 10
38.343119765
 20
23.4247835203
 10
38.3679599838
 20
23.3473742426
 10
38.3909210474
 20
23.2701072232
 10
38.411976184
 20
23.1930725519
 10
38.4311008443
 20
23.1163600478
 10
38.44827273
 20
23.0400591543
 10
38.4634718192
 20
22.9642588346
 10
38.4766803905
 20
22.8890474687
 10
38.4878830434
 20
22.8145127496
 10
38.497066716
 20
22.7407415815
 10
38.5042207006
 20
22.6678199782
 10
38.509336656
 20
22.5958329631
 10
38.5124086172
 20
22.5248644698
 10
38.5134330024
 20
22.4549972444
 10
38.5124086172
 20
22.386312749
 10
38.509336656
 20
22.3188910665
 10
38.5042207006
 20
22.2528108077
 10
38.497066716
 20
22.1881490193
 10
38.4878830434
 20
22.1249810939
 10
38.4766803905
 20
22.0633806825
 10
38.4634718192
 20
22.0034196084
 10
38.44827273
 20
21.9451677837
 10
38.4311008443
 20
21.8886931272
 10
38.411976184
 20
21.834061486
 10
38.3909210474
 20
21.781336558
 10
38.3679599838
 20
21.7305798183
 10
38.343119765
 20
21.6818504468
 10
38.3164293533
 20
21.6352052598
 10
38.2879198688
 20
21.5906986436
 10
38.2576245521
 20
21.5483824909
 10
38.2255787263
 20
21.5083061403
 10
38.1918197553
 20
21.4705163192
 10
38.1563870006
 20
21.4350570888
 10
38.1193217751
 20
21.4019697929
 10
38.0806672954
 20
21.3712930099
 10
38.0404686308
 20
21.3430625075
 10
37.9987726511
 20
21.3173112013
 10
37.955627972
 20
21.294069116
 10
37.9110848982
 20
21.2733633509
 10
37.865195365
 20
21.2552180481
 10
37.8180128776
 20
21.2396543641
 10
37.7695924485
 20
21.2266904455
 10
37.7199905338
 20
21.2163414076
 10
37.6692649673
 20
21.208619317
 10
37.6174748925
 20
21.2035331773
 10
37.5646806944
 20
21.2010889186
 10
37.5109439287
 20
21.2012893909
 10
37.4563272501
 20
21.2041343605
 10
37.4008943391
 20
21.2096205102
 10
37.3447098281
 20
21.2177414433
 10
37.2878392256
 20
21.2284876914
 10
37.2303488403
 20
21.2418467247
 10
37.1723057033
 20
21.2578029672
 10
37.1137774905
 20
21.2763378147
 10
37.0548324429
 20
21.2974296562
 10
36.9955392881
 20
21.3210538998
 10
36.935967159
 20
21.3471830005
 10
36.8761855141
 20
21.375786493
 10
36.8162640563
 20
21.406831027
 10
36.7562726511
 20
21.4402804058
 10
36.7559870631
 20
21.440445299
  0
LWPOLYLINE
  5
161
330
1F
100
AcDbEntity
  8
0
  6
Continuous
 62
     7
370
    25
100
AcDbPolyline
 90
       93
 70
   128
 43
0.0
 10
36.712343001
 20
21.4656717416
 10
36.7506367701
 20
21.4438367711
 10
36.8100402689
 20
21.4119129754
 10
36.8693375582
 20
21.3824167838
 10
36.9284579723
 20
21.3553833477
 10
36.9873310562
 20
21.3308448833
 10
37.0458866499
 20
21.3088306336
 10
37.1040549714
 20
21.2893668333
 10
37.1617667006
 20
21.2724766778
 10
37.2189530612
 20
21.2581802954
 10
37.2755459033
 20
21.2464947234
 10
37.3314777839
 20
21.2374338878
 10
37.3866820481
 20
21.2310085864
 10
37.4410929079
 20
21.2272264765
 10
37.4946455208
 20
21.2260920652
 10
37.5472760671
 20
21.2276067045
 10
37.5989218262
 20
21.2317685893
 10
37.6495212506
 20
21.2385727599
 10
37.6990140402
 20
21.2480111075
 10
37.7473412135
 20
21.2600723843
 10
37.7944451779
 20
21.2747422167
 10
37.840269799
 20
21.2920031224
 10
37.8847604665
 20
21.3118345311
 10
37.9278641601
 20
21.3342128095
 10
37.9695295124
 20
21.3591112889
 10
38.0097068699
 20
21.3865002974
 10
38.0483483526
 20
21.4163471948
 10
38.0854079106
 20
21.4486164122
 10
38.1208413793
 20
21.4832694937
 10
38.1546065321
 20
21.5202651425
 10
38.1866631304
 20
21.5595592703
 10
38.2169729716
 20
21.6011050494
 10
38.2454999351
 20
21.6448529691
 10
38.2722100246
 20
21.690750894
 10
38.2970714093
 20
21.7387441267
 10
38.3200544614
 20
21.7887754729
 10
38.3411317915
 20
21.8407853091
 10
38.3602782814
 20
21.8947116544
 10
38.3774711139
 20
21.9504902436
 10
38.3926897998
 20
22.0080546044
 10
38.4059162029
 20
22.0673361361
 10
38.417134561
 20
22.128264192
 10
38.426331505
 20
22.1907661629
 10
38.4334960746
 20
22.2547675639
 10
38.4386197317
 20
22.3201921235
 10
38.4416963704
 20
22.3869618739
 10
38.4427223242
 20
22.4549972444
 10
38.4416963704
 20
22.5242171559
 10
38.4386197317
 20
22.5945391178
 10
38.4334960746
 20
22.665879326
 10
38.426331505
 20
22.738152763
 10
38.417134561
 20
22.8112732993
 10
38.4059162029
 20
22.8851537958
 10
38.3926897998
 20
22.9597062075
 10
38.3774711139
 20
23.0348416891
 10
38.3602782814
 20
23.1104707002
 10
38.3411317915
 20
23.1865031121
 10
38.3200544614
 20
23.2628483157
 10
38.2970714093
 20
23.339415329
 10
38.2722100246
 20
23.4161129055
 10
38.2454999351
 20
23.4928496434
 10
38.2169729716
 20
23.5695340939
 10
38.1866631304
 20
23.6460748709
 10
38.1546065321
 20
23.7223807592
 10
38.1208413793
 20
23.7983608236
 10
38.0854079106
 20
23.8739245173
 10
38.0483483526
 20
23.9489817896
 10
38.0097068699
 20
24.0234431933
 10
37.9695295124
 20
24.0972199913
 10
37.9278641601
 20
24.1702242625
 10
37.8847604665
 20
24.2423690062
 10
37.840269799
 20
24.3135682463
 10
37.7944451779
 20
24.3837371332
 10
37.7473412135
 20
24.4527920454
 10
37.6990140402
 20
24.5206506888
 10
37.6495212506
 20
24.587232195
 10
37.5989218262
 20
24.6524572175
 10
37.5472760671
 20
24.7162480264
 10
37.4946455208
 20
24.7785286011
 10
37.4410929079
 20
24.8392247206
 10
37.3866820481
 20
24.8982640522
 10
37.3314777839
 20
24.9555762376
 10
37.2755459033
 20
25.0110929767
 10
37.2189530612
 20
25.0647481093
 10
37.1617667006
 20
25.1164776935
 10
37.1040549714
 20
25.1662200822
 10
37.0458866499
 20
25.2139159964
 10
36.9873310562
 20
25.2595085961
 10
36.9284579723
 20
25.3029435476
 10
36.8693375582
 20
25.3441690886
 10
36.8100402689
 20
25.3831360901
 10
36.7506367701
 20
25.4197981141
 10
36.712343001
 20
25.4421761883
  0
LWPOLYLINE
  5
162
330
1F
100
AcDbEntity
  8
0
  6
Continuous
 62
     7
370
    25
100
AcDbPolyline
 90
       76
 70
   128
 43
0.0
 10
36.712343001
 20
25.7644075446
 10
36.746815718
 20
25.7503810651
 10
36.8063878471
 20
25.7242519644
 10
36.866169492
 20
25.6956484718
 10
36.9260909498
 20
25.6646039379
 10
36.986082355
 20
25.6311545591
 10
37.0460737602
 20
25.5953393358
 10
37.105995218
 20
25.5572000271
 10
37.1657768629
 20
25.5167811017
 10
37.2253489919
 20
25.4741296862
 10
37.2846421468
 20
25.4292955103
 10
37.3435871943
 20
25.3823308487
 10
37.4021154072
 20
25.3332904599
 10
37.4601585442
 20
25.2822315229
 10
37.5176489295
 20
25.2292135702
 10
37.5745195319
 20
25.1742984183
 10
37.630704043
 20
25.1175500959
 10
37.686136954
 20
25.0590347688
 10
37.7407536326
 20
24.9988206635
 10
37.7944903983
 20
24.9369779868
 10
37.8472845964
 20
24.8735788445
 10
37.8990746711
 20
24.8086971572
 10
37.9498002377
 20
24.742408574
 10
37.9994021524
 20
24.6747903845
 10
38.0478225814
 20
24.6059214284
 10
38.0950050689
 20
24.535882004
 10
38.1408946021
 20
24.4647537739
 10
38.1854376759
 20
24.3926196705
 10
38.228582355
 20
24.3195637991
 10
38.2702783347
 20
24.2456713394
 10
38.3104769993
 20
24.1710284467
 10
38.349131479
 20
24.0957221514
 10
38.3861967044
 20
24.0198402572
 10
38.4216294592
 20
23.9434712389
 10
38.4553884302
 20
23.8667041396
 10
38.487434256
 20
23.7896284661
 10
38.5177295727
 20
23.7123340852
 10
38.5462390572
 20
23.6349111188
 10
38.5729294688
 20
23.5574498385
 10
38.5977696877
 20
23.4800405608
 10
38.6207307512
 20
23.4027735413
 10
38.6417858879
 20
23.3257388701
 10
38.6609105482
 20
23.249026366
 10
38.6780824338
 20
23.1727254724
 10
38.6932815231
 20
23.0969251528
 10
38.7064900944
 20
23.0217137869
 10
38.7176927473
 20
22.9471790678
 10
38.7268764199
 20
22.8734078997
 10
38.7340304045
 20
22.8004862964
 10
38.7391463599
 20
22.7284992813
 10
38.7422183211
 20
22.657530788
 10
38.7432427062
 20
22.5876635626
 10
38.7422183211
 20
22.5189790671
 10
38.7391463599
 20
22.4515573847
 10
38.7340304045
 20
22.3854771259
 10
38.7268764199
 20
22.3208153375
 10
38.7176927473
 20
22.257647412
 10
38.7064900944
 20
22.1960470006
 10
38.6932815231
 20
22.1360859266
 10
38.6780824338
 20
22.0778341018
 10
38.6609105482
 20
22.0213594454
 10
38.6417858879
 20
21.9667278042
 10
38.6207307512
 20
21.9140028762
 10
38.5977696877
 20
21.8632461365
 10
38.5729294688
 20
21.814516765
 10
38.5462390572
 20
21.767871578
 10
38.5177295727
 20
21.7233649618
 10
38.487434256
 20
21.681048809
 10
38.4553884302
 20
21.6409724585
 10
38.4216294592
 20
21.6031826374
 10
38.3861967044
 20
21.567723407
 10
38.349131479
 20
21.5346361111
 10
38.3104769993
 20
21.5039593281
 10
38.2702783347
 20
21.4757288257
 10
38.228582355
 20
21.4499775194
 10
38.2284813803
 20
21.4499192185
  0
LWPOLYLINE
  5
163
330
1F
100
AcDbEntity
  8
0
  6
Continuous
 62
     7
370
    25
100
AcDbPolyline
 90
       40
 70
   128
 43
0.0
 10
38.0410856725
 20
22.6868571482
 10
38.0400143214
 20
22.7028005618
 10
38.0368280155
 20
22.7195680051
 10
38.0316092785
 20
22.73672521
 10
38.0244932728
 20
22.753827814
 10
38.0156642994
 20
22.7704328686
 10
38.005351024
 20
22.7861103116
 10
37.9938205549
 20
22.8004541055
 10
37.9813715254
 20
22.8130927535
 10
37.9683263587
 20
22.8236989213
 10
37.9550229178
 20
22.8319979147
 10
37.9418057548
 20
22.8377747941
 10
37.9290171872
 20
22.8408799415
 10
37.9169884324
 20
22.8412329351
 10
37.9060310287
 20
22.8388246325
 10
37.8964287671
 20
22.8337174076
 10
37.8884303411
 20
22.8260435348
 10
37.8822429059
 20
22.8160017634
 10
37.8780267126
 20
22.8038521699
 10
37.8758909585
 20
22.7899094225
 10
37.8758909585
 20
22.7745346309
 10
37.8780267126
 20
22.7581259943
 10
37.8822429059
 20
22.7411084877
 10
37.8884303411
 20
22.7239228555
 10
37.8964287671
 20
22.7070141966
 10
37.9060310287
 20
22.6908204365
 10
37.9169884324
 20
22.6757609849
 10
37.9290171872
 20
22.6622258738
 10
37.9418057548
 20
22.6505656554
 10
37.9550229178
 20
22.6410823232
 10
37.9683263587
 20
22.6340214907
 10
37.9813715254
 20
22.6295660296
 10
37.9938205549
 20
22.627831334
 10
38.005351024
 20
22.6288623317
 10
38.0156642994
 20
22.6326323204
 10
38.0244932728
 20
22.6390436592
 10
38.0316092785
 20
22.647930298
 10
38.0368280155
 20
22.6590620774
 10
38.0400143214
 20
22.6721506902
 10
38.0410856725
 20
22.6868571482
  0
LWPOLYLINE
  5
164
330
1F
100
AcDbEntity
  8
0
  6
Continuous
 62
     7
370
    25
100
AcDbPolyline
 90
       33
 70
   128
 43
0.0
 10
32.086495371
 20
22.0167545984
 10
32.092024438
 20
22.0239930641
 10
32.0956851239
 20
22.0333553127
 10
32.0973367506
 20
22.0444815583
 10
32.0969158471
 20
22.0569442255
 10
32.0944385884
 20
22.0702643811
 10
32.0900001743
 20
22.0839301388
 10
32.0837711703
 20
22.0974163313
 10
32.0759909538
 20
22.1102046918
 10
32.066958514
 20
22.1218037707
 10
32.0570209626
 20
22.131767822
 10
32.0465601941
 20
22.1397139327
 10
32.0359782098
 20
22.1453367384
 10
32.0256816697
 20
22.1484201576
 10
32.0160662639
 20
22.1488456963
 10
32.007501507
 20
22.1465970014
 10
32.0003165379
 20
22.1417604889
 10
31.994787471
 20
22.1345220232
 10
31.9911267851
 20
22.1251597746
 10
31.9894751584
 20
22.114033529
 10
31.9898960619
 20
22.1015708618
 10
31.9923733205
 20
22.0882507063
 10
31.9968117347
 20
22.0745849485
 10
32.0030407386
 20
22.061098756
 10
32.0108209552
 20
22.0483103956
 10
32.0198533949
 20
22.0367113166
 10
32.0297909464
 20
22.0267472653
 10
32.0402517149
 20
22.0188011546
 10
32.0508336991
 20
22.013178349
 10
32.0611302393
 20
22.0100949297
 10
32.0707456451
 20
22.009669391
 10
32.079310402
 20
22.0119180859
 10
32.086495371
 20
22.0167545984
  0
LINE
  5
165
330
1F
100
AcDbEntity
  8
0
  6
Continuous
 62
     7
370
    25
100
AcDbLine
 10
32.0481322322
 20
22.1203636603
 30
0.0
 11
32.0128949702
 21
22.1235149631
 31
0.0
  0
LINE
  5
166
330
1F
100
AcDbEntity
  8
0
  6
Continuous
 62
     7
370
    25
100
AcDbLine
 10
32.0081686925
 20
22.0824088465
 30
0.0
 11
32.0128949702
 21
22.1235149631
 31
0.0
  0
LINE
  5
167
330
1F
100
AcDbEntity
  8
0
  6
Continuous
 62
     7
370
    25
100
AcDbLine
 10
32.0386796768
 20
22.038151427
 30
0.0
 11
32.0081686925
 21
22.0824088465
 31
0.0
  0
LINE
  5
168
330
1F
100
AcDbEntity
  8
0
  6
Continuous
 62
     7
370
    25
100
AcDbLine
 10
32.0386796768
 20
22.038151427
 30
0.0
 11
32.0739169388
 21
22.0350001242
 31
0.0
  0
LINE
  5
169
330
1F
100
AcDbEntity
  8
0
  6
Continuous
 62
     7
370
    25
100
AcDbLine
 10
32.0786432165
 20
22.0761062409
 30
0.0
 11
32.0739169388
 21
22.0350001242
 31
0.0
  0
LINE
  5
16A
330
1F
100
AcDbEntity
  8
0
  6
Continuous
 62
     7
370
    25
100
AcDbLine
 10
32.0786432165
 20
22.0761062409
 30
0.0
 11
32.0481322322
 21
22.1203636603
 31
0.0
  0
LINE
  5
16B
330
1F
100
AcDbEntity
  8
0
  6
Continuous
 62
     7
370
    25
100
AcDbLine
 10
32.0768101833
 20
22.0601636999
 30
0.0
 11
32.0386796768
 21
22.038151427
 31
0.0
  0
LINE
  5
16C
330
1F
100
AcDbEntity
  8
0
  6
Continuous
 62
     7
370
    25
100
AcDbLine
 10
32.0554722786
 20
22.1097166255
 30
0.0
 11
32.0081686925
 21
22.0824088465
 31
0.0
  0
LWPOLYLINE
  5
16D
330
1F
100
AcDbEntity
  8
0
  6
Continuous
 62
     7
370
    25
100
AcDbPolyline
 90
       33
 70
   128
 43
0.0
 10
36.6367451586
 20
22.7964919304
 10
36.6381674057
 20
22.8109325689
 10
36.6388588298
 20
22.8244554496
 10
36.6387928599
 20
22.8365408957
 10
36.6379720311
 20
22.8467244702
 10
36.6364278874
 20
22.8546148242
 10
36.6342197694
 20
22.8599087358
 10
36.6314325339
 20
22.8624027628
 10
36.6281732927
 20
22.8620010612
 10
36.6245672966
 20
22.8587190683
 10
36.6207531221
 20
22.8526829091
 10
36.6168773457
 20
22.8441245498
 10
36.6130889114
 20
22.8333728835
 10
36.6095334066
 20
22.8208410906
 10
36.6063474672
 20
22.8070107608
 10
36.6036535273
 20
22.7924133861
 10
36.6015551133
 20
22.7776099353
 10
36.6001328662
 20
22.7631692967
 10
36.599441442
 20
22.749646416
 10
36.599507412
 20
22.73756097
 10
36.6003282408
 20
22.7273773954
 10
36.6018723845
 20
22.7194870414
 10
36.6040805025
 20
22.7141931299
 10
36.606867738
 20
22.7116991029
 10
36.6101269792
 20
22.7121008044
 10
36.6137329753
 20
22.7153827974
 10
36.6175471498
 20
22.7214189566
 10
36.6214229261
 20
22.7299773158
 10
36.6252113605
 20
22.7407289821
 10
36.6287668653
 20
22.7532607751
 10
36.6319528047
 20
22.7670911048
 10
36.6346467446
 20
22.7816884795
 10
36.6367451586
 20
22.7964919304
  0
LINE
  5
16E
330
1F
100
AcDbEntity
  8
0
  6
Continuous
 62
     7
370
    25
100
AcDbLine
 10
36.6184539263
 20
22.8296693267
 30
0.0
 11
36.6066913583
 21
22.7803659008
 31
0.0
  0
LINE
  5
16F
330
1F
100
AcDbEntity
  8
0
  6
Continuous
 62
     7
370
    25
100
AcDbLine
 10
36.6073875679
 20
22.7377475069
 30
0.0
 11
36.6066913583
 21
22.7803659008
 31
0.0
  0
LINE
  5
170
330
1F
100
AcDbEntity
  8
0
  6
Continuous
 62
     7
370
    25
100
AcDbLine
 10
36.6198463455
 20
22.7444325389
 30
0.0
 11
36.6073875679
 21
22.7377475069
 31
0.0
  0
LINE
  5
171
330
1F
100
AcDbEntity
  8
0
  6
Continuous
 62
     7
370
    25
100
AcDbLine
 10
36.6198463455
 20
22.7444325389
 30
0.0
 11
36.6316089136
 21
22.7937359648
 31
0.0
  0
LINE
  5
172
330
1F
100
AcDbEntity
  8
0
  6
Continuous
 62
     7
370
    25
100
AcDbLine
 10
36.630912704
 20
22.8363543587
 30
0.0
 11
36.6316089136
 21
22.7937359648
 31
0.0
  0
LINE
  5
173
330
1F
100
AcDbEntity
  8
0
  6
Continuous
 62
     7
370
    25
100
AcDbLine
 10
36.630912704
 20
22.8363543587
 30
0.0
 11
36.6184539263
 21
22.8296693267
 31
0.0
  0
LINE
  5
174
330
1F
100
AcDbEntity
  8
0
  6
Continuous
 62
     7
370
    25
100
AcDbLine
 10
36.6072465234
 20
22.746381527
 30
0.0
 11
36.6198463455
 21
22.7444325389
 31
0.0
  0
LINE
  5
175
330
1F
100
AcDbEntity
  8
0
  6
Continuous
 62
     7
370
    25
100
AcDbLine
 10
36.6106544203
 20
22.7969772849
 30
0.0
 11
36.6316089136
 21
22.7937359648
 31
0.0
  0
LWPOLYLINE
  5
176
330
1F
100
AcDbEntity
  8
0
  6
Continuous
 62
     7
370
    25
100
AcDbPolyline
 90
       33
 70
   128
 43
0.0
 10
36.6385757468
 20
20.1561412379
 10
36.6389232105
 20
20.1690699549
 10
36.638510806
 20
20.1803413821
 10
36.6373543818
 20
20.1895223647
 10
36.6354983787
 20
20.1962600829
 10
36.6330141217
 20
20.2002956099
 10
36.6299970796
 20
20.2014738625
 10
36.6265631955
 20
20.1997495614
 10
36.6228444316
 20
20.1951889702
 10
36.6189836981
 20
20.1879673502
 10
36.6151293607
 20
20.1783622239
 10
36.6114295394
 20
20.1667427112
 10
36.6080264163
 20
20.1535553432
 10
36.6050507715
 20
20.1393069032
 10
36.6026169574
 20
20.1245449507
 10
36.600818504
 20
20.1098367794
 10
36.599724525
 20
20.0957476158
 10
36.5993770614
 20
20.0828188988
 10
36.5997894659
 20
20.0715474717
 10
36.6009458901
 20
20.062366489
 10
36.6028018932
 20
20.0556287709
 10
36.6052861501
 20
20.0515932439
 10
36.6083031923
 20
20.0504149912
 10
36.6117370764
 20
20.0521392924
 10
36.6154558402
 20
20.0566998835
 10
36.6193165738
 20
20.0639215036
 10
36.6231709112
 20
20.0735266298
 10
36.6268707325
 20
20.0851461426
 10
36.6302738556
 20
20.0983335106
 10
36.6332495004
 20
20.1125819506
 10
36.6356833145
 20
20.127343903
 10
36.6374817678
 20
20.1420520744
 10
36.6385757468
 20
20.1561412379
  0
LINE
  5
177
330
1F
100
AcDbEntity
  8
0
  6
Continuous
 62
     7
370
    25
100
AcDbLine
 10
36.6145380564
 20
20.1577155989
 30
0.0
 11
36.6053951456
 21
20.1045625076
 31
0.0
  0
LINE
  5
178
330
1F
100
AcDbEntity
  8
0
  6
Continuous
 62
     7
370
    25
100
AcDbLine
 10
36.6100072251
 20
20.0727913356
 30
0.0
 11
36.6053951456
 21
20.1045625076
 31
0.0
  0
LINE
  5
179
330
1F
100
AcDbEntity
  8
0
  6
Continuous
 62
     7
370
    25
100
AcDbLine
 10
36.6237622155
 20
20.0941732549
 30
0.0
 11
36.6100072251
 21
20.0727913356
 31
0.0
  0
LINE
  5
17A
330
1F
100
AcDbEntity
  8
0
  6
Continuous
 62
     7
370
    25
100
AcDbLine
 10
36.6237622155
 20
20.0941732549
 30
0.0
 11
36.6329051263
 21
20.1473263462
 31
0.0
  0
LINE
  5
17B
330
1F
100
AcDbEntity
  8
0
  6
Continuous
 62
     7
370
    25
100
AcDbLine
 10
36.6282930467
 20
20.1790975182
 30
0.0
 11
36.6329051263
 21
20.1473263462
 31
0.0
  0
LINE
  5
17C
330
1F
100
AcDbEntity
  8
0
  6
Continuous
 62
     7
370
    25
100
AcDbLine
 10
36.6282930467
 20
20.1790975182
 30
0.0
 11
36.6145380564
 21
20.1577155989
 31
0.0
  0
LINE
  5
17D
330
1F
100
AcDbEntity
  8
0
  6
Continuous
 62
     7
370
    25
100
AcDbLine
 10
36.6065160487
 20
20.0968409571
 30
0.0
 11
36.6237622155
 21
20.0941732549
 31
0.0
  0
LINE
  5
17E
330
1F
100
AcDbEntity
  8
0
  6
Continuous
 62
     7
370
    25
100
AcDbLine
 10
36.6132733405
 20
20.150363065
 30
0.0
 11
36.6329051263
 21
20.1473263462
 31
0.0
  0
LWPOLYLINE
  5
17F
330
1F
100
AcDbEntity
  8
0
  6
Continuous
 62
     7
370
    25
100
AcDbPolyline
 90
       33
 70
   128
 43
0.0
 10
32.0970165419
 20
19.3795090406
 10
32.0972861604
 20
19.3915787765
 10
32.0954851928
 20
19.4046696695
 10
32.0916828494
 20
19.4182786439
 10
32.0860252519
 20
19.4318827145
 10
32.0787298187
 20
19.4449590845
 10
32.0700769092
 20
19.4570052363
 10
32.0603990499
 20
19.467558243
 10
32.0500681555
 20
19.4762125585
 10
32.0394812364
 20
19.4826356023
 10
32.0290451421
 20
19.4865805405
 10
32.0191609257
 20
19.4878957713
 10
32.0102084321
 20
19.486530751
 10
32.0025317008
 20
19.4825379367
 10
31.9964257441
 20
19.4760707701
 10
31.9921252105
 20
19.4673777805
 10
31.9897953671
 20
19.4567930349
 10
31.9895257486
 20
19.444723299
 10
31.9913267161
 20
19.431632406
 10
31.9951290596
 20
19.4180234315
 10
32.0007866571
 20
19.4044193609
 10
32.0080820903
 20
19.3913429909
 10
32.0167349997
 20
19.3792968392
 10
32.026412859
 20
19.3687438325
 10
32.0367437535
 20
19.360089517
 10
32.0473306725
 20
19.3536664731
 10
32.0577667669
 20
19.349721535
 10
32.0676509833
 20
19.3484063042
 10
32.0766034768
 20
19.3497713244
 10
32.0842802082
 20
19.3537641387
 10
32.0903861649
 20
19.3602313054
 10
32.0946866985
 20
19.3689242949
 10
32.0970165419
 20
19.3795090406
  0
LINE
  5
180
330
1F
100
AcDbEntity
  8
0
  6
Continuous
 62
     7
370
    25
100
AcDbLine
 10
32.0285109131
 20
19.4674364333
 30
0.0
 11
32.0054450833
 21
19.4455128696
 31
0.0
  0
LINE
  5
181
330
1F
100
AcDbEntity
  8
0
  6
Continuous
 62
     7
370
    25
100
AcDbLine
 10
32.0203401247
 20
19.396227474
 30
0.0
 11
32.0054450833
 21
19.4455128696
 31
0.0
  0
LINE
  5
182
330
1F
100
AcDbEntity
  8
0
  6
Continuous
 62
     7
370
    25
100
AcDbLine
 10
32.0583009959
 20
19.3688656421
 30
0.0
 11
32.0203401247
 21
19.396227474
 31
0.0
  0
LINE
  5
183
330
1F
100
AcDbEntity
  8
0
  6
Continuous
 62
     7
370
    25
100
AcDbLine
 10
32.0583009959
 20
19.3688656421
 30
0.0
 11
32.0813668256
 21
19.3907892059
 31
0.0
  0
LINE
  5
184
330
1F
100
AcDbEntity
  8
0
  6
Continuous
 62
     7
370
    25
100
AcDbLine
 10
32.0664717843
 20
19.4400746015
 30
0.0
 11
32.0813668256
 21
19.3907892059
 31
0.0
  0
LINE
  5
185
330
1F
100
AcDbEntity
  8
0
  6
Continuous
 62
     7
370
    25
100
AcDbLine
 10
32.0664717843
 20
19.4400746015
 30
0.0
 11
32.0285109131
 21
19.4674364333
 31
0.0
  0
LINE
  5
186
330
1F
100
AcDbEntity
  8
0
  6
Continuous
 62
     7
370
    25
100
AcDbLine
 10
32.0351422118
 20
19.4626566569
 30
0.0
 11
32.0054450833
 21
19.4455128696
 31
0.0
  0
LINE
  5
187
330
1F
100
AcDbEntity
  8
0
  6
Continuous
 62
     7
370
    25
100
AcDbLine
 10
32.0709018655
 20
19.4254161456
 30
0.0
 11
32.0203401247
 21
19.396227474
 31
0.0
  0
ARC
  5
188
330
1F
100
AcDbEntity
  8
0
  6
Continuous
 62
     7
370
    25
100
AcDbCircle
 10
36.9267611398
 20
23.0744255441
 30
0.0
 40
0.2277105708445321
100
AcDbArc
 50
300.2045214048
 51
320.654714228
  0
LWPOLYLINE
  5
189
330
1F
100
AcDbEntity
  8
0
  6
Continuous
 62
     7
370
    25
100
AcDbPolyline
 90
       26
 70
   128
 43
0.0
 10
32.0434059545
 20
19.57125244
 10
31.981481803
 20
19.6081836461
 10
31.9216727816
 20
19.6462588684
 10
31.8640422735
 20
19.6854377564
 10
31.8086513531
 20
19.7256787899
 10
31.7555587213
 20
19.7669393232
 10
31.7048206434
 20
19.8091756301
 10
31.6564908896
 20
19.8523429503
 10
31.6106206778
 20
19.8963955369
 10
31.5672586191
 20
19.9412867049
 10
31.5264506671
 20
19.9869688803
 10
31.4882400681
 20
20.0333936512
 10
31.4526673162
 20
20.0805118186
 10
31.4197701099
 20
20.1282734486
 10
31.3895833123
 20
20.1766279254
 10
31.3621389142
 20
20.2255240049
 10
31.3374659998
 20
20.2749098692
 10
31.3155907166
 20
20.3247331811
 10
31.296536247
 20
20.3749411401
 10
31.2803227842
 20
20.4254805377
 10
31.2669675105
 20
20.4762978146
 10
31.2564845793
 20
20.5273391166
 10
31.2488851
 20
20.5785503523
 10
31.2441771261
 20
20.6298772502
 10
31.2423656471
 20
20.6812654162
 10
31.242343001
 20
20.6876905329
  0
LWPOLYLINE
  5
18A
330
1F
100
AcDbEntity
  8
0
  6
Continuous
 62
     7
370
    25
100
AcDbPolyline
 90
       74
 70
   128
 43
0.0
 10
36.712343001
 20
20.6876905329
 10
36.7121391891
 20
20.6684156085
 10
36.7096032864
 20
20.6170376555
 10
36.7041718486
 20
20.5657345775
 10
36.6958506318
 20
20.5145607433
 10
36.6846484543
 20
20.4635703848
 10
36.6705771879
 20
20.4128175395
 10
36.6536517446
 20
20.3623559931
 10
36.6338900613
 20
20.3122392226
 10
36.6113130807
 20
20.2625203396
 10
36.5859447288
 20
20.2132520343
 10
36.5578118901
 20
20.164486519
 10
36.5269443784
 20
20.1162754734
 10
36.4933749059
 20
20.0686699896
 10
36.4571390481
 20
20.0217205178
 10
36.4182752062
 20
19.9754768132
 10
36.3768245666
 20
19.9299878828
 10
36.3328310569
 20
19.8853019341
 10
36.2863412995
 20
19.8414663231
 10
36.2374045624
 20
19.7985275052
 10
36.1860727066
 20
19.756530985
 10
36.1324001316
 20
19.7155212687
 10
36.0764437172
 20
19.6755418168
 10
36.0182627638
 20
19.6366349976
 10
35.957918929
 20
19.5988420431
 10
35.8954761627
 20
19.5622030047
 10
35.8310006393
 20
19.5267567108
 10
35.764560687
 20
19.492540726
 10
35.6962267163
 20
19.459591311
 10
35.6260711446
 20
19.4279433841
 10
35.5541683197
 20
19.3976304845
 10
35.4805944415
 20
19.3686847365
 10
35.4054274802
 20
19.3411368156
 10
35.3287470949
 20
19.3150159161
 10
35.250634548
 20
19.2903497196
 10
35.17117262
 20
19.2671643664
 10
35.0904455214
 20
19.2454844274
 10
35.0085388034
 20
19.225332878
 10
34.9255392672
 20
19.2067310741
 10
34.8415348722
 20
19.189698729
 10
34.7566146429
 20
19.1742538929
 10
34.6708685742
 20
19.1604129336
 10
34.5843875361
 20
19.1481905192
 10
34.4972631775
 20
19.1375996025
 10
34.4095878294
 20
19.1286514072
 10
34.3214544063
 20
19.1213554163
 10
34.2329563083
 20
19.1157193619
 10
34.144187322
 20
19.1117492167
 10
34.0552415211
 20
19.1094491881
 10
33.9662131666
 20
19.1088217136
 10
33.877196607
 20
19.1098674582
 10
33.7882861784
 20
19.1125853137
 10
33.6995761043
 20
19.1169723997
 10
33.611160396
 20
19.123024067
 10
33.5231327526
 20
19.1307339024
 10
33.4355864622
 20
19.1400937353
 10
33.3486143028
 20
19.1510936464
 10
33.2623084437
 20
19.1637219786
 10
33.1767603482
 20
19.1779653489
 10
33.0920606768
 20
19.1938086628
 10
33.0082991905
 20
19.2112351301
 10
32.9255646563
 20
19.230226283
 10
32.8439447528
 20
19.2507619956
 10
32.7635259772
 20
19.2728205048
 10
32.6843935542
 20
19.2963784341
 10
32.6066313448
 20
19.3214108177
 10
32.5303217583
 20
19.3478911274
 10
32.4555456643
 20
19.3757913004
 10
32.3823823074
 20
19.4050817693
 10
32.3109092231
 20
19.4357314932
 10
32.2412021556
 20
19.4677079909
 10
32.1733349775
 20
19.5009773751
 10
32.1073796115
 20
19.5355043882
 10
32.0434059545
 20
19.57125244
  0
LWPOLYLINE
  5
18B
330
1F
100
AcDbEntity
  8
0
  6
Continuous
 62
     7
370
    25
100
AcDbPolyline
 90
       99
 70
   128
 43
0.0
 10
31.2424252959
 20
23.0548423465
 10
31.2429091328
 20
23.010470779
 10
31.2461692911
 20
22.9591064424
 10
31.2523238331
 20
22.9078305826
 10
31.2613662363
 20
22.8566975397
 10
31.2732869179
 20
22.8057615024
 10
31.288073245
 20
22.7550764505
 10
31.3057095477
 20
22.7046960978
 10
31.3261771356
 20
22.6546738355
 10
31.3494543181
 20
22.605062675
 10
31.3755164271
 20
22.5559151921
 10
31.4043358429
 20
22.5072834713
 10
31.435882024
 20
22.4592190504
 10
31.4701215391
 20
22.4117728661
 10
31.5070181025
 20
22.3649951999
 10
31.5465326129
 20
22.3189356248
 10
31.5886231943
 20
22.2736429528
 10
31.633245241
 20
22.2291651832
 10
31.6803514644
 20
22.1855494516
 10
31.7298919433
 20
22.1428419803
 10
31.7818141767
 20
22.1010880287
 10
31.8360631397
 20
22.0603318459
 10
31.8925813414
 20
22.0206166237
 10
31.9513088863
 20
21.9819844506
 10
32.0121835373
 20
21.9444762674
 10
32.075140782
 20
21.9081318236
 10
32.1401139011
 20
21.8729896356
 10
32.2070340386
 20
21.8390869456
 10
32.2758302755
 20
21.8064596823
 10
32.3464297043
 20
21.7751424225
 10
32.4187575067
 20
21.7451683552
 10
32.4927370329
 20
21.7165692455
 10
32.5682898822
 20
21.6893754016
 10
32.6453359871
 20
21.6636156423
 10
32.7237936973
 20
21.6393172669
 10
32.8035798666
 20
21.6165060256
 10
32.8846099409
 20
21.5952060929
 10
32.9667980479
 20
21.5754400416
 10
33.0500570882
 20
21.5572288189
 10
33.1342988273
 20
21.5405917242
 10
33.2194339893
 20
21.525546389
 10
33.3053723515
 20
21.5121087575
 10
33.3920228401
 20
21.5002930705
 10
33.4792936266
 20
21.4901118497
 10
33.5670922249
 20
21.4815758848
 10
33.6553255898
 20
21.4746942217
 10
33.7439002152
 20
21.4694741535
 10
33.8327222336
 20
21.4659212121
 10
33.921697515
 20
21.4640391627
 10
34.0107317671
 20
21.4638299999
 10
34.0997306353
 20
21.4652939454
 10
34.1885998021
 20
21.4684294477
 10
34.2772450879
 20
21.4732331839
 10
34.3655725499
 20
21.4797000633
 10
34.4534885825
 20
21.4878232325
 10
34.540900016
 20
21.4975940829
 10
34.6277142154
 20
21.5090022599
 10
34.7138391785
 20
21.5220356734
 10
34.7991836338
 20
21.5366805112
 10
34.8836571369
 20
21.5529212533
 10
34.9671701661
 20
21.5707406885
 10
35.049634218
 20
21.5901199325
 10
35.1309619005
 20
21.6110384479
 10
35.211067026
 20
21.6334740663
 10
35.2898647024
 20
21.6574030112
 10
35.3672714232
 20
21.6827999238
 10
35.4432051561
 20
21.7096378894
 10
35.5175854297
 20
21.7378884664
 10
35.5903334188
 20
21.767521716
 10
35.6613720281
 20
21.798506234
 10
35.730625974
 20
21.8308091845
 10
35.798021864
 20
21.864396334
 10
35.8634882748
 20
21.8992320883
 10
35.9269558277
 20
21.93527953
 10
35.9883572626
 20
21.9725004574
 10
36.0476275088
 20
22.0108554254
 10
36.104703754
 20
22.050303787
 10
36.1595255115
 20
22.0908037365
 10
36.2120346832
 20
22.1323123538
 10
36.2621756222
 20
22.1747856496
 10
36.3098951913
 20
22.2181786127
 10
36.3551428192
 20
22.2624452569
 10
36.3978705544
 20
22.3075386704
 10
36.4380331158
 20
22.353411065
 10
36.4755879408
 20
22.400013827
 10
36.5104952304
 20
22.4472975689
 10
36.5427179914
 20
22.4952121813
 10
36.5722220752
 20
22.5437068862
 10
36.5989762149
 20
22.5927302911
 10
36.6229520575
 20
22.642230443
 10
36.6441241943
 20
22.6921548836
 10
36.662470188
 20
22.7424507052
 10
36.6779705963
 20
22.7930646063
 10
36.6906089926
 20
22.8439429485
 10
36.7003719831
 20
22.895031813
 10
36.7072492215
 20
22.946277058
 10
36.7112334196
 20
22.9976243759
 10
36.712320355
 20
23.049019351
 10
36.7122607061
 20
23.0548423465
  0
LWPOLYLINE
  5
18C
330
1F
100
AcDbEntity
  8
0
  6
Continuous
 62
     7
370
    25
100
AcDbPolyline
 90
       75
 70
   128
 43
0.0
 10
38.236082355
 20
21.4369871384
 10
38.2780300207
 20
21.4628938852
 10
38.3184713332
 20
21.491294793
 10
38.3573591397
 20
21.5221567477
 10
38.3946480989
 20
21.5554437657
 10
38.4302947334
 20
21.5911170358
 10
38.4642574809
 20
21.6291349644
 10
38.4964967423
 20
21.6694532245
 10
38.5269749281
 20
21.7120248068
 10
38.5556565021
 20
21.7568000746
 10
38.5825080229
 20
21.803726822
 10
38.6074981827
 20
21.8527503346
 10
38.6305978442
 20
21.9038134531
 10
38.6517800742
 20
21.9568566402
 10
38.6710201752
 20
22.0118180498
 10
38.688295714
 20
22.0686335996
 10
38.7035865482
 20
22.127237045
 10
38.7168748494
 20
22.1875600571
 10
38.7281451239
 20
22.249532302
 10
38.7373842312
 20
22.3130815227
 10
38.7445813988
 20
22.3781336238
 10
38.7497282352
 20
22.4446127574
 10
38.7528187394
 20
22.5124414117
 10
38.753849308
 20
22.5815405017
 10
38.7528187394
 20
22.6518294609
 10
38.7497282352
 20
22.7232263355
 10
38.7445813988
 20
22.7956478798
 10
38.7373842312
 20
22.8690096538
 10
38.7281451239
 20
22.9432261207
 10
38.7168748494
 20
23.0182107475
 10
38.7035865482
 20
23.0938761056
 10
38.688295714
 20
23.1701339724
 10
38.6710201752
 20
23.2468954348
 10
38.6517800742
 20
23.3240709922
 10
38.6305978442
 20
23.4015706615
 10
38.6074981827
 20
23.4793040814
 10
38.5825080229
 20
23.5571806184
 10
38.5556565021
 20
23.6351094718
 10
38.5269749281
 20
23.71299978
 10
38.4964967423
 20
23.7907607266
 10
38.4642574809
 20
23.8683016456
 10
38.4302947334
 20
23.9455321279
 10
38.3946480989
 20
24.0223621261
 10
38.3573591397
 20
24.0987020599
 10
38.3184713332
 20
24.1744629204
 10
38.2780300207
 20
24.2495563738
 10
38.236082355
 20
24.3238948644
 10
38.1926772452
 20
24.397391717
 10
38.1478652998
 20
24.4699612375
 10
38.1016987674
 20
24.541518813
 10
38.0542314762
 20
24.6119810107
 10
38.0055187708
 20
24.6812656747
 10
37.9556174483
 20
24.7492920223
 10
37.9045856912
 20
24.8159807377
 10
37.8524830002
 20
24.881254065
 10
37.7993701249
 20
24.9450358983
 10
37.7453089924
 20
25.0072518709
 10
37.6903626356
 20
25.0678294416
 10
37.6345951196
 20
25.1266979799
 10
37.5780714666
 20
25.1837888476
 10
37.5208575808
 20
25.2390354793
 10
37.4630201711
 20
25.2923734598
 10
37.4046266731
 20
25.3437405996
 10
37.3457451712
 20
25.3930770068
 10
37.2864443186
 20
25.4403251574
 10
37.2267932574
 20
25.4854299622
 10
37.166861538
 20
25.5283388309
 10
37.1067190381
 20
25.5690017337
 10
37.0464358813
 20
25.6073712595
 10
36.986082355
 20
25.6434026712
 10
36.9257288287
 20
25.6770539578
 10
36.8654456719
 20
25.7082858833
 10
36.805303172
 20
25.7370620327
 10
36.7453714526
 20
25.7633488544
 10
36.712343001
 20
25.7768061175
  0
ARC
  5
18D
330
1F
100
AcDbEntity
  8
0
  6
Continuous
 62
     7
370
    25
100
AcDbCircle
 10
37.814566835
 20
22.1679344613
 30
0.0
 40
0.8437768202576486
100
AcDbArc
 50
289.1775886556
 51
299.9707664626
  0
LWPOLYLINE
  5
18E
330
1F
100
AcDbEntity
  8
0
  6
Continuous
 62
     7
370
    25
100
AcDbPolyline
 90
       76
 70
   128
 43
0.0
 10
38.3209351687
 20
21.4859716251
 10
38.3628828344
 20
21.5118783719
 10
38.4033241469
 20
21.5402792797
 10
38.4422119535
 20
21.5711412344
 10
38.4795009126
 20
21.6044282524
 10
38.5151475472
 20
21.6401015225
 10
38.5491102947
 20
21.6781194511
 10
38.5813495561
 20
21.7184377113
 10
38.6118277419
 20
21.7610092935
 10
38.6405093159
 20
21.8057845613
 10
38.6673608366
 20
21.8527113088
 10
38.6923509964
 20
21.9017348213
 10
38.7154506579
 20
21.9527979398
 10
38.7366328879
 20
22.0058411269
 10
38.7558729889
 20
22.0608025366
 10
38.7731485277
 20
22.1176180863
 10
38.788439362
 20
22.1762215317
 10
38.8017276631
 20
22.2365445438
 10
38.8129979376
 20
22.2985167887
 10
38.8222370449
 20
22.3620660094
 10
38.8294342125
 20
22.4271181105
 10
38.8345810489
 20
22.4935972441
 10
38.8376715531
 20
22.5614258985
 10
38.8387021217
 20
22.6305249884
 10
38.8376715531
 20
22.7008139476
 10
38.8345810489
 20
22.7722108222
 10
38.8294342125
 20
22.8446323665
 10
38.8222370449
 20
22.9179941405
 10
38.8129979376
 20
22.9922106074
 10
38.8017276631
 20
23.0671952343
 10
38.788439362
 20
23.1428605923
 10
38.7731485277
 20
23.2191184591
 10
38.7558729889
 20
23.2958799215
 10
38.7366328879
 20
23.3730554789
 10
38.7154506579
 20
23.4505551482
 10
38.6923509964
 20
23.5282885681
 10
38.6673608366
 20
23.6061651051
 10
38.6405093159
 20
23.6840939585
 10
38.6118277419
 20
23.7619842667
 10
38.5813495561
 20
23.8397452133
 10
38.5491102947
 20
23.9172861323
 10
38.5151475472
 20
23.9945166146
 10
38.4795009126
 20
24.0713466128
 10
38.4422119535
 20
24.1476865466
 10
38.4033241469
 20
24.2234474071
 10
38.3628828344
 20
24.2985408605
 10
38.3209351687
 20
24.3728793511
 10
38.277530059
 20
24.4463762037
 10
38.2327181135
 20
24.5189457242
 10
38.1865515811
 20
24.5905032997
 10
38.1390842899
 20
24.6609654974
 10
38.0903715846
 20
24.7302501614
 10
38.040470262
 20
24.798276509
 10
37.9894385049
 20
24.8649652244
 10
37.937335814
 20
24.9302385517
 10
37.8842229386
 20
24.994020385
 10
37.8301618062
 20
25.0562363576
 10
37.7752154494
 20
25.1168139283
 10
37.7194479333
 20
25.1756824666
 10
37.6629242803
 20
25.2327733343
 10
37.6057103946
 20
25.288019966
 10
37.5478729848
 20
25.3413579466
 10
37.4894794869
 20
25.3927250863
 10
37.430597985
 20
25.4420614936
 10
37.3712971324
 20
25.4893096441
 10
37.3116460711
 20
25.5344144489
 10
37.2517143517
 20
25.5773233176
 10
37.1915718519
 20
25.6179862204
 10
37.1312886951
 20
25.6563557462
 10
37.0709351687
 20
25.6923871579
 10
37.0105816424
 20
25.7260384445
 10
36.9502984856
 20
25.75727037
 10
36.8901559858
 20
25.7860465194
 10
36.8302242664
 20
25.8123333411
 10
36.7705732051
 20
25.8361001857
 10
36.712343001
 20
25.8569577866
  0
LWPOLYLINE
  5
18F
330
1F
100
AcDbEntity
  8
0
  6
Continuous
 62
     7
370
    25
100
AcDbPolyline
 90
       48
 70
   128
 43
0.0
 10
37.0924322363
 20
25.6799731574
 10
37.1296247337
 20
25.6580380619
 10
37.1895438421
 20
25.6207735327
 10
37.2493481473
 20
25.5812016456
 10
37.3089671563
 20
25.5393690453
 10
37.3683305941
 20
25.4953250412
 10
37.4273684872
 20
25.4491215494
 10
37.4860112458
 20
25.4008130313
 10
37.5441897458
 20
25.3504564298
 10
37.6018354105
 20
25.2981111018
 10
37.6588802909
 20
25.2438387482
 10
37.7152571466
 20
25.1877033418
 10
37.7708995243
 20
25.129771051
 10
37.8257418367
 20
25.0701101625
 10
37.8797194393
 20
25.0087910004
 10
37.9327687071
 20
24.9458858435
 10
37.9848271092
 20
24.8814688403
 10
38.0358332828
 20
24.8156159209
 10
38.0857271052
 20
24.7484047083
 10
38.1344497651
 20
24.6799144265
 10
38.1819438315
 20
24.6102258072
 10
38.2281533216
 20
24.5394209945
 10
38.2730237669
 20
24.4675834482
 10
38.3165022772
 20
24.3947978456
 10
38.3585376029
 20
24.3211499814
 10
38.3990801958
 20
24.2467266665
 10
38.4380822669
 20
24.1716156262
 10
38.4754978433
 20
24.0959053961
 10
38.5112828222
 20
24.0196852183
 10
38.5453950225
 20
23.9430449359
 10
38.5777942352
 20
23.8660748872
 10
38.6084422704
 20
23.7888657993
 10
38.6373030021
 20
23.7115086809
 10
38.6643424114
 20
23.6340947153
 10
38.689528626
 20
23.5567151528
 10
38.7128319582
 20
23.4794612031
 10
38.7342249396
 20
23.402423928
 10
38.7536823536
 20
23.3256941335
 10
38.7711812651
 20
23.2493622636
 10
38.7867010477
 20
23.1735182931
 10
38.8002234076
 20
23.0982516216
 10
38.8117324057
 20
23.0236509683
 10
38.8212144759
 20
22.9498042674
 10
38.8286584414
 20
22.8767985643
 10
38.8340555277
 20
22.8047199132
 10
38.8373993732
 20
22.7336532753
 10
38.8386860364
 20
22.6636824192
 10
38.8387021217
 20
22.6550172318
  0
LWPOLYLINE
  5
190
330
1F
100
AcDbEntity
  8
0
  6
Continuous
 62
     7
370
    25
100
AcDbPolyline
 90
       94
 70
   128
 43
0.0
 10
36.7060893529
 20
28.4720311408
 10
36.7003719831
 20
28.4311785176
 10
36.6906089926
 20
28.3800896531
 10
36.6779705963
 20
28.3292113109
 10
36.662470188
 20
28.2785974098
 10
36.6441241943
 20
28.2283015882
 10
36.6229520575
 20
28.1783771475
 10
36.5989762149
 20
28.1288769957
 10
36.5722220752
 20
28.0798535908
 10
36.5427179914
 20
28.0313588859
 10
36.5104952304
 20
27.9834442735
 10
36.4755879408
 20
27.9361605316
 10
36.4380331158
 20
27.8895577696
 10
36.3978705544
 20
27.843685375
 10
36.3551428192
 20
27.7985919615
 10
36.3098951913
 20
27.7543253173
 10
36.2621756222
 20
27.7109323542
 10
36.2120346832
 20
27.6684590583
 10
36.1595255115
 20
27.6269504411
 10
36.104703754
 20
27.5864504916
 10
36.0476275088
 20
27.54700213
 10
35.9883572626
 20
27.508647162
 10
35.9269558277
 20
27.4714262345
 10
35.8634882748
 20
27.4353787929
 10
35.798021864
 20
27.4005430386
 10
35.730625974
 20
27.3669558891
 10
35.6613720281
 20
27.3346529386
 10
35.5903334188
 20
27.3036684206
 10
35.5175854297
 20
27.274035171
 10
35.4432051561
 20
27.245784594
 10
35.3672714232
 20
27.2189466283
 10
35.2898647024
 20
27.1935497158
 10
35.211067026
 20
27.1696207708
 10
35.1309619005
 20
27.1471851525
 10
35.049634218
 20
27.1262666371
 10
34.9671701661
 20
27.1068873931
 10
34.8836571369
 20
27.0890679579
 10
34.7991836338
 20
27.0728272158
 10
34.7138391785
 20
27.0581823779
 10
34.6277142154
 20
27.0451489644
 10
34.540900016
 20
27.0337407875
 10
34.4534885825
 20
27.0239699371
 10
34.3655725499
 20
27.0158467679
 10
34.2772450879
 20
27.0093798885
 10
34.1885998021
 20
27.0045761523
 10
34.0997306353
 20
27.00144065
 10
34.0107317671
 20
26.9999767045
 10
33.921697515
 20
27.0001858673
 10
33.8327222336
 20
27.0020679166
 10
33.7439002152
 20
27.0056208581
 10
33.6553255897
 20
27.0108409263
 10
33.5670922249
 20
27.0177225894
 10
33.4792936266
 20
27.0262585543
 10
33.3920228401
 20
27.0364397751
 10
33.3053723515
 20
27.0482554621
 10
33.2194339893
 20
27.0616930936
 10
33.1342988273
 20
27.0767384288
 10
33.0500570882
 20
27.0933755234
 10
32.9667980479
 20
27.1115867462
 10
32.8846099409
 20
27.1313527975
 10
32.8035798666
 20
27.1526527302
 10
32.7237936973
 20
27.1754639714
 10
32.6453359871
 20
27.1997623469
 10
32.5682898822
 20
27.2255221062
 10
32.4927370329
 20
27.2527159501
 10
32.4187575067
 20
27.2813150598
 10
32.3464297043
 20
27.3112891271
 10
32.2758302755
 20
27.3426063868
 10
32.2070340386
 20
27.3752336502
 10
32.1401139011
 20
27.4091363402
 10
32.075140782
 20
27.4442785282
 10
32.0121835373
 20
27.480622972
 10
31.9513088863
 20
27.5181311552
 10
31.8925813414
 20
27.5567633283
 10
31.8360631397
 20
27.5964785505
 10
31.7818141767
 20
27.6372347332
 10
31.7298919433
 20
27.6789886848
 10
31.6803514644
 20
27.7216961562
 10
31.633245241
 20
27.7653118878
 10
31.5886231943
 20
27.8097896574
 10
31.5465326129
 20
27.8550823294
 10
31.5070181025
 20
27.9011419045
 10
31.4701215391
 20
27.9479195707
 10
31.435882024
 20
27.995365755
 10
31.4043358429
 20
28.0434301759
 10
31.3755164271
 20
28.0920618967
 10
31.3494543181
 20
28.1412093796
 10
31.3261771356
 20
28.1908205401
 10
31.3057095477
 20
28.2408428024
 10
31.288073245
 20
28.291223155
 10
31.2732869179
 20
28.341908207
 10
31.2613662363
 20
28.3928442443
 10
31.2523238331
 20
28.4439772872
 10
31.2479802974
 20
28.4774203964
  0
LWPOLYLINE
  5
191
330
1F
100
AcDbEntity
  8
0
  6
Continuous
 62
     7
370
    25
100
AcDbPolyline
 90
       24
 70
   128
 43
0.0
 10
35.9112800476
 20
21.9506523658
 10
35.9732041991
 20
21.9875835719
 10
36.0330132204
 20
22.0256587942
 10
36.0906437285
 20
22.0648376822
 10
36.146034649
 20
22.1050787157
 10
36.1991272808
 20
22.146339249
 10
36.2498653587
 20
22.1885755559
 10
36.2981951124
 20
22.2317428761
 10
36.3440653243
 20
22.2757954628
 10
36.3874273829
 20
22.3206866307
 10
36.428235335
 20
22.3663688061
 10
36.466445934
 20
22.4127935771
 10
36.5020186859
 20
22.4599117445
 10
36.5349158921
 20
22.5076733744
 10
36.5651026897
 20
22.5560278512
 10
36.5925470879
 20
22.6049239307
 10
36.6172200023
 20
22.654309795
 10
36.6390952855
 20
22.704133107
 10
36.6581497551
 20
22.7543410659
 10
36.6743632179
 20
22.8048804636
 10
36.6877184916
 20
22.8556977404
 10
36.6982014228
 20
22.9067390424
 10
36.7058009021
 20
22.9579502781
 10
36.7059688957
 20
22.9593590328
  0
LWPOLYLINE
  5
192
330
1F
100
AcDbEntity
  8
0
  6
Continuous
 62
     7
370
    25
100
AcDbPolyline
 90
       72
 70
   128
 43
0.0
 10
31.2480299974
 20
22.9653247238
 10
31.2505141535
 20
22.9451345034
 10
31.2588353703
 20
22.8939606692
 10
31.2700375478
 20
22.8429703107
 10
31.2841088142
 20
22.7922174653
 10
31.3010342575
 20
22.7417559189
 10
31.3207959407
 20
22.6916391484
 10
31.3433729214
 20
22.6419202655
 10
31.3687412732
 20
22.5926519601
 10
31.396874112
 20
22.5438864448
 10
31.4277416237
 20
22.4956753992
 10
31.4613110962
 20
22.4480699154
 10
31.497546954
 20
22.4011204436
 10
31.5364107959
 20
22.354876739
 10
31.5778614355
 20
22.3093878087
 10
31.6218549452
 20
22.2647018599
 10
31.6683447026
 20
22.220866249
 10
31.7172814397
 20
22.177927431
 10
31.7686132955
 20
22.1359309108
 10
31.8222858705
 20
22.0949211946
 10
31.8782422849
 20
22.0549417426
 10
31.9364232383
 20
22.0160349235
 10
31.9967670731
 20
21.978241969
 10
32.0592098393
 20
21.9416029305
 10
32.1236853628
 20
21.9061566367
 10
32.1901253151
 20
21.8719406519
 10
32.2584592858
 20
21.8389912368
 10
32.3286148575
 20
21.8073433099
 10
32.4005176823
 20
21.7770304103
 10
32.4740915606
 20
21.7480846623
 10
32.5492585218
 20
21.7205367415
 10
32.6259389072
 20
21.6944158419
 10
32.7040514541
 20
21.6697496454
 10
32.783513382
 20
21.6465642922
 10
32.8642404807
 20
21.6248843532
 10
32.9461471987
 20
21.6047328038
 10
33.0291467349
 20
21.5861309999
 10
33.1131511299
 20
21.5690986548
 10
33.1980713591
 20
21.5536538187
 10
33.2838174279
 20
21.5398128595
 10
33.370298466
 20
21.527590445
 10
33.4574228245
 20
21.5169995283
 10
33.5450981727
 20
21.508051333
 10
33.6332315958
 20
21.5007553422
 10
33.7217296938
 20
21.4951192877
 10
33.8104986801
 20
21.4911491425
 10
33.899444481
 20
21.4888491139
 10
33.9884728355
 20
21.4882216394
 10
34.077489395
 20
21.489267384
 10
34.1663998237
 20
21.4919852395
 10
34.2551098977
 20
21.4963723255
 10
34.3435256061
 20
21.5024239929
 10
34.4315532495
 20
21.5101338283
 10
34.5190995399
 20
21.5194936611
 10
34.6060716993
 20
21.5304935723
 10
34.6923775584
 20
21.5431219045
 10
34.7779256538
 20
21.5573652748
 10
34.8626253253
 20
21.5732085886
 10
34.9463868115
 20
21.5906350559
 10
35.0291213458
 20
21.6096262089
 10
35.1107412493
 20
21.6301619214
 10
35.1911600248
 20
21.6522204307
 10
35.2702924479
 20
21.67577836
 10
35.3480546573
 20
21.7008107436
 10
35.4243642438
 20
21.7272910532
 10
35.4991403378
 20
21.7551912262
 10
35.5723036946
 20
21.7844816951
 10
35.6437767789
 20
21.815131419
 10
35.7134838465
 20
21.8471079168
 10
35.7813510246
 20
21.880377301
 10
35.8473063906
 20
21.914904314
 10
35.9112800476
 20
21.9506523658
  0
LWPOLYLINE
  5
193
330
1F
100
AcDbEntity
  8
0
  6
Continuous
 62
     7
370
    25
100
AcDbPolyline
 90
       71
 70
   128
 43
0.0
 10
35.8299627677
 20
29.6482355654
 10
35.7673612886
 20
29.6831927464
 10
35.7027816851
 20
29.716929413
 10
35.6362953232
 20
29.7494082833
 10
35.5679756761
 20
29.7805934653
 10
35.4978982429
 20
29.8104504968
 10
35.4261404652
 20
29.8389463831
 10
35.3527816415
 20
29.8660496339
 10
35.2779028396
 20
29.8917302977
 10
35.2015868071
 20
29.9159599951
 10
35.1239178797
 20
29.9387119503
 10
35.0449818884
 20
29.9599610204
 10
34.964866064
 20
29.9796837233
 10
34.8836589417
 20
29.9978582638
 10
34.8014502622
 20
30.0144645574
 10
34.7183308731
 20
30.0294842528
 10
34.6343926286
 20
30.0429007518
 10
34.5497282878
 20
30.0546992281
 10
34.4644314118
 20
30.0648666434
 10
34.3785962612
 20
30.0733917617
 10
34.2923176912
 20
30.0802651622
 10
34.205691047
 20
30.085479249
 10
34.1188120586
 20
30.0890282603
 10
34.0317767347
 20
30.0909082739
 10
33.9446812568
 20
30.0911172125
 10
33.857621873
 20
30.0896548449
 10
33.7706947913
 20
30.0865227874
 10
33.6839960736
 20
30.081724501
 10
33.5976215297
 20
30.0752652884
 10
33.5116666106
 20
30.0671522874
 10
33.4262263041
 20
30.0573944637
 10
33.3413950289
 20
30.0460026005
 10
33.2572665311
 20
30.0329892867
 10
33.1739337798
 20
30.0183689033
 10
33.0914888649
 20
30.002157607
 10
33.0100228951
 20
29.9843733126
 10
32.9296258973
 20
29.9650356734
 10
32.8503867172
 20
29.9441660592
 10
32.7723929209
 20
29.9217875325
 10
32.6957306981
 20
29.8979248237
 10
32.6204847674
 20
29.8726043031
 10
32.5467382819
 20
29.8458539519
 10
32.4745727378
 20
29.8177033318
 10
32.4040678843
 20
29.7881835515
 10
32.3353016353
 20
29.757327233
 10
32.2683499835
 20
29.7251684751
 10
32.2032869161
 20
29.691742816
 10
32.1401843336
 20
29.6570871939
 10
32.0791119696
 20
29.6212399064
 10
32.0201373144
 20
29.5842405677
 10
31.9633255401
 20
29.5461300653
 10
31.9087394285
 20
29.5069505146
 10
31.8564393021
 20
29.4667452124
 10
31.8064829569
 20
29.425558589
 10
31.7589255991
 20
29.3834361591
 10
31.7138197835
 20
29.3404244717
 10
31.6712153561
 20
29.2965710583
 10
31.6311593984
 20
29.2519243809
 10
31.5936961757
 20
29.2065337778
 10
31.558867088
 20
29.1604494095
 10
31.5267106245
 20
29.1137222033
 10
31.4972623209
 20
29.0664037966
 10
31.47055472
 20
29.0185464805
 10
31.4466173362
 20
28.9702031414
 10
31.4254766221
 20
28.9214272029
 10
31.4071559402
 20
28.8722725665
 10
31.3916755364
 20
28.8227935524
 10
31.3790525179
 20
28.7730448391
 10
31.3693008341
 20
28.7230814033
 10
31.3624312616
 20
28.6729584588
 10
31.3619616056
 20
28.6685090041
  0
LWPOLYLINE
  5
194
330
1F
100
AcDbEntity
  8
0
  6
Continuous
 62
     7
370
    25
100
AcDbPolyline
 90
       23
 70
   128
 43
0.0
 10
36.5918367704
 20
28.6767478851
 10
36.58737311
 20
28.71056346
 10
36.578341068
 20
28.7605719572
 10
36.5664346991
 20
28.8103795155
 10
36.5516671609
 20
28.8599310932
 10
36.5340547727
 20
28.9091719315
 10
36.5136169978
 20
28.9580476152
 10
36.4903764217
 20
29.0065041323
 10
36.4643587272
 20
29.0544879342
 10
36.4355926661
 20
29.1019459947
 10
36.4041100274
 20
29.1488258686
 10
36.369945602
 20
29.1950757495
 10
36.3331371448
 20
29.2406445274
 10
36.293725332
 20
29.2854818448
 10
36.2517537173
 20
29.3295381526
 10
36.2072686828
 20
29.3727647648
 10
36.1603193884
 20
29.4151139123
 10
36.110957717
 20
29.4565387956
 10
36.0592382176
 20
29.4969936367
 10
36.0052180447
 20
29.5364337295
 10
35.9489568952
 20
29.5748154892
 10
35.8905169425
 20
29.6120965008
 10
35.8299627677
 20
29.6482355654
  0
LWPOLYLINE
  5
195
330
1F
100
AcDbEntity
  8
0
  6
Continuous
 62
     7
370
    25
100
AcDbPolyline
 90
       94
 70
   128
 43
0.0
 10
36.7063009022
 20
20.5583029049
 10
36.702362169
 20
20.5284306568
 10
36.6933197658
 20
20.4772976139
 10
36.6813990842
 20
20.4263615766
 10
36.666612757
 20
20.3756765246
 10
36.6489764544
 20
20.325296172
 10
36.6285088665
 20
20.2752739097
 10
36.605231684
 20
20.2256627491
 10
36.579169575
 20
20.1765152663
 10
36.5503501592
 20
20.1278835454
 10
36.5188039781
 20
20.0798191246
 10
36.484564463
 20
20.0323729403
 10
36.4476678995
 20
19.9855952741
 10
36.4081533892
 20
19.939535699
 10
36.3660628077
 20
19.894243027
 10
36.321440761
 20
19.8497652574
 10
36.2743345376
 20
19.8061495258
 10
36.2247940588
 20
19.7634420544
 10
36.1728718254
 20
19.7216881028
 10
36.1186228624
 20
19.6809319201
 10
36.0621046607
 20
19.6412166979
 10
36.0033771158
 20
19.6025845248
 10
35.9425024648
 20
19.5650763416
 10
35.87954522
 20
19.5287318978
 10
35.814572101
 20
19.4935897098
 10
35.7476519635
 20
19.4596870198
 10
35.6788557266
 20
19.4270597564
 10
35.6082562978
 20
19.3957424967
 10
35.5359284953
 20
19.3657684294
 10
35.4619489692
 20
19.3371693197
 10
35.3863961198
 20
19.3099754757
 10
35.3093500149
 20
19.2842157165
 10
35.2308923048
 20
19.259917341
 10
35.1511061355
 20
19.2371060998
 10
35.0700760612
 20
19.2158061671
 10
34.9878879542
 20
19.1960401157
 10
34.9046289139
 20
19.177828893
 10
34.8203871748
 20
19.1611917984
 10
34.7352520128
 20
19.1461464631
 10
34.6493136506
 20
19.1327088317
 10
34.5626631619
 20
19.1208931447
 10
34.4753923755
 20
19.1107119239
 10
34.3875937772
 20
19.1021759589
 10
34.2993604123
 20
19.0952942959
 10
34.2107857869
 20
19.0900742277
 10
34.1219637685
 20
19.0865212862
 10
34.0329884871
 20
19.0846392369
 10
33.9439542349
 20
19.0844300741
 10
33.8549553668
 20
19.0858940196
 10
33.7660862
 20
19.0890295218
 10
33.6774409142
 20
19.0938332581
 10
33.5891134522
 20
19.1003001375
 10
33.5011974195
 20
19.1084233067
 10
33.4137859861
 20
19.1181941571
 10
33.3269717867
 20
19.129602334
 10
33.2408468236
 20
19.1426357475
 10
33.1555023682
 20
19.1572805853
 10
33.0710288652
 20
19.1735213275
 10
32.987515836
 20
19.1913407627
 10
32.9050517841
 20
19.2107200066
 10
32.8237241016
 20
19.2316385221
 10
32.7436189761
 20
19.2540741404
 10
32.6648212997
 20
19.2780030853
 10
32.5874145788
 20
19.3033999979
 10
32.511480846
 20
19.3302379636
 10
32.4371005724
 20
19.3584885406
 10
32.3643525833
 20
19.3881217902
 10
32.2933139739
 20
19.4191063082
 10
32.224060028
 20
19.4514092586
 10
32.156664138
 20
19.4849964081
 10
32.0911977273
 20
19.5198321625
 10
32.0277301744
 20
19.5558796041
 10
31.9663287395
 20
19.5931005316
 10
31.9070584933
 20
19.6314554996
 10
31.849982248
 20
19.6709038612
 10
31.7951604906
 20
19.7114038107
 10
31.7426513189
 20
19.7529124279
 10
31.6925103798
 20
19.7953857238
 10
31.6447908108
 20
19.8387786869
 10
31.5995431829
 20
19.8830453311
 10
31.5568154477
 20
19.9281387446
 10
31.5166528863
 20
19.9740111391
 10
31.4790980613
 20
20.0206139012
 10
31.4441907716
 20
20.0678976431
 10
31.4119680107
 20
20.1158122554
 10
31.3824639268
 20
20.1643069604
 10
31.3557097872
 20
20.2133303653
 10
31.3317339446
 20
20.2628305171
 10
31.3105618078
 20
20.3127549578
 10
31.2922158141
 20
20.3630507794
 10
31.2767154058
 20
20.4136646805
 10
31.2640770095
 20
20.4645430227
 10
31.254314019
 20
20.5156318872
 10
31.2476063079
 20
20.5652889908
  0
LWPOLYLINE
  5
196
330
1F
100
AcDbEntity
  8
0
  6
Continuous
 62
     7
370
    25
100
AcDbPolyline
 90
       94
 70
   128
 43
0.0
 10
31.2483305016
 20
15.0471268939
 10
31.2523238331
 20
15.0167801766
 10
31.2613662363
 20
14.9656471337
 10
31.2732869179
 20
14.9147110963
 10
31.288073245
 20
14.8640260444
 10
31.3057095477
 20
14.8136456918
 10
31.3261771356
 20
14.7636234294
 10
31.3494543181
 20
14.7140122689
 10
31.3755164271
 20
14.664864786
 10
31.4043358429
 20
14.6162330652
 10
31.435882024
 20
14.5681686443
 10
31.4701215391
 20
14.5207224601
 10
31.5070181025
 20
14.4739447939
 10
31.5465326129
 20
14.4278852188
 10
31.5886231943
 20
14.3825925468
 10
31.633245241
 20
14.3381147771
 10
31.6803514644
 20
14.2944990456
 10
31.7298919433
 20
14.2517915742
 10
31.7818141767
 20
14.2100376226
 10
31.8360631397
 20
14.1692814398
 10
31.8925813414
 20
14.1295662177
 10
31.9513088863
 20
14.0909340446
 10
32.0121835373
 20
14.0534258614
 10
32.075140782
 20
14.0170814176
 10
32.1401139011
 20
13.9819392296
 10
32.2070340386
 20
13.9480365396
 10
32.2758302755
 20
13.9154092762
 10
32.3464297043
 20
13.8840920165
 10
32.4187575067
 20
13.8541179491
 10
32.4927370329
 20
13.8255188394
 10
32.5682898822
 20
13.7983249955
 10
32.6453359871
 20
13.7725652363
 10
32.7237936973
 20
13.7482668608
 10
32.8035798666
 20
13.7254556195
 10
32.8846099409
 20
13.7041556868
 10
32.9667980479
 20
13.6843896355
 10
33.0500570882
 20
13.6661784128
 10
33.1342988273
 20
13.6495413182
 10
33.2194339893
 20
13.6344959829
 10
33.3053723515
 20
13.6210583515
 10
33.3920228401
 20
13.6092426645
 10
33.4792936266
 20
13.5990614437
 10
33.5670922249
 20
13.5905254787
 10
33.6553255898
 20
13.5836438157
 10
33.7439002152
 20
13.5784237474
 10
33.8327222336
 20
13.574870806
 10
33.921697515
 20
13.5729887566
 10
34.0107317671
 20
13.5727795939
 10
34.0997306353
 20
13.5742435393
 10
34.1885998021
 20
13.5773790416
 10
34.2772450879
 20
13.5821827779
 10
34.3655725499
 20
13.5886496572
 10
34.4534885825
 20
13.5967728265
 10
34.540900016
 20
13.6065436769
 10
34.6277142154
 20
13.6179518538
 10
34.7138391785
 20
13.6309852673
 10
34.7991836338
 20
13.6456301051
 10
34.8836571369
 20
13.6618708472
 10
34.9671701661
 20
13.6796902824
 10
35.049634218
 20
13.6990695264
 10
35.1309619005
 20
13.7199880419
 10
35.211067026
 20
13.7424236602
 10
35.2898647024
 20
13.7663526051
 10
35.3672714232
 20
13.7917495177
 10
35.4432051561
 20
13.8185874834
 10
35.5175854297
 20
13.8468380604
 10
35.5903334188
 20
13.8764713099
 10
35.6613720281
 20
13.907455828
 10
35.730625974
 20
13.9397587784
 10
35.798021864
 20
13.9733459279
 10
35.8634882748
 20
14.0081816822
 10
35.9269558277
 20
14.0442291239
 10
35.9883572626
 20
14.0814500513
 10
36.0476275088
 20
14.1198050193
 10
36.104703754
 20
14.159253381
 10
36.1595255115
 20
14.1997533305
 10
36.2120346832
 20
14.2412619477
 10
36.2621756222
 20
14.2837352436
 10
36.3098951913
 20
14.3271282066
 10
36.3551428192
 20
14.3713948509
 10
36.3978705544
 20
14.4164882643
 10
36.4380331158
 20
14.4623606589
 10
36.4755879408
 20
14.508963421
 10
36.5104952304
 20
14.5562471629
 10
36.5427179914
 20
14.6041617752
 10
36.5722220752
 20
14.6526564802
 10
36.5989762149
 20
14.701679885
 10
36.6229520575
 20
14.7511800369
 10
36.6441241943
 20
14.8011044775
 10
36.662470188
 20
14.8514002991
 10
36.6779705963
 20
14.9020142003
 10
36.6906089926
 20
14.9528925425
 10
36.7003719831
 20
15.003981407
 10
36.7069115309
 20
15.0520882951
  0
ARC
  5
197
330
1F
100
AcDbEntity
  8
0
  6
Continuous
 62
     7
370
    25
100
AcDbCircle
 10
36.1726123126
 20
23.1323408609
 30
0.0
 40
1.005404406690419
100
AcDbArc
 50
2.5754368225
 51
57.5319349494
  0
ARC
  5
198
330
1F
100
AcDbEntity
  8
0
  6
Continuous
 62
     7
370
    25
100
AcDbCircle
 10
36.7918436616
 20
23.1580803141
 30
0.0
 40
0.3856477130655628
100
AcDbArc
 50
323.7528911323
 51
2.8891490955
  0
ARC
  5
199
330
1F
100
AcDbEntity
  8
0
  6
Continuous
 62
     7
370
    25
100
AcDbCircle
 10
22.9933664788
 20
21.3853454643
 30
0.0
 40
0.0200000000000013
100
AcDbArc
 50
315.0
 51
31.9651613118
  0
LINE
  5
19A
330
1F
100
AcDbEntity
  8
0
  6
Continuous
 62
     7
370
    25
100
AcDbLine
 10
22.6866903469
 20
21.0503850611
 30
0.0
 11
23.0075086144
 21
21.3712033286
 31
0.0
  0
ARC
  5
19B
330
1F
100
AcDbEntity
  8
0
  6
Continuous
 62
     7
370
    25
100
AcDbCircle
 10
22.8192728683
 20
20.9178025396
 30
0.0
 40
0.1875000000000015
100
AcDbArc
 50
135.0
 51
315.0
  0
LINE
  5
19C
330
1F
100
AcDbEntity
  8
0
  6
Continuous
 62
     7
370
    25
100
AcDbLine
 10
22.9518553898
 20
20.7852200181
 30
0.0
 11
23.2726736574
 21
21.1060382857
 31
0.0
  0
ARC
  5
19D
330
1F
100
AcDbEntity
  8
0
  6
Continuous
 62
     7
370
    25
100
AcDbCircle
 10
23.286815793
 20
21.0918961501
 30
0.0
 40
0.0199999999999983
100
AcDbArc
 50
58.0348386882
 51
135.0
  0
ARC
  5
19E
330
1F
100
AcDbEntity
  8
0
  6
Continuous
 62
     7
370
    25
100
AcDbCircle
 10
23.7738670229
 20
21.8723966942
 30
0.0
 40
0.9000000000000007
100
AcDbArc
 50
238.0348386882
 51
211.9651613118
  0
LINE
  5
19F
330
1F
100
AcDbEntity
  8
0
  6
Continuous
 62
     7
370
    25
100
AcDbLine
 10
23.6488670229
 20
23.4348966942
 30
0.0
 11
23.8988670229
 21
23.4348966942
 31
0.0
  0
ARC
  5
1A0
330
1F
100
AcDbEntity
  8
0
  6
Continuous
 62
     7
370
    25
100
AcDbCircle
 10
23.8988670229
 20
23.6223966942
 30
0.0
 40
0.1875
100
AcDbArc
 50
270.0
 51
90.0
  0
LINE
  5
1A1
330
1F
100
AcDbEntity
  8
0
  6
Continuous
 62
     7
370
    25
100
AcDbLine
 10
23.8988670229
 20
23.8098966942
 30
0.0
 11
23.6488670229
 21
23.8098966942
 31
0.0
  0
ARC
  5
1A2
330
1F
100
AcDbEntity
  8
0
  6
Continuous
 62
     7
370
    25
100
AcDbCircle
 10
23.6488670229
 20
23.6223966942
 30
0.0
 40
0.1875
100
AcDbArc
 50
90.0
 51
270.0
  0
LINE
  5
1A3
330
1F
100
AcDbEntity
  8
0
  6
Continuous
 62
     7
370
    25
100
AcDbLine
 10
25.3363670229
 20
21.9973966942
 30
0.0
 11
25.3363670229
 21
21.7473966942
 31
0.0
  0
ARC
  5
1A4
330
1F
100
AcDbEntity
  8
0
  6
Continuous
 62
     7
370
    25
100
AcDbCircle
 10
25.5238670229
 20
21.7473966942
 30
0.0
 40
0.1875
100
AcDbArc
 50
180.0
 51
0.0
  0
LINE
  5
1A5
330
1F
100
AcDbEntity
  8
0
  6
Continuous
 62
     7
370
    25
100
AcDbLine
 10
25.7113670229
 20
21.7473966942
 30
0.0
 11
25.7113670229
 21
21.9973966942
 31
0.0
  0
ARC
  5
1A6
330
1F
100
AcDbEntity
  8
0
  6
Continuous
 62
     7
370
    25
100
AcDbCircle
 10
25.5238670229
 20
21.9973966942
 30
0.0
 40
0.1875
100
AcDbArc
 50
0.0
 51
180.0
  0
LINE
  5
1A7
330
1F
100
AcDbEntity
  8
0
  6
Continuous
 62
     7
370
    25
100
AcDbLine
 10
23.8988670229
 20
20.3098966942
 30
0.0
 11
23.6488670229
 21
20.3098966942
 31
0.0
  0
ARC
  5
1A8
330
1F
100
AcDbEntity
  8
0
  6
Continuous
 62
     7
370
    25
100
AcDbCircle
 10
23.6488670229
 20
20.1223966942
 30
0.0
 40
0.1875
100
AcDbArc
 50
90.0
 51
270.0
  0
LINE
  5
1A9
330
1F
100
AcDbEntity
  8
0
  6
Continuous
 62
     7
370
    25
100
AcDbLine
 10
23.6488670229
 20
19.9348966942
 30
0.0
 11
23.8988670229
 21
19.9348966942
 31
0.0
  0
ARC
  5
1AA
330
1F
100
AcDbEntity
  8
0
  6
Continuous
 62
     7
370
    25
100
AcDbCircle
 10
23.8988670229
 20
20.1223966942
 30
0.0
 40
0.1875
100
AcDbArc
 50
270.0
 51
90.0
  0
LINE
  5
1AB
330
1F
100
AcDbEntity
  8
0
  6
Continuous
 62
     7
370
    25
100
AcDbLine
 10
22.2113670229
 20
21.7473966942
 30
0.0
 11
22.2113670229
 21
21.9973966942
 31
0.0
  0
ARC
  5
1AC
330
1F
100
AcDbEntity
  8
0
  6
Continuous
 62
     7
370
    25
100
AcDbCircle
 10
22.0238670229
 20
21.9973966942
 30
0.0
 40
0.1875
100
AcDbArc
 50
360.0
 51
180.0
  0
LINE
  5
1AD
330
1F
100
AcDbEntity
  8
0
  6
Continuous
 62
     7
370
    25
100
AcDbLine
 10
21.8363670229
 20
21.9973966942
 30
0.0
 11
21.8363670229
 21
21.7473966942
 31
0.0
  0
ARC
  5
1AE
330
1F
100
AcDbEntity
  8
0
  6
Continuous
 62
     7
370
    25
100
AcDbCircle
 10
22.0238670229
 20
21.7473966942
 30
0.0
 40
0.1875
100
AcDbArc
 50
180.0
 51
360.0
  0
CIRCLE
  5
1AF
330
1F
100
AcDbEntity
  8
0
  6
Continuous
 62
     7
370
    25
100
AcDbCircle
 10
25.01130389
 20
20.6349598271
 30
0.0
 40
0.0747499999999981
  0
CIRCLE
  5
1B0
330
1F
100
AcDbEntity
  8
0
  6
Continuous
 62
     7
370
    25
100
AcDbCircle
 10
22.5364301559
 20
23.1098335613
 30
0.0
 40
0.0747499999999981
  0
CIRCLE
  5
1B1
330
1F
100
AcDbEntity
  8
0
  6
Continuous
 62
     7
370
    25
100
AcDbCircle
 10
23.7738670229
 20
21.8723966942
 30
0.0
 40
2.276200000000003
  0
CIRCLE
  5
1B2
330
1F
100
AcDbEntity
  8
0
  6
Continuous
 62
     7
370
    25
100
AcDbCircle
 10
23.7738670229
 20
21.8723966942
 30
0.0
 40
2.370000000000001
  0
LINE
  5
1B3
330
1F
100
AcDbEntity
  8
0
  6
Continuous
 62
     7
370
    25
100
AcDbLine
 10
25.4301170229
 20
21.9973966942
 30
0.0
 11
25.4301170229
 21
21.7473966942
 31
0.0
  0
ARC
  5
1B4
330
1F
100
AcDbEntity
  8
0
  6
Continuous
 62
     7
370
    25
100
AcDbCircle
 10
25.5238670229
 20
21.7473966942
 30
0.0
 40
0.09375
100
AcDbArc
 50
180.0
 51
0.0
  0
LINE
  5
1B5
330
1F
100
AcDbEntity
  8
0
  6
Continuous
 62
     7
370
    25
100
AcDbLine
 10
25.6176170229
 20
21.7473966942
 30
0.0
 11
25.6176170229
 21
21.9973966942
 31
0.0
  0
ARC
  5
1B6
330
1F
100
AcDbEntity
  8
0
  6
Continuous
 62
     7
370
    25
100
AcDbCircle
 10
25.5238670229
 20
21.9973966942
 30
0.0
 40
0.09375
100
AcDbArc
 50
0.0
 51
180.0
  0
LINE
  5
1B7
330
1F
100
AcDbEntity
  8
0
  6
Continuous
 62
     7
370
    25
100
AcDbLine
 10
23.6488670229
 20
23.5286466942
 30
0.0
 11
23.8988670229
 21
23.5286466942
 31
0.0
  0
ARC
  5
1B8
330
1F
100
AcDbEntity
  8
0
  6
Continuous
 62
     7
370
    25
100
AcDbCircle
 10
23.8988670229
 20
23.6223966942
 30
0.0
 40
0.09375
100
AcDbArc
 50
270.0
 51
90.0
  0
LINE
  5
1B9
330
1F
100
AcDbEntity
  8
0
  6
Continuous
 62
     7
370
    25
100
AcDbLine
 10
23.8988670229
 20
23.7161466942
 30
0.0
 11
23.6488670229
 21
23.7161466942
 31
0.0
  0
ARC
  5
1BA
330
1F
100
AcDbEntity
  8
0
  6
Continuous
 62
     7
370
    25
100
AcDbCircle
 10
23.6488670229
 20
23.6223966942
 30
0.0
 40
0.09375
100
AcDbArc
 50
90.0
 51
270.0
  0
ARC
  5
1BB
330
1F
100
AcDbEntity
  8
0
  6
Continuous
 62
     7
370
    25
100
AcDbCircle
 10
23.7738670229
 20
21.8723966942
 30
0.0
 40
0.9500000000000031
100
AcDbArc
 50
213.6168865176
 51
236.3831134824
  0
ARC
  5
1BC
330
1F
100
AcDbEntity
  8
0
  6
Continuous
 62
     7
370
    25
100
AcDbCircle
 10
23.7738670229
 20
21.8723966942
 30
0.0
 40
0.9000000000000007
100
AcDbArc
 50
211.9651613118
 51
238.0348386882
  0
LINE
  5
1BD
330
1F
100
AcDbEntity
  8
0
  6
Continuous
 62
     7
370
    25
100
AcDbLine
 10
23.8988670229
 20
20.2161466942
 30
0.0
 11
23.6488670229
 21
20.2161466942
 31
0.0
  0
LINE
  5
1BE
330
1F
100
AcDbEntity
  8
0
  6
Continuous
 62
     7
370
    25
100
AcDbLine
 10
23.6488670229
 20
20.0286466942
 30
0.0
 11
23.8988670229
 21
20.0286466942
 31
0.0
  0
ARC
  5
1BF
330
1F
100
AcDbEntity
  8
0
  6
Continuous
 62
     7
370
    25
100
AcDbCircle
 10
23.8988670229
 20
20.1223966942
 30
0.0
 40
0.09375
100
AcDbArc
 50
270.0
 51
90.0
  0
ARC
  5
1C0
330
1F
100
AcDbEntity
  8
0
  6
Continuous
 62
     7
370
    25
100
AcDbCircle
 10
23.6488670229
 20
20.1223966942
 30
0.0
 40
0.09375
100
AcDbArc
 50
90.0
 51
270.0
  0
CIRCLE
  5
1C1
330
1F
100
AcDbEntity
  8
0
  6
Continuous
 62
     7
370
    25
100
AcDbCircle
 10
22.8192728683
 20
20.9178025396
 30
0.0
 40
0.0747500000000016
  0
LINE
  5
1C2
330
1F
100
AcDbEntity
  8
0
  6
Continuous
 62
     7
370
    25
100
AcDbLine
 10
22.1176170229
 20
21.7473966942
 30
0.0
 11
22.1176170229
 21
21.9973966942
 31
0.0
  0
ARC
  5
1C3
330
1F
100
AcDbEntity
  8
0
  6
Continuous
 62
     7
370
    25
100
AcDbCircle
 10
22.0238670229
 20
21.9973966942
 30
0.0
 40
0.09375
100
AcDbArc
 50
0.0
 51
180.0
  0
ARC
  5
1C4
330
1F
100
AcDbEntity
  8
0
  6
Continuous
 62
     7
370
    25
100
AcDbCircle
 10
22.0238670229
 20
21.7473966942
 30
0.0
 40
0.09375
100
AcDbArc
 50
180.0
 51
360.0
  0
LINE
  5
1C5
330
1F
100
AcDbEntity
  8
0
  6
Continuous
 62
     7
370
    25
100
AcDbLine
 10
21.9301170229
 20
21.9973966942
 30
0.0
 11
21.9301170229
 21
21.7473966942
 31
0.0
  0
CIRCLE
  5
1C6
330
1F
100
AcDbEntity
  8
0
  6
Continuous
 62
     7
370
    25
100
AcDbCircle
 10
23.7738670229
 20
21.8723966942
 30
0.0
 40
2.5
  0
DIMENSION
  5
1C7
330
1F
100
AcDbEntity
  8
0
  6
Continuous
 62
     7
370
    18
100
AcDbDimension
  2
_D_5
 10
25.0238670229
 20
24.0374602037
 30
0.0
 11
19.0547002507
 21
18.0007215955
 31
0.0
 70
   163
  1
<>
 71
     1
 42
-1.0
  3
SLDDIMSTYLE2
100
AcDbDiametricDimension
 15
22.5238670229
 25
19.7073331848
 35
0.0
 40
0.0
  0
DIMENSION
  5
1D8
330
1F
100
AcDbEntity
  8
0
  6
Continuous
 62
     7
370
    18
100
AcDbDimension
  2
_D_6
 10
23.7738670229
 20
21.8723966942
 30
0.0
 11
28.2090403381
 21
18.1726644805
 31
0.0
 70
   164
  1
<>
 71
     1
 42
-1.0
  3
SLDDIMSTYLE3
100
AcDbRadialDimension
 15
24.2238670229
 25
21.0929738308
 35
0.0
 40
0.0
  0
DIMENSION
  5
1E8
330
1F
100
AcDbEntity
  8
0
  6
Continuous
 62
     7
370
    18
100
AcDbDimension
  2
_D_7
 10
28.7935520623
 20
20.1223966942
 30
0.0
 11
28.7935520623
 21
21.8723966942
 31
0.0
 70
   160
  1
<>O.C.
 71
     2
 42
-1.0
  3
SLDDIMSTYLE0
100
AcDbAlignedDimension
 13
23.8988670229
 23
23.6223966942
 33
0.0
 14
23.8988670229
 24
20.1223966942
 34
0.0
 50
90.0
100
AcDbRotatedDimension
  0
DIMENSION
  5
1FB
330
1F
100
AcDbEntity
  8
0
  6
Continuous
 62
     7
370
    18
100
AcDbDimension
  2
_D_8
 10
25.5238670229
 20
25.9471998438
 30
0.0
 11
28.4982764717
 21
25.9471998438
 31
0.0
 70
   160
  1
<>O.C.
 71
     2
 42
-1.0
  3
SLDDIMSTYLE1
100
AcDbAlignedDimension
 13
22.0238670229
 23
21.9973966942
 33
0.0
 14
25.5238670229
 24
21.9973966942
 34
0.0
 50
0.0
100
AcDbRotatedDimension
  0
MTEXT
  5
20E
330
1F
100
AcDbEntity
  8
0
  6
Continuous
 62
     7
370
     0
100
AcDbMText
 10
23.7290751363
 20
17.2540231846
 30
0.0
 40
0.5
 41
0.0
 71
     2
 72
     1
  1
MOUNTING PLATE
  7
SLDTEXTSTYLE0
 73
     1
 44
1.0
  0
MTEXT
  5
20F
330
1F
100
AcDbEntity
  8
0
  6
Continuous
 62
     7
370
     0
100
AcDbMText
 10
23.7528600618
 20
16.5965428866
 30
0.0
 40
0.5
 41
0.0
 71
     2
 72
     1
  1
DETAIL
  7
SLDTEXTSTYLE0
 73
     1
 44
1.0
  0
INSERT
  5
21B
330
1F
100
AcDbEntity
  8
0
  6
Continuous
 62
     7
370
     0
100
AcDbBlockReference
  2
SW_CENTERMARKSYMBOL_0
 10
23.7738670229
 20
21.8723966942
 30
0.0
  0
INSERT
  5
227
330
1F
100
AcDbEntity
  8
0
  6
Continuous
 62
     7
370
     0
100
AcDbBlockReference
  2
SW_CENTERMARKSYMBOL_1
 10
25.01130389
 20
20.6349598271
 30
0.0
  0
INSERT
  5
233
330
1F
100
AcDbEntity
  8
0
  6
Continuous
 62
     7
370
     0
100
AcDbBlockReference
  2
SW_CENTERMARKSYMBOL_2
 10
22.5364301559
 20
23.1098335613
 30
0.0
  0
INSERT
  5
23F
330
1F
100
AcDbEntity
  8
0
  6
Continuous
 62
     7
370
     0
100
AcDbBlockReference
  2
SW_CENTERMARKSYMBOL_3
 10
22.8192728683
 20
20.9178025396
 30
0.0
  0
CIRCLE
  5
240
330
1F
100
AcDbEntity
  8
0
  6
HIDDEN
 62
     7
370
    18
100
AcDbCircle
 10
25.01130389
 20
20.6349598271
 30
0.0
 40
0.0949999999999989
  0
CIRCLE
  5
241
330
1F
100
AcDbEntity
  8
0
  6
HIDDEN
 62
     7
370
    18
100
AcDbCircle
 10
22.5364301559
 20
23.1098335613
 30
0.0
 40
0.0949999999999989
  0
CIRCLE
  5
242
330
1F
100
AcDbEntity
  8
0
  6
HIDDEN
 62
     7
370
    18
100
AcDbCircle
 10
22.8192728683
 20
20.9178025396
 30
0.0
 40
0.0950000000000024
  0
LINE
  5
243
330
1F
100
AcDbEntity
  8
0
  6
Continuous
 62
     7
370
    25
100
AcDbLine
 10
30.5924256366
 20
2.3192740414
 30
0.0
 11
30.5924256366
 21
8.1292740414
 31
0.0
  0
LINE
  5
244
330
1F
100
AcDbEntity
  8
0
  6
Continuous
 62
     7
370
    25
100
AcDbLine
 10
25.1224256366
 20
8.1292740414
 30
0.0
 11
25.1224256366
 21
2.3192740414
 31
0.0
  0
LINE
  5
245
330
1F
100
AcDbEntity
  8
0
  6
Continuous
 62
     7
370
    25
100
AcDbLine
 10
30.5924256366
 20
2.3192740414
 30
0.0
 11
25.1224256366
 21
2.3192740414
 31
0.0
  0
SPLINE
  5
246
330
1F
100
AcDbEntity
  8
0
  6
Continuous
 62
     7
370
    25
100
AcDbSpline
210
0.0
220
0.0
230
1.0
 70
    11
 71
     3
 72
    44
 73
    40
 74
     0
 42
0.00000001
 43
0.00000001
 40
0.0
 40
0.0
 40
0.0
 40
0.0
 40
0.0268407075037204
 40
0.0536814436171067
 40
0.0805218400163184
 40
0.1073622775571837
 40
0.1342090195496475
 40
0.1610557510295037
 40
0.1879066918425304
 40
0.2147575868473702
 40
0.2416016629618334
 40
0.2684457294808887
 40
0.2952825965408042
 40
0.3221195051029496
 40
0.3489600629385369
 40
0.3758006486318694
 40
0.4026500400926409
 40
0.4294994022402348
 40
0.456348987514486
 40
0.4831985319786937
 40
0.5100393597322638
 40
0.5368801989115449
 40
0.5637169903473239
 40
0.5905538275122382
 40
0.6173976012520723
 40
0.6442413836811461
 40
0.6710922612288872
 40
0.6979430968125414
 40
0.724790113157468
 40
0.7516371023785454
 40
0.7784753233244115
 40
0.8053135742610189
 40
0.8321517896325136
 40
0.8589900452760881
 40
0.8858370504679965
 40
0.912684043379901
 40
0.9395349242133848
 40
0.966385759258445
 40
1.0
 40
1.0
 40
1.0
 40
1.0
 10
27.78267563656951
 20
2.506774041404539
 30
0.0
 10
27.78288495256407
 20
2.510975370687719
 30
0.0
 10
27.78330358477631
 20
2.519378033732303
 30
0.0
 10
27.78657150099005
 20
2.531631457544439
 30
0.0
 10
27.79173558052718
 20
2.543164643455933
 30
0.0
 10
27.79876697209654
 20
2.553687109219029
 30
0.0
 10
27.80748648661148
 20
2.562851633330514
 30
0.0
 10
27.8175984979178
 20
2.570458467267797
 30
0.0
 10
27.82886445762344
 20
2.576220741643865
 30
0.0
 10
27.84092483910856
 20
2.580051893893003
 30
0.0
 10
27.85346248881797
 20
2.581759732520975
 30
0.0
 10
27.86610821603104
 20
2.581383060550931
 30
0.0
 10
27.87850114977543
 20
2.578845916282118
 30
0.0
 10
27.89030765075168
 20
2.574306637160048
 30
0.0
 10
27.90116233244948
 20
2.567812096708122
 30
0.0
 10
27.91080307971081
 20
2.559620497043777
 30
0.0
 10
27.91889888345219
 20
2.549897297540379
 30
0.0
 10
27.9252865212143
 20
2.53897378435714
 30
0.0
 10
27.92970805872237
 20
2.527116870833757
 30
0.0
 10
27.93211945998369
 20
2.514695236533629
 30
0.0
 10
27.93236686720313
 20
2.502045365499893
 30
0.0
 10
27.9305316748377
 20
2.489529003852552
 30
0.0
 10
27.92657994549162
 20
2.477512932425597
 30
0.0
 10
27.92070694339975
 20
2.466309755929624
 30
0.0
 10
27.9130012792898
 20
2.456277486865923
 30
0.0
 10
27.90374961502006
 20
2.447647069734742
 30
0.0
 10
27.89315496577063
 20
2.440728626879685
 30
0.0
 10
27.88156604077825
 20
2.435646235928302
 30
0.0
 10
27.86927783749696
 20
2.432624893777905
 30
0.0
 10
27.85666181844089
 20
2.431665326536468
 30
0.0
 10
27.8440693808992
 20
2.432881224284028
 30
0.0
 10
27.83184962268413
 20
2.436150047530786
 30
0.0
 10
27.8203709553288
 20
2.441463437582608
 30
0.0
 10
27.80992009641353
 20
2.448591877906851
 30
0.0
 10
27.8008470308151
 20
2.457405991724876
 30
0.0
 10
27.79333375953667
 20
2.467593831663687
 30
0.0
 10
27.78772024303672
 20
2.478918340435106
 30
0.0
 10
27.7835607784919
 20
2.492031620469095
 30
0.0
 10
27.78299189496474
 20
2.501506621266671
 30
0.0
 10
27.78267563656951
 20
2.506774041404539
 30
0.0
  0
LINE
  5
247
330
1F
100
AcDbEntity
  8
0
  6
Continuous
 62
     7
370
    25
100
AcDbLine
 10
30.5924256366
 20
8.1292740414
 30
0.0
 11
25.1224256366
 21
8.1292740414
 31
0.0
  0
DIMENSION
  5
248
330
1F
100
AcDbEntity
  8
0
  6
Continuous
 62
     7
370
    18
100
AcDbDimension
  2
_D_9
 10
23.1136881906
 20
8.1292740414
 30
0.0
 11
23.1136881906
 21
5.2242740414
 31
0.0
 70
   160
  1
<>
 71
     2
 42
-1.0
  3
SLDDIMSTYLE1
100
AcDbAlignedDimension
 13
25.1224256366
 23
2.3192740414
 33
0.0
 14
25.1224256366
 24
8.1292740414
 34
0.0
 50
90.0
100
AcDbRotatedDimension
  0
MTEXT
  5
25D
330
1F
100
AcDbEntity
  8
0
  6
Continuous
 62
     7
370
     0
100
AcDbMText
 10
27.8265228205
 20
1.4862801409
 30
0.0
 40
0.5
 41
0.0
 71
     2
 72
     1
  1
CAP C
  7
SLDTEXTSTYLE1
 73
     1
 44
1.0
  0
LINE
  5
25E
330
1F
100
AcDbEntity
  8
0
  6
Continuous
 62
     7
370
    25
100
AcDbLine
 10
19.3132644628
 20
2.3492740414
 30
0.0
 11
19.3132644628
 21
9.0992740414
 31
0.0
  0
LINE
  5
25F
330
1F
100
AcDbEntity
  8
0
  6
Continuous
 62
     7
370
    25
100
AcDbLine
 10
13.8432644628
 20
9.0992740414
 30
0.0
 11
13.8432644628
 21
2.3492740414
 31
0.0
  0
ARC
  5
260
330
1F
100
AcDbEntity
  8
0
  6
Continuous
 62
     7
370
    25
100
AcDbCircle
 10
13.8732644628
 20
9.0992740414
 30
0.0
 40
0.0299999999999994
100
AcDbArc
 50
90.0
 51
180.0
  0
ARC
  5
261
330
1F
100
AcDbEntity
  8
0
  6
Continuous
 62
     7
370
    25
100
AcDbCircle
 10
19.2832644628
 20
9.0992740414
 30
0.0
 40
0.0300000000000011
100
AcDbArc
 50
0.0
 51
90.0
  0
ARC
  5
262
330
1F
100
AcDbEntity
  8
0
  6
Continuous
 62
     7
370
    25
100
AcDbCircle
 10
19.2832644628
 20
2.3492740414
 30
0.0
 40
0.0300000000000011
100
AcDbArc
 50
270.0
 51
0.0
  0
ARC
  5
263
330
1F
100
AcDbEntity
  8
0
  6
Continuous
 62
     7
370
    25
100
AcDbCircle
 10
13.8732644628
 20
2.3492740414
 30
0.0
 40
0.0300000000000007
100
AcDbArc
 50
180.0
 51
270.0
  0
SPLINE
  5
264
330
1F
100
AcDbEntity
  8
0
  6
Continuous
 62
     7
370
    25
100
AcDbSpline
210
0.0
220
0.0
230
1.0
 70
    11
 71
     3
 72
    44
 73
    40
 74
     0
 42
0.00000001
 43
0.00000001
 40
0.0
 40
0.0
 40
0.0
 40
0.0
 40
0.0268407075037033
 40
0.0536814436170724
 40
0.0805218400163045
 40
0.1073622775571875
 40
0.1342090195496385
 40
0.1610557510294836
 40
0.1879066918425147
 40
0.2147575868473574
 40
0.24160166296182
 40
0.268445729480876
 40
0.2952825965407894
 40
0.3221195051029319
 40
0.3489600629385159
 40
0.3758006486318446
 40
0.4026500400926233
 40
0.4294994022402259
 40
0.4563489875144764
 40
0.4831985319786835
 40
0.5100393597322486
 40
0.5368801989115253
 40
0.5637169903473105
 40
0.5905538275122308
 40
0.6173976012520608
 40
0.6442413836811315
 40
0.6710922612288803
 40
0.6979430968125404
 40
0.7247901131574633
 40
0.7516371023785398
 40
0.7784753233244074
 40
0.8053135742610175
 40
0.8321517896325089
 40
0.8589900452760787
 40
0.885837050467991
 40
0.9126840433798993
 40
0.9395349242133727
 40
0.9663857592584213
 40
1.0
 40
1.0
 40
1.0
 40
1.0
 10
16.50351446280991
 20
2.506774041404552
 30
0.0
 10
16.50372377880447
 20
2.51097537068773
 30
0.0
 10
16.50414241101671
 20
2.519378033732309
 30
0.0
 10
16.50741032723046
 20
2.531631457544441
 30
0.0
 10
16.51257440676758
 20
2.54316464345594
 30
0.0
 10
16.51960579833694
 20
2.553687109219045
 30
0.0
 10
16.52832531285188
 20
2.562851633330522
 30
0.0
 10
16.5384373241582
 20
2.570458467267796
 30
0.0
 10
16.54970328386384
 20
2.576220741643869
 30
0.0
 10
16.56176366534896
 20
2.580051893893013
 30
0.0
 10
16.57430131505837
 20
2.581759732520979
 30
0.0
 10
16.58694704227144
 20
2.58138306055093
 30
0.0
 10
16.59933997601583
 20
2.578845916282121
 30
0.0
 10
16.61114647699208
 20
2.574306637160054
 30
0.0
 10
16.62200115868988
 20
2.567812096708131
 30
0.0
 10
16.63164190595121
 20
2.559620497043789
 30
0.0
 10
16.63973770969259
 20
2.549897297540388
 30
0.0
 10
16.6461253474547
 20
2.538973784357145
 30
0.0
 10
16.65054688496277
 20
2.527116870833761
 30
0.0
 10
16.65295828622409
 20
2.514695236533634
 30
0.0
 10
16.65320569344353
 20
2.502045365499901
 30
0.0
 10
16.6513705010781
 20
2.48952900385256
 30
0.0
 10
16.64741877173202
 20
2.477512932425603
 30
0.0
 10
16.64154576964015
 20
2.466309755929629
 30
0.0
 10
16.6338401055302
 20
2.456277486865929
 30
0.0
 10
16.62458844126046
 20
2.447647069734753
 30
0.0
 10
16.61399379201103
 20
2.440728626879688
 30
0.0
 10
16.60240486701865
 20
2.435646235928295
 30
0.0
 10
16.59011666373735
 20
2.432624893777909
 30
0.0
 10
16.5775006446813
 20
2.431665326536479
 30
0.0
 10
16.5649082071396
 20
2.432881224284041
 30
0.0
 10
16.55268844892453
 20
2.436150047530806
 30
0.0
 10
16.5412097815692
 20
2.441463437582621
 30
0.0
 10
16.53075892265394
 20
2.448591877906861
 30
0.0
 10
16.5216858570555
 20
2.457405991724887
 30
0.0
 10
16.51417258577707
 20
2.4675938316637
 30
0.0
 10
16.50855906927712
 20
2.478918340435114
 30
0.0
 10
16.5043996047323
 20
2.492031620469103
 30
0.0
 10
16.50383072120514
 20
2.50150662126668
 30
0.0
 10
16.50351446280991
 20
2.506774041404552
 30
0.0
  0
LINE
  5
265
330
1F
100
AcDbEntity
  8
0
  6
Continuous
 62
     7
370
    25
100
AcDbLine
 10
13.8732644628
 20
9.1292740414
 30
0.0
 11
19.2832644628
 21
9.1292740414
 31
0.0
  0
LINE
  5
266
330
1F
100
AcDbEntity
  8
0
  6
Continuous
 62
     7
370
    25
100
AcDbLine
 10
19.2832644628
 20
2.3192740414
 30
0.0
 11
13.8732644628
 21
2.3192740414
 31
0.0
  0
LINE
  5
267
330
1F
100
AcDbEntity
  8
0
  6
Continuous
 62
     7
370
    25
100
AcDbLine
 10
13.8432644628
 20
2.3492740414
 30
0.0
 11
19.3132644628
 21
2.3492740414
 31
0.0
  0
LINE
  5
268
330
1F
100
AcDbEntity
  8
0
  6
Continuous
 62
     7
370
    25
100
AcDbLine
 10
19.3132644628
 20
9.0992740414
 30
0.0
 11
13.8432644628
 21
9.0992740414
 31
0.0
  0
DIMENSION
  5
269
330
1F
100
AcDbEntity
  8
0
  6
Continuous
 62
     7
370
    18
100
AcDbDimension
  2
_D_10
 10
11.3235794234
 20
2.3492740414
 30
0.0
 11
11.3235794234
 21
5.7242740414
 31
0.0
 70
   160
  1
<>
 71
     2
 42
-1.0
  3
SLDDIMSTYLE1
100
AcDbAlignedDimension
 13
13.8432644628
 23
9.0992740414
 33
0.0
 14
13.8432644628
 24
2.3492740414
 34
0.0
 50
90.0
100
AcDbRotatedDimension
  0
MTEXT
  5
27D
330
1F
100
AcDbEntity
  8
0
  6
Continuous
 62
     7
370
     0
100
AcDbMText
 10
16.5444102319
 20
1.3862801409
 30
0.0
 40
0.5
 41
0.0
 71
     2
 72
     1
  1
CAP B/E
  7
SLDTEXTSTYLE0
 73
     1
 44
1.0
  0
ENDSEC
  0
SECTION
  2
OBJECTS
  0
DICTIONARY
  5
C
330
0
100
AcDbDictionary
281
     1
  3
ACAD_GROUP
350
D
  3
ACAD_LAYOUT
350
1A
  3
ACAD_MLINESTYLE
350
17
  3
ACAD_PLOTSETTINGS
350
19
  3
ACAD_PLOTSTYLENAME
350
E
  3
ACAD_SCALELIST
350
47
  3
DWGPROPS
350
27E
  0
DICTIONARY
  5
D
102
{ACAD_REACTORS
330
C
102
}
330
C
100
AcDbDictionary
281
     1
  0
DICTIONARY
  5
1A
102
{ACAD_REACTORS
330
C
102
}
330
C
100
AcDbDictionary
281
     1
  3
Layout1
350
1E
  3
Layout2
350
26
  3
Model
350
22
  0
DICTIONARY
  5
17
102
{ACAD_REACTORS
330
C
102
}
330
C
100
AcDbDictionary
281
     1
  3
Standard
350
18
  0
DICTIONARY
  5
19
102
{ACAD_REACTORS
330
C
102
}
330
C
100
AcDbDictionary
281
     1
  0
ACDBDICTIONARYWDFLT
  5
E
102
{ACAD_REACTORS
330
C
102
}
330
C
100
AcDbDictionary
281
     1
  3
Normal
350
F
100
AcDbDictionaryWithDefault
340
F
  0
DICTIONARY
  5
47
102
{ACAD_REACTORS
330
C
102
}
330
C
100
AcDbDictionary
281
     1
  3
A0
350
48
  3
A1
350
49
  3
A2
350
4A
  3
A3
350
4B
  3
A4
350
4C
  3
A5
350
4D
  3
A6
350
4E
  3
A7
350
4F
  3
A8
350
50
  3
A9
350
51
  3
B1
350
52
  3
B2
350
53
  3
B3
350
54
  3
B4
350
55
  3
B5
350
56
  3
B6
350
57
  3
B7
350
58
  0
XRECORD
  5
27E
102
{ACAD_REACTORS
330
C
102
}
330
C
100
AcDbXrecord
280
     1
  1
DWGPROPS COOKIE
  2

  3

  4

  6

  7

  8
shawnd
  9

300
=
301
=
302
=
303
=
304
=
305
=
306
=
307
=
308
=
309
=
 40
0.0
 41
2460789.875537755
 42
2460789.875538472
  1

 90
        0
  0
LAYOUT
  5
1E
102
{ACAD_REACTORS
330
1A
102
}
330
1A
100
AcDbPlotSettings
  1

  2
none_device
  4

  6

 40
0.0
 41
0.0
 42
0.0
 43
0.0
 44
0.0
 45
0.0
 46
0.0
 47
0.0
 48
0.0
 49
0.0
140
0.0
141
0.0
142
1.0
143
1.0
 70
   688
 72
     0
 73
     0
 74
     5
  7

 75
    16
147
1.0
148
0.0
149
0.0
100
AcDbLayout
  1
Layout1
 70
     1
 71
     1
 10
0.0
 20
0.0
 11
12.0
 21
9.0
 12
0.0
 22
0.0
 32
0.0
 14
1.0000000000E+20
 24
1.0000000000E+20
 34
1.0000000000E+20
 15
-1.0000000000E+20
 25
-1.0000000000E+20
 35
-1.0000000000E+20
146
0.0
 13
0.0
 23
0.0
 33
0.0
 16
1.0
 26
0.0
 36
0.0
 17
0.0
 27
1.0
 37
0.0
 76
     0
330
1B
  0
LAYOUT
  5
26
102
{ACAD_REACTORS
330
1A
102
}
330
1A
100
AcDbPlotSettings
  1

  2
none_device
  4

  6

 40
0.0
 41
0.0
 42
0.0
 43
0.0
 44
0.0
 45
0.0
 46
0.0
 47
0.0
 48
0.0
 49
0.0
140
0.0
141
0.0
142
1.0
143
1.0
 70
   688
 72
     0
 73
     0
 74
     5
  7

 75
    16
147
1.0
148
0.0
149
0.0
100
AcDbLayout
  1
Layout2
 70
     1
 71
     2
 10
0.0
 20
0.0
 11
0.0
 21
0.0
 12
0.0
 22
0.0
 32
0.0
 14
0.0
 24
0.0
 34
0.0
 15
0.0
 25
0.0
 35
0.0
146
0.0
 13
0.0
 23
0.0
 33
0.0
 16
1.0
 26
0.0
 36
0.0
 17
0.0
 27
1.0
 37
0.0
 76
     0
330
23
  0
LAYOUT
  5
22
102
{ACAD_REACTORS
330
1A
102
}
330
1A
100
AcDbPlotSettings
  1

  2
none_device
  4
Letter_(8.50_x_11.00_Inches)
  6

 40
6.35
 41
6.35
 42
6.35000508
 43
6.35000508
 44
215.9
 45
279.4
 46
0.0
 47
0.0
 48
0.0
 49
0.0
140
0.0
141
0.0
142
1.0
143
1.0
 70
  1712
 72
     0
 73
     0
 74
     0
  7

 75
     0
147
1.0
148
0.0
149
0.0
100
AcDbLayout
  1
Model
 70
     1
 71
     0
 10
0.0
 20
0.0
 11
44.0
 21
34.0
 12
0.0
 22
0.0
 32
0.0
 14
0.0
 24
0.0
 34
0.0
 15
44.0
 25
34.0
 35
0.0
146
0.0
 13
0.0
 23
0.0
 33
0.0
 16
1.0
 26
0.0
 36
0.0
 17
0.0
 27
1.0
 37
0.0
 76
     0
330
1F
331
29
  0
MLINESTYLE
  5
18
102
{ACAD_REACTORS
330
17
102
}
330
17
100
AcDbMlineStyle
  2
Standard
 70
     0
  3

 62
   256
 51
90.0
 52
90.0
 71
     2
 49
0.5
 62
   256
  6
BYLAYER
 49
-0.5
 62
   256
  6
BYLAYER
  0
ACDBPLACEHOLDER
  5
F
102
{ACAD_REACTORS
330
E
102
}
330
E
  0
SCALE
  5
48
102
{ACAD_REACTORS
330
47
102
}
330
47
100
AcDbScale
 70
     0
300
1:1
140
1.0
141
1.0
290
     1
  0
SCALE
  5
49
102
{ACAD_REACTORS
330
47
102
}
330
47
100
AcDbScale
 70
     0
300
1/128" = 1'-0"
140
0.0078125
141
12.0
290
     0
  0
SCALE
  5
4A
102
{ACAD_REACTORS
330
47
102
}
330
47
100
AcDbScale
 70
     0
300
1/64" = 1'-0"
140
0.015625
141
12.0
290
     0
  0
SCALE
  5
4B
102
{ACAD_REACTORS
330
47
102
}
330
47
100
AcDbScale
 70
     0
300
1/32" = 1'-0"
140
0.03125
141
12.0
290
     0
  0
SCALE
  5
4C
102
{ACAD_REACTORS
330
47
102
}
330
47
100
AcDbScale
 70
     0
300
1/16" = 1'-0"
140
0.0625
141
12.0
290
     0
  0
SCALE
  5
4D
102
{ACAD_REACTORS
330
47
102
}
330
47
100
AcDbScale
 70
     0
300
3/32" = 1'-0"
140
0.09375
141
12.0
290
     0
  0
SCALE
  5
4E
102
{ACAD_REACTORS
330
47
102
}
330
47
100
AcDbScale
 70
     0
300
1/8" = 1'-0"
140
0.125
141
12.0
290
     0
  0
SCALE
  5
4F
102
{ACAD_REACTORS
330
47
102
}
330
47
100
AcDbScale
 70
     0
300
3/16" = 1'-0"
140
0.1875
141
12.0
290
     0
  0
SCALE
  5
50
102
{ACAD_REACTORS
330
47
102
}
330
47
100
AcDbScale
 70
     0
300
1/4" = 1'-0"
140
0.25
141
12.0
290
     0
  0
SCALE
  5
51
102
{ACAD_REACTORS
330
47
102
}
330
47
100
AcDbScale
 70
     0
300
3/8" = 1'-0"
140
0.375
141
12.0
290
     0
  0
SCALE
  5
52
102
{ACAD_REACTORS
330
47
102
}
330
47
100
AcDbScale
 70
     0
300
1/2" = 1'-0"
140
0.5
141
12.0
290
     0
  0
SCALE
  5
53
102
{ACAD_REACTORS
330
47
102
}
330
47
100
AcDbScale
 70
     0
300
3/4" = 1'-0"
140
0.75
141
12.0
290
     0
  0
SCALE
  5
54
102
{ACAD_REACTORS
330
47
102
}
330
47
100
AcDbScale
 70
     0
300
1" = 1'-0"
140
1.0
141
12.0
290
     0
  0
SCALE
  5
55
102
{ACAD_REACTORS
330
47
102
}
330
47
100
AcDbScale
 70
     0
300
1-1/2" = 1'-0"
140
1.5
141
12.0
290
     0
  0
SCALE
  5
56
102
{ACAD_REACTORS
330
47
102
}
330
47
100
AcDbScale
 70
     0
300
3" = 1'-0"
140
3.0
141
12.0
290
     0
  0
SCALE
  5
57
102
{ACAD_REACTORS
330
47
102
}
330
47
100
AcDbScale
 70
     0
300
6" = 1'-0"
140
6.0
141
12.0
290
     0
  0
SCALE
  5
58
102
{ACAD_REACTORS
330
47
102
}
330
47
100
AcDbScale
 70
     0
300
1'-0" = 1'-0"
140
12.0
141
12.0
290
     0
  0
ENDSEC
  0
EOF
