  0
SECTION
  2
HEADER
  9
$ACADVER
  1
AC1015
  9
$ACADMAINTVER
 70
     6
  9
$DWGCODEPAGE
  3
ANSI_1252
  9
$INSBASE
 10
0.0
 20
0.0
 30
0.0
  9
$EXTMIN
 10
0.0
 20
0.0
 30
0.0
  9
$EXTMAX
 10
44.0
 20
34.0
 30
0.0
  9
$LIMMIN
 10
0.0
 20
0.0
  9
$LIMMAX
 10
44.0
 20
34.0
  9
$ORTHOMODE
 70
     0
  9
$REGENMODE
 70
     1
  9
$FILLMODE
 70
     1
  9
$QTEXTMODE
 70
     0
  9
$MIRRTEXT
 70
     1
  9
$LTSCALE
 40
4.0
  9
$ATTMODE
 70
     1
  9
$TEXTSIZE
 40
0.5
  9
$TRACEWID
 40
0.05
  9
$TEXTSTYLE
  7
Standard
  9
$CLAYER
  8
0
  9
$CELTYPE
  6
ByLayer
  9
$CECOLOR
 62
   256
  9
$CELTSCALE
 40
1.0
  9
$DISPSILH
 70
     0
  9
$DIMSCALE
 40
1.0
  9
$DIMASZ
 40
0.52
  9
$DIMEXO
 40
0.2
  9
$DIMDLI
 40
0.38
  9
$DIMRND
 40
0.0
  9
$DIMDLE
 40
0.0
  9
$DIMEXE
 40
0.5
  9
$DIMTP
 40
0.0
  9
$DIMTM
 40
0.0
  9
$DIMTXT
 40
0.5
  9
$DIMCEN
 40
0.09
  9
$DIMTSZ
 40
0.0
  9
$DIMTOL
 70
     0
  9
$DIMLIM
 70
     0
  9
$DIMTIH
 70
     1
  9
$DIMTOH
 70
     1
  9
$DIMSE1
 70
     0
  9
$DIMSE2
 70
     0
  9
$DIMTAD
 70
     0
  9
$DIMZIN
 70
     1
  9
$DIMBLK
  1

  9
$DIMASO
 70
     1
  9
$DIMSHO
 70
     1
  9
$DIMPOST
  1

  9
$DIMAPOST
  1

  9
$DIMALT
 70
     0
  9
$DIMALTD
 70
     2
  9
$DIMALTF
 40
25.4
  9
$DIMLFAC
 40
1.0
  9
$DIMTOFL
 70
     0
  9
$DIMTVP
 40
0.0
  9
$DIMTIX
 70
     0
  9
$DIMSOXD
 70
     0
  9
$DIMSAH
 70
     0
  9
$DIMBLK1
  1

  9
$DIMBLK2
  1

  9
$DIMSTYLE
  2
Standard
  9
$DIMCLRD
 70
     0
  9
$DIMCLRE
 70
     0
  9
$DIMCLRT
 70
     0
  9
$DIMTFAC
 40
1.0
  9
$DIMGAP
 40
0.24
  9
$DIMJUST
 70
     0
  9
$DIMSD1
 70
     0
  9
$DIMSD2
 70
     0
  9
$DIMTOLJ
 70
     1
  9
$DIMTZIN
 70
     1
  9
$DIMALTZ
 70
     0
  9
$DIMALTTZ
 70
     0
  9
$DIMUPT
 70
     0
  9
$DIMDEC
 70
     0
  9
$DIMTDEC
 70
     0
  9
$DIMALTU
 70
     2
  9
$DIMALTTD
 70
     2
  9
$DIMTXSTY
  7
Standard
  9
$DIMAUNIT
 70
     0
  9
$DIMADEC
 70
     0
  9
$DIMALTRND
 40
0.0
  9
$DIMAZIN
 70
     0
  9
$DIMDSEP
 70
    46
  9
$DIMATFIT
 70
     3
  9
$DIMFRAC
 70
     0
  9
$DIMLDRBLK
  1

  9
$DIMLUNIT
 70
     2
  9
$DIMLWD
 70
    -2
  9
$DIMLWE
 70
    -2
  9
$DIMTMOVE
 70
     0
  9
$LUNITS
 70
     2
  9
$LUPREC
 70
     6
  9
$SKETCHINC
 40
0.1
  9
$FILLETRAD
 40
0.0
  9
$AUNITS
 70
     0
  9
$AUPREC
 70
     2
  9
$MENU
  1
.
  9
$ELEVATION
 40
0.0
  9
$PELEVATION
 40
0.0
  9
$THICKNESS
 40
0.0
  9
$LIMCHECK
 70
     0
  9
$CHAMFERA
 40
0.0
  9
$CHAMFERB
 40
0.0
  9
$CHAMFERC
 40
0.0
  9
$CHAMFERD
 40
0.0
  9
$SKPOLY
 70
     0
  9
$TDCREATE
 40
2460789.591372616
  9
$TDUCREATE
 40
2460789.883039283
  9
$TDUPDATE
 40
2460789.591373299
  9
$TDUUPDATE
 40
2460789.883039966
  9
$TDINDWG
 40
0.0000000116
  9
$TDUSRTIMER
 40
0.0000000116
  9
$USRTIMER
 70
     1
  9
$ANGBASE
 50
0.0
  9
$ANGDIR
 70
     0
  9
$PDMODE
 70
     0
  9
$PDSIZE
 40
-1.0
  9
$PLINEWID
 40
0.0
  9
$SPLFRAME
 70
     0
  9
$SPLINETYPE
 70
     6
  9
$SPLINESEGS
 70
     8
  9
$HANDSEED
  5
296
  9
$SURFTAB1
 70
     6
  9
$SURFTAB2
 70
     6
  9
$SURFTYPE
 70
     6
  9
$SURFU
 70
     6
  9
$SURFV
 70
     6
  9
$UCSBASE
  2

  9
$UCSNAME
  2

  9
$UCSORG
 10
0.0
 20
0.0
 30
0.0
  9
$UCSXDIR
 10
1.0
 20
0.0
 30
0.0
  9
$UCSYDIR
 10
0.0
 20
1.0
 30
0.0
  9
$UCSORTHOREF
  2

  9
$UCSORTHOVIEW
 70
     0
  9
$UCSORGTOP
 10
0.0
 20
0.0
 30
0.0
  9
$UCSORGBOTTOM
 10
0.0
 20
0.0
 30
0.0
  9
$UCSORGLEFT
 10
0.0
 20
0.0
 30
0.0
  9
$UCSORGRIGHT
 10
0.0
 20
0.0
 30
0.0
  9
$UCSORGFRONT
 10
0.0
 20
0.0
 30
0.0
  9
$UCSORGBACK
 10
0.0
 20
0.0
 30
0.0
  9
$PUCSBASE
  2

  9
$PUCSNAME
  2

  9
$PUCSORG
 10
0.0
 20
0.0
 30
0.0
  9
$PUCSXDIR
 10
1.0
 20
0.0
 30
0.0
  9
$PUCSYDIR
 10
0.0
 20
1.0
 30
0.0
  9
$PUCSORTHOREF
  2

  9
$PUCSORTHOVIEW
 70
     0
  9
$PUCSORGTOP
 10
0.0
 20
0.0
 30
0.0
  9
$PUCSORGBOTTOM
 10
0.0
 20
0.0
 30
0.0
  9
$PUCSORGLEFT
 10
0.0
 20
0.0
 30
0.0
  9
$PUCSORGRIGHT
 10
0.0
 20
0.0
 30
0.0
  9
$PUCSORGFRONT
 10
0.0
 20
0.0
 30
0.0
  9
$PUCSORGBACK
 10
0.0
 20
0.0
 30
0.0
  9
$USERI1
 70
     0
  9
$USERI2
 70
     0
  9
$USERI3
 70
     0
  9
$USERI4
 70
     0
  9
$USERI5
 70
     0
  9
$USERR1
 40
0.0
  9
$USERR2
 40
0.0
  9
$USERR3
 40
0.0
  9
$USERR4
 40
0.0
  9
$USERR5
 40
0.0
  9
$WORLDVIEW
 70
     1
  9
$SHADEDGE
 70
     3
  9
$SHADEDIF
 70
    70
  9
$TILEMODE
 70
     1
  9
$MAXACTVP
 70
    64
  9
$PINSBASE
 10
0.0
 20
0.0
 30
0.0
  9
$PLIMCHECK
 70
     0
  9
$PEXTMIN
 10
1.0000000000E+20
 20
1.0000000000E+20
 30
1.0000000000E+20
  9
$PEXTMAX
 10
-1.0000000000E+20
 20
-1.0000000000E+20
 30
-1.0000000000E+20
  9
$PLIMMIN
 10
0.0
 20
0.0
  9
$PLIMMAX
 10
12.0
 20
9.0
  9
$UNITMODE
 70
     0
  9
$VISRETAIN
 70
     1
  9
$PLINEGEN
 70
     0
  9
$PSLTSCALE
 70
     1
  9
$TREEDEPTH
 70
  3020
  9
$CMLSTYLE
  2
Standard
  9
$CMLJUST
 70
     0
  9
$CMLSCALE
 40
1.0
  9
$PROXYGRAPHICS
 70
     1
  9
$MEASUREMENT
 70
     0
  9
$CELWEIGHT
370
    -1
  9
$ENDCAPS
280
     0
  9
$JOINSTYLE
280
     0
  9
$LWDISPLAY
290
     1
  9
$INSUNITS
 70
     1
  9
$HYPERLINKBASE
  1

  9
$STYLESHEET
  1

  9
$XEDIT
290
     1
  9
$CEPSNTYPE
380
     0
  9
$PSTYLEMODE
290
     1
  9
$FINGERPRINTGUID
  2
{b903205c-76e8-40f5-8243-0a32c05ee9e8}
  9
$VERSIONGUID
  2
{FAEB1C32-E019-11D5-929B-00C0DF256EC4}
  9
$EXTNAMES
290
     1
  9
$PSVPSCALE
 40
0.0
  9
$OLESTARTUP
290
     0
  0
ENDSEC
  0
SECTION
  2
CLASSES
  0
CLASS
  1
ACDBDICTIONARYWDFLT
  2
AcDbDictionaryWithDefault
  3
ObjectDBX Classes
 90
        0
280
     0
281
     0
  0
CLASS
  1
VISUALSTYLE
  2
AcDbVisualStyle
  3
ObjectDBX Classes
 90
     4095
280
     0
281
     0
  0
CLASS
  1
MATERIAL
  2
AcDbMaterial
  3
ObjectDBX Classes
 90
     1153
280
     0
281
     0
  0
CLASS
  1
SCALE
  2
AcDbScale
  3
ObjectDBX Classes
 90
     1153
280
     0
281
     0
  0
CLASS
  1
TABLESTYLE
  2
AcDbTableStyle
  3
ObjectDBX Classes
 90
     4095
280
     0
281
     0
  0
CLASS
  1
MLEADERSTYLE
  2
AcDbMLeaderStyle
  3
ACDB_MLEADERSTYLE_CLASS
 90
     4095
280
     0
281
     0
  0
CLASS
  1
SUN
  2
AcDbSun
  3
SCENEOE
 90
     1153
280
     0
281
     0
  0
CLASS
  1
ACDBPLACEHOLDER
  2
AcDbPlaceHolder
  3
ObjectDBX Classes
 90
        0
280
     0
281
     0
  0
CLASS
  1
LAYOUT
  2
AcDbLayout
  3
ObjectDBX Classes
 90
        0
280
     0
281
     0
  0
ENDSEC
  0
SECTION
  2
TABLES
  0
TABLE
  2
VPORT
  5
8
330
0
100
AcDbSymbolTable
 70
     1
  0
VPORT
  5
29
330
8
100
AcDbSymbolTableRecord
100
AcDbViewportTableRecord
  2
*Active
 70
     0
 10
0.0
 20
0.0
 11
1.0
 21
1.0
 12
22.0
 22
17.0
 13
0.0
 23
0.0
 14
0.5
 24
0.5
 15
0.5
 25
0.5
 16
0.0
 26
0.0
 36
1.0
 17
0.0
 27
0.0
 37
0.0
 40
34.0
 41
1.2941176471
 42
50.0
 43
0.0
 44
0.0
 50
0.0
 51
0.0
 71
     0
 72
  2000
 73
     1
 74
     3
 75
     0
 76
     0
 77
     0
 78
     0
281
     0
 65
     1
110
0.0
120
0.0
130
0.0
111
1.0
121
0.0
131
0.0
112
0.0
122
1.0
132
0.0
 79
     0
146
0.0
  0
ENDTAB
  0
TABLE
  2
LTYPE
  5
5
330
0
100
AcDbSymbolTable
 70
     6
  0
LTYPE
  5
14
330
5
100
AcDbSymbolTableRecord
100
AcDbLinetypeTableRecord
  2
ByBlock
 70
     0
  3

 72
    65
 73
     0
 40
0.0
  0
LTYPE
  5
15
330
5
100
AcDbSymbolTableRecord
100
AcDbLinetypeTableRecord
  2
ByLayer
 70
     0
  3

 72
    65
 73
     0
 40
0.0
  0
LTYPE
  5
16
330
5
100
AcDbSymbolTableRecord
100
AcDbLinetypeTableRecord
  2
Continuous
 70
     0
  3
Solid line
 72
    65
 73
     0
 40
0.0
  0
LTYPE
  5
5E
330
5
100
AcDbSymbolTableRecord
100
AcDbLinetypeTableRecord
  2
HIDDEN
 70
     0
  3
Hidden __ __ __ __ __ __ __ __ __ __ __ __ __ __
 72
    65
 73
     2
 40
0.075
 49
0.05
 74
     0
 49
-0.025
 74
     0
  0
LTYPE
  5
5F
330
5
100
AcDbSymbolTableRecord
100
AcDbLinetypeTableRecord
  2
PHANTOM
 70
     0
  3
Phantom ______  __  __  ______  __  __  ______
 72
    65
 73
     6
 40
0.5
 49
0.25
 74
     0
 49
-0.05
 74
     0
 49
0.05
 74
     0
 49
-0.05
 74
     0
 49
0.05
 74
     0
 49
-0.05
 74
     0
  0
LTYPE
  5
60
330
5
100
AcDbSymbolTableRecord
100
AcDbLinetypeTableRecord
  2
CENTER
 70
     0
  3
Center ____ _ ____ _ ____ _ ____ _ ____ _ ____
 72
    65
 73
     4
 40
0.4
 49
0.25
 74
     0
 49
-0.05
 74
     0
 49
0.05
 74
     0
 49
-0.05
 74
     0
  0
LTYPE
  5
61
330
5
100
AcDbSymbolTableRecord
100
AcDbLinetypeTableRecord
  2
CENTERX2
 70
     0
  3
Center (2x) ________  __  ________  __  _____
 72
    65
 73
     4
 40
0.8
 49
0.5
 74
     0
 49
-0.1
 74
     0
 49
0.1
 74
     0
 49
-0.1
 74
     0
  0
LTYPE
  5
62
330
5
100
AcDbSymbolTableRecord
100
AcDbLinetypeTableRecord
  2
DOT2
 70
     0
  3
Dot (.5x) ........................................
 72
    65
 73
     2
 40
0.025
 49
0.0
 74
     0
 49
-0.025
 74
     0
  0
ENDTAB
  0
TABLE
  2
LAYER
  5
2
330
0
100
AcDbSymbolTable
 70
    11
  0
LAYER
  5
10
330
2
100
AcDbSymbolTableRecord
100
AcDbLayerTableRecord
  2
0
 70
     0
 62
     7
  6
Continuous
370
    -3
390
F
  0
LAYER
  5
63
330
2
100
AcDbSymbolTableRecord
100
AcDbLayerTableRecord
  2
SLD-0
 70
     0
 62
     7
  6
Continuous
370
    -3
390
F
  0
LAYER
  5
64
330
2
100
AcDbSymbolTableRecord
100
AcDbLayerTableRecord
  2
DIM
 70
     0
 62
     7
  6
Continuous
370
    -3
390
F
  0
LAYER
  5
65
330
2
100
AcDbSymbolTableRecord
100
AcDbLayerTableRecord
  2
CEN
 70
     0
 62
     1
  6
CENTER
370
    -3
390
F
  0
LAYER
  5
66
330
2
100
AcDbSymbolTableRecord
100
AcDbLayerTableRecord
  2
HAT
 70
     0
 62
     4
  6
Continuous
370
    -3
390
F
  0
LAYER
  5
67
330
2
100
AcDbSymbolTableRecord
100
AcDbLayerTableRecord
  2
OBJ
 70
     0
 62
     5
  6
Continuous
370
    -3
390
F
  0
LAYER
  5
68
330
2
100
AcDbSymbolTableRecord
100
AcDbLayerTableRecord
  2
SLD-DEFPOINTS
 70
     0
 62
     7
  6
Continuous
370
    -3
390
F
  0
LAYER
  5
69
330
2
100
AcDbSymbolTableRecord
100
AcDbLayerTableRecord
  2
HID
 70
     0
 62
     4
  6
HIDDEN
370
    -3
390
F
  0
LAYER
  5
6A
330
2
100
AcDbSymbolTableRecord
100
AcDbLayerTableRecord
  2
NOTE
 70
     0
 62
     7
  6
Continuous
370
    -3
390
F
  0
LAYER
  5
6B
330
2
100
AcDbSymbolTableRecord
100
AcDbLayerTableRecord
  2
TITLE
 70
     0
 62
     7
  6
Continuous
370
    -3
390
F
  0
LAYER
  5
6C
330
2
100
AcDbSymbolTableRecord
100
AcDbLayerTableRecord
  2
THICK_TITLE
 70
     0
 62
     7
  6
Continuous
370
   100
390
F
  0
ENDTAB
  0
TABLE
  2
STYLE
  5
3
330
0
100
AcDbSymbolTable
 70
     3
  0
STYLE
  5
11
330
3
100
AcDbSymbolTableRecord
100
AcDbTextStyleTableRecord
  2
Standard
 70
     0
 40
0.0
 41
1.0
 50
0.0
 71
     0
 42
0.5
  3
txt
  4

  0
STYLE
  5
73
330
3
100
AcDbSymbolTableRecord
100
AcDbTextStyleTableRecord
  2
SLDTEXTSTYLE0
 70
     0
 40
0.0
 41
0.75
 50
0.0
 71
     0
 42
0.5
  3
TXT
  4

  0
STYLE
  5
7C
330
3
100
AcDbSymbolTableRecord
100
AcDbTextStyleTableRecord
  2
SLDTEXTSTYLE1
 70
     0
 40
0.0
 41
0.7
 50
0.0
 71
     0
 42
0.5
  3
TXT
  4

  0
ENDTAB
  0
TABLE
  2
VIEW
  5
6
330
0
100
AcDbSymbolTable
 70
     0
  0
ENDTAB
  0
TABLE
  2
UCS
  5
7
330
0
100
AcDbSymbolTable
 70
     0
  0
ENDTAB
  0
TABLE
  2
APPID
  5
9
330
0
100
AcDbSymbolTable
 70
     1
  0
APPID
  5
12
330
9
100
AcDbSymbolTableRecord
100
AcDbRegAppTableRecord
  2
ACAD
 70
     0
  0
ENDTAB
  0
TABLE
  2
DIMSTYLE
  5
A
330
0
100
AcDbSymbolTable
 70
     5
100
AcDbDimStyleTable
  0
DIMSTYLE
105
27
330
A
100
AcDbSymbolTableRecord
100
AcDbDimStyleTableRecord
  2
Standard
 70
     0
178
     0
340
11
  0
DIMSTYLE
105
F1
102
{ACAD_REACTORS
330
F0
330
105
330
141
330
22B
102
}
330
A
100
AcDbSymbolTableRecord
100
AcDbDimStyleTableRecord
  2
SLDDIMSTYLE0
 70
     0
 41
0.52
 44
0.0
 45
0.000000001
 78
    12
 79
     3
140
0.5
147
0.125
148
0.000000001
170
     1
172
     1
173
     1
178
     0
271
     6
272
     0
276
     2
277
     5
284
    12
289
     0
340
73
  0
DIMSTYLE
105
11A
102
{ACAD_REACTORS
330
119
330
12E
330
1B7
330
1D6
330
218
102
}
330
A
100
AcDbSymbolTableRecord
100
AcDbDimStyleTableRecord
  2
SLDDIMSTYLE1
 70
     0
 41
0.52
 44
0.0
 45
0.000000001
 78
    12
 79
     3
140
0.5
147
0.125
148
0.000000001
170
     1
173
     1
178
     0
271
     6
272
     0
276
     2
277
     5
284
    12
340
73
  0
DIMSTYLE
105
23F
102
{ACAD_REACTORS
330
23E
102
}
330
A
100
AcDbSymbolTableRecord
100
AcDbDimStyleTableRecord
  2
SLDDIMSTYLE2
 70
     0
 41
0.52
 44
0.0
 45
0.000000001
 78
    12
 79
     3
140
0.5
141
0.0
147
0.125
148
0.000000001
170
     1
173
     1
178
     0
271
     0
272
     0
276
     2
277
     5
284
    12
340
73
  0
DIMSTYLE
105
250
102
{ACAD_REACTORS
330
24F
102
}
330
A
100
AcDbSymbolTableRecord
100
AcDbDimStyleTableRecord
  2
SLDDIMSTYLE3
 70
     0
 41
0.52
 44
0.0
 45
0.000000001
 78
    12
 79
     3
140
0.5
141
0.0
147
0.125
148
0.000000001
170
     1
173
     1
178
     0
271
     0
272
     0
276
     2
277
     5
284
    12
340
73
  0
ENDTAB
  0
TABLE
  2
BLOCK_RECORD
  5
1
330
0
100
AcDbSymbolTable
 70
    20
  0
BLOCK_RECORD
  5
1F
330
1
100
AcDbSymbolTableRecord
100
AcDbBlockTableRecord
  2
*Model_Space
340
22
  0
BLOCK_RECORD
  5
1B
330
1
100
AcDbSymbolTableRecord
100
AcDbBlockTableRecord
  2
*Paper_Space
340
1E
  0
BLOCK_RECORD
  5
23
330
1
100
AcDbSymbolTableRecord
100
AcDbBlockTableRecord
  2
*Paper_Space0
340
26
  0
BLOCK_RECORD
  5
6D
330
1
100
AcDbSymbolTableRecord
100
AcDbBlockTableRecord
  2
Block2
340
0
102
{BLKREFS
331
1B6
102
}
  0
BLOCK_RECORD
  5
70
330
1
100
AcDbSymbolTableRecord
100
AcDbBlockTableRecord
  2
SW_NOTE_0
340
0
102
{BLKREFS
331
75
102
}
  0
BLOCK_RECORD
  5
76
330
1
100
AcDbSymbolTableRecord
100
AcDbBlockTableRecord
  2
Block3
340
0
102
{BLKREFS
331
1D5
102
}
  0
BLOCK_RECORD
  5
79
330
1
100
AcDbSymbolTableRecord
100
AcDbBlockTableRecord
  2
SW_NOTE_0_1
340
0
102
{BLKREFS
331
7E
102
}
  0
BLOCK_RECORD
  5
F2
330
1
100
AcDbSymbolTableRecord
100
AcDbBlockTableRecord
  2
_D
340
0
  0
BLOCK_RECORD
  5
106
330
1
100
AcDbSymbolTableRecord
100
AcDbBlockTableRecord
  2
_D_1
340
0
  0
BLOCK_RECORD
  5
11B
330
1
100
AcDbSymbolTableRecord
100
AcDbBlockTableRecord
  2
_D_2
340
0
  0
BLOCK_RECORD
  5
12F
330
1
100
AcDbSymbolTableRecord
100
AcDbBlockTableRecord
  2
_D_3
340
0
  0
BLOCK_RECORD
  5
142
330
1
100
AcDbSymbolTableRecord
100
AcDbBlockTableRecord
  2
_D_4
340
0
  0
BLOCK_RECORD
  5
1B8
330
1
100
AcDbSymbolTableRecord
100
AcDbBlockTableRecord
  2
_D_5
340
0
  0
BLOCK_RECORD
  5
1D7
330
1
100
AcDbSymbolTableRecord
100
AcDbBlockTableRecord
  2
_D_6
340
0
  0
BLOCK_RECORD
  5
219
330
1
100
AcDbSymbolTableRecord
100
AcDbBlockTableRecord
  2
_D_7
340
0
  0
BLOCK_RECORD
  5
22C
330
1
100
AcDbSymbolTableRecord
100
AcDbBlockTableRecord
  2
_D_8
340
0
  0
BLOCK_RECORD
  5
240
330
1
100
AcDbSymbolTableRecord
100
AcDbBlockTableRecord
  2
_D_9
340
0
  0
BLOCK_RECORD
  5
251
330
1
100
AcDbSymbolTableRecord
100
AcDbBlockTableRecord
  2
_D_10
340
0
  0
BLOCK_RECORD
  5
262
330
1
100
AcDbSymbolTableRecord
100
AcDbBlockTableRecord
  2
SW_CENTERMARKSYMBOL_0
340
0
102
{BLKREFS
331
26D
102
}
  0
BLOCK_RECORD
  5
26E
330
1
100
AcDbSymbolTableRecord
100
AcDbBlockTableRecord
  2
SW_CENTERMARKSYMBOL_1
340
0
102
{BLKREFS
331
279
102
}
  0
BLOCK_RECORD
  5
27A
330
1
100
AcDbSymbolTableRecord
100
AcDbBlockTableRecord
  2
SW_CENTERMARKSYMBOL_2
340
0
102
{BLKREFS
331
285
102
}
  0
BLOCK_RECORD
  5
286
330
1
100
AcDbSymbolTableRecord
100
AcDbBlockTableRecord
  2
SW_CENTERMARKSYMBOL_3
340
0
102
{BLKREFS
331
291
102
}
  0
ENDTAB
  0
ENDSEC
  0
SECTION
  2
BLOCKS
  0
BLOCK
  5
20
330
1F
100
AcDbEntity
  8
0
100
AcDbBlockBegin
  2
*Model_Space
 70
     0
 10
0.0
 20
0.0
 30
0.0
  3
*Model_Space
  1

  0
ENDBLK
  5
21
330
1F
100
AcDbEntity
  8
0
100
AcDbBlockEnd
  0
BLOCK
  5
1C
330
1B
100
AcDbEntity
 67
     1
  8
0
100
AcDbBlockBegin
  2
*Paper_Space
 70
     0
 10
0.0
 20
0.0
 30
0.0
  3
*Paper_Space
  1

  0
ENDBLK
  5
1D
330
1B
100
AcDbEntity
 67
     1
  8
0
100
AcDbBlockEnd
  0
BLOCK
  5
24
330
23
100
AcDbEntity
  8
0
100
AcDbBlockBegin
  2
*Paper_Space0
 70
     0
 10
0.0
 20
0.0
 30
0.0
  3
*Paper_Space0
  1

  0
ENDBLK
  5
25
330
23
100
AcDbEntity
  8
0
100
AcDbBlockEnd
  0
BLOCK
  5
6E
330
6D
100
AcDbEntity
  8
0
100
AcDbBlockBegin
  2
Block2
 70
     0
 10
0.0
 20
0.0
 30
0.0
  3
Block2
  1

  0
INSERT
  5
75
330
6D
100
AcDbEntity
  8
0
  6
Continuous
 62
     7
370
     0
100
AcDbBlockReference
  2
SW_NOTE_0
 10
0.0157657503
 20
1.1367231226
 30
0.0
  0
ENDBLK
  5
6F
330
6D
100
AcDbEntity
  8
0
100
AcDbBlockEnd
  0
BLOCK
  5
71
330
70
100
AcDbEntity
  8
0
100
AcDbBlockBegin
  2
SW_NOTE_0
 70
     0
 10
0.0
 20
0.0
 30
0.0
  3
SW_NOTE_0
  1

  0
MTEXT
  5
74
330
70
100
AcDbEntity
  8
0
  6
Continuous
 62
     0
370
     0
100
AcDbMText
 10
2.1484375
 20
1.0742231165
 30
0.0
 40
0.8333333333
 41
0.0
 71
     2
 72
     1
  1
B/E CAP
  7
SLDTEXTSTYLE0
 73
     1
 44
1.0
  0
ENDBLK
  5
72
330
70
100
AcDbEntity
  8
0
100
AcDbBlockEnd
  0
BLOCK
  5
77
330
76
100
AcDbEntity
  8
0
100
AcDbBlockBegin
  2
Block3
 70
     0
 10
0.0
 20
0.0
 30
0.0
  3
Block3
  1

  0
INSERT
  5
7E
330
76
100
AcDbEntity
  8
0
  6
Continuous
 62
     7
370
     0
100
AcDbBlockReference
  2
SW_NOTE_0_1
 10
0.0452535328
 20
-0.0370986524
 30
0.0
  0
ENDBLK
  5
78
330
76
100
AcDbEntity
  8
0
100
AcDbBlockEnd
  0
BLOCK
  5
7A
330
79
100
AcDbEntity
  8
0
100
AcDbBlockBegin
  2
SW_NOTE_0_1
 70
     0
 10
0.0
 20
0.0
 30
0.0
  3
SW_NOTE_0_1
  1

  0
MTEXT
  5
7D
330
79
100
AcDbEntity
  8
0
  6
Continuous
 62
     0
370
     0
100
AcDbMText
 10
1.7447916667
 20
1.0742231165
 30
0.0
 40
0.8333333333
 41
0.0
 71
     2
 72
     1
  1
C CAP
  7
SLDTEXTSTYLE1
 73
     1
 44
1.0
  0
ENDBLK
  5
7B
330
79
100
AcDbEntity
  8
0
100
AcDbBlockEnd
  0
BLOCK
  5
F3
330
F2
100
AcDbEntity
  8
0
100
AcDbBlockBegin
  2
_D
 70
     0
 10
0.0
 20
0.0
 30
0.0
  3
_D
  1

  0
SOLID
  5
F5
330
F2
100
AcDbEntity
  8
0
  6
Continuous
 62
     7
370
    18
100
AcDbTrace
 10
7.627794026
 20
24.7823986021
 30
0.0
 11
7.107794026
 21
24.8623986021
 31
0.0
 12
7.107794026
 22
24.7023986021
 32
0.0
 13
7.107794026
 23
24.7023986021
 33
0.0
  0
SOLID
  5
F6
330
F2
100
AcDbEntity
  8
0
  6
Continuous
 62
     7
370
    18
100
AcDbTrace
 10
8.152794026
 20
24.7823986021
 30
0.0
 11
8.672794026
 21
24.7023986021
 31
0.0
 12
8.672794026
 22
24.8623986021
 32
0.0
 13
8.672794026
 23
24.8623986021
 33
0.0
  0
LINE
  5
F7
330
F2
100
AcDbEntity
  8
0
  6
Continuous
 62
     7
370
     0
100
AcDbLine
 10
4.0136645945
 20
24.7785790795
 30
0.0
 11
3.8613208461
 21
24.7785790795
 31
0.0
  0
LINE
  5
F8
330
F2
100
AcDbEntity
  8
0
  6
Continuous
 62
     7
370
     0
100
AcDbLine
 10
3.8613208461
 20
24.7785790795
 30
0.0
 11
3.8613208461
 21
23.9848290557
 31
0.0
  0
LINE
  5
F9
330
F2
100
AcDbEntity
  8
0
  6
Continuous
 62
     7
370
     0
100
AcDbLine
 10
3.8613208461
 20
23.9848290557
 30
0.0
 11
4.0136645945
 21
23.9848290557
 31
0.0
  0
LINE
  5
FA
330
F2
100
AcDbEntity
  8
0
  6
Continuous
 62
     7
370
     0
100
AcDbLine
 10
6.0025535254
 20
24.7785790795
 30
0.0
 11
6.1548972738
 21
24.7785790795
 31
0.0
  0
LINE
  5
FB
330
F2
100
AcDbEntity
  8
0
  6
Continuous
 62
     7
370
     0
100
AcDbLine
 10
6.1548972738
 20
24.7785790795
 30
0.0
 11
6.1548972738
 21
23.9848290557
 31
0.0
  0
LINE
  5
FC
330
F2
100
AcDbEntity
  8
0
  6
Continuous
 62
     7
370
     0
100
AcDbLine
 10
6.1548972738
 20
23.9848290557
 30
0.0
 11
6.0025535254
 21
23.9848290557
 31
0.0
  0
LINE
  5
FD
330
F2
100
AcDbEntity
  8
0
  6
Continuous
 62
     7
370
     0
100
AcDbLine
 10
7.627794026
 20
24.1744988483
 30
0.0
 11
7.627794026
 21
25.2823986021
 31
0.0
  0
LINE
  5
FE
330
F2
100
AcDbEntity
  8
0
  6
Continuous
 62
     7
370
     0
100
AcDbLine
 10
8.152794026
 20
24.1394988483
 30
0.0
 11
8.152794026
 21
25.2823986021
 31
0.0
  0
LINE
  5
FF
330
F2
100
AcDbEntity
  8
0
  6
Continuous
 62
     7
370
     0
100
AcDbLine
 10
7.627794026
 20
24.7823986021
 30
0.0
 11
6.5933519413
 21
24.7823986021
 31
0.0
  0
LINE
  5
100
330
F2
100
AcDbEntity
  8
0
  6
Continuous
 62
     7
370
     0
100
AcDbLine
 10
8.152794026
 20
24.7823986021
 30
0.0
 11
9.152794026
 21
24.7823986021
 31
0.0
  0
MTEXT
  5
101
330
F2
100
AcDbEntity
  8
0
  6
Continuous
 62
     7
370
    18
100
AcDbMText
 10
3.7117548749
 20
25.5323143896
 30
0.0
 40
0.5
 41
0.0
 71
     1
 72
     1
  1

  7
SLDTEXTSTYLE0
 73
     1
 44
1.0
  0
MTEXT
  5
102
330
F2
100
AcDbEntity
  8
0
  6
Continuous
 62
     7
370
    18
100
AcDbMText
 10
4.3897062138
 20
25.5246754636
 30
0.0
 40
0.5
 41
0.0
 71
     1
 72
     1
  1
1/2"
  7
SLDTEXTSTYLE0
 73
     1
 44
1.0
  0
MTEXT
  5
103
330
F2
100
AcDbEntity
  8
0
  6
Continuous
 62
     7
370
    18
100
AcDbMText
 10
4.0136645945
 20
24.6293629805
 30
0.0
 40
0.5
 41
0.0
 71
     1
 72
     1
  1
13mm
  7
SLDTEXTSTYLE0
 73
     1
 44
1.0
  0
MTEXT
  5
104
330
F2
100
AcDbEntity
  8
0
  6
Continuous
 62
     7
370
    18
100
AcDbMText
 10
6.4947409123
 20
25.5323143896
 30
0.0
 40
0.5
 41
0.0
 71
     1
 72
     1
  1

  7
SLDTEXTSTYLE0
 73
     1
 44
1.0
  0
ENDBLK
  5
F4
330
F2
100
AcDbEntity
  8
0
100
AcDbBlockEnd
  0
BLOCK
  5
107
330
106
100
AcDbEntity
  8
0
100
AcDbBlockBegin
  2
_D_1
 70
     0
 10
0.0
 20
0.0
 30
0.0
  3
_D_1
  1

  0
SOLID
  5
109
330
106
100
AcDbEntity
  8
0
  6
Continuous
 62
     7
370
    18
100
AcDbTrace
 10
7.627794026
 20
17.9100990418
 30
0.0
 11
8.147794026
 21
17.8300990418
 31
0.0
 12
8.147794026
 22
17.9900990418
 32
0.0
 13
8.147794026
 23
17.9900990418
 33
0.0
  0
SOLID
  5
10A
330
106
100
AcDbEntity
  8
0
  6
Continuous
 62
     7
370
    18
100
AcDbTrace
 10
7.527794026
 20
17.9100990418
 30
0.0
 11
7.007794026
 21
17.9900990418
 31
0.0
 12
7.007794026
 22
17.8300990418
 32
0.0
 13
7.007794026
 23
17.8300990418
 33
0.0
  0
LINE
  5
10B
330
106
100
AcDbEntity
  8
0
  6
Continuous
 62
     7
370
     0
100
AcDbLine
 10
4.1983867806
 20
17.9062795192
 30
0.0
 11
4.0460430322
 21
17.9062795192
 31
0.0
  0
LINE
  5
10C
330
106
100
AcDbEntity
  8
0
  6
Continuous
 62
     7
370
     0
100
AcDbLine
 10
4.0460430322
 20
17.9062795192
 30
0.0
 11
4.0460430322
 21
17.1125294954
 31
0.0
  0
LINE
  5
10D
330
106
100
AcDbEntity
  8
0
  6
Continuous
 62
     7
370
     0
100
AcDbLine
 10
4.0460430322
 20
17.1125294954
 30
0.0
 11
4.1983867806
 21
17.1125294954
 31
0.0
  0
LINE
  5
10E
330
106
100
AcDbEntity
  8
0
  6
Continuous
 62
     7
370
     0
100
AcDbLine
 10
5.8178311926
 20
17.9062795192
 30
0.0
 11
5.9701749411
 21
17.9062795192
 31
0.0
  0
LINE
  5
10F
330
106
100
AcDbEntity
  8
0
  6
Continuous
 62
     7
370
     0
100
AcDbLine
 10
5.9701749411
 20
17.9062795192
 30
0.0
 11
5.9701749411
 21
17.1125294954
 31
0.0
  0
LINE
  5
110
330
106
100
AcDbEntity
  8
0
  6
Continuous
 62
     7
370
     0
100
AcDbLine
 10
5.9701749411
 20
17.1125294954
 30
0.0
 11
5.8178311926
 21
17.1125294954
 31
0.0
  0
LINE
  5
111
330
106
100
AcDbEntity
  8
0
  6
Continuous
 62
     7
370
     0
100
AcDbLine
 10
7.627794026
 20
18.8344988483
 30
0.0
 11
7.627794026
 21
17.4100990418
 31
0.0
  0
LINE
  5
112
330
106
100
AcDbEntity
  8
0
  6
Continuous
 62
     7
370
     0
100
AcDbLine
 10
7.527794026
 20
20.953625436
 30
0.0
 11
7.527794026
 21
17.4100990418
 31
0.0
  0
LINE
  5
113
330
106
100
AcDbEntity
  8
0
  6
Continuous
 62
     7
370
     0
100
AcDbLine
 10
7.627794026
 20
17.9100990418
 30
0.0
 11
8.627794026
 21
17.9100990418
 31
0.0
  0
LINE
  5
114
330
106
100
AcDbEntity
  8
0
  6
Continuous
 62
     7
370
     0
100
AcDbLine
 10
7.527794026
 20
17.9100990418
 30
0.0
 11
6.4086297552
 21
17.9100990418
 31
0.0
  0
MTEXT
  5
115
330
106
100
AcDbEntity
  8
0
  6
Continuous
 62
     7
370
    18
100
AcDbMText
 10
3.896477061
 20
18.6600148293
 30
0.0
 40
0.5
 41
0.0
 71
     1
 72
     1
  1

  7
SLDTEXTSTYLE0
 73
     1
 44
1.0
  0
MTEXT
  5
116
330
106
100
AcDbEntity
  8
0
  6
Continuous
 62
     7
370
    18
100
AcDbMText
 10
4.3897061405
 20
18.6523759034
 30
0.0
 40
0.5
 41
0.0
 71
     1
 72
     1
  1
1/8"
  7
SLDTEXTSTYLE0
 73
     1
 44
1.0
  0
MTEXT
  5
117
330
106
100
AcDbEntity
  8
0
  6
Continuous
 62
     7
370
    18
100
AcDbMText
 10
4.1983867806
 20
17.7570634203
 30
0.0
 40
0.5
 41
0.0
 71
     1
 72
     1
  1
3mm
  7
SLDTEXTSTYLE0
 73
     1
 44
1.0
  0
MTEXT
  5
118
330
106
100
AcDbEntity
  8
0
  6
Continuous
 62
     7
370
    18
100
AcDbMText
 10
6.3100185795
 20
18.6600148293
 30
0.0
 40
0.5
 41
0.0
 71
     1
 72
     1
  1

  7
SLDTEXTSTYLE0
 73
     1
 44
1.0
  0
ENDBLK
  5
108
330
106
100
AcDbEntity
  8
0
100
AcDbBlockEnd
  0
BLOCK
  5
11C
330
11B
100
AcDbEntity
  8
0
100
AcDbBlockBegin
  2
_D_2
 70
     0
 10
0.0
 20
0.0
 30
0.0
  3
_D_2
  1

  0
SOLID
  5
11E
330
11B
100
AcDbEntity
  8
0
  6
Continuous
 62
     7
370
    18
100
AcDbTrace
 10
7.627794026
 20
32.2761838876
 30
0.0
 11
8.147794026
 21
32.1961838876
 31
0.0
 12
8.147794026
 22
32.3561838876
 32
0.0
 13
8.147794026
 23
32.3561838876
 33
0.0
  0
SOLID
  5
11F
330
11B
100
AcDbEntity
  8
0
  6
Continuous
 62
     7
370
    18
100
AcDbTrace
 10
14.767794026
 20
32.2761838876
 30
0.0
 11
14.247794026
 21
32.3561838876
 31
0.0
 12
14.247794026
 22
32.1961838876
 32
0.0
 13
14.247794026
 23
32.1961838876
 33
0.0
  0
LINE
  5
120
330
11B
100
AcDbEntity
  8
0
  6
Continuous
 62
     7
370
     0
100
AcDbLine
 10
10.0186274478
 20
32.2723643651
 30
0.0
 11
9.8662836994
 21
32.2723643651
 31
0.0
  0
LINE
  5
121
330
11B
100
AcDbEntity
  8
0
  6
Continuous
 62
     7
370
     0
100
AcDbLine
 10
9.8662836994
 20
32.2723643651
 30
0.0
 11
9.8662836994
 21
31.4786143412
 31
0.0
  0
LINE
  5
122
330
11B
100
AcDbEntity
  8
0
  6
Continuous
 62
     7
370
     0
100
AcDbLine
 10
9.8662836994
 20
31.4786143412
 30
0.0
 11
10.0186274478
 21
31.4786143412
 31
0.0
  0
LINE
  5
123
330
11B
100
AcDbEntity
  8
0
  6
Continuous
 62
     7
370
     0
100
AcDbLine
 10
12.3769607508
 20
32.2723643651
 30
0.0
 11
12.5293044993
 21
32.2723643651
 31
0.0
  0
LINE
  5
124
330
11B
100
AcDbEntity
  8
0
  6
Continuous
 62
     7
370
     0
100
AcDbLine
 10
12.5293044993
 20
32.2723643651
 30
0.0
 11
12.5293044993
 21
31.4786143412
 31
0.0
  0
LINE
  5
125
330
11B
100
AcDbEntity
  8
0
  6
Continuous
 62
     7
370
     0
100
AcDbLine
 10
12.5293044993
 20
31.4786143412
 30
0.0
 11
12.3769607508
 21
31.4786143412
 31
0.0
  0
LINE
  5
126
330
11B
100
AcDbEntity
  8
0
  6
Continuous
 62
     7
370
     0
100
AcDbLine
 10
7.627794026
 20
24.1744988483
 30
0.0
 11
7.627794026
 21
32.7761838876
 31
0.0
  0
LINE
  5
127
330
11B
100
AcDbEntity
  8
0
  6
Continuous
 62
     7
370
     0
100
AcDbLine
 10
14.767794026
 20
23.1464988483
 30
0.0
 11
14.767794026
 21
32.7761838876
 31
0.0
  0
LINE
  5
128
330
11B
100
AcDbEntity
  8
0
  6
Continuous
 62
     7
370
     0
100
AcDbLine
 10
7.627794026
 20
32.2761838876
 30
0.0
 11
9.4278288852
 21
32.2761838876
 31
0.0
  0
LINE
  5
129
330
11B
100
AcDbEntity
  8
0
  6
Continuous
 62
     7
370
     0
100
AcDbLine
 10
14.767794026
 20
32.2761838876
 30
0.0
 11
12.9677591668
 21
32.2761838876
 31
0.0
  0
MTEXT
  5
12A
330
11B
100
AcDbEntity
  8
0
  6
Continuous
 62
     7
370
    18
100
AcDbMText
 10
9.7167177282
 20
33.0260996751
 30
0.0
 40
0.5
 41
0.0
 71
     1
 72
     1
  1

  7
SLDTEXTSTYLE0
 73
     1
 44
1.0
  0
MTEXT
  5
12B
330
11B
100
AcDbEntity
  8
0
  6
Continuous
 62
     7
370
    18
100
AcDbMText
 10
10.3023079741
 20
33.0184607492
 30
0.0
 40
0.5
 41
0.0
 71
     1
 72
     1
  1
7 1/8"
  7
SLDTEXTSTYLE0
 73
     1
 44
1.0
  0
MTEXT
  5
12C
330
11B
100
AcDbEntity
  8
0
  6
Continuous
 62
     7
370
    18
100
AcDbMText
 10
10.0186274478
 20
32.1231482661
 30
0.0
 40
0.5
 41
0.0
 71
     1
 72
     1
  1
181mm
  7
SLDTEXTSTYLE0
 73
     1
 44
1.0
  0
MTEXT
  5
12D
330
11B
100
AcDbEntity
  8
0
  6
Continuous
 62
     7
370
    18
100
AcDbMText
 10
12.8691481377
 20
33.0260996751
 30
0.0
 40
0.5
 41
0.0
 71
     1
 72
     1
  1

  7
SLDTEXTSTYLE0
 73
     1
 44
1.0
  0
ENDBLK
  5
11D
330
11B
100
AcDbEntity
  8
0
100
AcDbBlockEnd
  0
BLOCK
  5
130
330
12F
100
AcDbEntity
  8
0
100
AcDbBlockBegin
  2
_D_3
 70
     0
 10
0.0
 20
0.0
 30
0.0
  3
_D_3
  1

  0
SOLID
  5
132
330
12F
100
AcDbEntity
  8
0
  6
Continuous
 62
     7
370
    18
100
AcDbTrace
 10
9.297794026
 20
11.6776956987
 30
0.0
 11
9.817794026
 21
11.5976956987
 31
0.0
 12
9.817794026
 22
11.7576956987
 32
0.0
 13
9.817794026
 23
11.7576956987
 33
0.0
  0
SOLID
  5
133
330
12F
100
AcDbEntity
  8
0
  6
Continuous
 62
     7
370
    18
100
AcDbTrace
 10
14.767794026
 20
11.6776956987
 30
0.0
 11
14.247794026
 21
11.7576956987
 31
0.0
 12
14.247794026
 22
11.5976956987
 32
0.0
 13
14.247794026
 23
11.5976956987
 33
0.0
  0
LINE
  5
134
330
12F
100
AcDbEntity
  8
0
  6
Continuous
 62
     7
370
     0
100
AcDbLine
 10
10.8536274112
 20
11.6776956253
 30
0.0
 11
10.7012836627
 21
11.6776956253
 31
0.0
  0
LINE
  5
135
330
12F
100
AcDbEntity
  8
0
  6
Continuous
 62
     7
370
     0
100
AcDbLine
 10
10.7012836627
 20
11.6776956253
 30
0.0
 11
10.7012836627
 21
10.8839456015
 31
0.0
  0
LINE
  5
136
330
12F
100
AcDbEntity
  8
0
  6
Continuous
 62
     7
370
     0
100
AcDbLine
 10
10.7012836627
 20
10.8839456015
 30
0.0
 11
10.8536274112
 21
10.8839456015
 31
0.0
  0
LINE
  5
137
330
12F
100
AcDbEntity
  8
0
  6
Continuous
 62
     7
370
     0
100
AcDbLine
 10
13.2119607142
 20
11.6776956253
 30
0.0
 11
13.3643044626
 21
11.6776956253
 31
0.0
  0
LINE
  5
138
330
12F
100
AcDbEntity
  8
0
  6
Continuous
 62
     7
370
     0
100
AcDbLine
 10
13.3643044626
 20
11.6776956253
 30
0.0
 11
13.3643044626
 21
10.8839456015
 31
0.0
  0
LINE
  5
139
330
12F
100
AcDbEntity
  8
0
  6
Continuous
 62
     7
370
     0
100
AcDbLine
 10
13.3643044626
 20
10.8839456015
 30
0.0
 11
13.2119607142
 21
10.8839456015
 31
0.0
  0
LINE
  5
13A
330
12F
100
AcDbEntity
  8
0
  6
Continuous
 62
     7
370
     0
100
AcDbLine
 10
9.297794026
 20
19.8624988483
 30
0.0
 11
9.297794026
 21
11.1776956987
 31
0.0
  0
LINE
  5
13B
330
12F
100
AcDbEntity
  8
0
  6
Continuous
 62
     7
370
     0
100
AcDbLine
 10
14.767794026
 20
19.8624988483
 30
0.0
 11
14.767794026
 21
11.1776956987
 31
0.0
  0
LINE
  5
13C
330
12F
100
AcDbEntity
  8
0
  6
Continuous
 62
     7
370
     0
100
AcDbLine
 10
9.297794026
 20
11.6776956987
 30
0.0
 11
10.4475510713
 21
11.6776956987
 31
0.0
  0
LINE
  5
13D
330
12F
100
AcDbEntity
  8
0
  6
Continuous
 62
     7
370
     0
100
AcDbLine
 10
14.767794026
 20
11.6776956987
 30
0.0
 11
13.6180369807
 21
11.6776956987
 31
0.0
  0
MTEXT
  5
13E
330
12F
100
AcDbEntity
  8
0
  6
Continuous
 62
     7
370
    18
100
AcDbMText
 10
10.7602766596
 20
12.4237920461
 30
0.0
 40
0.5
 41
0.0
 71
     1
 72
     1
  1
%%c
  7
SLDTEXTSTYLE0
 73
     1
 44
1.0
  0
MTEXT
  5
13F
330
12F
100
AcDbEntity
  8
0
  6
Continuous
 62
     7
370
    18
100
AcDbMText
 10
11.5143391419
 20
12.4237920461
 30
0.0
 40
0.5
 41
0.0
 71
     1
 72
     1
  1
5 1/2"
  7
SLDTEXTSTYLE0
 73
     1
 44
1.0
  0
MTEXT
  5
140
330
12F
100
AcDbEntity
  8
0
  6
Continuous
 62
     7
370
    18
100
AcDbMText
 10
10.8536274112
 20
11.5284795263
 30
0.0
 40
0.5
 41
0.0
 71
     1
 72
     1
  1
139mm
  7
SLDTEXTSTYLE0
 73
     1
 44
1.0
  0
ENDBLK
  5
131
330
12F
100
AcDbEntity
  8
0
100
AcDbBlockEnd
  0
BLOCK
  5
143
330
142
100
AcDbEntity
  8
0
100
AcDbBlockBegin
  2
_D_4
 70
     0
 10
0.0
 20
0.0
 30
0.0
  3
_D_4
  1

  0
SOLID
  5
145
330
142
100
AcDbEntity
  8
0
  6
Continuous
 62
     7
370
    18
100
AcDbTrace
 10
16.5108164327
 20
22.9464988483
 30
0.0
 11
16.5908164327
 21
23.4664988483
 31
0.0
 12
16.4308164327
 22
23.4664988483
 32
0.0
 13
16.4308164327
 23
23.4664988483
 33
0.0
  0
SOLID
  5
146
330
142
100
AcDbEntity
  8
0
  6
Continuous
 62
     7
370
    18
100
AcDbTrace
 10
16.5108164327
 20
20.0624988483
 30
0.0
 11
16.4308164327
 21
19.5424988483
 31
0.0
 12
16.5908164327
 22
19.5424988483
 32
0.0
 13
16.5908164327
 23
19.5424988483
 33
0.0
  0
LINE
  5
147
330
142
100
AcDbEntity
  8
0
  6
Continuous
 62
     7
370
     0
100
AcDbLine
 10
15.5163720406
 20
21.5006793257
 30
0.0
 11
15.3640282922
 21
21.5006793257
 31
0.0
  0
LINE
  5
148
330
142
100
AcDbEntity
  8
0
  6
Continuous
 62
     7
370
     0
100
AcDbLine
 10
15.3640282922
 20
21.5006793257
 30
0.0
 11
15.3640282922
 21
20.7069293019
 31
0.0
  0
LINE
  5
149
330
142
100
AcDbEntity
  8
0
  6
Continuous
 62
     7
370
     0
100
AcDbLine
 10
15.3640282922
 20
20.7069293019
 30
0.0
 11
15.5163720406
 21
20.7069293019
 31
0.0
  0
LINE
  5
14A
330
142
100
AcDbEntity
  8
0
  6
Continuous
 62
     7
370
     0
100
AcDbLine
 10
17.5052609714
 20
21.5006793257
 30
0.0
 11
17.6576047199
 21
21.5006793257
 31
0.0
  0
LINE
  5
14B
330
142
100
AcDbEntity
  8
0
  6
Continuous
 62
     7
370
     0
100
AcDbLine
 10
17.6576047199
 20
21.5006793257
 30
0.0
 11
17.6576047199
 21
20.7069293019
 31
0.0
  0
LINE
  5
14C
330
142
100
AcDbEntity
  8
0
  6
Continuous
 62
     7
370
     0
100
AcDbLine
 10
17.6576047199
 20
20.7069293019
 30
0.0
 11
17.5052609714
 21
20.7069293019
 31
0.0
  0
LINE
  5
14D
330
142
100
AcDbEntity
  8
0
  6
Continuous
 62
     7
370
     0
100
AcDbLine
 10
14.967794026
 20
22.9464988483
 30
0.0
 11
17.0108164327
 21
22.9464988483
 31
0.0
  0
LINE
  5
14E
330
142
100
AcDbEntity
  8
0
  6
Continuous
 62
     7
370
     0
100
AcDbLine
 10
14.967794026
 20
20.0624988483
 30
0.0
 11
17.0108164327
 21
20.0624988483
 31
0.0
  0
LINE
  5
14F
330
142
100
AcDbEntity
  8
0
  6
Continuous
 62
     7
370
     0
100
AcDbLine
 10
16.5108164327
 20
22.9464988483
 30
0.0
 11
16.5108164327
 21
23.9464988483
 31
0.0
  0
LINE
  5
150
330
142
100
AcDbEntity
  8
0
  6
Continuous
 62
     7
370
     0
100
AcDbLine
 10
16.5108164327
 20
20.0624988483
 30
0.0
 11
16.5108164327
 21
19.0624988483
 31
0.0
  0
MTEXT
  5
151
330
142
100
AcDbEntity
  8
0
  6
Continuous
 62
     7
370
    18
100
AcDbMText
 10
15.214462321
 20
22.2544146358
 30
0.0
 40
0.5
 41
0.0
 71
     1
 72
     1
  1

  7
SLDTEXTSTYLE0
 73
     1
 44
1.0
  0
MTEXT
  5
152
330
142
100
AcDbEntity
  8
0
  6
Continuous
 62
     7
370
    18
100
AcDbMText
 10
15.6153303808
 20
22.2467757098
 30
0.0
 40
0.5
 41
0.0
 71
     1
 72
     1
  1
2 7/8"
  7
SLDTEXTSTYLE0
 73
     1
 44
1.0
  0
MTEXT
  5
153
330
142
100
AcDbEntity
  8
0
  6
Continuous
 62
     7
370
    18
100
AcDbMText
 10
15.5163720406
 20
21.3514632267
 30
0.0
 40
0.5
 41
0.0
 71
     1
 72
     1
  1
73mm
  7
SLDTEXTSTYLE0
 73
     1
 44
1.0
  0
MTEXT
  5
154
330
142
100
AcDbEntity
  8
0
  6
Continuous
 62
     7
370
    18
100
AcDbMText
 10
17.9974483583
 20
22.2544146358
 30
0.0
 40
0.5
 41
0.0
 71
     1
 72
     1
  1

  7
SLDTEXTSTYLE0
 73
     1
 44
1.0
  0
ENDBLK
  5
144
330
142
100
AcDbEntity
  8
0
100
AcDbBlockEnd
  0
BLOCK
  5
1B9
330
1B8
100
AcDbEntity
  8
0
100
AcDbBlockBegin
  2
_D_5
 70
     0
 10
0.0
 20
0.0
 30
0.0
  3
_D_5
  1

  0
SOLID
  5
1BB
330
1B8
100
AcDbEntity
  8
0
  6
Continuous
 62
     7
370
    18
100
AcDbTrace
 10
12.5987038003
 20
9.6670111945
 30
0.0
 11
12.5187038003
 21
9.1470111945
 31
0.0
 12
12.6787038003
 22
9.1470111945
 32
0.0
 13
12.6787038003
 23
9.1470111945
 33
0.0
  0
SOLID
  5
1BC
330
1B8
100
AcDbEntity
  8
0
  6
Continuous
 62
     7
370
    18
100
AcDbTrace
 10
12.5987038003
 20
2.8570111945
 30
0.0
 11
12.6787038003
 21
3.3770111945
 31
0.0
 12
12.5187038003
 22
3.3770111945
 32
0.0
 13
12.5187038003
 23
3.3770111945
 33
0.0
  0
LINE
  5
1BD
330
1B8
100
AcDbEntity
  8
0
  6
Continuous
 62
     7
370
     0
100
AcDbLine
 10
11.4195372222
 20
6.258191672
 30
0.0
 11
11.2671934737
 21
6.258191672
 31
0.0
  0
LINE
  5
1BE
330
1B8
100
AcDbEntity
  8
0
  6
Continuous
 62
     7
370
     0
100
AcDbLine
 10
11.2671934737
 20
6.258191672
 30
0.0
 11
11.2671934737
 21
5.4644416481
 31
0.0
  0
LINE
  5
1BF
330
1B8
100
AcDbEntity
  8
0
  6
Continuous
 62
     7
370
     0
100
AcDbLine
 10
11.2671934737
 20
5.4644416481
 30
0.0
 11
11.4195372222
 21
5.4644416481
 31
0.0
  0
LINE
  5
1C0
330
1B8
100
AcDbEntity
  8
0
  6
Continuous
 62
     7
370
     0
100
AcDbLine
 10
13.7778705252
 20
6.258191672
 30
0.0
 11
13.9302142736
 21
6.258191672
 31
0.0
  0
LINE
  5
1C1
330
1B8
100
AcDbEntity
  8
0
  6
Continuous
 62
     7
370
     0
100
AcDbLine
 10
13.9302142736
 20
6.258191672
 30
0.0
 11
13.9302142736
 21
5.4644416481
 31
0.0
  0
LINE
  5
1C2
330
1B8
100
AcDbEntity
  8
0
  6
Continuous
 62
     7
370
     0
100
AcDbLine
 10
13.9302142736
 20
5.4644416481
 30
0.0
 11
13.7778705252
 21
5.4644416481
 31
0.0
  0
LINE
  5
1C3
330
1B8
100
AcDbEntity
  8
0
  6
Continuous
 62
     7
370
     0
100
AcDbLine
 10
14.540541909
 20
9.6670111945
 30
0.0
 11
12.0987038003
 21
9.6670111945
 31
0.0
  0
LINE
  5
1C4
330
1B8
100
AcDbEntity
  8
0
  6
Continuous
 62
     7
370
     0
100
AcDbLine
 10
14.540541909
 20
2.8570111945
 30
0.0
 11
12.0987038003
 21
2.8570111945
 31
0.0
  0
LINE
  5
1C5
330
1B8
100
AcDbEntity
  8
0
  6
Continuous
 62
     7
370
     0
100
AcDbLine
 10
12.5987038003
 20
9.6670111945
 30
0.0
 11
12.5987038003
 21
7.161143081
 31
0.0
  0
LINE
  5
1C6
330
1B8
100
AcDbEntity
  8
0
  6
Continuous
 62
     7
370
     0
100
AcDbLine
 10
12.5987038003
 20
2.8570111945
 30
0.0
 11
12.5987038003
 21
5.362879308
 31
0.0
  0
MTEXT
  5
1C7
330
1B8
100
AcDbEntity
  8
0
  6
Continuous
 62
     7
370
    18
100
AcDbMText
 10
11.1176275025
 20
7.011926982
 30
0.0
 40
0.5
 41
0.0
 71
     1
 72
     1
  1

  7
SLDTEXTSTYLE0
 73
     1
 44
1.0
  0
MTEXT
  5
1C8
330
1B8
100
AcDbEntity
  8
0
  6
Continuous
 62
     7
370
    18
100
AcDbMText
 10
11.3337733029
 20
7.0042880561
 30
0.0
 40
0.5
 41
0.0
 71
     1
 72
     1
  1
6 13/16"
  7
SLDTEXTSTYLE0
 73
     1
 44
1.0
  0
MTEXT
  5
1C9
330
1B8
100
AcDbEntity
  8
0
  6
Continuous
 62
     7
370
    18
100
AcDbMText
 10
11.4195372222
 20
6.108975573
 30
0.0
 40
0.5
 41
0.0
 71
     1
 72
     1
  1
173mm
  7
SLDTEXTSTYLE0
 73
     1
 44
1.0
  0
MTEXT
  5
1CA
330
1B8
100
AcDbEntity
  8
0
  6
Continuous
 62
     7
370
    18
100
AcDbMText
 10
14.2700579121
 20
7.011926982
 30
0.0
 40
0.5
 41
0.0
 71
     1
 72
     1
  1

  7
SLDTEXTSTYLE0
 73
     1
 44
1.0
  0
ENDBLK
  5
1BA
330
1B8
100
AcDbEntity
  8
0
100
AcDbBlockEnd
  0
BLOCK
  5
1D8
330
1D7
100
AcDbEntity
  8
0
100
AcDbBlockBegin
  2
_D_6
 70
     0
 10
0.0
 20
0.0
 30
0.0
  3
_D_6
  1

  0
SOLID
  5
1DA
330
1D7
100
AcDbEntity
  8
0
  6
Continuous
 62
     7
370
    18
100
AcDbTrace
 10
22.1050327908
 20
2.836667066
 30
0.0
 11
22.1850327908
 21
3.356667066
 31
0.0
 12
22.0250327908
 22
3.356667066
 32
0.0
 13
22.0250327908
 23
3.356667066
 33
0.0
  0
SOLID
  5
1DB
330
1D7
100
AcDbEntity
  8
0
  6
Continuous
 62
     7
370
    18
100
AcDbTrace
 10
22.1050327908
 20
8.646667066
 30
0.0
 11
22.0250327908
 21
8.126667066
 31
0.0
 12
22.1850327908
 22
8.126667066
 32
0.0
 13
22.1850327908
 23
8.126667066
 33
0.0
  0
LINE
  5
1DC
330
1D7
100
AcDbEntity
  8
0
  6
Continuous
 62
     7
370
     0
100
AcDbLine
 10
20.9258662127
 20
5.7378475434
 30
0.0
 11
20.7735224642
 21
5.7378475434
 31
0.0
  0
LINE
  5
1DD
330
1D7
100
AcDbEntity
  8
0
  6
Continuous
 62
     7
370
     0
100
AcDbLine
 10
20.7735224642
 20
5.7378475434
 30
0.0
 11
20.7735224642
 21
4.9440975196
 31
0.0
  0
LINE
  5
1DE
330
1D7
100
AcDbEntity
  8
0
  6
Continuous
 62
     7
370
     0
100
AcDbLine
 10
20.7735224642
 20
4.9440975196
 30
0.0
 11
20.9258662127
 21
4.9440975196
 31
0.0
  0
LINE
  5
1DF
330
1D7
100
AcDbEntity
  8
0
  6
Continuous
 62
     7
370
     0
100
AcDbLine
 10
23.2841995157
 20
5.7378475434
 30
0.0
 11
23.4365432641
 21
5.7378475434
 31
0.0
  0
LINE
  5
1E0
330
1D7
100
AcDbEntity
  8
0
  6
Continuous
 62
     7
370
     0
100
AcDbLine
 10
23.4365432641
 20
5.7378475434
 30
0.0
 11
23.4365432641
 21
4.9440975196
 31
0.0
  0
LINE
  5
1E1
330
1D7
100
AcDbEntity
  8
0
  6
Continuous
 62
     7
370
     0
100
AcDbLine
 10
23.4365432641
 20
4.9440975196
 30
0.0
 11
23.2841995157
 21
4.9440975196
 31
0.0
  0
LINE
  5
1E2
330
1D7
100
AcDbEntity
  8
0
  6
Continuous
 62
     7
370
     0
100
AcDbLine
 10
23.9137702368
 20
2.836667066
 30
0.0
 11
21.6050327908
 21
2.836667066
 31
0.0
  0
LINE
  5
1E3
330
1D7
100
AcDbEntity
  8
0
  6
Continuous
 62
     7
370
     0
100
AcDbLine
 10
23.9137702368
 20
8.646667066
 30
0.0
 11
21.6050327908
 21
8.646667066
 31
0.0
  0
LINE
  5
1E4
330
1D7
100
AcDbEntity
  8
0
  6
Continuous
 62
     7
370
     0
100
AcDbLine
 10
22.1050327908
 20
2.836667066
 30
0.0
 11
22.1050327908
 21
4.8425351795
 31
0.0
  0
LINE
  5
1E5
330
1D7
100
AcDbEntity
  8
0
  6
Continuous
 62
     7
370
     0
100
AcDbLine
 10
22.1050327908
 20
8.646667066
 30
0.0
 11
22.1050327908
 21
6.6407989524
 31
0.0
  0
MTEXT
  5
1E6
330
1D7
100
AcDbEntity
  8
0
  6
Continuous
 62
     7
370
    18
100
AcDbMText
 10
20.623956493
 20
6.4915828535
 30
0.0
 40
0.5
 41
0.0
 71
     1
 72
     1
  1

  7
SLDTEXTSTYLE0
 73
     1
 44
1.0
  0
MTEXT
  5
1E7
330
1D7
100
AcDbEntity
  8
0
  6
Continuous
 62
     7
370
    18
100
AcDbMText
 10
20.8401022934
 20
6.4839439275
 30
0.0
 40
0.5
 41
0.0
 71
     1
 72
     1
  1
5 13/16"
  7
SLDTEXTSTYLE0
 73
     1
 44
1.0
  0
MTEXT
  5
1E8
330
1D7
100
AcDbEntity
  8
0
  6
Continuous
 62
     7
370
    18
100
AcDbMText
 10
20.9258662127
 20
5.5886314444
 30
0.0
 40
0.5
 41
0.0
 71
     1
 72
     1
  1
148mm
  7
SLDTEXTSTYLE0
 73
     1
 44
1.0
  0
MTEXT
  5
1E9
330
1D7
100
AcDbEntity
  8
0
  6
Continuous
 62
     7
370
    18
100
AcDbMText
 10
23.7763869026
 20
6.4915828535
 30
0.0
 40
0.5
 41
0.0
 71
     1
 72
     1
  1

  7
SLDTEXTSTYLE0
 73
     1
 44
1.0
  0
ENDBLK
  5
1D9
330
1D7
100
AcDbEntity
  8
0
100
AcDbBlockEnd
  0
BLOCK
  5
21A
330
219
100
AcDbEntity
  8
0
100
AcDbBlockBegin
  2
_D_7
 70
     0
 10
0.0
 20
0.0
 30
0.0
  3
_D_7
  1

  0
SOLID
  5
21C
330
219
100
AcDbEntity
  8
0
  6
Continuous
 62
     7
370
    18
100
AcDbTrace
 10
21.219409414
 20
24.7607013518
 30
0.0
 11
21.739409414
 21
24.6807013518
 31
0.0
 12
21.739409414
 22
24.8407013518
 32
0.0
 13
21.739409414
 23
24.8407013518
 33
0.0
  0
SOLID
  5
21D
330
219
100
AcDbEntity
  8
0
  6
Continuous
 62
     7
370
    18
100
AcDbTrace
 10
24.719409414
 20
24.7607013518
 30
0.0
 11
24.199409414
 21
24.8407013518
 31
0.0
 12
24.199409414
 22
24.6807013518
 32
0.0
 13
24.199409414
 23
24.6807013518
 33
0.0
  0
LINE
  5
21E
330
219
100
AcDbEntity
  8
0
  6
Continuous
 62
     7
370
     0
100
AcDbLine
 10
25.954235562
 20
24.7568818293
 30
0.0
 11
25.8018918136
 21
24.7568818293
 31
0.0
  0
LINE
  5
21F
330
219
100
AcDbEntity
  8
0
  6
Continuous
 62
     7
370
     0
100
AcDbLine
 10
25.8018918136
 20
24.7568818293
 30
0.0
 11
25.8018918136
 21
23.9631318054
 31
0.0
  0
LINE
  5
220
330
219
100
AcDbEntity
  8
0
  6
Continuous
 62
     7
370
     0
100
AcDbLine
 10
25.8018918136
 20
23.9631318054
 30
0.0
 11
25.954235562
 21
23.9631318054
 31
0.0
  0
LINE
  5
221
330
219
100
AcDbEntity
  8
0
  6
Continuous
 62
     7
370
     0
100
AcDbLine
 10
27.9431244928
 20
24.7568818293
 30
0.0
 11
28.0954682413
 21
24.7568818293
 31
0.0
  0
LINE
  5
222
330
219
100
AcDbEntity
  8
0
  6
Continuous
 62
     7
370
     0
100
AcDbLine
 10
28.0954682413
 20
24.7568818293
 30
0.0
 11
28.0954682413
 21
23.9631318054
 31
0.0
  0
LINE
  5
223
330
219
100
AcDbEntity
  8
0
  6
Continuous
 62
     7
370
     0
100
AcDbLine
 10
28.0954682413
 20
23.9631318054
 30
0.0
 11
27.9431244928
 21
23.9631318054
 31
0.0
  0
LINE
  5
224
330
219
100
AcDbEntity
  8
0
  6
Continuous
 62
     7
370
     0
100
AcDbLine
 10
21.219409414
 20
21.0108982022
 30
0.0
 11
21.219409414
 21
25.2607013518
 31
0.0
  0
LINE
  5
225
330
219
100
AcDbEntity
  8
0
  6
Continuous
 62
     7
370
     0
100
AcDbLine
 10
24.719409414
 20
21.0108982022
 30
0.0
 11
24.719409414
 21
25.2607013518
 31
0.0
  0
LINE
  5
226
330
219
100
AcDbEntity
  8
0
  6
Continuous
 62
     7
370
     0
100
AcDbLine
 10
21.219409414
 20
24.7607013518
 30
0.0
 11
24.719409414
 21
24.7607013518
 31
0.0
  0
LINE
  5
227
330
219
100
AcDbEntity
  8
0
  6
Continuous
 62
     7
370
     0
100
AcDbLine
 10
24.719409414
 20
24.7607013518
 30
0.0
 11
25.5481592221
 21
24.7607013518
 31
0.0
  0
MTEXT
  5
228
330
219
100
AcDbEntity
  8
0
  6
Continuous
 62
     7
370
    18
100
AcDbMText
 10
26.0531939022
 20
25.5029782134
 30
0.0
 40
0.5
 41
0.0
 71
     1
 72
     1
  1
3 1/2"
  7
SLDTEXTSTYLE0
 73
     1
 44
1.0
  0
MTEXT
  5
229
330
219
100
AcDbEntity
  8
0
  6
Continuous
 62
     7
370
    18
100
AcDbMText
 10
25.954235562
 20
24.6076657303
 30
0.0
 40
0.5
 41
0.0
 71
     1
 72
     1
  1
89mm
  7
SLDTEXTSTYLE0
 73
     1
 44
1.0
  0
MTEXT
  5
22A
330
219
100
AcDbEntity
  8
0
  6
Continuous
 62
     7
370
    18
100
AcDbMText
 10
28.2478119164
 20
25.5106171393
 30
0.0
 40
0.5
 41
0.0
 71
     1
 72
     1
  1
O.C.
  7
SLDTEXTSTYLE0
 73
     1
 44
1.0
  0
ENDBLK
  5
21B
330
219
100
AcDbEntity
  8
0
100
AcDbBlockEnd
  0
BLOCK
  5
22D
330
22C
100
AcDbEntity
  8
0
100
AcDbBlockBegin
  2
_D_8
 70
     0
 10
0.0
 20
0.0
 30
0.0
  3
_D_8
  1

  0
SOLID
  5
22F
330
22C
100
AcDbEntity
  8
0
  6
Continuous
 62
     7
370
    18
100
AcDbTrace
 10
27.6938188628
 20
22.4358982022
 30
0.0
 11
27.7738188628
 21
22.9558982022
 31
0.0
 12
27.6138188628
 22
22.9558982022
 32
0.0
 13
27.6138188628
 23
22.9558982022
 33
0.0
  0
SOLID
  5
230
330
22C
100
AcDbEntity
  8
0
  6
Continuous
 62
     7
370
    18
100
AcDbTrace
 10
27.6938188628
 20
18.9358982022
 30
0.0
 11
27.6138188628
 21
18.4158982022
 31
0.0
 12
27.7738188628
 22
18.4158982022
 32
0.0
 13
27.7738188628
 23
18.4158982022
 33
0.0
  0
LINE
  5
231
330
22C
100
AcDbEntity
  8
0
  6
Continuous
 62
     7
370
     0
100
AcDbLine
 10
25.954235562
 20
20.6820786797
 30
0.0
 11
25.8018918136
 21
20.6820786797
 31
0.0
  0
LINE
  5
232
330
22C
100
AcDbEntity
  8
0
  6
Continuous
 62
     7
370
     0
100
AcDbLine
 10
25.8018918136
 20
20.6820786797
 30
0.0
 11
25.8018918136
 21
19.8883286558
 31
0.0
  0
LINE
  5
233
330
22C
100
AcDbEntity
  8
0
  6
Continuous
 62
     7
370
     0
100
AcDbLine
 10
25.8018918136
 20
19.8883286558
 30
0.0
 11
25.954235562
 21
19.8883286558
 31
0.0
  0
LINE
  5
234
330
22C
100
AcDbEntity
  8
0
  6
Continuous
 62
     7
370
     0
100
AcDbLine
 10
27.9431244928
 20
20.6820786797
 30
0.0
 11
28.0954682413
 21
20.6820786797
 31
0.0
  0
LINE
  5
235
330
22C
100
AcDbEntity
  8
0
  6
Continuous
 62
     7
370
     0
100
AcDbLine
 10
28.0954682413
 20
20.6820786797
 30
0.0
 11
28.0954682413
 21
19.8883286558
 31
0.0
  0
LINE
  5
236
330
22C
100
AcDbEntity
  8
0
  6
Continuous
 62
     7
370
     0
100
AcDbLine
 10
28.0954682413
 20
19.8883286558
 30
0.0
 11
27.9431244928
 21
19.8883286558
 31
0.0
  0
LINE
  5
237
330
22C
100
AcDbEntity
  8
0
  6
Continuous
 62
     7
370
     0
100
AcDbLine
 10
23.294409414
 20
22.4358982022
 30
0.0
 11
28.1938188628
 21
22.4358982022
 31
0.0
  0
LINE
  5
238
330
22C
100
AcDbEntity
  8
0
  6
Continuous
 62
     7
370
     0
100
AcDbLine
 10
23.294409414
 20
18.9358982022
 30
0.0
 11
28.1938188628
 21
18.9358982022
 31
0.0
  0
LINE
  5
239
330
22C
100
AcDbEntity
  8
0
  6
Continuous
 62
     7
370
     0
100
AcDbLine
 10
27.6938188628
 20
22.4358982022
 30
0.0
 11
27.6938188628
 21
23.4358982022
 31
0.0
  0
LINE
  5
23A
330
22C
100
AcDbEntity
  8
0
  6
Continuous
 62
     7
370
     0
100
AcDbLine
 10
27.6938188628
 20
18.9358982022
 30
0.0
 11
27.6938188628
 21
17.9358982022
 31
0.0
  0
MTEXT
  5
23B
330
22C
100
AcDbEntity
  8
0
  6
Continuous
 62
     7
370
    18
100
AcDbMText
 10
26.0531939022
 20
21.4281750638
 30
0.0
 40
0.5
 41
0.0
 71
     1
 72
     1
  1
3 1/2"
  7
SLDTEXTSTYLE0
 73
     1
 44
1.0
  0
MTEXT
  5
23C
330
22C
100
AcDbEntity
  8
0
  6
Continuous
 62
     7
370
    18
100
AcDbMText
 10
25.954235562
 20
20.5328625807
 30
0.0
 40
0.5
 41
0.0
 71
     1
 72
     1
  1
89mm
  7
SLDTEXTSTYLE0
 73
     1
 44
1.0
  0
MTEXT
  5
23D
330
22C
100
AcDbEntity
  8
0
  6
Continuous
 62
     7
370
    18
100
AcDbMText
 10
28.2478119164
 20
21.4358139897
 30
0.0
 40
0.5
 41
0.0
 71
     1
 72
     1
  1
O.C.
  7
SLDTEXTSTYLE0
 73
     1
 44
1.0
  0
ENDBLK
  5
22E
330
22C
100
AcDbEntity
  8
0
100
AcDbBlockEnd
  0
BLOCK
  5
241
330
240
100
AcDbEntity
  8
0
100
AcDbBlockBegin
  2
_D_9
 70
     0
 10
0.0
 20
0.0
 30
0.0
  3
_D_9
  1

  0
SOLID
  5
243
330
240
100
AcDbEntity
  8
0
  6
Continuous
 62
     7
370
    18
100
AcDbTrace
 10
23.3691498275
 20
19.8795436884
 30
0.0
 11
23.5284349985
 21
19.3781174882
 31
0.0
 12
23.671786912
 22
19.4491824506
 32
0.0
 13
23.671786912
 23
19.4491824506
 33
0.0
  0
LINE
  5
244
330
240
100
AcDbEntity
  8
0
  6
Continuous
 62
     7
370
     0
100
AcDbLine
 10
26.6993744341
 20
16.5588053493
 30
0.0
 11
26.5470306856
 21
16.5588053493
 31
0.0
  0
LINE
  5
245
330
240
100
AcDbEntity
  8
0
  6
Continuous
 62
     7
370
     0
100
AcDbLine
 10
26.5470306856
 20
16.5588053493
 30
0.0
 11
26.5470306856
 21
15.7650553254
 31
0.0
  0
LINE
  5
246
330
240
100
AcDbEntity
  8
0
  6
Continuous
 62
     7
370
     0
100
AcDbLine
 10
26.5470306856
 20
15.7650553254
 30
0.0
 11
26.6993744341
 21
15.7650553254
 31
0.0
  0
LINE
  5
247
330
240
100
AcDbEntity
  8
0
  6
Continuous
 62
     7
370
     0
100
AcDbLine
 10
28.6882633649
 20
16.5588053493
 30
0.0
 11
28.8406071134
 21
16.5588053493
 31
0.0
  0
LINE
  5
248
330
240
100
AcDbEntity
  8
0
  6
Continuous
 62
     7
370
     0
100
AcDbLine
 10
28.8406071134
 20
16.5588053493
 30
0.0
 11
28.8406071134
 21
15.7650553254
 31
0.0
  0
LINE
  5
249
330
240
100
AcDbEntity
  8
0
  6
Continuous
 62
     7
370
     0
100
AcDbLine
 10
28.8406071134
 20
15.7650553254
 30
0.0
 11
28.6882633649
 21
15.7650553254
 31
0.0
  0
LINE
  5
24A
330
240
100
AcDbEntity
  8
0
  6
Continuous
 62
     7
370
     0
100
AcDbLine
 10
23.3691498275
 20
19.8795436884
 30
0.0
 11
25.0518571243
 21
16.4851943096
 31
0.0
  0
LINE
  5
24B
330
240
100
AcDbEntity
  8
0
  6
Continuous
 62
     7
370
     0
100
AcDbLine
 10
25.0518571243
 20
16.4851943096
 30
0.0
 11
26.0518571243
 21
16.4851943096
 31
0.0
  0
MTEXT
  5
24C
330
240
100
AcDbEntity
  8
0
  6
Continuous
 62
     7
370
    18
100
AcDbMText
 10
26.0518571243
 20
17.3049017334
 30
0.0
 40
0.5
 41
0.0
 71
     1
 72
     1
  1
%%c
  7
SLDTEXTSTYLE0
 73
     1
 44
1.0
  0
MTEXT
  5
24D
330
240
100
AcDbEntity
  8
0
  6
Continuous
 62
     7
370
    18
100
AcDbMText
 10
26.8059196066
 20
17.3049017334
 30
0.0
 40
0.5
 41
0.0
 71
     1
 72
     1
  1
1 13/16"
  7
SLDTEXTSTYLE0
 73
     1
 44
1.0
  0
MTEXT
  5
24E
330
240
100
AcDbEntity
  8
0
  6
Continuous
 62
     7
370
    18
100
AcDbMText
 10
26.6993744341
 20
16.4095892503
 30
0.0
 40
0.5
 41
0.0
 71
     1
 72
     1
  1
46mm
  7
SLDTEXTSTYLE0
 73
     1
 44
1.0
  0
ENDBLK
  5
242
330
240
100
AcDbEntity
  8
0
100
AcDbBlockEnd
  0
BLOCK
  5
252
330
251
100
AcDbEntity
  8
0
100
AcDbBlockBegin
  2
_D_10
 70
     0
 10
0.0
 20
0.0
 30
0.0
  3
_D_10
  1

  0
SOLID
  5
254
330
251
100
AcDbEntity
  8
0
  6
Continuous
 62
     7
370
    18
100
AcDbTrace
 10
21.719409414
 20
18.5208346927
 30
0.0
 11
21.3901273817
 21
18.1105014828
 31
0.0
 12
21.5286914463
 22
18.0305014828
 32
0.0
 13
21.5286914463
 23
18.0305014828
 33
0.0
  0
LINE
  5
255
330
251
100
AcDbEntity
  8
0
  6
Continuous
 62
     7
370
     0
100
AcDbLine
 10
16.8811111643
 20
16.4851942363
 30
0.0
 11
16.7287674159
 21
16.4851942363
 31
0.0
  0
LINE
  5
256
330
251
100
AcDbEntity
  8
0
  6
Continuous
 62
     7
370
     0
100
AcDbLine
 10
16.7287674159
 20
16.4851942363
 30
0.0
 11
16.7287674159
 21
15.6914442124
 31
0.0
  0
LINE
  5
257
330
251
100
AcDbEntity
  8
0
  6
Continuous
 62
     7
370
     0
100
AcDbLine
 10
16.7287674159
 20
15.6914442124
 30
0.0
 11
16.8811111643
 21
15.6914442124
 31
0.0
  0
LINE
  5
258
330
251
100
AcDbEntity
  8
0
  6
Continuous
 62
     7
370
     0
100
AcDbLine
 10
19.2394444673
 20
16.4851942363
 30
0.0
 11
19.3917882157
 21
16.4851942363
 31
0.0
  0
LINE
  5
259
330
251
100
AcDbEntity
  8
0
  6
Continuous
 62
     7
370
     0
100
AcDbLine
 10
19.3917882157
 20
16.4851942363
 30
0.0
 11
19.3917882157
 21
15.6914442124
 31
0.0
  0
LINE
  5
25A
330
251
100
AcDbEntity
  8
0
  6
Continuous
 62
     7
370
     0
100
AcDbLine
 10
19.3917882157
 20
15.6914442124
 30
0.0
 11
19.2394444673
 21
15.6914442124
 31
0.0
  0
LINE
  5
25B
330
251
100
AcDbEntity
  8
0
  6
Continuous
 62
     7
370
     0
100
AcDbLine
 10
21.719409414
 20
18.5208346927
 30
0.0
 11
20.5441318909
 21
16.4851943096
 31
0.0
  0
LINE
  5
25C
330
251
100
AcDbEntity
  8
0
  6
Continuous
 62
     7
370
     0
100
AcDbLine
 10
20.5441318909
 20
16.4851943096
 30
0.0
 11
19.5441318909
 21
16.4851943096
 31
0.0
  0
MTEXT
  5
25D
330
251
100
AcDbEntity
  8
0
  6
Continuous
 62
     7
370
    18
100
AcDbMText
 10
17.3953993332
 20
17.2312906571
 30
0.0
 40
0.5
 41
0.0
 71
     1
 72
     1
  1
%%c
  7
SLDTEXTSTYLE0
 73
     1
 44
1.0
  0
MTEXT
  5
25E
330
251
100
AcDbEntity
  8
0
  6
Continuous
 62
     7
370
    18
100
AcDbMText
 10
18.1494618155
 20
17.2312906571
 30
0.0
 40
0.5
 41
0.0
 71
     1
 72
     1
  1
5"
  7
SLDTEXTSTYLE0
 73
     1
 44
1.0
  0
MTEXT
  5
25F
330
251
100
AcDbEntity
  8
0
  6
Continuous
 62
     7
370
    18
100
AcDbMText
 10
16.8811111643
 20
16.3359781373
 30
0.0
 40
0.5
 41
0.0
 71
     1
 72
     1
  1
127mm
  7
SLDTEXTSTYLE0
 73
     1
 44
1.0
  0
ENDBLK
  5
253
330
251
100
AcDbEntity
  8
0
100
AcDbBlockEnd
  0
BLOCK
  5
263
330
262
100
AcDbEntity
  8
0
100
AcDbBlockBegin
  2
SW_CENTERMARKSYMBOL_0
 70
     0
 10
0.0
 20
0.0
 30
0.0
  3
SW_CENTERMARKSYMBOL_0
  1

  0
LINE
  5
265
330
262
100
AcDbEntity
  8
0
  6
Continuous
 62
     0
370
    18
100
AcDbLine
 10
0.0
 20
0.0
 30
0.0
 11
0.0
 21
0.1
 31
0.0
  0
LINE
  5
266
330
262
100
AcDbEntity
  8
0
  6
Continuous
 62
     0
370
    18
100
AcDbLine
 10
0.0
 20
0.0
 30
0.0
 11
-0.1
 21
0.0
 31
0.0
  0
LINE
  5
267
330
262
100
AcDbEntity
  8
0
  6
Continuous
 62
     0
370
    18
100
AcDbLine
 10
0.0
 20
0.0
 30
0.0
 11
0.0
 21
-0.1
 31
0.0
  0
LINE
  5
268
330
262
100
AcDbEntity
  8
0
  6
Continuous
 62
     0
370
    18
100
AcDbLine
 10
0.0
 20
0.0
 30
0.0
 11
0.1
 21
0.0
 31
0.0
  0
LINE
  5
269
330
262
100
AcDbEntity
  8
0
  6
Continuous
 62
     0
370
    18
100
AcDbLine
 10
0.0
 20
0.2
 30
0.0
 11
0.0
 21
2.6
 31
0.0
  0
LINE
  5
26A
330
262
100
AcDbEntity
  8
0
  6
Continuous
 62
     0
370
    18
100
AcDbLine
 10
-0.2
 20
0.0
 30
0.0
 11
-2.6
 21
0.0
 31
0.0
  0
LINE
  5
26B
330
262
100
AcDbEntity
  8
0
  6
Continuous
 62
     0
370
    18
100
AcDbLine
 10
0.0
 20
-0.2
 30
0.0
 11
0.0
 21
-2.6
 31
0.0
  0
LINE
  5
26C
330
262
100
AcDbEntity
  8
0
  6
Continuous
 62
     0
370
    18
100
AcDbLine
 10
0.2
 20
0.0
 30
0.0
 11
2.6
 21
0.0
 31
0.0
  0
ENDBLK
  5
264
330
262
100
AcDbEntity
  8
0
100
AcDbBlockEnd
  0
BLOCK
  5
26F
330
26E
100
AcDbEntity
  8
0
100
AcDbBlockBegin
  2
SW_CENTERMARKSYMBOL_1
 70
     0
 10
0.0
 20
0.0
 30
0.0
  3
SW_CENTERMARKSYMBOL_1
  1

  0
LINE
  5
271
330
26E
100
AcDbEntity
  8
0
  6
Continuous
 62
     0
370
    18
100
AcDbLine
 10
0.0
 20
0.0
 30
0.0
 11
0.0
 21
0.1
 31
0.0
  0
LINE
  5
272
330
26E
100
AcDbEntity
  8
0
  6
Continuous
 62
     0
370
    18
100
AcDbLine
 10
0.0
 20
0.0
 30
0.0
 11
-0.1
 21
0.0
 31
0.0
  0
LINE
  5
273
330
26E
100
AcDbEntity
  8
0
  6
Continuous
 62
     0
370
    18
100
AcDbLine
 10
0.0
 20
0.0
 30
0.0
 11
0.0
 21
-0.1
 31
0.0
  0
LINE
  5
274
330
26E
100
AcDbEntity
  8
0
  6
Continuous
 62
     0
370
    18
100
AcDbLine
 10
0.0
 20
0.0
 30
0.0
 11
0.1
 21
0.0
 31
0.0
  0
LINE
  5
275
330
26E
100
AcDbEntity
  8
0
  6
Continuous
 62
     0
370
    18
100
AcDbLine
 10
0.0
 20
0.1
 30
0.0
 11
0.0
 21
0.17475
 31
0.0
  0
LINE
  5
276
330
26E
100
AcDbEntity
  8
0
  6
Continuous
 62
     0
370
    18
100
AcDbLine
 10
-0.1
 20
0.0
 30
0.0
 11
-0.17475
 21
0.0
 31
0.0
  0
LINE
  5
277
330
26E
100
AcDbEntity
  8
0
  6
Continuous
 62
     0
370
    18
100
AcDbLine
 10
0.0
 20
-0.1
 30
0.0
 11
0.0
 21
-0.17475
 31
0.0
  0
LINE
  5
278
330
26E
100
AcDbEntity
  8
0
  6
Continuous
 62
     0
370
    18
100
AcDbLine
 10
0.1
 20
0.0
 30
0.0
 11
0.17475
 21
0.0
 31
0.0
  0
ENDBLK
  5
270
330
26E
100
AcDbEntity
  8
0
100
AcDbBlockEnd
  0
BLOCK
  5
27B
330
27A
100
AcDbEntity
  8
0
100
AcDbBlockBegin
  2
SW_CENTERMARKSYMBOL_2
 70
     0
 10
0.0
 20
0.0
 30
0.0
  3
SW_CENTERMARKSYMBOL_2
  1

  0
LINE
  5
27D
330
27A
100
AcDbEntity
  8
0
  6
Continuous
 62
     0
370
    18
100
AcDbLine
 10
0.0
 20
0.0
 30
0.0
 11
0.0
 21
0.1
 31
0.0
  0
LINE
  5
27E
330
27A
100
AcDbEntity
  8
0
  6
Continuous
 62
     0
370
    18
100
AcDbLine
 10
0.0
 20
0.0
 30
0.0
 11
-0.1
 21
0.0
 31
0.0
  0
LINE
  5
27F
330
27A
100
AcDbEntity
  8
0
  6
Continuous
 62
     0
370
    18
100
AcDbLine
 10
0.0
 20
0.0
 30
0.0
 11
0.0
 21
-0.1
 31
0.0
  0
LINE
  5
280
330
27A
100
AcDbEntity
  8
0
  6
Continuous
 62
     0
370
    18
100
AcDbLine
 10
0.0
 20
0.0
 30
0.0
 11
0.1
 21
0.0
 31
0.0
  0
LINE
  5
281
330
27A
100
AcDbEntity
  8
0
  6
Continuous
 62
     0
370
    18
100
AcDbLine
 10
0.0
 20
0.1
 30
0.0
 11
0.0
 21
0.17475
 31
0.0
  0
LINE
  5
282
330
27A
100
AcDbEntity
  8
0
  6
Continuous
 62
     0
370
    18
100
AcDbLine
 10
-0.1
 20
0.0
 30
0.0
 11
-0.17475
 21
0.0
 31
0.0
  0
LINE
  5
283
330
27A
100
AcDbEntity
  8
0
  6
Continuous
 62
     0
370
    18
100
AcDbLine
 10
0.0
 20
-0.1
 30
0.0
 11
0.0
 21
-0.17475
 31
0.0
  0
LINE
  5
284
330
27A
100
AcDbEntity
  8
0
  6
Continuous
 62
     0
370
    18
100
AcDbLine
 10
0.1
 20
0.0
 30
0.0
 11
0.17475
 21
0.0
 31
0.0
  0
ENDBLK
  5
27C
330
27A
100
AcDbEntity
  8
0
100
AcDbBlockEnd
  0
BLOCK
  5
287
330
286
100
AcDbEntity
  8
0
100
AcDbBlockBegin
  2
SW_CENTERMARKSYMBOL_3
 70
     0
 10
0.0
 20
0.0
 30
0.0
  3
SW_CENTERMARKSYMBOL_3
  1

  0
LINE
  5
289
330
286
100
AcDbEntity
  8
0
  6
Continuous
 62
     0
370
    18
100
AcDbLine
 10
0.0
 20
0.0
 30
0.0
 11
0.0
 21
0.1
 31
0.0
  0
LINE
  5
28A
330
286
100
AcDbEntity
  8
0
  6
Continuous
 62
     0
370
    18
100
AcDbLine
 10
0.0
 20
0.0
 30
0.0
 11
-0.1
 21
0.0
 31
0.0
  0
LINE
  5
28B
330
286
100
AcDbEntity
  8
0
  6
Continuous
 62
     0
370
    18
100
AcDbLine
 10
0.0
 20
0.0
 30
0.0
 11
0.0
 21
-0.1
 31
0.0
  0
LINE
  5
28C
330
286
100
AcDbEntity
  8
0
  6
Continuous
 62
     0
370
    18
100
AcDbLine
 10
0.0
 20
0.0
 30
0.0
 11
0.1
 21
0.0
 31
0.0
  0
LINE
  5
28D
330
286
100
AcDbEntity
  8
0
  6
Continuous
 62
     0
370
    18
100
AcDbLine
 10
0.0
 20
0.1
 30
0.0
 11
0.0
 21
0.17475
 31
0.0
  0
LINE
  5
28E
330
286
100
AcDbEntity
  8
0
  6
Continuous
 62
     0
370
    18
100
AcDbLine
 10
-0.1
 20
0.0
 30
0.0
 11
-0.17475
 21
0.0
 31
0.0
  0
LINE
  5
28F
330
286
100
AcDbEntity
  8
0
  6
Continuous
 62
     0
370
    18
100
AcDbLine
 10
0.0
 20
-0.1
 30
0.0
 11
0.0
 21
-0.17475
 31
0.0
  0
LINE
  5
290
330
286
100
AcDbEntity
  8
0
  6
Continuous
 62
     0
370
    18
100
AcDbLine
 10
0.1
 20
0.0
 30
0.0
 11
0.17475
 21
0.0
 31
0.0
  0
ENDBLK
  5
288
330
286
100
AcDbEntity
  8
0
100
AcDbBlockEnd
  0
ENDSEC
  0
SECTION
  2
ENTITIES
  0
LINE
  5
7F
330
1F
100
AcDbEntity
  8
0
  6
Continuous
 62
     7
370
    25
100
AcDbLine
 10
7.5868191729
 20
20.2494988483
 30
0.0
 11
7.569454026
 21
20.2246988483
 31
0.0
  0
LINE
  5
80
330
1F
100
AcDbEntity
  8
0
  6
Continuous
 62
     7
370
    25
100
AcDbLine
 10
7.569454026
 20
20.0842988483
 30
0.0
 11
7.5868191729
 21
20.0594988483
 31
0.0
  0
LINE
  5
81
330
1F
100
AcDbEntity
  8
0
  6
Continuous
 62
     7
370
    25
100
AcDbLine
 10
7.593748879
 20
20.2494988483
 30
0.0
 11
7.5868191729
 21
20.2494988483
 31
0.0
  0
LINE
  5
82
330
1F
100
AcDbEntity
  8
0
  6
Continuous
 62
     7
370
    25
100
AcDbLine
 10
7.5868191729
 20
20.0594988483
 30
0.0
 11
7.593748879
 21
20.0594988483
 31
0.0
  0
LINE
  5
83
330
1F
100
AcDbEntity
  8
0
  6
Continuous
 62
     7
370
    25
100
AcDbLine
 10
7.593748879
 20
20.0594988483
 30
0.0
 11
7.611114026
 21
20.0842988483
 31
0.0
  0
LINE
  5
84
330
1F
100
AcDbEntity
  8
0
  6
Continuous
 62
     7
370
    25
100
AcDbLine
 10
7.611114026
 20
20.2246988483
 30
0.0
 11
7.593748879
 21
20.2494988483
 31
0.0
  0
LINE
  5
85
330
1F
100
AcDbEntity
  8
0
  6
Continuous
 62
     7
370
    25
100
AcDbLine
 10
7.627794026
 20
20.248520357
 30
0.0
 11
7.611114026
 21
20.2246988483
 31
0.0
  0
LINE
  5
86
330
1F
100
AcDbEntity
  8
0
  6
Continuous
 62
     7
370
    25
100
AcDbLine
 10
7.611114026
 20
20.0842988483
 30
0.0
 11
7.627794026
 21
20.0604773395
 31
0.0
  0
LINE
  5
87
330
1F
100
AcDbEntity
  8
0
  6
Continuous
 62
     7
370
    25
100
AcDbLine
 10
7.552296917
 20
20.0597959573
 30
0.0
 11
7.569454026
 21
20.0842988483
 31
0.0
  0
LINE
  5
88
330
1F
100
AcDbEntity
  8
0
  6
Continuous
 62
     7
370
    25
100
AcDbLine
 10
7.569454026
 20
20.2246988483
 30
0.0
 11
7.552296917
 21
20.2492017393
 31
0.0
  0
LINE
  5
89
330
1F
100
AcDbEntity
  8
0
  6
Continuous
 62
     7
370
    25
100
AcDbLine
 10
7.552296917
 20
20.2492017393
 30
0.0
 11
7.527794026
 21
20.2246988483
 31
0.0
  0
LINE
  5
8A
330
1F
100
AcDbEntity
  8
0
  6
Continuous
 62
     7
370
    25
100
AcDbLine
 10
7.527794026
 20
20.0842988483
 30
0.0
 11
7.552296917
 21
20.0597959573
 31
0.0
  0
LINE
  5
8B
330
1F
100
AcDbEntity
  8
0
  6
Continuous
 62
     7
370
    25
100
AcDbLine
 10
7.657794026
 20
19.0044988483
 30
0.0
 11
7.777794026
 21
19.0044988483
 31
0.0
  0
LINE
  5
8C
330
1F
100
AcDbEntity
  8
0
  6
Continuous
 62
     7
370
    25
100
AcDbLine
 10
7.777794026
 20
24.0044988483
 30
0.0
 11
7.657794026
 21
24.0044988483
 31
0.0
  0
LINE
  5
8D
330
1F
100
AcDbEntity
  8
0
  6
Continuous
 62
     7
370
    25
100
AcDbLine
 10
7.657794026
 20
24.0044988483
 30
0.0
 11
7.627794026
 21
23.9744988483
 31
0.0
  0
LINE
  5
8E
330
1F
100
AcDbEntity
  8
0
  6
Continuous
 62
     7
370
    25
100
AcDbLine
 10
7.627794026
 20
19.0344988483
 30
0.0
 11
7.657794026
 21
19.0044988483
 31
0.0
  0
LINE
  5
8F
330
1F
100
AcDbEntity
  8
0
  6
Continuous
 62
     7
370
    25
100
AcDbLine
 10
8.102794026
 20
19.0194988483
 30
0.0
 11
8.152794026
 21
19.0694988483
 31
0.0
  0
LINE
  5
90
330
1F
100
AcDbEntity
  8
0
  6
Continuous
 62
     7
370
    25
100
AcDbLine
 10
8.152794026
 20
23.9394988483
 30
0.0
 11
8.102794026
 21
23.9894988483
 31
0.0
  0
LINE
  5
91
330
1F
100
AcDbEntity
  8
0
  6
Continuous
 62
     7
370
    25
100
AcDbLine
 10
7.777794026
 20
19.0194988483
 30
0.0
 11
8.102794026
 21
19.0194988483
 31
0.0
  0
LINE
  5
92
330
1F
100
AcDbEntity
  8
0
  6
Continuous
 62
     7
370
    25
100
AcDbLine
 10
8.102794026
 20
23.9894988483
 30
0.0
 11
7.777794026
 21
23.9894988483
 31
0.0
  0
LINE
  5
93
330
1F
100
AcDbEntity
  8
0
  6
Continuous
 62
     7
370
    25
100
AcDbLine
 10
14.767794026
 20
23.208509767
 30
0.0
 11
14.767794026
 21
28.7564988483
 31
0.0
  0
LINE
  5
94
330
1F
100
AcDbEntity
  8
0
  6
Continuous
 62
     7
370
    25
100
AcDbLine
 10
14.767794026
 20
22.9464988483
 30
0.0
 11
14.767794026
 21
23.0593102262
 31
0.0
  0
LINE
  5
95
330
1F
100
AcDbEntity
  8
0
  6
Continuous
 62
     7
370
    25
100
AcDbLine
 10
9.297794026
 20
28.7564988483
 30
0.0
 11
9.297794026
 21
22.9464988483
 31
0.0
  0
LINE
  5
96
330
1F
100
AcDbEntity
  8
0
  6
Continuous
 62
     7
370
    25
100
AcDbLine
 10
9.297794026
 20
20.0624988483
 30
0.0
 11
9.297794026
 21
14.2524988483
 31
0.0
  0
LINE
  5
97
330
1F
100
AcDbEntity
  8
0
  6
Continuous
 62
     7
370
    25
100
AcDbLine
 10
14.767794026
 20
19.9496874703
 30
0.0
 11
14.767794026
 21
20.0624988483
 31
0.0
  0
LINE
  5
98
330
1F
100
AcDbEntity
  8
0
  6
Continuous
 62
     7
370
    25
100
AcDbLine
 10
14.767794026
 20
14.2524988483
 30
0.0
 11
14.767794026
 21
19.8004879295
 31
0.0
  0
LINE
  5
99
330
1F
100
AcDbEntity
  8
0
  6
Continuous
 62
     7
370
    25
100
AcDbLine
 10
8.162794026
 20
20.8494988483
 30
0.0
 11
9.2999031577
 21
20.8494988483
 31
0.0
  0
LINE
  5
9A
330
1F
100
AcDbEntity
  8
0
  6
Continuous
 62
     7
370
    25
100
AcDbLine
 10
9.2999011606
 20
22.1594988483
 30
0.0
 11
8.162794026
 21
22.1594988483
 31
0.0
  0
ARC
  5
9B
330
1F
100
AcDbEntity
  8
0
  6
Continuous
 62
     7
370
    25
100
AcDbCircle
 10
8.162794026
 20
22.1494988483
 30
0.0
 40
0.009999999999998
100
AcDbArc
 50
90.0
 51
180.0
  0
ARC
  5
9C
330
1F
100
AcDbEntity
  8
0
  6
Continuous
 62
     7
370
    25
100
AcDbCircle
 10
8.162794026
 20
20.8594988483
 30
0.0
 40
0.0100000000000016
100
AcDbArc
 50
180.0
 51
270.0
  0
LINE
  5
9D
330
1F
100
AcDbEntity
  8
0
  6
Continuous
 62
     7
370
    25
100
AcDbLine
 10
7.5679725974
 20
21.0994988483
 30
0.0
 11
7.5992225974
 21
21.153625436
 31
0.0
  0
LINE
  5
9E
330
1F
100
AcDbEntity
  8
0
  6
Continuous
 62
     7
370
    25
100
AcDbLine
 10
7.5992225974
 20
21.8553722605
 30
0.0
 11
7.5679725974
 21
21.9094988483
 31
0.0
  0
LINE
  5
9F
330
1F
100
AcDbEntity
  8
0
  6
Continuous
 62
     7
370
    25
100
AcDbLine
 10
7.5679725974
 20
21.9094988483
 30
0.0
 11
7.559044026
 21
21.9094988483
 31
0.0
  0
LINE
  5
A0
330
1F
100
AcDbEntity
  8
0
  6
Continuous
 62
     7
370
    25
100
AcDbLine
 10
7.559044026
 20
21.0994988483
 30
0.0
 11
7.5679725974
 21
21.0994988483
 31
0.0
  0
LINE
  5
A1
330
1F
100
AcDbEntity
  8
0
  6
Continuous
 62
     7
370
    25
100
AcDbLine
 10
7.559044026
 20
21.9094988483
 30
0.0
 11
7.527794026
 21
21.8553722605
 31
0.0
  0
LINE
  5
A2
330
1F
100
AcDbEntity
  8
0
  6
Continuous
 62
     7
370
    25
100
AcDbLine
 10
7.527794026
 20
21.153625436
 30
0.0
 11
7.559044026
 21
21.0994988483
 31
0.0
  0
LINE
  5
A3
330
1F
100
AcDbEntity
  8
0
  6
Continuous
 62
     7
370
    25
100
AcDbLine
 10
7.627794026
 20
21.9048594265
 30
0.0
 11
7.5992225974
 21
21.8553722605
 31
0.0
  0
LINE
  5
A4
330
1F
100
AcDbEntity
  8
0
  6
Continuous
 62
     7
370
    25
100
AcDbLine
 10
7.5992225974
 20
21.153625436
 30
0.0
 11
7.627794026
 21
21.1041382701
 31
0.0
  0
LINE
  5
A5
330
1F
100
AcDbEntity
  8
0
  6
Continuous
 62
     7
370
    25
100
AcDbLine
 10
14.767794026
 20
20.0624988483
 30
0.0
 11
14.767794026
 21
22.9464988483
 31
0.0
  0
LINE
  5
A6
330
1F
100
AcDbEntity
  8
0
  6
Continuous
 62
     7
370
    25
100
AcDbLine
 10
9.297794026
 20
20.8411349438
 30
0.0
 11
9.297794026
 21
20.0624988483
 31
0.0
  0
LINE
  5
A7
330
1F
100
AcDbEntity
  8
0
  6
Continuous
 62
     7
370
    25
100
AcDbLine
 10
9.297794026
 20
22.9464988483
 30
0.0
 11
9.297794026
 21
22.1677073102
 31
0.0
  0
LINE
  5
A8
330
1F
100
AcDbEntity
  8
0
  6
Continuous
 62
     7
370
    25
100
AcDbLine
 10
14.767794026
 20
23.1915548512
 30
0.0
 11
14.767794026
 21
23.0705988483
 31
0.0
  0
LINE
  5
A9
330
1F
100
AcDbEntity
  8
0
  6
Continuous
 62
     7
370
    25
100
AcDbLine
 10
14.767794026
 20
23.1973988483
 30
0.0
 11
14.767794026
 21
23.1915548512
 31
0.0
  0
LWPOLYLINE
  5
AA
330
1F
100
AcDbEntity
  8
0
  6
Continuous
 62
     7
370
    25
100
AcDbPolyline
 90
       38
 70
   128
 43
0.0
 10
10.6767810152
 20
19.9369958275
 10
10.6675419692
 20
19.9383456898
 10
10.6582382539
 20
19.9378731788
 10
10.6491375204
 20
19.9355918878
 10
10.6405015802
 20
19.9315674453
 10
10.6325788734
 20
19.9259156273
 10
10.625597322
 20
19.9187990263
 10
10.6197577726
 20
19.9104223739
 10
10.6152282182
 20
19.9010266511
 10
10.612138966
 20
19.8908821559
 10
10.6105788881
 20
19.8802807268
 10
10.610592865
 20
19.8695273477
 10
10.6121804948
 20
19.8589313737
 10
10.6152961042
 20
19.8487976317
 10
10.6198500627
 20
19.839417651
 10
10.6257113613
 20
19.8310612765
 10
10.6327113812
 20
19.823968906
 10
10.6406487443
 20
19.818344574
 10
10.6492951074
 20
19.8143500824
 10
10.6584017302
 20
19.8121003453
 10
10.6677066319
 20
19.8116600836
 10
10.6769421272
 20
19.8130419628
 10
10.6858425279
 20
19.8162062289
 10
10.6941517856
 20
19.8210618516
 10
10.7016308581
 20
19.8274691434
 10
10.7080645861
 20
19.8352437783
 10
10.713267883
 20
19.8441620943
 10
10.7170910593
 20
19.8539675274
 10
10.7194241293
 20
19.8643779934
 10
10.7201999748
 20
19.8750940021
 10
10.719396276
 20
19.8858072733
 10
10.7170361541
 20
19.8962096058
 10
10.7131875054
 20
19.9060017435
 10
10.7079610484
 20
19.9149019843
 10
10.7015071389
 20
19.9226542845
 10
10.6940114441
 20
19.9290356246
 10
10.6856896014
 20
19.933862425
 10
10.6767810152
 20
19.9369958275
  0
LWPOLYLINE
  5
AB
330
1F
100
AcDbEntity
  8
0
  6
Continuous
 62
     7
370
    25
100
AcDbPolyline
 90
       23
 70
   128
 43
0.0
 10
10.6750478183
 20
19.8008237635
 10
10.6673090799
 20
19.8007661254
 10
10.6572948463
 20
19.8023041231
 10
10.6476122667
 20
19.8056321061
 10
10.6384997582
 20
19.8106681286
 10
10.6301817011
 20
19.8172881869
 10
10.6228629136
 20
19.8253292732
 10
10.6167236085
 20
19.8345933893
 10
10.6119149559
 20
19.8448524219
 10
10.6085553607
 20
19.8558537596
 10
10.6067275473
 20
19.8673265128
 10
10.6064765227
 20
19.8789881845
 10
10.6078084677
 20
19.8905516254
 10
10.6106905856
 20
19.9017321054
 10
10.615051909
 20
19.9122543238
 10
10.6207850477
 20
19.9218591888
 10
10.6277488327
 20
19.9303101967
 10
10.6357717926
 20
19.9373992556
 10
10.6446563754
 20
19.9429518094
 10
10.6541838133
 20
19.9468311358
 10
10.6641195091
 20
19.9489417128
 10
10.674218813
 20
19.9492315711
 10
10.6761949874
 20
19.9490737001
  0
LINE
  5
AC
330
1F
100
AcDbEntity
  8
0
  6
Continuous
 62
     7
370
    25
100
AcDbLine
 10
10.628186833
 20
19.8611397368
 30
0.0
 11
10.657134763
 21
19.8309620995
 31
0.0
  0
LINE
  5
AD
330
1F
100
AcDbEntity
  8
0
  6
Continuous
 62
     7
370
    25
100
AcDbLine
 10
10.6942419561
 20
19.844821211
 30
0.0
 11
10.657134763
 21
19.8309620995
 31
0.0
  0
LINE
  5
AE
330
1F
100
AcDbEntity
  8
0
  6
Continuous
 62
     7
370
    25
100
AcDbLine
 10
10.702401219
 20
19.8888579597
 30
0.0
 11
10.6942419561
 21
19.844821211
 31
0.0
  0
LINE
  5
AF
330
1F
100
AcDbEntity
  8
0
  6
Continuous
 62
     7
370
    25
100
AcDbLine
 10
10.702401219
 20
19.8888579597
 30
0.0
 11
10.6734532889
 21
19.919035597
 31
0.0
  0
LINE
  5
B0
330
1F
100
AcDbEntity
  8
0
  6
Continuous
 62
     7
370
    25
100
AcDbLine
 10
10.6363460959
 20
19.9051764856
 30
0.0
 11
10.6734532889
 21
19.919035597
 31
0.0
  0
LINE
  5
B1
330
1F
100
AcDbEntity
  8
0
  6
Continuous
 62
     7
370
    25
100
AcDbLine
 10
10.6363460959
 20
19.9051764856
 30
0.0
 11
10.628186833
 21
19.8611397368
 31
0.0
  0
LINE
  5
B2
330
1F
100
AcDbEntity
  8
0
  6
Continuous
 62
     7
370
    25
100
AcDbLine
 10
10.6813460959
 20
19.9051764856
 30
0.0
 11
10.6853228921
 21
19.9066617734
 31
0.0
  0
LINE
  5
B3
330
1F
100
AcDbEntity
  8
0
  6
Continuous
 62
     7
370
    25
100
AcDbLine
 10
10.6813460959
 20
19.9051764856
 30
0.0
 11
10.6363460959
 21
19.9051764856
 31
0.0
  0
LINE
  5
B4
330
1F
100
AcDbEntity
  8
0
  6
Continuous
 62
     7
370
    25
100
AcDbLine
 10
10.673186833
 20
19.8611397368
 30
0.0
 11
10.628186833
 21
19.8611397368
 31
0.0
  0
LINE
  5
B5
330
1F
100
AcDbEntity
  8
0
  6
Continuous
 62
     7
370
    25
100
AcDbLine
 10
10.673186833
 20
19.8611397368
 30
0.0
 11
10.6902651599
 21
19.8433359231
 31
0.0
  0
LINE
  5
B6
330
1F
100
AcDbEntity
  8
0
  6
Continuous
 62
     7
370
    25
100
AcDbLine
 10
10.6813460959
 20
19.9051764856
 30
0.0
 11
10.673186833
 21
19.8611397368
 31
0.0
  0
LWPOLYLINE
  5
B7
330
1F
100
AcDbEntity
  8
0
  6
Continuous
 62
     7
370
    25
100
AcDbPolyline
 90
       38
 70
   128
 43
0.0
 10
10.6594519253
 20
23.1970389398
 10
10.6503094736
 20
23.1949921068
 10
10.6415981002
 20
23.1911906087
 10
10.6335684154
 20
23.1857438079
 10
10.6264514187
 20
23.1788083987
 10
10.6204518531
 20
23.1705839004
 10
10.6157423152
 20
23.1613069167
 10
10.6124582897
 20
23.1512443297
 10
10.6106942522
 20
23.1406856215
 10
10.6105009508
 20
23.129934547
 10
10.6118839464
 20
23.1193003951
 10
10.6148034527
 20
23.1090890909
 10
10.6191754809
 20
23.0995943951
 10
10.6248742557
 20
23.0910894527
 10
10.6317358337
 20
23.0838189356
 10
10.6395628197
 20
23.0779920032
 10
10.6481300457
 20
23.0737762857
 10
10.6571910482
 20
23.0712930617
 10
10.6664851586
 20
23.070613769
 10
10.6757450023
 20
23.0717579497
 10
10.6847041905
 20
23.0746926876
 10
10.6931049835
 20
23.0793335559
 10
10.7007057059
 20
23.0855470451
 10
10.7072876988
 20
23.0931544044
 10
10.7126616101
 20
23.101936784
 10
10.7166728423
 20
23.1116415308
 10
10.7192059995
 20
23.121989457
 10
10.7201882074
 20
23.1326828715
 10
10.7195912096
 20
23.1434141442
 10
10.7174321808
 20
23.153874556
 10
10.7137732321
 20
23.1637631799
 10
10.7087196249
 20
23.1727955381
 10
10.7024167423
 20
23.1807117863
 10
10.6950459068
 20
23.1872841882
 10
10.6868191638
 20
23.1923236679
 10
10.6779731818
 20
23.1956852488
 10
10.6687624436
 20
23.1972722242
 10
10.6594519253
 20
23.1970389398
  0
LWPOLYLINE
  5
B8
330
1F
100
AcDbEntity
  8
0
  6
Continuous
 62
     7
370
    25
100
AcDbPolyline
 90
       23
 70
   128
 43
0.0
 10
10.6762305051
 20
23.05992748
 10
10.6675156723
 20
23.0597536897
 10
10.6574972104
 20
23.0612545227
 10
10.6478054197
 20
23.0645465624
 10
10.638678944
 20
23.0695487479
 10
10.6303425076
 20
23.0761379087
 10
10.6230013812
 20
23.0841517979
 10
10.6168363276
 20
23.093393087
 10
10.611999151
 20
23.1036342246
 10
10.6086089587
 20
23.11462304
 10
10.6067492285
 20
23.1260889522
 10
10.606465753
 20
23.1377496322
 10
10.6077655125
 20
23.1493179555
 10
10.6106165025
 20
23.1605090715
 10
10.6149485222
 20
23.1710474179
 10
10.6206549029
 20
23.1806735055
 10
10.6275951346
 20
23.1891503081
 10
10.6355983256
 20
23.1962690988
 10
10.644467411
 20
23.2018545892
 10
10.6539840043
 20
23.2057692461
 10
10.6639137755
 20
23.2079166776
 10
10.6740122206
 20
23.2082440068
 10
10.6753057021
 20
23.2081534742
  0
LINE
  5
B9
330
1F
100
AcDbEntity
  8
0
  6
Continuous
 62
     7
370
    25
100
AcDbLine
 10
10.6337856047
 20
23.1074603382
 30
0.0
 11
10.6694436979
 21
23.0892211719
 31
0.0
  0
LINE
  5
BA
330
1F
100
AcDbEntity
  8
0
  6
Continuous
 62
     7
370
    25
100
AcDbLine
 10
10.7009521192
 20
23.115759682
 30
0.0
 11
10.6694436979
 21
23.0892211719
 31
0.0
  0
LINE
  5
BB
330
1F
100
AcDbEntity
  8
0
  6
Continuous
 62
     7
370
    25
100
AcDbLine
 10
10.6968024473
 20
23.1605373583
 30
0.0
 11
10.7009521192
 21
23.115759682
 31
0.0
  0
LINE
  5
BC
330
1F
100
AcDbEntity
  8
0
  6
Continuous
 62
     7
370
    25
100
AcDbLine
 10
10.6968024473
 20
23.1605373583
 30
0.0
 11
10.6611443541
 21
23.1787765246
 31
0.0
  0
LINE
  5
BD
330
1F
100
AcDbEntity
  8
0
  6
Continuous
 62
     7
370
    25
100
AcDbLine
 10
10.6296359328
 20
23.1522380145
 30
0.0
 11
10.6611443541
 21
23.1787765246
 31
0.0
  0
LINE
  5
BE
330
1F
100
AcDbEntity
  8
0
  6
Continuous
 62
     7
370
    25
100
AcDbLine
 10
10.6296359328
 20
23.1522380145
 30
0.0
 11
10.6337856047
 21
23.1074603382
 31
0.0
  0
LINE
  5
BF
330
1F
100
AcDbEntity
  8
0
  6
Continuous
 62
     7
370
    25
100
AcDbLine
 10
10.6787856047
 20
23.1074603382
 30
0.0
 11
10.6337856047
 21
23.1074603382
 31
0.0
  0
LINE
  5
C0
330
1F
100
AcDbEntity
  8
0
  6
Continuous
 62
     7
370
    25
100
AcDbLine
 10
10.6787856047
 20
23.1074603382
 30
0.0
 11
10.6864462818
 21
23.1035418908
 31
0.0
  0
LINE
  5
C1
330
1F
100
AcDbEntity
  8
0
  6
Continuous
 62
     7
370
    25
100
AcDbLine
 10
10.6746359328
 20
23.1522380145
 30
0.0
 11
10.6891417702
 21
23.1644558057
 31
0.0
  0
LINE
  5
C2
330
1F
100
AcDbEntity
  8
0
  6
Continuous
 62
     7
370
    25
100
AcDbLine
 10
10.6746359328
 20
23.1522380145
 30
0.0
 11
10.6296359328
 21
23.1522380145
 31
0.0
  0
LINE
  5
C3
330
1F
100
AcDbEntity
  8
0
  6
Continuous
 62
     7
370
    25
100
AcDbLine
 10
10.6746359328
 20
23.1522380145
 30
0.0
 11
10.6787856047
 21
23.1074603382
 31
0.0
  0
LINE
  5
C4
330
1F
100
AcDbEntity
  8
0
  6
Continuous
 62
     7
370
    25
100
AcDbLine
 10
14.767794026
 20
19.8943548113
 30
0.0
 11
14.767794026
 21
19.8115988483
 31
0.0
  0
LINE
  5
C5
330
1F
100
AcDbEntity
  8
0
  6
Continuous
 62
     7
370
    25
100
AcDbLine
 10
14.767794026
 20
19.9383988483
 30
0.0
 11
14.767794026
 21
19.8943548113
 31
0.0
  0
LINE
  5
C6
330
1F
100
AcDbEntity
  8
0
  6
Continuous
 62
     7
370
    25
100
AcDbLine
 10
7.569454026
 20
20.1730329323
 30
0.0
 11
7.569454026
 21
20.0842988483
 31
0.0
  0
LINE
  5
C7
330
1F
100
AcDbEntity
  8
0
  6
Continuous
 62
     7
370
    25
100
AcDbLine
 10
7.569454026
 20
20.2246988483
 30
0.0
 11
7.569454026
 21
20.1730329323
 31
0.0
  0
LINE
  5
C8
330
1F
100
AcDbEntity
  8
0
  6
Continuous
 62
     7
370
    25
100
AcDbLine
 10
7.5868191729
 20
20.1795805859
 30
0.0
 11
7.5868191729
 21
20.0594988483
 31
0.0
  0
LINE
  5
C9
330
1F
100
AcDbEntity
  8
0
  6
Continuous
 62
     7
370
    25
100
AcDbLine
 10
7.5868191729
 20
20.2494988483
 30
0.0
 11
7.5868191729
 21
20.1795805859
 31
0.0
  0
LINE
  5
CA
330
1F
100
AcDbEntity
  8
0
  6
Continuous
 62
     7
370
    25
100
AcDbLine
 10
7.593748879
 20
20.1795805859
 30
0.0
 11
7.593748879
 21
20.0594988483
 31
0.0
  0
LINE
  5
CB
330
1F
100
AcDbEntity
  8
0
  6
Continuous
 62
     7
370
    25
100
AcDbLine
 10
7.593748879
 20
20.2494988483
 30
0.0
 11
7.593748879
 21
20.1795805859
 31
0.0
  0
LINE
  5
CC
330
1F
100
AcDbEntity
  8
0
  6
Continuous
 62
     7
370
    25
100
AcDbLine
 10
7.611114026
 20
20.1730329323
 30
0.0
 11
7.611114026
 21
20.0842988483
 31
0.0
  0
LINE
  5
CD
330
1F
100
AcDbEntity
  8
0
  6
Continuous
 62
     7
370
    25
100
AcDbLine
 10
7.611114026
 20
20.2246988483
 30
0.0
 11
7.611114026
 21
20.1730329323
 31
0.0
  0
LINE
  5
CE
330
1F
100
AcDbEntity
  8
0
  6
Continuous
 62
     7
370
    25
100
AcDbLine
 10
7.552296917
 20
20.0597959573
 30
0.0
 11
7.552296917
 21
20.2492017393
 31
0.0
  0
LINE
  5
CF
330
1F
100
AcDbEntity
  8
0
  6
Continuous
 62
     7
370
    25
100
AcDbLine
 10
7.527794026
 20
20.0867897076
 30
0.0
 11
7.527794026
 21
20.0842988483
 31
0.0
  0
LINE
  5
D0
330
1F
100
AcDbEntity
  8
0
  6
Continuous
 62
     7
370
    25
100
AcDbLine
 10
7.527794026
 20
20.2246988483
 30
0.0
 11
7.527794026
 21
20.0867897076
 31
0.0
  0
LINE
  5
D1
330
1F
100
AcDbEntity
  8
0
  6
Continuous
 62
     7
370
    25
100
AcDbLine
 10
7.657794026
 20
24.0044988483
 30
0.0
 11
7.657794026
 21
19.0044988483
 31
0.0
  0
LINE
  5
D2
330
1F
100
AcDbEntity
  8
0
  6
Continuous
 62
     7
370
    25
100
AcDbLine
 10
7.777794026
 20
24.0044988483
 30
0.0
 11
7.777794026
 21
19.0044988483
 31
0.0
  0
LINE
  5
D3
330
1F
100
AcDbEntity
  8
0
  6
Continuous
 62
     7
370
    25
100
AcDbLine
 10
7.627794026
 20
19.0344988483
 30
0.0
 11
7.627794026
 21
23.9744988483
 31
0.0
  0
LINE
  5
D4
330
1F
100
AcDbEntity
  8
0
  6
Continuous
 62
     7
370
    25
100
AcDbLine
 10
8.102794026
 20
21.5044988483
 30
0.0
 11
8.102794026
 21
23.9894988483
 31
0.0
  0
LINE
  5
D5
330
1F
100
AcDbEntity
  8
0
  6
Continuous
 62
     7
370
    25
100
AcDbLine
 10
8.102794026
 20
19.0194988483
 30
0.0
 11
8.102794026
 21
21.5044988483
 31
0.0
  0
LINE
  5
D6
330
1F
100
AcDbEntity
  8
0
  6
Continuous
 62
     7
370
    25
100
AcDbLine
 10
8.152794026
 20
21.5044988483
 30
0.0
 11
8.152794026
 21
19.0694988483
 31
0.0
  0
LINE
  5
D7
330
1F
100
AcDbEntity
  8
0
  6
Continuous
 62
     7
370
    25
100
AcDbLine
 10
8.152794026
 20
23.9394988483
 30
0.0
 11
8.152794026
 21
21.5044988483
 31
0.0
  0
LINE
  5
D8
330
1F
100
AcDbEntity
  8
0
  6
Continuous
 62
     7
370
    25
100
AcDbLine
 10
14.767794026
 20
22.9464988483
 30
0.0
 11
9.297794026
 21
22.9464988483
 31
0.0
  0
LINE
  5
D9
330
1F
100
AcDbEntity
  8
0
  6
Continuous
 62
     7
370
    25
100
AcDbLine
 10
14.767794026
 20
28.7564988483
 30
0.0
 11
9.297794026
 21
28.7564988483
 31
0.0
  0
SPLINE
  5
DA
330
1F
100
AcDbEntity
  8
0
  6
Continuous
 62
     7
370
    25
100
AcDbSpline
210
0.0
220
0.0
230
1.0
 70
     8
 71
     3
 72
    17
 73
    13
 74
     0
 42
0.00000001
 43
0.00000001
 40
0.0
 40
0.0
 40
0.0
 40
0.0
 40
0.1058211910947526
 40
0.2147119031332135
 40
0.3205328939303114
 40
0.429421338499673
 40
0.535267067346802
 40
0.6441813243452417
 40
0.7500423319015821
 40
0.8589747864214744
 40
0.9648087201746726
 40
0.9999999999999999
 40
0.9999999999999999
 40
0.9999999999999999
 40
0.9999999999999999
 10
14.76677234293343
 20
23.13399884826141
 30
0.0
 10
14.76677783647853
 20
23.13814070894192
 30
0.0
 10
14.7667889829182
 20
23.14654457191137
 30
0.0
 10
14.76687628632312
 20
23.15874080043198
 30
0.0
 10
14.76700621822807
 20
23.17034281910999
 30
0.0
 10
14.76716722594561
 20
23.18081333003593
 30
0.0
 10
14.76734248965055
 20
23.19004831093549
 30
0.0
 10
14.76750944580242
 20
23.19760658194851
 30
0.0
 10
14.76765326292584
 20
23.20346105957482
 30
0.0
 10
14.76775024733096
 20
23.20714704637815
 30
0.0
 10
14.76779667912614
 20
23.20884628117504
 30
0.0
 10
14.76778933961599
 20
23.20857697049687
 30
0.0
 10
14.76778750812253
 20
23.20850976700045
 30
0.0
  0
SPLINE
  5
DB
330
1F
100
AcDbEntity
  8
0
  6
Continuous
 62
     7
370
    25
100
AcDbSpline
210
0.0
220
0.0
230
1.0
 70
     8
 71
     3
 72
    17
 73
    13
 74
     0
 42
0.00000001
 43
0.00000001
 40
0.0
 40
0.0
 40
0.0
 40
0.0
 40
0.0065116234340585
 40
0.1123347886732397
 40
0.2212269124591401
 40
0.3270510546336148
 40
0.435942169018677
 40
0.5418003731779548
 40
0.6507275374967294
 40
0.7565997595270558
 40
0.8655438077133976
 40
1.0
 40
1.0
 40
1.0
 40
1.0
 10
14.7677923586662
 20
23.05931022621783
 30
0.0
 10
14.76779290986994
 20
23.05928993278944
 30
0.0
 10
14.76780241892031
 20
23.05893984221494
 30
0.0
 10
14.76776705264891
 20
23.06023207805382
 30
0.0
 10
14.76768522513692
 20
23.06330126839816
 30
0.0
 10
14.76755074392987
 20
23.06865573624233
 30
0.0
 10
14.76738902740837
 20
23.07574389630865
 30
0.0
 10
14.76721358169853
 20
23.08457527021089
 30
0.0
 10
14.76704715848005
 20
23.09472008463607
 30
0.0
 10
14.76690725889656
 20
23.10608044899587
 30
0.0
 10
14.76679706690815
 20
23.11919783597219
 30
0.0
 10
14.76678114069685
 20
23.1287320654787
 30
0.0
 10
14.76677234293343
 20
23.13399884826141
 30
0.0
  0
SPLINE
  5
DC
330
1F
100
AcDbEntity
  8
0
  6
Continuous
 62
     7
370
    25
100
AcDbSpline
210
0.0
220
0.0
230
1.0
 70
    11
 71
     3
 72
    44
 73
    40
 74
     0
 42
0.00000001
 43
0.00000001
 40
0.0
 40
0.0
 40
0.0
 40
0.0
 40
0.0268407075036882
 40
0.053681443617061
 40
0.0805218400162981
 40
0.1073622775571839
 40
0.1342090195496305
 40
0.1610557510294746
 40
0.1879066918425175
 40
0.2147575868473708
 40
0.2416016629618351
 40
0.2684457294808943
 40
0.295282596540792
 40
0.32211950510292
 40
0.3489600629385049
 40
0.3758006486318359
 40
0.40265004009261
 40
0.4294994022402085
 40
0.4563489875144727
 40
0.483198531978693
 40
0.5100393597322488
 40
0.5368801989115164
 40
0.5637169903472942
 40
0.5905538275122073
 40
0.6173976012520482
 40
0.6442413836811308
 40
0.6710922612288754
 40
0.6979430968125311
 40
0.7247901131574526
 40
0.7516371023785283
 40
0.7784753233244046
 40
0.8053135742610191
 40
0.8321517896325045
 40
0.8589900452760675
 40
0.885837050467991
 40
0.9126840433799107
 40
0.9395349242133763
 40
0.9663857592584167
 40
1.0
 40
1.0
 40
1.0
 40
1.0
 10
10.60106946858999
 20
23.13399884826142
 30
0.0
 10
10.60124781072595
 20
23.13820017754459
 30
0.0
 10
10.60160449518797
 20
23.14660284058917
 30
0.0
 10
10.6043910292392
 20
23.1588562644013
 30
0.0
 10
10.60879809693822
 20
23.1703894503128
 30
0.0
 10
10.61480676667077
 20
23.18091191607592
 30
0.0
 10
10.6222708562247
 20
23.19007644018738
 30
0.0
 10
10.63094408981909
 20
23.19768327412465
 30
0.0
 10
10.64063001542658
 20
23.20344554850073
 30
0.0
 10
10.65102397761003
 20
23.20727670074989
 30
0.0
 10
10.66185879172304
 20
23.20898453937785
 30
0.0
 10
10.67281524637317
 20
23.2086078674078
 30
0.0
 10
10.68358240512804
 20
23.20607072313899
 30
0.0
 10
10.69386544069289
 20
23.20153144401692
 30
0.0
 10
10.70334295374258
 20
23.195036903565
 30
0.0
 10
10.7117782477798
 20
23.18684530390066
 30
0.0
 10
10.71887529350984
 20
23.17712210439726
 30
0.0
 10
10.72448343667874
 20
23.16619859121402
 30
0.0
 10
10.72836962073963
 20
23.15434167769063
 30
0.0
 10
10.73049089891248
 20
23.1419200433905
 30
0.0
 10
10.73070831106118
 20
23.12927017235677
 30
0.0
 10
10.72909416190601
 20
23.11675381070943
 30
0.0
 10
10.7256198010541
 20
23.10473773928248
 30
0.0
 10
10.72046194171776
 20
23.0935345627865
 30
0.0
 10
10.71370417522633
 20
23.0835022937228
 30
0.0
 10
10.70560482950712
 20
23.07487187659163
 30
0.0
 10
10.69634970985074
 20
23.06795343373656
 30
0.0
 10
10.68624895687659
 20
23.06287104278517
 30
0.0
 10
10.67556678505249
 20
23.05984970063478
 30
0.0
 10
10.66462751892388
 20
23.05889013339337
 30
0.0
 10
10.65373911868277
 20
23.06010603114091
 30
0.0
 10
10.64319986980489
 20
23.06337485438767
 30
0.0
 10
10.63332580239665
 20
23.06868824443948
 30
0.0
 10
10.62435632337591
 20
23.07581668476372
 30
0.0
 10
10.61658611123302
 20
23.08463079858175
 30
0.0
 10
10.61016307400125
 20
23.09481863852057
 30
0.0
 10
10.60537081095799
 20
23.10614314729198
 30
0.0
 10
10.60182380514747
 20
23.11925642732597
 30
0.0
 10
10.60133899064413
 20
23.12873142812354
 30
0.0
 10
10.60106946858999
 20
23.13399884826142
 30
0.0
  0
LINE
  5
DD
330
1F
100
AcDbEntity
  8
0
  6
Continuous
 62
     7
370
    25
100
AcDbLine
 10
12.032794026
 20
20.0624988483
 30
0.0
 11
14.767794026
 21
20.0624988483
 31
0.0
  0
LINE
  5
DE
330
1F
100
AcDbEntity
  8
0
  6
Continuous
 62
     7
370
    25
100
AcDbLine
 10
9.297794026
 20
20.0624988483
 30
0.0
 11
12.032794026
 21
20.0624988483
 31
0.0
  0
LINE
  5
DF
330
1F
100
AcDbEntity
  8
0
  6
Continuous
 62
     7
370
    25
100
AcDbLine
 10
12.032794026
 20
14.2524988483
 30
0.0
 11
14.767794026
 21
14.2524988483
 31
0.0
  0
LINE
  5
E0
330
1F
100
AcDbEntity
  8
0
  6
Continuous
 62
     7
370
    25
100
AcDbLine
 10
9.297794026
 20
14.2524988483
 30
0.0
 11
12.032794026
 21
14.2524988483
 31
0.0
  0
SPLINE
  5
E1
330
1F
100
AcDbEntity
  8
0
  6
Continuous
 62
     7
370
    25
100
AcDbSpline
210
0.0
220
0.0
230
1.0
 70
     8
 71
     3
 72
    26
 73
    22
 74
     0
 42
0.00000001
 43
0.00000001
 40
0.0
 40
0.0
 40
0.0
 40
0.0
 40
0.0368596385081319
 40
0.0897671806013464
 40
0.1442086709567626
 40
0.1971237731298497
 40
0.2515724276524876
 40
0.3045044349553978
 40
0.3589714113426472
 40
0.4119032915436255
 40
0.4663711619161246
 40
0.5192860646750388
 40
0.5737359864270318
 40
0.6266435664747758
 40
0.6810847194676817
 40
0.734006056414253
 40
0.78846130159712
 40
0.8413960049823044
 40
0.8958662097826152
 40
0.9487930289392097
 40
1.0
 40
1.0
 40
1.0
 40
1.0
 10
14.76778750812253
 20
19.80048792952241
 30
0.0
 10
14.76778744536864
 20
19.80048974940297
 30
0.0
 10
14.76778729253913
 20
19.80049418150143
 30
0.0
 10
14.76772085969991
 20
19.80294688605965
 30
0.0
 10
14.76760594221836
 20
19.80740701669902
 30
0.0
 10
14.76745133304729
 20
19.81391644893115
 30
0.0
 10
14.76727969337287
 20
19.82207159761362
 30
0.0
 10
14.76710682849417
 20
19.83181672350906
 30
0.0
 10
14.76695521288408
 20
19.84269400526892
 30
0.0
 10
14.76683944886645
 20
19.85459248056112
 30
0.0
 10
14.7667744871504
 20
19.86695931199593
 30
0.0
 10
14.76676658209648
 20
19.87966681277651
 30
0.0
 10
14.76681672890196
 20
19.89212568246959
 30
0.0
 10
14.7669200757814
 20
19.90420897114862
 30
0.0
 10
14.7670632996325
 20
19.91535819162052
 30
0.0
 10
14.76723263157314
 20
19.92546029723747
 30
0.0
 10
14.76740616431217
 20
19.93404399136391
 30
0.0
 10
14.76756758365622
 20
19.94103584124724
 30
0.0
 10
14.7676944550756
 20
19.94605114931196
 30
0.0
 10
14.76777886691753
 20
19.94919792402404
 30
0.0
 10
14.76778791120774
 20
19.94952609487442
 30
0.0
 10
14.7677923586662
 20
19.94968747030503
 30
0.0
  0
SPLINE
  5
E2
330
1F
100
AcDbEntity
  8
0
  6
Continuous
 62
     7
370
    25
100
AcDbSpline
210
0.0
220
0.0
230
1.0
 70
    11
 71
     3
 72
    44
 73
    40
 74
     0
 42
0.00000001
 43
0.00000001
 40
0.0
 40
0.0
 40
0.0
 40
0.0
 40
0.0268407075036844
 40
0.0536814436170355
 40
0.0805218400162572
 40
0.1073622775571293
 40
0.1342090195496013
 40
0.1610557510294665
 40
0.1879066918424971
 40
0.2147575868473425
 40
0.241601662961795
 40
0.2684457294808417
 40
0.295282596540763
 40
0.3221195051029143
 40
0.3489600629385035
 40
0.3758006486318333
 40
0.4026500400925913
 40
0.4294994022401722
 40
0.4563489875144473
 40
0.4831985319786803
 40
0.5100393597322365
 40
0.536880198911506
 40
0.5637169903472841
 40
0.5905538275121982
 40
0.6173976012520282
 40
0.6442413836811
 40
0.6710922612288535
 40
0.6979430968125169
 40
0.7247901131574402
 40
0.7516371023785174
 40
0.7784753233243825
 40
0.8053135742609917
 40
0.8321517896324735
 40
0.8589900452760343
 40
0.8858370504679446
 40
0.9126840433798508
 40
0.9395349242133363
 40
0.9663857592583985
 40
1.0
 40
1.0
 40
1.0
 40
1.0
 10
10.73054026645578
 20
19.87499884826143
 30
0.0
 10
10.73035606265432
 20
19.87079751897825
 30
0.0
 10
10.72998765485506
 20
19.86239485593368
 30
0.0
 10
10.72711399198919
 20
19.85014143212156
 30
0.0
 10
10.72257661155562
 20
19.83860824621006
 30
0.0
 10
10.71640655384215
 20
19.82808578044695
 30
0.0
 10
10.70876800123884
 20
19.81892125633548
 30
0.0
 10
10.69992671748397
 20
19.81131442239819
 30
0.0
 10
10.69009942848527
 20
19.80555214802213
 30
0.0
 10
10.67960419717781
 20
19.80172099577299
 30
0.0
 10
10.66872316498664
 20
19.80001315714502
 30
0.0
 10
10.65777657760508
 20
19.80038982911507
 30
0.0
 10
10.64707854545983
 20
19.80292697338388
 30
0.0
 10
10.63691212147419
 20
19.80746625250595
 30
0.0
 10
10.62758877432332
 20
19.81396079295786
 30
0.0
 10
10.61932580428097
 20
19.8221523926222
 30
0.0
 10
10.61240050660284
 20
19.8318755921256
 30
0.0
 10
10.60694493662743
 20
19.84279910530884
 30
0.0
 10
10.60317279307676
 20
19.85465601883223
 30
0.0
 10
10.60111740174756
 20
19.86707765313236
 30
0.0
 10
10.60090629202204
 20
19.8797275241661
 30
0.0
 10
10.60247078928545
 20
19.89224388581343
 30
0.0
 10
10.60584102443871
 20
19.90425995724039
 30
0.0
 10
10.61085550311844
 20
19.91546313373636
 30
0.0
 10
10.61744433837152
 20
19.92549540280006
 30
0.0
 10
10.62536934522208
 20
19.93412581993123
 30
0.0
 10
10.63446469635407
 20
19.9410442627863
 30
0.0
 10
10.64443655027183
 20
19.94612665373769
 30
0.0
 10
10.65503817086467
 20
19.94914799588808
 30
0.0
 10
10.6659504907304
 20
19.95010756312952
 30
0.0
 10
10.67687283210266
 20
19.94889166538195
 30
0.0
 10
10.68749882530947
 20
19.94562284213518
 30
0.0
 10
10.69750639296386
 20
19.94030945208337
 30
0.0
 10
10.70663833256708
 20
19.93318101175914
 30
0.0
 10
10.71458313102108
 20
19.92436689794111
 30
0.0
 10
10.72117346137462
 20
19.9141790580023
 30
0.0
 10
10.72610409411839
 20
19.90285454923088
 30
0.0
 10
10.72976149223178
 20
19.88974126919689
 30
0.0
 10
10.73026201290107
 20
19.88026626839931
 30
0.0
 10
10.73054026645578
 20
19.87499884826143
 30
0.0
  0
LINE
  5
E3
330
1F
100
AcDbEntity
  8
0
  6
Continuous
 62
     7
370
    25
100
AcDbLine
 10
7.5679725974
 20
21.5044988483
 30
0.0
 11
7.5679725974
 21
21.9094988483
 31
0.0
  0
LINE
  5
E4
330
1F
100
AcDbEntity
  8
0
  6
Continuous
 62
     7
370
    25
100
AcDbLine
 10
7.5679725974
 20
21.0994988483
 30
0.0
 11
7.5679725974
 21
21.5044988483
 31
0.0
  0
LINE
  5
E5
330
1F
100
AcDbEntity
  8
0
  6
Continuous
 62
     7
370
    25
100
AcDbLine
 10
7.5992225974
 20
21.5044988483
 30
0.0
 11
7.5992225974
 21
21.8553722605
 31
0.0
  0
LINE
  5
E6
330
1F
100
AcDbEntity
  8
0
  6
Continuous
 62
     7
370
    25
100
AcDbLine
 10
7.5992225974
 20
21.153625436
 30
0.0
 11
7.5992225974
 21
21.5044988483
 31
0.0
  0
LINE
  5
E7
330
1F
100
AcDbEntity
  8
0
  6
Continuous
 62
     7
370
    25
100
AcDbLine
 10
7.559044026
 20
21.5044988483
 30
0.0
 11
7.559044026
 21
21.9094988483
 31
0.0
  0
LINE
  5
E8
330
1F
100
AcDbEntity
  8
0
  6
Continuous
 62
     7
370
    25
100
AcDbLine
 10
7.559044026
 20
21.0994988483
 30
0.0
 11
7.559044026
 21
21.5044988483
 31
0.0
  0
LINE
  5
E9
330
1F
100
AcDbEntity
  8
0
  6
Continuous
 62
     7
370
    25
100
AcDbLine
 10
7.527794026
 20
21.5044988483
 30
0.0
 11
7.527794026
 21
21.8553722605
 31
0.0
  0
LINE
  5
EA
330
1F
100
AcDbEntity
  8
0
  6
Continuous
 62
     7
370
    25
100
AcDbLine
 10
7.527794026
 20
21.153625436
 30
0.0
 11
7.527794026
 21
21.5044988483
 31
0.0
  0
LINE
  5
EB
330
1F
100
AcDbEntity
  8
0
  6
Continuous
 62
     7
370
    25
100
AcDbLine
 10
14.767794026
 20
20.0624988483
 30
0.0
 11
9.297794026
 21
20.0624988483
 31
0.0
  0
SPLINE
  5
EC
330
1F
100
AcDbEntity
  8
0
  6
Continuous
 62
     7
370
    25
100
AcDbSpline
210
0.0
220
0.0
230
1.0
 70
     8
 71
     3
 72
    26
 73
    22
 74
     0
 42
0.00000001
 43
0.00000001
 40
0.0
 40
0.0
 40
0.0
 40
0.0
 40
0.0518445558183827
 40
0.1036894089197142
 40
0.1570680140485347
 40
0.2104474653472356
 40
0.2622816940217708
 40
0.3141167795995127
 40
0.3674039317148877
 40
0.4206917508885349
 40
0.473492429699137
 40
0.5262932267676591
 40
0.5805873167690274
 40
0.6348809170973035
 40
0.6883258439459384
 40
0.7417699205320807
 40
0.7968269243558468
 40
0.851882935949517
 40
0.9042934676493297
 40
0.9567035126823983
 40
1.0
 40
1.0
 40
1.0
 40
1.0
 10
9.379558088972002
 20
21.50449884826142
 30
0.0
 10
9.379449907032845
 20
21.48641307857738
 30
0.0
 10
9.379233542534202
 20
21.45024143550331
 30
0.0
 10
9.377507054741528
 20
21.39583554974344
 30
0.0
 10
9.374750641105418
 20
21.34169076531859
 30
0.0
 10
9.370968377338327
 20
21.28873960022485
 30
0.0
 10
9.366342018267368
 20
21.23784909120035
 30
0.0
 10
9.360989000197625
 20
21.18882311107261
 30
0.0
 10
9.354979581788394
 20
21.14155911092096
 30
0.0
 10
9.348495871697015
 20
21.09655729732911
 30
0.0
 10
9.341771651030669
 20
21.05453910253762
 30
0.0
 10
9.334929787053085
 20
21.01534609284831
 30
0.0
 10
9.328135932759157
 20
20.97923965833076
 30
0.0
 10
9.321616746556325
 20
20.94672131977744
 30
0.0
 10
9.315619685987238
 20
20.91832719846177
 30
0.0
 10
9.310233738270885
 20
20.89390195085614
 30
0.0
 10
9.305621307846499
 20
20.87368928983702
 30
0.0
 10
9.301977562478267
 20
20.85816728372414
 30
0.0
 10
9.29946335796776
 20
20.8476384163278
 30
0.0
 10
9.297997628681744
 20
20.84158906953054
 30
0.0
 10
9.297922448113061
 20
20.84127639430791
 30
0.0
 10
9.297888437325515
 20
20.84113494378746
 30
0.0
  0
SPLINE
  5
ED
330
1F
100
AcDbEntity
  8
0
  6
Continuous
 62
     7
370
    25
100
AcDbSpline
210
0.0
220
0.0
230
1.0
 70
     8
 71
     3
 72
    27
 73
    23
 74
     0
 42
0.00000001
 43
0.00000001
 40
0.0
 40
0.0
 40
0.0
 40
0.0
 40
0.0293576025460304
 40
0.0810036125836863
 40
0.1341658362070455
 40
0.1873287374948583
 40
0.2387659540048952
 40
0.2902039577336734
 40
0.3430708127569394
 40
0.395938403555919
 40
0.4485506601953104
 40
0.5011632096741593
 40
0.555252467551725
 40
0.6093414254210806
 40
0.6628050041566758
 40
0.7162677877867172
 40
0.7713322768596492
 40
0.8263956639217804
 40
0.8693675064505305
 40
0.9123390329203156
 40
0.9561695812833237
 40
0.9999999999999999
 40
0.9999999999999999
 40
0.9999999999999999
 40
0.9999999999999999
 10
9.297925751602447
 20
22.16770731016176
 30
0.0
 10
9.297908563761265
 20
22.16777922735666
 30
0.0
 10
9.297861139002173
 20
22.16797766156411
 30
0.0
 10
9.298969464122791
 20
22.16339697166455
 30
0.0
 10
9.30116713856824
 20
22.15424800769557
 30
0.0
 10
9.304425341290369
 20
22.14043184984095
 30
0.0
 10
9.30854922663713
 20
22.12254093428368
 30
0.0
 10
9.313443531082656
 20
22.10064127449696
 30
0.0
 10
9.31905978865601
 20
22.07454207904364
 30
0.0
 10
9.32524618334064
 20
22.04438900329548
 30
0.0
 10
9.331792000149154
 20
22.01061443737325
 30
0.0
 10
9.338579293983909
 20
21.97314842561007
 30
0.0
 10
9.345443052877998
 20
21.93203767770451
 30
0.0
 10
9.35216282712184
 20
21.88765693173704
 30
0.0
 10
9.358482791310683
 20
21.84068975529625
 30
0.0
 10
9.364294941306174
 20
21.79101504086718
 30
0.0
 10
9.369419835033828
 20
21.73868166994743
 30
0.0
 10
9.373371958497657
 20
21.68802018375516
 30
0.0
 10
9.376207272216325
 20
21.64029080468558
 30
0.0
 10
9.378109482294372
 20
21.59570448272004
 30
0.0
 10
9.379327055917669
 20
21.55036649112481
 30
0.0
 10
9.379481078029821
 20
21.51978804747454
 30
0.0
 10
9.379558088972002
 20
21.50449884826142
 30
0.0
  0
LINE
  5
EE
330
1F
100
AcDbEntity
  8
0
  6
Continuous
 62
     7
370
    25
100
AcDbLine
 10
9.372794026
 20
21.3160725351
 30
0.0
 11
9.372794026
 21
21.6930035714
 31
0.0
  0
LINE
  5
EF
330
1F
100
AcDbEntity
  8
0
  6
Continuous
 62
     7
370
    25
100
AcDbLine
 10
8.162794026
 20
22.1594988483
 30
0.0
 11
8.162794026
 21
20.8494988483
 31
0.0
  0
DIMENSION
  5
F0
330
1F
100
AcDbEntity
  8
0
  6
Continuous
 62
     7
370
    18
100
AcDbDimension
  2
_D
 10
8.152794026
 20
24.7823986021
 30
0.0
 11
5.0081089866
 21
24.7823986021
 31
0.0
 70
   160
  1
<>
 71
     2
 42
-1.0
  3
SLDDIMSTYLE0
100
AcDbAlignedDimension
 13
7.627794026
 23
23.9744988483
 33
0.0
 14
8.152794026
 24
23.9394988483
 34
0.0
100
AcDbRotatedDimension
  0
DIMENSION
  5
105
330
1F
100
AcDbEntity
  8
0
  6
Continuous
 62
     7
370
    18
100
AcDbDimension
  2
_D_1
 10
7.527794026
 20
17.9100990418
 30
0.0
 11
5.0081089866
 21
17.9100990418
 31
0.0
 70
   160
  1
<>
 71
     2
 42
-1.0
  3
SLDDIMSTYLE0
100
AcDbAlignedDimension
 13
7.627794026
 23
19.0344988483
 33
0.0
 14
7.527794026
 24
21.153625436
 34
0.0
100
AcDbRotatedDimension
  0
DIMENSION
  5
119
330
1F
100
AcDbEntity
  8
0
  6
Continuous
 62
     7
370
    18
100
AcDbDimension
  2
_D_2
 10
14.767794026
 20
32.2761838876
 30
0.0
 11
11.197794026
 21
32.2761838876
 31
0.0
 70
   160
  1
<>
 71
     2
 42
-1.0
  3
SLDDIMSTYLE1
100
AcDbAlignedDimension
 13
7.627794026
 23
23.9744988483
 33
0.0
 14
14.767794026
 24
22.9464988483
 34
0.0
100
AcDbRotatedDimension
  0
DIMENSION
  5
12E
330
1F
100
AcDbEntity
  8
0
  6
Continuous
 62
     7
370
    18
100
AcDbDimension
  2
_D_3
 10
14.767794026
 20
11.6776956987
 30
0.0
 11
12.032794026
 21
11.6776956987
 31
0.0
 70
   160
  1
%%c<>
 71
     2
 42
-1.0
  3
SLDDIMSTYLE1
100
AcDbAlignedDimension
 13
9.297794026
 23
20.0624988483
 33
0.0
 14
14.767794026
 24
20.0624988483
 34
0.0
100
AcDbRotatedDimension
  0
DIMENSION
  5
141
330
1F
100
AcDbEntity
  8
0
  6
Continuous
 62
     7
370
    18
100
AcDbDimension
  2
_D_4
 10
16.5108164327
 20
20.0624988483
 30
0.0
 11
16.5108164327
 21
21.5044988483
 31
0.0
 70
   160
  1
<>
 71
     2
 42
-1.0
  3
SLDDIMSTYLE0
100
AcDbAlignedDimension
 13
14.767794026
 23
22.9464988483
 33
0.0
 14
14.767794026
 24
20.0624988483
 34
0.0
 50
90.0
100
AcDbRotatedDimension
  0
LINE
  5
155
330
1F
100
AcDbEntity
  8
0
  6
Continuous
 62
     7
370
    25
100
AcDbLine
 10
36.6030919425
 20
22.7181650773
 30
0.0
 11
36.6125507283
 21
22.7254353337
 31
0.0
  0
LINE
  5
156
330
1F
100
AcDbEntity
  8
0
  6
Continuous
 62
     7
370
    25
100
AcDbLine
 10
36.6314755879
 20
22.8477808058
 30
0.0
 11
36.6249860732
 21
22.8570946814
 31
0.0
  0
LINE
  5
157
330
1F
100
AcDbEntity
  8
0
  6
Continuous
 62
     7
370
    25
100
AcDbLine
 10
31.9985753846
 20
22.1140690557
 30
0.0
 11
31.9985753846
 21
22.1051376808
 31
0.0
  0
LINE
  5
158
330
1F
100
AcDbEntity
  8
0
  6
Continuous
 62
     7
370
    25
100
AcDbLine
 10
32.0433986683
 20
22.0274930631
 30
0.0
 11
32.0511330467
 21
22.0230266499
 31
0.0
  0
LINE
  5
159
330
1F
100
AcDbEntity
  8
0
  6
Continuous
 62
     7
370
    25
100
AcDbLine
 10
36.6032081669
 20
20.0571479043
 30
0.0
 11
36.6125507283
 21
20.0643288277
 31
0.0
  0
LINE
  5
15A
330
1F
100
AcDbEntity
  8
0
  6
Continuous
 62
     7
370
    25
100
AcDbLine
 10
36.6314755879
 20
20.1866742999
 30
0.0
 11
36.6248136479
 21
20.1962356436
 31
0.0
  0
LINE
  5
15B
330
1F
100
AcDbEntity
  8
0
  6
Continuous
 62
     7
370
    25
100
AcDbLine
 10
31.9985753846
 20
19.4529625497
 30
0.0
 11
31.9985753846
 21
19.4440311749
 31
0.0
  0
LINE
  5
15C
330
1F
100
AcDbEntity
  8
0
  6
Continuous
 62
     7
370
    25
100
AcDbLine
 10
32.0433986683
 20
19.3663865572
 30
0.0
 11
32.0511330467
 21
19.361920144
 31
0.0
  0
LINE
  5
15D
330
1F
100
AcDbEntity
  8
0
  6
Continuous
 62
     7
370
    25
100
AcDbLine
 10
38.2359807708
 20
21.4369284856
 30
0.0
 11
38.3208335845
 21
21.4859129723
 31
0.0
  0
LINE
  5
15E
330
1F
100
AcDbEntity
  8
0
  6
Continuous
 62
     7
370
    25
100
AcDbLine
 10
38.8387021217
 20
22.6305249884
 30
0.0
 11
38.8387021217
 21
22.6550172318
 31
0.0
  0
LINE
  5
15F
330
1F
100
AcDbEntity
  8
0
  6
Continuous
 62
     7
370
    25
100
AcDbLine
 10
37.0924322363
 20
25.6799731574
 30
0.0
 11
37.0712224806
 21
25.6922212694
 31
0.0
  0
LINE
  5
160
330
1F
100
AcDbEntity
  8
0
  6
Continuous
 62
     7
370
    25
100
AcDbLine
 10
36.7206374703
 20
21.4608588191
 30
0.0
 11
36.7559870631
 21
21.440445299
 31
0.0
  0
LINE
  5
161
330
1F
100
AcDbEntity
  8
0
  6
Continuous
 62
     7
370
    25
100
AcDbLine
 10
37.9986716764
 20
21.3172529003
 30
0.0
 11
38.2284813803
 21
21.4499192185
 31
0.0
  0
LINE
  5
162
330
1F
100
AcDbEntity
  8
0
  6
Continuous
 62
     7
370
    25
100
AcDbLine
 10
36.712343001
 20
23.0425942344
 30
0.0
 11
36.712343001
 21
27.7866963514
 31
0.0
  0
LINE
  5
163
330
1F
100
AcDbEntity
  8
0
  6
Continuous
 62
     7
370
    25
100
AcDbLine
 10
31.242343001
 20
27.7866963514
 30
0.0
 11
31.242343001
 21
23.0425942344
 31
0.0
  0
LINE
  5
164
330
1F
100
AcDbEntity
  8
0
  6
Continuous
 62
     7
370
    25
100
AcDbLine
 10
31.242343001
 20
20.6876905329
 30
0.0
 11
31.242343001
 21
15.9435884158
 31
0.0
  0
LINE
  5
165
330
1F
100
AcDbEntity
  8
0
  6
Continuous
 62
     7
370
    25
100
AcDbLine
 10
36.712343001
 20
15.9435884158
 30
0.0
 11
36.712343001
 21
20.6876905329
 31
0.0
  0
LINE
  5
166
330
1F
100
AcDbEntity
  8
0
  6
Continuous
 62
     7
370
    25
100
AcDbLine
 10
36.712343001
 20
22.6877159101
 30
0.0
 11
37.0413196292
 21
22.8776300751
 31
0.0
  0
SPLINE
  5
167
330
1F
100
AcDbEntity
  8
0
  6
Continuous
 62
     7
370
    25
100
AcDbSpline
210
0.0
220
0.0
230
1.0
 70
     8
 71
     3
 72
    45
 73
    41
 74
     0
 42
0.00000001
 43
0.00000001
 40
0.0
 40
0.0
 40
0.0
 40
0.0
 40
0.0161858362549683
 40
0.0437954325786656
 40
0.0714725089591857
 40
0.0992170048672955
 40
0.1270221535782046
 40
0.1548772624583807
 40
0.1827703029029545
 40
0.210689800533607
 40
0.238625913615076
 40
0.2651151404068098
 40
0.2727040147392127
 40
0.2874294509667634
 40
0.3153745000395983
 40
0.3433171524988709
 40
0.3712545519295209
 40
0.3991860036417893
 40
0.4271113610098994
 40
0.4550308554857351
 40
0.4829449727791046
 40
0.5108543651793834
 40
0.5387597911705119
 40
0.5666620750413023
 40
0.5945620807806962
 40
0.622460695911534
 40
0.6503588219792156
 40
0.678257333020108
 40
0.7061568767912635
 40
0.7340583723440175
 40
0.7619627386107913
 40
0.7898708880188363
 40
0.8177837153681088
 40
0.8457020791228937
 40
0.8736267714666532
 40
0.9015584722646386
 40
0.9294976805524304
 40
0.9574446154180438
 40
0.9853990764847207
 40
1.0
 40
1.0
 40
1.0
 40
1.0
 10
37.0995975694196
 20
22.92607357459274
 30
0.0
 10
37.10271922687542
 20
22.92958018895773
 30
0.0
 10
37.1111657684372
 20
22.93906834209248
 30
0.0
 10
37.12331660547508
 20
22.95660280201377
 30
0.0
 10
37.13614476496742
 20
22.9784049129136
 30
0.0
 10
37.1473596530112
 20
23.00200999429821
 30
0.0
 10
37.15699916941528
 20
23.02722626325649
 30
0.0
 10
37.16500190040583
 20
23.05398880091761
 30
0.0
 10
37.17134198167653
 20
23.08218826912491
 30
0.0
 10
37.17599365948562
 20
23.11171915699418
 30
0.0
 10
37.17888976464796
 20
23.14193344852287
 30
0.0
 10
37.17983554056485
 20
23.16547586056533
 30
0.0
 10
37.17997098737942
 20
23.1843484680116
 30
0.0
 10
37.17970030585997
 20
23.20401277286313
 30
0.0
 10
37.17821887956576
 20
23.23221828382169
 30
0.0
 10
37.17475722364777
 20
23.2664706758986
 30
0.0
 10
37.1696081439574
 20
23.30136640020136
 30
0.0
 10
37.16279308722064
 20
23.33677740330826
 30
0.0
 10
37.15433914537447
 20
23.37257552997021
 30
0.0
 10
37.14427900516212
 20
23.40863124449413
 30
0.0
 10
37.1326508389486
 20
23.44481426480795
 30
0.0
 10
37.11949818929137
 20
23.48099387940357
 30
0.0
 10
37.10486983774956
 20
23.51703938429171
 30
0.0
 10
37.08881965390129
 20
23.55282051388492
 30
0.0
 10
37.0714064221215
 20
23.58820789091546
 30
0.0
 10
37.05269364534932
 20
23.62307348072502
 30
0.0
 10
37.03274933466912
 20
23.65729103219516
 30
0.0
 10
37.01164582949064
 20
23.69073643818277
 30
0.0
 10
36.98945948355824
 20
23.7232883010685
 30
0.0
 10
36.96627036937716
 20
23.75482837799073
 30
0.0
 10
36.94216190487567
 20
23.78524209733752
 30
0.0
 10
36.91722060845331
 20
23.81441877252372
 30
0.0
 10
36.89153577745185
 20
23.8422522556786
 30
0.0
 10
36.8651991527497
 20
23.8686402367955
 30
0.0
 10
36.8383046081243
 20
23.89348847204095
 30
0.0
 10
36.81094774751413
 20
23.91669646748685
 30
0.0
 10
36.7832258820563
 20
23.93821224407953
 30
0.0
 10
36.7552366712648
 20
23.95782902740293
 30
0.0
 10
36.73156726595729
 20
23.97305919306456
 30
0.0
 10
36.71725395542195
 20
23.98096345089771
 30
0.0
 10
36.71234300104027
 20
23.98367543353401
 30
0.0
  0
LINE
  5
168
330
1F
100
AcDbEntity
  8
0
  6
Continuous
 62
     7
370
    25
100
AcDbLine
 10
36.712343001
 20
20.6876905329
 30
0.0
 11
36.712343001
 21
23.0425942344
 31
0.0
  0
LINE
  5
169
330
1F
100
AcDbEntity
  8
0
  6
Continuous
 62
     7
370
    25
100
AcDbLine
 10
31.242343001
 20
23.0425942344
 30
0.0
 11
31.242343001
 21
20.6876905329
 31
0.0
  0
LWPOLYLINE
  5
16A
330
1F
100
AcDbEntity
  8
0
  6
Continuous
 62
     7
370
    25
100
AcDbPolyline
 90
       31
 70
   128
 43
0.0
 10
36.6225532297
 20
22.8450259335
 10
36.6191413896
 20
22.8388007692
 10
36.6157299318
 20
22.8303138888
 10
36.6124679533
 20
22.8199362095
 10
36.6094980182
 20
22.8081212859
 10
36.6069499271
 20
22.7953854868
 10
36.6049350435
 20
22.7822854276
 10
36.6035414278
 20
22.7693936439
 10
36.6028299875
 20
22.7572735685
 10
36.602831816
 20
22.7464549067
 10
36.6035468333
 20
22.7374104861
 10
36.6049437899
 20
22.7305355912
 10
36.606961632
 20
22.726130688
 10
36.6095121701
 20
22.7243882917
 10
36.6124839337
 20
22.7253845536
 10
36.6157470422
 20
22.7290759322
 10
36.6191588823
 20
22.7353010964
 10
36.6225703401
 20
22.7437879769
 10
36.6258323186
 20
22.7541656561
 10
36.6288022536
 20
22.7659805797
 10
36.6313503448
 20
22.7787163789
 10
36.6333652283
 20
22.791816438
 10
36.6347588441
 20
22.8047082217
 10
36.6354702844
 20
22.8168282972
 10
36.6354684559
 20
22.8276469589
 10
36.6347534385
 20
22.8366913795
 10
36.633356482
 20
22.8435662744
 10
36.6313386399
 20
22.8479711777
 10
36.6287881017
 20
22.8497135739
 10
36.6258163382
 20
22.848717312
 10
36.6225532297
 20
22.8450259335
  0
LINE
  5
16B
330
1F
100
AcDbEntity
  8
0
  6
Continuous
 62
     7
370
    25
100
AcDbLine
 10
36.608067036
 20
22.7517910878
 30
0.0
 11
36.6167329023
 21
22.7458710146
 31
0.0
  0
LINE
  5
16C
330
1F
100
AcDbEntity
  8
0
  6
Continuous
 62
     7
370
    25
100
AcDbLine
 10
36.6278160022
 20
22.7811308596
 30
0.0
 11
36.6167329023
 21
22.7458710146
 31
0.0
  0
LINE
  5
16D
330
1F
100
AcDbEntity
  8
0
  6
Continuous
 62
     7
370
    25
100
AcDbLine
 10
36.6302332359
 20
22.8223107778
 30
0.0
 11
36.6278160022
 21
22.7811308596
 31
0.0
  0
LINE
  5
16E
330
1F
100
AcDbEntity
  8
0
  6
Continuous
 62
     7
370
    25
100
AcDbLine
 10
36.6302332359
 20
22.8223107778
 30
0.0
 11
36.6215673696
 21
22.828230851
 31
0.0
  0
LINE
  5
16F
330
1F
100
AcDbEntity
  8
0
  6
Continuous
 62
     7
370
    25
100
AcDbLine
 10
36.6104842696
 20
22.7929710061
 30
0.0
 11
36.6215673696
 21
22.828230851
 31
0.0
  0
LINE
  5
170
330
1F
100
AcDbEntity
  8
0
  6
Continuous
 62
     7
370
    25
100
AcDbLine
 10
36.6104842696
 20
22.7929710061
 30
0.0
 11
36.608067036
 21
22.7517910878
 31
0.0
  0
LINE
  5
171
330
1F
100
AcDbEntity
  8
0
  6
Continuous
 62
     7
370
    25
100
AcDbLine
 10
36.6201946236
 20
22.8238635882
 30
0.0
 11
36.6302332359
 21
22.8223107778
 31
0.0
  0
LINE
  5
172
330
1F
100
AcDbEntity
  8
0
  6
Continuous
 62
     7
370
    25
100
AcDbLine
 10
36.609951468
 20
22.7838942132
 30
0.0
 11
36.6278160022
 21
22.7811308596
 31
0.0
  0
LWPOLYLINE
  5
173
330
1F
100
AcDbEntity
  8
0
  6
Continuous
 62
     7
370
    25
100
AcDbPolyline
 90
       31
 70
   128
 43
0.0
 10
32.0246061337
 20
22.1371072746
 10
32.016555315
 20
22.1362142945
 10
32.0096779981
 20
22.1328320311
 10
32.0042747547
 20
22.1271083055
 10
32.0005817326
 20
22.119293272
 10
31.9987603344
 20
22.1097284851
 10
31.998890164
 20
22.0988319718
 10
32.0009655473
 20
22.087079962
 10
32.0048957801
 20
22.0749860751
 10
32.0105090923
 20
22.0630788718
 10
32.0175601552
 20
22.0518787542
 10
32.0257408035
 20
22.0418752209
 10
32.0346935037
 20
22.0335054746
 10
32.0440269798
 20
22.0271353133
 10
32.0533333142
 20
22.0230431435
 10
32.0622057753
 20
22.0214078127
 10
32.070256594
 20
22.0223007928
 10
32.0771339109
 20
22.0256830562
 10
32.0825371543
 20
22.0314067818
 10
32.0862301764
 20
22.0392218153
 10
32.0880515746
 20
22.0487866023
 10
32.087921745
 20
22.0596831156
 10
32.0858463617
 20
22.0714351253
 10
32.0819161289
 20
22.0835290122
 10
32.0763028167
 20
22.0954362155
 10
32.0692517538
 20
22.1066363332
 10
32.0610711055
 20
22.1166398664
 10
32.0521184053
 20
22.1250096127
 10
32.0427849291
 20
22.1313797741
 10
32.0334785948
 20
22.1354719438
 10
32.0246061337
 20
22.1371072746
  0
ARC
  5
174
330
1F
100
AcDbEntity
  8
0
  6
Continuous
 62
     7
370
    25
100
AcDbCircle
 10
32.0732398598
 20
22.0550564315
 30
0.0
 40
0.0389180947291769
100
AcDbArc
 50
235.386734342
 51
290.89381473
  0
ARC
  5
175
330
1F
100
AcDbEntity
  8
0
  6
Continuous
 62
     7
370
    25
100
AcDbCircle
 10
32.0368943145
 20
22.1173135399
 30
0.0
 40
0.0384560407466168
100
AcDbArc
 50
127.6018805485
 51
184.8397207317
  0
LINE
  5
176
330
1F
100
AcDbEntity
  8
0
  6
Continuous
 62
     7
370
    25
100
AcDbLine
 10
32.0250475605
 20
22.0598102595
 30
0.0
 11
32.0567595564
 21
22.0381666051
 31
0.0
  0
LINE
  5
177
330
1F
100
AcDbEntity
  8
0
  6
Continuous
 62
     7
370
    25
100
AcDbLine
 10
32.0751179504
 20
22.0576138893
 30
0.0
 11
32.0567595564
 21
22.0381666051
 31
0.0
  0
LINE
  5
178
330
1F
100
AcDbEntity
  8
0
  6
Continuous
 62
     7
370
    25
100
AcDbLine
 10
32.0617643485
 20
22.0987048278
 30
0.0
 11
32.0751179504
 21
22.0576138893
 31
0.0
  0
LINE
  5
179
330
1F
100
AcDbEntity
  8
0
  6
Continuous
 62
     7
370
    25
100
AcDbLine
 10
32.0617643485
 20
22.0987048278
 30
0.0
 11
32.0300523525
 21
22.1203484822
 31
0.0
  0
LINE
  5
17A
330
1F
100
AcDbEntity
  8
0
  6
Continuous
 62
     7
370
    25
100
AcDbLine
 10
32.0116939586
 20
22.100901198
 30
0.0
 11
32.0300523525
 21
22.1203484822
 31
0.0
  0
LINE
  5
17B
330
1F
100
AcDbEntity
  8
0
  6
Continuous
 62
     7
370
    25
100
AcDbLine
 10
32.0116939586
 20
22.100901198
 30
0.0
 11
32.0250475605
 21
22.0598102595
 31
0.0
  0
LINE
  5
17C
330
1F
100
AcDbEntity
  8
0
  6
Continuous
 62
     7
370
    25
100
AcDbLine
 10
32.0370766795
 20
22.1155543309
 30
0.0
 11
32.0116939586
 21
22.100901198
 31
0.0
  0
LINE
  5
17D
330
1F
100
AcDbEntity
  8
0
  6
Continuous
 62
     7
370
    25
100
AcDbLine
 10
32.0666073516
 20
22.0838022162
 30
0.0
 11
32.0250475605
 21
22.0598102595
 31
0.0
  0
LWPOLYLINE
  5
17E
330
1F
100
AcDbEntity
  8
0
  6
Continuous
 62
     7
370
    25
100
AcDbPolyline
 90
       31
 70
   128
 43
0.0
 10
36.6052457222
 20
20.1234780984
 10
36.6037379087
 20
20.1105084485
 10
36.6029036834
 20
20.098213425
 10
36.6027795061
 20
20.0871303794
 10
36.6033708039
 20
20.0777436938
 10
36.6046517342
 20
20.0704636116
 10
36.6065663142
 20
20.0656083073
 10
36.6090308676
 20
20.0633899809
 10
36.6119376816
 20
20.0639055839
 10
36.6151597145
 20
20.0671325821
 10
36.6185561479
 20
20.0729299402
 10
36.6219785414
 20
20.0810442856
 10
36.6252773201
 20
20.0911209827
 10
36.6283083114
 20
20.1027196315
 10
36.6309390465
 20
20.1153333152
 10
36.6330545496
 20
20.1284107554
 10
36.6345623632
 20
20.1413804052
 10
36.6353965884
 20
20.1536754288
 10
36.6355207658
 20
20.1647584744
 10
36.634929468
 20
20.1741451599
 10
36.6336485377
 20
20.1814252421
 10
36.6317339577
 20
20.1862805465
 10
36.6292694043
 20
20.1884988729
 10
36.6263625903
 20
20.1879832698
 10
36.6231405574
 20
20.1847562716
 10
36.619744124
 20
20.1789589136
 10
36.6163217304
 20
20.1708445681
 10
36.6130229518
 20
20.160767871
 10
36.6099919605
 20
20.1491692223
 10
36.6073612254
 20
20.1365555386
 10
36.6052457222
 20
20.1234780984
  0
LINE
  5
17F
330
1F
100
AcDbEntity
  8
0
  6
Continuous
 62
     7
370
    25
100
AcDbLine
 10
36.6187282234
 20
20.0882879853
 30
0.0
 11
36.629026507
 21
20.1276962717
 31
0.0
  0
LINE
  5
180
330
1F
100
AcDbEntity
  8
0
  6
Continuous
 62
     7
370
    25
100
AcDbLine
 10
36.6294484195
 20
20.1653527134
 30
0.0
 11
36.629026507
 21
20.1276962717
 31
0.0
  0
LINE
  5
181
330
1F
100
AcDbEntity
  8
0
  6
Continuous
 62
     7
370
    25
100
AcDbLine
 10
36.6195720485
 20
20.1636008685
 30
0.0
 11
36.6294484195
 21
20.1653527134
 31
0.0
  0
LINE
  5
182
330
1F
100
AcDbEntity
  8
0
  6
Continuous
 62
     7
370
    25
100
AcDbLine
 10
36.6195720485
 20
20.1636008685
 30
0.0
 11
36.6092737649
 21
20.124192582
 31
0.0
  0
LINE
  5
183
330
1F
100
AcDbEntity
  8
0
  6
Continuous
 62
     7
370
    25
100
AcDbLine
 10
36.6088518523
 20
20.0865361404
 30
0.0
 11
36.6092737649
 21
20.124192582
 31
0.0
  0
LINE
  5
184
330
1F
100
AcDbEntity
  8
0
  6
Continuous
 62
     7
370
    25
100
AcDbLine
 10
36.6088518523
 20
20.0865361404
 30
0.0
 11
36.6187282234
 21
20.0882879853
 31
0.0
  0
LINE
  5
185
330
1F
100
AcDbEntity
  8
0
  6
Continuous
 62
     7
370
    25
100
AcDbLine
 10
36.6088885338
 20
20.0898100256
 30
0.0
 11
36.6187282234
 21
20.0882879853
 31
0.0
  0
LINE
  5
186
330
1F
100
AcDbEntity
  8
0
  6
Continuous
 62
     7
370
    25
100
AcDbLine
 10
36.610921218
 20
20.1304968662
 30
0.0
 11
36.629026507
 21
20.1276962717
 31
0.0
  0
LWPOLYLINE
  5
187
330
1F
100
AcDbEntity
  8
0
  6
Continuous
 62
     7
370
    25
100
AcDbPolyline
 90
       31
 70
   128
 43
0.0
 10
32.0007157525
 20
19.4586005006
 10
31.9988030041
 20
19.4491098939
 10
31.9988396186
 20
19.4382662367
 10
32.0008239959
 20
19.4265434487
 10
32.0046694091
 20
19.4144538721
 10
32.0102077952
 20
19.4025258794
 10
32.0171971002
 20
19.3912807811
 10
32.0253318579
 20
19.381210042
 10
32.0342565403
 20
19.3727538016
 10
32.043581096
 20
19.3662816383
 10
32.0528979972
 20
19.3620764166
 10
32.0618000506
 20
19.3603219249
 10
32.0698981938
 20
19.361094843
 10
32.0768384989
 20
19.3643613906
 10
32.0823176414
 20
19.3699788038
 10
32.0860961565
 20
19.3777015749
 10
32.0880089049
 20
19.3871921816
 10
32.0879722903
 20
19.3980358388
 10
32.0859879131
 20
19.4097586267
 10
32.0821424999
 20
19.4218482033
 10
32.0766041137
 20
19.433776196
 10
32.0696148088
 20
19.4450212943
 10
32.0614800511
 20
19.4550920335
 10
32.0525553687
 20
19.4635482739
 10
32.0432308129
 20
19.4700204372
 10
32.0339139117
 20
19.4742256589
 10
32.0250118584
 20
19.4759801505
 10
32.0169137152
 20
19.4752072324
 10
32.0099734101
 20
19.4719406849
 10
32.0044942676
 20
19.4663232716
 10
32.0007157525
 20
19.4586005006
  0
ARC
  5
188
330
1F
100
AcDbEntity
  8
0
  6
Continuous
 62
     7
370
    25
100
AcDbCircle
 10
32.0730366778
 20
19.3925102959
 30
0.0
 40
0.0376234827233635
100
AcDbArc
 50
234.3959964312
 51
292.4591384452
  0
ARC
  5
189
330
1F
100
AcDbEntity
  8
0
  6
Continuous
 62
     7
370
    25
100
AcDbCircle
 10
32.0349895833
 20
19.4571021025
 30
0.0
 40
0.0366487348051058
100
AcDbArc
 50
127.1437161644
 51
186.48552127
  0
LINE
  5
18A
330
1F
100
AcDbEntity
  8
0
  6
Continuous
 62
     7
370
    25
100
AcDbLine
 10
32.0501481975
 20
19.3783209681
 30
0.0
 11
32.0737290077
 21
19.3894195922
 31
0.0
  0
LINE
  5
18B
330
1F
100
AcDbEntity
  8
0
  6
Continuous
 62
     7
370
    25
100
AcDbLine
 10
32.0669867646
 20
19.4292496619
 30
0.0
 11
32.0737290077
 21
19.3894195922
 31
0.0
  0
LINE
  5
18C
330
1F
100
AcDbEntity
  8
0
  6
Continuous
 62
     7
370
    25
100
AcDbLine
 10
32.0366637115
 20
19.4579811073
 30
0.0
 11
32.0669867646
 21
19.4292496619
 31
0.0
  0
LINE
  5
18D
330
1F
100
AcDbEntity
  8
0
  6
Continuous
 62
     7
370
    25
100
AcDbLine
 10
32.0366637115
 20
19.4579811073
 30
0.0
 11
32.0130829013
 21
19.4468824832
 31
0.0
  0
LINE
  5
18E
330
1F
100
AcDbEntity
  8
0
  6
Continuous
 62
     7
370
    25
100
AcDbLine
 10
32.0198251444
 20
19.4070524136
 30
0.0
 11
32.0130829013
 21
19.4468824832
 31
0.0
  0
LINE
  5
18F
330
1F
100
AcDbEntity
  8
0
  6
Continuous
 62
     7
370
    25
100
AcDbLine
 10
32.0198251444
 20
19.4070524136
 30
0.0
 11
32.0501481975
 21
19.3783209681
 31
0.0
  0
LINE
  5
190
330
1F
100
AcDbEntity
  8
0
  6
Continuous
 62
     7
370
    25
100
AcDbLine
 10
32.0733412891
 20
19.3917100549
 30
0.0
 11
32.0501481975
 21
19.3783209681
 31
0.0
  0
LINE
  5
191
330
1F
100
AcDbEntity
  8
0
  6
Continuous
 62
     7
370
    25
100
AcDbLine
 10
32.0636889041
 20
19.4323744231
 30
0.0
 11
32.0198251444
 21
19.4070524136
 31
0.0
  0
LWPOLYLINE
  5
192
330
1F
100
AcDbEntity
  8
0
  6
Continuous
 62
     7
370
    25
100
AcDbPolyline
 90
       78
 70
   128
 43
0.0
 10
38.236082355
 20
21.4369871384
 10
38.2763119429
 20
21.4617644214
 10
38.3151599206
 20
21.4888335766
 10
38.3525846887
 20
21.5181656174
 10
38.388546172
 20
21.5497291346
 10
38.4230058618
 20
21.583490329
 10
38.455926858
 20
21.6194130484
 10
38.4872739079
 20
21.6574588258
 10
38.5170134442
 20
21.6975869208
 10
38.5451136212
 20
21.7397543632
 10
38.5715443485
 20
21.7839159992
 10
38.5962773233
 20
21.8300245393
 10
38.6192860611
 20
21.8780306093
 10
38.6405459234
 20
21.9278828031
 10
38.6600341447
 20
21.9795277378
 10
38.6777298565
 20
22.0329101106
 10
38.6936141097
 20
22.0879727585
 10
38.7076698952
 20
22.1446567188
 10
38.7198821616
 20
22.2029012931
 10
38.7302378318
 20
22.2626441115
 10
38.7387258166
 20
22.3238212
 10
38.7453370269
 20
22.3863670486
 10
38.7500643832
 20
22.4502146817
 10
38.7529028234
 20
22.5152957295
 10
38.753849308
 20
22.5815405017
 10
38.7529028234
 20
22.6488780618
 10
38.7500643832
 20
22.7172363029
 10
38.7453370269
 20
22.7865420254
 10
38.7387258166
 20
22.8567210149
 10
38.7302378318
 20
22.927698122
 10
38.7198821616
 20
22.9993973427
 10
38.7076698952
 20
23.0717418997
 10
38.6936141097
 20
23.1446543246
 10
38.6777298565
 20
23.2180565408
 10
38.6600341447
 20
23.2918699476
 10
38.6405459234
 20
23.3660155037
 10
38.6192860611
 20
23.4404138121
 10
38.5962773233
 20
23.5149852052
 10
38.5715443485
 20
23.5896498302
 10
38.5451136212
 20
23.6643277343
 10
38.5170134442
 20
23.7389389505
 10
38.4872739079
 20
23.8134035833
 10
38.455926858
 20
23.8876418941
 10
38.4230058618
 20
23.9615743866
 10
38.388546172
 20
24.035121892
 10
38.3525846887
 20
24.108205654
 10
38.3151599206
 20
24.1807474124
 10
38.2763119429
 20
24.2526694879
 10
38.236082355
 20
24.3238948644
 10
38.1945142358
 20
24.394347272
 10
38.1516520975
 20
24.4639512686
 10
38.1075418379
 20
24.5326323204
 10
38.0622306914
 20
24.600316882
 10
38.0157671784
 20
24.6669324751
 10
37.968201053
 20
24.7324077661
 10
37.9195832503
 20
24.7966726423
 10
37.8699658315
 20
24.8596582874
 10
37.8194019281
 20
24.9212972548
 10
37.7679456852
 20
24.9815235398
 10
37.7156522035
 20
25.0402726506
 10
37.6625774802
 20
25.0974816774
 10
37.6087783489
 20
25.1530893591
 10
37.5543124191
 20
25.2070361497
 10
37.4992380144
 20
25.2592642816
 10
37.4436141097
 20
25.3097178277
 10
37.3875002686
 20
25.3583427609
 10
37.3309565791
 20
25.4050870126
 10
37.2740435896
 20
25.4499005277
 10
37.2168222441
 20
25.492735319
 10
37.1593538165
 20
25.5335455177
 10
37.1016998455
 20
25.5722874233
 10
37.0439220683
 20
25.60891955
 10
36.986082355
 20
25.6434026712
 10
36.9282426416
 20
25.6756998616
 10
36.8704648645
 20
25.7057765364
 10
36.8128108935
 20
25.7336004888
 10
36.7553424659
 20
25.7591419243
 10
36.712343001
 20
25.7768061175
  0
ARC
  5
193
330
1F
100
AcDbEntity
  8
0
  6
Continuous
 62
     7
370
    25
100
AcDbCircle
 10
37.8146976579
 20
22.1676483787
 30
0.0
 40
0.8434636393528894
100
AcDbArc
 50
289.175578934
 51
299.9727761842
  0
LWPOLYLINE
  5
194
330
1F
100
AcDbEntity
  8
0
  6
Continuous
 62
     7
370
    25
100
AcDbPolyline
 90
       80
 70
   128
 43
0.0
 10
38.3209351687
 20
21.4859716251
 10
38.3611647566
 20
21.5107489081
 10
38.4000127343
 20
21.5378180633
 10
38.4374375025
 20
21.5671501041
 10
38.4733989857
 20
21.5987136213
 10
38.5078586756
 20
21.6324748157
 10
38.5407796718
 20
21.6683975351
 10
38.5721267216
 20
21.7064433125
 10
38.601866258
 20
21.7465714075
 10
38.629966435
 20
21.78873885
 10
38.6563971622
 20
21.8329004859
 10
38.6811301371
 20
21.879009026
 10
38.7041388748
 20
21.927015096
 10
38.7253987371
 20
21.9768672898
 10
38.7448869584
 20
22.0285122245
 10
38.7625826702
 20
22.0818945973
 10
38.7784669235
 20
22.1369572452
 10
38.792522709
 20
22.1936412055
 10
38.8047349754
 20
22.2518857798
 10
38.8150906456
 20
22.3116285982
 10
38.8235786304
 20
22.3728056867
 10
38.8301898406
 20
22.4353515353
 10
38.834917197
 20
22.4991991684
 10
38.8377556371
 20
22.5642802162
 10
38.8387021217
 20
22.6305249884
 10
38.8377556371
 20
22.6978625485
 10
38.834917197
 20
22.7662207896
 10
38.8301898406
 20
22.8355265121
 10
38.8235786304
 20
22.9057055016
 10
38.8150906456
 20
22.9766826087
 10
38.8047349754
 20
23.0483818295
 10
38.792522709
 20
23.1207263864
 10
38.7784669235
 20
23.1936388113
 10
38.7625826702
 20
23.2670410276
 10
38.7448869584
 20
23.3408544343
 10
38.7253987371
 20
23.4149999904
 10
38.7041388748
 20
23.4893982988
 10
38.6811301371
 20
23.5639696919
 10
38.6563971622
 20
23.6386343169
 10
38.629966435
 20
23.713312221
 10
38.601866258
 20
23.7879234372
 10
38.5721267216
 20
23.86238807
 10
38.5407796718
 20
23.9366263808
 10
38.5078586756
 20
24.0105588733
 10
38.4733989857
 20
24.0841063787
 10
38.4374375025
 20
24.1571901407
 10
38.4000127343
 20
24.2297318991
 10
38.3611647566
 20
24.3016539746
 10
38.3209351687
 20
24.3728793511
 10
38.2793670495
 20
24.4433317588
 10
38.2365049112
 20
24.5129357553
 10
38.1923946517
 20
24.5816168071
 10
38.1470835052
 20
24.6493013687
 10
38.1006199921
 20
24.7159169618
 10
38.0530538667
 20
24.7813922528
 10
38.004436064
 20
24.845657129
 10
37.9548186452
 20
24.9086427741
 10
37.9042547418
 20
24.9702817415
 10
37.852798499
 20
25.0305080265
 10
37.8005050173
 20
25.0892571373
 10
37.7474302939
 20
25.1464661641
 10
37.6936311626
 20
25.2020738458
 10
37.6391652329
 20
25.2560206364
 10
37.5840908281
 20
25.3082487683
 10
37.5284669235
 20
25.3587023144
 10
37.4723530823
 20
25.4073272476
 10
37.4158093928
 20
25.4540714993
 10
37.3588964034
 20
25.4988850145
 10
37.3016750578
 20
25.5417198057
 10
37.2442066302
 20
25.5825300044
 10
37.1865526592
 20
25.62127191
 10
37.1287748821
 20
25.6579040367
 10
37.0709351687
 20
25.6923871579
 10
37.0130954554
 20
25.7246843483
 10
36.9553176783
 20
25.7547610231
 10
36.8976637072
 20
25.7825849755
 10
36.8401952796
 20
25.808126411
 10
36.7829739341
 20
25.8313579791
 10
36.7260609446
 20
25.8522548029
 10
36.712343001
 20
25.8569577866
  0
LWPOLYLINE
  5
195
330
1F
100
AcDbEntity
  8
0
  6
Continuous
 62
     7
370
    25
100
AcDbPolyline
 90
       50
 70
   128
 43
0.0
 10
37.0924322363
 20
25.6799731574
 10
37.1280552692
 20
25.658982177
 10
37.1854684222
 20
25.623383551
 10
37.2427805968
 20
25.5856639645
 10
37.2999297773
 20
25.5458642326
 10
37.3568541246
 20
25.5040274213
 10
37.4134920427
 20
25.4601988008
 10
37.4697822457
 20
25.4144257964
 10
37.5256638238
 20
25.3667579378
 10
37.5810763096
 20
25.3172468045
 10
37.6359597429
 20
25.265945971
 10
37.6902547363
 20
25.2129109482
 10
37.743902539
 20
25.1581991234
 10
37.7968451005
 20
25.1018696985
 10
37.8490251336
 20
25.0439836257
 10
37.9003861758
 20
24.9846035414
 10
37.9508726513
 20
24.923793699
 10
38.0004299302
 20
24.8616198986
 10
38.0490043883
 20
24.7981494164
 10
38.0965434649
 20
24.7334509318
 10
38.1429957194
 20
24.6675944527
 10
38.1883108876
 20
24.6006512402
 10
38.2324399353
 20
24.5326937313
 10
38.2753351121
 20
24.4637954605
 10
38.3169500024
 20
24.3940309803
 10
38.3572395763
 20
24.3234757806
 10
38.3961602378
 20
24.2522062067
 10
38.433669872
 20
24.1802993769
 10
38.4697278912
 20
24.1078330993
 10
38.5042952781
 20
24.0348857872
 10
38.5373346286
 20
23.9615363744
 10
38.5688101918
 20
23.8878642298
 10
38.5986879092
 20
23.8139490715
 10
38.626935451
 20
23.7398708806
 10
38.6535222516
 20
23.6657098147
 10
38.6784195423
 20
23.591546121
 10
38.7016003825
 20
23.5174600494
 10
38.7230396891
 20
23.443531766
 10
38.7427142633
 20
23.369841266
 10
38.7606028159
 20
23.2964682876
 10
38.7766859904
 20
23.2234922251
 10
38.7909463836
 20
23.1509920434
 10
38.8033685648
 20
23.0790461926
 10
38.8139390925
 20
23.0077325228
 10
38.8226465287
 20
22.9371282001
 10
38.8294814512
 20
22.8673096231
 10
38.8344364643
 20
22.7983523401
 10
38.8375062064
 20
22.7303309675
 10
38.8386873556
 20
22.6633191088
 10
38.8387021217
 20
22.6550172318
  0
LWPOLYLINE
  5
196
330
1F
100
AcDbEntity
  8
0
  6
Continuous
 62
     7
370
    25
100
AcDbPolyline
 90
       99
 70
   128
 43
0.0
 10
36.712343001
 20
25.5232140755
 10
36.7562726511
 20
25.4984882409
 10
36.8137653262
 20
25.4642120184
 10
36.8711964366
 20
25.4277996844
 10
36.9285044838
 20
25.3892902302
 10
36.9856281009
 20
25.3487248927
 10
37.0425061184
 20
25.3061471103
 10
37.0990776299
 20
25.2616024762
 10
37.1552820572
 20
25.21513869
 10
37.2110592153
 20
25.1668055064
 10
37.2663493765
 20
25.1166546816
 10
37.3210933349
 20
25.0647399185
 10
37.375232469
 20
25.0111168086
 10
37.4287088055
 20
24.955842773
 10
37.4814650806
 20
24.8989770004
 10
37.5334448014
 20
24.8405803842
 10
37.5845923068
 20
24.7807154569
 10
37.6348528267
 20
24.7194463234
 10
37.684172541
 20
24.6568385922
 10
37.7324986369
 20
24.5929593052
 10
37.7797793655
 20
24.5278768659
 10
37.8259640975
 20
24.4616609664
 10
37.8710033771
 20
24.3943825121
 10
37.9148489752
 20
24.3261135467
 10
37.9574539406
 20
24.2569271741
 10
37.9987726511
 20
24.1868974809
 10
38.0387608614
 20
24.1160994566
 10
38.0773757513
 20
24.0446089136
 10
38.1145759709
 20
23.9725024057
 10
38.1503216852
 20
23.8998571464
 10
38.1845746169
 20
23.8267509259
 10
38.2172980871
 20
23.7532620284
 10
38.2484570547
 20
23.6794691475
 10
38.2780181538
 20
23.6054513025
 10
38.3059497297
 20
23.5312877536
 10
38.3322218726
 20
23.4570579169
 10
38.3568064496
 20
23.3828412796
 10
38.379677135
 20
23.3087173149
 10
38.4008094381
 20
23.2347653963
 10
38.4201807301
 20
23.1610647136
 10
38.4377702676
 20
23.0876941873
 10
38.4535592153
 20
23.0147323843
 10
38.4675306661
 20
22.942257434
 10
38.4796696589
 20
22.8703469444
 10
38.4899631951
 20
22.799077919
 10
38.498400252
 20
22.7285266745
 10
38.504971795
 20
22.6587687589
 10
38.5096707872
 20
22.5898788707
 10
38.5124921967
 20
22.5219307791
 10
38.5134330024
 20
22.4549972444
 10
38.5124921967
 20
22.3891499408
 10
38.5096707872
 20
22.3244593793
 10
38.504971795
 20
22.260994832
 10
38.498400252
 20
22.1988242585
 10
38.4899631951
 20
22.1380142325
 10
38.4796696589
 20
22.078629871
 10
38.4675306661
 20
22.0207347642
 10
38.4535592153
 20
21.9643909076
 10
38.4377702676
 20
21.9096586356
 10
38.4201807301
 20
21.856596557
 10
38.4008094381
 20
21.8052614919
 10
38.379677135
 20
21.7557084113
 10
38.3568064496
 20
21.7079903777
 10
38.3322218726
 20
21.6621584889
 10
38.3059497297
 20
21.6182618227
 10
38.2780181538
 20
21.5763473849
 10
38.2484570547
 20
21.5364600585
 10
38.2172980871
 20
21.4986425558
 10
38.1845746169
 20
21.4629353727
 10
38.1503216852
 20
21.4293767455
 10
38.1145759709
 20
21.3980026094
 10
38.0773757513
 20
21.3688465608
 10
38.0387608614
 20
21.3419398206
 10
37.9987726511
 20
21.3173112013
 10
37.9574539406
 20
21.2949870757
 10
37.9148489752
 20
21.2749913492
 10
37.8710033771
 20
21.2573454337
 10
37.8259640975
 20
21.2420682248
 10
37.7797793655
 20
21.2291760818
 10
37.7324986369
 20
21.2186828099
 10
37.684172541
 20
21.2105996455
 10
37.6348528267
 20
21.2049352444
 10
37.5845923068
 20
21.201695672
 10
37.5334448014
 20
21.2008843975
 10
37.4814650806
 20
21.2025022894
 10
37.4287088055
 20
21.2065476155
 10
37.375232469
 20
21.2130160437
 10
37.3210933349
 20
21.2219006477
 10
37.2663493765
 20
21.2331919134
 10
37.2110592153
 20
21.24687775
 10
37.1552820572
 20
21.2629435023
 10
37.0990776299
 20
21.2813719667
 10
37.0425061184
 20
21.3021434096
 10
36.9856281009
 20
21.3252355883
 10
36.9285044838
 20
21.3506237751
 10
36.8711964366
 20
21.3782807838
 10
36.8137653262
 20
21.4081769986
 10
36.7562726511
 20
21.4402804058
 10
36.7559870631
 20
21.440445299
  0
LWPOLYLINE
  5
197
330
1F
100
AcDbEntity
  8
0
  6
Continuous
 62
     7
370
    25
100
AcDbPolyline
 90
       97
 70
   128
 43
0.0
 10
36.712343001
 20
21.4656717416
 10
36.749385541
 20
21.4445346724
 10
36.8062908694
 20
21.4138577799
 10
36.863102843
 20
21.3854062573
 10
36.9197593388
 20
21.3592112159
 10
36.9761984038
 20
21.3353012995
 10
37.0323583227
 20
21.3137026534
 10
37.0881776854
 20
21.2944388952
 10
37.1435954542
 20
21.2775310896
 10
37.1985510307
 20
21.2629977252
 10
37.2529843218
 20
21.2508546938
 10
37.3068358054
 20
21.2411152737
 10
37.3600465957
 20
21.2337901149
 10
37.4125585076
 20
21.2288872273
 10
37.4643141199
 20
21.2264119721
 10
37.5152568388
 20
21.2263670559
 10
37.565330959
 20
21.228752528
 10
37.6144817254
 20
21.2335657798
 10
37.6626553921
 20
21.240801548
 10
37.7097992821
 20
21.2504519206
 10
37.7558618442
 20
21.2625063449
 10
37.8007927096
 20
21.2769516396
 10
37.8445427471
 20
21.293772009
 10
37.8870641167
 20
21.3129490603
 10
37.9283103219
 20
21.3344618236
 10
37.9682362606
 20
21.3582867751
 10
38.0067982743
 20
21.3843978625
 10
38.0439541961
 20
21.4127665337
 10
38.0796633964
 20
21.443361768
 10
38.1138868279
 20
21.47615011
 10
38.1465870677
 20
21.5110957061
 10
38.1777283585
 20
21.5481603437
 10
38.2072766478
 20
21.5873034933
 10
38.235199625
 20
21.6284823525
 10
38.2614667567
 20
21.6716518926
 10
38.2860493202
 20
21.7167649085
 10
38.3089204349
 20
21.7637720697
 10
38.3300550914
 20
21.8126219747
 10
38.3494301794
 20
21.8632612067
 10
38.3670245125
 20
21.9156343924
 10
38.3828188516
 20
21.9696842627
 10
38.3967959257
 20
22.0253517147
 10
38.4089404511
 20
22.0825758769
 10
38.4192391481
 20
22.1412941755
 10
38.427680755
 20
22.201442403
 10
38.4342560412
 20
22.262954788
 10
38.4389578166
 20
22.3257640678
 10
38.44178094
 20
22.3898015613
 10
38.4427223242
 20
22.4549972444
 10
38.44178094
 20
22.5212798267
 10
38.4389578166
 20
22.588576829
 10
38.4342560412
 20
22.6568146631
 10
38.427680755
 20
22.725918712
 10
38.4192391481
 20
22.7958134114
 10
38.4089404511
 20
22.8664223324
 10
38.3967959257
 20
22.9376682652
 10
38.3828188516
 20
23.0094733035
 10
38.3670245125
 20
23.0817589294
 10
38.3494301794
 20
23.1544460998
 10
38.3300550914
 20
23.2274553323
 10
38.3089204349
 20
23.3007067923
 10
38.2860493202
 20
23.3741203804
 10
38.2614667567
 20
23.44761582
 10
38.235199625
 20
23.5211127449
 10
38.2072766478
 20
23.5945307873
 10
38.1777283585
 20
23.6677896655
 10
38.1465870677
 20
23.7408092722
 10
38.1138868279
 20
23.8135097615
 10
38.0796633964
 20
23.8858116363
 10
38.0439541961
 20
23.9576358358
 10
38.0067982743
 20
24.0289038212
 10
37.9682362606
 20
24.0995376619
 10
37.9283103219
 20
24.1694601209
 10
37.8870641167
 20
24.2385947391
 10
37.8445427471
 20
24.3068659188
 10
37.8007927096
 20
24.3741990063
 10
37.7558618442
 20
24.440520374
 10
37.7097992821
 20
24.5057575005
 10
37.6626553921
 20
24.5698390498
 10
37.6144817254
 20
24.6326949498
 10
37.565330959
 20
24.6942564684
 10
37.5152568388
 20
24.7544562891
 10
37.4643141199
 20
24.8132285842
 10
37.4125585076
 20
24.8705090871
 10
37.3600465957
 20
24.9262351624
 10
37.3068358054
 20
24.9803458744
 10
37.2529843218
 20
25.0327820538
 10
37.1985510307
 20
25.0834863626
 10
37.1435954542
 20
25.1324033562
 10
37.0881776854
 20
25.1794795446
 10
37.0323583227
 20
25.2246634508
 10
36.9761984038
 20
25.2679056668
 10
36.9197593388
 20
25.3091589078
 10
36.863102843
 20
25.3483780641
 10
36.8062908694
 20
25.38552025
 10
36.749385541
 20
25.4205448512
 10
36.712343001
 20
25.4421761883
  0
LWPOLYLINE
  5
198
330
1F
100
AcDbEntity
  8
0
  6
Continuous
 62
     7
370
    25
100
AcDbPolyline
 90
       79
 70
   128
 43
0.0
 10
36.712343001
 20
25.7644075446
 10
36.7567269052
 20
25.7461993766
 10
36.8138505223
 20
25.7208111897
 10
36.8711585695
 20
25.693154181
 10
36.9285896799
 20
25.6632579663
 10
36.986082355
 20
25.6311545591
 10
37.0435750301
 20
25.5968783366
 10
37.1010061405
 20
25.5604660026
 10
37.1583141877
 20
25.5219565484
 10
37.2154378048
 20
25.4813912109
 10
37.2723158222
 20
25.4388134284
 10
37.3288873337
 20
25.3942687944
 10
37.3850917611
 20
25.3478050082
 10
37.4408689192
 20
25.2994718246
 10
37.4961590804
 20
25.2493209998
 10
37.5509030387
 20
25.1974062366
 10
37.6050421729
 20
25.1437831268
 10
37.6585185094
 20
25.0885090912
 10
37.7112747844
 20
25.0316433186
 10
37.7632545052
 20
24.9732467024
 10
37.8144020106
 20
24.9133817751
 10
37.8646625306
 20
24.8521126416
 10
37.9139822449
 20
24.7895049103
 10
37.9623083408
 20
24.7256256233
 10
38.0095890694
 20
24.6605431841
 10
38.0557738014
 20
24.5943272845
 10
38.100813081
 20
24.5270488303
 10
38.144658679
 20
24.4587798648
 10
38.1872636445
 20
24.3895934923
 10
38.228582355
 20
24.3195637991
 10
38.2685705653
 20
24.2487657748
 10
38.3071854552
 20
24.1772752318
 10
38.3443856747
 20
24.1051687239
 10
38.3801313891
 20
24.0325234645
 10
38.4143843208
 20
23.9594172441
 10
38.447107791
 20
23.8859283466
 10
38.4782667586
 20
23.8121354656
 10
38.5078278577
 20
23.7381176207
 10
38.5357594336
 20
23.6639540717
 10
38.5620315765
 20
23.5897242351
 10
38.5866161535
 20
23.5155075978
 10
38.6094868388
 20
23.441383633
 10
38.630619142
 20
23.3674317145
 10
38.6499904339
 20
23.2937310318
 10
38.6675799714
 20
23.2203605055
 10
38.6833689192
 20
23.1473987025
 10
38.69734037
 20
23.0749237522
 10
38.7094793628
 20
23.0030132625
 10
38.719772899
 20
22.9317442371
 10
38.7282099558
 20
22.8611929926
 10
38.7347814989
 20
22.791435077
 10
38.739480491
 20
22.7225451889
 10
38.7423019006
 20
22.6545970973
 10
38.7432427062
 20
22.5876635626
 10
38.7423019006
 20
22.521816259
 10
38.739480491
 20
22.4571256974
 10
38.7347814989
 20
22.3936611502
 10
38.7282099558
 20
22.3314905767
 10
38.719772899
 20
22.2706805507
 10
38.7094793628
 20
22.2112961892
 10
38.69734037
 20
22.1534010824
 10
38.6833689192
 20
22.0970572258
 10
38.6675799714
 20
22.0423249538
 10
38.6499904339
 20
21.9892628752
 10
38.630619142
 20
21.9379278101
 10
38.6094868388
 20
21.8883747295
 10
38.5866161535
 20
21.8406566959
 10
38.5620315765
 20
21.794824807
 10
38.5357594336
 20
21.7509281409
 10
38.5078278577
 20
21.7090137031
 10
38.4782667586
 20
21.6691263767
 10
38.447107791
 20
21.631308874
 10
38.4143843208
 20
21.5956016909
 10
38.3801313891
 20
21.5620430636
 10
38.3443856747
 20
21.5306689276
 10
38.3071854552
 20
21.5015128789
 10
38.2685705653
 20
21.4746061388
 10
38.228582355
 20
21.4499775194
 10
38.2284813803
 20
21.4499192185
  0
LWPOLYLINE
  5
199
330
1F
100
AcDbEntity
  8
0
  6
Continuous
 62
     7
370
    25
100
AcDbPolyline
 90
       42
 70
   128
 43
0.0
 10
38.0410856725
 20
22.6868571482
 10
38.0401160945
 20
22.702000265
 10
38.0372300864
 20
22.717907891
 10
38.032495294
 20
22.7342071649
 10
38.0260226966
 20
22.7505160455
 10
38.0179640066
 20
22.7664522664
 10
38.0085081127
 20
22.7816422963
 10
37.9978766531
 20
22.7957300936
 10
37.9863188203
 20
22.8083854523
 10
37.9741055199
 20
22.8193117415
 10
37.9615230215
 20
22.8282528583
 10
37.9488662481
 20
22.8349992305
 10
37.9364318637
 20
22.8393927289
 10
37.9245113199
 20
22.8413303734
 10
37.9133840239
 20
22.8407667475
 10
37.9033107903
 20
22.837715062
 10
37.8945277271
 20
22.8322468458
 10
37.8872407019
 20
22.8244902694
 10
37.8816205162
 20
22.8146271402
 10
37.8777989026
 20
22.8028886416
 10
37.8758654364
 20
22.7895499142
 10
37.8758654364
 20
22.7749236064
 10
37.8777989026
 20
22.7593525464
 10
37.8816205162
 20
22.7432017067
 10
37.8872407019
 20
22.7268496492
 10
37.8945277271
 20
22.7106796525
 10
37.9033107903
 20
22.6950707274
 10
37.9133840239
 20
22.6803887339
 10
37.9245113199
 20
22.6669778056
 10
37.9364318637
 20
22.6551522832
 10
37.9488662481
 20
22.6451893469
 10
37.9615230215
 20
22.6373225196
 10
37.9741055199
 20
22.6317361929
 10
37.9863188203
 20
22.6285613057
 10
37.9978766531
 20
22.6278722746
 10
38.0085081127
 20
22.62968525
 10
38.0179640066
 20
22.6339577371
 10
38.0260226966
 20
22.6405895926
 10
38.032495294
 20
22.6494253714
 10
38.0372300864
 20
22.6602579703
 10
38.0401160945
 20
22.6728334823
 10
38.0410856725
 20
22.6868571482
  0
LWPOLYLINE
  5
19A
330
1F
100
AcDbEntity
  8
0
  6
Continuous
 62
     7
370
    25
100
AcDbPolyline
 90
       77
 70
   128
 43
0.0
 10
35.9112800476
 20
21.9261561414
 10
35.8498909291
 20
21.8918078123
 10
35.7866721724
 20
21.8585838992
 10
35.7216855477
 20
21.8265168645
 10
35.6549945525
 20
21.7956380405
 10
35.5866643494
 20
21.7659775985
 10
35.5167617029
 20
21.7375645192
 10
35.4453549137
 20
21.7104265646
 10
35.3725137525
 20
21.6845902508
 10
35.2983093911
 20
21.660080822
 10
35.2228143335
 20
21.636922226
 10
35.1461023448
 20
21.6151370908
 10
35.0682483792
 20
21.5947467023
 10
34.9893285064
 20
21.5757709836
 10
34.9094198381
 20
21.5582284756
 10
34.8286004516
 20
21.5421363188
 10
34.7469493144
 20
21.5275102367
 10
34.6645462065
 20
21.5143645201
 10
34.5814716429
 20
21.5027120135
 10
34.4978067943
 20
21.4925641024
 10
34.4136334085
 20
21.4839307022
 10
34.32903373
 20
21.4768202484
 10
34.2440904198
 20
21.4712396886
 10
34.1588864747
 20
21.4671944755
 10
34.0735051463
 20
21.4646885615
 10
33.9880298593
 20
21.4637243951
 10
33.9025441303
 20
21.4643029185
 10
33.8171314862
 20
21.4664235663
 10
33.7318753823
 20
21.4700842665
 10
33.6468591211
 20
21.4752814423
 10
33.5621657707
 20
21.4820100156
 10
33.4778780836
 20
21.4902634121
 10
33.3940784161
 20
21.5000335673
 10
33.3108486476
 20
21.5113109352
 10
33.2282701006
 20
21.5240844967
 10
33.1464234613
 20
21.538341771
 10
33.0653887009
 20
21.5540688275
 10
32.9852449971
 20
21.5712502995
 10
32.9060706573
 20
21.5898693993
 10
32.8279430413
 20
21.6099079345
 10
32.7509384866
 20
21.6313463257
 10
32.6751322331
 20
21.6541636258
 10
32.6005983499
 20
21.6783375403
 10
32.527409663
 20
21.7038444493
 10
32.455637684
 20
21.7306594303
 10
32.38535254
 20
21.7587562829
 10
32.3166229058
 20
21.7881075541
 10
32.2495159359
 20
21.8186845651
 10
32.1840971995
 20
21.8504574397
 10
32.1204306164
 20
21.883395133
 10
32.0585783942
 20
21.9174654621
 10
31.9986009676
 20
21.9526351374
 10
31.9405569399
 20
21.9888697952
 10
31.8845030248
 20
22.0261340311
 10
31.8304939919
 20
22.0643914349
 10
31.7785826125
 20
22.1036046257
 10
31.7288196084
 20
22.143735289
 10
31.6812536024
 20
22.1847442137
 10
31.6359310704
 20
22.2265913307
 10
31.5928962965
 20
22.2692357516
 10
31.5521913291
 20
22.3126358094
 10
31.5138559406
 20
22.3567490985
 10
31.4779275879
 20
22.4015325164
 10
31.4444413759
 20
22.446942306
 10
31.4134300237
 20
22.492934098
 10
31.3849238318
 20
22.5394629546
 10
31.3589506533
 20
22.5864834131
 10
31.3355358661
 20
22.6339495306
 10
31.3147023486
 20
22.6818149286
 10
31.2964704567
 20
22.7300328386
 10
31.2808580047
 20
22.7785561475
 10
31.2678802472
 20
22.8273374441
 10
31.2575498645
 20
22.8763290648
 10
31.2498769504
 20
22.9254831406
 10
31.2448690019
 20
22.974751644
 10
31.2425309122
 20
23.0240864353
 10
31.242343001
 20
23.0425942344
  0
LWPOLYLINE
  5
19B
330
1F
100
AcDbEntity
  8
0
  6
Continuous
 62
     7
370
    25
100
AcDbPolyline
 90
       27
 70
   128
 43
0.0
 10
36.712343001
 20
23.0425942344
 10
36.7123221218
 20
23.0364248424
 10
36.7106519557
 20
22.9870810095
 10
36.706311115
 20
22.9377914178
 10
36.6993038411
 20
22.8886042273
 10
36.6896369805
 20
22.8395674981
 10
36.6773199788
 20
22.7907291432
 10
36.6623648706
 20
22.7421368819
 10
36.6447862683
 20
22.6938381929
 10
36.6246013478
 20
22.6458802681
 10
36.6018298314
 20
22.5983099665
 10
36.5764939687
 20
22.5511737683
 10
36.5486185152
 20
22.5045177296
 10
36.5182307075
 20
22.4583874373
 10
36.485360237
 20
22.4128279645
 10
36.450039221
 20
22.3678838268
 10
36.4123021711
 20
22.3235989384
 10
36.3721859596
 20
22.2800165693
 10
36.3297297835
 20
22.2371793033
 10
36.284975126
 20
22.195128996
 10
36.2379657162
 20
22.153906734
 10
36.1887474864
 20
22.1135527952
 10
36.1373685268
 20
22.0741066086
 10
36.0838790391
 20
22.0356067165
 10
36.0283312871
 20
21.9980907366
 10
35.9707795456
 20
21.9615953252
 10
35.9112800476
 20
21.9261561414
  0
LWPOLYLINE
  5
19C
330
1F
100
AcDbEntity
  8
0
  6
Continuous
 62
     7
370
    25
100
AcDbPolyline
 90
      202
 70
   128
 43
0.0
 10
35.9112800476
 20
26.6702582585
 10
35.8498909291
 20
26.6359099294
 10
35.7866721724
 20
26.6026860162
 10
35.7216855477
 20
26.5706189815
 10
35.6549945525
 20
26.5397401576
 10
35.5866643494
 20
26.5100797156
 10
35.5167617029
 20
26.4816666363
 10
35.4453549137
 20
26.4545286816
 10
35.3725137525
 20
26.4286923678
 10
35.2983093911
 20
26.404182939
 10
35.2228143335
 20
26.3810243431
 10
35.1461023448
 20
26.3592392079
 10
35.0682483792
 20
26.3388488194
 10
34.9893285064
 20
26.3198731007
 10
34.9094198381
 20
26.3023305927
 10
34.8286004516
 20
26.2862384359
 10
34.7469493144
 20
26.2716123537
 10
34.6645462065
 20
26.2584666371
 10
34.5814716429
 20
26.2468141305
 10
34.4978067943
 20
26.2366662194
 10
34.4136334085
 20
26.2280328192
 10
34.32903373
 20
26.2209223655
 10
34.2440904198
 20
26.2153418057
 10
34.1588864747
 20
26.2112965925
 10
34.0735051463
 20
26.2087906785
 10
33.9880298593
 20
26.2078265122
 10
33.9025441303
 20
26.2084050355
 10
33.8171314862
 20
26.2105256834
 10
33.7318753823
 20
26.2141863836
 10
33.6468591211
 20
26.2193835594
 10
33.5621657707
 20
26.2261121327
 10
33.4778780836
 20
26.2343655291
 10
33.3940784161
 20
26.2441356844
 10
33.3108486476
 20
26.2554130523
 10
33.2282701006
 20
26.2681866138
 10
33.1464234613
 20
26.282443888
 10
33.0653887009
 20
26.2981709445
 10
32.9852449971
 20
26.3153524166
 10
32.9060706573
 20
26.3339715164
 10
32.8279430413
 20
26.3540100516
 10
32.7509384866
 20
26.3754484428
 10
32.6751322331
 20
26.3982657428
 10
32.6005983499
 20
26.4224396573
 10
32.527409663
 20
26.4479465663
 10
32.455637684
 20
26.4747615474
 10
32.38535254
 20
26.5028584
 10
32.3166229058
 20
26.5322096711
 10
32.2495159359
 20
26.5627866822
 10
32.1840971995
 20
26.5945595567
 10
32.1204306164
 20
26.62749725
 10
32.0585783942
 20
26.6615675791
 10
31.9986009676
 20
26.6967372545
 10
31.9405569399
 20
26.7329719123
 10
31.8845030248
 20
26.7702361482
 10
31.8304939919
 20
26.808493552
 10
31.7785826125
 20
26.8477067428
 10
31.7288196084
 20
26.8878374061
 10
31.6812536024
 20
26.9288463308
 10
31.6359310704
 20
26.9706934477
 10
31.5928962965
 20
27.0133378687
 10
31.5521913291
 20
27.0567379265
 10
31.5138559406
 20
27.1008512156
 10
31.4779275879
 20
27.1456346335
 10
31.4444413759
 20
27.1910444231
 10
31.4134300237
 20
27.2370362151
 10
31.3849238318
 20
27.2835650717
 10
31.3589506533
 20
27.3305855302
 10
31.3355358661
 20
27.3780516476
 10
31.3147023486
 20
27.4259170456
 10
31.2964704567
 20
27.4741349556
 10
31.2808580047
 20
27.5226582646
 10
31.2678802472
 20
27.5714395611
 10
31.2575498645
 20
27.6204311818
 10
31.2498769504
 20
27.6695852577
 10
31.2448690019
 20
27.718853761
 10
31.2425309122
 20
27.7681885523
 10
31.2428649658
 20
27.8175414273
 10
31.2458708363
 20
27.866864164
 10
31.2515455868
 20
27.91610857
 10
31.2598836725
 20
27.9652265293
 10
31.2708769464
 20
28.0141700494
 10
31.2845146671
 20
28.0628913085
 10
31.3007835095
 20
28.1113427017
 10
31.3196675774
 20
28.1594768878
 10
31.3411484196
 20
28.2072468358
 10
31.3652050475
 20
28.2546058702
 10
31.3918139557
 20
28.3015077174
 10
31.4209491449
 20
28.3479065502
 10
31.4525821478
 20
28.3937570331
 10
31.4866820561
 20
28.4390143662
 10
31.5232155514
 20
28.4836343293
 10
31.5621469373
 20
28.5275733249
 10
31.6034381745
 20
28.5707884209
 10
31.6470489181
 20
28.6132373924
 10
31.6929365566
 20
28.6548787632
 10
31.7410562539
 20
28.6956718462
 10
31.791360993
 20
28.7355767831
 10
31.8438016218
 20
28.7745545833
 10
31.8983269016
 20
28.8125671622
 10
31.9548835563
 20
28.8495773784
 10
32.0134163255
 20
28.8855490697
 10
32.0738680175
 20
28.9204470887
 10
32.136179566
 20
28.954237337
 10
32.2002900873
 20
28.9868867989
 10
32.26613694
 20
29.0183635729
 10
32.3336557862
 20
29.0486369035
 10
32.4027806541
 20
29.0776772113
 10
32.473444003
 20
29.1054561212
 10
32.5455767887
 20
29.1319464911
 10
32.6191085314
 20
29.1571224374
 10
32.6939673844
 20
29.1809593613
 10
32.7700802041
 20
29.203433972
 10
32.847372622
 20
29.2245243099
 10
32.9257691168
 20
29.2442097679
 10
33.0051930885
 20
29.2624711118
 10
33.085566933
 20
29.2792904985
 10
33.1668121184
 20
29.2946514943
 10
33.2488492612
 20
29.3085390899
 10
33.3315982041
 20
29.3209397162
 10
33.4149780945
 20
29.3318412566
 10
33.4989074631
 20
29.3412330593
 10
33.5833043037
 20
29.3491059479
 10
33.6680861536
 20
29.3554522299
 10
33.7531701737
 20
29.3602657043
 10
33.8384732296
 20
29.363541668
 10
33.9239119731
 20
29.3652769201
 10
34.0094029232
 20
29.3654697652
 10
34.094862548
 20
29.3641200147
 10
34.1802073463
 20
29.3612289876
 10
34.2653539289
 20
29.3567995085
 10
34.3502191004
 20
29.3508359056
 10
34.4347199403
 20
29.3433440056
 10
34.5187738842
 20
29.3343311289
 10
34.6022988042
 20
29.3238060818
 10
34.6852130894
 20
29.3117791481
 10
34.7674357255
 20
29.2982620792
 10
34.848886374
 20
29.2832680824
 10
34.9294854507
 20
29.2668118081
 10
35.0091542035
 20
29.2489093355
 10
35.0878147892
 20
29.2295781568
 10
35.1653903499
 20
29.2088371603
 10
35.2418050875
 20
29.1867066116
 10
35.3169843385
 20
29.1632081341
 10
35.3908546463
 20
29.1383646879
 10
35.4633438333
 20
29.1122005471
 10
35.5343810715
 20
29.0847412763
 10
35.6038969515
 20
29.0560137056
 10
35.6718235503
 20
29.0260459041
 10
35.738094498
 20
28.994867153
 10
35.8026450421
 20
28.9625079167
 10
35.8654121113
 20
28.9289998127
 10
35.926334377
 20
28.8943755813
 10
35.9853523127
 20
28.8586690535
 10
36.0424082531
 20
28.8219151174
 10
36.0974464497
 20
28.7841496847
 10
36.1504131253
 20
28.7454096556
 10
36.2012565272
 20
28.7057328823
 10
36.249926977
 20
28.6651581324
 10
36.2963769196
 20
28.6237250508
 10
36.3405609693
 20
28.5814741212
 10
36.3824359547
 20
28.5384466263
 10
36.4219609603
 20
28.4946846076
 10
36.4590973669
 20
28.4502308244
 10
36.493808889
 20
28.4051287118
 10
36.5260616106
 20
28.3594223383
 10
36.5558240179
 20
28.3131563629
 10
36.5830670306
 20
28.2663759914
 10
36.60776403
 20
28.2191269323
 10
36.629890885
 20
28.1714553518
 10
36.6494259758
 20
28.1234078292
 10
36.6663502149
 20
28.0750313108
 10
36.680647066
 20
28.0263730648
 10
36.6923025597
 20
27.9774806343
 10
36.7013053077
 20
27.9284017914
 10
36.7076465136
 20
27.8791844902
 10
36.7113199814
 20
27.8298768203
 10
36.7123221218
 20
27.7805269595
 10
36.7106519557
 20
27.7311831266
 10
36.706311115
 20
27.6818935348
 10
36.6993038411
 20
27.6327063443
 10
36.6896369805
 20
27.5836696151
 10
36.6773199788
 20
27.5348312603
 10
36.6623648706
 20
27.486238999
 10
36.6447862683
 20
27.43794031
 10
36.6246013478
 20
27.3899823852
 10
36.6018298314
 20
27.3424120836
 10
36.5764939687
 20
27.2952758854
 10
36.5486185152
 20
27.2486198467
 10
36.5182307075
 20
27.2024895543
 10
36.485360237
 20
27.1569300816
 10
36.450039221
 20
27.1119859439
 10
36.4123021711
 20
27.0677010554
 10
36.3721859596
 20
27.0241186864
 10
36.3297297835
 20
26.9812814203
 10
36.284975126
 20
26.939231113
 10
36.2379657162
 20
26.8980088511
 10
36.1887474864
 20
26.8576549122
 10
36.1373685268
 20
26.8182087256
 10
36.0838790391
 20
26.7797088335
 10
36.0283312871
 20
26.7421928537
 10
35.9707795456
 20
26.7056974423
 10
35.9112800476
 20
26.6702582585
  0
SPLINE
  5
19D
330
1F
100
AcDbEntity
  8
0
  6
Continuous
 62
     7
370
    25
100
AcDbSpline
210
0.0
220
0.0
230
1.0
 70
    11
 71
     3
 72
    26
 73
    22
 74
     0
 42
0.00000001
 43
0.00000001
 40
0.0
 40
0.0
 40
0.0
 40
0.0
 40
0.0536750643289904
 40
0.1073496429989156
 40
0.1610368245232878
 40
0.2147322126651554
 40
0.2684139093946568
 40
0.3220813954451964
 40
0.3757563163972834
 40
0.4294487206345845
 40
0.4831413779985648
 40
0.5368166456412129
 40
0.5904840298559627
 40
0.6441653367015286
 40
0.6978606434325804
 40
0.751548178537025
 40
0.8052183088844918
 40
0.8588885589374565
 40
0.912576260413614
 40
0.9662715254958926
 40
1.0
 40
1.0
 40
1.0
 40
1.0
 10
31.99127216162104
 20
22.11018785201158
 30
0.0
 10
31.99183990683163
 20
22.11670313367288
 30
0.0
 10
31.99297539211577
 20
22.12973363804435
 30
0.0
 10
32.00185465008958
 20
22.14261010315592
 30
0.0
 10
32.01501501726398
 20
22.14860904804337
 30
0.0
 10
32.03158543705745
 20
22.14677737212539
 30
0.0
 10
32.0496127282887
 20
22.13744156882924
 30
0.0
 10
32.06710945336853
 20
22.12164028814784
 30
0.0
 10
32.08205203813414
 20
22.10113349081589
 30
0.0
 10
32.09268131881097
 20
22.07817982660474
 30
0.0
 10
32.0977160794875
 20
22.05532311332426
 30
0.0
 10
32.0965447234819
 20
22.03511947580797
 30
0.0
 10
32.089313105647
 20
22.01985021651727
 30
0.0
 10
32.07689531837258
 20
22.01126695409222
 30
0.0
 10
32.06077161009289
 20
22.01038753834839
 30
0.0
 10
32.04282967613069
 20
22.01735580532499
 30
0.0
 10
32.02512947305343
 20
22.03139199673717
 30
0.0
 10
32.00960495809657
 20
22.05091636197189
 30
0.0
 10
31.99803971217983
 20
22.07361474853606
 30
0.0
 10
31.99209057908478
 20
22.0942519741619
 30
0.0
 10
31.99150000700353
 20
22.10575134332878
 30
0.0
 10
31.99127216162104
 20
22.11018785201158
 30
0.0
  0
SPLINE
  5
19E
330
1F
100
AcDbEntity
  8
0
  6
Continuous
 62
     7
370
    25
100
AcDbSpline
210
0.0
220
0.0
230
1.0
 70
    11
 71
     3
 72
    26
 73
    22
 74
     0
 42
0.00000001
 43
0.00000001
 40
0.0
 40
0.0
 40
0.0
 40
0.0
 40
0.0536750643289198
 40
0.1073496429988623
 40
0.1610368245232513
 40
0.2147322126651285
 40
0.2684139093946106
 40
0.3220813954451618
 40
0.3757563163972478
 40
0.4294487206345222
 40
0.4831413779985521
 40
0.5368166456411749
 40
0.5904840298559231
 40
0.6441653367014825
 40
0.6978606434325554
 40
0.7515481785369967
 40
0.8052183088844641
 40
0.8588885589374023
 40
0.9125762604135633
 40
0.9662715254958455
 40
1.0
 40
1.0
 40
1.0
 40
1.0
 10
36.59881654226587
 20
22.74552170661191
 30
0.0
 10
36.59905280975311
 20
22.75284091385458
 30
0.0
 10
36.59952534258982
 20
22.76747926211478
 30
0.0
 10
36.60317090834366
 20
22.79287919386326
 30
0.0
 10
36.60842722072512
 20
22.81729282282097
 30
0.0
 10
36.61480793445102
 20
22.83840979361924
 30
0.0
 10
36.62145314417101
 20
22.8537438179575
 30
0.0
 10
36.62761684372724
 20
22.86160039825582
 30
0.0
 10
36.6326632294391
 20
22.86108040555479
 30
0.0
 10
36.63613368094057
 20
22.8522249457866
 30
0.0
 10
36.63774343306317
 20
22.83601202535844
 30
0.0
 10
36.63737085859869
 20
22.81426462466018
 30
0.0
 10
36.63504456756572
 20
22.78943849212092
 30
0.0
 10
36.63094402937335
 20
22.76433869402405
 30
0.0
 10
36.62541630430294
 20
22.741810190908
 30
0.0
 10
36.61898829235906
 20
22.72441115251293
 30
0.0
 10
36.61235344701381
 20
22.71411493225579
 30
0.0
 10
36.60628680519113
 20
22.71205048015775
 30
0.0
 10
36.60161425692913
 20
22.71851283194199
 30
0.0
 10
36.59915623514516
 20
22.73074381362158
 30
0.0
 10
36.59891111191698
 20
22.74140757802837
 30
0.0
 10
36.59881654226587
 20
22.74552170661191
 30
0.0
  0
LWPOLYLINE
  5
19F
330
1F
100
AcDbEntity
  8
0
  6
Continuous
 62
     7
370
    25
100
AcDbPolyline
 90
      185
 70
   128
 43
0.0
 10
35.5895464621
 20
26.8559911039
 10
35.5335641676
 20
26.8247583739
 10
35.4757673887
 20
26.7946472205
 10
35.4162235141
 20
26.765692752
 10
35.3550019691
 20
26.737928728
 10
35.2921741355
 20
26.7113875201
 10
35.2278132675
 20
26.6861000743
 10
35.1619944071
 20
26.6620958745
 10
35.0947942962
 20
26.6394029085
 10
35.0262912871
 20
26.6180476354
 10
34.9565652511
 20
26.5980549544
 10
34.8856974859
 20
26.5794481761
 10
34.8137706199
 20
26.5622489951
 10
34.7408685168
 20
26.546477465
 10
34.667076177
 20
26.5321519747
 10
34.5924796393
 20
26.519289227
 10
34.5171658797
 20
26.5079042192
 10
34.4412227108
 20
26.498010226
 10
34.3647386789
 20
26.489618783
 10
34.287802961
 20
26.4827396746
 10
34.2105052606
 20
26.4773809212
 10
34.1329357035
 20
26.4735487711
 10
34.0551847323
 20
26.4712476923
 10
33.977343001
 20
26.4704803679
 10
33.8995012698
 20
26.4712476923
 10
33.8217502986
 20
26.4735487711
 10
33.7441807415
 20
26.4773809212
 10
33.6668830411
 20
26.4827396746
 10
33.5899473232
 20
26.489618783
 10
33.5134632913
 20
26.498010226
 10
33.4375201224
 20
26.5079042192
 10
33.3622063628
 20
26.519289227
 10
33.287609825
 20
26.5321519747
 10
33.2138174853
 20
26.546477465
 10
33.1409153821
 20
26.5622489951
 10
33.0689885162
 20
26.5794481761
 10
32.9981207509
 20
26.5980549544
 10
32.928394715
 20
26.6180476354
 10
32.8598917059
 20
26.6394029085
 10
32.792691595
 20
26.6620958745
 10
32.7268727346
 20
26.6861000743
 10
32.6625118666
 20
26.7113875201
 10
32.5996840329
 20
26.737928728
 10
32.538462488
 20
26.765692752
 10
32.4789186133
 20
26.7946472205
 10
32.4211218345
 20
26.8247583739
 10
32.3651395399
 20
26.8559911039
 10
32.3110370025
 20
26.8883089947
 10
32.2588773033
 20
26.9216743649
 10
32.2087212582
 20
26.9560483121
 10
32.160627347
 20
26.9913907577
 10
32.114651645
 20
27.027660494
 10
32.0708477577
 20
27.0648152323
 10
32.0292667587
 20
27.1028116516
 10
31.9899571294
 20
27.1416054499
 10
31.9529647031
 20
27.1811513953
 10
31.9183326113
 20
27.221403379
 10
31.8861012336
 20
27.2623144691
 10
31.8563081502
 20
27.303836965
 10
31.8289880986
 20
27.3459224533
 10
31.8041729327
 20
27.3885218643
 10
31.7818915859
 20
27.4315855289
 10
31.7621700372
 20
27.4750632369
 10
31.7450312811
 20
27.5189042951
 10
31.7304953006
 20
27.5630575869
 10
31.7185790441
 20
27.6074716314
 10
31.7092964052
 20
27.652094644
 10
31.7026582073
 20
27.6968745962
 10
31.69867219
 20
27.7417592765
 10
31.697343001
 20
27.7866963514
 10
31.69867219
 20
27.8316334263
 10
31.7026582073
 20
27.8765181066
 10
31.7092964052
 20
27.9212980588
 10
31.7185790441
 20
27.9659210714
 10
31.7304953006
 20
28.010335116
 10
31.7450312811
 20
28.0544884077
 10
31.7621700372
 20
28.098329466
 10
31.7818915859
 20
28.1418071739
 10
31.8041729327
 20
28.1848708385
 10
31.8289880986
 20
28.2274702495
 10
31.8563081502
 20
28.2695557378
 10
31.8861012336
 20
28.3110782337
 10
31.9183326113
 20
28.3519893238
 10
31.9529647031
 20
28.3922413075
 10
31.9899571294
 20
28.431787253
 10
32.0292667587
 20
28.4705810512
 10
32.0708477577
 20
28.5085774706
 10
32.114651645
 20
28.5457322088
 10
32.160627347
 20
28.5820019451
 10
32.2087212582
 20
28.6173443908
 10
32.2588773033
 20
28.6517183379
 10
32.3110370025
 20
28.6850837081
 10
32.3651395399
 20
28.7174015989
 10
32.4211218345
 20
28.7486343289
 10
32.4789186133
 20
28.7787454824
 10
32.538462488
 20
28.8076999509
 10
32.5996840329
 20
28.8354639748
 10
32.6625118666
 20
28.8620051827
 10
32.7268727346
 20
28.8872926285
 10
32.792691595
 20
28.9112968283
 10
32.8598917059
 20
28.9339897943
 10
32.928394715
 20
28.9553450674
 10
32.9981207509
 20
28.9753377484
 10
33.0689885162
 20
28.9939445267
 10
33.1409153821
 20
29.0111437077
 10
33.2138174853
 20
29.0269152378
 10
33.287609825
 20
29.0412407281
 10
33.3622063628
 20
29.0541034759
 10
33.4375201224
 20
29.0654884836
 10
33.5134632913
 20
29.0753824769
 10
33.5899473232
 20
29.0837739198
 10
33.6668830411
 20
29.0906530283
 10
33.7441807415
 20
29.0960117816
 10
33.8217502986
 20
29.0998439317
 10
33.8995012698
 20
29.1021450105
 10
33.977343001
 20
29.102912335
 10
34.0551847323
 20
29.1021450105
 10
34.1329357035
 20
29.0998439317
 10
34.2105052606
 20
29.0960117816
 10
34.287802961
 20
29.0906530283
 10
34.3647386789
 20
29.0837739198
 10
34.4412227108
 20
29.0753824769
 10
34.5171658797
 20
29.0654884836
 10
34.5924796393
 20
29.0541034759
 10
34.667076177
 20
29.0412407281
 10
34.7408685168
 20
29.0269152378
 10
34.8137706199
 20
29.0111437077
 10
34.8856974859
 20
28.9939445267
 10
34.9565652511
 20
28.9753377484
 10
35.0262912871
 20
28.9553450674
 10
35.0947942962
 20
28.9339897943
 10
35.1619944071
 20
28.9112968283
 10
35.2278132675
 20
28.8872926285
 10
35.2921741355
 20
28.8620051827
 10
35.3550019691
 20
28.8354639748
 10
35.4162235141
 20
28.8076999509
 10
35.4757673887
 20
28.7787454824
 10
35.5335641676
 20
28.7486343289
 10
35.5895464621
 20
28.7174015989
 10
35.6436489996
 20
28.6850837081
 10
35.6958086988
 20
28.6517183379
 10
35.7459647438
 20
28.6173443908
 10
35.7940586551
 20
28.5820019451
 10
35.8400343571
 20
28.5457322088
 10
35.8838382443
 20
28.5085774706
 10
35.9254192434
 20
28.4705810512
 10
35.9647288727
 20
28.431787253
 10
36.001721299
 20
28.3922413075
 10
36.0363533907
 20
28.3519893238
 10
36.0685847685
 20
28.3110782337
 10
36.0983778519
 20
28.2695557378
 10
36.1256979035
 20
28.2274702495
 10
36.1505130694
 20
28.1848708385
 10
36.1727944162
 20
28.1418071739
 10
36.1925159649
 20
28.098329466
 10
36.209654721
 20
28.0544884077
 10
36.2241907014
 20
28.010335116
 10
36.236106958
 20
27.9659210714
 10
36.2453895968
 20
27.9212980588
 10
36.2520277948
 20
27.8765181066
 10
36.256013812
 20
27.8316334263
 10
36.257343001
 20
27.7866963514
 10
36.256013812
 20
27.7417592765
 10
36.2520277948
 20
27.6968745962
 10
36.2453895968
 20
27.652094644
 10
36.236106958
 20
27.6074716314
 10
36.2241907014
 20
27.5630575869
 10
36.209654721
 20
27.5189042951
 10
36.1925159649
 20
27.4750632369
 10
36.1727944162
 20
27.4315855289
 10
36.1505130694
 20
27.3885218643
 10
36.1256979035
 20
27.3459224533
 10
36.0983778519
 20
27.303836965
 10
36.0685847685
 20
27.2623144691
 10
36.0363533907
 20
27.221403379
 10
36.001721299
 20
27.1811513953
 10
35.9647288727
 20
27.1416054499
 10
35.9254192434
 20
27.1028116516
 10
35.8838382443
 20
27.0648152323
 10
35.8400343571
 20
27.027660494
 10
35.7940586551
 20
26.9913907577
 10
35.7459647438
 20
26.9560483121
 10
35.6958086988
 20
26.9216743649
 10
35.6436489996
 20
26.8883089947
 10
35.5895464621
 20
26.8559911039
  0
LWPOLYLINE
  5
1A0
330
1F
100
AcDbEntity
  8
0
  6
Continuous
 62
     7
370
    25
100
AcDbPolyline
 90
       93
 70
   128
 43
0.0
 10
31.6984401127
 20
27.7458693108
 10
31.69867219
 20
27.7499793451
 10
31.7026582073
 20
27.7948640254
 10
31.7092964052
 20
27.8396439776
 10
31.7185790441
 20
27.8842669902
 10
31.7304953006
 20
27.9286810348
 10
31.7450312811
 20
27.9728343266
 10
31.7621700372
 20
28.0166753848
 10
31.7818915859
 20
28.0601530927
 10
31.8041729327
 20
28.1032167573
 10
31.8289880986
 20
28.1458161683
 10
31.8563081502
 20
28.1879016567
 10
31.8861012336
 20
28.2294241525
 10
31.9183326113
 20
28.2703352426
 10
31.9529647031
 20
28.3105872264
 10
31.9899571294
 20
28.3501331718
 10
32.0292667587
 20
28.3889269701
 10
32.0708477577
 20
28.4269233894
 10
32.114651645
 20
28.4640781276
 10
32.160627347
 20
28.500347864
 10
32.2087212582
 20
28.5356903096
 10
32.2588773033
 20
28.5700642567
 10
32.3110370025
 20
28.603429627
 10
32.3651395399
 20
28.6357475177
 10
32.4211218345
 20
28.6669802478
 10
32.4789186133
 20
28.6970914012
 10
32.538462488
 20
28.7260458697
 10
32.5996840329
 20
28.7538098936
 10
32.6625118666
 20
28.7803511015
 10
32.7268727346
 20
28.8056385473
 10
32.792691595
 20
28.8296427471
 10
32.8598917059
 20
28.8523357131
 10
32.928394715
 20
28.8736909862
 10
32.9981207509
 20
28.8936836673
 10
33.0689885162
 20
28.9122904456
 10
33.1409153821
 20
28.9294896265
 10
33.2138174853
 20
28.9452611566
 10
33.287609825
 20
28.9595866469
 10
33.3622063628
 20
28.9724493947
 10
33.4375201224
 20
28.9838344024
 10
33.5134632913
 20
28.9937283957
 10
33.5899473232
 20
29.0021198386
 10
33.6668830411
 20
29.0089989471
 10
33.7441807415
 20
29.0143577004
 10
33.8217502986
 20
29.0181898505
 10
33.8995012698
 20
29.0204909293
 10
33.977343001
 20
29.0212582538
 10
34.0551847323
 20
29.0204909293
 10
34.1329357035
 20
29.0181898505
 10
34.2105052606
 20
29.0143577004
 10
34.287802961
 20
29.0089989471
 10
34.3647386789
 20
29.0021198386
 10
34.4412227108
 20
28.9937283957
 10
34.5171658797
 20
28.9838344024
 10
34.5924796393
 20
28.9724493947
 10
34.667076177
 20
28.9595866469
 10
34.7408685168
 20
28.9452611566
 10
34.8137706199
 20
28.9294896265
 10
34.8856974859
 20
28.9122904456
 10
34.9565652511
 20
28.8936836673
 10
35.0262912871
 20
28.8736909862
 10
35.0947942962
 20
28.8523357131
 10
35.1619944071
 20
28.8296427471
 10
35.2278132675
 20
28.8056385473
 10
35.2921741355
 20
28.7803511015
 10
35.3550019691
 20
28.7538098936
 10
35.4162235141
 20
28.7260458697
 10
35.4757673887
 20
28.6970914012
 10
35.5335641676
 20
28.6669802478
 10
35.5895464621
 20
28.6357475177
 10
35.6436489996
 20
28.603429627
 10
35.6958086988
 20
28.5700642567
 10
35.7459647438
 20
28.5356903096
 10
35.7940586551
 20
28.500347864
 10
35.8400343571
 20
28.4640781276
 10
35.8838382443
 20
28.4269233894
 10
35.9254192434
 20
28.3889269701
 10
35.9647288727
 20
28.3501331718
 10
36.001721299
 20
28.3105872264
 10
36.0363533907
 20
28.2703352426
 10
36.0685847685
 20
28.2294241525
 10
36.0983778519
 20
28.1879016567
 10
36.1256979035
 20
28.1458161683
 10
36.1505130694
 20
28.1032167573
 10
36.1727944162
 20
28.0601530927
 10
36.1925159649
 20
28.0166753848
 10
36.209654721
 20
27.9728343266
 10
36.2241907014
 20
27.9286810348
 10
36.236106958
 20
27.8842669902
 10
36.2453895968
 20
27.8396439776
 10
36.2520277948
 20
27.7948640254
 10
36.256013812
 20
27.7499793451
 10
36.2562458894
 20
27.7458693108
  0
LWPOLYLINE
  5
1A1
330
1F
100
AcDbEntity
  8
0
  6
Continuous
 62
     7
370
    25
100
AcDbPolyline
 90
      102
 70
   128
 43
0.0
 10
31.242343001
 20
20.6876905329
 10
31.2433660207
 20
20.6445100639
 10
31.2470394885
 20
20.595202394
 10
31.2533806944
 20
20.5459850929
 10
31.2623834424
 20
20.49690625
 10
31.2740389361
 20
20.4480138195
 10
31.2883357872
 20
20.3993555734
 10
31.3052600263
 20
20.3509790551
 10
31.3247951171
 20
20.3029315325
 10
31.346921972
 20
20.255259952
 10
31.3716189714
 20
20.2080108929
 10
31.3988619842
 20
20.1612305214
 10
31.4286243915
 20
20.114964546
 10
31.460877113
 20
20.0692581725
 10
31.4955886352
 20
20.0241560598
 10
31.5327250417
 20
19.9797022766
 10
31.5722500474
 20
19.935940258
 10
31.6141250328
 20
19.8929127631
 10
31.6583090825
 20
19.8506618335
 10
31.704759025
 20
19.8092287519
 10
31.7534294748
 20
19.768654002
 10
31.8042728767
 20
19.7289772287
 10
31.8572395524
 20
19.6902371995
 10
31.912277749
 20
19.6524717669
 10
31.9693336894
 20
19.6157178308
 10
32.0283516251
 20
19.5800113029
 10
32.0892738907
 20
19.5453870716
 10
32.15204096
 20
19.5118789676
 10
32.2165915041
 20
19.4795197312
 10
32.2828624518
 20
19.4483409802
 10
32.3507890506
 20
19.4183731787
 10
32.4203049306
 20
19.389645608
 10
32.4913421688
 20
19.3621863372
 10
32.5638313558
 20
19.3360221964
 10
32.6377016636
 20
19.3111787502
 10
32.7128809146
 20
19.2876802727
 10
32.7892956522
 20
19.265549724
 10
32.8668712129
 20
19.2448087274
 10
32.9455317986
 20
19.2254775488
 10
33.0252005514
 20
19.2075750762
 10
33.1057996281
 20
19.1911188019
 10
33.1872502766
 20
19.1761248051
 10
33.2694729127
 20
19.1626077362
 10
33.3523871979
 20
19.1505808025
 10
33.4359121179
 20
19.1400557554
 10
33.5199660618
 20
19.1310428787
 10
33.6044669017
 20
19.1235509787
 10
33.6893320732
 20
19.1175873757
 10
33.7744786558
 20
19.1131578967
 10
33.8598234541
 20
19.1102668696
 10
33.9452830789
 20
19.1089171191
 10
34.030774029
 20
19.1091099642
 10
34.1162127725
 20
19.1108452163
 10
34.2015158284
 20
19.11412118
 10
34.2865998484
 20
19.1189346544
 10
34.3713816983
 20
19.1252809363
 10
34.455778539
 20
19.1331538249
 10
34.5397079076
 20
19.1425456277
 10
34.6230877979
 20
19.1534471681
 10
34.7058367409
 20
19.1658477944
 10
34.7878738837
 20
19.17973539
 10
34.8691190691
 20
19.1950963857
 10
34.9494929136
 20
19.2119157725
 10
35.0289168853
 20
19.2301771163
 10
35.10731338
 20
19.2498625744
 10
35.1846057979
 20
19.2709529123
 10
35.2607186177
 20
19.293427523
 10
35.3355774707
 20
19.3172644469
 10
35.4091092134
 20
19.3424403932
 10
35.4812419991
 20
19.3689307631
 10
35.551905348
 20
19.396709673
 10
35.6210302159
 20
19.4257499808
 10
35.688549062
 20
19.4560233114
 10
35.7543959147
 20
19.4875000854
 10
35.8185064361
 20
19.5201495472
 10
35.8808179846
 20
19.5539397956
 10
35.9412696766
 20
19.5888378146
 10
35.9998024458
 20
19.6248095059
 10
36.0563591005
 20
19.6618197221
 10
36.1108843802
 20
19.699832301
 10
36.1633250091
 20
19.7388101012
 10
36.2136297482
 20
19.7787150381
 10
36.2617494455
 20
19.8195081211
 10
36.307637084
 20
19.8611494919
 10
36.3512478276
 20
19.9035984634
 10
36.3925390648
 20
19.9468135594
 10
36.4314704507
 20
19.990752555
 10
36.468003946
 20
20.0353725181
 10
36.5021038543
 20
20.0806298512
 10
36.5337368571
 20
20.126480334
 10
36.5628720464
 20
20.1728791669
 10
36.5894809546
 20
20.2197810141
 10
36.6135375824
 20
20.2671400485
 10
36.6350184247
 20
20.3149099965
 10
36.6539024926
 20
20.3630441826
 10
36.670171335
 20
20.4114955758
 10
36.6838090557
 20
20.4602168348
 10
36.6948023296
 20
20.509160355
 10
36.7031404153
 20
20.5582783143
 10
36.7088151657
 20
20.6075227202
 10
36.7118210363
 20
20.656845457
 10
36.712343001
 20
20.6876905329
  0
LWPOLYLINE
  5
1A2
330
1F
100
AcDbEntity
  8
0
  6
Continuous
 62
     7
370
    25
100
AcDbPolyline
 90
      102
 70
   128
 43
0.0
 10
31.242343001
 20
15.9435884158
 10
31.2433660207
 20
15.9004079469
 10
31.2470394885
 20
15.851100277
 10
31.2533806944
 20
15.8018829758
 10
31.2623834424
 20
15.7528041329
 10
31.2740389361
 20
15.7039117024
 10
31.2883357872
 20
15.6552534564
 10
31.3052600263
 20
15.6068769381
 10
31.3247951171
 20
15.5588294154
 10
31.346921972
 20
15.5111578349
 10
31.3716189714
 20
15.4639087758
 10
31.3988619842
 20
15.4171284043
 10
31.4286243915
 20
15.370862429
 10
31.460877113
 20
15.3251560555
 10
31.4955886352
 20
15.2800539428
 10
31.5327250417
 20
15.2356001596
 10
31.5722500474
 20
15.1918381409
 10
31.6141250328
 20
15.148810646
 10
31.6583090825
 20
15.1065597164
 10
31.704759025
 20
15.0651266348
 10
31.7534294748
 20
15.0245518849
 10
31.8042728767
 20
14.9848751116
 10
31.8572395524
 20
14.9461350825
 10
31.912277749
 20
14.9083696499
 10
31.9693336894
 20
14.8716157138
 10
32.0283516251
 20
14.8359091859
 10
32.0892738907
 20
14.8012849545
 10
32.15204096
 20
14.7677768506
 10
32.2165915041
 20
14.7354176142
 10
32.2828624518
 20
14.7042388631
 10
32.3507890506
 20
14.6742710617
 10
32.4203049306
 20
14.6455434909
 10
32.4913421688
 20
14.6180842201
 10
32.5638313558
 20
14.5919200793
 10
32.6377016636
 20
14.5670766331
 10
32.7128809146
 20
14.5435781557
 10
32.7892956522
 20
14.5214476069
 10
32.8668712129
 20
14.5007066104
 10
32.9455317986
 20
14.4813754317
 10
33.0252005514
 20
14.4634729591
 10
33.1057996281
 20
14.4470166848
 10
33.1872502766
 20
14.432022688
 10
33.2694729127
 20
14.4185056191
 10
33.3523871979
 20
14.4064786855
 10
33.4359121179
 20
14.3959536383
 10
33.5199660618
 20
14.3869407616
 10
33.6044669017
 20
14.3794488617
 10
33.6893320732
 20
14.3734852587
 10
33.7744786558
 20
14.3690557796
 10
33.8598234541
 20
14.3661647525
 10
33.9452830789
 20
14.3648150021
 10
34.030774029
 20
14.3650078471
 10
34.1162127725
 20
14.3667430992
 10
34.2015158284
 20
14.3700190629
 10
34.2865998484
 20
14.3748325374
 10
34.3713816983
 20
14.3811788193
 10
34.455778539
 20
14.3890517079
 10
34.5397079076
 20
14.3984435107
 10
34.6230877979
 20
14.4093450511
 10
34.7058367409
 20
14.4217456773
 10
34.7878738837
 20
14.435633273
 10
34.8691190691
 20
14.4509942687
 10
34.9494929136
 20
14.4678136554
 10
35.0289168853
 20
14.4860749993
 10
35.10731338
 20
14.5057604573
 10
35.1846057979
 20
14.5268507952
 10
35.2607186177
 20
14.5493254059
 10
35.3355774707
 20
14.5731623298
 10
35.4091092134
 20
14.5983382762
 10
35.4812419991
 20
14.624828646
 10
35.551905348
 20
14.652607556
 10
35.6210302159
 20
14.6816478637
 10
35.688549062
 20
14.7119211944
 10
35.7543959147
 20
14.7433979684
 10
35.8185064361
 20
14.7760474302
 10
35.8808179846
 20
14.8098376786
 10
35.9412696766
 20
14.8447356976
 10
35.9998024458
 20
14.8807073888
 10
36.0563591005
 20
14.917717605
 10
36.1108843802
 20
14.955730184
 10
36.1633250091
 20
14.9947079842
 10
36.2136297482
 20
15.034612921
 10
36.2617494455
 20
15.075406004
 10
36.307637084
 20
15.1170473748
 10
36.3512478276
 20
15.1594963464
 10
36.3925390648
 20
15.2027114423
 10
36.4314704507
 20
15.2466504379
 10
36.468003946
 20
15.291270401
 10
36.5021038543
 20
15.3365277341
 10
36.5337368571
 20
15.382378217
 10
36.5628720464
 20
15.4287770498
 10
36.5894809546
 20
15.475678897
 10
36.6135375824
 20
15.5230379315
 10
36.6350184247
 20
15.5708078794
 10
36.6539024926
 20
15.6189420656
 10
36.670171335
 20
15.6673934587
 10
36.6838090557
 20
15.7161147178
 10
36.6948023296
 20
15.7650582379
 10
36.7031404153
 20
15.8141761972
 10
36.7088151657
 20
15.8634206032
 10
36.7118210363
 20
15.9127433399
 10
36.712343001
 20
15.9435884158
  0
SPLINE
  5
1A3
330
1F
100
AcDbEntity
  8
0
  6
Continuous
 62
     7
370
    25
100
AcDbSpline
210
0.0
220
0.0
230
1.0
 70
    11
 71
     3
 72
    26
 73
    22
 74
     0
 42
0.00000001
 43
0.00000001
 40
0.0
 40
0.0
 40
0.0
 40
0.0
 40
0.0536750643289904
 40
0.1073496429989156
 40
0.1610368245232878
 40
0.2147322126651554
 40
0.2684139093946568
 40
0.3220813954451964
 40
0.3757563163972834
 40
0.4294487206345845
 40
0.4831413779985648
 40
0.5368166456412129
 40
0.5904840298559627
 40
0.6441653367015286
 40
0.6978606434325804
 40
0.751548178537025
 40
0.8052183088844918
 40
0.8588885589374565
 40
0.912576260413614
 40
0.9662715254958926
 40
1.0
 40
1.0
 40
1.0
 40
1.0
 10
32.09698462540844
 20
19.38805483971719
 30
0.0
 10
32.09638401936356
 20
19.38152058790005
 30
0.0
 10
32.09518281270815
 20
19.36845214338852
 30
0.0
 10
32.08584683398811
 20
19.3553120190023
 30
0.0
 10
32.07217922572059
 20
19.34902025006472
 30
0.0
 10
32.0552444758177
 20
19.3506416026874
 30
0.0
 10
32.03716318713123
 20
19.35994623391617
 30
0.0
 10
32.0199442210005
 20
19.3759078614258
 30
0.0
 10
32.00549005136536
 20
19.39669661481096
 30
0.0
 10
31.9953459010881
 20
19.41993033884055
 30
0.0
 10
31.99058029901359
 20
19.44294243407458
 30
0.0
 10
31.99168679365343
 20
19.46310862792142
 30
0.0
 10
31.99854813966531
 20
19.47816413383856
 30
0.0
 10
32.01045244614931
 20
19.48645097011291
 30
0.0
 10
32.02614434057974
 20
19.48708110502765
 30
0.0
 10
32.04392554983488
 20
19.48002005365265
 30
0.0
 10
32.06180602633849
 20
19.46608793187432
 30
0.0
 10
32.07777426380669
 20
19.44681972219296
 30
0.0
 10
32.08984685564369
 20
19.42441422019433
 30
0.0
 10
32.09611986831484
 20
19.40396396626797
 30
0.0
 10
32.09674387918847
 20
19.39248390090504
 30
0.0
 10
32.09698462540844
 20
19.38805483971719
 30
0.0
  0
SPLINE
  5
1A4
330
1F
100
AcDbEntity
  8
0
  6
Continuous
 62
     7
370
    25
100
AcDbSpline
210
0.0
220
0.0
230
1.0
 70
    11
 71
     3
 72
    26
 73
    22
 74
     0
 42
0.00000001
 43
0.00000001
 40
0.0
 40
0.0
 40
0.0
 40
0.0
 40
0.0536750643289457
 40
0.1073496429989167
 40
0.1610368245232597
 40
0.2147322126651569
 40
0.2684139093946633
 40
0.3220813954451678
 40
0.3757563163972509
 40
0.4294487206345591
 40
0.4831413779985649
 40
0.5368166456411854
 40
0.5904840298559327
 40
0.6441653367015142
 40
0.6978606434325704
 40
0.7515481785370083
 40
0.8052183088844918
 40
0.8588885589374357
 40
0.9125762604136229
 40
0.9662715254958639
 40
1.0
 40
1.0
 40
1.0
 40
1.0
 10
36.6375099895087
 20
20.16777895866654
 30
0.0
 10
36.63731861075589
 20
20.16045280786491
 30
0.0
 10
36.63693585498189
 20
20.14580057254963
 30
0.0
 10
36.63391418136988
 20
20.12030413480867
 30
0.0
 10
36.62935077320746
 20
20.09578332480979
 30
0.0
 10
36.62346774366637
 20
20.07458937034239
 30
0.0
 10
36.61689629584191
 20
20.05924393623562
 30
0.0
 10
36.61035317050515
 20
20.05144604694981
 30
0.0
 10
36.60463959731749
 20
20.05206924272911
 30
0.0
 10
36.60050644536603
 20
20.06102721150542
 30
0.0
 10
36.59852901575542
 20
20.07729700567585
 30
0.0
 10
36.59899019249322
 20
20.0990307010399
 30
0.0
 10
36.60182228424276
 20
20.12377859441428
 30
0.0
 10
36.60662425023923
 20
20.14876989300965
 30
0.0
 10
36.61274184399743
 20
20.17120715300959
 30
0.0
 10
36.61938940997412
 20
20.18857222995774
 30
0.0
 10
36.6257779972394
 20
20.19890654234466
 30
0.0
 10
36.63123850283936
 20
20.20106475388256
 30
0.0
 10
36.63521800368578
 20
20.19470960528965
 30
0.0
 10
36.63723359774099
 20
20.18254706000188
 30
0.0
 10
36.63743304272931
 20
20.17189036127773
 30
0.0
 10
36.63750998950869
 20
20.16777895866654
 30
0.0
  0
ARC
  5
1A5
330
1F
100
AcDbEntity
  8
0
  6
Continuous
 62
     7
370
    25
100
AcDbCircle
 10
36.928396469
 20
23.0723439865
 30
0.0
 40
0.2250891987558039
100
AcDbArc
 50
300.1113312152
 51
318.9406724026
  0
LWPOLYLINE
  5
1A6
330
1F
100
AcDbEntity
  8
0
  6
Continuous
 62
     7
370
    25
100
AcDbPolyline
 90
      102
 70
   128
 43
0.0
 10
31.242343001
 20
23.0425942344
 10
31.2428649658
 20
23.0117491585
 10
31.2458708363
 20
22.9624264217
 10
31.2515455868
 20
22.9131820157
 10
31.2598836725
 20
22.8640640565
 10
31.2708769464
 20
22.8151205363
 10
31.2845146671
 20
22.7663992773
 10
31.3007835095
 20
22.7179478841
 10
31.3196675774
 20
22.669813698
 10
31.3411484196
 20
22.62204375
 10
31.3652050475
 20
22.5746847155
 10
31.3918139557
 20
22.5277828683
 10
31.4209491449
 20
22.4813840355
 10
31.4525821478
 20
22.4355335526
 10
31.4866820561
 20
22.3902762195
 10
31.5232155514
 20
22.3456562564
 10
31.5621469373
 20
22.3017172609
 10
31.6034381745
 20
22.2585021649
 10
31.6470489181
 20
22.2160531934
 10
31.6929365566
 20
22.1744118225
 10
31.7410562539
 20
22.1336187396
 10
31.791360993
 20
22.0937138027
 10
31.8438016218
 20
22.0547360025
 10
31.8983269016
 20
22.0167234235
 10
31.9548835563
 20
21.9797132074
 10
32.0134163255
 20
21.9437415161
 10
32.0738680175
 20
21.9088434971
 10
32.136179566
 20
21.8750532487
 10
32.2002900873
 20
21.8424037869
 10
32.26613694
 20
21.8109270129
 10
32.3336557862
 20
21.7806536822
 10
32.4027806541
 20
21.7516133745
 10
32.473444003
 20
21.7238344645
 10
32.5455767887
 20
21.6973440947
 10
32.6191085314
 20
21.6721681483
 10
32.6939673844
 20
21.6483312245
 10
32.7700802041
 20
21.6258566138
 10
32.847372622
 20
21.6047662759
 10
32.9257691168
 20
21.5850808178
 10
33.0051930885
 20
21.566819474
 10
33.085566933
 20
21.5500000872
 10
33.1668121184
 20
21.5346390915
 10
33.2488492612
 20
21.5207514958
 10
33.3315982041
 20
21.5083508696
 10
33.4149780945
 20
21.4974493292
 10
33.4989074631
 20
21.4880575264
 10
33.5833043037
 20
21.4801846378
 10
33.6680861536
 20
21.4738383559
 10
33.7531701737
 20
21.4690248815
 10
33.8384732296
 20
21.4657489178
 10
33.9239119731
 20
21.4640136656
 10
34.0094029232
 20
21.4638208206
 10
34.094862548
 20
21.465170571
 10
34.1802073463
 20
21.4680615982
 10
34.2653539289
 20
21.4724910772
 10
34.3502191004
 20
21.4784546802
 10
34.4347199403
 20
21.4859465802
 10
34.5187738842
 20
21.4949594569
 10
34.6022988042
 20
21.505484504
 10
34.6852130894
 20
21.5175114377
 10
34.7674357255
 20
21.5310285066
 10
34.848886374
 20
21.5460225034
 10
34.9294854507
 20
21.5624787777
 10
35.0091542035
 20
21.5803812502
 10
35.0878147892
 20
21.5997124289
 10
35.1653903499
 20
21.6204534255
 10
35.2418050875
 20
21.6425839742
 10
35.3169843385
 20
21.6660824517
 10
35.3908546463
 20
21.6909258979
 10
35.4633438333
 20
21.7170900387
 10
35.5343810715
 20
21.7445493095
 10
35.6038969515
 20
21.7732768802
 10
35.6718235503
 20
21.8032446817
 10
35.738094498
 20
21.8344234327
 10
35.8026450421
 20
21.8667826691
 10
35.8654121113
 20
21.9002907731
 10
35.926334377
 20
21.9349150044
 10
35.9853523127
 20
21.9706215323
 10
36.0424082531
 20
22.0073754684
 10
36.0974464497
 20
22.045140901
 10
36.1504131253
 20
22.0838809301
 10
36.2012565272
 20
22.1235577034
 10
36.249926977
 20
22.1641324534
 10
36.2963769196
 20
22.205565535
 10
36.3405609693
 20
22.2478164646
 10
36.3824359547
 20
22.2908439595
 10
36.4219609603
 20
22.3346059781
 10
36.4590973669
 20
22.3790597613
 10
36.493808889
 20
22.424161874
 10
36.5260616106
 20
22.4698682475
 10
36.5558240179
 20
22.5161342229
 10
36.5830670306
 20
22.5629145943
 10
36.60776403
 20
22.6101636535
 10
36.629890885
 20
22.6578352339
 10
36.6494259758
 20
22.7058827566
 10
36.6663502149
 20
22.7542592749
 10
36.680647066
 20
22.8029175209
 10
36.6923025597
 20
22.8518099514
 10
36.7013053077
 20
22.9008887944
 10
36.7076465136
 20
22.9501060955
 10
36.7113199814
 20
22.9994137654
 10
36.712343001
 20
23.0425942344
  0
LWPOLYLINE
  5
1A7
330
1F
100
AcDbEntity
  8
0
  6
Continuous
 62
     7
370
    25
100
AcDbPolyline
 90
       27
 70
   128
 43
0.0
 10
32.0434059545
 20
19.57125244
 10
31.9839064565
 20
19.6066916237
 10
31.926354715
 20
19.6431870351
 10
31.8708069629
 20
19.680703015
 10
31.8173174753
 20
19.7192029071
 10
31.7659385157
 20
19.7586490937
 10
31.7167202858
 20
19.7990030326
 10
31.6697108761
 20
19.8402252945
 10
31.6249562186
 20
19.8822756018
 10
31.5825000424
 20
19.9251128678
 10
31.542383831
 20
19.9686952369
 10
31.5046467811
 20
20.0129801253
 10
31.4693257651
 20
20.057924263
 10
31.4364552946
 20
20.1034837358
 10
31.4060674868
 20
20.1496140281
 10
31.3781920333
 20
20.1962700669
 10
31.3528561707
 20
20.2434062651
 10
31.3300846543
 20
20.2909765666
 10
31.3098997338
 20
20.3389344914
 10
31.2923211315
 20
20.3872331804
 10
31.2773660233
 20
20.4358254417
 10
31.2650490215
 20
20.4846637966
 10
31.255382161
 20
20.5337005258
 10
31.2483748871
 20
20.5828877163
 10
31.2440340463
 20
20.6321773081
 10
31.2423638803
 20
20.6815211409
 10
31.242343001
 20
20.6876905329
  0
LWPOLYLINE
  5
1A8
330
1F
100
AcDbEntity
  8
0
  6
Continuous
 62
     7
370
    25
100
AcDbPolyline
 90
       77
 70
   128
 43
0.0
 10
36.712343001
 20
20.6876905329
 10
36.7121550899
 20
20.6691827338
 10
36.7098170002
 20
20.6198479425
 10
36.7048090517
 20
20.5705794392
 10
36.6971361376
 20
20.5214253633
 10
36.6868057549
 20
20.4724337426
 10
36.6738279974
 20
20.423652446
 10
36.6582155453
 20
20.3751291371
 10
36.6399836535
 20
20.3269112271
 10
36.6191501359
 20
20.2790458291
 10
36.5957353488
 20
20.2315797116
 10
36.5697621703
 20
20.1845592531
 10
36.5412559784
 20
20.1380303965
 10
36.5102446262
 20
20.0920386045
 10
36.4767584142
 20
20.0466288149
 10
36.4408300615
 20
20.001845397
 10
36.402494673
 20
19.957732108
 10
36.3617897056
 20
19.9143320502
 10
36.3187549317
 20
19.8716876292
 10
36.2734323997
 20
19.8298405123
 10
36.2258663937
 20
19.7888315876
 10
36.1761033896
 20
19.7487009242
 10
36.1241920102
 20
19.7094877334
 10
36.0701829773
 20
19.6712303297
 10
36.0141290622
 20
19.6339660937
 10
35.9560850344
 20
19.5977314359
 10
35.8961076079
 20
19.5625617606
 10
35.8342553857
 20
19.5284914315
 10
35.7705888025
 20
19.4955537382
 10
35.7051700662
 20
19.4637808636
 10
35.6380630963
 20
19.4332038526
 10
35.5693334621
 20
19.4038525815
 10
35.4990483181
 20
19.3757557289
 10
35.4272763391
 20
19.3489407478
 10
35.3540876522
 20
19.3234338388
 10
35.279553769
 20
19.2992599243
 10
35.2037475155
 20
19.2764426242
 10
35.1267429608
 20
19.255004233
 10
35.0486153448
 20
19.2349656979
 10
34.969441005
 20
19.216346598
 10
34.8892973012
 20
19.199165126
 10
34.8082625408
 20
19.1834380695
 10
34.7264159015
 20
19.1691807952
 10
34.6438373545
 20
19.1564072337
 10
34.5606075859
 20
19.1451298659
 10
34.4768079184
 20
19.1353597106
 10
34.3925202314
 20
19.1271063142
 10
34.3078268809
 20
19.1203777409
 10
34.2228106197
 20
19.115180565
 10
34.1375545159
 20
19.1115198648
 10
34.0521418717
 20
19.109399217
 10
33.9666561428
 20
19.1088206936
 10
33.8811808558
 20
19.10978486
 10
33.7957995274
 20
19.112290774
 10
33.7105955823
 20
19.1163359872
 10
33.6256522721
 20
19.121916547
 10
33.5410525936
 20
19.1290270007
 10
33.4568792078
 20
19.1376604009
 10
33.3732143592
 20
19.147808312
 10
33.2901397956
 20
19.1594608186
 10
33.2077366877
 20
19.1726065352
 10
33.1260855505
 20
19.1872326174
 10
33.045266164
 20
19.2033247741
 10
32.9653574956
 20
19.2208672821
 10
32.8864376229
 20
19.2398430008
 10
32.8085836573
 20
19.2602333894
 10
32.7318716686
 20
19.2820185246
 10
32.656376611
 20
19.3051771205
 10
32.5821722496
 20
19.3296865493
 10
32.5093310884
 20
19.3555228631
 10
32.4379242992
 20
19.3826608177
 10
32.3680216527
 20
19.411073897
 10
32.2996914496
 20
19.4407343391
 10
32.2330004544
 20
19.471613163
 10
32.1680138297
 20
19.5036801977
 10
32.104795073
 20
19.5369041109
 10
32.0434059545
 20
19.57125244
  0
ARC
  5
1A9
330
1F
100
AcDbEntity
  8
0
  6
Continuous
 62
     7
370
    25
100
AcDbCircle
 10
36.174087504
 20
23.1331944071
 30
0.0
 40
1.003892659473776
100
AcDbArc
 50
2.5305543178
 51
57.5768174541
  0
ARC
  5
1AA
330
1F
100
AcDbEntity
  8
0
  6
Continuous
 62
     7
370
    25
100
AcDbCircle
 10
36.8016937997
 20
23.1557154149
 30
0.0
 40
0.3759401618637908
100
AcDbArc
 50
322.0450157708
 51
3.3247890235
  0
LINE
  5
1AB
330
1F
100
AcDbEntity
  8
0
  6
Continuous
 62
     7
370
    25
100
AcDbLine
 10
20.180541909
 20
2.8870111945
 30
0.0
 11
20.180541909
 21
9.6370111945
 31
0.0
  0
LINE
  5
1AC
330
1F
100
AcDbEntity
  8
0
  6
Continuous
 62
     7
370
    25
100
AcDbLine
 10
14.710541909
 20
9.6370111945
 30
0.0
 11
14.710541909
 21
2.8870111945
 31
0.0
  0
ARC
  5
1AD
330
1F
100
AcDbEntity
  8
0
  6
Continuous
 62
     7
370
    25
100
AcDbCircle
 10
14.740541909
 20
9.6370111945
 30
0.0
 40
0.0300000000000029
100
AcDbArc
 50
90.0
 51
180.0
  0
ARC
  5
1AE
330
1F
100
AcDbEntity
  8
0
  6
Continuous
 62
     7
370
    25
100
AcDbCircle
 10
20.150541909
 20
9.6370111945
 30
0.0
 40
0.0300000000000011
100
AcDbArc
 50
0.0
 51
90.0
  0
ARC
  5
1AF
330
1F
100
AcDbEntity
  8
0
  6
Continuous
 62
     7
370
    25
100
AcDbCircle
 10
20.150541909
 20
2.8870111945
 30
0.0
 40
0.0300000000000011
100
AcDbArc
 50
270.0
 51
0.0
  0
ARC
  5
1B0
330
1F
100
AcDbEntity
  8
0
  6
Continuous
 62
     7
370
    25
100
AcDbCircle
 10
14.740541909
 20
2.8870111945
 30
0.0
 40
0.0300000000000029
100
AcDbArc
 50
180.0
 51
270.0
  0
SPLINE
  5
1B1
330
1F
100
AcDbEntity
  8
0
  6
Continuous
 62
     7
370
    25
100
AcDbSpline
210
0.0
220
0.0
230
1.0
 70
    11
 71
     3
 72
    58
 73
    54
 74
     0
 42
0.00000001
 43
0.00000001
 40
0.0
 40
0.0
 40
0.0
 40
0.0
 40
0.0312499999999998
 40
0.0312499999999998
 40
0.0624999999999996
 40
0.0624999999999996
 40
0.0937499999999994
 40
0.0937499999999994
 40
0.1249999999999992
 40
0.1249999999999992
 40
0.187499999999999
 40
0.187499999999999
 40
0.2499999999999988
 40
0.2499999999999988
 40
0.2812499999999987
 40
0.2812499999999987
 40
0.3124999999999986
 40
0.3124999999999986
 40
0.3437499999999985
 40
0.3437499999999985
 40
0.3749999999999984
 40
0.3749999999999984
 40
0.4062499999999983
 40
0.4062499999999983
 40
0.4374999999999982
 40
0.4374999999999982
 40
0.4687499999999982
 40
0.4687499999999982
 40
0.499999999999998
 40
0.499999999999998
 40
0.562499999999998
 40
0.562499999999998
 40
0.6249999999999982
 40
0.6249999999999982
 40
0.6562499999999983
 40
0.6562499999999983
 40
0.6874999999999984
 40
0.6874999999999984
 40
0.7187499999999986
 40
0.7187499999999986
 40
0.7499999999999987
 40
0.7499999999999987
 40
0.812499999999999
 40
0.812499999999999
 40
0.8437499999999991
 40
0.8437499999999991
 40
0.8749999999999992
 40
0.8749999999999992
 40
0.9062499999999993
 40
0.9062499999999993
 40
0.9374999999999996
 40
0.9374999999999996
 40
1.0
 40
1.0
 40
1.0
 40
1.0
 10
17.37079190902935
 20
3.044511194528988
 30
0.0
 10
17.37079190902935
 20
3.049449789367683
 30
0.0
 10
17.37127652372156
 20
3.054305810935201
 30
0.0
 10
17.37317530079588
 20
3.063859475544197
 30
0.0
 10
17.37461251241006
 20
3.068606602400267
 30
0.0
 10
17.3783645511744
 20
3.077658903000124
 30
0.0
 10
17.38066054963263
 20
3.081952258163798
 30
0.0
 10
17.38608499529233
 20
3.090077623532593
 30
0.0
 10
17.38924218321634
 20
3.093924557049802
 30
0.0
 10
17.39958703673353
 20
3.104267535625225
 30
0.0
 10
17.40792611147484
 20
3.109836635795238
 30
0.0
 10
17.42591507921933
 20
3.117292710409744
 30
0.0
 10
17.4357518900588
 20
3.119255995482992
 30
0.0
 10
17.45037725268334
 20
3.119263778176794
 30
0.0
 10
17.45532896120606
 20
3.118778705392845
 30
0.0
 10
17.46491607987836
 20
3.116872033828544
 30
0.0
 10
17.4695757852666
 20
3.115461260031024
 30
0.0
 10
17.47862601273435
 20
3.111719684199322
 30
0.0
 10
17.48300391899496
 20
3.109379405573901
 30
0.0
 10
17.49110514441984
 20
3.103969403176593
 30
0.0
 10
17.49488098048943
 20
3.100881032713297
 30
0.0
 10
17.50186164409655
 20
3.093907450170775
 30
0.0
 10
17.50496131837242
 20
3.090124856062668
 30
0.0
 10
17.51037668719912
 20
3.082030840914129
 30
0.0
 10
17.51271705480293
 20
3.07766385065714
 30
0.0
 10
17.51647177769506
 20
3.068605852632384
 30
0.0
 10
17.51788605730517
 20
3.063946455406915
 30
0.0
 10
17.51979963235292
 20
3.054369981571375
 30
0.0
 10
17.52029017483615
 20
3.049415969332985
 30
0.0
 10
17.52029536332257
 20
3.034781148319456
 30
0.0
 10
17.51834057135099
 20
3.024947838741138
 30
0.0
 10
17.51089974666329
 20
3.006951599412466
 30
0.0
 10
17.50533474339596
 20
2.998604986515164
 30
0.0
 10
17.49500671455733
 20
2.98825690017709
 30
0.0
 10
17.4911661300474
 20
2.985098231318129
 30
0.0
 10
17.48303791565265
 20
2.979661219754092
 30
0.0
 10
17.47874667134167
 20
2.977362446229491
 30
0.0
 10
17.46970867892783
 20
2.973606484734215
 30
0.0
 10
17.4649550487461
 20
2.97216184106682
 30
0.0
 10
17.45539962763307
 20
2.970254044543377
 30
0.0
 10
17.45054736441383
 20
2.969766242796251
 30
0.0
 10
17.4357588955159
 20
2.969751213796405
 30
0.0
 10
17.42605345608846
 20
2.971682360124468
 30
0.0
 10
17.41245170456001
 20
2.97730501941937
 30
0.0
 10
17.40815576684092
 20
2.979598485293964
 30
0.0
 10
17.40003244393398
 20
2.985011009363754
 30
0.0
 10
17.39618100404763
 20
2.988165176269124
 30
0.0
 10
17.38927474369685
 20
2.995060422848451
 30
0.0
 10
17.3861790185832
 20
2.998819898772043
 30
0.0
 10
17.38071471367907
 20
3.006973453346459
 30
0.0
 10
17.37838135634465
 20
3.011333993006144
 30
0.0
 10
17.37277709863384
 20
3.024822085374109
 30
0.0
 10
17.37079190902935
 20
3.034634004851597
 30
0.0
 10
17.37079190902935
 20
3.044511194528988
 30
0.0
  0
LINE
  5
1B2
330
1F
100
AcDbEntity
  8
0
  6
Continuous
 62
     7
370
    25
100
AcDbLine
 10
14.740541909
 20
9.6670111945
 30
0.0
 11
20.150541909
 21
9.6670111945
 31
0.0
  0
LINE
  5
1B3
330
1F
100
AcDbEntity
  8
0
  6
Continuous
 62
     7
370
    25
100
AcDbLine
 10
20.150541909
 20
2.8570111945
 30
0.0
 11
14.740541909
 21
2.8570111945
 31
0.0
  0
LINE
  5
1B4
330
1F
100
AcDbEntity
  8
0
  6
Continuous
 62
     7
370
    25
100
AcDbLine
 10
14.710541909
 20
2.8870111945
 30
0.0
 11
20.180541909
 21
2.8870111945
 31
0.0
  0
LINE
  5
1B5
330
1F
100
AcDbEntity
  8
0
  6
Continuous
 62
     7
370
    25
100
AcDbLine
 10
20.180541909
 20
9.6370111945
 30
0.0
 11
14.710541909
 21
9.6370111945
 31
0.0
  0
INSERT
  5
1B6
330
1F
100
AcDbEntity
  8
0
  6
Continuous
 62
     7
100
AcDbBlockReference
  2
Block2
 10
16.4913148174
 20
0.9432532117
 30
0.0
 41
0.5
 42
0.5
 43
0.5
 50
360.0
  0
DIMENSION
  5
1B7
330
1F
100
AcDbEntity
  8
0
  6
Continuous
 62
     7
370
    18
100
AcDbDimension
  2
_D_5
 10
12.5987038003
 20
2.8570111945
 30
0.0
 11
12.5987038003
 21
6.2620111945
 31
0.0
 70
   160
  1
<>
 71
     2
 42
-1.0
  3
SLDDIMSTYLE1
100
AcDbAlignedDimension
 13
14.740541909
 23
9.6670111945
 33
0.0
 14
14.740541909
 24
2.8570111945
 34
0.0
 50
90.0
100
AcDbRotatedDimension
  0
LINE
  5
1CB
330
1F
100
AcDbEntity
  8
0
  6
Continuous
 62
     7
370
    25
100
AcDbLine
 10
29.5837702368
 20
3.0986779847
 30
0.0
 11
29.5837702368
 21
8.646667066
 31
0.0
  0
LINE
  5
1CC
330
1F
100
AcDbEntity
  8
0
  6
Continuous
 62
     7
370
    25
100
AcDbLine
 10
29.5837702368
 20
2.836667066
 30
0.0
 11
29.5837702368
 21
2.9494784439
 31
0.0
  0
LINE
  5
1CD
330
1F
100
AcDbEntity
  8
0
  6
Continuous
 62
     7
370
    25
100
AcDbLine
 10
24.1137702368
 20
8.646667066
 30
0.0
 11
24.1137702368
 21
2.836667066
 31
0.0
  0
LINE
  5
1CE
330
1F
100
AcDbEntity
  8
0
  6
Continuous
 62
     7
370
    25
100
AcDbLine
 10
29.5837702368
 20
2.836667066
 30
0.0
 11
24.1137702368
 21
2.836667066
 31
0.0
  0
SPLINE
  5
1CF
330
1F
100
AcDbEntity
  8
0
  6
Continuous
 62
     7
370
    25
100
AcDbSpline
210
0.0
220
0.0
230
1.0
 70
     8
 71
     3
 72
    17
 73
    13
 74
     0
 42
0.00000001
 43
0.00000001
 40
0.0
 40
0.0
 40
0.0
 40
0.0
 40
0.1058211910947587
 40
0.2147119031332243
 40
0.3205328939303277
 40
0.4294213384996949
 40
0.5352670673468292
 40
0.6441813243452741
 40
0.7500423319016197
 40
0.8589747864215187
 40
0.964808720174721
 40
1.0
 40
1.0
 40
1.0
 40
1.0
 10
29.58274855369513
 20
3.024167065963114
 30
0.0
 10
29.58275404724023
 20
3.02830892664362
 30
0.0
 10
29.58276519367993
 20
3.036712789613066
 30
0.0
 10
29.58285249708479
 20
3.048909018133673
 30
0.0
 10
29.5829824289898
 20
3.060511036811682
 30
0.0
 10
29.58314343670729
 20
3.070981547737629
 30
0.0
 10
29.58331870041228
 20
3.080216528637189
 30
0.0
 10
29.58348565656409
 20
3.087774799650206
 30
0.0
 10
29.58362947368757
 20
3.093629277276523
 30
0.0
 10
29.58372645809263
 20
3.097315264079844
 30
0.0
 10
29.58377288988786
 20
3.099014498876737
 30
0.0
 10
29.58376555037769
 20
3.098745188198566
 30
0.0
 10
29.58376371888424
 20
3.09867798470215
 30
0.0
  0
SPLINE
  5
1D0
330
1F
100
AcDbEntity
  8
0
  6
Continuous
 62
     7
370
    25
100
AcDbSpline
210
0.0
220
0.0
230
1.0
 70
     8
 71
     3
 72
    17
 73
    13
 74
     0
 42
0.00000001
 43
0.00000001
 40
0.0
 40
0.0
 40
0.0
 40
0.0
 40
0.0065116234340065
 40
0.1123347886731917
 40
0.2212269124590996
 40
0.3270510546335791
 40
0.435942169018648
 40
0.5418003731779306
 40
0.6507275374967111
 40
0.7565997595270436
 40
0.8655438077133905
 40
1.0
 40
1.0
 40
1.0
 40
1.0
 10
29.58376856942789
 20
2.949478443919524
 30
0.0
 10
29.58376912063163
 20
2.94945815049114
 30
0.0
 10
29.583778629682
 20
2.94910805991664
 30
0.0
 10
29.58374326341065
 20
2.950400295755515
 30
0.0
 10
29.58366143589859
 20
2.953469486099859
 30
0.0
 10
29.5835269546916
 20
2.958823953944032
 30
0.0
 10
29.58336523817004
 20
2.965912114010351
 30
0.0
 10
29.58318979246026
 20
2.974743487912589
 30
0.0
 10
29.58302336924172
 20
2.984888302337762
 30
0.0
 10
29.58288346965829
 20
2.996248666697566
 30
0.0
 10
29.58277327766983
 20
3.009366053673888
 30
0.0
 10
29.58275735145853
 20
3.018900283180398
 30
0.0
 10
29.58274855369513
 20
3.024167065963114
 30
0.0
  0
SPLINE
  5
1D1
330
1F
100
AcDbEntity
  8
0
  6
Continuous
 62
     7
370
    25
100
AcDbSpline
210
0.0
220
0.0
230
1.0
 70
    11
 71
     3
 72
    44
 73
    40
 74
     0
 42
0.00000001
 43
0.00000001
 40
0.0
 40
0.0
 40
0.0
 40
0.0
 40
0.0268407075036886
 40
0.0536814436170612
 40
0.080521840016299
 40
0.1073622775571861
 40
0.1342090195496328
 40
0.1610557510294769
 40
0.1879066918425197
 40
0.2147575868473733
 40
0.2416016629618376
 40
0.2684457294808969
 40
0.2952825965407951
 40
0.3221195051029227
 40
0.3489600629385075
 40
0.3758006486318387
 40
0.402650040092611
 40
0.4294994022402084
 40
0.4563489875144727
 40
0.4831985319786929
 40
0.5100393597322489
 40
0.5368801989115163
 40
0.5637169903472941
 40
0.5905538275122073
 40
0.617397601252047
 40
0.6442413836811277
 40
0.6710922612288727
 40
0.6979430968125281
 40
0.7247901131574487
 40
0.751637102378524
 40
0.7784753233244
 40
0.8053135742610147
 40
0.8321517896325001
 40
0.8589900452760633
 40
0.8858370504679886
 40
0.9126840433799097
 40
0.9395349242133758
 40
0.9663857592584164
 40
1.0
 40
1.0
 40
1.0
 40
1.0
 10
25.41704567935169
 20
3.024167065963118
 30
0.0
 10
25.41722402148766
 20
3.028368395246295
 30
0.0
 10
25.41758070594968
 20
3.03677105829087
 30
0.0
 10
25.4203672400009
 20
3.049024482103002
 30
0.0
 10
25.42477430769993
 20
3.060557668014505
 30
0.0
 10
25.43078297743248
 20
3.071080133777618
 30
0.0
 10
25.43824706698641
 20
3.080244657889087
 30
0.0
 10
25.44692030058079
 20
3.087851491826352
 30
0.0
 10
25.45660622618829
 20
3.093613766202435
 30
0.0
 10
25.46700018837173
 20
3.097444918451586
 30
0.0
 10
25.47783500248476
 20
3.099152757079548
 30
0.0
 10
25.48879145713488
 20
3.098776085109497
 30
0.0
 10
25.49955861588975
 20
3.096238940840687
 30
0.0
 10
25.5098416514546
 20
3.091699661718623
 30
0.0
 10
25.5193191645043
 20
3.0852051212667
 30
0.0
 10
25.52775445854151
 20
3.077013521602357
 30
0.0
 10
25.53485150427155
 20
3.067290322098957
 30
0.0
 10
25.54045964744044
 20
3.056366808915714
 30
0.0
 10
25.54434583150134
 20
3.044509895392329
 30
0.0
 10
25.54646710967419
 20
3.0320882610922
 30
0.0
 10
25.54668452182289
 20
3.019438390058467
 30
0.0
 10
25.54507037266771
 20
3.00692202841113
 30
0.0
 10
25.54159601181581
 20
2.994905956984177
 30
0.0
 10
25.53643815247947
 20
2.983702780488203
 30
0.0
 10
25.52968038598804
 20
2.973670511424501
 30
0.0
 10
25.52158104026883
 20
2.965040094293325
 30
0.0
 10
25.51232592061245
 20
2.958121651438259
 30
0.0
 10
25.5022251676383
 20
2.953039260486865
 30
0.0
 10
25.4915429958142
 20
2.950017918336483
 30
0.0
 10
25.48060372968558
 20
2.949058351095061
 30
0.0
 10
25.46971532944448
 20
2.950274248842609
 30
0.0
 10
25.4591760805666
 20
2.953543072089366
 30
0.0
 10
25.44930201315836
 20
2.958856462141182
 30
0.0
 10
25.44033253413762
 20
2.965984902465419
 30
0.0
 10
25.43256232199472
 20
2.974799016283451
 30
0.0
 10
25.42613928476296
 20
2.984986856222267
 30
0.0
 10
25.4213470217197
 20
2.996311364993682
 30
0.0
 10
25.41780001590917
 20
3.009424645027669
 30
0.0
 10
25.41731520140584
 20
3.018899645825246
 30
0.0
 10
25.41704567935169
 20
3.024167065963118
 30
0.0
  0
LINE
  5
1D2
330
1F
100
AcDbEntity
  8
0
  6
Continuous
 62
     7
370
    25
100
AcDbLine
 10
29.5837702368
 20
8.646667066
 30
0.0
 11
24.1137702368
 21
8.646667066
 31
0.0
  0
SPLINE
  5
1D3
330
1F
100
AcDbEntity
  8
0
  6
Continuous
 62
     7
370
    25
100
AcDbSpline
210
0.0
220
0.0
230
1.0
 70
     8
 71
     3
 72
    13
 73
     9
 74
     0
 42
0.00000001
 43
0.00000001
 40
0.0
 40
0.0
 40
0.0
 40
0.0
 40
0.1725501588378838
 40
0.3451001518473479
 40
0.5176504185971484
 40
0.6902008138786543
 40
0.8627522679312996
 40
0.9999999999999999
 40
0.9999999999999999
 40
0.9999999999999999
 40
0.9999999999999999
 10
25.4693707993668
 20
3.03744914248916
 30
0.0
 10
25.47023579820898
 20
3.041545889826089
 30
0.0
 10
25.47196579506203
 20
3.049739380562789
 30
0.0
 10
25.47671704245791
 20
3.061213470295586
 30
0.0
 10
25.48293997116397
 20
3.071658620608363
 30
0.0
 10
25.49059820029338
 20
3.080717797517047
 30
0.0
 10
25.49878276702624
 20
3.087840563704842
 30
0.0
 10
25.50471639900778
 20
3.091014263932191
 30
0.0
 10
25.50734512616034
 20
3.09242028169461
 30
0.0
  0
SPLINE
  5
1D4
330
1F
100
AcDbEntity
  8
0
  6
Continuous
 62
     7
370
    25
100
AcDbSpline
210
0.0
220
0.0
230
1.0
 70
     8
 71
     3
 72
    15
 73
    11
 74
     0
 42
0.00000001
 43
0.00000001
 40
0.0
 40
0.0
 40
0.0
 40
0.0
 40
0.0931511040996379
 40
0.2180193178547473
 40
0.3428881833494423
 40
0.4679194482234274
 40
0.5929507201334369
 40
0.7180603229150893
 40
0.8431694837612781
 40
1.0
 40
1.0
 40
1.0
 40
1.0
 10
25.50643558869167
 20
2.955505648370508
 30
0.0
 10
25.50397809963972
 20
2.956754977247917
 30
0.0
 10
25.49822636870835
 20
2.95967902020223
 30
0.0
 10
25.49026028802797
 20
2.966496815806267
 30
0.0
 10
25.48263671272085
 20
2.975307729053724
 30
0.0
 10
25.47648268848572
 20
2.985599604382363
 30
0.0
 10
25.47185960307244
 20
2.996955113472613
 30
0.0
 10
25.46901849198687
 20
3.009100407295193
 30
0.0
 10
25.467687875961
 20
3.022758388700813
 30
0.0
 10
25.46876926865542
 20
3.032198196696534
 30
0.0
 10
25.4693707993668
 20
3.03744914248916
 30
0.0
  0
INSERT
  5
1D5
330
1F
100
AcDbEntity
  8
0
  6
Continuous
 62
     7
100
AcDbBlockReference
  2
Block3
 10
25.7424111731
 20
1.473443195
 30
0.0
 41
0.5
 42
0.5
 43
0.5
 50
360.0
  0
DIMENSION
  5
1D6
330
1F
100
AcDbEntity
  8
0
  6
Continuous
 62
     7
370
    18
100
AcDbDimension
  2
_D_6
 10
22.1050327908
 20
8.646667066
 30
0.0
 11
22.1050327908
 21
5.741667066
 31
0.0
 70
   160
  1
<>
 71
     2
 42
-1.0
  3
SLDDIMSTYLE1
100
AcDbAlignedDimension
 13
24.1137702368
 23
2.836667066
 33
0.0
 14
24.1137702368
 24
8.646667066
 34
0.0
 50
90.0
100
AcDbRotatedDimension
  0
ARC
  5
1EA
330
1F
100
AcDbEntity
  8
0
  6
Continuous
 62
     7
370
    25
100
AcDbCircle
 10
22.1889088699
 20
20.1988469723
 30
0.0
 40
0.0199999999999995
100
AcDbArc
 50
315.0
 51
31.9651613118
  0
LINE
  5
1EB
330
1F
100
AcDbEntity
  8
0
  6
Continuous
 62
     7
370
    25
100
AcDbLine
 10
21.882232738
 20
19.8638865691
 30
0.0
 11
22.2030510055
 21
20.1847048366
 31
0.0
  0
ARC
  5
1EC
330
1F
100
AcDbEntity
  8
0
  6
Continuous
 62
     7
370
    25
100
AcDbCircle
 10
22.0148152594
 20
19.7313040476
 30
0.0
 40
0.1875000000000015
100
AcDbArc
 50
135.0
 51
315.0
  0
LINE
  5
1ED
330
1F
100
AcDbEntity
  8
0
  6
Continuous
 62
     7
370
    25
100
AcDbLine
 10
22.1473977809
 20
19.5987215261
 30
0.0
 11
22.4682160485
 21
19.9195397937
 31
0.0
  0
ARC
  5
1EE
330
1F
100
AcDbEntity
  8
0
  6
Continuous
 62
     7
370
    25
100
AcDbCircle
 10
22.4823581841
 20
19.9053976581
 30
0.0
 40
0.0199999999999995
100
AcDbArc
 50
58.0348386882
 51
135.0
  0
ARC
  5
1EF
330
1F
100
AcDbEntity
  8
0
  6
Continuous
 62
     7
370
    25
100
AcDbCircle
 10
22.969409414
 20
20.6858982022
 30
0.0
 40
0.9000000000000025
100
AcDbArc
 50
238.0348386882
 51
211.9651613118
  0
LINE
  5
1F0
330
1F
100
AcDbEntity
  8
0
  6
Continuous
 62
     7
370
    25
100
AcDbLine
 10
22.844409414
 20
22.2483982022
 30
0.0
 11
23.094409414
 21
22.2483982022
 31
0.0
  0
ARC
  5
1F1
330
1F
100
AcDbEntity
  8
0
  6
Continuous
 62
     7
370
    25
100
AcDbCircle
 10
23.094409414
 20
22.4358982022
 30
0.0
 40
0.1875000000000036
100
AcDbArc
 50
270.0
 51
90.0
  0
LINE
  5
1F2
330
1F
100
AcDbEntity
  8
0
  6
Continuous
 62
     7
370
    25
100
AcDbLine
 10
23.094409414
 20
22.6233982022
 30
0.0
 11
22.844409414
 21
22.6233982022
 31
0.0
  0
ARC
  5
1F3
330
1F
100
AcDbEntity
  8
0
  6
Continuous
 62
     7
370
    25
100
AcDbCircle
 10
22.844409414
 20
22.4358982022
 30
0.0
 40
0.1875000000000036
100
AcDbArc
 50
90.0
 51
270.0
  0
LINE
  5
1F4
330
1F
100
AcDbEntity
  8
0
  6
Continuous
 62
     7
370
    25
100
AcDbLine
 10
24.531909414
 20
20.8108982022
 30
0.0
 11
24.531909414
 21
20.5608982022
 31
0.0
  0
ARC
  5
1F5
330
1F
100
AcDbEntity
  8
0
  6
Continuous
 62
     7
370
    25
100
AcDbCircle
 10
24.719409414
 20
20.5608982022
 30
0.0
 40
0.1875
100
AcDbArc
 50
180.0
 51
0.0
  0
LINE
  5
1F6
330
1F
100
AcDbEntity
  8
0
  6
Continuous
 62
     7
370
    25
100
AcDbLine
 10
24.906909414
 20
20.5608982022
 30
0.0
 11
24.906909414
 21
20.8108982022
 31
0.0
  0
ARC
  5
1F7
330
1F
100
AcDbEntity
  8
0
  6
Continuous
 62
     7
370
    25
100
AcDbCircle
 10
24.719409414
 20
20.8108982022
 30
0.0
 40
0.1875000000000036
100
AcDbArc
 50
0.0
 51
180.0
  0
LINE
  5
1F8
330
1F
100
AcDbEntity
  8
0
  6
Continuous
 62
     7
370
    25
100
AcDbLine
 10
23.094409414
 20
19.1233982022
 30
0.0
 11
22.844409414
 21
19.1233982022
 31
0.0
  0
ARC
  5
1F9
330
1F
100
AcDbEntity
  8
0
  6
Continuous
 62
     7
370
    25
100
AcDbCircle
 10
22.844409414
 20
18.9358982022
 30
0.0
 40
0.1875
100
AcDbArc
 50
90.0
 51
270.0
  0
LINE
  5
1FA
330
1F
100
AcDbEntity
  8
0
  6
Continuous
 62
     7
370
    25
100
AcDbLine
 10
22.844409414
 20
18.7483982022
 30
0.0
 11
23.094409414
 21
18.7483982022
 31
0.0
  0
ARC
  5
1FB
330
1F
100
AcDbEntity
  8
0
  6
Continuous
 62
     7
370
    25
100
AcDbCircle
 10
23.094409414
 20
18.9358982022
 30
0.0
 40
0.1875
100
AcDbArc
 50
270.0
 51
90.0
  0
LINE
  5
1FC
330
1F
100
AcDbEntity
  8
0
  6
Continuous
 62
     7
370
    25
100
AcDbLine
 10
21.406909414
 20
20.5608982022
 30
0.0
 11
21.406909414
 21
20.8108982022
 31
0.0
  0
ARC
  5
1FD
330
1F
100
AcDbEntity
  8
0
  6
Continuous
 62
     7
370
    25
100
AcDbCircle
 10
21.219409414
 20
20.8108982022
 30
0.0
 40
0.1875
100
AcDbArc
 50
360.0
 51
180.0
  0
LINE
  5
1FE
330
1F
100
AcDbEntity
  8
0
  6
Continuous
 62
     7
370
    25
100
AcDbLine
 10
21.031909414
 20
20.8108982022
 30
0.0
 11
21.031909414
 21
20.5608982022
 31
0.0
  0
ARC
  5
1FF
330
1F
100
AcDbEntity
  8
0
  6
Continuous
 62
     7
370
    25
100
AcDbCircle
 10
21.219409414
 20
20.5608982022
 30
0.0
 40
0.1875000000000036
100
AcDbArc
 50
180.0
 51
0.0
  0
CIRCLE
  5
200
330
1F
100
AcDbEntity
  8
0
  6
Continuous
 62
     7
370
    25
100
AcDbCircle
 10
24.2068462811
 20
19.4484613351
 30
0.0
 40
0.0747499999999981
  0
CIRCLE
  5
201
330
1F
100
AcDbEntity
  8
0
  6
Continuous
 62
     7
370
    25
100
AcDbCircle
 10
21.731972547
 20
21.9233350693
 30
0.0
 40
0.0747500000000016
  0
CIRCLE
  5
202
330
1F
100
AcDbEntity
  8
0
  6
Continuous
 62
     7
370
    25
100
AcDbCircle
 10
22.969409414
 20
20.6858982022
 30
0.0
 40
2.276199999999999
  0
CIRCLE
  5
203
330
1F
100
AcDbEntity
  8
0
  6
Continuous
 62
     7
370
    25
100
AcDbCircle
 10
22.969409414
 20
20.6858982022
 30
0.0
 40
2.369999999999997
  0
LINE
  5
204
330
1F
100
AcDbEntity
  8
0
  6
Continuous
 62
     7
370
    25
100
AcDbLine
 10
24.625659414
 20
20.8108982022
 30
0.0
 11
24.625659414
 21
20.5608982022
 31
0.0
  0
ARC
  5
205
330
1F
100
AcDbEntity
  8
0
  6
Continuous
 62
     7
370
    25
100
AcDbCircle
 10
24.719409414
 20
20.5608982022
 30
0.0
 40
0.09375
100
AcDbArc
 50
180.0
 51
0.0
  0
LINE
  5
206
330
1F
100
AcDbEntity
  8
0
  6
Continuous
 62
     7
370
    25
100
AcDbLine
 10
24.813159414
 20
20.5608982022
 30
0.0
 11
24.813159414
 21
20.8108982022
 31
0.0
  0
ARC
  5
207
330
1F
100
AcDbEntity
  8
0
  6
Continuous
 62
     7
370
    25
100
AcDbCircle
 10
24.719409414
 20
20.8108982022
 30
0.0
 40
0.09375
100
AcDbArc
 50
360.0
 51
180.0
  0
LINE
  5
208
330
1F
100
AcDbEntity
  8
0
  6
Continuous
 62
     7
370
    25
100
AcDbLine
 10
22.844409414
 20
22.3421482022
 30
0.0
 11
23.094409414
 21
22.3421482022
 31
0.0
  0
ARC
  5
209
330
1F
100
AcDbEntity
  8
0
  6
Continuous
 62
     7
370
    25
100
AcDbCircle
 10
23.094409414
 20
22.4358982022
 30
0.0
 40
0.09375
100
AcDbArc
 50
270.0
 51
90.0
  0
LINE
  5
20A
330
1F
100
AcDbEntity
  8
0
  6
Continuous
 62
     7
370
    25
100
AcDbLine
 10
23.094409414
 20
22.5296482022
 30
0.0
 11
22.844409414
 21
22.5296482022
 31
0.0
  0
ARC
  5
20B
330
1F
100
AcDbEntity
  8
0
  6
Continuous
 62
     7
370
    25
100
AcDbCircle
 10
22.844409414
 20
22.4358982022
 30
0.0
 40
0.09375
100
AcDbArc
 50
90.0
 51
270.0
  0
ARC
  5
20C
330
1F
100
AcDbEntity
  8
0
  6
Continuous
 62
     7
370
    25
100
AcDbCircle
 10
22.969409414
 20
20.6858982022
 30
0.0
 40
0.9500000000000001
100
AcDbArc
 50
213.6168865176
 51
236.3831134824
  0
CIRCLE
  5
20D
330
1F
100
AcDbEntity
  8
0
  6
Continuous
 62
     7
370
    25
100
AcDbCircle
 10
22.0148152594
 20
19.7313040476
 30
0.0
 40
0.0747499999999981
  0
LINE
  5
20E
330
1F
100
AcDbEntity
  8
0
  6
Continuous
 62
     7
370
    25
100
AcDbLine
 10
23.094409414
 20
19.0296482022
 30
0.0
 11
22.844409414
 21
19.0296482022
 31
0.0
  0
LINE
  5
20F
330
1F
100
AcDbEntity
  8
0
  6
Continuous
 62
     7
370
    25
100
AcDbLine
 10
22.844409414
 20
18.8421482022
 30
0.0
 11
23.094409414
 21
18.8421482022
 31
0.0
  0
ARC
  5
210
330
1F
100
AcDbEntity
  8
0
  6
Continuous
 62
     7
370
    25
100
AcDbCircle
 10
23.094409414
 20
18.9358982022
 30
0.0
 40
0.09375
100
AcDbArc
 50
270.0
 51
90.0
  0
ARC
  5
211
330
1F
100
AcDbEntity
  8
0
  6
Continuous
 62
     7
370
    25
100
AcDbCircle
 10
22.844409414
 20
18.9358982022
 30
0.0
 40
0.0937500000000036
100
AcDbArc
 50
90.0
 51
270.0
  0
LINE
  5
212
330
1F
100
AcDbEntity
  8
0
  6
Continuous
 62
     7
370
    25
100
AcDbLine
 10
21.313159414
 20
20.5608982022
 30
0.0
 11
21.313159414
 21
20.8108982022
 31
0.0
  0
ARC
  5
213
330
1F
100
AcDbEntity
  8
0
  6
Continuous
 62
     7
370
    25
100
AcDbCircle
 10
21.219409414
 20
20.8108982022
 30
0.0
 40
0.09375
100
AcDbArc
 50
360.0
 51
180.0
  0
LINE
  5
214
330
1F
100
AcDbEntity
  8
0
  6
Continuous
 62
     7
370
    25
100
AcDbLine
 10
21.125659414
 20
20.8108982022
 30
0.0
 11
21.125659414
 21
20.5608982022
 31
0.0
  0
ARC
  5
215
330
1F
100
AcDbEntity
  8
0
  6
Continuous
 62
     7
370
    25
100
AcDbCircle
 10
21.219409414
 20
20.5608982022
 30
0.0
 40
0.09375
100
AcDbArc
 50
180.0
 51
0.0
  0
ARC
  5
216
330
1F
100
AcDbEntity
  8
0
  6
Continuous
 62
     7
370
    25
100
AcDbCircle
 10
22.969409414
 20
20.6858982022
 30
0.0
 40
0.8999999999999987
100
AcDbArc
 50
211.9651613118
 51
238.0348386882
  0
CIRCLE
  5
217
330
1F
100
AcDbEntity
  8
0
  6
Continuous
 62
     7
370
    25
100
AcDbCircle
 10
22.969409414
 20
20.6858982022
 30
0.0
 40
2.499999999999996
  0
DIMENSION
  5
218
330
1F
100
AcDbEntity
  8
0
  6
Continuous
 62
     7
370
    18
100
AcDbDimension
  2
_D_7
 10
24.719409414
 20
24.7607013518
 30
0.0
 11
27.6938188628
 21
24.7607013518
 31
0.0
 70
   160
  1
<>O.C.
 71
     2
 42
-1.0
  3
SLDDIMSTYLE1
100
AcDbAlignedDimension
 13
21.219409414
 23
20.8108982022
 33
0.0
 14
24.719409414
 24
20.8108982022
 34
0.0
 50
0.0
100
AcDbRotatedDimension
  0
DIMENSION
  5
22B
330
1F
100
AcDbEntity
  8
0
  6
Continuous
 62
     7
370
    18
100
AcDbDimension
  2
_D_8
 10
27.6938188628
 20
18.9358982022
 30
0.0
 11
27.6938188628
 21
20.6858982022
 31
0.0
 70
   160
  1
<>O.C.
 71
     2
 42
-1.0
  3
SLDDIMSTYLE0
100
AcDbAlignedDimension
 13
23.094409414
 23
22.4358982022
 33
0.0
 14
23.094409414
 24
18.9358982022
 34
0.0
 50
90.0
100
AcDbRotatedDimension
  0
DIMENSION
  5
23E
330
1F
100
AcDbEntity
  8
0
  6
Continuous
 62
     7
370
    18
100
AcDbDimension
  2
_D_9
 10
22.5696690006
 20
21.492252716
 30
0.0
 11
27.6938188628
 21
16.4851943096
 31
0.0
 70
   163
  1
<>
 71
     1
 42
-1.0
  3
SLDDIMSTYLE2
100
AcDbDiametricDimension
 15
23.3691498275
 25
19.8795436884
 35
0.0
 40
0.0
  0
DIMENSION
  5
24F
330
1F
100
AcDbEntity
  8
0
  6
Continuous
 62
     7
370
    18
100
AcDbDimension
  2
_D_10
 10
24.219409414
 20
22.8509617117
 30
0.0
 11
18.0602777791
 21
16.4851943096
 31
0.0
 70
   163
  1
<>
 71
     1
 42
-1.0
  3
SLDDIMSTYLE3
100
AcDbDiametricDimension
 15
21.719409414
 25
18.5208346927
 35
0.0
 40
0.0
  0
MTEXT
  5
260
330
1F
100
AcDbEntity
  8
0
  6
Continuous
 62
     7
370
     0
100
AcDbMText
 10
23.0771640916
 20
15.958504748
 30
0.0
 40
0.5
 41
0.0
 71
     2
 72
     1
  1
MOUNTING PLATE
  7
SLDTEXTSTYLE0
 73
     1
 44
1.0
  0
MTEXT
  5
261
330
1F
100
AcDbEntity
  8
0
  6
Continuous
 62
     7
370
     0
100
AcDbMText
 10
23.1009490171
 20
15.30102445
 30
0.0
 40
0.5
 41
0.0
 71
     2
 72
     1
  1
DETAIL
  7
SLDTEXTSTYLE0
 73
     1
 44
1.0
  0
INSERT
  5
26D
330
1F
100
AcDbEntity
  8
0
  6
Continuous
 62
     7
370
     0
100
AcDbBlockReference
  2
SW_CENTERMARKSYMBOL_0
 10
22.969409414
 20
20.6858982022
 30
0.0
  0
INSERT
  5
279
330
1F
100
AcDbEntity
  8
0
  6
Continuous
 62
     7
370
     0
100
AcDbBlockReference
  2
SW_CENTERMARKSYMBOL_1
 10
24.2068462811
 20
19.4484613351
 30
0.0
  0
INSERT
  5
285
330
1F
100
AcDbEntity
  8
0
  6
Continuous
 62
     7
370
     0
100
AcDbBlockReference
  2
SW_CENTERMARKSYMBOL_2
 10
21.731972547
 20
21.9233350693
 30
0.0
  0
INSERT
  5
291
330
1F
100
AcDbEntity
  8
0
  6
Continuous
 62
     7
370
     0
100
AcDbBlockReference
  2
SW_CENTERMARKSYMBOL_3
 10
22.0148152594
 20
19.7313040476
 30
0.0
  0
CIRCLE
  5
292
330
1F
100
AcDbEntity
  8
0
  6
HIDDEN
 62
     7
370
    18
100
AcDbCircle
 10
24.2068462811
 20
19.4484613351
 30
0.0
 40
0.0949999999999989
  0
CIRCLE
  5
293
330
1F
100
AcDbEntity
  8
0
  6
HIDDEN
 62
     7
370
    18
100
AcDbCircle
 10
21.731972547
 20
21.9233350693
 30
0.0
 40
0.0950000000000024
  0
CIRCLE
  5
294
330
1F
100
AcDbEntity
  8
0
  6
HIDDEN
 62
     7
370
    18
100
AcDbCircle
 10
22.0148152594
 20
19.7313040476
 30
0.0
 40
0.0950000000000024
  0
ENDSEC
  0
SECTION
  2
OBJECTS
  0
DICTIONARY
  5
C
330
0
100
AcDbDictionary
281
     1
  3
ACAD_GROUP
350
D
  3
ACAD_LAYOUT
350
1A
  3
ACAD_MLINESTYLE
350
17
  3
ACAD_PLOTSETTINGS
350
19
  3
ACAD_PLOTSTYLENAME
350
E
  3
ACAD_SCALELIST
350
47
  3
DWGPROPS
350
295
  0
DICTIONARY
  5
D
102
{ACAD_REACTORS
330
C
102
}
330
C
100
AcDbDictionary
281
     1
  0
DICTIONARY
  5
1A
102
{ACAD_REACTORS
330
C
102
}
330
C
100
AcDbDictionary
281
     1
  3
Layout1
350
1E
  3
Layout2
350
26
  3
Model
350
22
  0
DICTIONARY
  5
17
102
{ACAD_REACTORS
330
C
102
}
330
C
100
AcDbDictionary
281
     1
  3
Standard
350
18
  0
DICTIONARY
  5
19
102
{ACAD_REACTORS
330
C
102
}
330
C
100
AcDbDictionary
281
     1
  0
ACDBDICTIONARYWDFLT
  5
E
102
{ACAD_REACTORS
330
C
102
}
330
C
100
AcDbDictionary
281
     1
  3
Normal
350
F
100
AcDbDictionaryWithDefault
340
F
  0
DICTIONARY
  5
47
102
{ACAD_REACTORS
330
C
102
}
330
C
100
AcDbDictionary
281
     1
  3
A0
350
48
  3
A1
350
49
  3
A2
350
4A
  3
A3
350
4B
  3
A4
350
4C
  3
A5
350
4D
  3
A6
350
4E
  3
A7
350
4F
  3
A8
350
50
  3
A9
350
51
  3
B1
350
52
  3
B2
350
53
  3
B3
350
54
  3
B4
350
55
  3
B5
350
56
  3
B6
350
57
  3
B7
350
58
  0
XRECORD
  5
295
102
{ACAD_REACTORS
330
C
102
}
330
C
100
AcDbXrecord
280
     1
  1
DWGPROPS COOKIE
  2

  3

  4

  6

  7

  8
shawnd
  9

300
=
301
=
302
=
303
=
304
=
305
=
306
=
307
=
308
=
309
=
 40
0.0
 41
2460789.883039283
 42
2460789.883039966
  1

 90
        0
  0
LAYOUT
  5
1E
102
{ACAD_REACTORS
330
1A
102
}
330
1A
100
AcDbPlotSettings
  1

  2
none_device
  4

  6

 40
0.0
 41
0.0
 42
0.0
 43
0.0
 44
0.0
 45
0.0
 46
0.0
 47
0.0
 48
0.0
 49
0.0
140
0.0
141
0.0
142
1.0
143
1.0
 70
   688
 72
     0
 73
     0
 74
     5
  7

 75
    16
147
1.0
148
0.0
149
0.0
100
AcDbLayout
  1
Layout1
 70
     1
 71
     1
 10
0.0
 20
0.0
 11
12.0
 21
9.0
 12
0.0
 22
0.0
 32
0.0
 14
1.0000000000E+20
 24
1.0000000000E+20
 34
1.0000000000E+20
 15
-1.0000000000E+20
 25
-1.0000000000E+20
 35
-1.0000000000E+20
146
0.0
 13
0.0
 23
0.0
 33
0.0
 16
1.0
 26
0.0
 36
0.0
 17
0.0
 27
1.0
 37
0.0
 76
     0
330
1B
  0
LAYOUT
  5
26
102
{ACAD_REACTORS
330
1A
102
}
330
1A
100
AcDbPlotSettings
  1

  2
none_device
  4

  6

 40
0.0
 41
0.0
 42
0.0
 43
0.0
 44
0.0
 45
0.0
 46
0.0
 47
0.0
 48
0.0
 49
0.0
140
0.0
141
0.0
142
1.0
143
1.0
 70
   688
 72
     0
 73
     0
 74
     5
  7

 75
    16
147
1.0
148
0.0
149
0.0
100
AcDbLayout
  1
Layout2
 70
     1
 71
     2
 10
0.0
 20
0.0
 11
0.0
 21
0.0
 12
0.0
 22
0.0
 32
0.0
 14
0.0
 24
0.0
 34
0.0
 15
0.0
 25
0.0
 35
0.0
146
0.0
 13
0.0
 23
0.0
 33
0.0
 16
1.0
 26
0.0
 36
0.0
 17
0.0
 27
1.0
 37
0.0
 76
     0
330
23
  0
LAYOUT
  5
22
102
{ACAD_REACTORS
330
1A
102
}
330
1A
100
AcDbPlotSettings
  1

  2
none_device
  4
Letter_(8.50_x_11.00_Inches)
  6

 40
6.35
 41
6.35
 42
6.35000508
 43
6.35000508
 44
215.9
 45
279.4
 46
0.0
 47
0.0
 48
0.0
 49
0.0
140
0.0
141
0.0
142
1.0
143
1.0
 70
  1712
 72
     0
 73
     0
 74
     0
  7

 75
     0
147
1.0
148
0.0
149
0.0
100
AcDbLayout
  1
Model
 70
     1
 71
     0
 10
0.0
 20
0.0
 11
44.0
 21
34.0
 12
0.0
 22
0.0
 32
0.0
 14
0.0
 24
0.0
 34
0.0
 15
44.0
 25
34.0
 35
0.0
146
0.0
 13
0.0
 23
0.0
 33
0.0
 16
1.0
 26
0.0
 36
0.0
 17
0.0
 27
1.0
 37
0.0
 76
     0
330
1F
331
29
  0
MLINESTYLE
  5
18
102
{ACAD_REACTORS
330
17
102
}
330
17
100
AcDbMlineStyle
  2
Standard
 70
     0
  3

 62
   256
 51
90.0
 52
90.0
 71
     2
 49
0.5
 62
   256
  6
BYLAYER
 49
-0.5
 62
   256
  6
BYLAYER
  0
ACDBPLACEHOLDER
  5
F
102
{ACAD_REACTORS
330
E
102
}
330
E
  0
SCALE
  5
48
102
{ACAD_REACTORS
330
47
102
}
330
47
100
AcDbScale
 70
     0
300
1:1
140
1.0
141
1.0
290
     1
  0
SCALE
  5
49
102
{ACAD_REACTORS
330
47
102
}
330
47
100
AcDbScale
 70
     0
300
1/128" = 1'-0"
140
0.0078125
141
12.0
290
     0
  0
SCALE
  5
4A
102
{ACAD_REACTORS
330
47
102
}
330
47
100
AcDbScale
 70
     0
300
1/64" = 1'-0"
140
0.015625
141
12.0
290
     0
  0
SCALE
  5
4B
102
{ACAD_REACTORS
330
47
102
}
330
47
100
AcDbScale
 70
     0
300
1/32" = 1'-0"
140
0.03125
141
12.0
290
     0
  0
SCALE
  5
4C
102
{ACAD_REACTORS
330
47
102
}
330
47
100
AcDbScale
 70
     0
300
1/16" = 1'-0"
140
0.0625
141
12.0
290
     0
  0
SCALE
  5
4D
102
{ACAD_REACTORS
330
47
102
}
330
47
100
AcDbScale
 70
     0
300
3/32" = 1'-0"
140
0.09375
141
12.0
290
     0
  0
SCALE
  5
4E
102
{ACAD_REACTORS
330
47
102
}
330
47
100
AcDbScale
 70
     0
300
1/8" = 1'-0"
140
0.125
141
12.0
290
     0
  0
SCALE
  5
4F
102
{ACAD_REACTORS
330
47
102
}
330
47
100
AcDbScale
 70
     0
300
3/16" = 1'-0"
140
0.1875
141
12.0
290
     0
  0
SCALE
  5
50
102
{ACAD_REACTORS
330
47
102
}
330
47
100
AcDbScale
 70
     0
300
1/4" = 1'-0"
140
0.25
141
12.0
290
     0
  0
SCALE
  5
51
102
{ACAD_REACTORS
330
47
102
}
330
47
100
AcDbScale
 70
     0
300
3/8" = 1'-0"
140
0.375
141
12.0
290
     0
  0
SCALE
  5
52
102
{ACAD_REACTORS
330
47
102
}
330
47
100
AcDbScale
 70
     0
300
1/2" = 1'-0"
140
0.5
141
12.0
290
     0
  0
SCALE
  5
53
102
{ACAD_REACTORS
330
47
102
}
330
47
100
AcDbScale
 70
     0
300
3/4" = 1'-0"
140
0.75
141
12.0
290
     0
  0
SCALE
  5
54
102
{ACAD_REACTORS
330
47
102
}
330
47
100
AcDbScale
 70
     0
300
1" = 1'-0"
140
1.0
141
12.0
290
     0
  0
SCALE
  5
55
102
{ACAD_REACTORS
330
47
102
}
330
47
100
AcDbScale
 70
     0
300
1-1/2" = 1'-0"
140
1.5
141
12.0
290
     0
  0
SCALE
  5
56
102
{ACAD_REACTORS
330
47
102
}
330
47
100
AcDbScale
 70
     0
300
3" = 1'-0"
140
3.0
141
12.0
290
     0
  0
SCALE
  5
57
102
{ACAD_REACTORS
330
47
102
}
330
47
100
AcDbScale
 70
     0
300
6" = 1'-0"
140
6.0
141
12.0
290
     0
  0
SCALE
  5
58
102
{ACAD_REACTORS
330
47
102
}
330
47
100
AcDbScale
 70
     0
300
1'-0" = 1'-0"
140
12.0
141
12.0
290
     0
  0
ENDSEC
  0
EOF
