  0
SECTION
  2
HEADER
  9
$ACADVER
  1
AC1015
  9
$ACADMAINTVER
 70
     6
  9
$DWGCODEPAGE
  3
ANSI_1252
  9
$INSBASE
 10
0.0
 20
0.0
 30
0.0
  9
$EXTMIN
 10
0.0
 20
0.0
 30
0.0
  9
$EXTMAX
 10
55.0
 20
42.5
 30
0.0
  9
$LIMMIN
 10
0.0
 20
0.0
  9
$LIMMAX
 10
55.0
 20
42.5
  9
$ORTHOMODE
 70
     0
  9
$REGENMODE
 70
     1
  9
$FILLMODE
 70
     1
  9
$QTEXTMODE
 70
     0
  9
$MIRRTEXT
 70
     1
  9
$LTSCALE
 40
5.0
  9
$ATTMODE
 70
     1
  9
$TEXTSIZE
 40
0.625
  9
$TRACEWID
 40
0.05
  9
$TEXTSTYLE
  7
STANDARD
  9
$CLAYER
  8
0
  9
$CELTYPE
  6
ByLayer
  9
$CECOLOR
 62
   256
  9
$CELTSCALE
 40
1.0
  9
$DISPSILH
 70
     0
  9
$DIMSCALE
 40
1.0
  9
$DIMASZ
 40
0.65
  9
$DIMEXO
 40
0.25
  9
$DIMDLI
 40
0.38
  9
$DIMRND
 40
0.0
  9
$DIMDLE
 40
0.0
  9
$DIMEXE
 40
0.625
  9
$DIMTP
 40
0.0
  9
$DIMTM
 40
0.0
  9
$DIMTXT
 40
0.625
  9
$DIMCEN
 40
0.09
  9
$DIMTSZ
 40
0.0
  9
$DIMTOL
 70
     0
  9
$DIMLIM
 70
     0
  9
$DIMTIH
 70
     1
  9
$DIMTOH
 70
     1
  9
$DIMSE1
 70
     0
  9
$DIMSE2
 70
     0
  9
$DIMTAD
 70
     0
  9
$DIMZIN
 70
     1
  9
$DIMBLK
  1

  9
$DIMASO
 70
     1
  9
$DIMSHO
 70
     1
  9
$DIMPOST
  1

  9
$DIMAPOST
  1

  9
$DIMALT
 70
     0
  9
$DIMALTD
 70
     2
  9
$DIMALTF
 40
25.4
  9
$DIMLFAC
 40
1.0
  9
$DIMTOFL
 70
     0
  9
$DIMTVP
 40
0.0
  9
$DIMTIX
 70
     0
  9
$DIMSOXD
 70
     0
  9
$DIMSAH
 70
     0
  9
$DIMBLK1
  1

  9
$DIMBLK2
  1

  9
$DIMSTYLE
  2
Standard
  9
$DIMCLRD
 70
     0
  9
$DIMCLRE
 70
     0
  9
$DIMCLRT
 70
     0
  9
$DIMTFAC
 40
1.0
  9
$DIMGAP
 40
0.3
  9
$DIMJUST
 70
     0
  9
$DIMSD1
 70
     0
  9
$DIMSD2
 70
     0
  9
$DIMTOLJ
 70
     1
  9
$DIMTZIN
 70
     1
  9
$DIMALTZ
 70
     0
  9
$DIMALTTZ
 70
     0
  9
$DIMUPT
 70
     0
  9
$DIMDEC
 70
     0
  9
$DIMTDEC
 70
     0
  9
$DIMALTU
 70
     2
  9
$DIMALTTD
 70
     2
  9
$DIMTXSTY
  7
STANDARD
  9
$DIMAUNIT
 70
     0
  9
$DIMADEC
 70
     0
  9
$DIMALTRND
 40
0.0
  9
$DIMAZIN
 70
     0
  9
$DIMDSEP
 70
    46
  9
$DIMATFIT
 70
     3
  9
$DIMFRAC
 70
     0
  9
$DIMLDRBLK
  1

  9
$DIMLUNIT
 70
     2
  9
$DIMLWD
 70
    -2
  9
$DIMLWE
 70
    -2
  9
$DIMTMOVE
 70
     0
  9
$LUNITS
 70
     2
  9
$LUPREC
 70
     6
  9
$SKETCHINC
 40
0.1
  9
$FILLETRAD
 40
0.0
  9
$AUNITS
 70
     0
  9
$AUPREC
 70
     2
  9
$MENU
  1
.
  9
$ELEVATION
 40
0.0
  9
$PELEVATION
 40
0.0
  9
$THICKNESS
 40
0.0
  9
$LIMCHECK
 70
     0
  9
$CHAMFERA
 40
0.0
  9
$CHAMFERB
 40
0.0
  9
$CHAMFERC
 40
0.0
  9
$CHAMFERD
 40
0.0
  9
$SKPOLY
 70
     0
  9
$TDCREATE
 40
2460476.318395718
  9
$TDUCREATE
 40
2460476.610062384
  9
$TDUPDATE
 40
2460476.318396574
  9
$TDUUPDATE
 40
2460476.610063241
  9
$TDINDWG
 40
0.0000000116
  9
$TDUSRTIMER
 40
0.0000000116
  9
$USRTIMER
 70
     1
  9
$ANGBASE
 50
0.0
  9
$ANGDIR
 70
     0
  9
$PDMODE
 70
     0
  9
$PDSIZE
 40
-1.0
  9
$PLINEWID
 40
0.0
  9
$SPLFRAME
 70
     0
  9
$SPLINETYPE
 70
     6
  9
$SPLINESEGS
 70
     8
  9
$HANDSEED
  5
35D
  9
$SURFTAB1
 70
     6
  9
$SURFTAB2
 70
     6
  9
$SURFTYPE
 70
     6
  9
$SURFU
 70
     6
  9
$SURFV
 70
     6
  9
$UCSBASE
  2

  9
$UCSNAME
  2

  9
$UCSORG
 10
0.0
 20
0.0
 30
0.0
  9
$UCSXDIR
 10
1.0
 20
0.0
 30
0.0
  9
$UCSYDIR
 10
0.0
 20
1.0
 30
0.0
  9
$UCSORTHOREF
  2

  9
$UCSORTHOVIEW
 70
     0
  9
$UCSORGTOP
 10
0.0
 20
0.0
 30
0.0
  9
$UCSORGBOTTOM
 10
0.0
 20
0.0
 30
0.0
  9
$UCSORGLEFT
 10
0.0
 20
0.0
 30
0.0
  9
$UCSORGRIGHT
 10
0.0
 20
0.0
 30
0.0
  9
$UCSORGFRONT
 10
0.0
 20
0.0
 30
0.0
  9
$UCSORGBACK
 10
0.0
 20
0.0
 30
0.0
  9
$PUCSBASE
  2

  9
$PUCSNAME
  2

  9
$PUCSORG
 10
0.0
 20
0.0
 30
0.0
  9
$PUCSXDIR
 10
1.0
 20
0.0
 30
0.0
  9
$PUCSYDIR
 10
0.0
 20
1.0
 30
0.0
  9
$PUCSORTHOREF
  2

  9
$PUCSORTHOVIEW
 70
     0
  9
$PUCSORGTOP
 10
0.0
 20
0.0
 30
0.0
  9
$PUCSORGBOTTOM
 10
0.0
 20
0.0
 30
0.0
  9
$PUCSORGLEFT
 10
0.0
 20
0.0
 30
0.0
  9
$PUCSORGRIGHT
 10
0.0
 20
0.0
 30
0.0
  9
$PUCSORGFRONT
 10
0.0
 20
0.0
 30
0.0
  9
$PUCSORGBACK
 10
0.0
 20
0.0
 30
0.0
  9
$USERI1
 70
     0
  9
$USERI2
 70
     0
  9
$USERI3
 70
     0
  9
$USERI4
 70
     0
  9
$USERI5
 70
     0
  9
$USERR1
 40
0.0
  9
$USERR2
 40
0.0
  9
$USERR3
 40
0.0
  9
$USERR4
 40
0.0
  9
$USERR5
 40
0.0
  9
$WORLDVIEW
 70
     1
  9
$SHADEDGE
 70
     3
  9
$SHADEDIF
 70
    70
  9
$TILEMODE
 70
     1
  9
$MAXACTVP
 70
    64
  9
$PINSBASE
 10
0.0
 20
0.0
 30
0.0
  9
$PLIMCHECK
 70
     0
  9
$PEXTMIN
 10
1.0000000000E+20
 20
1.0000000000E+20
 30
1.0000000000E+20
  9
$PEXTMAX
 10
-1.0000000000E+20
 20
-1.0000000000E+20
 30
-1.0000000000E+20
  9
$PLIMMIN
 10
0.0
 20
0.0
  9
$PLIMMAX
 10
12.0
 20
9.0
  9
$UNITMODE
 70
     0
  9
$VISRETAIN
 70
     1
  9
$PLINEGEN
 70
     0
  9
$PSLTSCALE
 70
     1
  9
$TREEDEPTH
 70
  3020
  9
$CMLSTYLE
  2
Standard
  9
$CMLJUST
 70
     0
  9
$CMLSCALE
 40
1.0
  9
$PROXYGRAPHICS
 70
     1
  9
$MEASUREMENT
 70
     0
  9
$CELWEIGHT
370
    -1
  9
$ENDCAPS
280
     0
  9
$JOINSTYLE
280
     0
  9
$LWDISPLAY
290
     1
  9
$INSUNITS
 70
     1
  9
$HYPERLINKBASE
  1

  9
$STYLESHEET
  1

  9
$XEDIT
290
     1
  9
$CEPSNTYPE
380
     0
  9
$PSTYLEMODE
290
     1
  9
$FINGERPRINTGUID
  2
{9eb1cf42-9be7-4d69-bff2-3240b1c082a6}
  9
$VERSIONGUID
  2
{FAEB1C32-E019-11D5-929B-00C0DF256EC4}
  9
$EXTNAMES
290
     1
  9
$PSVPSCALE
 40
0.0
  9
$OLESTARTUP
290
     0
  0
ENDSEC
  0
SECTION
  2
CLASSES
  0
CLASS
  1
ACDBDICTIONARYWDFLT
  2
AcDbDictionaryWithDefault
  3
ObjectDBX Classes
 90
        0
280
     0
281
     0
  0
CLASS
  1
VISUALSTYLE
  2
AcDbVisualStyle
  3
ObjectDBX Classes
 90
     4095
280
     0
281
     0
  0
CLASS
  1
MATERIAL
  2
AcDbMaterial
  3
ObjectDBX Classes
 90
     1153
280
     0
281
     0
  0
CLASS
  1
SCALE
  2
AcDbScale
  3
ObjectDBX Classes
 90
     1153
280
     0
281
     0
  0
CLASS
  1
TABLESTYLE
  2
AcDbTableStyle
  3
ObjectDBX Classes
 90
     4095
280
     0
281
     0
  0
CLASS
  1
MLEADERSTYLE
  2
AcDbMLeaderStyle
  3
ACDB_MLEADERSTYLE_CLASS
 90
     4095
280
     0
281
     0
  0
CLASS
  1
SUN
  2
AcDbSun
  3
SCENEOE
 90
     1153
280
     0
281
     0
  0
CLASS
  1
ACDBPLACEHOLDER
  2
AcDbPlaceHolder
  3
ObjectDBX Classes
 90
        0
280
     0
281
     0
  0
CLASS
  1
LAYOUT
  2
AcDbLayout
  3
ObjectDBX Classes
 90
        0
280
     0
281
     0
  0
ENDSEC
  0
SECTION
  2
TABLES
  0
TABLE
  2
VPORT
  5
8
330
0
100
AcDbSymbolTable
 70
     1
  0
VPORT
  5
29
330
8
100
AcDbSymbolTableRecord
100
AcDbViewportTableRecord
  2
*Active
 70
     0
 10
0.0
 20
0.0
 11
1.0
 21
1.0
 12
27.5
 22
21.25
 13
0.0
 23
0.0
 14
0.5
 24
0.5
 15
0.5
 25
0.5
 16
0.0
 26
0.0
 36
1.0
 17
0.0
 27
0.0
 37
0.0
 40
42.5
 41
1.2941176471
 42
50.0
 43
0.0
 44
0.0
 50
0.0
 51
0.0
 71
     0
 72
  2000
 73
     1
 74
     3
 75
     0
 76
     0
 77
     0
 78
     0
281
     0
 65
     1
110
0.0
120
0.0
130
0.0
111
1.0
121
0.0
131
0.0
112
0.0
122
1.0
132
0.0
 79
     0
146
0.0
  0
ENDTAB
  0
TABLE
  2
LTYPE
  5
5
330
0
100
AcDbSymbolTable
 70
     6
  0
LTYPE
  5
14
330
5
100
AcDbSymbolTableRecord
100
AcDbLinetypeTableRecord
  2
ByBlock
 70
     0
  3

 72
    65
 73
     0
 40
0.0
  0
LTYPE
  5
15
330
5
100
AcDbSymbolTableRecord
100
AcDbLinetypeTableRecord
  2
ByLayer
 70
     0
  3

 72
    65
 73
     0
 40
0.0
  0
LTYPE
  5
16
330
5
100
AcDbSymbolTableRecord
100
AcDbLinetypeTableRecord
  2
Continuous
 70
     0
  3
Solid line
 72
    65
 73
     0
 40
0.0
  0
LTYPE
  5
5E
330
5
100
AcDbSymbolTableRecord
100
AcDbLinetypeTableRecord
  2
HIDDEN
 70
     0
  3
Hidden __ __ __ __ __ __ __ __ __ __ __ __ __ __
 72
    65
 73
     2
 40
0.075
 49
0.05
 74
     0
 49
-0.025
 74
     0
  0
LTYPE
  5
5F
330
5
100
AcDbSymbolTableRecord
100
AcDbLinetypeTableRecord
  2
PHANTOM
 70
     0
  3
Phantom ______  __  __  ______  __  __  ______
 72
    65
 73
     6
 40
0.5
 49
0.25
 74
     0
 49
-0.05
 74
     0
 49
0.05
 74
     0
 49
-0.05
 74
     0
 49
0.05
 74
     0
 49
-0.05
 74
     0
  0
LTYPE
  5
60
330
5
100
AcDbSymbolTableRecord
100
AcDbLinetypeTableRecord
  2
CENTER
 70
     0
  3
Center ____ _ ____ _ ____ _ ____ _ ____ _ ____
 72
    65
 73
     4
 40
0.4
 49
0.25
 74
     0
 49
-0.05
 74
     0
 49
0.05
 74
     0
 49
-0.05
 74
     0
  0
LTYPE
  5
61
330
5
100
AcDbSymbolTableRecord
100
AcDbLinetypeTableRecord
  2
CENTERX2
 70
     0
  3
Center (2x) ________  __  ________  __  _____
 72
    65
 73
     4
 40
0.8
 49
0.5
 74
     0
 49
-0.1
 74
     0
 49
0.1
 74
     0
 49
-0.1
 74
     0
  0
LTYPE
  5
62
330
5
100
AcDbSymbolTableRecord
100
AcDbLinetypeTableRecord
  2
DOT2
 70
     0
  3
Dot (.5x) ........................................
 72
    65
 73
     2
 40
0.025
 49
0.0
 74
     0
 49
-0.025
 74
     0
  0
ENDTAB
  0
TABLE
  2
LAYER
  5
2
330
0
100
AcDbSymbolTable
 70
    12
  0
LAYER
  5
10
330
2
100
AcDbSymbolTableRecord
100
AcDbLayerTableRecord
  2
0
 70
     0
 62
     7
  6
Continuous
370
    -3
390
F
  0
LAYER
  5
63
330
2
100
AcDbSymbolTableRecord
100
AcDbLayerTableRecord
  2
SLD-0
 70
     0
 62
     7
  6
Continuous
370
    -3
390
F
  0
LAYER
  5
64
330
2
100
AcDbSymbolTableRecord
100
AcDbLayerTableRecord
  2
DIM
 70
     0
 62
     7
  6
Continuous
370
    -3
390
F
  0
LAYER
  5
65
330
2
100
AcDbSymbolTableRecord
100
AcDbLayerTableRecord
  2
CEN
 70
     0
 62
     1
  6
CENTER
370
    -3
390
F
  0
LAYER
  5
66
330
2
100
AcDbSymbolTableRecord
100
AcDbLayerTableRecord
  2
HAT
 70
     0
 62
     4
  6
Continuous
370
    -3
390
F
  0
LAYER
  5
67
330
2
100
AcDbSymbolTableRecord
100
AcDbLayerTableRecord
  2
OBJ
 70
     0
 62
     5
  6
Continuous
370
    -3
390
F
  0
LAYER
  5
68
330
2
100
AcDbSymbolTableRecord
100
AcDbLayerTableRecord
  2
SLD-DEFPOINTS
 70
     0
 62
     7
  6
Continuous
370
    -3
390
F
  0
LAYER
  5
69
330
2
100
AcDbSymbolTableRecord
100
AcDbLayerTableRecord
  2
HID
 70
     0
 62
     4
  6
HIDDEN
370
    -3
390
F
  0
LAYER
  5
6A
330
2
100
AcDbSymbolTableRecord
100
AcDbLayerTableRecord
  2
NOTE
 70
     0
 62
     7
  6
Continuous
370
    -3
390
F
  0
LAYER
  5
6B
330
2
100
AcDbSymbolTableRecord
100
AcDbLayerTableRecord
  2
VP
 70
     0
 62
    -5
  6
Continuous
290
     0
370
    -3
390
F
  0
LAYER
  5
6C
330
2
100
AcDbSymbolTableRecord
100
AcDbLayerTableRecord
  2
TITLE
 70
     0
 62
     7
  6
Continuous
370
    -3
390
F
  0
LAYER
  5
6D
330
2
100
AcDbSymbolTableRecord
100
AcDbLayerTableRecord
  2
THICK_TITLE
 70
     0
 62
     7
  6
Continuous
370
   100
390
F
  0
ENDTAB
  0
TABLE
  2
STYLE
  5
3
330
0
100
AcDbSymbolTable
 70
     2
  0
STYLE
  5
11
330
3
100
AcDbSymbolTableRecord
100
AcDbTextStyleTableRecord
  2
STANDARD
 70
     0
 40
0.0
 41
1.0
 50
0.0
 71
     0
 42
0.625
  3
GOTHIC.TTF
  4

1001
ACAD
1000
CENTURY GOTHIC
1071
       34
  0
STYLE
  5
1FD
330
3
100
AcDbSymbolTableRecord
100
AcDbTextStyleTableRecord
  2
SLDTEXTSTYLE0
 70
     0
 40
0.0
 41
0.913
 50
0.0
 71
     0
 42
0.625
  3
GOTHIC.TTF
  4

1001
ACAD
1000
Century Gothic
1071
      290
  0
ENDTAB
  0
TABLE
  2
VIEW
  5
6
330
0
100
AcDbSymbolTable
 70
     0
  0
ENDTAB
  0
TABLE
  2
UCS
  5
7
330
0
100
AcDbSymbolTable
 70
     0
  0
ENDTAB
  0
TABLE
  2
APPID
  5
9
330
0
100
AcDbSymbolTable
 70
     1
  0
APPID
  5
12
330
9
100
AcDbSymbolTableRecord
100
AcDbRegAppTableRecord
  2
ACAD
 70
     0
  0
ENDTAB
  0
TABLE
  2
DIMSTYLE
  5
A
330
0
100
AcDbSymbolTable
 70
     8
100
AcDbDimStyleTable
  0
DIMSTYLE
105
27
330
A
100
AcDbSymbolTableRecord
100
AcDbDimStyleTableRecord
  2
Standard
 70
     0
178
     0
340
11
  0
DIMSTYLE
105
1FE
102
{ACAD_REACTORS
330
1FC
330
221
102
}
330
A
100
AcDbSymbolTableRecord
100
AcDbDimStyleTableRecord
  2
SLDDIMSTYLE0
 70
     0
 41
0.65
 44
0.0
 45
0.000000001
 78
    12
 79
     3
140
0.625
147
0.15625
148
0.000000001
170
     1
173
     1
178
     0
271
     0
272
     0
276
     2
277
     5
284
    12
340
1FD
  0
DIMSTYLE
105
210
102
{ACAD_REACTORS
330
20F
330
232
330
270
330
295
330
2A9
102
}
330
A
100
AcDbSymbolTableRecord
100
AcDbDimStyleTableRecord
  2
SLDDIMSTYLE1
 70
     0
 41
0.65
 44
0.0
 45
0.000000001
 78
    12
 79
     3
140
0.625
147
0.15625
148
0.000000001
170
     1
173
     1
178
     0
271
     6
272
     0
276
     2
277
     5
284
    12
340
1FD
  0
DIMSTYLE
105
246
102
{ACAD_REACTORS
330
245
330
25B
330
2BC
102
}
330
A
100
AcDbSymbolTableRecord
100
AcDbDimStyleTableRecord
  2
SLDDIMSTYLE2
 70
     0
 41
0.65
 44
0.0
 45
0.000000001
 78
    12
 79
     3
140
0.625
147
0.15625
148
0.000000001
170
     1
172
     1
173
     1
178
     0
271
     6
272
     0
276
     2
277
     5
284
    12
289
     0
340
1FD
  0
DIMSTYLE
105
284
102
{ACAD_REACTORS
330
283
102
}
330
A
100
AcDbSymbolTableRecord
100
AcDbDimStyleTableRecord
  2
SLDDIMSTYLE3
 70
     0
 41
0.65
 44
0.0
 45
0.000000001
 78
    12
 79
     3
140
0.625
147
0.15625
148
0.000000001
170
     1
172
     1
173
     1
178
     0
271
     0
272
     0
276
     2
277
     5
284
    12
289
     0
340
1FD
  0
DIMSTYLE
105
2E6
102
{ACAD_REACTORS
330
2E5
330
326
102
}
330
A
100
AcDbSymbolTableRecord
100
AcDbDimStyleTableRecord
  2
SLDDIMSTYLE4
 70
     0
 41
0.65
 44
0.0
 45
0.000000001
 78
    12
 79
     3
140
0.625
144
0.8
147
0.15625
148
0.000000001
170
     1
172
     1
173
     1
178
     0
271
     6
272
     0
276
     2
277
     5
284
    12
289
     0
340
1FD
  0
DIMSTYLE
105
306
102
{ACAD_REACTORS
330
305
102
}
330
A
100
AcDbSymbolTableRecord
100
AcDbDimStyleTableRecord
  2
SLDDIMSTYLE5
 70
     0
 41
0.65
 44
0.0
 45
0.000000001
 78
    12
 79
     3
140
0.625
144
0.8
147
0.15625
148
0.000000001
170
     1
173
     1
178
     0
271
     6
272
     0
276
     2
277
     5
284
    12
340
1FD
  0
DIMSTYLE
105
347
102
{ACAD_REACTORS
330
346
102
}
330
A
100
AcDbSymbolTableRecord
100
AcDbDimStyleTableRecord
  2
SLDDIMSTYLE6
 70
     0
 41
0.65
 44
0.0
 45
0.000000001
 78
    12
 79
     3
140
0.625
144
0.8
147
0.15625
148
0.000000001
170
     1
172
     1
173
     1
178
     0
271
     0
272
     0
276
     2
277
     5
284
    12
289
     0
340
1FD
  0
ENDTAB
  0
TABLE
  2
BLOCK_RECORD
  5
1
330
0
100
AcDbSymbolTable
 70
    18
  0
BLOCK_RECORD
  5
1F
330
1
100
AcDbSymbolTableRecord
100
AcDbBlockTableRecord
  2
*Model_Space
340
22
  0
BLOCK_RECORD
  5
1B
330
1
100
AcDbSymbolTableRecord
100
AcDbBlockTableRecord
  2
*Paper_Space
340
1E
  0
BLOCK_RECORD
  5
23
330
1
100
AcDbSymbolTableRecord
100
AcDbBlockTableRecord
  2
*Paper_Space0
340
26
  0
BLOCK_RECORD
  5
6E
330
1
100
AcDbSymbolTableRecord
100
AcDbBlockTableRecord
  2
SW_BROKEN_VIEW_0
340
0
102
{BLKREFS
331
71
102
}
  0
BLOCK_RECORD
  5
167
330
1
100
AcDbSymbolTableRecord
100
AcDbBlockTableRecord
  2
SW_BROKEN_VIEW_1
340
0
102
{BLKREFS
331
16A
102
}
  0
BLOCK_RECORD
  5
1FF
330
1
100
AcDbSymbolTableRecord
100
AcDbBlockTableRecord
  2
_D
340
0
  0
BLOCK_RECORD
  5
211
330
1
100
AcDbSymbolTableRecord
100
AcDbBlockTableRecord
  2
_D_1
340
0
  0
BLOCK_RECORD
  5
222
330
1
100
AcDbSymbolTableRecord
100
AcDbBlockTableRecord
  2
_D_2
340
0
  0
BLOCK_RECORD
  5
233
330
1
100
AcDbSymbolTableRecord
100
AcDbBlockTableRecord
  2
_D_3
340
0
  0
BLOCK_RECORD
  5
247
330
1
100
AcDbSymbolTableRecord
100
AcDbBlockTableRecord
  2
_D_4
340
0
  0
BLOCK_RECORD
  5
25C
330
1
100
AcDbSymbolTableRecord
100
AcDbBlockTableRecord
  2
_D_5
340
0
  0
BLOCK_RECORD
  5
271
330
1
100
AcDbSymbolTableRecord
100
AcDbBlockTableRecord
  2
_D_6
340
0
  0
BLOCK_RECORD
  5
285
330
1
100
AcDbSymbolTableRecord
100
AcDbBlockTableRecord
  2
_D_7
340
0
  0
BLOCK_RECORD
  5
296
330
1
100
AcDbSymbolTableRecord
100
AcDbBlockTableRecord
  2
_D_8
340
0
  0
BLOCK_RECORD
  5
2AA
330
1
100
AcDbSymbolTableRecord
100
AcDbBlockTableRecord
  2
_D_9
340
0
  0
BLOCK_RECORD
  5
2BD
330
1
100
AcDbSymbolTableRecord
100
AcDbBlockTableRecord
  2
_D_10
340
0
  0
BLOCK_RECORD
  5
2E7
330
1
100
AcDbSymbolTableRecord
100
AcDbBlockTableRecord
  2
_D_11
340
0
  0
BLOCK_RECORD
  5
307
330
1
100
AcDbSymbolTableRecord
100
AcDbBlockTableRecord
  2
_D_12
340
0
  0
BLOCK_RECORD
  5
327
330
1
100
AcDbSymbolTableRecord
100
AcDbBlockTableRecord
  2
_D_13
340
0
  0
BLOCK_RECORD
  5
348
330
1
100
AcDbSymbolTableRecord
100
AcDbBlockTableRecord
  2
_D_14
340
0
  0
ENDTAB
  0
ENDSEC
  0
SECTION
  2
BLOCKS
  0
BLOCK
  5
20
330
1F
100
AcDbEntity
  8
0
100
AcDbBlockBegin
  2
*Model_Space
 70
     0
 10
0.0
 20
0.0
 30
0.0
  3
*Model_Space
  1

  0
ENDBLK
  5
21
330
1F
100
AcDbEntity
  8
0
100
AcDbBlockEnd
  0
BLOCK
  5
1C
330
1B
100
AcDbEntity
 67
     1
  8
0
100
AcDbBlockBegin
  2
*Paper_Space
 70
     0
 10
0.0
 20
0.0
 30
0.0
  3
*Paper_Space
  1

  0
ENDBLK
  5
1D
330
1B
100
AcDbEntity
 67
     1
  8
0
100
AcDbBlockEnd
  0
BLOCK
  5
24
330
23
100
AcDbEntity
  8
0
100
AcDbBlockBegin
  2
*Paper_Space0
 70
     0
 10
0.0
 20
0.0
 30
0.0
  3
*Paper_Space0
  1

  0
ENDBLK
  5
25
330
23
100
AcDbEntity
  8
0
100
AcDbBlockEnd
  0
BLOCK
  5
6F
330
6E
100
AcDbEntity
  8
0
100
AcDbBlockBegin
  2
SW_BROKEN_VIEW_0
 70
     0
 10
0.0
 20
0.0
 30
0.0
  3
SW_BROKEN_VIEW_0
  1

  0
ENDBLK
  5
70
330
6E
100
AcDbEntity
  8
0
100
AcDbBlockEnd
  0
BLOCK
  5
168
330
167
100
AcDbEntity
  8
0
100
AcDbBlockBegin
  2
SW_BROKEN_VIEW_1
 70
     0
 10
0.0
 20
0.0
 30
0.0
  3
SW_BROKEN_VIEW_1
  1

  0
ENDBLK
  5
169
330
167
100
AcDbEntity
  8
0
100
AcDbBlockEnd
  0
BLOCK
  5
200
330
1FF
100
AcDbEntity
  8
0
100
AcDbBlockBegin
  2
_D
 70
     0
 10
0.0
 20
0.0
 30
0.0
  3
_D
  1

  0
SOLID
  5
202
330
1FF
100
AcDbEntity
  8
SLD-0
100
AcDbTrace
 10
11.6874842306
 20
40.6493397917
 30
0.0
 11
11.5874842306
 21
39.9993397917
 31
0.0
 12
11.7874842306
 22
39.9993397917
 32
0.0
 13
11.7874842306
 23
39.9993397917
 33
0.0
  0
SOLID
  5
203
330
1FF
100
AcDbEntity
  8
SLD-0
100
AcDbTrace
 10
11.6874842306
 20
24.0607278117
 30
0.0
 11
11.7874842306
 21
24.7107278117
 31
0.0
 12
11.5874842306
 22
24.7107278117
 32
0.0
 13
11.5874842306
 23
24.7107278117
 33
0.0
  0
LINE
  5
204
330
1FF
100
AcDbEntity
  8
SLD-0
100
AcDbLine
 10
22.6925315754
 20
40.6493397917
 30
0.0
 11
11.0624842306
 21
40.6493397917
 31
0.0
  0
LINE
  5
205
330
1FF
100
AcDbEntity
  8
SLD-0
100
AcDbLine
 10
19.1125315754
 20
24.0607278117
 30
0.0
 11
11.0624842306
 21
24.0607278117
 31
0.0
  0
LINE
  5
206
330
1FF
100
AcDbEntity
  8
SLD-0
100
AcDbLine
 10
11.6874842306
 20
40.6493397917
 30
0.0
 11
11.6874842306
 21
33.7628004209
 31
0.0
  0
LINE
  5
207
330
1FF
100
AcDbEntity
  8
SLD-0
100
AcDbLine
 10
11.6874842306
 20
24.0607278117
 30
0.0
 11
11.6874842306
 21
25.4783770635
 31
0.0
  0
LINE
  5
208
330
1FF
100
AcDbEntity
  8
SLD-0
100
AcDbLine
 10
11.6874842306
 20
25.4783770635
 30
0.0
 11
11.3749842306
 21
25.6346270635
 31
0.0
  0
LINE
  5
209
330
1FF
100
AcDbEntity
  8
SLD-0
100
AcDbLine
 10
11.3749842306
 20
25.6346270635
 30
0.0
 11
11.9999842306
 21
25.9471270635
 31
0.0
  0
LINE
  5
20A
330
1FF
100
AcDbEntity
  8
SLD-0
100
AcDbLine
 10
11.9999842306
 20
25.9471270635
 30
0.0
 11
11.6874842306
 21
26.1033770635
 31
0.0
  0
LINE
  5
20B
330
1FF
100
AcDbEntity
  8
SLD-0
100
AcDbLine
 10
11.6874842306
 20
26.1033770635
 30
0.0
 11
11.6874842306
 21
30.7862377397
 31
0.0
  0
MTEXT
  5
20C
330
1FF
100
AcDbEntity
  8
SLD-0
100
AcDbMText
 10
8.3485083694
 20
33.5689528035
 30
0.0
 40
0.625
 41
0.0
 71
     1
 72
     1
  1
SPECIFY LENGTH:
  7
SLDTEXTSTYLE0
 73
     1
 44
1.0
  0
MTEXT
  5
20D
330
1FF
100
AcDbEntity
  8
SLD-0
100
AcDbMText
 10
9.3072759936
 20
32.5767652737
 30
0.0
 40
0.625
 41
0.0
 71
     1
 72
     1
  1
6" - 48" MAX
  7
SLDTEXTSTYLE0
 73
     1
 44
1.0
  0
MTEXT
  5
20E
330
1FF
100
AcDbEntity
  8
SLD-0
100
AcDbMText
 10
7.8467726322
 20
31.5845777439
 30
0.0
 40
0.625
 41
0.0
 71
     1
 72
     1
  1
[152mm - 1219mm]
  7
SLDTEXTSTYLE0
 73
     1
 44
1.0
  0
ENDBLK
  5
201
330
1FF
100
AcDbEntity
  8
0
100
AcDbBlockEnd
  0
BLOCK
  5
212
330
211
100
AcDbEntity
  8
0
100
AcDbBlockBegin
  2
_D_1
 70
     0
 10
0.0
 20
0.0
 30
0.0
  3
_D_1
  1

  0
SOLID
  5
214
330
211
100
AcDbEntity
  8
SLD-0
100
AcDbTrace
 10
19.2550315754
 20
18.6719349891
 30
0.0
 11
19.9050315754
 21
18.5719349891
 31
0.0
 12
19.9050315754
 22
18.7719349891
 32
0.0
 13
19.9050315754
 23
18.7719349891
 33
0.0
  0
SOLID
  5
215
330
211
100
AcDbEntity
  8
SLD-0
100
AcDbTrace
 10
21.6300315754
 20
18.6719349891
 30
0.0
 11
20.9800315754
 21
18.7719349891
 31
0.0
 12
20.9800315754
 22
18.5719349891
 32
0.0
 13
20.9800315754
 23
18.5719349891
 33
0.0
  0
LINE
  5
216
330
211
100
AcDbEntity
  8
SLD-0
100
AcDbLine
 10
10.4444286946
 20
18.0487099922
 30
0.0
 11
10.2539990091
 21
18.0487099922
 31
0.0
  0
LINE
  5
217
330
211
100
AcDbEntity
  8
SLD-0
100
AcDbLine
 10
10.2539990091
 20
18.0487099922
 30
0.0
 11
10.2539990091
 21
17.0565224623
 31
0.0
  0
LINE
  5
218
330
211
100
AcDbEntity
  8
SLD-0
100
AcDbLine
 10
10.2539990091
 20
17.0565224623
 30
0.0
 11
10.4444286946
 21
17.0565224623
 31
0.0
  0
LINE
  5
219
330
211
100
AcDbEntity
  8
SLD-0
100
AcDbLine
 10
12.9305398582
 20
18.0487099922
 30
0.0
 11
13.1209695438
 21
18.0487099922
 31
0.0
  0
LINE
  5
21A
330
211
100
AcDbEntity
  8
SLD-0
100
AcDbLine
 10
13.1209695438
 20
18.0487099922
 30
0.0
 11
13.1209695438
 21
17.0565224623
 31
0.0
  0
LINE
  5
21B
330
211
100
AcDbEntity
  8
SLD-0
100
AcDbLine
 10
13.1209695438
 20
17.0565224623
 30
0.0
 11
12.9305398582
 21
17.0565224623
 31
0.0
  0
LINE
  5
21C
330
211
100
AcDbEntity
  8
SLD-0
100
AcDbLine
 10
19.2550315754
 20
18.6719349891
 30
0.0
 11
13.4382147356
 21
18.6719349891
 31
0.0
  0
LINE
  5
21D
330
211
100
AcDbEntity
  8
SLD-0
100
AcDbLine
 10
21.6300315754
 20
18.6719349891
 30
0.0
 11
19.2550315754
 21
18.6719349891
 31
0.0
  0
MTEXT
  5
21E
330
211
100
AcDbEntity
  8
SLD-0
100
AcDbMText
 10
10.0968375225
 20
18.9740030245
 30
0.0
 40
0.625
 41
0.0
 71
     1
 72
     1
  1
%%c
  7
SLDTEXTSTYLE0
 73
     1
 44
1.0
  0
MTEXT
  5
21F
330
211
100
AcDbEntity
  8
SLD-0
100
AcDbMText
 10
11.0394156255
 20
18.9740030245
 30
0.0
 40
0.625
 41
0.0
 71
     1
 72
     1
  1
2 3/8"
  7
SLDTEXTSTYLE0
 73
     1
 44
1.0
  0
MTEXT
  5
220
330
211
100
AcDbEntity
  8
SLD-0
100
AcDbMText
 10
10.4444286946
 20
17.8548623748
 30
0.0
 40
0.625
 41
0.0
 71
     1
 72
     1
  1
60mm
  7
SLDTEXTSTYLE0
 73
     1
 44
1.0
  0
ENDBLK
  5
213
330
211
100
AcDbEntity
  8
0
100
AcDbBlockEnd
  0
BLOCK
  5
223
330
222
100
AcDbEntity
  8
0
100
AcDbBlockBegin
  2
_D_2
 70
     0
 10
0.0
 20
0.0
 30
0.0
  3
_D_2
  1

  0
SOLID
  5
225
330
222
100
AcDbEntity
  8
SLD-0
100
AcDbTrace
 10
32.3425507298
 20
10.9351199798
 30
0.0
 11
32.4425507298
 21
11.5851199798
 31
0.0
 12
32.2425507298
 22
11.5851199798
 32
0.0
 13
32.2425507298
 23
11.5851199798
 33
0.0
  0
SOLID
  5
226
330
222
100
AcDbEntity
  8
SLD-0
100
AcDbTrace
 10
32.3425507298
 20
22.6957278117
 30
0.0
 11
32.2425507298
 21
22.0457278117
 31
0.0
 12
32.4425507298
 22
22.0457278117
 32
0.0
 13
32.4425507298
 23
22.0457278117
 33
0.0
  0
LINE
  5
227
330
222
100
AcDbEntity
  8
SLD-0
100
AcDbLine
 10
21.8800315754
 20
10.9351199798
 30
0.0
 11
32.9675507298
 21
10.9351199798
 31
0.0
  0
LINE
  5
228
330
222
100
AcDbEntity
  8
SLD-0
100
AcDbLine
 10
21.8800315754
 20
22.6957278117
 30
0.0
 11
32.9675507298
 21
22.6957278117
 31
0.0
  0
LINE
  5
229
330
222
100
AcDbEntity
  8
SLD-0
100
AcDbLine
 10
32.3425507298
 20
10.9351199798
 30
0.0
 11
32.3425507298
 21
13.3876015685
 31
0.0
  0
LINE
  5
22A
330
222
100
AcDbEntity
  8
SLD-0
100
AcDbLine
 10
32.3425507298
 20
22.6957278117
 30
0.0
 11
32.3425507298
 21
18.5253092742
 31
0.0
  0
LINE
  5
22B
330
222
100
AcDbEntity
  8
SLD-0
100
AcDbLine
 10
32.3425507298
 20
13.3876015685
 30
0.0
 11
32.6550507298
 21
13.5438515685
 31
0.0
  0
LINE
  5
22C
330
222
100
AcDbEntity
  8
SLD-0
100
AcDbLine
 10
32.6550507298
 20
13.5438515685
 30
0.0
 11
32.0300507298
 21
13.8563515685
 31
0.0
  0
LINE
  5
22D
330
222
100
AcDbEntity
  8
SLD-0
100
AcDbLine
 10
32.0300507298
 20
13.8563515685
 30
0.0
 11
32.3425507298
 21
14.0126015685
 31
0.0
  0
LINE
  5
22E
330
222
100
AcDbEntity
  8
SLD-0
100
AcDbLine
 10
32.3425507298
 20
14.0126015685
 30
0.0
 11
32.3425507298
 21
15.5487465931
 31
0.0
  0
MTEXT
  5
22F
330
222
100
AcDbEntity
  8
SLD-0
100
AcDbMText
 10
29.0035748686
 20
18.3314616569
 30
0.0
 40
0.625
 41
0.0
 71
     1
 72
     1
  1
SPECIFY LENGTH:
  7
SLDTEXTSTYLE0
 73
     1
 44
1.0
  0
MTEXT
  5
230
330
222
100
AcDbEntity
  8
SLD-0
100
AcDbMText
 10
30.1997558669
 20
17.3392741271
 30
0.0
 40
0.625
 41
0.0
 71
     1
 72
     1
  1
12" OR 18" 
  7
SLDTEXTSTYLE0
 73
     1
 44
1.0
  0
MTEXT
  5
231
330
222
100
AcDbEntity
  8
SLD-0
100
AcDbMText
 10
28.732741864
 20
16.3470865972
 30
0.0
 40
0.625
 41
0.0
 71
     1
 72
     1
  1
[305mm - 457mm]
  7
SLDTEXTSTYLE0
 73
     1
 44
1.0
  0
ENDBLK
  5
224
330
222
100
AcDbEntity
  8
0
100
AcDbBlockEnd
  0
BLOCK
  5
234
330
233
100
AcDbEntity
  8
0
100
AcDbBlockBegin
  2
_D_3
 70
     0
 10
0.0
 20
0.0
 30
0.0
  3
_D_3
  1

  0
SOLID
  5
236
330
233
100
AcDbEntity
  8
SLD-0
100
AcDbTrace
 10
19.3325315754
 20
15.6192324345
 30
0.0
 11
19.9825315754
 21
15.5192324345
 31
0.0
 12
19.9825315754
 22
15.7192324345
 32
0.0
 13
19.9825315754
 23
15.7192324345
 33
0.0
  0
SOLID
  5
237
330
233
100
AcDbEntity
  8
SLD-0
100
AcDbTrace
 10
21.5525315754
 20
15.6192324345
 30
0.0
 11
20.9025315754
 21
15.7192324345
 31
0.0
 12
20.9025315754
 22
15.5192324345
 32
0.0
 13
20.9025315754
 23
15.5192324345
 33
0.0
  0
LINE
  5
238
330
233
100
AcDbEntity
  8
SLD-0
100
AcDbLine
 10
10.4444286946
 20
14.9960074375
 30
0.0
 11
10.2539990091
 21
14.9960074375
 31
0.0
  0
LINE
  5
239
330
233
100
AcDbEntity
  8
SLD-0
100
AcDbLine
 10
10.2539990091
 20
14.9960074375
 30
0.0
 11
10.2539990091
 21
14.0038199077
 31
0.0
  0
LINE
  5
23A
330
233
100
AcDbEntity
  8
SLD-0
100
AcDbLine
 10
10.2539990091
 20
14.0038199077
 30
0.0
 11
10.4444286946
 21
14.0038199077
 31
0.0
  0
LINE
  5
23B
330
233
100
AcDbEntity
  8
SLD-0
100
AcDbLine
 10
12.9305398582
 20
14.9960074375
 30
0.0
 11
13.1209695438
 21
14.9960074375
 31
0.0
  0
LINE
  5
23C
330
233
100
AcDbEntity
  8
SLD-0
100
AcDbLine
 10
13.1209695438
 20
14.9960074375
 30
0.0
 11
13.1209695438
 21
14.0038199077
 31
0.0
  0
LINE
  5
23D
330
233
100
AcDbEntity
  8
SLD-0
100
AcDbLine
 10
13.1209695438
 20
14.0038199077
 30
0.0
 11
12.9305398582
 21
14.0038199077
 31
0.0
  0
LINE
  5
23E
330
233
100
AcDbEntity
  8
SLD-0
100
AcDbLine
 10
19.3325315754
 20
22.4457278117
 30
0.0
 11
19.3325315754
 21
14.9942324345
 31
0.0
  0
LINE
  5
23F
330
233
100
AcDbEntity
  8
SLD-0
100
AcDbLine
 10
21.5525315754
 20
22.7637278117
 30
0.0
 11
21.5525315754
 21
14.9942324345
 31
0.0
  0
LINE
  5
240
330
233
100
AcDbEntity
  8
SLD-0
100
AcDbLine
 10
19.3325315754
 20
15.6192324345
 30
0.0
 11
13.4382147356
 21
15.6192324345
 31
0.0
  0
LINE
  5
241
330
233
100
AcDbEntity
  8
SLD-0
100
AcDbLine
 10
21.5525315754
 20
15.6192324345
 30
0.0
 11
19.3325315754
 21
15.6192324345
 31
0.0
  0
MTEXT
  5
242
330
233
100
AcDbEntity
  8
SLD-0
100
AcDbMText
 10
10.0968375225
 20
15.9213004699
 30
0.0
 40
0.625
 41
0.0
 71
     1
 72
     1
  1
%%c
  7
SLDTEXTSTYLE0
 73
     1
 44
1.0
  0
MTEXT
  5
243
330
233
100
AcDbEntity
  8
SLD-0
100
AcDbMText
 10
11.0394156255
 20
15.9213004699
 30
0.0
 40
0.625
 41
0.0
 71
     1
 72
     1
  1
2 1/4"
  7
SLDTEXTSTYLE0
 73
     1
 44
1.0
  0
MTEXT
  5
244
330
233
100
AcDbEntity
  8
SLD-0
100
AcDbMText
 10
10.4444286946
 20
14.8021598202
 30
0.0
 40
0.625
 41
0.0
 71
     1
 72
     1
  1
56mm
  7
SLDTEXTSTYLE0
 73
     1
 44
1.0
  0
ENDBLK
  5
235
330
233
100
AcDbEntity
  8
0
100
AcDbBlockEnd
  0
BLOCK
  5
248
330
247
100
AcDbEntity
  8
0
100
AcDbBlockBegin
  2
_D_4
 70
     0
 10
0.0
 20
0.0
 30
0.0
  3
_D_4
  1

  0
SOLID
  5
24A
330
247
100
AcDbEntity
  8
SLD-0
100
AcDbTrace
 10
11.6874842306
 20
24.0607278117
 30
0.0
 11
11.7874842306
 21
24.7107278117
 31
0.0
 12
11.5874842306
 22
24.7107278117
 32
0.0
 13
11.5874842306
 23
24.7107278117
 33
0.0
  0
SOLID
  5
24B
330
247
100
AcDbEntity
  8
SLD-0
100
AcDbTrace
 10
11.6874842306
 20
22.6957278117
 30
0.0
 11
11.5874842306
 21
22.0457278117
 31
0.0
 12
11.7874842306
 22
22.0457278117
 32
0.0
 13
11.7874842306
 23
22.0457278117
 33
0.0
  0
LINE
  5
24C
330
247
100
AcDbEntity
  8
SLD-0
100
AcDbLine
 10
13.9296931739
 20
20.91600576
 30
0.0
 11
13.7392634884
 21
20.91600576
 31
0.0
  0
LINE
  5
24D
330
247
100
AcDbEntity
  8
SLD-0
100
AcDbLine
 10
13.7392634884
 20
20.91600576
 30
0.0
 11
13.7392634884
 21
19.9238182301
 31
0.0
  0
LINE
  5
24E
330
247
100
AcDbEntity
  8
SLD-0
100
AcDbLine
 10
13.7392634884
 20
19.9238182301
 30
0.0
 11
13.9296931739
 21
19.9238182301
 31
0.0
  0
LINE
  5
24F
330
247
100
AcDbEntity
  8
SLD-0
100
AcDbLine
 10
16.4158043375
 20
20.91600576
 30
0.0
 11
16.6062340231
 21
20.91600576
 31
0.0
  0
LINE
  5
250
330
247
100
AcDbEntity
  8
SLD-0
100
AcDbLine
 10
16.6062340231
 20
20.91600576
 30
0.0
 11
16.6062340231
 21
19.9238182301
 31
0.0
  0
LINE
  5
251
330
247
100
AcDbEntity
  8
SLD-0
100
AcDbLine
 10
16.6062340231
 20
19.9238182301
 30
0.0
 11
16.4158043375
 21
19.9238182301
 31
0.0
  0
LINE
  5
252
330
247
100
AcDbEntity
  8
SLD-0
100
AcDbLine
 10
19.1125315754
 20
24.0607278117
 30
0.0
 11
11.0624842306
 21
24.0607278117
 31
0.0
  0
LINE
  5
253
330
247
100
AcDbEntity
  8
SLD-0
100
AcDbLine
 10
19.0050315754
 20
22.6957278117
 30
0.0
 11
11.0624842306
 21
22.6957278117
 31
0.0
  0
LINE
  5
254
330
247
100
AcDbEntity
  8
SLD-0
100
AcDbLine
 10
12.9374842306
 20
21.5487792883
 30
0.0
 11
11.6874842306
 21
21.5487792883
 31
0.0
  0
LINE
  5
255
330
247
100
AcDbEntity
  8
SLD-0
100
AcDbLine
 10
11.6874842306
 20
21.5487792883
 30
0.0
 11
11.6874842306
 21
22.6957278117
 31
0.0
  0
LINE
  5
256
330
247
100
AcDbEntity
  8
SLD-0
100
AcDbLine
 10
11.6874842306
 20
24.0607278117
 30
0.0
 11
11.6874842306
 21
25.3107278117
 31
0.0
  0
MTEXT
  5
257
330
247
100
AcDbEntity
  8
SLD-0
100
AcDbMText
 10
13.3179310244
 20
21.8508474039
 30
0.0
 40
0.625
 41
0.0
 71
     1
 72
     1
  1
 
  7
SLDTEXTSTYLE0
 73
     1
 44
1.0
  0
MTEXT
  5
258
330
247
100
AcDbEntity
  8
SLD-0
100
AcDbMText
 10
14.0533910991
 20
21.8412987465
 30
0.0
 40
0.625
 41
0.0
 71
     1
 72
     1
  1
1 3/8"
  7
SLDTEXTSTYLE0
 73
     1
 44
1.0
  0
MTEXT
  5
259
330
247
100
AcDbEntity
  8
SLD-0
100
AcDbMText
 10
13.9296931739
 20
20.7221581426
 30
0.0
 40
0.625
 41
0.0
 71
     1
 72
     1
  1
35mm
  7
SLDTEXTSTYLE0
 73
     1
 44
1.0
  0
MTEXT
  5
25A
330
247
100
AcDbEntity
  8
SLD-0
100
AcDbMText
 10
16.7966635711
 20
21.8508474039
 30
0.0
 40
0.625
 41
0.0
 71
     1
 72
     1
  1
 
  7
SLDTEXTSTYLE0
 73
     1
 44
1.0
  0
ENDBLK
  5
249
330
247
100
AcDbEntity
  8
0
100
AcDbBlockEnd
  0
BLOCK
  5
25D
330
25C
100
AcDbEntity
  8
0
100
AcDbBlockBegin
  2
_D_5
 70
     0
 10
0.0
 20
0.0
 30
0.0
  3
_D_5
  1

  0
SOLID
  5
25F
330
25C
100
AcDbEntity
  8
SLD-0
100
AcDbTrace
 10
26.0104218979
 20
19.9351199798
 30
0.0
 11
26.1104218979
 21
20.5851199798
 31
0.0
 12
25.9104218979
 22
20.5851199798
 32
0.0
 13
25.9104218979
 23
20.5851199798
 33
0.0
  0
SOLID
  5
260
330
25C
100
AcDbEntity
  8
SLD-0
100
AcDbTrace
 10
26.0104218979
 20
19.0601199798
 30
0.0
 11
25.9104218979
 21
18.4101199798
 31
0.0
 12
26.1104218979
 22
18.4101199798
 32
0.0
 13
26.1104218979
 23
18.4101199798
 33
0.0
  0
LINE
  5
261
330
25C
100
AcDbEntity
  8
SLD-0
100
AcDbLine
 10
28.2526308413
 20
21.5440048851
 30
0.0
 11
28.0622011557
 21
21.5440048851
 31
0.0
  0
LINE
  5
262
330
25C
100
AcDbEntity
  8
SLD-0
100
AcDbLine
 10
28.0622011557
 20
21.5440048851
 30
0.0
 11
28.0622011557
 21
20.5518173553
 31
0.0
  0
LINE
  5
263
330
25C
100
AcDbEntity
  8
SLD-0
100
AcDbLine
 10
28.0622011557
 20
20.5518173553
 30
0.0
 11
28.2526308413
 21
20.5518173553
 31
0.0
  0
LINE
  5
264
330
25C
100
AcDbEntity
  8
SLD-0
100
AcDbLine
 10
30.7387420048
 20
21.5440048851
 30
0.0
 11
30.9291716904
 21
21.5440048851
 31
0.0
  0
LINE
  5
265
330
25C
100
AcDbEntity
  8
SLD-0
100
AcDbLine
 10
30.9291716904
 20
21.5440048851
 30
0.0
 11
30.9291716904
 21
20.5518173553
 31
0.0
  0
LINE
  5
266
330
25C
100
AcDbEntity
  8
SLD-0
100
AcDbLine
 10
30.9291716904
 20
20.5518173553
 30
0.0
 11
30.7387420048
 21
20.5518173553
 31
0.0
  0
LINE
  5
267
330
25C
100
AcDbEntity
  8
SLD-0
100
AcDbLine
 10
23.6550315754
 20
19.9351199798
 30
0.0
 11
26.6354218979
 21
19.9351199798
 31
0.0
  0
LINE
  5
268
330
25C
100
AcDbEntity
  8
SLD-0
100
AcDbLine
 10
23.6244759021
 20
19.0601199798
 30
0.0
 11
26.6354218979
 21
19.0601199798
 31
0.0
  0
LINE
  5
269
330
25C
100
AcDbEntity
  8
SLD-0
100
AcDbLine
 10
27.2604218979
 20
21.5487792883
 30
0.0
 11
26.0104218979
 21
21.5487792883
 31
0.0
  0
LINE
  5
26A
330
25C
100
AcDbEntity
  8
SLD-0
100
AcDbLine
 10
26.0104218979
 20
21.5487792883
 30
0.0
 11
26.0104218979
 21
19.9351199798
 31
0.0
  0
LINE
  5
26B
330
25C
100
AcDbEntity
  8
SLD-0
100
AcDbLine
 10
26.0104218979
 20
19.0601199798
 30
0.0
 11
26.0104218979
 21
17.8101199798
 31
0.0
  0
MTEXT
  5
26C
330
25C
100
AcDbEntity
  8
SLD-0
100
AcDbMText
 10
27.6408686917
 20
22.478846529
 30
0.0
 40
0.625
 41
0.0
 71
     1
 72
     1
  1
 
  7
SLDTEXTSTYLE0
 73
     1
 44
1.0
  0
MTEXT
  5
26D
330
25C
100
AcDbEntity
  8
SLD-0
100
AcDbMText
 10
28.7226828653
 20
22.4692978716
 30
0.0
 40
0.625
 41
0.0
 71
     1
 72
     1
  1
7/8"
  7
SLDTEXTSTYLE0
 73
     1
 44
1.0
  0
MTEXT
  5
26E
330
25C
100
AcDbEntity
  8
SLD-0
100
AcDbMText
 10
28.2526308413
 20
21.3501572678
 30
0.0
 40
0.625
 41
0.0
 71
     1
 72
     1
  1
22mm
  7
SLDTEXTSTYLE0
 73
     1
 44
1.0
  0
MTEXT
  5
26F
330
25C
100
AcDbEntity
  8
SLD-0
100
AcDbMText
 10
31.1196012384
 20
22.478846529
 30
0.0
 40
0.625
 41
0.0
 71
     1
 72
     1
  1
 
  7
SLDTEXTSTYLE0
 73
     1
 44
1.0
  0
ENDBLK
  5
25E
330
25C
100
AcDbEntity
  8
0
100
AcDbBlockEnd
  0
BLOCK
  5
272
330
271
100
AcDbEntity
  8
0
100
AcDbBlockBegin
  2
_D_6
 70
     0
 10
0.0
 20
0.0
 30
0.0
  3
_D_6
  1

  0
SOLID
  5
274
330
271
100
AcDbEntity
  8
SLD-0
100
AcDbTrace
 10
23.4050315754
 20
13.3744865517
 30
0.0
 11
22.7550315754
 21
13.4744865517
 31
0.0
 12
22.7550315754
 22
13.2744865517
 32
0.0
 13
22.7550315754
 23
13.2744865517
 33
0.0
  0
SOLID
  5
275
330
271
100
AcDbEntity
  8
SLD-0
100
AcDbTrace
 10
17.4800315754
 20
13.3744865517
 30
0.0
 11
18.1300315754
 21
13.2744865517
 31
0.0
 12
18.1300315754
 22
13.4744865517
 32
0.0
 13
18.1300315754
 23
13.4744865517
 33
0.0
  0
LINE
  5
276
330
271
100
AcDbEntity
  8
SLD-0
100
AcDbLine
 10
24.5364636294
 20
13.37448646
 30
0.0
 11
24.3460339438
 21
13.37448646
 31
0.0
  0
LINE
  5
277
330
271
100
AcDbEntity
  8
SLD-0
100
AcDbLine
 10
24.3460339438
 20
13.37448646
 30
0.0
 11
24.3460339438
 21
12.3822989302
 31
0.0
  0
LINE
  5
278
330
271
100
AcDbEntity
  8
SLD-0
100
AcDbLine
 10
24.3460339438
 20
12.3822989302
 30
0.0
 11
24.5364636294
 21
12.3822989302
 31
0.0
  0
LINE
  5
279
330
271
100
AcDbEntity
  8
SLD-0
100
AcDbLine
 10
27.4843802581
 20
13.37448646
 30
0.0
 11
27.6748099437
 21
13.37448646
 31
0.0
  0
LINE
  5
27A
330
271
100
AcDbEntity
  8
SLD-0
100
AcDbLine
 10
27.6748099437
 20
13.37448646
 30
0.0
 11
27.6748099437
 21
12.3822989302
 31
0.0
  0
LINE
  5
27B
330
271
100
AcDbEntity
  8
SLD-0
100
AcDbLine
 10
27.6748099437
 20
12.3822989302
 30
0.0
 11
27.4843802581
 21
12.3822989302
 31
0.0
  0
LINE
  5
27C
330
271
100
AcDbEntity
  8
SLD-0
100
AcDbLine
 10
23.4050315754
 20
19.6851199798
 30
0.0
 11
23.4050315754
 21
12.7494865517
 31
0.0
  0
LINE
  5
27D
330
271
100
AcDbEntity
  8
SLD-0
100
AcDbLine
 10
17.4800315754
 20
19.6851199798
 30
0.0
 11
17.4800315754
 21
12.7494865517
 31
0.0
  0
LINE
  5
27E
330
271
100
AcDbEntity
  8
SLD-0
100
AcDbLine
 10
23.4050315754
 20
13.3744865517
 30
0.0
 11
23.8311541267
 21
13.3744865517
 31
0.0
  0
LINE
  5
27F
330
271
100
AcDbEntity
  8
SLD-0
100
AcDbLine
 10
17.4800315754
 20
13.3744865517
 30
0.0
 11
23.4050315754
 21
13.3744865517
 31
0.0
  0
MTEXT
  5
280
330
271
100
AcDbEntity
  8
SLD-0
100
AcDbMText
 10
23.9579697247
 20
14.2997794924
 30
0.0
 40
0.625
 41
0.0
 71
     1
 72
     1
  1
%%c
  7
SLDTEXTSTYLE0
 73
     1
 44
1.0
  0
MTEXT
  5
281
330
271
100
AcDbEntity
  8
SLD-0
100
AcDbMText
 10
24.9005478276
 20
14.2997794924
 30
0.0
 40
0.625
 41
0.0
 71
     1
 72
     1
  1
5 15/16"
  7
SLDTEXTSTYLE0
 73
     1
 44
1.0
  0
MTEXT
  5
282
330
271
100
AcDbEntity
  8
SLD-0
100
AcDbMText
 10
24.5364636294
 20
13.1806388427
 30
0.0
 40
0.625
 41
0.0
 71
     1
 72
     1
  1
150mm
  7
SLDTEXTSTYLE0
 73
     1
 44
1.0
  0
ENDBLK
  5
273
330
271
100
AcDbEntity
  8
0
100
AcDbBlockEnd
  0
BLOCK
  5
286
330
285
100
AcDbEntity
  8
0
100
AcDbBlockBegin
  2
_D_7
 70
     0
 10
0.0
 20
0.0
 30
0.0
  3
_D_7
  1

  0
SOLID
  5
288
330
285
100
AcDbEntity
  8
SLD-0
100
AcDbTrace
 10
20.9425315754
 20
37.0418586509
 30
0.0
 11
21.5925315754
 21
36.9418586509
 31
0.0
 12
21.5925315754
 22
37.1418586509
 32
0.0
 13
21.5925315754
 23
37.1418586509
 33
0.0
  0
SOLID
  5
289
330
285
100
AcDbEntity
  8
SLD-0
100
AcDbTrace
 10
19.9425315754
 20
37.0418586509
 30
0.0
 11
19.2925315754
 21
37.1418586509
 31
0.0
 12
19.2925315754
 22
36.9418586509
 32
0.0
 13
19.2925315754
 23
36.9418586509
 33
0.0
  0
LINE
  5
28A
330
285
100
AcDbEntity
  8
SLD-0
100
AcDbLine
 10
14.8639313211
 20
37.0418585592
 30
0.0
 11
14.6735016355
 21
37.0418585592
 31
0.0
  0
LINE
  5
28B
330
285
100
AcDbEntity
  8
SLD-0
100
AcDbLine
 10
14.6735016355
 20
37.0418585592
 30
0.0
 11
14.6735016355
 21
36.0496710294
 31
0.0
  0
LINE
  5
28C
330
285
100
AcDbEntity
  8
SLD-0
100
AcDbLine
 10
14.6735016355
 20
36.0496710294
 30
0.0
 11
14.8639313211
 21
36.0496710294
 31
0.0
  0
LINE
  5
28D
330
285
100
AcDbEntity
  8
SLD-0
100
AcDbLine
 10
17.3500424847
 20
37.0418585592
 30
0.0
 11
17.5404721702
 21
37.0418585592
 31
0.0
  0
LINE
  5
28E
330
285
100
AcDbEntity
  8
SLD-0
100
AcDbLine
 10
17.5404721702
 20
37.0418585592
 30
0.0
 11
17.5404721702
 21
36.0496710294
 31
0.0
  0
LINE
  5
28F
330
285
100
AcDbEntity
  8
SLD-0
100
AcDbLine
 10
17.5404721702
 20
36.0496710294
 30
0.0
 11
17.3500424847
 21
36.0496710294
 31
0.0
  0
LINE
  5
290
330
285
100
AcDbEntity
  8
SLD-0
100
AcDbLine
 10
20.9425315754
 20
37.0418586509
 30
0.0
 11
22.1925315754
 21
37.0418586509
 31
0.0
  0
LINE
  5
291
330
285
100
AcDbEntity
  8
SLD-0
100
AcDbLine
 10
19.9425315754
 20
37.0418586509
 30
0.0
 11
17.857717362
 21
37.0418586509
 31
0.0
  0
MTEXT
  5
292
330
285
100
AcDbEntity
  8
SLD-0
100
AcDbMText
 10
15.2758887996
 20
37.9671515916
 30
0.0
 40
0.625
 41
0.0
 71
     1
 72
     1
  1
%%c
  7
SLDTEXTSTYLE0
 73
     1
 44
1.0
  0
MTEXT
  5
293
330
285
100
AcDbEntity
  8
SLD-0
100
AcDbMText
 10
16.2184669026
 20
37.9671515916
 30
0.0
 40
0.625
 41
0.0
 71
     1
 72
     1
  1
1"
  7
SLDTEXTSTYLE0
 73
     1
 44
1.0
  0
MTEXT
  5
294
330
285
100
AcDbEntity
  8
SLD-0
100
AcDbMText
 10
14.8639313211
 20
36.8480109419
 30
0.0
 40
0.625
 41
0.0
 71
     1
 72
     1
  1
25mm
  7
SLDTEXTSTYLE0
 73
     1
 44
1.0
  0
ENDBLK
  5
287
330
285
100
AcDbEntity
  8
0
100
AcDbBlockEnd
  0
BLOCK
  5
297
330
296
100
AcDbEntity
  8
0
100
AcDbBlockBegin
  2
_D_8
 70
     0
 10
0.0
 20
0.0
 30
0.0
  3
_D_8
  1

  0
SOLID
  5
299
330
296
100
AcDbEntity
  8
SLD-0
100
AcDbTrace
 10
30.7359782446
 20
27.4468397917
 30
0.0
 11
30.8359782446
 21
28.0968397917
 31
0.0
 12
30.6359782446
 22
28.0968397917
 32
0.0
 13
30.6359782446
 23
28.0968397917
 33
0.0
  0
SOLID
  5
29A
330
296
100
AcDbEntity
  8
SLD-0
100
AcDbTrace
 10
30.7359782446
 20
34.5193397917
 30
0.0
 11
30.6359782446
 21
33.8693397917
 31
0.0
 12
30.8359782446
 22
33.8693397917
 32
0.0
 13
30.8359782446
 23
33.8693397917
 33
0.0
  0
LINE
  5
29B
330
296
100
AcDbEntity
  8
SLD-0
100
AcDbLine
 10
29.2620200219
 20
30.9783153885
 30
0.0
 11
29.0715903364
 21
30.9783153885
 31
0.0
  0
LINE
  5
29C
330
296
100
AcDbEntity
  8
SLD-0
100
AcDbLine
 10
29.0715903364
 20
30.9783153885
 30
0.0
 11
29.0715903364
 21
29.9861278587
 31
0.0
  0
LINE
  5
29D
330
296
100
AcDbEntity
  8
SLD-0
100
AcDbLine
 10
29.0715903364
 20
29.9861278587
 30
0.0
 11
29.2620200219
 21
29.9861278587
 31
0.0
  0
LINE
  5
29E
330
296
100
AcDbEntity
  8
SLD-0
100
AcDbLine
 10
32.2099366507
 20
30.9783153885
 30
0.0
 11
32.4003663362
 21
30.9783153885
 31
0.0
  0
LINE
  5
29F
330
296
100
AcDbEntity
  8
SLD-0
100
AcDbLine
 10
32.4003663362
 20
30.9783153885
 30
0.0
 11
32.4003663362
 21
29.9861278587
 31
0.0
  0
LINE
  5
2A0
330
296
100
AcDbEntity
  8
SLD-0
100
AcDbLine
 10
32.4003663362
 20
29.9861278587
 30
0.0
 11
32.2099366507
 21
29.9861278587
 31
0.0
  0
LINE
  5
2A1
330
296
100
AcDbEntity
  8
SLD-0
100
AcDbLine
 10
26.7100315754
 20
27.4468397917
 30
0.0
 11
31.3609782446
 21
27.4468397917
 31
0.0
  0
LINE
  5
2A2
330
296
100
AcDbEntity
  8
SLD-0
100
AcDbLine
 10
25.6925315754
 20
34.5193397917
 30
0.0
 11
31.3609782446
 21
34.5193397917
 31
0.0
  0
LINE
  5
2A3
330
296
100
AcDbEntity
  8
SLD-0
100
AcDbLine
 10
30.7359782446
 20
27.4468397917
 30
0.0
 11
30.7359782446
 21
29.8591749336
 31
0.0
  0
LINE
  5
2A4
330
296
100
AcDbEntity
  8
SLD-0
100
AcDbLine
 10
30.7359782446
 20
34.5193397917
 30
0.0
 11
30.7359782446
 21
32.1070046498
 31
0.0
  0
MTEXT
  5
2A5
330
296
100
AcDbEntity
  8
SLD-0
100
AcDbMText
 10
28.6502578724
 20
31.9131570325
 30
0.0
 40
0.625
 41
0.0
 71
     1
 72
     1
  1
 
  7
SLDTEXTSTYLE0
 73
     1
 44
1.0
  0
MTEXT
  5
2A6
330
296
100
AcDbEntity
  8
SLD-0
100
AcDbMText
 10
29.3857178555
 20
31.9036083751
 30
0.0
 40
0.625
 41
0.0
 71
     1
 72
     1
  1
7 1/16"
  7
SLDTEXTSTYLE0
 73
     1
 44
1.0
  0
MTEXT
  5
2A7
330
296
100
AcDbEntity
  8
SLD-0
100
AcDbMText
 10
29.2620200219
 20
30.7844677712
 30
0.0
 40
0.625
 41
0.0
 71
     1
 72
     1
  1
180mm
  7
SLDTEXTSTYLE0
 73
     1
 44
1.0
  0
MTEXT
  5
2A8
330
296
100
AcDbEntity
  8
SLD-0
100
AcDbMText
 10
32.5907958843
 20
31.9131570325
 30
0.0
 40
0.625
 41
0.0
 71
     1
 72
     1
  1
 
  7
SLDTEXTSTYLE0
 73
     1
 44
1.0
  0
ENDBLK
  5
298
330
296
100
AcDbEntity
  8
0
100
AcDbBlockEnd
  0
BLOCK
  5
2AB
330
2AA
100
AcDbEntity
  8
0
100
AcDbBlockBegin
  2
_D_9
 70
     0
 10
0.0
 20
0.0
 30
0.0
  3
_D_9
  1

  0
SOLID
  5
2AD
330
2AA
100
AcDbEntity
  8
SLD-0
100
AcDbTrace
 10
26.5525315754
 20
25.7560797524
 30
0.0
 11
25.9025315754
 21
25.8560797524
 31
0.0
 12
25.9025315754
 22
25.6560797524
 32
0.0
 13
25.9025315754
 23
25.6560797524
 33
0.0
  0
SOLID
  5
2AE
330
2AA
100
AcDbEntity
  8
SLD-0
100
AcDbTrace
 10
24.3325315754
 20
25.7560797524
 30
0.0
 11
24.9825315754
 21
25.6560797524
 31
0.0
 12
24.9825315754
 22
25.8560797524
 32
0.0
 13
24.9825315754
 23
25.8560797524
 33
0.0
  0
LINE
  5
2AF
330
2AA
100
AcDbEntity
  8
SLD-0
100
AcDbLine
 10
29.4929227087
 20
25.7560796607
 30
0.0
 11
29.3024930231
 21
25.7560796607
 31
0.0
  0
LINE
  5
2B0
330
2AA
100
AcDbEntity
  8
SLD-0
100
AcDbLine
 10
29.3024930231
 20
25.7560796607
 30
0.0
 11
29.3024930231
 21
24.7638921309
 31
0.0
  0
LINE
  5
2B1
330
2AA
100
AcDbEntity
  8
SLD-0
100
AcDbLine
 10
29.3024930231
 20
24.7638921309
 30
0.0
 11
29.4929227087
 21
24.7638921309
 31
0.0
  0
LINE
  5
2B2
330
2AA
100
AcDbEntity
  8
SLD-0
100
AcDbLine
 10
31.9790338723
 20
25.7560796607
 30
0.0
 11
32.1694635578
 21
25.7560796607
 31
0.0
  0
LINE
  5
2B3
330
2AA
100
AcDbEntity
  8
SLD-0
100
AcDbLine
 10
32.1694635578
 20
25.7560796607
 30
0.0
 11
32.1694635578
 21
24.7638921309
 31
0.0
  0
LINE
  5
2B4
330
2AA
100
AcDbEntity
  8
SLD-0
100
AcDbLine
 10
32.1694635578
 20
24.7638921309
 30
0.0
 11
31.9790338723
 21
24.7638921309
 31
0.0
  0
LINE
  5
2B5
330
2AA
100
AcDbEntity
  8
SLD-0
100
AcDbLine
 10
26.5525315754
 20
27.1043397917
 30
0.0
 11
26.5525315754
 21
25.1310797524
 31
0.0
  0
LINE
  5
2B6
330
2AA
100
AcDbEntity
  8
SLD-0
100
AcDbLine
 10
24.3325315754
 20
29.3243397917
 30
0.0
 11
24.3325315754
 21
25.1310797524
 31
0.0
  0
LINE
  5
2B7
330
2AA
100
AcDbEntity
  8
SLD-0
100
AcDbLine
 10
26.5525315754
 20
25.7560797524
 30
0.0
 11
28.9852477396
 21
25.7560797524
 31
0.0
  0
LINE
  5
2B8
330
2AA
100
AcDbEntity
  8
SLD-0
100
AcDbLine
 10
24.3325315754
 20
25.7560797524
 30
0.0
 11
26.5525315754
 21
25.7560797524
 31
0.0
  0
MTEXT
  5
2B9
330
2AA
100
AcDbEntity
  8
SLD-0
100
AcDbMText
 10
29.1453315366
 20
26.6813726931
 30
0.0
 40
0.625
 41
0.0
 71
     1
 72
     1
  1
%%c
  7
SLDTEXTSTYLE0
 73
     1
 44
1.0
  0
MTEXT
  5
2BA
330
2AA
100
AcDbEntity
  8
SLD-0
100
AcDbMText
 10
30.0879096395
 20
26.6813726931
 30
0.0
 40
0.625
 41
0.0
 71
     1
 72
     1
  1
2 1/4"
  7
SLDTEXTSTYLE0
 73
     1
 44
1.0
  0
MTEXT
  5
2BB
330
2AA
100
AcDbEntity
  8
SLD-0
100
AcDbMText
 10
29.4929227087
 20
25.5622320434
 30
0.0
 40
0.625
 41
0.0
 71
     1
 72
     1
  1
56mm
  7
SLDTEXTSTYLE0
 73
     1
 44
1.0
  0
ENDBLK
  5
2AC
330
2AA
100
AcDbEntity
  8
0
100
AcDbBlockEnd
  0
BLOCK
  5
2BE
330
2BD
100
AcDbEntity
  8
0
100
AcDbBlockBegin
  2
_D_10
 70
     0
 10
0.0
 20
0.0
 30
0.0
  3
_D_10
  1

  0
SOLID
  5
2C0
330
2BD
100
AcDbEntity
  8
SLD-0
100
AcDbTrace
 10
30.7359782446
 20
34.5193397917
 30
0.0
 11
30.6359782446
 21
33.8693397917
 31
0.0
 12
30.8359782446
 22
33.8693397917
 32
0.0
 13
30.8359782446
 23
33.8693397917
 33
0.0
  0
SOLID
  5
2C1
330
2BD
100
AcDbEntity
  8
SLD-0
100
AcDbTrace
 10
30.7359782446
 20
37.6493397917
 30
0.0
 11
30.8359782446
 21
38.2993397917
 31
0.0
 12
30.6359782446
 22
38.2993397917
 32
0.0
 13
30.6359782446
 23
38.2993397917
 33
0.0
  0
LINE
  5
2C2
330
2BD
100
AcDbEntity
  8
SLD-0
100
AcDbLine
 10
29.4929227545
 20
36.0795653885
 30
0.0
 11
29.302493069
 21
36.0795653885
 31
0.0
  0
LINE
  5
2C3
330
2BD
100
AcDbEntity
  8
SLD-0
100
AcDbLine
 10
29.302493069
 20
36.0795653885
 30
0.0
 11
29.302493069
 21
35.0873778587
 31
0.0
  0
LINE
  5
2C4
330
2BD
100
AcDbEntity
  8
SLD-0
100
AcDbLine
 10
29.302493069
 20
35.0873778587
 30
0.0
 11
29.4929227545
 21
35.0873778587
 31
0.0
  0
LINE
  5
2C5
330
2BD
100
AcDbEntity
  8
SLD-0
100
AcDbLine
 10
31.9790339181
 20
36.0795653885
 30
0.0
 11
32.1694636037
 21
36.0795653885
 31
0.0
  0
LINE
  5
2C6
330
2BD
100
AcDbEntity
  8
SLD-0
100
AcDbLine
 10
32.1694636037
 20
36.0795653885
 30
0.0
 11
32.1694636037
 21
35.0873778587
 31
0.0
  0
LINE
  5
2C7
330
2BD
100
AcDbEntity
  8
SLD-0
100
AcDbLine
 10
32.1694636037
 20
35.0873778587
 30
0.0
 11
31.9790339181
 21
35.0873778587
 31
0.0
  0
LINE
  5
2C8
330
2BD
100
AcDbEntity
  8
SLD-0
100
AcDbLine
 10
25.6925315754
 20
34.5193397917
 30
0.0
 11
31.3609782446
 21
34.5193397917
 31
0.0
  0
LINE
  5
2C9
330
2BD
100
AcDbEntity
  8
SLD-0
100
AcDbLine
 10
26.1925315754
 20
37.6493397917
 30
0.0
 11
31.3609782446
 21
37.6493397917
 31
0.0
  0
LINE
  5
2CA
330
2BD
100
AcDbEntity
  8
SLD-0
100
AcDbLine
 10
30.7359782446
 20
34.5193397917
 30
0.0
 11
30.7359782446
 21
33.2693397917
 31
0.0
  0
LINE
  5
2CB
330
2BD
100
AcDbEntity
  8
SLD-0
100
AcDbLine
 10
30.7359782446
 20
37.6493397917
 30
0.0
 11
30.7359782446
 21
38.8993397917
 31
0.0
  0
MTEXT
  5
2CC
330
2BD
100
AcDbEntity
  8
SLD-0
100
AcDbMText
 10
28.881160605
 20
37.0144070325
 30
0.0
 40
0.625
 41
0.0
 71
     1
 72
     1
  1
 
  7
SLDTEXTSTYLE0
 73
     1
 44
1.0
  0
MTEXT
  5
2CD
330
2BD
100
AcDbEntity
  8
SLD-0
100
AcDbMText
 10
29.6166206797
 20
37.0048583751
 30
0.0
 40
0.625
 41
0.0
 71
     1
 72
     1
  1
3 1/8"
  7
SLDTEXTSTYLE0
 73
     1
 44
1.0
  0
MTEXT
  5
2CE
330
2BD
100
AcDbEntity
  8
SLD-0
100
AcDbMText
 10
29.4929227545
 20
35.8857177712
 30
0.0
 40
0.625
 41
0.0
 71
     1
 72
     1
  1
80mm
  7
SLDTEXTSTYLE0
 73
     1
 44
1.0
  0
MTEXT
  5
2CF
330
2BD
100
AcDbEntity
  8
SLD-0
100
AcDbMText
 10
32.3598931517
 20
37.0144070325
 30
0.0
 40
0.625
 41
0.0
 71
     1
 72
     1
  1
 
  7
SLDTEXTSTYLE0
 73
     1
 44
1.0
  0
ENDBLK
  5
2BF
330
2BD
100
AcDbEntity
  8
0
100
AcDbBlockEnd
  0
BLOCK
  5
2E8
330
2E7
100
AcDbEntity
  8
0
100
AcDbBlockBegin
  2
_D_11
 70
     0
 10
0.0
 20
0.0
 30
0.0
  3
_D_11
  1

  0
SOLID
  5
2EA
330
2E7
100
AcDbEntity
  8
SLD-0
100
AcDbTrace
 10
22.2796883607
 20
6.233898162
 30
0.0
 11
22.3796883607
 21
6.883898162
 31
0.0
 12
22.1796883607
 22
6.883898162
 32
0.0
 13
22.1796883607
 23
6.883898162
 33
0.0
  0
SOLID
  5
2EB
330
2E7
100
AcDbEntity
  8
SLD-0
100
AcDbTrace
 10
22.2796883607
 20
3.046398162
 30
0.0
 11
22.1796883607
 21
2.396398162
 31
0.0
 12
22.3796883607
 22
2.396398162
 32
0.0
 13
22.3796883607
 23
2.396398162
 33
0.0
  0
LINE
  5
2EC
330
2E7
100
AcDbEntity
  8
SLD-0
100
AcDbLine
 10
21.0366328706
 20
4.7730220517
 30
0.0
 11
20.846203185
 21
4.7730220517
 31
0.0
  0
LINE
  5
2ED
330
2E7
100
AcDbEntity
  8
SLD-0
100
AcDbLine
 10
20.846203185
 20
4.7730220517
 30
0.0
 11
20.846203185
 21
3.7808345219
 31
0.0
  0
LINE
  5
2EE
330
2E7
100
AcDbEntity
  8
SLD-0
100
AcDbLine
 10
20.846203185
 20
3.7808345219
 30
0.0
 11
21.0366328706
 21
3.7808345219
 31
0.0
  0
LINE
  5
2EF
330
2E7
100
AcDbEntity
  8
SLD-0
100
AcDbLine
 10
23.5227440342
 20
4.7730220517
 30
0.0
 11
23.7131737197
 21
4.7730220517
 31
0.0
  0
LINE
  5
2F0
330
2E7
100
AcDbEntity
  8
SLD-0
100
AcDbLine
 10
23.7131737197
 20
4.7730220517
 30
0.0
 11
23.7131737197
 21
3.7808345219
 31
0.0
  0
LINE
  5
2F1
330
2E7
100
AcDbEntity
  8
SLD-0
100
AcDbLine
 10
23.7131737197
 20
3.7808345219
 30
0.0
 11
23.5227440342
 21
3.7808345219
 31
0.0
  0
LINE
  5
2F2
330
2E7
100
AcDbEntity
  8
SLD-0
100
AcDbLine
 10
24.3628026343
 20
6.233898162
 30
0.0
 11
21.6546883607
 21
6.233898162
 31
0.0
  0
LINE
  5
2F3
330
2E7
100
AcDbEntity
  8
SLD-0
100
AcDbLine
 10
24.2315526343
 20
3.046398162
 30
0.0
 11
21.6546883607
 21
3.046398162
 31
0.0
  0
LINE
  5
2F4
330
2E7
100
AcDbEntity
  8
SLD-0
100
AcDbLine
 10
22.2796883607
 20
6.233898162
 30
0.0
 11
22.2796883607
 21
7.483898162
 31
0.0
  0
LINE
  5
2F5
330
2E7
100
AcDbEntity
  8
SLD-0
100
AcDbLine
 10
22.2796883607
 20
3.046398162
 30
0.0
 11
22.2796883607
 21
1.796398162
 31
0.0
  0
MTEXT
  5
2F6
330
2E7
100
AcDbEntity
  8
SLD-0
100
AcDbMText
 10
20.4248707211
 20
5.7078636957
 30
0.0
 40
0.625
 41
0.0
 71
     1
 72
     1
  1
 
  7
SLDTEXTSTYLE0
 73
     1
 44
1.0
  0
MTEXT
  5
2F7
330
2E7
100
AcDbEntity
  8
SLD-0
100
AcDbMText
 10
20.9294279715
 20
5.6983150383
 30
0.0
 40
0.625
 41
0.0
 71
     1
 72
     1
  1
2 9/16"
  7
SLDTEXTSTYLE0
 73
     1
 44
1.0
  0
MTEXT
  5
2F8
330
2E7
100
AcDbEntity
  8
SLD-0
100
AcDbMText
 10
21.0366328706
 20
4.5791744344
 30
0.0
 40
0.625
 41
0.0
 71
     1
 72
     1
  1
65mm
  7
SLDTEXTSTYLE0
 73
     1
 44
1.0
  0
MTEXT
  5
2F9
330
2E7
100
AcDbEntity
  8
SLD-0
100
AcDbMText
 10
23.9036032678
 20
5.7078636957
 30
0.0
 40
0.625
 41
0.0
 71
     1
 72
     1
  1
 
  7
SLDTEXTSTYLE0
 73
     1
 44
1.0
  0
ENDBLK
  5
2E9
330
2E7
100
AcDbEntity
  8
0
100
AcDbBlockEnd
  0
BLOCK
  5
308
330
307
100
AcDbEntity
  8
0
100
AcDbBlockBegin
  2
_D_12
 70
     0
 10
0.0
 20
0.0
 30
0.0
  3
_D_12
  1

  0
SOLID
  5
30A
330
307
100
AcDbEntity
  8
SLD-0
100
AcDbTrace
 10
10.6065950753
 20
8.977648162
 30
0.0
 11
10.5065950753
 21
8.327648162
 31
0.0
 12
10.7065950753
 22
8.327648162
 32
0.0
 13
10.7065950753
 23
8.327648162
 33
0.0
  0
SOLID
  5
30B
330
307
100
AcDbEntity
  8
SLD-0
100
AcDbTrace
 10
10.6065950753
 20
3.046398162
 30
0.0
 11
10.7065950753
 21
3.696398162
 31
0.0
 12
10.5065950753
 22
3.696398162
 32
0.0
 13
10.5065950753
 23
3.696398162
 33
0.0
  0
LINE
  5
30C
330
307
100
AcDbEntity
  8
SLD-0
100
AcDbLine
 10
9.1326368526
 20
5.88913403
 30
0.0
 11
8.9422071671
 21
5.88913403
 31
0.0
  0
LINE
  5
30D
330
307
100
AcDbEntity
  8
SLD-0
100
AcDbLine
 10
8.9422071671
 20
5.88913403
 30
0.0
 11
8.9422071671
 21
4.8969465002
 31
0.0
  0
LINE
  5
30E
330
307
100
AcDbEntity
  8
SLD-0
100
AcDbLine
 10
8.9422071671
 20
4.8969465002
 30
0.0
 11
9.1326368526
 21
4.8969465002
 31
0.0
  0
LINE
  5
30F
330
307
100
AcDbEntity
  8
SLD-0
100
AcDbLine
 10
12.0805534814
 20
5.88913403
 30
0.0
 11
12.2709831669
 21
5.88913403
 31
0.0
  0
LINE
  5
310
330
307
100
AcDbEntity
  8
SLD-0
100
AcDbLine
 10
12.2709831669
 20
5.88913403
 30
0.0
 11
12.2709831669
 21
4.8969465002
 31
0.0
  0
LINE
  5
311
330
307
100
AcDbEntity
  8
SLD-0
100
AcDbLine
 10
12.2709831669
 20
4.8969465002
 30
0.0
 11
12.0805534814
 21
4.8969465002
 31
0.0
  0
LINE
  5
312
330
307
100
AcDbEntity
  8
SLD-0
100
AcDbLine
 10
13.2478864241
 20
8.977648162
 30
0.0
 11
9.9815950753
 21
8.977648162
 31
0.0
  0
LINE
  5
313
330
307
100
AcDbEntity
  8
SLD-0
100
AcDbLine
 10
13.2478864241
 20
3.046398162
 30
0.0
 11
9.9815950753
 21
3.046398162
 31
0.0
  0
LINE
  5
314
330
307
100
AcDbEntity
  8
SLD-0
100
AcDbLine
 10
10.6065950753
 20
8.977648162
 30
0.0
 11
10.6065950753
 21
7.0178232913
 31
0.0
  0
LINE
  5
315
330
307
100
AcDbEntity
  8
SLD-0
100
AcDbLine
 10
10.6065950753
 20
3.046398162
 30
0.0
 11
10.6065950753
 21
4.7699935751
 31
0.0
  0
MTEXT
  5
316
330
307
100
AcDbEntity
  8
SLD-0
100
AcDbMText
 10
8.5208747031
 20
6.823975674
 30
0.0
 40
0.625
 41
0.0
 71
     1
 72
     1
  1
 
  7
SLDTEXTSTYLE0
 73
     1
 44
1.0
  0
MTEXT
  5
317
330
307
100
AcDbEntity
  8
SLD-0
100
AcDbMText
 10
9.4872375104
 20
6.8144270166
 30
0.0
 40
0.625
 41
0.0
 71
     1
 72
     1
  1
4 3/4"
  7
SLDTEXTSTYLE0
 73
     1
 44
1.0
  0
MTEXT
  5
318
330
307
100
AcDbEntity
  8
SLD-0
100
AcDbMText
 10
9.1326368526
 20
5.6952864127
 30
0.0
 40
0.625
 41
0.0
 71
     1
 72
     1
  1
121mm
  7
SLDTEXTSTYLE0
 73
     1
 44
1.0
  0
MTEXT
  5
319
330
307
100
AcDbEntity
  8
SLD-0
100
AcDbMText
 10
12.461412715
 20
6.823975674
 30
0.0
 40
0.625
 41
0.0
 71
     1
 72
     1
  1
 
  7
SLDTEXTSTYLE0
 73
     1
 44
1.0
  0
ENDBLK
  5
309
330
307
100
AcDbEntity
  8
0
100
AcDbBlockEnd
  0
BLOCK
  5
328
330
327
100
AcDbEntity
  8
0
100
AcDbBlockBegin
  2
_D_13
 70
     0
 10
0.0
 20
0.0
 30
0.0
  3
_D_13
  1

  0
SOLID
  5
32A
330
327
100
AcDbEntity
  8
SLD-0
100
AcDbTrace
 10
32.2104776191
 20
3.046398162
 30
0.0
 11
32.1104776191
 21
2.396398162
 31
0.0
 12
32.3104776191
 22
2.396398162
 32
0.0
 13
32.3104776191
 23
2.396398162
 33
0.0
  0
SOLID
  5
32B
330
327
100
AcDbEntity
  8
SLD-0
100
AcDbTrace
 10
32.2104776191
 20
5.108898162
 30
0.0
 11
32.3104776191
 21
5.758898162
 31
0.0
 12
32.1104776191
 22
5.758898162
 32
0.0
 13
32.1104776191
 23
5.758898162
 33
0.0
  0
LINE
  5
32C
330
327
100
AcDbEntity
  8
SLD-0
100
AcDbLine
 10
30.967422129
 20
4.1592386924
 30
0.0
 11
30.7769924435
 21
4.1592386924
 31
0.0
  0
LINE
  5
32D
330
327
100
AcDbEntity
  8
SLD-0
100
AcDbLine
 10
30.7769924435
 20
4.1592386924
 30
0.0
 11
30.7769924435
 21
3.1670511626
 31
0.0
  0
LINE
  5
32E
330
327
100
AcDbEntity
  8
SLD-0
100
AcDbLine
 10
30.7769924435
 20
3.1670511626
 30
0.0
 11
30.967422129
 21
3.1670511626
 31
0.0
  0
LINE
  5
32F
330
327
100
AcDbEntity
  8
SLD-0
100
AcDbLine
 10
33.4535332926
 20
4.1592386924
 30
0.0
 11
33.6439629781
 21
4.1592386924
 31
0.0
  0
LINE
  5
330
330
327
100
AcDbEntity
  8
SLD-0
100
AcDbLine
 10
33.6439629781
 20
4.1592386924
 30
0.0
 11
33.6439629781
 21
3.1670511626
 31
0.0
  0
LINE
  5
331
330
327
100
AcDbEntity
  8
SLD-0
100
AcDbLine
 10
33.6439629781
 20
3.1670511626
 30
0.0
 11
33.4535332926
 21
3.1670511626
 31
0.0
  0
LINE
  5
332
330
327
100
AcDbEntity
  8
SLD-0
100
AcDbLine
 10
34.6826613576
 20
3.046398162
 30
0.0
 11
31.5854776191
 21
3.046398162
 31
0.0
  0
LINE
  5
333
330
327
100
AcDbEntity
  8
SLD-0
100
AcDbLine
 10
34.7201613576
 20
5.108898162
 30
0.0
 11
31.5854776191
 21
5.108898162
 31
0.0
  0
LINE
  5
334
330
327
100
AcDbEntity
  8
SLD-0
100
AcDbLine
 10
32.2104776191
 20
3.046398162
 30
0.0
 11
32.2104776191
 21
1.796398162
 31
0.0
  0
LINE
  5
335
330
327
100
AcDbEntity
  8
SLD-0
100
AcDbLine
 10
32.2104776191
 20
5.108898162
 30
0.0
 11
32.2104776191
 21
6.358898162
 31
0.0
  0
MTEXT
  5
336
330
327
100
AcDbEntity
  8
SLD-0
100
AcDbMText
 10
30.3556599795
 20
5.0940803364
 30
0.0
 40
0.625
 41
0.0
 71
     1
 72
     1
  1
 
  7
SLDTEXTSTYLE0
 73
     1
 44
1.0
  0
MTEXT
  5
337
330
327
100
AcDbEntity
  8
SLD-0
100
AcDbMText
 10
31.0911200542
 20
5.084531679
 30
0.0
 40
0.625
 41
0.0
 71
     1
 72
     1
  1
1 5/8"
  7
SLDTEXTSTYLE0
 73
     1
 44
1.0
  0
MTEXT
  5
338
330
327
100
AcDbEntity
  8
SLD-0
100
AcDbMText
 10
30.967422129
 20
3.9653910751
 30
0.0
 40
0.625
 41
0.0
 71
     1
 72
     1
  1
42mm
  7
SLDTEXTSTYLE0
 73
     1
 44
1.0
  0
MTEXT
  5
339
330
327
100
AcDbEntity
  8
SLD-0
100
AcDbMText
 10
33.8343925262
 20
5.0940803364
 30
0.0
 40
0.625
 41
0.0
 71
     1
 72
     1
  1
 
  7
SLDTEXTSTYLE0
 73
     1
 44
1.0
  0
ENDBLK
  5
329
330
327
100
AcDbEntity
  8
0
100
AcDbBlockEnd
  0
BLOCK
  5
349
330
348
100
AcDbEntity
  8
0
100
AcDbBlockBegin
  2
_D_14
 70
     0
 10
0.0
 20
0.0
 30
0.0
  3
_D_14
  1

  0
SOLID
  5
34B
330
348
100
AcDbEntity
  8
SLD-0
100
AcDbTrace
 10
42.4822018767
 20
5.546398162
 30
0.0
 11
42.5822018767
 21
6.196398162
 31
0.0
 12
42.3822018767
 22
6.196398162
 32
0.0
 13
42.3822018767
 23
6.196398162
 33
0.0
  0
SOLID
  5
34C
330
348
100
AcDbEntity
  8
SLD-0
100
AcDbTrace
 10
42.4822018767
 20
3.046398162
 30
0.0
 11
42.3822018767
 21
2.396398162
 31
0.0
 12
42.5822018767
 22
2.396398162
 32
0.0
 13
42.5822018767
 23
2.396398162
 33
0.0
  0
LINE
  5
34D
330
348
100
AcDbEntity
  8
SLD-0
100
AcDbLine
 10
41.2391463866
 20
4.2916237588
 30
0.0
 11
41.0487167011
 21
4.2916237588
 31
0.0
  0
LINE
  5
34E
330
348
100
AcDbEntity
  8
SLD-0
100
AcDbLine
 10
41.0487167011
 20
4.2916237588
 30
0.0
 11
41.0487167011
 21
3.299436229
 31
0.0
  0
LINE
  5
34F
330
348
100
AcDbEntity
  8
SLD-0
100
AcDbLine
 10
41.0487167011
 20
3.299436229
 30
0.0
 11
41.2391463866
 21
3.299436229
 31
0.0
  0
LINE
  5
350
330
348
100
AcDbEntity
  8
SLD-0
100
AcDbLine
 10
43.7252575502
 20
4.2916237588
 30
0.0
 11
43.9156872357
 21
4.2916237588
 31
0.0
  0
LINE
  5
351
330
348
100
AcDbEntity
  8
SLD-0
100
AcDbLine
 10
43.9156872357
 20
4.2916237588
 30
0.0
 11
43.9156872357
 21
3.299436229
 31
0.0
  0
LINE
  5
352
330
348
100
AcDbEntity
  8
SLD-0
100
AcDbLine
 10
43.9156872357
 20
3.299436229
 30
0.0
 11
43.7252575502
 21
3.299436229
 31
0.0
  0
LINE
  5
353
330
348
100
AcDbEntity
  8
SLD-0
100
AcDbLine
 10
44.3469100603
 20
5.546398162
 30
0.0
 11
41.8572018767
 21
5.546398162
 31
0.0
  0
LINE
  5
354
330
348
100
AcDbEntity
  8
SLD-0
100
AcDbLine
 10
44.3094100603
 20
3.046398162
 30
0.0
 11
41.8572018767
 21
3.046398162
 31
0.0
  0
LINE
  5
355
330
348
100
AcDbEntity
  8
SLD-0
100
AcDbLine
 10
42.4822018767
 20
5.546398162
 30
0.0
 11
42.4822018767
 21
6.796398162
 31
0.0
  0
LINE
  5
356
330
348
100
AcDbEntity
  8
SLD-0
100
AcDbLine
 10
42.4822018767
 20
3.046398162
 30
0.0
 11
42.4822018767
 21
1.796398162
 31
0.0
  0
MTEXT
  5
357
330
348
100
AcDbEntity
  8
SLD-0
100
AcDbMText
 10
40.6273842371
 20
5.2264654027
 30
0.0
 40
0.625
 41
0.0
 71
     1
 72
     1
  1
 
  7
SLDTEXTSTYLE0
 73
     1
 44
1.0
  0
MTEXT
  5
358
330
348
100
AcDbEntity
  8
SLD-0
100
AcDbMText
 10
42.1223928937
 20
5.2169167453
 30
0.0
 40
0.625
 41
0.0
 71
     1
 72
     1
  1
2"
  7
SLDTEXTSTYLE0
 73
     1
 44
1.0
  0
MTEXT
  5
359
330
348
100
AcDbEntity
  8
SLD-0
100
AcDbMText
 10
41.2391463866
 20
4.0977761415
 30
0.0
 40
0.625
 41
0.0
 71
     1
 72
     1
  1
51mm
  7
SLDTEXTSTYLE0
 73
     1
 44
1.0
  0
MTEXT
  5
35A
330
348
100
AcDbEntity
  8
SLD-0
100
AcDbMText
 10
44.1061167838
 20
5.2264654027
 30
0.0
 40
0.625
 41
0.0
 71
     1
 72
     1
  1
 
  7
SLDTEXTSTYLE0
 73
     1
 44
1.0
  0
ENDBLK
  5
34A
330
348
100
AcDbEntity
  8
0
100
AcDbBlockEnd
  0
ENDSEC
  0
SECTION
  2
ENTITIES
  0
INSERT
  5
71
330
1F
100
AcDbEntity
  8
0
  6
Continuous
 62
     7
100
AcDbBlockReference
  2
SW_BROKEN_VIEW_0
 10
0.0
 20
0.0
 30
0.0
  0
LINE
  5
72
330
1F
100
AcDbEntity
  8
0
  6
Continuous
 62
     7
370
    25
100
AcDbLine
 10
39.9022062942
 20
34.4469121935
 30
0.0
 11
39.90545727
 21
34.4487906784
 31
0.0
  0
LINE
  5
73
330
1F
100
AcDbEntity
  8
0
  6
Continuous
 62
     7
370
    25
100
AcDbLine
 10
39.9502640057
 20
34.5264257283
 30
0.0
 11
39.9502640057
 21
34.5302683505
 31
0.0
  0
LINE
  5
74
330
1F
100
AcDbEntity
  8
0
  6
Continuous
 62
     7
370
    25
100
AcDbLine
 10
39.1605671417
 20
34.5302683505
 30
0.0
 11
39.1605671417
 21
34.5264257283
 31
0.0
  0
LINE
  5
75
330
1F
100
AcDbEntity
  8
0
  6
Continuous
 62
     7
370
    25
100
AcDbLine
 10
39.2053738774
 20
34.4487906784
 30
0.0
 11
39.2086248532
 21
34.4469121935
 31
0.0
  0
LINE
  5
76
330
1F
100
AcDbEntity
  8
0
  6
Continuous
 62
     7
370
    25
100
AcDbLine
 10
40.2063717005
 20
34.097724014
 30
0.0
 11
40.1851472257
 21
34.109986379
 31
0.0
  0
LINE
  5
77
330
1F
100
AcDbEntity
  8
0
  6
Continuous
 62
     7
370
    25
100
AcDbLine
 10
38.6569832792
 20
34.109986379
 30
0.0
 11
38.6357588043
 21
34.097724014
 31
0.0
  0
LINE
  5
78
330
1F
100
AcDbEntity
  8
0
  6
Continuous
 62
     7
370
    25
100
AcDbLine
 10
38.3110651419
 20
33.6449704176
 30
0.0
 11
38.3110651419
 21
32.1382664898
 31
0.0
  0
LINE
  5
79
330
1F
100
AcDbEntity
  8
0
  6
Continuous
 62
     7
370
    25
100
AcDbLine
 10
40.5310652163
 20
32.1382664898
 30
0.0
 11
40.5310652163
 21
33.6449704176
 31
0.0
  0
ARC
  5
7A
330
1F
100
AcDbEntity
  8
0
  6
Continuous
 62
     7
370
    25
100
AcDbCircle
 10
39.4210666979
 20
34.1063724895
 30
0.0
 40
0.4950013005307716
100
AcDbArc
 50
136.1384357047
 51
179.9999925241
  0
LINE
  5
7B
330
1F
100
AcDbEntity
  8
0
  6
Continuous
 62
     7
370
    25
100
AcDbLine
 10
38.9260653974
 20
34.1063725541
 30
0.0
 11
38.9260653974
 21
33.6694693346
 31
0.0
  0
LINE
  5
7C
330
1F
100
AcDbEntity
  8
0
  6
Continuous
 62
     7
370
    25
100
AcDbLine
 10
39.0604154987
 20
35.3151676567
 30
0.0
 11
39.0604154987
 21
34.5596506245
 31
0.0
  0
LINE
  5
7D
330
1F
100
AcDbEntity
  8
0
  6
Continuous
 62
     7
370
    25
100
AcDbLine
 10
40.0504155021
 20
34.5596506245
 30
0.0
 11
40.0504155021
 21
35.3151676567
 31
0.0
  0
LINE
  5
7E
330
1F
100
AcDbEntity
  8
0
  6
Continuous
 62
     7
370
    25
100
AcDbLine
 10
39.0604154987
 20
34.5596506245
 30
0.0
 11
39.0604154987
 21
34.4910254972
 31
0.0
  0
LINE
  5
7F
330
1F
100
AcDbEntity
  8
0
  6
Continuous
 62
     7
370
    25
100
AcDbLine
 10
40.0504155021
 20
34.0246684313
 30
0.0
 11
40.0504155021
 21
34.5596506245
 31
0.0
  0
SPLINE
  5
80
330
1F
100
AcDbEntity
  8
0
  6
Continuous
 62
     7
370
    25
100
AcDbSpline
210
0.0
220
0.0
230
1.0
 70
     8
 71
     3
 72
    19
 73
    15
 74
     0
 42
0.00000001
 43
0.00000001
 40
0.0
 40
0.0
 40
0.0
 40
0.0
 40
0.0426713701496741
 40
0.1264530215018755
 40
0.2096404171750948
 40
0.2932995325076678
 40
0.3790624100090303
 40
0.4693041422814681
 40
0.5669929316516573
 40
0.6580496321784746
 40
0.7482482285631175
 40
0.8381212284629216
 40
0.9281850459026599
 40
1.0
 40
1.0
 40
1.0
 40
1.0
 10
39.21470323632899
 20
33.66725762678409
 30
0.0
 10
39.22286171166868
 20
33.65916528034783
 30
0.0
 10
39.24703866811359
 20
33.63518429135415
 30
0.0
 10
39.29380004194093
 20
33.60302724865135
 30
0.0
 10
39.3532989920513
 20
33.57108918149373
 30
0.0
 10
39.41738047046464
 20
33.54772017536705
 30
0.0
 10
39.485862801774
 20
33.53289402171681
 30
0.0
 10
39.5595834105944
 20
33.52778514810058
 30
0.0
 10
39.63469957841442
 20
33.53410870746696
 30
0.0
 10
39.70787542011887
 20
33.55188491698996
 30
0.0
 10
39.77574689014588
 20
33.57939671739611
 30
0.0
 10
39.8383727024017
 20
33.61661624460152
 30
0.0
 10
39.89191705409621
 20
33.65875298778208
 30
0.0
 10
39.9205433472773
 20
33.69166250840442
 30
0.0
 10
39.93324294903024
 20
33.70626229619882
 30
0.0
  0
SPLINE
  5
81
330
1F
100
AcDbEntity
  8
0
  6
Continuous
 62
     7
370
    25
100
AcDbSpline
210
0.0
220
0.0
230
1.0
 70
     8
 71
     3
 72
    10
 73
     6
 74
     0
 42
0.00000001
 43
0.00000001
 40
0.0
 40
0.0
 40
0.0
 40
0.0
 40
0.2714215648677239
 40
0.8158039471348015
 40
1.0
 40
1.0
 40
1.0
 40
1.0
 10
40.02624262135676
 20
33.8763866242414
 30
0.0
 10
40.03048087435265
 20
33.88935522606733
 30
0.0
 10
40.04321966879843
 20
33.9283345774817
 30
0.0
 10
40.05080893455003
 20
33.97875585220203
 30
0.0
 10
40.04933545177386
 20
34.01536590346379
 30
0.0
 10
40.04896293222312
 20
34.02462149848615
 30
0.0
  0
LINE
  5
82
330
1F
100
AcDbEntity
  8
0
  6
Continuous
 62
     7
370
    25
100
AcDbLine
 10
38.3110651419
 20
32.1301001842
 30
0.0
 11
38.3110651419
 21
28.5206359077
 31
0.0
  0
LINE
  5
83
330
1F
100
AcDbEntity
  8
0
  6
Continuous
 62
     7
370
    25
100
AcDbLine
 10
40.5310652163
 20
29.8025810452
 30
0.0
 11
40.5310652163
 21
32.1301001842
 31
0.0
  0
LINE
  5
84
330
1F
100
AcDbEntity
  8
0
  6
Continuous
 62
     7
370
    25
100
AcDbLine
 10
39.8740265264
 20
33.6805337401
 30
0.0
 11
39.8825528946
 21
33.6816976733
 31
0.0
  0
LINE
  5
85
330
1F
100
AcDbEntity
  8
0
  6
Continuous
 62
     7
370
    25
100
AcDbLine
 10
40.0196463642
 20
33.9192350893
 30
0.0
 11
40.0163889352
 21
33.9271995839
 31
0.0
  0
LINE
  5
86
330
1F
100
AcDbEntity
  8
0
  6
Continuous
 62
     7
370
    25
100
AcDbLine
 10
39.810442421
 20
33.7015279509
 30
0.0
 11
39.835368133
 21
33.6871430504
 31
0.0
  0
LINE
  5
87
330
1F
100
AcDbEntity
  8
0
  6
Continuous
 62
     7
370
    25
100
AcDbLine
 10
39.991326678
 20
33.9573668088
 30
0.0
 11
39.9567756372
 21
33.9773073784
 31
0.0
  0
SPLINE
  5
88
330
1F
100
AcDbEntity
  8
0
  6
Continuous
 62
     7
370
    25
100
AcDbSpline
210
0.0
220
0.0
230
1.0
 70
     8
 71
     3
 72
    56
 73
    52
 74
     0
 42
0.00000001
 43
0.00000001
 40
0.0
 40
0.0
 40
0.0
 40
0.0
 40
0.0116039638226755
 40
0.032774772102475
 40
0.0535088180583779
 40
0.0737523570922289
 40
0.0934835365655758
 40
0.1126863496482414
 40
0.1313570369242591
 40
0.1495107429742622
 40
0.1671836479756403
 40
0.1844323157285311
 40
0.2013286279060152
 40
0.2179551368170526
 40
0.2344006844984388
 40
0.2507574270489928
 40
0.2671063227348495
 40
0.2835332738017382
 40
0.3001374580945901
 40
0.3170175402766833
 40
0.3342688896925669
 40
0.351978794281853
 40
0.3702204772609475
 40
0.3890470009042944
 40
0.4084870230549936
 40
0.4285441030580455
 40
0.4492002151630764
 40
0.470422257448332
 40
0.4921687305754527
 40
0.5143889232880705
 40
0.5370352396008868
 40
0.5600666565956927
 40
0.5834415480669676
 40
0.6071170633478901
 40
0.6310490205697511
 40
0.6551907737319855
 40
0.6794943526596333
 40
0.7039101151729171
 40
0.7283873713025768
 40
0.7528746589937255
 40
0.7773198267781215
 40
0.8016698721515011
 40
0.8258759143675551
 40
0.8498914868102759
 40
0.8736727565764031
 40
0.8971798231689644
 40
0.9203764211331233
 40
0.9432310251213827
 40
0.9657159522380806
 40
0.9878077250107165
 40
1.0
 40
1.0
 40
1.0
 40
1.0
 10
43.59094944155938
 20
38.62135399664007
 30
0.0
 10
43.59065624722794
 20
38.65181765725534
 30
0.0
 10
43.58982813559803
 20
38.73786062923714
 30
0.0
 10
43.58060464219721
 20
38.87815380930454
 30
0.0
 10
43.55965677399544
 20
39.04006948370526
 30
0.0
 10
43.52794698877469
 20
39.19640764660723
 30
0.0
 10
43.48567673053772
 20
39.34606124174245
 30
0.0
 10
43.43300044904554
 20
39.48799833271992
 30
0.0
 10
43.37030347688322
 20
39.62125249583746
 30
0.0
 10
43.29811773789115
 20
39.74499801481804
 30
0.0
 10
43.21708280157905
 20
39.85859107839015
 30
0.0
 10
43.12789318670759
 20
39.9615772723395
 30
0.0
 10
43.03124194273517
 20
40.05365893535279
 30
0.0
 10
42.92779413924362
 20
40.13465555836345
 30
0.0
 10
42.81816732258117
 20
40.20446338114255
 30
0.0
 10
42.70294729153133
 20
40.26299264404177
 30
0.0
 10
42.58269532589156
 20
40.31018218427275
 30
0.0
 10
42.45790528610092
 20
40.34597944895539
 30
0.0
 10
42.32897803442503
 20
40.37035026188786
 30
0.0
 10
42.196233148391
 20
40.38322153095674
 30
0.0
 10
42.05997669608818
 20
40.38448435778565
 30
0.0
 10
41.92054138970024
 20
40.37400500962637
 30
0.0
 10
41.77833323584338
 20
40.35164734922256
 30
0.0
 10
41.63386687928905
 20
40.31732521742268
 30
0.0
 10
41.48777892104024
 20
40.27104492920548
 30
0.0
 10
41.34080880724037
 20
40.21294787985456
 30
0.0
 10
41.19375545501717
 20
40.14332010683869
 30
0.0
 10
41.0474225450308
 20
40.06257978784005
 30
0.0
 10
40.9025852160485
 20
39.97125233365716
 30
0.0
 10
40.75995102338838
 20
39.86993309998184
 30
0.0
 10
40.62014132249525
 20
39.7592419492594
 30
0.0
 10
40.48369102523546
 20
39.63979028738421
 30
0.0
 10
40.35107164880651
 20
39.51217809774948
 30
0.0
 10
40.22272159809921
 20
39.37699928282414
 30
0.0
 10
40.09906025493223
 20
39.23484352421517
 30
0.0
 10
39.9804848542731
 20
39.08630623231625
 30
0.0
 10
39.86738766271297
 20
38.93198133919671
 30
0.0
 10
39.76014621032789
 20
38.77247037697073
 30
0.0
 10
39.65913347749673
 20
38.60837812295684
 30
0.0
 10
39.56470828959242
 20
38.44032031589125
 30
0.0
 10
39.47722813347283
 20
38.268919320629
 30
0.0
 10
39.39703512523952
 20
38.0948017846847
 30
0.0
 10
39.32445821864876
 20
37.91859193195899
 30
0.0
 10
39.25981376183211
 20
37.74090565128804
 30
0.0
 10
39.2034087605246
 20
37.56235518884817
 30
0.0
 10
39.15554137578578
 20
37.38354882522806
 30
0.0
 10
39.11652096354985
 20
37.20509304759321
 30
0.0
 10
39.0865893146599
 20
37.02759635292442
 30
0.0
 10
39.06623541851086
 20
36.8516824805892
 30
0.0
 10
39.05664908262814
 20
36.70285223952642
 30
0.0
 10
39.05573924946356
 20
36.61284655966276
 30
0.0
 10
39.05541568976565
 20
36.5808382621853
 30
0.0
  0
SPLINE
  5
89
330
1F
100
AcDbEntity
  8
0
  6
Continuous
 62
     7
370
    25
100
AcDbSpline
210
0.0
220
0.0
230
1.0
 70
     8
 71
     3
 72
    50
 73
    46
 74
     0
 42
0.00000001
 43
0.00000001
 40
0.0
 40
0.0
 40
0.0
 40
0.0
 40
0.0128120295329326
 40
0.0384111597465436
 40
0.0653993139613252
 40
0.0936824125578017
 40
0.1231441884640017
 40
0.1536530117017613
 40
0.1850676534690857
 40
0.2172362721950599
 40
0.2500009867213825
 40
0.2831980098276718
 40
0.3166603117457436
 40
0.3502179616809645
 40
0.3837002353603006
 40
0.4169288385135511
 40
0.449735102427218
 40
0.481953118734582
 40
0.5134214946362639
 40
0.5439839561823838
 40
0.5734917656813947
 40
0.6018053086166074
 40
0.6287959721026202
 40
0.6543484416537025
 40
0.6783637946492957
 40
0.7007631290052485
 40
0.721491181818153
 40
0.7405220674043813
 40
0.7578410871288195
 40
0.773499479306166
 40
0.7876095146751633
 40
0.8003689118866912
 40
0.812107559834014
 40
0.8233834487692554
 40
0.8351722947305041
 40
0.8472899466157716
 40
0.8589562933800761
 40
0.8711301814537081
 40
0.8842581445330118
 40
0.9000966569420654
 40
0.9173020450335417
 40
0.9360015212108663
 40
0.9562718863088472
 40
0.9781338673048099
 40
1.0
 40
1.0
 40
1.0
 40
1.0
 10
40.05541560434797
 20
36.5808382621853
 30
0.0
 10
40.05561549256201
 20
36.60105835814361
 30
0.0
 10
40.05621476827405
 20
36.66167930301023
 30
0.0
 10
40.06286282516535
 20
36.76475489750683
 30
0.0
 10
40.07770204885131
 20
36.89156642418445
 30
0.0
 10
40.1002732072881
 20
37.02343475924371
 30
0.0
 10
40.1305189525722
 20
37.15944501030732
 30
0.0
 10
40.16848164321383
 20
37.29863544685391
 30
0.0
 10
40.21405317229079
 20
37.4400158595135
 30
0.0
 10
40.26706170300591
 20
37.58258240784151
 30
0.0
 10
40.32724595141453
 20
37.72532758828624
 30
0.0
 10
40.3942747418528
 20
37.86724989280357
 30
0.0
 10
40.46774100961766
 20
38.00736320760285
 30
0.0
 10
40.54717621000407
 20
38.14470107152894
 30
0.0
 10
40.63203832533951
 20
38.27831711100566
 30
0.0
 10
40.7217295432798
 20
38.40729966811762
 30
0.0
 10
40.81559074463384
 20
38.53078434185966
 30
0.0
 10
40.91292218603293
 20
38.64796515220798
 30
0.0
 10
41.01297041528714
 20
38.75809836553478
 30
0.0
 10
41.11494324726846
 20
38.86050265568059
 30
0.0
 10
41.21800409952571
 20
38.95457722312952
 30
0.0
 10
41.32128268583551
 20
39.03980963580848
 30
0.0
 10
41.42388085623243
 20
39.1157886237138
 30
0.0
 10
41.5248837546788
 20
39.18221636510474
 30
0.0
 10
41.62337346944365
 20
39.23892351550739
 30
0.0
 10
41.71844592061213
 20
39.28588860974488
 30
0.0
 10
41.80924398878996
 20
39.32323850077505
 30
0.0
 10
41.8949494663474
 20
39.3512572973879
 30
0.0
 10
41.97486502707214
 20
39.37039917173595
 30
0.0
 10
42.04848597217691
 20
39.38126652722158
 30
0.0
 10
42.11563750381339
 20
39.38457635518758
 30
0.0
 10
42.17659397722255
 20
39.3810046953572
 30
0.0
 10
42.23229863710607
 20
39.37092067917354
 30
0.0
 10
42.28469072468691
 20
39.35380265180722
 30
0.0
 10
42.33432372314405
 20
39.32832647981844
 30
0.0
 10
42.37937964723614
 20
39.29438805669347
 30
0.0
 10
42.41905945189637
 20
39.25356813322068
 30
0.0
 10
42.45406898756481
 20
39.20672239587856
 30
0.0
 10
42.4869012279194
 20
39.15057069157395
 30
0.0
 10
42.51691655568301
 20
39.08402554036169
 30
0.0
 10
42.54315834985746
 20
39.00658030645003
 30
0.0
 10
42.56430877132354
 20
38.920378777734
 30
0.0
 10
42.57976599986075
 20
38.82555149161215
 30
0.0
 10
42.58928905038059
 20
38.72489049245521
 30
0.0
 10
42.59039595085892
 20
38.65586834631267
 30
0.0
 10
42.59094945364457
 20
38.62135399664007
 30
0.0
  0
LINE
  5
8A
330
1F
100
AcDbEntity
  8
0
  6
Continuous
 62
     7
370
    25
100
AcDbLine
 10
40.0554156043
 20
35.3558759864
 30
0.0
 11
40.0554156043
 21
36.5808382622
 31
0.0
  0
LINE
  5
8B
330
1F
100
AcDbEntity
  8
0
  6
Continuous
 62
     7
370
    25
100
AcDbLine
 10
39.0554156898
 20
36.5808382622
 30
0.0
 11
39.0554156898
 21
35.3558759864
 31
0.0
  0
LINE
  5
8C
330
1F
100
AcDbEntity
  8
0
  6
Continuous
 62
     7
370
    25
100
AcDbLine
 10
43.5909494416
 20
27.0111802517
 30
0.0
 11
43.5909494416
 21
38.6213539966
 31
0.0
  0
LINE
  5
8D
330
1F
100
AcDbEntity
  8
0
  6
Continuous
 62
     7
370
    25
100
AcDbLine
 10
42.5909494536
 20
38.6213539966
 30
0.0
 11
42.5909494536
 21
27.2335079233
 31
0.0
  0
LWPOLYLINE
  5
8E
330
1F
100
AcDbEntity
  8
0
  6
Continuous
 62
     7
370
    25
100
AcDbPolyline
 90
       17
 70
   128
 43
0.0
 10
39.8640153221
 20
34.4964603144
 10
39.8606028682
 20
34.4746776327
 10
39.8640153221
 20
34.4568337855
 10
39.8737333432
 20
34.4456450081
 10
39.8882775218
 20
34.4428161341
 10
39.9054333636
 20
34.4487765986
 10
39.9225893521
 20
34.4626194254
 10
39.9371333841
 20
34.4822361587
 10
39.9468514052
 20
34.5046418732
 10
39.9502640057
 20
34.5264257283
 10
39.9468514052
 20
34.5442695755
 10
39.9371333841
 20
34.5554571796
 10
39.9225893521
 20
34.5582872269
 10
39.9054333636
 20
34.5523267624
 10
39.8882775218
 20
34.5384839356
 10
39.8737333432
 20
34.5188660289
 10
39.8640153221
 20
34.4964603144
  0
LINE
  5
8F
330
1F
100
AcDbEntity
  8
0
  6
Continuous
 62
     7
370
    25
100
AcDbLine
 10
39.9213551664
 20
34.4778913556
 30
0.0
 11
39.9372768224
 21
34.5189293882
 31
0.0
  0
LINE
  5
90
330
1F
100
AcDbEntity
  8
0
  6
Continuous
 62
     7
370
    25
100
AcDbLine
 10
39.9213551664
 20
34.5415897131
 30
0.0
 11
39.9372768224
 21
34.5189293882
 31
0.0
  0
LINE
  5
91
330
1F
100
AcDbEntity
  8
0
  6
Continuous
 62
     7
370
    25
100
AcDbLine
 10
39.8895117076
 20
34.5232108321
 30
0.0
 11
39.9213551664
 21
34.5415897131
 31
0.0
  0
LINE
  5
92
330
1F
100
AcDbEntity
  8
0
  6
Continuous
 62
     7
370
    25
100
AcDbLine
 10
39.8895117076
 20
34.5232108321
 30
0.0
 11
39.8735900515
 21
34.4821727995
 31
0.0
  0
LINE
  5
93
330
1F
100
AcDbEntity
  8
0
  6
Continuous
 62
     7
370
    25
100
AcDbLine
 10
39.8895117076
 20
34.4595136479
 30
0.0
 11
39.8735900515
 21
34.4821727995
 31
0.0
  0
LINE
  5
94
330
1F
100
AcDbEntity
  8
0
  6
Continuous
 62
     7
370
    25
100
AcDbLine
 10
39.8895117076
 20
34.4595136479
 30
0.0
 11
39.9213551664
 21
34.4778913556
 31
0.0
  0
LINE
  5
95
330
1F
100
AcDbEntity
  8
0
  6
Continuous
 62
     7
370
    25
100
AcDbLine
 10
39.9096848878
 20
34.5348536842
 30
0.0
 11
39.9372768224
 21
34.5189293882
 31
0.0
  0
LINE
  5
96
330
1F
100
AcDbEntity
  8
0
  6
Continuous
 62
     7
370
    25
100
AcDbLine
 10
39.8809714062
 20
34.501199353
 30
0.0
 11
39.9213551664
 21
34.4778913556
 31
0.0
  0
LWPOLYLINE
  5
97
330
1F
100
AcDbEntity
  8
0
  6
Continuous
 62
     7
370
    25
100
AcDbPolyline
 90
       17
 70
   128
 43
0.0
 10
39.1639797423
 20
34.5442695755
 10
39.1605671417
 20
34.5264257283
 10
39.1639797423
 20
34.5046418732
 10
39.1736977634
 20
34.4822361587
 10
39.1882416487
 20
34.4626194254
 10
39.2053976372
 20
34.4487765986
 10
39.2225536256
 20
34.4428161341
 10
39.2370978043
 20
34.4456450081
 10
39.2468158254
 20
34.4568337855
 10
39.2502281326
 20
34.4746776327
 10
39.2468158254
 20
34.4964603144
 10
39.2370978043
 20
34.5188660289
 10
39.2225536256
 20
34.5384839356
 10
39.2053976372
 20
34.5523267624
 10
39.1882416487
 20
34.5582872269
 10
39.1736977634
 20
34.5554571796
 10
39.1639797423
 20
34.5442695755
  0
LINE
  5
98
330
1F
100
AcDbEntity
  8
0
  6
Continuous
 62
     7
370
    25
100
AcDbLine
 10
39.2213192932
 20
34.4595136479
 30
0.0
 11
39.2372409493
 21
34.4821727995
 31
0.0
  0
LINE
  5
99
330
1F
100
AcDbEntity
  8
0
  6
Continuous
 62
     7
370
    25
100
AcDbLine
 10
39.2213192932
 20
34.5232108321
 30
0.0
 11
39.2372409493
 21
34.4821727995
 31
0.0
  0
LINE
  5
9A
330
1F
100
AcDbEntity
  8
0
  6
Continuous
 62
     7
370
    25
100
AcDbLine
 10
39.1894759811
 20
34.5415897131
 30
0.0
 11
39.2213192932
 21
34.5232108321
 31
0.0
  0
LINE
  5
9B
330
1F
100
AcDbEntity
  8
0
  6
Continuous
 62
     7
370
    25
100
AcDbLine
 10
39.1894759811
 20
34.5415897131
 30
0.0
 11
39.173554325
 21
34.5189293882
 31
0.0
  0
LINE
  5
9C
330
1F
100
AcDbEntity
  8
0
  6
Continuous
 62
     7
370
    25
100
AcDbLine
 10
39.1894759811
 20
34.4778913556
 30
0.0
 11
39.173554325
 21
34.5189293882
 31
0.0
  0
LINE
  5
9D
330
1F
100
AcDbEntity
  8
0
  6
Continuous
 62
     7
370
    25
100
AcDbLine
 10
39.1894759811
 20
34.4778913556
 30
0.0
 11
39.2213192932
 21
34.4595136479
 31
0.0
  0
LINE
  5
9E
330
1F
100
AcDbEntity
  8
0
  6
Continuous
 62
     7
370
    25
100
AcDbLine
 10
39.2011461129
 20
34.5348536842
 30
0.0
 11
39.173554325
 21
34.5189293882
 31
0.0
  0
LINE
  5
9F
330
1F
100
AcDbEntity
  8
0
  6
Continuous
 62
     7
370
    25
100
AcDbLine
 10
39.2298595946
 20
34.501199353
 30
0.0
 11
39.1894759811
 21
34.4778913556
 31
0.0
  0
LWPOLYLINE
  5
A0
330
1F
100
AcDbEntity
  8
0
  6
Continuous
 62
     7
370
    25
100
AcDbPolyline
 90
       30
 70
   128
 43
0.0
 10
38.6573898345
 20
33.2287176262
 10
38.7494203446
 20
33.1813495334
 10
38.8502064604
 20
33.1403431804
 10
38.9584346501
 20
33.1062359478
 10
39.0726939968
 20
33.0794713503
 10
39.1914946778
 20
33.0603978639
 10
39.3132884975
 20
33.0492642326
 10
39.4364870743
 20
33.0462159478
 10
39.5594847201
 20
33.0512940758
 10
39.6806778
 20
33.0644293907
 10
39.7984865857
 20
33.0854529345
 10
39.911375055
 20
33.1140901504
 10
40.0178714247
 20
33.1499679226
 10
40.1165876577
 20
33.1926180965
 10
40.2062367687
 20
33.2414845187
 10
40.285649838
 20
33.2959300764
 10
40.3537917041
 20
33.3552449112
 10
40.4097741641
 20
33.4186569786
 10
40.4528672663
 20
33.4853390883
 10
40.4825091372
 20
33.554420637
 10
40.498313608
 20
33.6250028616
 10
40.5000743209
 20
33.6961647062
 10
40.4877686898
 20
33.7669780748
 10
40.4615568726
 20
33.8365207381
 10
40.4217805987
 20
33.9038845466
 10
40.3689586223
 20
33.9681942037
 10
40.3037792419
 20
34.0286084391
 10
40.2270923811
 20
34.0843399553
 10
40.1398978551
 20
34.1346648139
 10
40.0504155021
 20
34.1760172962
  0
LWPOLYLINE
  5
A1
330
1F
100
AcDbEntity
  8
0
  6
Continuous
 62
     7
370
    25
100
AcDbPolyline
 90
       18
 70
   128
 43
0.0
 10
38.9412106091
 20
34.2278827237
 10
38.8766193552
 20
34.2077884492
 10
38.7738453425
 20
34.1684599435
 10
38.6795089656
 20
34.1226277263
 10
38.5948398637
 20
34.0708866707
 10
38.5209418374
 20
34.0139137822
 10
38.4587781822
 20
33.9524494256
 10
38.409159662
 20
33.8872961515
 10
38.3727327762
 20
33.8193034437
 10
38.3499724258
 20
33.7493583317
 10
38.3411754607
 20
33.6783701384
 10
38.3464565731
 20
33.6072669598
 10
38.3657465369
 20
33.5369745452
 10
38.3987945551
 20
33.4684092572
 10
38.4451694327
 20
33.4024651657
 10
38.5042663234
 20
33.3400011406
 10
38.5753152359
 20
33.2818326392
 10
38.6573898345
 20
33.2287176262
  0
LWPOLYLINE
  5
A2
330
1F
100
AcDbEntity
  8
0
  6
Continuous
 62
     7
370
    25
100
AcDbPolyline
 90
       15
 70
   128
 43
0.0
 10
38.6361767995
 20
33.1919762906
 10
38.5532321844
 20
33.2455430318
 10
38.4812014965
 20
33.3041339283
 10
38.420989952
 20
33.3670109619
 10
38.3733546357
 20
33.4333833152
 10
38.3388954071
 20
33.5024167577
 10
38.3180446346
 20
33.5732430328
 10
38.3110651419
 20
33.6449704176
 10
38.3180446346
 20
33.7166978023
 10
38.3388954071
 20
33.7875240775
 10
38.3733546357
 20
33.85655752
 10
38.420989952
 20
33.9229298732
 10
38.4812014965
 20
33.9858069069
 10
38.5532321844
 20
34.0443978034
 10
38.6357588043
 20
34.097724014
  0
LWPOLYLINE
  5
A3
330
1F
100
AcDbEntity
  8
0
  6
Continuous
 62
     7
370
    25
100
AcDbPolyline
 90
       29
 70
   128
 43
0.0
 10
40.2063717005
 20
34.097724014
 10
40.2888981738
 20
34.0443978034
 10
40.360929155
 20
33.9858069069
 10
40.4211406995
 20
33.9229298732
 10
40.4687757225
 20
33.85655752
 10
40.5032352444
 20
33.7875240775
 10
40.5240858702
 20
33.7166978023
 10
40.5310652163
 20
33.6449704176
 10
40.5240858702
 20
33.5732430328
 10
40.5032352444
 20
33.5024167577
 10
40.4687757225
 20
33.4333833152
 10
40.4211406995
 20
33.3670109619
 10
40.360929155
 20
33.3041339283
 10
40.2888981738
 20
33.2455430318
 10
40.205953852
 20
33.1919762906
 10
40.1131389775
 20
33.1441048436
 10
40.0116208569
 20
33.1025329505
 10
39.9026762088
 20
33.0677815653
 10
39.7876750306
 20
33.0402895096
 10
39.6680634391
 20
33.0204017393
 10
39.5453459234
 20
33.0083669983
 10
39.4210652524
 20
33.0043389915
 10
39.2967845815
 20
33.0083669983
 10
39.1740670658
 20
33.0204017393
 10
39.0544556209
 20
33.0402895096
 10
38.9394544427
 20
33.0677815653
 10
38.8305096479
 20
33.1025329505
 10
38.728991674
 20
33.1441048436
 10
38.6361767995
 20
33.1919762906
  0
LWPOLYLINE
  5
A4
330
1F
100
AcDbEntity
  8
0
  6
Continuous
 62
     7
370
    25
100
AcDbPolyline
 90
       30
 70
   128
 43
0.0
 10
38.3110651419
 20
32.1382664898
 10
38.3180446346
 20
32.0665391051
 10
38.3388954071
 20
31.9957128299
 10
38.3733546357
 20
31.9266799741
 10
38.420989952
 20
31.8603076208
 10
38.4812014965
 20
31.7974305872
 10
38.5532321844
 20
31.7388396907
 10
38.6361767995
 20
31.6852723628
 10
38.728991674
 20
31.6374009159
 10
38.8305096479
 20
31.5958290228
 10
38.9394544427
 20
31.5610782242
 10
39.0544556209
 20
31.5335855818
 10
39.1740670658
 20
31.5136978116
 10
39.2967845815
 20
31.5016636572
 10
39.4210652524
 20
31.4976356504
 10
39.5453459234
 20
31.5016636572
 10
39.6680634391
 20
31.5136978116
 10
39.7876750306
 20
31.5335855818
 10
39.9026762088
 20
31.5610782242
 10
40.0116208569
 20
31.5958290228
 10
40.1131389775
 20
31.6374009159
 10
40.205953852
 20
31.6852723628
 10
40.2888981738
 20
31.7388396907
 10
40.360929155
 20
31.7974305872
 10
40.4211406995
 20
31.8603076208
 10
40.4687757225
 20
31.9266799741
 10
40.5032352444
 20
31.9957128299
 10
40.5240858702
 20
32.0665391051
 10
40.5310652163
 20
32.1382664898
 10
40.5310652163
 20
32.1382664898
  0
ARC
  5
A5
330
1F
100
AcDbEntity
  8
0
  6
Continuous
 62
     7
370
    25
100
AcDbCircle
 10
39.1674514371
 20
33.6896793752
 30
0.0
 40
0.2422306048034668
100
AcDbArc
 50
184.7859257479
 51
246.5477920483
  0
LINE
  5
A6
330
1F
100
AcDbEntity
  8
0
  6
Continuous
 62
     7
370
    25
100
AcDbLine
 10
39.1382224398
 20
33.4286888628
 30
0.0
 11
39.0710475359
 21
33.4674588682
 31
0.0
  0
LINE
  5
A7
330
1F
100
AcDbEntity
  8
0
  6
Continuous
 62
     7
370
    25
100
AcDbLine
 10
39.1382224398
 20
33.4286888628
 30
0.0
 11
39.3744829905
 21
33.5650450476
 31
0.0
  0
LWPOLYLINE
  5
A8
330
1F
100
AcDbEntity
  8
0
  6
Continuous
 62
     7
370
    25
100
AcDbPolyline
 90
        3
 70
   128
 43
0.0
 10
39.1447290847
 20
33.9469277827
 10
39.1435402184
 20
33.9388565159
 10
39.1382224398
 20
33.8655920823
  0
LINE
  5
A9
330
1F
100
AcDbEntity
  8
0
  6
Continuous
 62
     7
370
    25
100
AcDbLine
 10
39.1382224398
 20
33.8655920823
 30
0.0
 11
39.0710475359
 21
33.9043620877
 31
0.0
  0
LINE
  5
AA
330
1F
100
AcDbEntity
  8
0
  6
Continuous
 62
     7
370
    25
100
AcDbLine
 10
39.1382224398
 20
33.8655920823
 30
0.0
 11
39.1382224398
 21
33.4286888628
 31
0.0
  0
LINE
  5
AB
330
1F
100
AcDbEntity
  8
0
  6
Continuous
 62
     7
370
    25
100
AcDbLine
 10
39.0710475359
 20
33.9043620877
 30
0.0
 11
39.0710475359
 21
33.4674588682
 31
0.0
  0
LWPOLYLINE
  5
AC
330
1F
100
AcDbEntity
  8
0
  6
Continuous
 62
     7
370
    25
100
AcDbPolyline
 90
       17
 70
   128
 43
0.0
 10
40.2028181549
 20
31.683469557
 10
40.1988826937
 20
31.6811868634
 10
40.1069041029
 20
31.6337471981
 10
40.0063005851
 20
31.5925490073
 10
39.8983374189
 20
31.5581114852
 10
39.7843722821
 20
31.5308669999
 10
39.6658382381
 20
31.5111581609
 10
39.544226283
 20
31.4992325387
 10
39.4210652524
 20
31.4952409048
 10
39.2979042219
 20
31.4992325387
 10
39.1762922667
 20
31.5111581609
 10
39.0577582227
 20
31.5308669999
 10
38.9437930859
 20
31.5581114852
 10
38.8358300664
 20
31.5925490073
 10
38.735226402
 20
31.6337471981
 10
38.6432478112
 20
31.6811868634
 10
38.6375918232
 20
31.6844750921
  0
ARC
  5
AD
330
1F
100
AcDbEntity
  8
0
  6
Continuous
 62
     7
370
    25
100
AcDbCircle
 10
39.5561136719
 20
35.8149515983
 30
0.0
 40
0.7477035517253189
100
AcDbArc
 50
240.8701905479
 51
297.8520534284
  0
LWPOLYLINE
  5
AE
330
1F
100
AcDbEntity
  8
0
  6
Continuous
 62
     7
370
    25
100
AcDbPolyline
 90
       15
 70
   128
 43
0.0
 10
39.9054333636
 20
34.3576389848
 10
39.8412454385
 20
34.3264052123
 10
39.768834595
 20
34.3018804822
 10
39.6902840624
 20
34.2847723065
 10
39.6078536546
 20
34.2755711328
 10
39.523914651
 20
34.2745421314
 10
39.4408820368
 20
34.2817158085
 10
39.361144398
 20
34.2968856599
 10
39.2869952812
 20
34.3196140374
 10
39.2205683686
 20
34.3492474017
 10
39.163774118
 20
34.3849339228
 10
39.1182469639
 20
34.4256469458
 10
39.0852963312
 20
34.4702154976
 10
39.065869969
 20
34.5173559664
 10
39.0604154987
 20
34.5596506245
  0
ARC
  5
AF
330
1F
100
AcDbEntity
  8
0
  6
Continuous
 62
     7
370
    25
100
AcDbCircle
 10
39.8020325708
 20
34.5848809876
 30
0.0
 40
0.2496610738410885
100
AcDbArc
 50
294.46672192
 51
354.1998755637
  0
SPLINE
  5
B0
330
1F
100
AcDbEntity
  8
0
  6
Continuous
 62
     7
370
    25
100
AcDbSpline
210
0.0
220
0.0
230
1.0
 70
     8
 71
     3
 72
    13
 73
     9
 74
     0
 42
0.00000001
 43
0.00000001
 40
0.0
 40
0.0
 40
0.0
 40
0.0
 40
0.0862014919546876
 40
0.3074859131544347
 40
0.4851016746117771
 40
0.6634941375937995
 40
0.886641320908328
 40
1.0
 40
1.0
 40
1.0
 40
1.0
 10
39.90543336362228
 20
34.55608255900263
 30
0.0
 10
39.9071861916001
 20
34.55703377795061
 30
0.0
 10
39.91343863455837
 20
34.56042683322377
 30
0.0
 10
39.92432223727501
 20
34.56403405878058
 30
0.0
 10
39.93842651030761
 20
34.56182296958495
 30
0.0
 10
39.94748300666039
 20
34.55082444879995
 30
0.0
 10
39.95039915054776
 20
34.53888914463055
 30
0.0
 10
39.94981786928278
 20
34.53110660681823
 30
0.0
 10
39.94962205315077
 20
34.52848490447975
 30
0.0
  0
SPLINE
  5
B1
330
1F
100
AcDbEntity
  8
0
  6
Continuous
 62
     7
370
    25
100
AcDbSpline
210
0.0
220
0.0
230
1.0
 70
     8
 71
     3
 72
    12
 73
     8
 74
     0
 42
0.00000001
 43
0.00000001
 40
0.0
 40
0.0
 40
0.0
 40
0.0
 40
0.0772404737187474
 40
0.3995842777563686
 40
0.7134664502270261
 40
0.996797666288963
 40
0.9999999999999999
 40
0.9999999999999999
 40
0.9999999999999999
 40
0.9999999999999999
 10
39.94523222386245
 20
34.50153609579468
 30
0.0
 10
39.94481605426449
 20
34.49976379274074
 30
0.0
 10
39.9426631049075
 20
34.49059522603369
 30
0.0
 10
39.9348918715258
 20
34.47543049948606
 30
0.0
 10
39.9223799605339
 20
34.45768642683591
 30
0.0
 10
39.91133165890396
 20
34.44844823084664
 30
0.0
 10
39.90549855509801
 20
34.44505752363288
 30
0.0
 10
39.90543336362228
 20
34.44501962867774
 30
0.0
  0
SPLINE
  5
B2
330
1F
100
AcDbEntity
  8
0
  6
Continuous
 62
     7
370
    25
100
AcDbSpline
210
0.0
220
0.0
230
1.0
 70
     8
 71
     3
 72
    17
 73
    13
 74
     0
 42
0.00000001
 43
0.00000001
 40
0.0
 40
0.0
 40
0.0
 40
0.0
 40
0.0975133632359712
 40
0.1837179821692137
 40
0.2666421644427447
 40
0.3570070957941052
 40
0.4267586100946215
 40
0.5407526271631854
 40
0.6666290786046795
 40
0.7977669014026793
 40
0.9240303277085624
 40
1.0
 40
1.0
 40
1.0
 40
1.0
 10
39.90543336362228
 20
34.44501962867774
 30
0.0
 10
39.90024494150024
 20
34.44258221540608
 30
0.0
 10
39.89046980493155
 20
34.43799005866859
 30
0.0
 10
39.87422887109603
 20
34.43911119038324
 30
0.0
 10
39.86123471914198
 20
34.44805961079994
 30
0.0
 10
39.85501687196248
 20
34.46134717623723
 30
0.0
 10
39.85332788063056
 20
34.47729076263143
 30
0.0
 10
39.85646228059451
 20
34.49527383668059
 30
0.0
 10
39.86522901918738
 20
34.51513007075104
 30
0.0
 10
39.87813479687947
 20
34.53337496517731
 30
0.0
 10
39.89186270243759
 20
34.54727427432863
 30
0.0
 10
39.90172758211735
 20
34.55367725405906
 30
0.0
 10
39.90543336362228
 20
34.55608255900263
 30
0.0
  0
SPLINE
  5
B3
330
1F
100
AcDbEntity
  8
0
  6
Continuous
 62
     7
370
    25
100
AcDbSpline
210
0.0
220
0.0
230
1.0
 70
     8
 71
     3
 72
    25
 73
    21
 74
     0
 42
0.00000001
 43
0.00000001
 40
0.0
 40
0.0
 40
0.0
 40
0.0
 40
0.0537650776445043
 40
0.0960567315223003
 40
0.134536963746997
 40
0.1806040730637743
 40
0.2385594438747883
 40
0.3061402876931726
 40
0.3789046654611611
 40
0.4515925451877149
 40
0.5187813897674678
 40
0.577174271993586
 40
0.6274332088379192
 40
0.6738802696622079
 40
0.7226372169274452
 40
0.7782895912373261
 40
0.8420135557974069
 40
0.9124087819846484
 40
0.985980071680024
 40
1.0
 40
1.0
 40
1.0
 40
1.0
 10
39.16063284762139
 20
34.5302178977934
 30
0.0
 10
39.16094768895746
 20
34.5357986271347
 30
0.0
 10
39.16151018474499
 20
34.5457691627225
 30
0.0
 10
39.16844440030016
 20
34.55877356831396
 30
0.0
 10
39.18136607792411
 20
34.56433666847015
 30
0.0
 10
39.19636720785113
 20
34.56131449257329
 30
0.0
 10
39.21199973903705
 20
34.55267173343147
 30
0.0
 10
39.22758783226055
 20
34.53910867650312
 30
0.0
 10
39.24145146648794
 20
34.52182951789207
 30
0.0
 10
39.25186741558068
 20
34.5022761700946
 30
0.0
 10
39.25728854477009
 20
34.48225962696746
 30
0.0
 10
39.25677631524106
 20
34.4637316340215
 30
0.0
 10
39.24996920839323
 20
34.44856946020544
 30
0.0
 10
39.23718316336004
 20
34.43926392373142
 30
0.0
 10
39.22093099473559
 20
34.43803031615683
 30
0.0
 10
39.20433649323776
 20
34.4444777156484
 30
0.0
 10
39.18897200877838
 20
34.4571587620848
 30
0.0
 10
39.17639985284806
 20
34.47467489626573
 30
0.0
 10
39.16865639989006
 20
34.4893488088492
 30
0.0
 10
39.16650171751927
 20
34.49815938343463
 30
0.0
 10
39.16615683714113
 20
34.49956961184501
 30
0.0
  0
ARC
  5
B4
330
1F
100
AcDbEntity
  8
0
  6
Continuous
 62
     7
370
    25
100
AcDbCircle
 10
39.807932182
 20
34.5806468838
 30
0.0
 40
0.2433906396228488
100
AcDbArc
 50
293.6154079151
 51
355.0511895685
  0
LWPOLYLINE
  5
B5
330
1F
100
AcDbEntity
  8
0
  6
Continuous
 62
     7
370
    25
100
AcDbPolyline
 90
       15
 70
   128
 43
0.0
 10
39.0604154987
 20
34.5596506245
 10
39.065869969
 20
34.5173559664
 10
39.0852963312
 20
34.4702154976
 10
39.1182469639
 20
34.4256469458
 10
39.163774118
 20
34.3849339228
 10
39.2205683686
 20
34.3492474017
 10
39.2869952812
 20
34.3196140374
 10
39.361144398
 20
34.2968856599
 10
39.4408820368
 20
34.2817158085
 10
39.523914651
 20
34.2745421314
 10
39.6078536546
 20
34.2755711328
 10
39.6902840624
 20
34.2847723065
 10
39.768834595
 20
34.3018804822
 10
39.8412454385
 20
34.3264052123
 10
39.9054333636
 20
34.3576389848
  0
LWPOLYLINE
  5
B6
330
1F
100
AcDbEntity
  8
0
  6
Continuous
 62
     7
370
    25
100
AcDbPolyline
 90
        9
 70
   128
 43
0.0
 10
39.1447290847
 20
33.8651825937
 10
39.2002494033
 20
33.8256733968
 10
39.2670309518
 20
33.7924731403
 10
39.3429558881
 20
33.7666354654
 10
39.4256171465
 20
33.7489781761
 10
39.512393824
 20
33.7400621191
 10
39.6005344858
 20
33.7401712378
 10
39.6872445775
 20
33.7492996657
 10
39.7697750108
 20
33.7671587661
  0
LINE
  5
B7
330
1F
100
AcDbEntity
  8
0
  6
Continuous
 62
     7
370
    25
100
AcDbLine
 10
39.1447290847
 20
34.2948170972
 30
0.0
 11
39.1447290847
 21
33.8651825937
 31
0.0
  0
ARC
  5
B8
330
1F
100
AcDbEntity
  8
0
  6
Continuous
 62
     7
370
    25
100
AcDbCircle
 10
39.3532879459
 20
34.5006574383
 30
0.0
 40
0.2930307912333935
100
AcDbArc
 50
181.8836552801
 51
224.6241366025
  0
SPLINE
  5
B9
330
1F
100
AcDbEntity
  8
0
  6
Continuous
 62
     7
370
    25
100
AcDbSpline
210
0.0
220
0.0
230
1.0
 70
     8
 71
     3
 72
    16
 73
    12
 74
     0
 42
0.00000001
 43
0.00000001
 40
0.0
 40
0.0
 40
0.0
 40
0.0
 40
0.0402167662824859
 40
0.1086545160888708
 40
0.1970625643077829
 40
0.3157218195691893
 40
0.4542982110064324
 40
0.6055584113848745
 40
0.7627526992609577
 40
0.9117802099268065
 40
1.0
 40
1.0
 40
1.0
 40
1.0
 10
39.99257773025645
 20
33.95351831987613
 30
0.0
 10
39.99113062370597
 20
33.95806481237287
 30
0.0
 10
39.98722094432333
 20
33.97034817047943
 30
0.0
 10
39.96417242339837
 20
33.98222378321908
 30
0.0
 10
39.93184929032804
 20
33.97512563679214
 30
0.0
 10
39.89619550103376
 20
33.95660648912899
 30
0.0
 10
39.85812701659531
 20
33.92801674100212
 30
0.0
 10
39.82113769945416
 20
33.89133868586851
 30
0.0
 10
39.79018272179261
 20
33.84806930812935
 30
0.0
 10
39.77154694345965
 20
33.8050653377153
 30
0.0
 10
39.77025530365288
 20
33.7774335676792
 30
0.0
 10
39.76977501075914
 20
33.76715876605093
 30
0.0
  0
SPLINE
  5
BA
330
1F
100
AcDbEntity
  8
0
  6
Continuous
 62
     7
370
    25
100
AcDbSpline
210
0.0
220
0.0
230
1.0
 70
     8
 71
     3
 72
    12
 73
     8
 74
     0
 42
0.00000001
 43
0.00000001
 40
0.0
 40
0.0
 40
0.0
 40
0.0
 40
0.1540073065081885
 40
0.3996177890930611
 40
0.6617401052882191
 40
0.9585552822061688
 40
1.0
 40
1.0
 40
1.0
 40
1.0
 10
39.21484608801208
 20
33.6674078117158
 30
0.0
 10
39.20686149518595
 20
33.67515964744975
 30
0.0
 10
39.18614309289495
 20
33.69527409219688
 30
0.0
 10
39.164705797186
 20
33.73882182298155
 30
0.0
 10
39.14886424159332
 20
33.79456561955681
 30
0.0
 10
39.1449035433048
 20
33.83787860428517
 30
0.0
 10
39.14474812681696
 20
33.8622023661537
 30
0.0
 10
39.14472908467636
 20
33.86518259367131
 30
0.0
  0
SPLINE
  5
BB
330
1F
100
AcDbEntity
  8
0
  6
Continuous
 62
     7
370
    25
100
AcDbSpline
210
0.0
220
0.0
230
1.0
 70
     8
 71
     3
 72
    12
 73
     8
 74
     0
 42
0.00000001
 43
0.00000001
 40
0.0
 40
0.0
 40
0.0
 40
0.0
 40
0.0087087809113326
 40
0.2988916685687202
 40
0.5966089992515
 40
0.9496998879405236
 40
1.0
 40
1.0
 40
1.0
 40
1.0
 10
39.83370935218418
 20
33.68810047933901
 30
0.0
 10
39.83338931805412
 20
33.68803505076048
 30
0.0
 10
39.8224055149125
 20
33.6857894945559
 30
0.0
 10
39.79918043156183
 20
33.69590326985885
 30
0.0
 10
39.77632907000677
 20
33.72343820422351
 30
0.0
 10
39.77061108065762
 20
33.75019470550821
 30
0.0
 10
39.76986770468326
 20
33.7652779839016
 30
0.0
 10
39.76977501075914
 20
33.76715876605093
 30
0.0
  0
LWPOLYLINE
  5
BC
330
1F
100
AcDbEntity
  8
0
  6
Continuous
 62
     7
370
    25
100
AcDbPolyline
 90
       31
 70
   128
 43
0.0
 10
40.5310427765
 20
32.134183337
 10
40.5310652163
 20
32.1301001842
 10
40.5240858702
 20
32.0583722128
 10
40.5032352444
 20
31.9875465243
 10
40.4687757225
 20
31.9185130818
 10
40.4211406995
 20
31.8521407285
 10
40.360929155
 20
31.7892642815
 10
40.2888981738
 20
31.730673385
 10
40.205953852
 20
31.6771054705
 10
40.1131389775
 20
31.6292346102
 10
40.0116208569
 20
31.5876627171
 10
39.9026762088
 20
31.5529119186
 10
39.7876750306
 20
31.5254192762
 10
39.6680634391
 20
31.5055309192
 10
39.5453459234
 20
31.4934973516
 10
39.4210652524
 20
31.4894693448
 10
39.2967845815
 20
31.4934973516
 10
39.1740670658
 20
31.5055309192
 10
39.0544556209
 20
31.5254192762
 10
38.9394544427
 20
31.5529119186
 10
38.8305096479
 20
31.5876627171
 10
38.728991674
 20
31.6292346102
 10
38.6361767995
 20
31.6771054705
 10
38.5532321844
 20
31.730673385
 10
38.4812014965
 20
31.7892642815
 10
38.420989952
 20
31.8521407285
 10
38.3733546357
 20
31.9185130818
 10
38.3388954071
 20
31.9875465243
 10
38.3180446346
 20
32.0583722128
 10
38.3110651419
 20
32.1301001842
 10
38.3110877283
 20
32.134183337
  0
LWPOLYLINE
  5
BD
330
1F
100
AcDbEntity
  8
0
  6
Continuous
 62
     7
370
    25
100
AcDbPolyline
 90
       35
 70
   128
 43
0.0
 10
40.5310652163
 20
29.8025810452
 10
40.5291591583
 20
29.7264061918
 10
40.5182015249
 20
29.6006034318
 10
40.4976021362
 20
29.4709422096
 10
40.4675419768
 20
29.3385629922
 10
40.4282854836
 20
29.2046291261
 10
40.380177466
 20
29.0703162777
 10
40.3236407591
 20
28.9368065667
 10
40.2591721172
 20
28.8052715529
 10
40.1873382537
 20
28.6768687162
 10
40.1087704147
 20
28.552725617
 10
40.0241588054
 20
28.4339334426
 10
39.9342473108
 20
28.321535861
 10
39.8398258682
 20
28.2165208075
 10
39.7417244548
 20
28.1198116847
 10
39.6408051673
 20
28.0322579761
 10
39.5379545954
 20
27.9546282062
 10
39.4340767821
 20
27.8876064205
 10
39.3300845701
 20
27.8317798654
 10
39.2268922689
 20
27.787640162
 10
39.1254059746
 20
27.755574799
 10
39.0265179969
 20
27.7358659601
 10
38.9310974726
 20
27.7286864163
 10
38.8399827385
 20
27.7340995271
 10
38.7539745854
 20
27.7520574797
 10
38.6738289246
 20
27.7824027558
 10
38.6002500412
 20
27.8248684252
 10
38.5338841412
 20
27.8790816656
 10
38.4753152445
 20
27.9445658158
 10
38.4250575584
 20
28.0207453624
 10
38.3835525445
 20
28.1069503399
 10
38.3511653987
 20
28.202423957
 10
38.3281806508
 20
28.30632729
 10
38.3148001121
 20
28.4177463229
 10
38.3110651419
 20
28.5206359077
  0
SPLINE
  5
BE
330
1F
100
AcDbEntity
  8
0
  6
Continuous
 62
     7
370
    25
100
AcDbSpline
210
0.0
220
0.0
230
1.0
 70
    11
 71
     3
 72
    26
 73
    22
 74
     0
 42
0.00000001
 43
0.00000001
 40
0.0
 40
0.0
 40
0.0
 40
0.0
 40
0.0307639362176063
 40
0.0810003114266288
 40
0.1351468287218094
 40
0.1930655605060994
 40
0.2528785210729413
 40
0.3117147979821357
 40
0.3670151066469496
 40
0.4176892929854084
 40
0.4648413932040468
 40
0.5115459820262809
 40
0.5610441696922929
 40
0.6148673354595013
 40
0.6725559954754934
 40
0.7322712041058999
 40
0.7916329496661612
 40
0.8485857890589044
 40
0.9020126938061453
 40
0.9520039910029774
 40
1.0
 40
1.0
 40
1.0
 40
1.0
 10
39.64366249428836
 20
31.28649910284305
 30
0.0
 10
39.64294653464548
 20
31.29037021209472
 30
0.0
 10
39.64106143926521
 20
31.30056270023193
 30
0.0
 10
39.6450561271168
 20
31.31791687615896
 30
0.0
 10
39.65619587366193
 20
31.33562796732735
 30
0.0
 10
39.67300675546926
 20
31.35009172204704
 30
0.0
 10
39.69343403894641
 20
31.35998760006387
 30
0.0
 10
39.71536755393976
 20
31.36444269403547
 30
0.0
 10
39.73658251698543
 20
31.36296279770552
 30
0.0
 10
39.7549882187655
 20
31.35538497500739
 30
0.0
 10
39.7683469398766
 20
31.34191958430793
 30
0.0
 10
39.77447328354083
 20
31.32410193888121
 30
0.0
 10
39.77277096555207
 20
31.30461538217503
 30
0.0
 10
39.7640001956652
 20
31.28571795656582
 30
0.0
 10
39.74925609244017
 20
31.26928384022019
 30
0.0
 10
39.73003056754172
 20
31.25707762068787
 30
0.0
 10
39.7083229131274
 20
31.2505137413796
 30
0.0
 10
39.68635520978308
 20
31.25037207188946
 30
0.0
 10
39.66669938335543
 20
31.25680442425961
 30
0.0
 10
39.65082828700316
 20
31.26906194373929
 30
0.0
 10
39.64601844470064
 20
31.28076615970409
 30
0.0
 10
39.64366249428836
 20
31.28649910284305
 30
0.0
  0
LWPOLYLINE
  5
BF
330
1F
100
AcDbEntity
  8
0
  6
Continuous
 62
     7
370
    25
100
AcDbPolyline
 90
       21
 70
   128
 43
0.0
 10
39.8802650677
 20
33.6814207698
 10
39.9126206806
 20
33.6913224155
 10
39.9457393913
 20
33.7136424776
 10
39.9763796107
 20
33.7461938882
 10
40.0015418934
 20
33.7857922575
 10
40.0187632944
 20
33.8285597634
 10
40.0263580467
 20
33.8703100011
 10
40.0235827054
 20
33.9069574711
 10
40.0107088941
 20
33.9349141615
 10
39.9889967583
 20
33.9514427172
 10
39.9605717667
 20
33.9549274769
 10
39.9282163004
 20
33.945024658
 10
39.8950975897
 20
33.9227045958
 10
39.8644573703
 20
33.8901531852
 10
39.839294941
 20
33.850554816
 10
39.8220735399
 20
33.80778731
 10
39.8144789343
 20
33.7660370723
 10
39.8172542756
 20
33.7293896024
 10
39.8301280869
 20
33.701432912
 10
39.8518400761
 20
33.6849043563
 10
39.8802650677
 20
33.6814207698
  0
LWPOLYLINE
  5
C0
330
1F
100
AcDbEntity
  8
0
  6
Continuous
 62
     7
370
    25
100
AcDbPolyline
 90
       16
 70
   128
 43
0.0
 10
39.8740265264
 20
33.6805337401
 10
39.8731833495
 20
33.680423448
 10
39.8446854654
 20
33.6829190992
 10
39.8222885508
 20
33.697796794
 10
39.8079827027
 20
33.7237318544
 10
39.8030387732
 20
33.758422227
 10
39.8078964637
 20
33.7987832541
 10
39.822123846
 20
33.8412304437
 10
39.8444568147
 20
33.8819915728
 10
39.8729109927
 20
33.9174446033
 10
39.9049581691
 20
33.9444403447
 10
39.9377508436
 20
33.960578185
 10
39.9683750765
 20
33.9644266739
 10
39.9941097926
 20
33.9556408554
 10
40.0126684848
 20
33.9350045071
 10
40.0163889352
 20
33.9271995839
  0
ARC
  5
C1
330
1F
100
AcDbEntity
  8
0
  6
Continuous
 62
     7
370
    25
100
AcDbCircle
 10
39.9420724762
 20
33.8591472423
 30
0.0
 40
0.0430614924292221
100
AcDbArc
 50
347.0282848399
 51
70.7321536457
  0
ARC
  5
C2
330
1F
100
AcDbEntity
  8
0
  6
Continuous
 62
     7
370
    25
100
AcDbCircle
 10
39.9531855887
 20
33.825802287
 30
0.0
 40
0.0740591767993561
100
AcDbArc
 50
87.6036824183
 51
144.8043117756
  0
ARC
  5
C3
330
1F
100
AcDbEntity
  8
0
  6
Continuous
 62
     7
370
    25
100
AcDbCircle
 10
39.9991667711
 20
33.7730026356
 30
0.0
 40
0.143038411693348
100
AcDbArc
 50
138.1217963191
 51
174.4381917931
  0
ARC
  5
C4
330
1F
100
AcDbEntity
  8
0
  6
Continuous
 62
     7
370
    25
100
AcDbCircle
 10
39.8987630375
 20
33.7772000921
 30
0.0
 40
0.0430601469532159
100
AcDbArc
 50
167.0282286958
 51
250.7335960219
  0
ARC
  5
C5
330
1F
100
AcDbEntity
  8
0
  6
Continuous
 62
     7
370
    25
100
AcDbCircle
 10
39.8876552281
 20
33.8105394818
 30
0.0
 40
0.0740528649600485
100
AcDbArc
 50
267.6005076519
 51
324.8058898098
  0
ARC
  5
C6
330
1F
100
AcDbEntity
  8
0
  6
Continuous
 62
     7
370
    25
100
AcDbCircle
 10
39.8416666127
 20
33.863345954
 30
0.0
 40
0.1430419929637191
100
AcDbArc
 50
318.1222667939
 51
354.4377213183
  0
SPLINE
  5
C7
330
1F
100
AcDbEntity
  8
0
  6
Continuous
 62
     7
370
    25
100
AcDbSpline
210
0.0
220
0.0
230
1.0
 70
     8
 71
     3
 72
    10
 73
     6
 74
     0
 42
0.00000001
 43
0.00000001
 40
0.0
 40
0.0
 40
0.0
 40
0.0
 40
0.3375778402355815
 40
0.8999513619893611
 40
1.0
 40
1.0
 40
1.0
 40
1.0
 10
39.95628210954656
 20
33.89979670047286
 30
0.0
 10
39.95121661737844
 20
33.89895735008983
 30
0.0
 10
39.93771248282785
 20
33.89671971944478
 30
0.0
 10
39.92200464953142
 20
33.89370601678282
 30
0.0
 10
39.91391266276416
 20
33.88754294320811
 30
0.0
 10
39.91269049312063
 20
33.88661210611576
 30
0.0
  0
SPLINE
  5
C8
330
1F
100
AcDbEntity
  8
0
  6
Continuous
 62
     7
370
    25
100
AcDbSpline
210
0.0
220
0.0
230
1.0
 70
     8
 71
     3
 72
    10
 73
     6
 74
     0
 42
0.00000001
 43
0.00000001
 40
0.0
 40
0.0
 40
0.0
 40
0.0
 40
0.2587921139489126
 40
0.6355197059187405
 40
1.0
 40
1.0
 40
1.0
 40
1.0
 10
39.85748829082119
 20
33.78371078817389
 30
0.0
 10
39.85818541238854
 20
33.7789223551535
 30
0.0
 10
39.85989734435861
 20
33.76716332780718
 30
0.0
 10
39.87165057023618
 20
33.75218187198499
 30
0.0
 10
39.88030108311772
 20
33.741703944418
 30
0.0
 10
39.88455487147907
 20
33.73655154629481
 30
0.0
  0
SPLINE
  5
C9
330
1F
100
AcDbEntity
  8
0
  6
Continuous
 62
     7
370
    25
100
AcDbSpline
210
0.0
220
0.0
230
1.0
 70
     8
 71
     3
 72
    10
 73
     6
 74
     0
 42
0.00000001
 43
0.00000001
 40
0.0
 40
0.0
 40
0.0
 40
0.0
 40
0.575721508593333
 40
0.8540024391185704
 40
1.0
 40
1.0
 40
1.0
 40
1.0
 10
39.98403508227518
 20
33.84948122838816
 30
0.0
 10
39.97684219338721
 20
33.85806587835269
 30
0.0
 10
39.96617254745085
 20
33.87080000743985
 30
0.0
 10
39.95636901129561
 20
33.888526696916
 30
0.0
 10
39.95630435744448
 20
33.89691144337005
 30
0.0
 10
39.95628210954656
 20
33.89979670047286
 30
0.0
  0
LINE
  5
CA
330
1F
100
AcDbEntity
  8
0
  6
Continuous
 62
     7
370
    25
100
AcDbLine
 10
39.915701965
 20
33.8889200261
 30
0.0
 11
39.9840350823
 21
33.8494812284
 31
0.0
  0
LINE
  5
CB
330
1F
100
AcDbEntity
  8
0
  6
Continuous
 62
     7
370
    25
100
AcDbLine
 10
39.8703898218
 20
33.8127504527
 30
0.0
 11
39.8602046728
 21
33.8077380306
 31
0.0
  0
LINE
  5
CC
330
1F
100
AcDbEntity
  8
0
  6
Continuous
 62
     7
370
    25
100
AcDbLine
 10
39.8703898218
 20
33.8127504527
 30
0.0
 11
39.9481715366
 21
33.767859238
 31
0.0
  0
SPLINE
  5
CD
330
1F
100
AcDbEntity
  8
0
  6
Continuous
 62
     7
370
    25
100
AcDbSpline
210
0.0
220
0.0
230
1.0
 70
     8
 71
     3
 72
    11
 73
     7
 74
     0
 42
0.00000001
 43
0.00000001
 40
0.0
 40
0.0
 40
0.0
 40
0.0
 40
0.1401626946757944
 40
0.4353768424136638
 40
0.7882095461180714
 40
1.0
 40
1.0
 40
1.0
 40
1.0
 10
39.88455487147907
 20
33.73655154629481
 30
0.0
 10
39.88653812580826
 20
33.73935128143425
 30
0.0
 10
39.89269855964941
 20
33.74804788824121
 30
0.0
 10
39.90912383518703
 20
33.75917062965924
 30
0.0
 10
39.92944612667107
 20
33.76500355407649
 30
0.0
 10
39.94306361084481
 20
33.76708026322611
 30
0.0
 10
39.94817153657392
 20
33.76785923795902
 30
0.0
  0
LINE
  5
CE
330
1F
100
AcDbEntity
  8
0
  6
Continuous
 62
     7
370
    25
100
AcDbLine
 10
39.8968957023
 20
33.8730755158
 30
0.0
 11
39.8703898218
 21
33.8127504527
 31
0.0
  0
SPLINE
  5
CF
330
1F
100
AcDbEntity
  8
0
  6
Continuous
 62
     7
370
    25
100
AcDbSpline
210
0.0
220
0.0
230
1.0
 70
     8
 71
     3
 72
    10
 73
     6
 74
     0
 42
0.00000001
 43
0.00000001
 40
0.0
 40
0.0
 40
0.0
 40
0.0
 40
0.4496875008541734
 40
0.7619987671263825
 40
1.0
 40
1.0
 40
1.0
 40
1.0
 10
39.94817153657392
 20
33.76785923795902
 30
0.0
 10
39.94950637024223
 20
33.78167391257256
 30
0.0
 10
39.95176825567963
 20
33.80508297998887
 30
0.0
 10
39.96707326769495
 20
33.83237258418373
 30
0.0
 10
39.97891410997963
 20
33.84431592649367
 30
0.0
 10
39.98403508227518
 20
33.84948122838816
 30
0.0
  0
LWPOLYLINE
  5
D0
330
1F
100
AcDbEntity
  8
0
  6
Continuous
 62
     7
370
    25
100
AcDbPolyline
 90
       17
 70
   128
 43
0.0
 10
39.6471155744
 20
31.2979377974
 10
39.651654562
 20
31.2788062317
 10
39.6648256631
 20
31.2639877896
 10
39.6846236744
 20
31.2557381782
 10
39.7080346307
 20
31.2553140231
 10
39.7314939863
 20
31.2627792702
 10
39.7514307427
 20
31.2769981459
 10
39.7648093748
 20
31.2958052887
 10
39.7695932929
 20
31.3163377981
 10
39.7650541586
 20
31.3354693638
 10
39.7518830574
 20
31.350287806
 10
39.7320850462
 20
31.3585374173
 10
39.7086743833
 20
31.3589615724
 10
39.6852147343
 20
31.3514963253
 10
39.6652782712
 20
31.3372774496
 10
39.6518994925
 20
31.3184703068
 10
39.6471155744
 20
31.2979377974
  0
LINE
  5
D1
330
1F
100
AcDbEntity
  8
0
  6
Continuous
 62
     7
370
    25
100
AcDbLine
 10
39.7427255899
 20
31.2899128767
 30
0.0
 11
39.7486285617
 21
31.3272619919
 31
0.0
  0
LINE
  5
D2
330
1F
100
AcDbEntity
  8
0
  6
Continuous
 62
     7
370
    25
100
AcDbLine
 10
39.7142573321
 20
31.3444863263
 30
0.0
 11
39.7486285617
 21
31.3272619919
 31
0.0
  0
LINE
  5
D3
330
1F
100
AcDbEntity
  8
0
  6
Continuous
 62
     7
370
    25
100
AcDbLine
 10
39.6739831307
 20
31.3243621321
 30
0.0
 11
39.7142573321
 21
31.3444863263
 31
0.0
  0
LINE
  5
D4
330
1F
100
AcDbEntity
  8
0
  6
Continuous
 62
     7
370
    25
100
AcDbLine
 10
39.6739831307
 20
31.3243621321
 30
0.0
 11
39.6680804522
 21
31.2870136036
 31
0.0
  0
LINE
  5
D5
330
1F
100
AcDbEntity
  8
0
  6
Continuous
 62
     7
370
    25
100
AcDbLine
 10
39.7024513885
 20
31.2697892692
 30
0.0
 11
39.6680804522
 21
31.2870136036
 31
0.0
  0
LINE
  5
D6
330
1F
100
AcDbEntity
  8
0
  6
Continuous
 62
     7
370
    25
100
AcDbLine
 10
39.7024513885
 20
31.2697892692
 30
0.0
 11
39.7427255899
 21
31.2899128767
 31
0.0
  0
LINE
  5
D7
330
1F
100
AcDbEntity
  8
0
  6
Continuous
 62
     7
370
    25
100
AcDbLine
 10
39.7194319657
 20
31.3400863771
 30
0.0
 11
39.7427255899
 21
31.2899128767
 31
0.0
  0
LINE
  5
D8
330
1F
100
AcDbEntity
  8
0
  6
Continuous
 62
     7
370
    25
100
AcDbLine
 10
39.7194319657
 20
31.3400863771
 30
0.0
 11
39.7196965493
 21
31.3417607045
 31
0.0
  0
LINE
  5
D9
330
1F
100
AcDbEntity
  8
0
  6
Continuous
 62
     7
370
    25
100
AcDbLine
 10
39.6791577642
 20
31.3199621829
 30
0.0
 11
39.6737185471
 21
31.3226878048
 31
0.0
  0
LINE
  5
DA
330
1F
100
AcDbEntity
  8
0
  6
Continuous
 62
     7
370
    25
100
AcDbLine
 10
39.6791577642
 20
31.3199621829
 30
0.0
 11
39.7024513885
 21
31.2697892692
 31
0.0
  0
LINE
  5
DB
330
1F
100
AcDbEntity
  8
0
  6
Continuous
 62
     7
370
    25
100
AcDbLine
 10
39.6791577642
 20
31.3199621829
 30
0.0
 11
39.7194319657
 21
31.3400863771
 31
0.0
  0
ARC
  5
DC
330
1F
100
AcDbEntity
  8
0
  6
Continuous
 62
     7
370
    25
100
AcDbCircle
 10
39.8104823311
 20
35.3770849019
 30
0.0
 40
0.2458498046476403
100
AcDbArc
 50
293.6155028026
 51
355.0510691935
  0
LWPOLYLINE
  5
DD
330
1F
100
AcDbEntity
  8
0
  6
Continuous
 62
     7
370
    25
100
AcDbPolyline
 90
       15
 70
   128
 43
0.0
 10
39.0554156898
 20
35.3558759864
 10
39.0609250128
 20
35.3131542399
 10
39.0805476128
 20
35.2655374033
 10
39.1138311749
 20
35.22051947
 10
39.1598182704
 20
35.1793946118
 10
39.217185981
 20
35.1433478815
 10
39.2842840325
 20
35.1134141473
 10
39.3591820206
 20
35.0904569725
 10
39.4397251435
 20
35.0751345895
 10
39.5235966813
 20
35.0678881666
 10
39.6083834085
 20
35.0689265546
 10
39.69164658
 20
35.0782204206
 10
39.7709904234
 20
35.0955022476
 10
39.8441325384
 20
35.1202745481
 10
39.9089690161
 20
35.1518239436
  0
ARC
  5
DE
330
1F
100
AcDbEntity
  8
0
  6
Continuous
 62
     7
370
    25
100
AcDbCircle
 10
39.7579759832
 20
33.8848646993
 30
0.0
 40
0.6872050930398839
100
AcDbArc
 50
153.1736387378
 51
178.3741855103
  0
ARC
  5
DF
330
1F
100
AcDbEntity
  8
0
  6
Continuous
 62
     7
370
    25
100
AcDbCircle
 10
39.1674514371
 20
34.1265825947
 30
0.0
 40
0.2422306048034668
100
AcDbArc
 50
184.7859257479
 51
246.5477920483
  0
ARC
  5
E0
330
1F
100
AcDbEntity
  8
0
  6
Continuous
 62
     7
370
    25
100
AcDbCircle
 10
39.8662874716
 20
34.0273622988
 30
0.0
 40
0.1841477356135765
100
AcDbArc
 50
325.511606711
 51
359.1617993706
  0
ARC
  5
E1
330
1F
100
AcDbEntity
  8
0
  6
Continuous
 62
     7
370
    25
100
AcDbCircle
 10
39.8103788812
 20
36.6021635497
 30
0.0
 40
0.2459978774222764
100
AcDbArc
 50
293.6267217367
 51
354.9319302307
  0
LWPOLYLINE
  5
E2
330
1F
100
AcDbEntity
  8
0
  6
Continuous
 62
     7
370
    25
100
AcDbPolyline
 90
       15
 70
   128
 43
0.0
 10
39.0554156898
 20
36.5807549565
 10
39.0609250128
 20
36.5381165157
 10
39.0805476128
 20
36.4904996791
 10
39.1138311749
 20
36.4454817458
 10
39.1598182704
 20
36.4043568876
 10
39.217185981
 20
36.3683101573
 10
39.2842840325
 20
36.3383764231
 10
39.3591820206
 20
36.3154192483
 10
39.4397251435
 20
36.3000968653
 10
39.5235966813
 20
36.2928504424
 10
39.6083834085
 20
36.2938888304
 10
39.69164658
 20
36.3031826964
 10
39.7709904234
 20
36.3204645234
 10
39.8441325384
 20
36.3452368239
 10
39.9089690161
 20
36.3767862194
  0
LWPOLYLINE
  5
E3
330
1F
100
AcDbEntity
  8
0
  6
Continuous
 62
     7
370
    25
100
AcDbPolyline
 90
       15
 70
   128
 43
0.0
 10
43.4445028533
 20
38.4173031272
 10
43.3796665223
 20
38.3857525583
 10
43.3065242606
 20
38.3609814312
 10
43.2271803439
 20
38.3436996041
 10
43.143917319
 20
38.3344057382
 10
43.0591305185
 20
38.3333673502
 10
42.9752590541
 20
38.3406125998
 10
42.8947158578
 20
38.3559349828
 10
42.8198178697
 20
38.3788933309
 10
42.7527198549
 20
38.4088270651
 10
42.6953521076
 20
38.4448737954
 10
42.6493649755
 20
38.4859986536
 10
42.61608145
 20
38.5310165869
 10
42.59645896
 20
38.5786334235
 10
42.590950737
 20
38.6207039775
  0
ARC
  5
E4
330
1F
100
AcDbEntity
  8
0
  6
Continuous
 62
     7
370
    25
100
AcDbCircle
 10
43.3400577613
 20
38.6468421476
 30
0.0
 40
0.2521843356403957
100
AcDbArc
 50
294.466535537
 51
354.1962907746
  0
LINE
  5
E5
330
1F
100
AcDbEntity
  8
0
  6
Continuous
 62
     7
370
    25
100
AcDbLine
 10
44.2784494195
 20
21.8771711528
 30
0.0
 11
44.2784494195
 21
23.5337232695
 31
0.0
  0
LINE
  5
E6
330
1F
100
AcDbEntity
  8
0
  6
Continuous
 62
     7
370
    25
100
AcDbLine
 10
41.9034494757
 20
23.5885580761
 30
0.0
 11
41.9034494757
 21
22.2059796477
 31
0.0
  0
SPLINE
  5
E7
330
1F
100
AcDbEntity
  8
0
  6
Continuous
 62
     7
370
    25
100
AcDbSpline
210
0.0
220
0.0
230
1.0
 70
     8
 71
     3
 72
    20
 73
    16
 74
     0
 42
0.00000001
 43
0.00000001
 40
0.0
 40
0.0
 40
0.0
 40
0.0
 40
0.0045476016370548
 40
0.0701860383633493
 40
0.1309328772437349
 40
0.1932601812298013
 40
0.276790292081358
 40
0.3806633499389362
 40
0.4980762607633751
 40
0.6119056520805599
 40
0.7193122269424409
 40
0.8272219887633636
 40
0.907353783806275
 40
0.9777662141175351
 40
1.0
 40
1.0
 40
1.0
 40
1.0
 10
44.21751789672045
 20
23.45715623401785
 30
0.0
 10
44.2180354886277
 20
23.45727705315748
 30
0.0
 10
44.22602381486161
 20
23.45914173204656
 30
0.0
 10
44.23876049847093
 20
23.46879020174381
 30
0.0
 10
44.25445149620162
 20
23.48411799737481
 30
0.0
 10
44.26737252469696
 20
23.50477868479131
 30
0.0
 10
44.27866469979478
 20
23.53172208267556
 30
0.0
 10
44.28847798163678
 20
23.56601033247024
 30
0.0
 10
44.29603577212674
 20
23.60443178022435
 30
0.0
 10
44.30076449108934
 20
23.6437529189141
 30
0.0
 10
44.30213234499089
 20
23.68213742497833
 30
0.0
 10
44.29926044398685
 20
23.71690735431602
 30
0.0
 10
44.28899190392262
 20
23.74531758883769
 30
0.0
 10
44.27807280436372
 20
23.76314805341195
 30
0.0
 10
44.26911725183214
 20
23.76929386338181
 30
0.0
 10
44.26696804546812
 20
23.77076877113906
 30
0.0
  0
LINE
  5
E8
330
1F
100
AcDbEntity
  8
0
  6
Continuous
 62
     7
370
    25
100
AcDbLine
 10
44.1385181293
 20
23.4677794713
 30
0.0
 11
44.2130381618
 21
23.4562554178
 31
0.0
  0
LINE
  5
E9
330
1F
100
AcDbEntity
  8
0
  6
Continuous
 62
     7
370
    25
100
AcDbLine
 10
44.2622561399
 20
23.7745181145
 30
0.0
 11
44.1877361074
 21
23.7860423147
 31
0.0
  0
SPLINE
  5
EA
330
1F
100
AcDbEntity
  8
0
  6
Continuous
 62
     7
370
    25
100
AcDbSpline
210
0.0
220
0.0
230
1.0
 70
     8
 71
     3
 72
    16
 73
    12
 74
     0
 42
0.00000001
 43
0.00000001
 40
0.0
 40
0.0
 40
0.0
 40
0.0
 40
0.0651765250412958
 40
0.1784642070905333
 40
0.3059322837171605
 40
0.445394931354246
 40
0.5883077562711131
 40
0.7319984818775439
 40
0.8624475160038388
 40
0.9805893440744953
 40
0.9999999999999999
 40
0.9999999999999999
 40
0.9999999999999999
 40
0.9999999999999999
 10
42.14466743079925
 20
23.41236768475233
 30
0.0
 10
42.14214471762089
 20
23.40578783221817
 30
0.0
 10
42.13523710775969
 20
23.38777109744231
 30
0.0
 10
42.13409719518307
 20
23.35421565089165
 30
0.0
 10
42.14025119776102
 20
23.31362220534716
 30
0.0
 10
42.15604051088647
 20
23.27200981906566
 30
0.0
 10
42.18012498497771
 20
23.23274938456039
 30
0.0
 10
42.21079268302181
 20
23.19922716562922
 30
0.0
 10
42.24595717259444
 20
23.17592068629749
 30
0.0
 10
42.27318509600793
 20
23.16366533709251
 30
0.0
 10
42.28801194647262
 20
23.16308585830607
 30
0.0
 10
42.29010423070093
 20
23.16300408542191
 30
0.0
  0
LINE
  5
EB
330
1F
100
AcDbEntity
  8
0
  6
Continuous
 62
     7
370
    25
100
AcDbLine
 10
42.225570893
 20
23.4791861929
 30
0.0
 11
42.1710184514
 21
23.4477016232
 31
0.0
  0
LINE
  5
EC
330
1F
100
AcDbEntity
  8
0
  6
Continuous
 62
     7
370
    25
100
AcDbLine
 10
42.3319985392
 20
23.1687768187
 30
0.0
 11
42.3865509882
 21
23.2002613884
 31
0.0
  0
LINE
  5
ED
330
1F
100
AcDbEntity
  8
0
  6
Continuous
 62
     7
370
    25
100
AcDbLine
 10
43.8762557857
 20
25.1315279249
 30
0.0
 11
43.8550313109
 21
25.1437905832
 31
0.0
  0
LINE
  5
EE
330
1F
100
AcDbEntity
  8
0
  6
Continuous
 62
     7
370
    25
100
AcDbLine
 10
42.326867566
 20
25.1437905832
 30
0.0
 11
42.3056430729
 21
25.1315279249
 31
0.0
  0
LINE
  5
EF
330
1F
100
AcDbEntity
  8
0
  6
Continuous
 62
     7
370
    25
100
AcDbLine
 10
44.2009494481
 20
23.7839989783
 30
0.0
 11
44.2009494481
 21
24.6787745484
 31
0.0
  0
LINE
  5
F0
330
1F
100
AcDbEntity
  8
0
  6
Continuous
 62
     7
370
    25
100
AcDbLine
 10
41.9809494654
 20
24.6787745484
 30
0.0
 11
41.9809494654
 21
23.5885580761
 31
0.0
  0
LINE
  5
F1
330
1F
100
AcDbEntity
  8
0
  6
Continuous
 62
     7
370
    25
100
AcDbLine
 10
43.5909494416
 20
24.7032737588
 30
0.0
 11
43.5909494416
 21
26.2611801334
 31
0.0
  0
LINE
  5
F2
330
1F
100
AcDbEntity
  8
0
  6
Continuous
 62
     7
370
    25
100
AcDbLine
 10
42.5909494536
 20
26.48350797
 30
0.0
 11
42.5909494536
 21
24.7032737588
 31
0.0
  0
LWPOLYLINE
  5
F3
330
1F
100
AcDbEntity
  8
0
  6
Continuous
 62
     7
370
    25
100
AcDbPolyline
 90
        8
 70
   128
 43
0.0
 10
43.9306387174
 20
23.1039353545
 10
44.0165028455
 20
23.1591731963
 10
44.0915156723
 20
23.2194451667
 10
44.1547977946
 20
23.2840446338
 10
44.2056072343
 20
23.3522142197
 10
44.243348385
 20
23.4231548935
 10
44.2675786117
 20
23.4960344782
 10
44.2701899816
 20
23.5078644749
  0
LWPOLYLINE
  5
F4
330
1F
100
AcDbEntity
  8
0
  6
Continuous
 62
     7
370
    25
100
AcDbPolyline
 90
        3
 70
   128
 43
0.0
 10
44.2315499213
 20
23.7792666863
 10
44.2261426771
 20
23.7897266855
 10
44.2009494481
 20
23.8320943827
  0
LWPOLYLINE
  5
F5
330
1F
100
AcDbEntity
  8
0
  6
Continuous
 62
     7
370
    25
100
AcDbPolyline
 90
       27
 70
   128
 43
0.0
 10
41.9809494654
 20
23.8320943827
 10
41.9762916976
 20
23.8249019325
 10
41.9385506019
 20
23.7539614053
 10
41.9143203201
 20
23.6810816739
 10
41.903884924
 20
23.6071170617
 10
41.9073667871
 20
23.5329350919
 10
41.9247250816
 20
23.4594051947
 10
41.9557562915
 20
23.3873894666
 10
42.0000965959
 20
23.3177324047
 10
42.0572261593
 20
23.251250346
 10
42.126475181
 20
23.1887229616
 10
42.2070317753
 20
23.1308829898
 10
42.2979514988
 20
23.078409196
 10
42.398168394
 20
23.0319163998
 10
42.5065075175
 20
22.9919496081
 10
42.6216986818
 20
22.9589775624
 10
42.7423914142
 20
22.9333868713
 10
42.867170636
 20
22.9154773182
 10
42.9945735109
 20
22.9054589273
 10
43.1231062195
 20
22.9034496172
 10
43.251261999
 20
22.9094722676
 10
43.3775381936
 20
22.9234564794
 10
43.5004545136
 20
22.9452385744
 10
43.6185696825
 20
22.9745630623
 10
43.7304989628
 20
23.0110861604
 10
43.8349301431
 20
23.0543793136
 10
43.9306387174
 20
23.1039353545
  0
LWPOLYLINE
  5
F6
330
1F
100
AcDbEntity
  8
0
  6
Continuous
 62
     7
370
    25
100
AcDbPolyline
 90
       17
 70
   128
 43
0.0
 10
44.2666927553
 20
23.6677741743
 10
44.276267778
 20
23.6918231231
 10
44.2855293777
 20
23.7033744564
 10
44.2930675173
 20
23.7006696609
 10
44.2977345434
 20
23.6841205721
 10
44.2988198642
 20
23.6562466008
 10
44.2961584816
 20
23.6212913512
 10
44.2901553376
 20
23.5845764154
 10
44.2817244483
 20
23.5516911953
 10
44.2721494256
 20
23.5276422464
 10
44.2628878259
 20
23.5160909132
 10
44.2553496864
 20
23.5187957086
 10
44.2506826603
 20
23.5353447974
 10
44.2495973395
 20
23.5632187688
 10
44.2522587221
 20
23.5981740183
 10
44.258261866
 20
23.6348889542
 10
44.2666927553
 20
23.6677741743
  0
LWPOLYLINE
  5
F7
330
1F
100
AcDbEntity
  8
0
  6
Continuous
 62
     7
370
    25
100
AcDbPolyline
 90
       14
 70
   128
 43
0.0
 10
44.2174782972
 20
23.4568705307
 10
44.2138725388
 20
23.456175632
 10
44.2048395898
 20
23.4636282659
 10
44.1987216072
 20
23.4845655707
 10
44.1960624246
 20
23.5171266612
 10
44.1970981726
 20
23.5584190109
 10
44.2017368924
 20
23.6047727687
 10
44.2095664552
 20
23.652069729
 10
44.2198910826
 20
23.6961073536
 10
44.2317933851
 20
23.7329724744
 10
44.2442157616
 20
23.7593896226
 10
44.2560545582
 20
23.7730115719
 10
44.2662578937
 20
23.7726277497
 10
44.2664973976
 20
23.7724243253
  0
LWPOLYLINE
  5
F8
330
1F
100
AcDbEntity
  8
0
  6
Continuous
 62
     7
370
    25
100
AcDbPolyline
 90
        3
 70
   128
 43
0.0
 10
44.1666019782
 20
23.7654355927
 10
44.1786889319
 20
23.7824169032
 10
44.1877361074
 20
23.7860423147
  0
LWPOLYLINE
  5
F9
330
1F
100
AcDbEntity
  8
0
  6
Continuous
 62
     7
370
    25
100
AcDbPolyline
 90
       10
 70
   128
 43
0.0
 10
44.1385181293
 20
23.4677794713
 10
44.1323319475
 20
23.4719779028
 10
44.1254231473
 20
23.4896736184
 10
44.1218644684
 20
23.5195636464
 10
44.1219722671
 20
23.5589918843
 10
44.125736717
 20
23.6044547991
 10
44.1328235684
 20
23.6519132375
 10
44.1426030421
 20
23.6971501416
 10
44.1542061481
 20
23.7361458644
 10
44.1666019782
 20
23.7654355927
  0
LINE
  5
FA
330
1F
100
AcDbEntity
  8
0
  6
Continuous
 62
     7
370
    25
100
AcDbLine
 10
44.2512279606
 20
23.5472539932
 30
0.0
 11
44.2677126635
 21
23.5784091533
 31
0.0
  0
LINE
  5
FB
330
1F
100
AcDbEntity
  8
0
  6
Continuous
 62
     7
370
    25
100
AcDbLine
 10
44.2677126635
 20
23.5784091533
 30
0.0
 11
44.2663334261
 21
23.5234247485
 31
0.0
  0
LINE
  5
FC
330
1F
100
AcDbEntity
  8
0
  6
Continuous
 62
     7
370
    25
100
AcDbLine
 10
44.2663334261
 20
23.5234247485
 30
0.0
 11
44.278322261
 21
23.5460830201
 31
0.0
  0
LINE
  5
FD
330
1F
100
AcDbEntity
  8
0
  6
Continuous
 62
     7
370
    25
100
AcDbLine
 10
44.278322261
 20
23.5460830201
 30
0.0
 11
44.2797014984
 21
23.6010674249
 31
0.0
  0
LINE
  5
FE
330
1F
100
AcDbEntity
  8
0
  6
Continuous
 62
     7
370
    25
100
AcDbLine
 10
44.2797014984
 20
23.6010674249
 30
0.0
 11
44.2961862013
 21
23.632222585
 31
0.0
  0
LINE
  5
FF
330
1F
100
AcDbEntity
  8
0
  6
Continuous
 62
     7
370
    25
100
AcDbLine
 10
44.2961862013
 20
23.632222585
 30
0.0
 11
44.297189243
 21
23.6722112297
 31
0.0
  0
LINE
  5
100
330
1F
100
AcDbEntity
  8
0
  6
Continuous
 62
     7
370
    25
100
AcDbLine
 10
44.297189243
 20
23.6722112297
 30
0.0
 11
44.2807045401
 21
23.6410560696
 31
0.0
  0
LINE
  5
101
330
1F
100
AcDbEntity
  8
0
  6
Continuous
 62
     7
370
    25
100
AcDbLine
 10
44.2807045401
 20
23.6410560696
 30
0.0
 11
44.2820837775
 21
23.6960404744
 31
0.0
  0
LINE
  5
102
330
1F
100
AcDbEntity
  8
0
  6
Continuous
 62
     7
370
    25
100
AcDbLine
 10
44.2820837775
 20
23.6960404744
 30
0.0
 11
44.2700949427
 21
23.6733822028
 31
0.0
  0
LINE
  5
103
330
1F
100
AcDbEntity
  8
0
  6
Continuous
 62
     7
370
    25
100
AcDbLine
 10
44.2700949427
 20
23.6733822028
 30
0.0
 11
44.2687157053
 21
23.6183979447
 31
0.0
  0
LINE
  5
104
330
1F
100
AcDbEntity
  8
0
  6
Continuous
 62
     7
370
    25
100
AcDbLine
 10
44.2522310024
 20
23.5872427846
 30
0.0
 11
44.2687157053
 21
23.6183979447
 31
0.0
  0
LINE
  5
105
330
1F
100
AcDbEntity
  8
0
  6
Continuous
 62
     7
370
    25
100
AcDbLine
 10
44.2522310024
 20
23.5872427846
 30
0.0
 11
44.2512279606
 21
23.5472539932
 31
0.0
  0
LINE
  5
106
330
1F
100
AcDbEntity
  8
0
  6
Continuous
 62
     7
370
    25
100
AcDbLine
 10
44.2677126635
 20
23.5784091533
 30
0.0
 11
44.2520701109
 21
23.5808282453
 31
0.0
  0
LINE
  5
107
330
1F
100
AcDbEntity
  8
0
  6
Continuous
 62
     7
370
    25
100
AcDbLine
 10
44.2807045401
 20
23.6410560696
 30
0.0
 11
44.2693281782
 21
23.6428154626
 31
0.0
  0
LINE
  5
108
330
1F
100
AcDbEntity
  8
0
  6
Continuous
 62
     7
370
    25
100
AcDbLine
 10
44.278322261
 20
23.5460830201
 30
0.0
 11
44.2672000695
 21
23.557974616
 31
0.0
  0
LINE
  5
109
330
1F
100
AcDbEntity
  8
0
  6
Continuous
 62
     7
370
    25
100
AcDbLine
 10
44.2961862013
 20
23.632222585
 30
0.0
 11
44.2688732235
 21
23.6246778455
 31
0.0
  0
LINE
  5
10A
330
1F
100
AcDbEntity
  8
0
  6
Continuous
 62
     7
370
    25
100
AcDbLine
 10
44.2797014984
 20
23.6010674249
 30
0.0
 11
44.2610703536
 21
23.6039488049
 31
0.0
  0
LWPOLYLINE
  5
10B
330
1F
100
AcDbEntity
  8
0
  6
Continuous
 62
     7
370
    25
100
AcDbPolyline
 90
       17
 70
   128
 43
0.0
 10
42.20420983
 20
23.3788732183
 10
42.2303694357
 20
23.3672001532
 10
42.255672566
 20
23.3441989789
 10
42.2762670505
 20
23.3133717617
 10
42.289017567
 20
23.279411194
 10
42.2919829632
 20
23.2474878028
 10
42.2847117813
 20
23.2224617719
 10
42.2683109983
 20
23.2081425773
 10
42.2452774821
 20
23.2067105405
 10
42.2191178776
 20
23.218383899
 10
42.1938147462
 20
23.24138478
 10
42.1732202593
 20
23.2722122905
 10
42.1604697474
 20
23.3061725649
 10
42.1575043513
 20
23.3380959561
 10
42.1647755331
 20
23.3631222803
 10
42.1811763161
 20
23.3774411816
 10
42.20420983
 20
23.3788732183
  0
ARC
  5
10C
330
1F
100
AcDbEntity
  8
0
  6
Continuous
 62
     7
370
    25
100
AcDbCircle
 10
42.3000655934
 20
23.2265944597
 30
0.0
 40
0.065114503998878
100
AcDbArc
 50
261.7504821426
 51
4.5765051649
  0
LWPOLYLINE
  5
10D
330
1F
100
AcDbEntity
  8
0
  6
Continuous
 62
     7
370
    25
100
AcDbPolyline
 90
       11
 70
   128
 43
0.0
 10
42.1441462843
 20
23.413991266
 10
42.1533999595
 20
23.4315963426
 10
42.174790592
 20
23.4496836537
 10
42.2029979443
 20
23.4552029499
 10
42.2355156724
 20
23.4476637837
 10
42.2694544351
 20
23.4277361205
 10
42.3017986219
 20
23.3971907934
 10
42.3296743119
 20
23.3587416909
 10
42.3506046226
 20
23.3158052269
 10
42.3627298101
 20
23.2721964507
 10
42.3649724916
 20
23.2317899575
  0
LWPOLYLINE
  5
10E
330
1F
100
AcDbEntity
  8
0
  6
Continuous
 62
     7
370
    25
100
AcDbPolyline
 90
        9
 70
   128
 43
0.0
 10
42.3155542425
 20
23.4652849934
 10
42.3485765852
 20
23.4371728382
 10
42.3778212232
 20
23.4004021696
 10
42.4006896382
 20
23.3582398034
 10
42.4151498878
 20
23.3144321494
 10
42.4199171044
 20
23.2728716962
 10
42.4145677012
 20
23.2372514677
 10
42.3995769827
 20
23.210736494
 10
42.3865509882
 20
23.2002613884
  0
ARC
  5
10F
330
1F
100
AcDbEntity
  8
0
  6
Continuous
 62
     7
370
    25
100
AcDbCircle
 10
42.2594534975
 20
23.4003258737
 30
0.0
 40
0.0858311180540575
100
AcDbArc
 50
49.1850742297
 51
113.2509430599
  0
LINE
  5
110
330
1F
100
AcDbEntity
  8
0
  6
Continuous
 62
     7
370
    25
100
AcDbLine
 10
42.1619592265
 20
23.3160481041
 30
0.0
 11
42.2069962984
 21
23.2857031213
 31
0.0
  0
LINE
  5
111
330
1F
100
AcDbEntity
  8
0
  6
Continuous
 62
     7
370
    25
100
AcDbLine
 10
42.2069962984
 20
23.2857031213
 30
0.0
 11
42.2032281349
 21
23.2358643104
 31
0.0
  0
LINE
  5
112
330
1F
100
AcDbEntity
  8
0
  6
Continuous
 62
     7
370
    25
100
AcDbLine
 10
42.2032281349
 20
23.2358643104
 30
0.0
 11
42.2359823706
 21
23.213795632
 31
0.0
  0
LINE
  5
113
330
1F
100
AcDbEntity
  8
0
  6
Continuous
 62
     7
370
    25
100
AcDbLine
 10
42.2359823706
 20
23.213795632
 30
0.0
 11
42.2397505329
 21
23.2636341496
 31
0.0
  0
LINE
  5
114
330
1F
100
AcDbEntity
  8
0
  6
Continuous
 62
     7
370
    25
100
AcDbLine
 10
42.2397505329
 20
23.2636341496
 30
0.0
 11
42.2847876071
 21
23.2332894601
 31
0.0
  0
LINE
  5
115
330
1F
100
AcDbEntity
  8
0
  6
Continuous
 62
     7
370
    25
100
AcDbLine
 10
42.2847876071
 20
23.2332894601
 30
0.0
 11
42.287528088
 21
23.2695359481
 31
0.0
  0
LINE
  5
116
330
1F
100
AcDbEntity
  8
0
  6
Continuous
 62
     7
370
    25
100
AcDbLine
 10
42.287528088
 20
23.2695359481
 30
0.0
 11
42.2424910149
 21
23.2998806375
 31
0.0
  0
LINE
  5
117
330
1F
100
AcDbEntity
  8
0
  6
Continuous
 62
     7
370
    25
100
AcDbLine
 10
42.2424910149
 20
23.2998806375
 30
0.0
 11
42.2462591772
 21
23.3497194485
 31
0.0
  0
LINE
  5
118
330
1F
100
AcDbEntity
  8
0
  6
Continuous
 62
     7
370
    25
100
AcDbLine
 10
42.2462591772
 20
23.3497194485
 30
0.0
 11
42.2135049427
 21
23.3717884202
 31
0.0
  0
LINE
  5
119
330
1F
100
AcDbEntity
  8
0
  6
Continuous
 62
     7
370
    25
100
AcDbLine
 10
42.2135049427
 20
23.3717884202
 30
0.0
 11
42.2097367804
 21
23.3219496093
 31
0.0
  0
LINE
  5
11A
330
1F
100
AcDbEntity
  8
0
  6
Continuous
 62
     7
370
    25
100
AcDbLine
 10
42.1646997073
 20
23.3522942987
 30
0.0
 11
42.2097367804
 21
23.3219496093
 31
0.0
  0
LINE
  5
11B
330
1F
100
AcDbEntity
  8
0
  6
Continuous
 62
     7
370
    25
100
AcDbLine
 10
42.1646997073
 20
23.3522942987
 30
0.0
 11
42.1619592265
 21
23.3160481041
 31
0.0
  0
LINE
  5
11C
330
1F
100
AcDbEntity
  8
0
  6
Continuous
 62
     7
370
    25
100
AcDbLine
 10
42.2847876071
 20
23.2332894601
 30
0.0
 11
42.2848936367
 21
23.2713108876
 31
0.0
  0
LINE
  5
11D
330
1F
100
AcDbEntity
  8
0
  6
Continuous
 62
     7
370
    25
100
AcDbLine
 10
42.2097367804
 20
23.3219496093
 30
0.0
 11
42.2457302002
 21
23.3427229426
 31
0.0
  0
LINE
  5
11E
330
1F
100
AcDbEntity
  8
0
  6
Continuous
 62
     7
370
    25
100
AcDbLine
 10
42.2397505329
 20
23.2636341496
 30
0.0
 11
42.270202431
 21
23.2812093066
 31
0.0
  0
LINE
  5
11F
330
1F
100
AcDbEntity
  8
0
  6
Continuous
 62
     7
370
    25
100
AcDbLine
 10
42.1619592265
 20
23.3160481041
 30
0.0
 11
42.243422522
 21
23.3122010819
 31
0.0
  0
LINE
  5
120
330
1F
100
AcDbEntity
  8
0
  6
Continuous
 62
     7
370
    25
100
AcDbLine
 10
42.2032281349
 20
23.2358643104
 30
0.0
 11
42.2439000723
 21
23.2989314218
 31
0.0
  0
LINE
  5
121
330
1F
100
AcDbEntity
  8
0
  6
Continuous
 62
     7
370
    25
100
AcDbLine
 10
42.2069962984
 20
23.2857031213
 30
0.0
 11
42.2429897171
 21
23.306476748
 31
0.0
  0
LWPOLYLINE
  5
122
330
1F
100
AcDbEntity
  8
0
  6
Continuous
 62
     7
370
    25
100
AcDbPolyline
 90
       18
 70
   128
 43
0.0
 10
43.8546247556
 20
24.262522197
 10
43.9366993541
 20
24.3156370634
 10
44.0077482667
 20
24.3738054181
 10
44.0668454506
 20
24.4362687099
 10
44.1132201816
 20
24.5022129481
 10
44.1462680531
 20
24.570778236
 10
44.1655583103
 20
24.641070944
 10
44.1708394226
 20
24.7121744159
 10
44.1620424576
 20
24.7831618759
 10
44.1392821072
 20
24.8531080145
 10
44.1028552213
 20
24.9211007224
 10
44.0532365545
 20
24.9862537031
 10
43.9910728993
 20
25.0477176197
 10
43.917174873
 20
25.1046912416
 10
43.8325057711
 20
25.1564317105
 10
43.7381693942
 20
25.2022645877
 10
43.6353953814
 20
25.2415923601
 10
43.5909494416
 20
25.2557678963
  0
LWPOLYLINE
  5
123
330
1F
100
AcDbEntity
  8
0
  6
Continuous
 62
     7
370
    25
100
AcDbPolyline
 90
       33
 70
   128
 43
0.0
 10
42.5909494536
 20
25.2557678963
 10
42.5733605468
 20
25.2503458389
 10
42.4686826394
 20
25.2127279602
 10
42.3721169274
 20
25.1684685048
 10
42.2849223006
 20
25.1181445261
 10
42.2082354639
 20
25.06241213
 10
42.1430561511
 20
25.0019977479
 10
42.090234083
 20
24.9376890441
 10
42.0504578641
 20
24.870324429
 10
42.0242460469
 20
24.800782059
 10
42.0119403424
 20
24.729968397
 10
42.0137011837
 20
24.6588068458
 10
42.0295055812
 20
24.5882250611
 10
42.0591475437
 20
24.5191429259
 10
42.1022406093
 20
24.4524614028
 10
42.1582230096
 20
24.389049482
 10
42.2263649234
 20
24.3297339139
 10
42.305778023
 20
24.2752880629
 10
42.395427024
 20
24.2264217874
 10
42.4941432386
 20
24.1837719068
 10
42.6006397184
 20
24.1478944279
 10
42.7135281509
 20
24.1192573587
 10
42.8313368267
 20
24.0982336682
 10
42.9525299433
 20
24.08509762
 10
43.0755275891
 20
24.0800205186
 10
43.1987263126
 20
24.0830685101
 10
43.3205199856
 20
24.0942017015
 10
43.4393208132
 20
24.1132751878
 10
43.5535800866
 20
24.1400402253
 10
43.6618082763
 20
24.1741477513
 10
43.7625945387
 20
24.2151533709
 10
43.8546247556
 20
24.262522197
 10
43.8546247556
 20
24.262522197
  0
LWPOLYLINE
  5
124
330
1F
100
AcDbEntity
  8
0
  6
Continuous
 62
     7
370
    25
100
AcDbPolyline
 90
       29
 70
   128
 43
0.0
 10
43.8758379372
 20
24.2257799815
 10
43.7830232094
 20
24.1779089745
 10
43.6815050888
 20
24.1363366414
 10
43.5725604407
 20
24.1015858428
 10
43.4575592625
 20
24.0740934938
 10
43.3379476709
 20
24.0542054302
 10
43.2152300086
 20
24.0421715692
 10
43.0909494843
 20
24.0381434157
 10
42.9666688866
 20
24.0421715692
 10
42.8439512243
 20
24.0542054302
 10
42.724339706
 20
24.0740934938
 10
42.6093385279
 20
24.1015858428
 10
42.5003938614
 20
24.1363366414
 10
42.3988757775
 20
24.1779089745
 10
42.3060609397
 20
24.2257799815
 10
42.2231165181
 20
24.2793476027
 10
42.1510856046
 20
24.3379382058
 10
42.0908740189
 20
24.4008150928
 10
42.0432389592
 20
24.4671874461
 10
42.0087794739
 20
24.5362207419
 10
41.9879289031
 20
24.6070465771
 10
41.9809494654
 20
24.6787745484
 10
41.9879289031
 20
24.7505025198
 10
42.0087794739
 20
24.821328355
 10
42.0432389592
 20
24.8903616508
 10
42.0908740189
 20
24.9567340041
 10
42.1510856046
 20
25.0196108911
 10
42.2231165181
 20
25.0782015676
 10
42.3056430729
 20
25.1315279249
  0
LWPOLYLINE
  5
125
330
1F
100
AcDbEntity
  8
0
  6
Continuous
 62
     7
370
    25
100
AcDbPolyline
 90
       15
 70
   128
 43
0.0
 10
43.8762557857
 20
25.1315279249
 10
43.9587824057
 20
25.0782015676
 10
44.0308133869
 20
25.0196108911
 10
44.0910249313
 20
24.9567340041
 10
44.1386599544
 20
24.8903616508
 10
44.1731194763
 20
24.821328355
 10
44.1939699554
 20
24.7505025198
 10
44.2009494481
 20
24.6787745484
 10
44.1939699554
 20
24.6070465771
 10
44.1731194763
 20
24.5362207419
 10
44.1386599544
 20
24.4671874461
 10
44.0910249313
 20
24.4008150928
 10
44.0308133869
 20
24.3379382058
 10
43.9587824057
 20
24.2793476027
 10
43.8758379372
 20
24.2257799815
  0
LWPOLYLINE
  5
126
330
1F
100
AcDbEntity
  8
0
  6
Continuous
 62
     7
370
    25
100
AcDbPolyline
 90
       22
 70
   128
 43
0.0
 10
44.1789106894
 20
23.4615330101
 10
44.1731194763
 20
23.4460041228
 10
44.1386599544
 20
23.3769709737
 10
44.0910249313
 20
23.3105986204
 10
44.0308133869
 20
23.2477218801
 10
43.9587824057
 20
23.1891309836
 10
43.8758379372
 20
23.1355633624
 10
43.7830232094
 20
23.0876925021
 10
43.6815050888
 20
23.0461203157
 10
43.5725604407
 20
23.0113692238
 10
43.4575592625
 20
22.9838768747
 10
43.3379476709
 20
22.9639888111
 10
43.2152300086
 20
22.9519549501
 10
43.0909494843
 20
22.9479269433
 10
42.9666688866
 20
22.9519549501
 10
42.8439512243
 20
22.9639888111
 10
42.724339706
 20
22.9838768747
 10
42.6093385279
 20
23.0113692238
 10
42.5003938614
 20
23.0461203157
 10
42.3988757775
 20
23.0876925021
 10
42.3060609397
 20
23.1355633624
 10
42.248339645
 20
23.1715297203
  0
ARC
  5
127
330
1F
100
AcDbEntity
  8
0
  6
Continuous
 62
     7
370
    25
100
AcDbCircle
 10
42.4852110207
 20
23.6233680113
 30
0.0
 40
0.505461618436005
100
AcDbArc
 50
183.9489492662
 51
236.2221234993
  0
ARC
  5
128
330
1F
100
AcDbEntity
  8
0
  6
Continuous
 62
     7
370
    25
100
AcDbCircle
 10
42.8358807713
 20
24.7244817742
 30
0.0
 40
0.2458477787023288
100
AcDbArc
 50
184.9487611365
 51
246.3847975056
  0
LWPOLYLINE
  5
129
330
1F
100
AcDbEntity
  8
0
  6
Continuous
 62
     7
370
    25
100
AcDbPolyline
 90
       15
 70
   128
 43
0.0
 10
43.5909494416
 20
24.7032737588
 10
43.5854399719
 20
24.6605527456
 10
43.5658175186
 20
24.6129356157
 10
43.5325339564
 20
24.5679173891
 10
43.486546861
 20
24.5267931175
 10
43.429179077
 20
24.4907458006
 10
43.3620810988
 20
24.460812653
 10
43.2871831107
 20
24.4378545982
 10
43.2066398411
 20
24.4225320686
 10
43.12276845
 20
24.4152860856
 10
43.0379815762
 20
24.4163250603
 10
42.9547185514
 20
24.4256189263
 10
42.8753746346
 20
24.4429004599
 10
42.8022324462
 20
24.4676723204
 10
42.7373960785
 20
24.499222156
  0
LINE
  5
12A
330
1F
100
AcDbEntity
  8
0
  6
Continuous
 62
     7
370
    25
100
AcDbLine
 10
40.1293517636
 20
18.8199977955
 30
0.0
 11
40.1598981174
 21
18.1058719652
 31
0.0
  0
LINE
  5
12B
330
1F
100
AcDbEntity
  8
0
  6
Continuous
 62
     7
370
    25
100
AcDbLine
 10
46.0220007045
 20
18.1058719652
 30
0.0
 11
46.052547205
 21
18.8199977955
 31
0.0
  0
LINE
  5
12C
330
1F
100
AcDbEntity
  8
0
  6
Continuous
 62
     7
370
    25
100
AcDbLine
 10
42.7997579148
 20
18.1739690985
 30
0.0
 11
42.8006588411
 21
18.1903791489
 31
0.0
  0
LINE
  5
12D
330
1F
100
AcDbEntity
  8
0
  6
Continuous
 62
     7
370
    25
100
AcDbLine
 10
44.2784494195
 20
14.379808449
 30
0.0
 11
44.2784494195
 21
16.6004815689
 31
0.0
  0
LINE
  5
12E
330
1F
100
AcDbEntity
  8
0
  6
Continuous
 62
     7
370
    25
100
AcDbLine
 10
44.2784494195
 20
18.6935667227
 30
0.0
 11
44.2784494195
 21
21.1271709829
 31
0.0
  0
LINE
  5
12F
330
1F
100
AcDbEntity
  8
0
  6
Continuous
 62
     7
370
    25
100
AcDbLine
 10
41.9034494757
 20
21.4559797711
 30
0.0
 11
41.9034494757
 21
18.636442476
 31
0.0
  0
LINE
  5
130
330
1F
100
AcDbEntity
  8
0
  6
Continuous
 62
     7
370
    25
100
AcDbLine
 10
41.9034494757
 20
16.6004815689
 30
0.0
 11
41.9034494757
 21
12.0043861834
 31
0.0
  0
ARC
  5
131
330
1F
100
AcDbEntity
  8
0
  6
Continuous
 62
     7
370
    25
100
AcDbCircle
 10
43.4223242811
 20
19.2969177102
 30
0.0
 40
1.107174056747023
100
AcDbArc
 50
289.8043424578
 51
314.8057096719
  0
SPLINE
  5
132
330
1F
100
AcDbEntity
  8
0
  6
Continuous
 62
     7
370
    25
100
AcDbSpline
210
0.0
220
0.0
230
1.0
 70
     8
 71
     3
 72
    12
 73
     8
 74
     0
 42
0.00000001
 43
0.00000001
 40
0.0
 40
0.0
 40
0.0
 40
0.0
 40
0.1475142104977973
 40
0.3950428152563126
 40
0.5995180600073605
 40
0.7808062049666551
 40
0.9999999999999999
 40
0.9999999999999999
 40
0.9999999999999999
 40
0.9999999999999999
 10
44.17905412772387
 20
18.55823836605876
 30
0.0
 10
44.18202475559674
 20
18.55717024760071
 30
0.0
 10
44.18998009219803
 20
18.55430982811117
 30
0.0
 10
44.20099872798993
 20
18.54732563941657
 30
0.0
 10
44.20949492833819
 20
18.53624346787577
 30
0.0
 10
44.21078413441724
 20
18.5223347138314
 30
0.0
 10
44.20546602006809
 20
18.51525309482878
 30
0.0
 10
44.20255528290318
 20
18.51137714740356
 30
0.0
  0
SPLINE
  5
133
330
1F
100
AcDbEntity
  8
0
  6
Continuous
 62
     7
370
    25
100
AcDbSpline
210
0.0
220
0.0
230
1.0
 70
     8
 71
     3
 72
    10
 73
     6
 74
     0
 42
0.00000001
 43
0.00000001
 40
0.0
 40
0.0
 40
0.0
 40
0.0
 40
0.0306877510641676
 40
0.8385451570481619
 40
1.0
 40
1.0
 40
1.0
 40
1.0
 10
44.1605373816309
 20
18.56760145789552
 30
0.0
 10
44.16068230612553
 20
18.56744517779423
 30
0.0
 10
44.16464237908292
 20
18.56317481201179
 30
0.0
 10
44.17166352537937
 20
18.56078229845275
 30
0.0
 10
44.17799887191618
 20
18.55860159753949
 30
0.0
 10
44.17905412772387
 20
18.55823836605876
 30
0.0
  0
SPLINE
  5
134
330
1F
100
AcDbEntity
  8
0
  6
Continuous
 62
     7
370
    25
100
AcDbSpline
210
0.0
220
0.0
230
1.0
 70
     8
 71
     3
 72
     9
 73
     5
 74
     0
 42
0.00000001
 43
0.00000001
 40
0.0
 40
0.0
 40
0.0
 40
0.0
 40
0.9228528910585841
 40
1.0
 40
1.0
 40
1.0
 40
1.0
 10
44.26415061134869
 20
18.69399263781383
 30
0.0
 10
44.25738701899036
 20
18.69467807783798
 30
0.0
 10
44.25005801517636
 20
18.69542081812822
 30
0.0
 10
44.24292047674995
 20
18.69400669446409
 30
0.0
 10
44.2423698362954
 20
18.69389759891173
 30
0.0
  0
SPLINE
  5
135
330
1F
100
AcDbEntity
  8
0
  6
Continuous
 62
     7
370
    25
100
AcDbSpline
210
0.0
220
0.0
230
1.0
 70
     8
 71
     3
 72
    12
 73
     8
 74
     0
 42
0.00000001
 43
0.00000001
 40
0.0
 40
0.0
 40
0.0
 40
0.0
 40
0.1631128662128656
 40
0.360382056706895
 40
0.5900017871193067
 40
0.8390548689553012
 40
1.0
 40
1.0
 40
1.0
 40
1.0
 10
44.33416098924949
 20
18.7213274687062
 30
0.0
 10
44.33204159773714
 20
18.71747133578041
 30
0.0
 10
44.32735900776172
 20
18.70895158410788
 30
0.0
 10
44.31342058036294
 20
18.70056899080519
 30
0.0
 10
44.29638130268468
 20
18.69491830414283
 30
0.0
 10
44.27929924549009
 20
18.69291395619096
 30
0.0
 10
44.26842091055259
 20
18.69368856463915
 30
0.0
 10
44.26415061134869
 20
18.69399263781382
 30
0.0
  0
ARC
  5
136
330
1F
100
AcDbEntity
  8
0
  6
Continuous
 62
     7
370
    25
100
AcDbCircle
 10
43.919206606
 20
18.86284904
 30
0.0
 40
0.4384238762833724
100
AcDbArc
 50
341.1678868371
 51
27.8672987136
  0
SPLINE
  5
137
330
1F
100
AcDbEntity
  8
0
  6
Continuous
 62
     7
370
    25
100
AcDbSpline
210
0.0
220
0.0
230
1.0
 70
     8
 71
     3
 72
    10
 73
     6
 74
     0
 42
0.00000001
 43
0.00000001
 40
0.0
 40
0.0
 40
0.0
 40
0.0
 40
0.0973884435582638
 40
0.5689401883660137
 40
1.0
 40
1.0
 40
1.0
 40
1.0
 10
44.27844941950097
 20
19.08794707348524
 30
0.0
 10
44.27957328890553
 20
19.08768649974964
 30
0.0
 10
44.28613889820544
 20
19.08616423627773
 30
0.0
 10
44.29709387871967
 20
19.08040917913308
 30
0.0
 10
44.30365445424562
 20
19.07186155272128
 30
0.0
 10
44.30678758546939
 20
19.06777946646315
 30
0.0
  0
SPLINE
  5
138
330
1F
100
AcDbEntity
  8
0
  6
Continuous
 62
     7
370
    25
100
AcDbSpline
210
0.0
220
0.0
230
1.0
 70
     8
 71
     3
 72
    11
 73
     7
 74
     0
 42
0.00000001
 43
0.00000001
 40
0.0
 40
0.0
 40
0.0
 40
0.0
 40
0.1988107239827355
 40
0.4392646670653518
 40
0.7191489453612627
 40
0.9999999999999999
 40
0.9999999999999999
 40
0.9999999999999999
 40
0.9999999999999999
 10
41.8477379426207
 20
19.00306208075058
 30
0.0
 10
41.84985733195047
 20
19.00692081577408
 30
0.0
 10
41.85454004136206
 20
19.01544654276422
 30
0.0
 10
41.86847854074193
 20
19.02377159172843
 30
0.0
 10
41.8850471562726
 20
19.02952844514547
 30
0.0
 10
41.89730832264237
 20
19.03039087055467
 30
0.0
 10
41.90344947570298
 20
19.03082282672274
 30
0.0
  0
ARC
  5
139
330
1F
100
AcDbEntity
  8
0
  6
Continuous
 62
     7
370
    25
100
AcDbCircle
 10
42.2626941425
 20
18.8615402649
 30
0.0
 40
0.4384256745834829
100
AcDbArc
 50
161.1679332283
 51
207.8672250337
  0
SPLINE
  5
13A
330
1F
100
AcDbEntity
  8
0
  6
Continuous
 62
     7
370
    25
100
AcDbSpline
210
0.0
220
0.0
230
1.0
 70
     8
 71
     3
 72
    12
 73
     8
 74
     0
 42
0.00000001
 43
0.00000001
 40
0.0
 40
0.0
 40
0.0
 40
0.0
 40
0.1286278238354556
 40
0.3745640203019753
 40
0.6075442399126992
 40
0.8125770004557934
 40
1.0
 40
1.0
 40
1.0
 40
1.0
 10
41.94914168286271
 20
18.63306566164745
 30
0.0
 10
41.94566336246275
 20
18.63260862957689
 30
0.0
 10
41.93553449893958
 20
18.63127775290763
 30
0.0
 10
41.91880721293342
 20
18.63201683331324
 30
0.0
 10
41.90070293224871
 20
18.63642918363611
 30
0.0
 10
41.88477549169563
 20
18.6438256030018
 30
0.0
 10
41.87823487641328
 20
18.6524776056681
 30
0.0
 10
41.87511130973456
 20
18.65660949633373
 30
0.0
  0
SPLINE
  5
13B
330
1F
100
AcDbEntity
  8
0
  6
Continuous
 62
     7
370
    25
100
AcDbSpline
210
0.0
220
0.0
230
1.0
 70
     8
 71
     3
 72
    10
 73
     6
 74
     0
 42
0.00000001
 43
0.00000001
 40
0.0
 40
0.0
 40
0.0
 40
0.0
 40
0.0608779211115718
 40
0.8565275330801355
 40
1.0
 40
1.0
 40
1.0
 40
1.0
 10
41.97434352839551
 20
18.6338916787719
 30
0.0
 10
41.97383855477197
 20
18.63398186334572
 30
0.0
 10
41.96673378174194
 20
18.6352507235355
 30
0.0
 10
41.95815081813608
 20
18.63440327480933
 30
0.0
 10
41.95033563203555
 20
18.6332429308392
 30
0.0
 10
41.94914168286271
 20
18.63306566164745
 30
0.0
  0
SPLINE
  5
13C
330
1F
100
AcDbEntity
  8
0
  6
Continuous
 62
     7
370
    25
100
AcDbSpline
210
0.0
220
0.0
230
1.0
 70
     8
 71
     3
 72
     9
 73
     5
 74
     0
 42
0.00000001
 43
0.00000001
 40
0.0
 40
0.0
 40
0.0
 40
0.0
 40
0.9281050317298736
 40
1.0
 40
1.0
 40
1.0
 40
1.0
 10
42.05529250993263
 20
18.50234493174448
 30
0.0
 10
42.06068174647756
 20
18.50434462829738
 30
0.0
 10
42.06648845623635
 20
18.50649922986134
 30
0.0
 10
42.07036179257427
 20
18.51104449883595
 30
0.0
 10
42.07064026596738
 20
18.51137128080466
 30
0.0
  0
SPLINE
  5
13D
330
1F
100
AcDbEntity
  8
0
  6
Continuous
 62
     7
370
    25
100
AcDbSpline
210
0.0
220
0.0
230
1.0
 70
     8
 71
     3
 72
    12
 73
     8
 74
     0
 42
0.00000001
 43
0.00000001
 40
0.0
 40
0.0
 40
0.0
 40
0.0
 40
0.2128633352237384
 40
0.3982884334445199
 40
0.59333199239599
 40
0.8272196438187962
 40
1.0
 40
1.0
 40
1.0
 40
1.0
 10
42.03927845492836
 20
18.45444415176505
 30
0.0
 10
42.03608391064925
 20
18.45771347939641
 30
0.0
 10
42.03010660114612
 20
18.46383071597613
 30
0.0
 10
42.02805885619347
 20
18.47708537766118
 30
0.0
 10
42.03407961732447
 20
18.48918573438862
 30
0.0
 10
42.04413355457214
 20
18.49737859136102
 30
0.0
 10
42.05196512409069
 20
18.50086406457149
 30
0.0
 10
42.05529250993263
 20
18.50234493174448
 30
0.0
  0
ARC
  5
13E
330
1F
100
AcDbEntity
  8
0
  6
Continuous
 62
     7
370
    25
100
AcDbCircle
 10
42.8400647955
 20
19.4363832712
 30
0.0
 40
1.267068742199291
100
AcDbArc
 50
230.8022309161
 51
253.6368446006
  0
SPLINE
  5
13F
330
1F
100
AcDbEntity
  8
0
  6
Continuous
 62
     7
370
    25
100
AcDbSpline
210
0.0
220
0.0
230
1.0
 70
     8
 71
     3
 72
    12
 73
     8
 74
     0
 42
0.00000001
 43
0.00000001
 40
0.0
 40
0.0
 40
0.0
 40
0.0
 40
0.0914989798795656
 40
0.2897005911537941
 40
0.5134172663104201
 40
0.7478928777142838
 40
1.0
 40
1.0
 40
1.0
 40
1.0
 10
42.564294084903
 20
18.23420029604086
 30
0.0
 10
42.5623542951799
 20
18.23243597560457
 30
0.0
 10
42.5562126067126
 20
18.22684985132151
 30
0.0
 10
42.54260123482772
 20
18.2205998788692
 30
0.0
 10
42.52425057087103
 20
18.2165275339946
 30
0.0
 10
42.50373282104563
 20
18.21578529098184
 30
0.0
 10
42.49014208519706
 20
18.21898097761614
 30
0.0
 10
42.48310048452507
 20
18.22063671939512
 30
0.0
  0
SPLINE
  5
140
330
1F
100
AcDbEntity
  8
0
  6
Continuous
 62
     7
370
    25
100
AcDbSpline
210
0.0
220
0.0
230
1.0
 70
     8
 71
     3
 72
     9
 73
     5
 74
     0
 42
0.00000001
 43
0.00000001
 40
0.0
 40
0.0
 40
0.0
 40
0.0
 40
0.8471130429485201
 40
1.0
 40
1.0
 40
1.0
 40
1.0
 10
42.57852179720992
 20
18.24387783757841
 30
0.0
 10
42.57415185990388
 20
18.24159197442898
 30
0.0
 10
42.56899323633832
 20
18.23889355871166
 30
0.0
 10
42.56491725004445
 20
18.23482268025988
 30
0.0
 10
42.564294084903
 20
18.23420029604086
 30
0.0
  0
SPLINE
  5
141
330
1F
100
AcDbEntity
  8
0
  6
Continuous
 62
     7
370
    25
100
AcDbSpline
210
0.0
220
0.0
230
1.0
 70
     8
 71
     3
 72
     9
 73
     5
 74
     0
 42
0.00000001
 43
0.00000001
 40
0.0
 40
0.0
 40
0.0
 40
0.0
 40
0.9074691959186609
 40
1.0
 40
1.0
 40
1.0
 40
1.0
 10
42.79951052766258
 20
18.18508747672967
 30
0.0
 10
42.80056772495559
 20
18.18919053262787
 30
0.0
 10
42.80173272019484
 20
18.19371195981971
 30
0.0
 10
42.79950982011223
 20
18.19739291551768
 30
0.0
 10
42.7993041333802
 20
18.1977335173082
 30
0.0
  0
SPLINE
  5
142
330
1F
100
AcDbEntity
  8
0
  6
Continuous
 62
     7
370
    25
100
AcDbSpline
210
0.0
220
0.0
230
1.0
 70
     8
 71
     3
 72
    12
 73
     8
 74
     0
 42
0.00000001
 43
0.00000001
 40
0.0
 40
0.0
 40
0.0
 40
0.0
 40
0.2745236222287648
 40
0.5184539672432172
 40
0.7221752997498547
 40
0.8936310992547466
 40
0.9999999999999999
 40
0.9999999999999999
 40
0.9999999999999999
 40
0.9999999999999999
 10
42.84687359718703
 20
18.14468069017898
 30
0.0
 10
42.84051279819867
 20
18.14575034400526
 30
0.0
 10
42.82850005611265
 20
18.14777044801418
 30
0.0
 10
42.81298606388853
 20
18.15512562567029
 30
0.0
 10
42.80203498313218
 20
18.16496660416083
 30
0.0
 10
42.79756700047274
 20
18.17618382232333
 30
0.0
 10
42.79897243736067
 20
18.18262238639666
 30
0.0
 10
42.79951052766258
 20
18.18508747672967
 30
0.0
  0
ARC
  5
143
330
1F
100
AcDbEntity
  8
0
  6
Continuous
 62
     7
370
    25
100
AcDbCircle
 10
43.090569072
 20
20.2973437693
 30
0.0
 40
2.166413122372664
100
AcDbArc
 50
263.541242283
 51
279.473964237
  0
SPLINE
  5
144
330
1F
100
AcDbEntity
  8
0
  6
Continuous
 62
     7
370
    25
100
AcDbSpline
210
0.0
220
0.0
230
1.0
 70
     8
 71
     3
 72
    12
 73
     8
 74
     0
 42
0.00000001
 43
0.00000001
 40
0.0
 40
0.0
 40
0.0
 40
0.0
 40
0.0933349334268721
 40
0.2647147506642887
 40
0.4599051606822355
 40
0.6957154680579481
 40
0.9999999999999999
 40
0.9999999999999999
 40
0.9999999999999999
 40
0.9999999999999999
 10
43.48795411137022
 20
18.20320588075765
 30
0.0
 10
43.48875680128543
 20
18.20122616894713
 30
0.0
 10
43.49103337505006
 20
18.19561134822492
 30
0.0
 10
43.48942201035452
 20
18.18450886629826
 30
0.0
 10
43.48049675409807
 20
18.17362100116243
 30
0.0
 10
43.46595296628978
 20
18.16481973199225
 30
0.0
 10
43.45393193559095
 20
18.16204352873127
 30
0.0
 10
43.44715939596759
 20
18.1604794410038
 30
0.0
  0
SPLINE
  5
145
330
1F
100
AcDbEntity
  8
0
  6
Continuous
 62
     7
370
    25
100
AcDbSpline
210
0.0
220
0.0
230
1.0
 70
     8
 71
     3
 72
     9
 73
     5
 74
     0
 42
0.00000001
 43
0.00000001
 40
0.0
 40
0.0
 40
0.0
 40
0.0
 40
0.8244002110859613
 40
1.0
 40
1.0
 40
1.0
 40
1.0
 10
43.48615731879359
 20
18.21585544129552
 30
0.0
 10
43.48598998433565
 20
18.21221158061274
 30
0.0
 10
43.48578700712181
 20
18.20779156636022
 30
0.0
 10
43.48763041018197
 20
18.20389084636537
 30
0.0
 10
43.48795411137022
 20
18.20320588075765
 30
0.0
  0
SPLINE
  5
146
330
1F
100
AcDbEntity
  8
0
  6
Continuous
 62
     7
370
    25
100
AcDbSpline
210
0.0
220
0.0
230
1.0
 70
     8
 71
     3
 72
     9
 73
     5
 74
     0
 42
0.00000001
 43
0.00000001
 40
0.0
 40
0.0
 40
0.0
 40
0.0
 40
0.9031057655991094
 40
0.9999999999999999
 40
0.9999999999999999
 40
0.9999999999999999
 40
0.9999999999999999
 10
43.71444956154212
 20
18.26447077302039
 30
0.0
 10
43.71004634355208
 20
18.26783550299422
 30
0.0
 10
43.70517070422192
 20
18.27156123490958
 30
0.0
 10
43.69937182060115
 20
18.2731720822159
 30
0.0
 10
43.69880994221234
 20
18.27332816403239
 30
0.0
  0
SPLINE
  5
147
330
1F
100
AcDbEntity
  8
0
  6
Continuous
 62
     7
370
    25
100
AcDbSpline
210
0.0
220
0.0
230
1.0
 70
     8
 71
     3
 72
    12
 73
     8
 74
     0
 42
0.00000001
 43
0.00000001
 40
0.0
 40
0.0
 40
0.0
 40
0.0
 40
0.2187101378066074
 40
0.4502940066345144
 40
0.6773734256818058
 40
0.8839231852173063
 40
1.0
 40
1.0
 40
1.0
 40
1.0
 10
43.7974450694376
 20
18.25522735980109
 30
0.0
 10
43.79137401071854
 20
18.25337221630077
 30
0.0
 10
43.77887453820879
 20
18.24955273171711
 30
0.0
 10
43.75906743365755
 20
18.24886716298235
 30
0.0
 10
43.739989536424
 20
18.25160865986049
 30
0.0
 10
43.72472482315128
 20
18.25696055765787
 30
0.0
 10
43.71716829968795
 20
18.26248364025764
 30
0.0
 10
43.71444956154212
 20
18.26447077302039
 30
0.0
  0
LWPOLYLINE
  5
148
330
1F
100
AcDbEntity
  8
0
  6
Continuous
 62
     7
370
    25
100
AcDbPolyline
 90
       82
 70
   128
 43
0.0
 10
41.9034494757
 20
20.428615106
 10
41.7428969438
 20
20.3847165198
 10
41.5660145871
 20
20.3280733341
 10
41.3962421817
 20
20.2645949741
 10
41.234371205
 20
20.1945782896
 10
41.0811565416
 20
20.1183494635
 10
40.9373123766
 20
20.0362640118
 10
40.803509629
 20
19.9487038499
 10
40.6803717715
 20
19.8560784666
 10
40.5684732908
 20
19.7588190568
 10
40.4683357276
 20
19.6573791087
 10
40.3804259165
 20
19.55223147
 10
40.3051539327
 20
19.4438671752
 10
40.2428705989
 20
19.332790165
 10
40.193866165
 20
19.2195196335
 10
40.1583694283
 20
19.1045824013
 10
40.1365456805
 20
18.9885152621
 10
40.1284968534
 20
18.8718597031
 10
40.1342602002
 20
18.7551589712
 10
40.1538090277
 20
18.6389569003
 10
40.1870521103
 20
18.5237955639
 10
40.2338345699
 20
18.4102123427
 10
40.2939381689
 20
18.2987364038
 10
40.3670827773
 20
18.1898875279
 10
40.4529273989
 20
18.0841725892
 10
40.5510714918
 20
17.9820855552
 10
40.6610577546
 20
17.8841027937
 10
40.7823734465
 20
17.790679553
 10
40.9144525873
 20
17.7022523078
 10
41.0566796243
 20
17.6192340668
 10
41.2083913384
 20
17.542009679
 10
41.3688804378
 20
17.4709416999
 10
41.5373986377
 20
17.4063598327
 10
41.7131601806
 20
17.3485656203
 10
41.8953456127
 20
17.2978289264
 10
42.0831055053
 20
17.2543867616
 10
42.2755644382
 20
17.2184397635
 10
42.4718250648
 20
17.1901568903
 10
42.6709723559
 20
17.1696707269
 10
42.8720777527
 20
17.1570751391
 10
43.0742036444
 20
17.1524299661
 10
43.2764075618
 20
17.1557551543
 10
43.477746816
 20
17.1670377973
 10
43.6772827509
 20
17.1862239224
 10
43.8740847041
 20
17.2132243571
 10
44.0672355795
 20
17.2479135564
 10
44.2558344141
 20
17.2901284287
 10
44.4390019515
 20
17.3396730297
 10
44.6158843081
 20
17.3963162153
 10
44.7856566402
 20
17.4597939887
 10
44.9475278369
 20
17.5298106732
 10
45.1007422803
 20
17.6060400859
 10
45.2445865919
 20
17.6881255377
 10
45.3783893396
 20
17.7756856995
 10
45.5015271971
 20
17.8683110828
 10
45.6134255311
 20
17.9655699059
 10
45.7135630943
 20
18.0670104408
 10
45.8014729054
 20
18.1721574928
 10
45.8767448892
 20
18.2805229609
 10
45.9390285163
 20
18.3915987978
 10
45.9880328036
 20
18.5048699159
 10
46.0235295402
 20
18.6198071481
 10
46.0453532881
 20
18.7358742873
 10
46.0534022618
 20
18.852530433
 10
46.0476386217
 20
18.9692311649
 10
46.0280899408
 20
19.0854332359
 10
45.9948468582
 20
19.2005939855
 10
45.948064252
 20
19.3141777934
 10
45.887960653
 20
19.4256537323
 10
45.8148161913
 20
19.5345026082
 10
45.7289717163
 20
19.6402169603
 10
45.63082733
 20
19.7423034076
 10
45.520841214
 20
19.8402867557
 10
45.3995255221
 20
19.9337099965
 10
45.2674463812
 20
20.0221372416
 10
45.1252191975
 20
20.1051560693
 10
44.9735074835
 20
20.1823798705
 10
44.8130184574
 20
20.2534478495
 10
44.6445002575
 20
20.3180297168
 10
44.4687387146
 20
20.3758239292
 10
44.2865532459
 20
20.426560623
 10
44.2784494195
 20
20.428615106
  0
LWPOLYLINE
  5
149
330
1F
100
AcDbEntity
  8
0
  6
Continuous
 62
     7
370
    25
100
AcDbPolyline
 90
       21
 70
   128
 43
0.0
 10
40.9198898979
 20
19.4059865461
 10
40.8774299484
 20
19.4195078833
 10
40.8298084185
 20
19.4247954489
 10
40.7816867611
 20
19.4213306355
 10
40.737775415
 20
19.4094531194
 10
40.7023726906
 20
19.3903250737
 10
40.6789441346
 20
19.3658197035
 10
40.6697831471
 20
19.3383352743
 10
40.6757862911
 20
19.3105622085
 10
40.6963661734
 20
19.2852190879
 10
40.7295080572
 20
19.2647863106
 10
40.77196786
 20
19.2512649735
 10
40.8195893899
 20
19.2459774079
 10
40.8677110473
 20
19.2494422212
 10
40.9116223934
 20
19.2613197373
 10
40.9470251177
 20
19.2804471964
 10
40.9704536738
 20
19.3049531533
 10
40.9796146613
 20
19.3324375824
 10
40.9736115173
 20
19.3602106483
 10
40.9530317817
 20
19.3855537688
 10
40.9198898979
 20
19.4059865461
  0
LWPOLYLINE
  5
14A
330
1F
100
AcDbEntity
  8
0
  6
Continuous
 62
     7
370
    25
100
AcDbPolyline
 90
       21
 70
   128
 43
0.0
 10
40.7786421429
 20
18.8694332778
 10
40.7361823401
 20
18.8829552016
 10
40.6885608102
 20
18.8882427672
 10
40.6404391528
 20
18.8847779538
 10
40.5965278067
 20
18.8729004377
 10
40.5611250823
 20
18.8537729787
 10
40.5376965263
 20
18.8292670218
 10
40.5285355388
 20
18.8017831793
 10
40.5345386828
 20
18.7740095268
 10
40.5551184184
 20
18.7486658196
 10
40.5882603022
 20
18.7282336289
 10
40.630720105
 20
18.7147122918
 10
40.6783416349
 20
18.7094253129
 10
40.726463439
 20
18.7128901262
 10
40.7703747851
 20
18.7247676423
 10
40.8057773628
 20
18.7438951013
 10
40.8292059188
 20
18.7683998849
 10
40.838367053
 20
18.7958849007
 10
40.8323637623
 20
18.8236585532
 10
40.8117840267
 20
18.8490010871
 10
40.7786421429
 20
18.8694332778
  0
LWPOLYLINE
  5
14B
330
1F
100
AcDbEntity
  8
0
  6
Continuous
 62
     7
370
    25
100
AcDbPolyline
 90
       21
 70
   128
 43
0.0
 10
41.0039142605
 20
18.3425270446
 10
40.9614544577
 20
18.3560495551
 10
40.9138329278
 20
18.361336534
 10
40.8657112704
 20
18.3578717207
 10
40.8217999243
 20
18.3459942046
 10
40.7863972
 20
18.3268667456
 10
40.762968644
 20
18.3023607886
 10
40.7538076565
 20
18.2748769461
 10
40.7598108004
 20
18.2471032937
 10
40.780390536
 20
18.2217595864
 10
40.8135324199
 20
18.2013273958
 10
40.8559922227
 20
18.1878060587
 10
40.9036137526
 20
18.1825190797
 10
40.9517355567
 20
18.1859827197
 10
40.9956468294
 20
18.1978602358
 10
41.0310495537
 20
18.2169888682
 10
41.0544781098
 20
18.2414936518
 10
41.0636390973
 20
18.2689786676
 10
41.0576359533
 20
18.2967511468
 10
41.0370561444
 20
18.322094854
 10
41.0039142605
 20
18.3425270446
  0
LWPOLYLINE
  5
14C
330
1F
100
AcDbEntity
  8
0
  6
Continuous
 62
     7
370
    25
100
AcDbPolyline
 90
       21
 70
   128
 43
0.0
 10
41.5614105536
 20
17.9054842001
 10
41.5189506775
 20
17.9190055372
 10
41.4713292209
 20
17.9242925161
 10
41.4232074902
 20
17.9208277028
 10
41.3792961441
 20
17.9089501867
 10
41.3438934931
 20
17.8898227277
 10
41.3204649371
 20
17.8653179441
 10
41.3113038762
 20
17.8378329282
 10
41.3173070202
 20
17.8100592758
 10
41.3378868291
 20
17.7847167418
 10
41.3710287129
 20
17.7642833779
 10
41.4134885891
 20
17.7507620408
 10
41.4611100456
 20
17.7454750618
 10
41.5092317764
 20
17.7489398751
 10
41.5531431225
 20
17.7608173913
 10
41.5885457735
 20
17.7799448503
 10
41.6119743295
 20
17.8044508072
 10
41.6211353904
 20
17.8319346497
 10
41.6151322097
 20
17.8597083022
 10
41.5945524374
 20
17.8850508361
 10
41.5614105536
 20
17.9054842001
  0
LWPOLYLINE
  5
14D
330
1F
100
AcDbEntity
  8
0
  6
Continuous
 62
     7
370
    25
100
AcDbPolyline
 90
       21
 70
   128
 43
0.0
 10
42.3662571943
 20
17.6248390154
 10
42.3237973548
 20
17.6383603526
 10
42.2761758341
 20
17.6436485048
 10
42.2280541523
 20
17.6401836915
 10
42.1841427985
 20
17.6283061754
 10
42.14874012
 20
17.609177543
 10
42.1253115777
 20
17.5846727594
 10
42.1161505261
 20
17.5571877436
 10
42.1221536975
 20
17.5294152644
 10
42.142733479
 20
17.5040715572
 10
42.1758753674
 20
17.4836393666
 10
42.2183352051
 20
17.4701180295
 10
42.2659567276
 20
17.4648298772
 10
42.3140784079
 20
17.4682946905
 10
42.3579897631
 20
17.4801722066
 10
42.3933924508
 20
17.4992996657
 10
42.4168209885
 20
17.5238056226
 10
42.425982031
 20
17.5512906384
 10
42.4199788687
 20
17.5790631176
 10
42.3993990781
 20
17.6044068248
 10
42.3662571943
 20
17.6248390154
  0
LWPOLYLINE
  5
14E
330
1F
100
AcDbEntity
  8
0
  6
Continuous
 62
     7
370
    25
100
AcDbPolyline
 90
       21
 70
   128
 43
0.0
 10
43.2959236097
 20
17.5433191038
 10
43.2534638069
 20
17.556840441
 10
43.205842277
 20
17.5621274199
 10
43.1577206196
 20
17.5586626066
 10
43.1138092002
 20
17.5467850905
 10
43.0784065492
 20
17.5276576314
 10
43.0549779931
 20
17.5031516745
 10
43.0458169323
 20
17.475667832
 10
43.0518201496
 20
17.4478941795
 10
43.0723998852
 20
17.4225516456
 10
43.105541769
 20
17.4021182817
 10
43.1480016452
 20
17.3885969445
 10
43.1956231751
 20
17.3833099656
 10
43.2437448325
 20
17.3867747789
 10
43.2876561786
 20
17.398652295
 10
43.3230589029
 20
17.4177797541
 10
43.3464873856
 20
17.442285711
 10
43.3556484464
 20
17.4697695535
 10
43.3496453025
 20
17.497543206
 10
43.3290654935
 20
17.5228857399
 10
43.2959236097
 20
17.5433191038
  0
LWPOLYLINE
  5
14F
330
1F
100
AcDbEntity
  8
0
  6
Continuous
 62
     7
370
    25
100
AcDbPolyline
 90
       21
 70
   128
 43
0.0
 10
44.2088765432
 20
17.6733334952
 10
44.1664167404
 20
17.6868548324
 10
44.1187952105
 20
17.6921418113
 10
44.0706735531
 20
17.6886781713
 10
44.026762207
 20
17.6768006552
 10
43.9913594827
 20
17.6576720228
 10
43.9679309266
 20
17.6331672392
 10
43.9587699391
 20
17.6056822234
 10
43.9647730831
 20
17.5779097442
 10
43.9853528187
 20
17.552566037
 10
44.0184947025
 20
17.5321338464
 10
44.0609545054
 20
17.5186113359
 10
44.1085760352
 20
17.513324357
 10
44.1566978393
 20
17.5167891703
 10
44.2006091854
 20
17.5286666864
 10
44.2360117631
 20
17.5477941455
 10
44.2594403191
 20
17.5723001024
 10
44.2686014533
 20
17.5997839449
 10
44.2625981626
 20
17.6275575974
 10
44.242018427
 20
17.6529013046
 10
44.2088765432
 20
17.6733334952
  0
LWPOLYLINE
  5
150
330
1F
100
AcDbEntity
  8
0
  6
Continuous
 62
     7
370
    25
100
AcDbPolyline
 90
       21
 70
   128
 43
0.0
 10
44.9661273021
 20
17.9950894583
 10
44.9236672059
 20
18.0086107954
 10
44.876045676
 20
18.0138989476
 10
44.8279240186
 20
18.0104341343
 10
44.7840128192
 20
17.9985566182
 10
44.7486099482
 20
17.9794291592
 10
44.7251816855
 20
17.9549232023
 10
44.7160204046
 20
17.9274381864
 10
44.7220236953
 20
17.8996657073
 10
44.7426034309
 20
17.8743220001
 10
44.7757453147
 20
17.8538898094
 10
44.8182051175
 20
17.8403684723
 10
44.8658266474
 20
17.83508032
 10
44.9139483048
 20
17.8385451333
 10
44.9578597976
 20
17.8504226495
 10
44.9932623753
 20
17.8695512818
 10
45.0166909313
 20
17.8940560654
 10
45.0258519188
 20
17.9215410812
 10
45.0198489215
 20
17.9493135604
 10
44.9992691859
 20
17.9746572676
 10
44.9661273021
 20
17.9950894583
  0
LWPOLYLINE
  5
151
330
1F
100
AcDbEntity
  8
0
  6
Continuous
 62
     7
370
    25
100
AcDbPolyline
 90
       21
 70
   128
 43
0.0
 10
45.4523909114
 20
18.4596032388
 10
45.4099311085
 20
18.473124576
 10
45.3623095787
 20
18.4784115549
 10
45.3141879212
 20
18.4749467416
 10
45.2702764285
 20
18.4630692255
 10
45.2348738508
 20
18.4439417664
 10
45.2114452948
 20
18.4194369828
 10
45.2022843073
 20
18.391951967
 10
45.2082873046
 20
18.3641783145
 10
45.2288673335
 20
18.3388357806
 10
45.2620092173
 20
18.31840359
 10
45.3044690202
 20
18.3048810795
 10
45.35209055
 20
18.2995941006
 10
45.4002122075
 20
18.3030589139
 10
45.4441234069
 20
18.31493643
 10
45.4795262779
 20
18.3340638891
 10
45.5029548339
 20
18.358569846
 10
45.5121158214
 20
18.3860536885
 10
45.5061125308
 20
18.413827341
 10
45.4855327952
 20
18.4391710482
 10
45.4523909114
 20
18.4596032388
  0
LWPOLYLINE
  5
152
330
1F
100
AcDbEntity
  8
0
  6
Continuous
 62
     7
370
    25
100
AcDbPolyline
 90
       21
 70
   128
 43
0.0
 10
45.5936386663
 20
18.9961553339
 10
45.5511788635
 20
19.0096772577
 10
45.5035573336
 20
19.0149642366
 10
45.4554356762
 20
19.0115000099
 10
45.4115241835
 20
18.9996224938
 10
45.3761216058
 20
18.9804944481
 10
45.3526930497
 20
18.9559890779
 10
45.3435320622
 20
18.9285046487
 10
45.3495350596
 20
18.9007315829
 10
45.3701147952
 20
18.8753878757
 10
45.403256679
 20
18.854955685
 10
45.4457164818
 20
18.8414343479
 10
45.4933380117
 20
18.8361461956
 10
45.5414596691
 20
18.839611009
 10
45.5853711618
 20
18.8514885251
 10
45.6207737395
 20
18.8706171574
 10
45.6442022955
 20
18.895121941
 10
45.6533635764
 20
18.9226063702
 10
45.6473602857
 20
18.9503800227
 10
45.6267805501
 20
18.9757231432
 10
45.5936386663
 20
18.9961553339
  0
LWPOLYLINE
  5
153
330
1F
100
AcDbEntity
  8
0
  6
Continuous
 62
     7
370
    25
100
AcDbPolyline
 90
       21
 70
   128
 43
0.0
 10
45.3683665487
 20
19.5230621537
 10
45.3259067459
 20
19.5365834908
 10
45.278285216
 20
19.5418710564
 10
45.2301635586
 20
19.5384062431
 10
45.1862520658
 20
19.526528727
 10
45.1508494881
 20
19.5074012679
 10
45.1274209321
 20
19.482895311
 10
45.1182596513
 20
19.4554108818
 10
45.1242629419
 20
19.427637816
 10
45.1448426775
 20
19.4022946954
 10
45.1779845613
 20
19.3818619182
 10
45.2204443642
 20
19.368340581
 10
45.268065894
 20
19.3630530154
 10
45.3161875515
 20
19.3665178287
 10
45.3600990442
 20
19.3783953449
 10
45.3955016219
 20
19.3975228039
 10
45.4189301779
 20
19.4220287608
 10
45.4280914587
 20
19.44951319
 10
45.4220881681
 20
19.4772862558
 10
45.4015084325
 20
19.5026293764
 10
45.3683665487
 20
19.5230621537
  0
LWPOLYLINE
  5
154
330
1F
100
AcDbEntity
  8
0
  6
Continuous
 62
     7
370
    25
100
AcDbPolyline
 90
       21
 70
   128
 43
0.0
 10
44.8108701089
 20
19.9601055849
 10
44.7684103061
 20
19.973626922
 10
44.7207887762
 20
19.9789144876
 10
44.6726671188
 20
19.9754496743
 10
44.6287557727
 20
19.9635721582
 10
44.593353195
 20
19.9444446992
 10
44.569924639
 20
19.9199387422
 10
44.5607635049
 20
19.8924543131
 10
44.5667666488
 20
19.8646812473
 10
44.5873465311
 20
19.8393381267
 10
44.6204884149
 20
19.8189053494
 10
44.6629482177
 20
19.8053840123
 10
44.7105697476
 20
19.8000964467
 10
44.758691405
 20
19.80356126
 10
44.8026028978
 20
19.8154387761
 10
44.8380054755
 20
19.8345668218
 10
44.8614340315
 20
19.859072192
 10
44.870595019
 20
19.8865566212
 10
44.8645920217
 20
19.914329687
 10
44.8440119927
 20
19.9396728076
 10
44.8108701089
 20
19.9601055849
  0
LWPOLYLINE
  5
155
330
1F
100
AcDbEntity
  8
0
  6
Continuous
 62
     7
370
    25
100
AcDbPolyline
 90
       21
 70
   128
 43
0.0
 10
41.4061535805
 20
19.87049974
 10
41.3636937777
 20
19.8840210772
 10
41.3160722478
 20
19.8893086428
 10
41.267950517
 20
19.8858438294
 10
41.224039171
 20
19.8739663133
 10
41.1886365199
 20
19.8548388543
 10
41.1652079639
 20
19.830333484
 10
41.1560469031
 20
19.8028484682
 10
41.1620501204
 20
19.7750754024
 10
41.182629856
 20
19.7497322818
 10
41.2157717398
 20
19.7292995045
 10
41.258231616
 20
19.7157781674
 10
41.3058531459
 20
19.7104906018
 10
41.3539748033
 20
19.7139554151
 10
41.3978861493
 20
19.7258329312
 10
41.4332888004
 20
19.7449609769
 10
41.4567173564
 20
19.7694663472
 10
41.4658784172
 20
19.7969507763
 10
41.4598752732
 20
19.8247238422
 10
41.4392954643
 20
19.8500669627
 10
41.4061535805
 20
19.87049974
  0
LWPOLYLINE
  5
156
330
1F
100
AcDbEntity
  8
0
  6
Continuous
 62
     7
370
    25
100
AcDbPolyline
 90
       46
 70
   128
 43
0.0
 10
40.1598981174
 20
18.1058719652
 10
40.1694433671
 20
18.0049723308
 10
40.1934579963
 20
17.888983804
 10
40.2312805461
 20
17.7742284363
 10
40.2827307651
 20
17.6612518215
 10
40.3475632828
 20
17.5505936865
 10
40.4254693695
 20
17.4427796786
 10
40.5160776694
 20
17.3383260586
 10
40.6189564009
 20
17.2377279674
 10
40.7336152631
 20
17.1414664661
 10
40.8595079287
 20
17.0500003227
 10
40.9960345382
 20
16.9637636656
 10
41.1425442657
 20
16.8831695033
 10
41.298338986
 20
16.8086015113
 10
41.4626763542
 20
16.7404140324
 10
41.6347732161
 20
16.678932076
 10
41.8138094212
 20
16.6244501453
 10
41.998931746
 20
16.5772263709
 10
42.1892580534
 20
16.53748603
 10
42.383881319
 20
16.5054192004
 10
42.5818740818
 20
16.4811784138
 10
42.7822928299
 20
16.4648786554
 10
42.9841824443
 20
16.4565985377
 10
43.1865809129
 20
16.456375607
 10
43.38852362
 20
16.4642133831
 10
43.5890482235
 20
16.4800731465
 10
43.7871992011
 20
16.5038798049
 10
43.9820321771
 20
16.5355207193
 10
44.1726187621
 20
16.5748421851
 10
44.3580508066
 20
16.6216599909
 10
44.5374443609
 20
16.6757488594
 10
44.7099449548
 20
16.7368530069
 10
44.8747300912
 20
16.8046791033
 10
45.0310145258
 20
16.8789056592
 10
45.1780540805
 20
16.9591783319
 10
45.3151474035
 20
17.0451134458
 10
45.4416415422
 20
17.136303859
 10
45.5569334103
 20
17.2323130966
 10
45.6604736009
 20
17.3326847371
 10
45.7517690263
 20
17.4369388927
 10
45.8303846781
 20
17.5445804226
 10
45.8959453874
 20
17.6550965859
 10
45.9481390511
 20
17.7679593888
 10
45.9867169254
 20
17.8826302774
 10
46.0114950925
 20
17.9985660048
 10
46.0220007045
 20
18.1058719652
  0
LWPOLYLINE
  5
157
330
1F
100
AcDbEntity
  8
0
  6
Continuous
 62
     7
370
    25
100
AcDbPolyline
 90
       32
 70
   128
 43
0.0
 10
42.2512601617
 20
11.027798105
 10
42.3180015676
 20
10.9970512602
 10
42.3892789384
 20
10.9791851199
 10
42.4646739924
 20
10.9743064563
 10
42.543744269
 20
10.9824410823
 10
42.6260257751
 20
11.0035444119
 10
42.7110356164
 20
11.0374897264
 10
42.7982749853
 20
11.0840799082
 10
42.8872318376
 20
11.1430415737
 10
42.9773842295
 20
11.214026247
 10
43.068203067
 20
11.2966197462
 10
43.1591553697
 20
11.3903363169
 10
43.2497074236
 20
11.4946268455
 10
43.3393277883
 20
11.608878859
 10
43.4274905965
 20
11.7324223918
 10
43.5136784142
 20
11.864531159
 10
43.5973855405
 20
12.0044295962
 10
43.6781206479
 20
12.1512987262
 10
43.7554100084
 20
12.304276159
 10
43.8288001339
 20
12.4624631316
 10
43.8978601228
 20
12.6249315481
 10
43.962185033
 20
12.7907286728
 10
44.0213970557
 20
12.9588818236
 10
44.075148888
 20
13.1284030653
 10
44.1231249072
 20
13.2982974227
 10
44.1650438096
 20
13.4675699206
 10
44.2006594915
 20
13.6352244105
 10
44.2297629553
 20
13.8002788237
 10
44.2521834829
 20
13.9617651716
 10
44.2677893693
 20
14.1187342383
 10
44.2764890955
 20
14.2702649678
 10
44.2784494195
 20
14.379808449
  0
LWPOLYLINE
  5
158
330
1F
100
AcDbEntity
  8
0
  6
Continuous
 62
     7
370
    25
100
AcDbPolyline
 90
       12
 70
   128
 43
0.0
 10
41.9034494757
 20
12.0043861834
 10
41.9036673465
 20
11.9687266487
 10
41.9088922862
 20
11.8307020031
 10
41.9210540023
 20
11.700666492
 10
41.9400811425
 20
11.5793827731
 10
41.9658620397
 20
11.4675630515
 10
41.9982453723
 20
11.3658643863
 10
42.0370411541
 20
11.274882824
 10
42.0820216787
 20
11.1951522251
 10
42.1329229948
 20
11.1271395707
 10
42.1894463873
 20
11.0712461364
 10
42.2512601617
 20
11.027798105
  0
LINE
  5
159
330
1F
100
AcDbEntity
  8
0
  6
Continuous
 62
     7
370
    25
100
AcDbLine
 10
42.7990136267
 20
18.1761350468
 30
0.0
 11
42.7995105277
 21
18.1850874767
 31
0.0
  0
LINE
  5
15A
330
1F
100
AcDbEntity
  8
0
  6
Continuous
 62
     7
370
    25
100
AcDbLine
 10
43.4879541114
 20
18.2032058808
 30
0.0
 11
43.4888528743
 21
18.1877274462
 31
0.0
  0
LINE
  5
15B
330
1F
100
AcDbEntity
  8
0
  6
Continuous
 62
     7
370
    25
100
AcDbLine
 10
42.0518467631
 20
18.4457592388
 30
0.0
 11
42.0552925099
 21
18.5023449317
 31
0.0
  0
LINE
  5
15C
330
1F
100
AcDbEntity
  8
0
  6
Continuous
 62
     7
370
    25
100
AcDbLine
 10
44.1790541277
 20
18.5582383661
 30
0.0
 11
44.1829609893
 21
18.4921276631
 31
0.0
  0
LINE
  5
15D
330
1F
100
AcDbEntity
  8
0
  6
Continuous
 62
     7
370
    25
100
AcDbLine
 10
41.8402526024
 20
18.773705637
 30
0.0
 11
41.8477379426
 21
19.0030620808
 31
0.0
  0
SPLINE
  5
15E
330
1F
100
AcDbEntity
  8
0
  6
Continuous
 62
     7
370
    25
100
AcDbSpline
210
0.0
220
0.0
230
1.0
 70
     8
 71
     3
 72
     9
 73
     5
 74
     0
 42
0.00000001
 43
0.00000001
 40
0.0
 40
0.0
 40
0.0
 40
0.0
 40
0.9506912294387552
 40
1.0
 40
1.0
 40
1.0
 40
1.0
 10
44.30678758546939
 20
19.06777946646315
 30
0.0
 10
44.30993687537441
 20
18.95228199883534
 30
0.0
 10
44.31324950707597
 20
18.83079411291468
 30
0.0
 10
44.31643701984676
 20
18.70930289920098
 30
0.0
 10
44.31659419218263
 20
18.70331231681876
 30
0.0
  0
ARC
  5
15F
330
1F
100
AcDbEntity
  8
0
  6
HIDDEN
 62
     7
370
    18
100
AcDbCircle
 10
43.9971994636
 20
23.4665754542
 30
0.0
 40
2.356250000000001
100
AcDbArc
 50
247.380135052
 51
292.619864948
  0
ARC
  5
160
330
1F
100
AcDbEntity
  8
0
  6
HIDDEN
 62
     7
370
    18
100
AcDbCircle
 10
42.1846994636
 20
19.1165754542
 30
0.0
 40
2.356250000000001
100
AcDbArc
 50
67.380135052
 51
112.619864948
  0
ARC
  5
161
330
1F
100
AcDbEntity
  8
0
  6
HIDDEN
 62
     7
370
    18
100
AcDbCircle
 10
43.9971994636
 20
24.2165754542
 30
0.0
 40
2.356250000000001
100
AcDbArc
 50
247.380135052
 51
292.619864948
  0
ARC
  5
162
330
1F
100
AcDbEntity
  8
0
  6
HIDDEN
 62
     7
370
    18
100
AcDbCircle
 10
42.1846994636
 20
19.8665754542
 30
0.0
 40
2.356250000000001
100
AcDbArc
 50
67.380135052
 51
112.619864948
  0
ARC
  5
163
330
1F
100
AcDbEntity
  8
0
  6
HIDDEN
 62
     7
370
    18
100
AcDbCircle
 10
43.6534494636
 20
27.7223440583
 30
0.0
 40
1.462499999999998
100
AcDbArc
 50
247.380135052
 51
292.619864948
  0
ARC
  5
164
330
1F
100
AcDbEntity
  8
0
  6
HIDDEN
 62
     7
370
    18
100
AcDbCircle
 10
42.5284494636
 20
25.0223440583
 30
0.0
 40
1.462500000000001
100
AcDbArc
 50
67.380135052
 51
112.619864948
  0
ARC
  5
165
330
1F
100
AcDbEntity
  8
0
  6
HIDDEN
 62
     7
370
    18
100
AcDbCircle
 10
43.6534494636
 20
28.4723440583
 30
0.0
 40
1.462500000000004
100
AcDbArc
 50
247.380135052
 51
292.619864948
  0
ARC
  5
166
330
1F
100
AcDbEntity
  8
0
  6
HIDDEN
 62
     7
370
    18
100
AcDbCircle
 10
42.5284494636
 20
25.7723440583
 30
0.0
 40
1.462500000000004
100
AcDbArc
 50
67.380135052
 51
112.619864948
  0
INSERT
  5
16A
330
1F
100
AcDbEntity
  8
0
  6
Continuous
 62
     7
100
AcDbBlockReference
  2
SW_BROKEN_VIEW_1
 10
0.0
 20
0.0
 30
0.0
  0
LINE
  5
16B
330
1F
100
AcDbEntity
  8
0
  6
Continuous
 62
     7
370
    25
100
AcDbLine
 10
26.5525315065
 20
32.0993399239
 30
0.0
 11
26.5525315065
 21
27.3543396986
 31
0.0
  0
LINE
  5
16C
330
1F
100
AcDbEntity
  8
0
  6
Continuous
 62
     7
370
    25
100
AcDbLine
 10
24.3325315788
 20
31.9164709964
 30
0.0
 11
24.3325315788
 21
32.0993399239
 31
0.0
  0
LINE
  5
16D
330
1F
100
AcDbEntity
  8
0
  6
Continuous
 62
     7
370
    25
100
AcDbLine
 10
24.3325315788
 20
30.4484719549
 30
0.0
 11
24.3325315788
 21
31.7814277565
 31
0.0
  0
LINE
  5
16E
330
1F
100
AcDbEntity
  8
0
  6
Continuous
 62
     7
370
    25
100
AcDbLine
 10
24.3325315788
 20
29.5743393329
 30
0.0
 11
24.3325315788
 21
30.3134275416
 31
0.0
  0
LINE
  5
16F
330
1F
100
AcDbEntity
  8
0
  6
Continuous
 62
     7
370
    25
100
AcDbLine
 10
25.9375315443
 20
36.1493394313
 30
0.0
 11
25.9375315443
 21
34.5193401279
 31
0.0
  0
LINE
  5
170
330
1F
100
AcDbEntity
  8
0
  6
Continuous
 62
     7
370
    25
100
AcDbLine
 10
24.9475315409
 20
34.5193401279
 30
0.0
 11
24.9475315409
 21
36.1493394313
 31
0.0
  0
ARC
  5
171
330
1F
100
AcDbEntity
  8
0
  6
Continuous
 62
     7
370
    25
100
AcDbCircle
 10
25.4425315426
 20
34.5193399812
 30
0.0
 40
0.4950000017177634
100
AcDbArc
 50
179.9999830237
 51
0.0000169763
  0
LINE
  5
172
330
1F
100
AcDbEntity
  8
0
  6
Continuous
 62
     7
370
    25
100
AcDbLine
 10
24.3325315788
 20
33.9543397215
 30
0.0
 11
24.3625316055
 21
33.9843403349
 31
0.0
  0
LINE
  5
173
330
1F
100
AcDbEntity
  8
0
  6
Continuous
 62
     7
370
    25
100
AcDbLine
 10
26.5225314797
 20
33.9843403349
 30
0.0
 11
26.5525315065
 21
33.9543397215
 31
0.0
  0
LINE
  5
174
330
1F
100
AcDbEntity
  8
0
  6
Continuous
 62
     7
370
    25
100
AcDbLine
 10
24.3325315788
 20
32.1093401284
 30
0.0
 11
24.3325315788
 21
33.9543397215
 31
0.0
  0
LINE
  5
175
330
1F
100
AcDbEntity
  8
0
  6
Continuous
 62
     7
370
    25
100
AcDbLine
 10
26.5525315065
 20
33.9543397215
 30
0.0
 11
26.5525315065
 21
32.1093401284
 31
0.0
  0
ARC
  5
176
330
1F
100
AcDbEntity
  8
0
  6
Continuous
 62
     7
370
    25
100
AcDbCircle
 10
24.3425309665
 20
32.1093393116
 30
0.0
 40
0.0099993877199885
100
AcDbArc
 50
179.9953199632
 51
270.0029993897
  0
ARC
  5
177
330
1F
100
AcDbEntity
  8
0
  6
Continuous
 62
     7
370
    25
100
AcDbCircle
 10
26.5425321188
 20
32.1093393116
 30
0.0
 40
0.0099993877199885
100
AcDbArc
 50
269.9970006103
 51
0.0046800368
  0
LINE
  5
178
330
1F
100
AcDbEntity
  8
0
  6
Continuous
 62
     7
370
    25
100
AcDbLine
 10
24.9475315409
 20
33.9843403349
 30
0.0
 11
24.9475315409
 21
34.5193401279
 31
0.0
  0
LINE
  5
179
330
1F
100
AcDbEntity
  8
0
  6
Continuous
 62
     7
370
    25
100
AcDbLine
 10
25.9375315443
 20
34.5193401279
 30
0.0
 11
25.9375315443
 21
33.9843403349
 31
0.0
  0
ARC
  5
17A
330
1F
100
AcDbEntity
  8
0
  6
Continuous
 62
     7
370
    25
100
AcDbCircle
 10
22.9425314995
 20
37.6493393374
 30
0.0
 40
1.999999939163387
100
AcDbArc
 50
0.0000074238
 51
179.9999925762
  0
LWPOLYLINE
  5
17B
330
1F
100
AcDbEntity
  8
0
  6
Continuous
 62
     7
370
    25
100
AcDbPolyline
 90
       47
 70
   128
 43
0.0
 10
19.9425315724
 20
37.6493395965
 10
19.9495252916
 20
37.8540674715
 10
19.970473743
 20
38.0578402642
 10
20.0052792476
 20
38.2597075855
 10
20.0537797406
 20
38.4587296064
 10
20.1157487714
 20
38.6539794042
 10
20.1908977033
 20
38.8445429628
 10
20.2788758603
 20
39.029535599
 10
20.3792733138
 20
39.208091403
 10
20.4916219093
 20
39.3793796643
 10
20.6153976861
 20
39.5426025254
 10
20.7500236642
 20
39.6969996751
 10
20.8948721176
 20
39.8418483485
 10
21.0492677273
 20
39.9764727133
 10
21.2124906251
 20
40.1002485634
 10
21.3837797297
 20
40.2125986255
 10
21.5623364595
 20
40.3129949057
 10
21.7473283074
 20
40.4009727694
 10
21.9378927368
 20
40.4761215546
 10
22.1331412696
 20
40.5380916121
 10
22.3321635472
 20
40.5865919585
 10
22.5340316019
 20
40.6213973164
 10
22.7378043212
 20
40.6423457677
 10
22.9425316095
 20
40.6493387536
 10
23.1472587511
 20
40.6423457677
 10
23.3510315438
 20
40.6213973164
 10
23.5528995985
 20
40.5865919585
 10
23.7519219127
 20
40.5380916121
 10
23.9471703905
 20
40.4761215546
 10
24.1377349757
 20
40.4009727694
 10
24.322726732
 20
40.3129949057
 10
24.501283416
 20
40.2125986255
 10
24.6725725573
 20
40.1002485634
 10
24.8357954184
 20
39.9764727133
 10
24.9901911014
 20
39.8418483485
 10
25.1350394815
 20
39.6969996751
 10
25.2696653129
 20
39.5426025254
 10
25.3934411631
 20
39.3793796643
 10
25.5057897585
 20
39.208091403
 10
25.6061872121
 20
39.029535599
 10
25.6941653691
 20
38.8445429628
 10
25.7693144476
 20
38.6539794042
 10
25.8312833317
 20
38.4587296064
 10
25.8797839714
 20
38.2597075855
 10
25.9145893294
 20
38.0578402642
 10
25.9355377807
 20
37.8540674715
 10
25.9425316466
 20
37.6493395965
  0
LINE
  5
17C
330
1F
100
AcDbEntity
  8
0
  6
Continuous
 62
     7
370
    25
100
AcDbLine
 10
24.9425314387
 20
36.1493394313
 30
0.0
 11
24.9425314387
 21
37.6493395965
 31
0.0
  0
LINE
  5
17D
330
1F
100
AcDbEntity
  8
0
  6
Continuous
 62
     7
370
    25
100
AcDbLine
 10
25.9425316466
 20
37.6493395965
 30
0.0
 11
25.9425316466
 21
36.1493394313
 31
0.0
  0
LINE
  5
17E
330
1F
100
AcDbEntity
  8
0
  6
Continuous
 62
     7
370
    25
100
AcDbLine
 10
19.9425315724
 20
27.4572509897
 30
0.0
 11
19.9425315724
 21
37.6493395965
 31
0.0
  0
LINE
  5
17F
330
1F
100
AcDbEntity
  8
0
  6
Continuous
 62
     7
370
    25
100
AcDbLine
 10
20.9425315603
 20
37.6493395965
 30
0.0
 11
20.9425315603
 21
27.2349233181
 31
0.0
  0
LWPOLYLINE
  5
180
330
1F
100
AcDbEntity
  8
0
  6
Continuous
 62
     7
370
    25
100
AcDbPolyline
 90
       35
 70
   128
 43
0.0
 10
24.3325315788
 20
29.5743393329
 10
24.3374090691
 20
29.5694630159
 10
24.3519981272
 20
29.5548727845
 10
24.3761711546
 20
29.5307000504
 10
24.4097151938
 20
29.4971560112
 10
24.4523357414
 20
29.4545363436
 10
24.5036579219
 20
29.4032129898
 10
24.5632311804
 20
29.3436400247
 10
24.6305319229
 20
29.2763395755
 10
24.7049682097
 20
29.2019029954
 10
24.7858865016
 20
29.1209849968
 10
24.8725751801
 20
29.0342966116
 10
24.9642727608
 20
28.9425981509
 10
25.0601734663
 20
28.8466980321
 10
25.159433973
 20
28.7474375254
 10
25.2611827976
 20
28.6456884075
 10
25.3645249904
 20
28.542346508
 10
25.4685526954
 20
28.438318803
 10
25.5723518963
 20
28.3345193088
 10
25.675010337
 20
28.231860868
 10
25.7756254414
 20
28.1312457637
 10
25.8733134062
 20
28.0335580922
 10
25.9672159481
 20
27.9396555503
 10
26.0565070499
 20
27.8503641551
 10
26.1404029341
 20
27.766468271
 10
26.2181655824
 20
27.6887059159
 10
26.2891121228
 20
27.6177593755
 10
26.3526189359
 20
27.5542522692
 10
26.4081275213
 20
27.4987436837
 10
26.4551506581
 20
27.451720547
 10
26.4932750443
 20
27.413596454
 10
26.5221651106
 20
27.3847063878
 10
26.5415677131
 20
27.3653037852
 10
26.5513115472
 20
27.3555599511
 10
26.5525315065
 20
27.3543396986
  0
LINE
  5
181
330
1F
100
AcDbEntity
  8
0
  6
Continuous
 62
     7
370
    25
100
AcDbLine
 10
24.3325315788
 20
32.0993399239
 30
0.0
 11
26.5525315065
 21
32.0993399239
 31
0.0
  0
SPLINE
  5
182
330
1F
100
AcDbEntity
  8
0
  6
Continuous
 62
     7
370
    25
100
AcDbSpline
210
0.0
220
0.0
230
1.0
 70
     8
 71
     3
 72
    12
 73
     8
 74
     0
 42
0.00000001
 43
0.00000001
 40
0.0
 40
0.0
 40
0.0
 40
0.0
 40
0.3347581526216733
 40
0.6318624429512569
 40
0.8582399154240419
 40
0.9880307452353452
 40
1.0
 40
1.0
 40
1.0
 40
1.0
 10
24.33461627468591
 20
30.38133929041631
 30
0.0
 10
24.33457287324905
 20
30.38883497508036
 30
0.0
 10
24.33449095220334
 20
30.40298322385737
 30
0.0
 10
24.33390683332429
 20
30.42219284948951
 30
0.0
 10
24.33325048250567
 20
30.43680577057159
 30
0.0
 10
24.33279204394395
 20
30.44503607987538
 30
0.0
 10
24.33260054686585
 20
30.44820444015929
 30
0.0
 10
24.33258437815855
 20
30.44847195489404
 30
0.0
  0
SPLINE
  5
183
330
1F
100
AcDbEntity
  8
0
  6
Continuous
 62
     7
370
    25
100
AcDbSpline
210
0.0
220
0.0
230
1.0
 70
     8
 71
     3
 72
    13
 73
     9
 74
     0
 42
0.00000001
 43
0.00000001
 40
0.0
 40
0.0
 40
0.0
 40
0.0
 40
0.0012596659050905
 40
0.0600250625402733
 40
0.2244564284716134
 40
0.4763710087981422
 40
0.7874808190732215
 40
1.0
 40
1.0
 40
1.0
 40
1.0
 10
24.3325368587075
 20
30.3134275416053
 30
0.0
 10
24.33253505947374
 20
30.31339834658747
 30
0.0
 10
24.33244932315414
 20
30.31200715804814
 30
0.0
 10
24.3331286306037
 20
30.32321542874081
 30
0.0
 10
24.3333576577837
 20
30.32849243327288
 30
0.0
 10
24.33418660376575
 20
30.3478175518044
 30
0.0
 10
24.33454309471818
 20
30.36448241030925
 30
0.0
 10
24.33459514830485
 20
30.37647286475778
 30
0.0
 10
24.33461627468591
 20
30.38133929041631
 30
0.0
  0
SPLINE
  5
184
330
1F
100
AcDbEntity
  8
0
  6
Continuous
 62
     7
370
    25
100
AcDbSpline
210
0.0
220
0.0
230
1.0
 70
     8
 71
     3
 72
    12
 73
     8
 74
     0
 42
0.00000001
 43
0.00000001
 40
0.0
 40
0.0
 40
0.0
 40
0.0
 40
0.334746525006381
 40
0.631873457524787
 40
0.8582548785519856
 40
0.9880479722199631
 40
1.0
 40
1.0
 40
1.0
 40
1.0
 10
24.33461627468591
 20
31.84933950528589
 30
0.0
 10
24.33457285473328
 20
31.85683479807894
 30
0.0
 10
24.33449089446323
 20
31.87098304524061
 30
0.0
 10
24.33390694179847
 20
31.89019267904559
 30
0.0
 10
24.33325029051535
 20
31.90480597388761
 30
0.0
 10
24.33279231246017
 20
31.91303591984264
 30
0.0
 10
24.33260054785696
 20
31.91620387287538
 30
0.0
 10
24.33258437815855
 20
31.91647099644385
 30
0.0
  0
SPLINE
  5
185
330
1F
100
AcDbEntity
  8
0
  6
Continuous
 62
     7
370
    25
100
AcDbSpline
210
0.0
220
0.0
230
1.0
 70
     8
 71
     3
 72
    13
 73
     9
 74
     0
 42
0.00000001
 43
0.00000001
 40
0.0
 40
0.0
 40
0.0
 40
0.0
 40
0.0012596659051104
 40
0.0600250625403109
 40
0.2244564284716244
 40
0.4763710087981431
 40
0.7874808190732501
 40
1.0
 40
1.0
 40
1.0
 40
1.0
 10
24.3325368587075
 20
31.78142775647488
 30
0.0
 10
24.33253505947374
 20
31.78139856145706
 30
0.0
 10
24.33244932315414
 20
31.78000737291774
 30
0.0
 10
24.33312863060369
 20
31.79121564361037
 30
0.0
 10
24.33335765778371
 20
31.79649264814248
 30
0.0
 10
24.33418660376575
 20
31.81581776667398
 30
0.0
 10
24.33454309471818
 20
31.83248262517884
 30
0.0
 10
24.33459514830485
 20
31.84447307962735
 30
0.0
 10
24.33461627468591
 20
31.84933950528589
 30
0.0
  0
SPLINE
  5
186
330
1F
100
AcDbEntity
  8
0
  6
Continuous
 62
     7
370
    25
100
AcDbSpline
210
0.0
220
0.0
230
1.0
 70
    11
 71
     3
 72
    26
 73
    22
 74
     0
 42
0.00000001
 43
0.00000001
 40
0.0
 40
0.0
 40
0.0
 40
0.0
 40
0.0365867471572764
 40
0.0937485451490339
 40
0.1491160333995266
 40
0.2018155920085502
 40
0.2522553171898387
 40
0.3019344840504943
 40
0.3526947131616923
 40
0.4057497303424221
 40
0.4612273193133717
 40
0.5182980847236338
 40
0.5756858592046565
 40
0.6321664847371591
 40
0.6867920296385234
 40
0.7390684579097917
 40
0.789324147142878
 40
0.83897652574567
 40
0.8899908722540496
 40
0.9437051018805548
 40
1.0
 40
1.0
 40
1.0
 40
1.0
 10
26.05407593134123
 20
31.83486191253228
 30
0.0
 10
26.05468579013984
 20
31.83968005295374
 30
0.0
 10
26.05624847005969
 20
31.8520258800614
 30
0.0
 10
26.05323452565355
 20
31.87190508843029
 30
0.0
 10
26.04410311427145
 20
31.89210880975865
 30
0.0
 10
26.02951198988952
 20
31.90779573133721
 30
0.0
 10
26.01089790772187
 20
31.91693444982507
 30
0.0
 10
25.99042369680624
 20
31.91817727969948
 30
0.0
 10
25.97072998477916
 20
31.91145527470225
 30
0.0
 10
25.9541073932111
 20
31.89780095586971
 30
0.0
 10
25.94236082085161
 20
31.87884209503353
 30
0.0
 10
25.93679821686954
 20
31.85667488490245
 30
0.0
 10
25.93805123043361
 20
31.83372797730232
 30
0.0
 10
25.94595880526633
 20
31.81248474421668
 30
0.0
 10
25.95964147958319
 20
31.7952309926224
 30
0.0
 10
25.9776297174493
 20
31.78390743134126
 30
0.0
 10
25.99791370938469
 20
31.78000808986847
 30
0.0
 10
26.01801581604968
 20
31.78419761360073
 30
0.0
 10
26.0352725598404
 20
31.79591291268483
 30
0.0
 10
26.04835264704506
 20
31.81342528933919
 30
0.0
 10
26.05213856569608
 20
31.8276054885678
 30
0.0
 10
26.05407593134122
 20
31.83486191253228
 30
0.0
  0
ARC
  5
187
330
1F
100
AcDbEntity
  8
0
  6
Continuous
 62
     7
370
    25
100
AcDbCircle
 10
25.442529009
 20
34.5193383192
 30
0.0
 40
0.0902135862226847
100
AcDbArc
 50
7.4779879817
 51
67.4762242049
  0
LWPOLYLINE
  5
188
330
1F
100
AcDbEntity
  8
0
  6
Continuous
 62
     7
370
    25
100
AcDbPolyline
 90
        4
 70
   128
 43
0.0
 10
25.4770868368
 20
34.6026704719
 10
25.5010838662
 20
34.5713709935
 10
25.5187960083
 20
34.5482695003
 10
25.5319753227
 20
34.5310791923
  0
ARC
  5
189
330
1F
100
AcDbEntity
  8
0
  6
Continuous
 62
     7
370
    25
100
AcDbCircle
 10
25.4425323203
 20
34.5193388571
 30
0.0
 40
0.0902118209399306
100
AcDbArc
 50
67.4780360246
 51
127.4775343266
  0
LWPOLYLINE
  5
18A
330
1F
100
AcDbEntity
  8
0
  6
Continuous
 62
     7
370
    25
100
AcDbPolyline
 90
        4
 70
   128
 43
0.0
 10
25.38764291
 20
34.5909302342
 10
25.426747605
 20
34.5960635082
 10
25.4556100982
 20
34.5998509845
 10
25.4770868368
 20
34.6026704719
  0
ARC
  5
18B
330
1F
100
AcDbEntity
  8
0
  6
Continuous
 62
     7
370
    25
100
AcDbCircle
 10
25.4425323659
 20
34.519336356
 30
0.0
 40
0.090207776169873
100
AcDbArc
 50
247.4758699063
 51
307.4782226971
  0
LWPOLYLINE
  5
18C
330
1F
100
AcDbEntity
  8
0
  6
Continuous
 62
     7
370
    25
100
AcDbPolyline
 90
        4
 70
   128
 43
0.0
 10
25.4974201752
 20
34.4477488482
 10
25.4583157736
 20
34.4426167475
 10
25.429452987
 20
34.438828098
 10
25.4079762485
 20
34.4360097839
  0
ARC
  5
18D
330
1F
100
AcDbEntity
  8
0
  6
Continuous
 62
     7
370
    25
100
AcDbCircle
 10
25.4425302068
 20
34.5193391622
 30
0.0
 40
0.0902095412564201
100
AcDbArc
 50
187.4772996117
 51
247.4778194219
  0
LWPOLYLINE
  5
18E
330
1F
100
AcDbEntity
  8
0
  6
Continuous
 62
     7
370
    25
100
AcDbPolyline
 90
        4
 70
   128
 43
0.0
 10
25.4079762485
 20
34.4360097839
 10
25.383979219
 20
34.4673092623
 10
25.366267077
 20
34.4904107554
 10
25.3530877625
 20
34.5075998902
  0
ARC
  5
18F
330
1F
100
AcDbEntity
  8
0
  6
Continuous
 62
     7
370
    25
100
AcDbCircle
 10
25.4425280436
 20
34.5193408728
 30
0.0
 40
0.0902076191534658
100
AcDbArc
 50
127.4761576539
 51
187.4785556511
  0
LWPOLYLINE
  5
190
330
1F
100
AcDbEntity
  8
0
  6
Continuous
 62
     7
370
    25
100
AcDbPolyline
 90
        5
 70
   128
 43
0.0
 10
25.3530877625
 20
34.5075998902
 10
25.3588819089
 20
34.5215729554
 10
25.3701047126
 20
34.5486367494
 10
25.3816774589
 20
34.5765453337
 10
25.38764291
 20
34.5909302342
  0
LWPOLYLINE
  5
191
330
1F
100
AcDbEntity
  8
0
  6
Continuous
 62
     7
370
    25
100
AcDbPolyline
 90
        5
 70
   128
 43
0.0
 10
25.5319753227
 20
34.5310791923
 10
25.5260098716
 20
34.5166931185
 10
25.5144371253
 20
34.4887857075
 10
25.5032143216
 20
34.4617219135
 10
25.4974201752
 20
34.4477488482
  0
ARC
  5
192
330
1F
100
AcDbEntity
  8
0
  6
Continuous
 62
     7
370
    25
100
AcDbCircle
 10
25.4425319429
 20
34.5193394946
 30
0.0
 40
0.0902105242486345
100
AcDbArc
 50
307.4772229831
 51
7.4774903219
  0
CIRCLE
  5
193
330
1F
100
AcDbEntity
  8
0
  6
Continuous
 62
     7
370
    25
100
AcDbCircle
 10
25.4425316201
 20
34.5193392534
 30
0.0
 40
0.1502264925027365
  0
CIRCLE
  5
194
330
1F
100
AcDbEntity
  8
0
  6
Continuous
 62
     7
370
    25
100
AcDbCircle
 10
25.4425316699
 20
34.5193395951
 30
0.0
 40
0.1559998853241806
  0
SPLINE
  5
195
330
1F
100
AcDbEntity
  8
0
  6
Continuous
 62
     7
370
    25
100
AcDbSpline
210
0.0
220
0.0
230
1.0
 70
     8
 71
     3
 72
    17
 73
    13
 74
     0
 42
0.00000001
 43
0.00000001
 40
0.0
 40
0.0
 40
0.0
 40
0.0
 40
0.1038635900086611
 40
0.2067206652662612
 40
0.3127805046937141
 40
0.4222193882480279
 40
0.5286109167021414
 40
0.630627025970928
 40
0.7331690750447992
 40
0.8402648953956955
 40
0.94964450798245
 40
1.0
 40
1.0
 40
1.0
 40
1.0
 10
25.60653158141175
 20
34.51934012787753
 30
0.0
 10
25.60483673574873
 20
34.53717749103066
 30
0.0
 10
25.60146346872654
 20
34.57267936013903
 30
0.0
 10
25.57496621185423
 20
34.62074566619714
 30
0.0
 10
25.53485309265466
 20
34.65873943148105
 30
0.0
 10
25.48342663427722
 20
34.68143305671003
 30
0.0
 10
25.42823682291971
 20
34.68568216871026
 30
0.0
 10
25.37585186437698
 20
34.67227775629409
 30
0.0
 10
25.33021243536323
 20
34.64294171647113
 30
0.0
 10
25.29588004625645
 20
34.59939154553314
 30
0.0
 10
25.28024750001844
 20
34.5552770493405
 30
0.0
 10
25.27894280178313
 20
34.52795365647405
 30
0.0
 10
25.27853150382997
 20
34.51934012787753
 30
0.0
  0
ARC
  5
196
330
1F
100
AcDbEntity
  8
0
  6
Continuous
 62
     7
370
    25
100
AcDbCircle
 10
25.4425315426
 20
34.5193393946
 30
0.0
 40
0.1640000387925315
100
AcDbArc
 50
179.9997438029
 51
0.0002561971
  0
LINE
  5
197
330
1F
100
AcDbEntity
  8
0
  6
Continuous
 62
     7
370
    25
100
AcDbLine
 10
24.3325315788
 20
33.9543397215
 30
0.0
 11
26.5525315065
 21
33.9543397215
 31
0.0
  0
LINE
  5
198
330
1F
100
AcDbEntity
  8
0
  6
Continuous
 62
     7
370
    25
100
AcDbLine
 10
26.5225314797
 20
33.9843403349
 30
0.0
 11
24.3625316055
 21
33.9843403349
 31
0.0
  0
LINE
  5
199
330
1F
100
AcDbEntity
  8
0
  6
Continuous
 62
     7
370
    25
100
AcDbLine
 10
25.928329784
 20
34.4243399453
 30
0.0
 11
25.928329784
 21
33.9943393661
 31
0.0
  0
LINE
  5
19A
330
1F
100
AcDbEntity
  8
0
  6
Continuous
 62
     7
370
    25
100
AcDbLine
 10
25.928329784
 20
33.9943393661
 30
0.0
 11
24.9567333013
 21
33.9943393661
 31
0.0
  0
LINE
  5
19B
330
1F
100
AcDbEntity
  8
0
  6
Continuous
 62
     7
370
    25
100
AcDbLine
 10
24.9567333013
 20
33.9943393661
 30
0.0
 11
24.9567333013
 21
34.4243399453
 31
0.0
  0
LWPOLYLINE
  5
19C
330
1F
100
AcDbEntity
  8
0
  6
Continuous
 62
     7
370
    25
100
AcDbPolyline
 90
       17
 70
   128
 43
0.0
 10
25.9756010779
 20
31.7912167634
 10
25.9580077345
 20
31.8053318003
 10
25.9464314682
 20
31.8261464932
 10
25.9426346054
 20
31.8504928786
 10
25.9471955927
 20
31.8746632661
 10
25.9594195315
 20
31.8949781247
 10
25.9774458299
 20
31.908345757
 10
25.998530093
 20
31.9127292797
 10
26.0194621179
 20
31.9074634205
 10
26.0370554613
 20
31.8933472102
 10
26.0486317276
 20
31.8725325174
 10
26.0524285904
 20
31.8481873053
 10
26.0478676031
 20
31.8240169178
 10
26.0356436643
 20
31.8037008858
 10
26.0176173658
 20
31.7903344269
 10
25.9965331027
 20
31.7859497309
 10
25.9756010779
 20
31.7912167634
  0
LINE
  5
19D
330
1F
100
AcDbEntity
  8
0
  6
Continuous
 62
     7
370
    25
100
AcDbLine
 10
25.9881242132
 20
31.8930433204
 30
0.0
 11
26.0256056202
 21
31.8805990908
 31
0.0
  0
LINE
  5
19E
330
1F
100
AcDbEntity
  8
0
  6
Continuous
 62
     7
370
    25
100
AcDbLine
 10
26.0350130049
 20
31.8368952757
 30
0.0
 11
26.0256056202
 21
31.8805990908
 31
0.0
  0
LINE
  5
19F
330
1F
100
AcDbEntity
  8
0
  6
Continuous
 62
     7
370
    25
100
AcDbLine
 10
26.0069389825
 20
31.8056356902
 30
0.0
 11
26.0350130049
 21
31.8368952757
 31
0.0
  0
LINE
  5
1A0
330
1F
100
AcDbEntity
  8
0
  6
Continuous
 62
     7
370
    25
100
AcDbLine
 10
26.0069389825
 20
31.8056356902
 30
0.0
 11
25.9694575755
 21
31.8180810931
 31
0.0
  0
LINE
  5
1A1
330
1F
100
AcDbEntity
  8
0
  6
Continuous
 62
     7
370
    25
100
AcDbLine
 10
25.9600501909
 20
31.8617849082
 30
0.0
 11
25.9694575755
 21
31.8180810931
 31
0.0
  0
LINE
  5
1A2
330
1F
100
AcDbEntity
  8
0
  6
Continuous
 62
     7
370
    25
100
AcDbLine
 10
25.9600501909
 20
31.8617849082
 30
0.0
 11
25.9881242132
 21
31.8930433204
 31
0.0
  0
LINE
  5
1A3
330
1F
100
AcDbEntity
  8
0
  6
Continuous
 62
     7
370
    25
100
AcDbLine
 10
25.9777878526
 20
31.8815342267
 30
0.0
 11
25.9806055801
 21
31.8805990908
 31
0.0
  0
LINE
  5
1A4
330
1F
100
AcDbEntity
  8
0
  6
Continuous
 62
     7
370
    25
100
AcDbLine
 10
25.9806055801
 20
31.8805990908
 30
0.0
 11
26.0256056202
 21
31.8805990908
 31
0.0
  0
LINE
  5
1A5
330
1F
100
AcDbEntity
  8
0
  6
Continuous
 62
     7
370
    25
100
AcDbLine
 10
25.9900129647
 20
31.8368952757
 30
0.0
 11
26.0350130049
 21
31.8368952757
 31
0.0
  0
LINE
  5
1A6
330
1F
100
AcDbEntity
  8
0
  6
Continuous
 62
     7
370
    25
100
AcDbLine
 10
25.972275303
 20
31.8171447839
 30
0.0
 11
25.9900129647
 21
31.8368952757
 31
0.0
  0
LINE
  5
1A7
330
1F
100
AcDbEntity
  8
0
  6
Continuous
 62
     7
370
    25
100
AcDbLine
 10
25.9900129647
 20
31.8368952757
 30
0.0
 11
25.9806055801
 21
31.8805990908
 31
0.0
  0
LINE
  5
1A8
330
1F
100
AcDbEntity
  8
0
  6
Continuous
 62
     7
370
    25
100
AcDbLine
 10
24.3325315788
 20
31.7908002349
 30
0.0
 11
24.3325315788
 21
31.7859403443
 31
0.0
  0
LINE
  5
1A9
330
1F
100
AcDbEntity
  8
0
  6
Continuous
 62
     7
370
    25
100
AcDbLine
 10
24.3325315788
 20
31.9127398395
 30
0.0
 11
24.3325315788
 21
31.7908002349
 31
0.0
  0
LINE
  5
1AA
330
1F
100
AcDbEntity
  8
0
  6
Continuous
 62
     7
370
    25
100
AcDbLine
 10
25.4425316893
 20
36.1493394313
 30
0.0
 11
24.9425314387
 21
36.1493394313
 31
0.0
  0
LINE
  5
1AB
330
1F
100
AcDbEntity
  8
0
  6
Continuous
 62
     7
370
    25
100
AcDbLine
 10
25.9425316466
 20
36.1493394313
 30
0.0
 11
25.4425316893
 21
36.1493394313
 31
0.0
  0
LINE
  5
1AC
330
1F
100
AcDbEntity
  8
0
  6
Continuous
 62
     7
370
    25
100
AcDbLine
 10
25.2785315038
 20
34.5193401279
 30
0.0
 11
24.9475315409
 21
34.5193401279
 31
0.0
  0
LINE
  5
1AD
330
1F
100
AcDbEntity
  8
0
  6
Continuous
 62
     7
370
    25
100
AcDbLine
 10
25.9375315443
 20
34.5193401279
 30
0.0
 11
25.6065315814
 21
34.5193401279
 31
0.0
  0
LINE
  5
1AE
330
1F
100
AcDbEntity
  8
0
  6
Continuous
 62
     7
370
    25
100
AcDbLine
 10
26.5525315065
 20
32.1093401284
 30
0.0
 11
24.3325315788
 21
32.1093401284
 31
0.0
  0
LINE
  5
1AF
330
1F
100
AcDbEntity
  8
0
  6
Continuous
 62
     7
370
    25
100
AcDbLine
 10
25.4425316893
 20
37.6493395965
 30
0.0
 11
24.9425314387
 21
37.6493395965
 31
0.0
  0
LINE
  5
1B0
330
1F
100
AcDbEntity
  8
0
  6
Continuous
 62
     7
370
    25
100
AcDbLine
 10
25.9425316466
 20
37.6493395965
 30
0.0
 11
25.4425316893
 21
37.6493395965
 31
0.0
  0
LINE
  5
1B1
330
1F
100
AcDbEntity
  8
0
  6
Continuous
 62
     7
370
    25
100
AcDbLine
 10
20.442531603
 20
37.6493395965
 30
0.0
 11
20.9425315603
 21
37.6493395965
 31
0.0
  0
LINE
  5
1B2
330
1F
100
AcDbEntity
  8
0
  6
Continuous
 62
     7
370
    25
100
AcDbLine
 10
19.9425315724
 20
37.6493395965
 30
0.0
 11
20.442531603
 21
37.6493395965
 31
0.0
  0
LINE
  5
1B3
330
1F
100
AcDbEntity
  8
0
  6
Continuous
 62
     7
370
    25
100
AcDbLine
 10
19.2550315945
 20
21.9998193247
 30
0.0
 11
19.2550315945
 21
22.6957278989
 31
0.0
  0
LINE
  5
1B4
330
1F
100
AcDbEntity
  8
0
  6
Continuous
 62
     7
370
    25
100
AcDbLine
 10
21.6300315749
 20
22.6957278989
 30
0.0
 11
21.6300315749
 21
21.6710108298
 31
0.0
  0
LINE
  5
1B5
330
1F
100
AcDbEntity
  8
0
  6
Continuous
 62
     7
370
    25
100
AcDbLine
 10
19.8875316211
 20
22.7847048443
 30
0.0
 11
19.8489571201
 21
22.7847048443
 31
0.0
  0
LINE
  5
1B6
330
1F
100
AcDbEntity
  8
0
  6
Continuous
 62
     7
370
    25
100
AcDbLine
 10
19.8489571201
 20
23.1067509107
 30
0.0
 11
19.8875316211
 21
23.1067509107
 31
0.0
  0
LINE
  5
1B7
330
1F
100
AcDbEntity
  8
0
  6
Continuous
 62
     7
370
    25
100
AcDbLine
 10
21.5525315761
 20
23.1067509107
 30
0.0
 11
21.6296803765
 21
23.1067509107
 31
0.0
  0
LINE
  5
1B8
330
1F
100
AcDbEntity
  8
0
  6
Continuous
 62
     7
370
    25
100
AcDbLine
 10
21.6296803765
 20
22.7847048443
 30
0.0
 11
21.5525315761
 21
22.7847048443
 31
0.0
  0
ARC
  5
1B9
330
1F
100
AcDbEntity
  8
0
  6
Continuous
 62
     7
370
    25
100
AcDbCircle
 10
21.5917597624
 20
23.0411506464
 30
0.0
 40
0.0757718130597154
100
AcDbArc
 50
0.0001881481
 51
59.9696907756
  0
ARC
  5
1BA
330
1F
100
AcDbEntity
  8
0
  6
Continuous
 62
     7
370
    25
100
AcDbCircle
 10
21.5917607111
 20
22.8503045613
 30
0.0
 40
0.0757708643609199
100
AcDbArc
 50
300.029895299
 51
0.0002257773
  0
LINE
  5
1BB
330
1F
100
AcDbEntity
  8
0
  6
Continuous
 62
     7
370
    25
100
AcDbLine
 10
19.3325315659
 20
22.6957278989
 30
0.0
 11
19.3325315659
 21
24.0307277702
 31
0.0
  0
LINE
  5
1BC
330
1F
100
AcDbEntity
  8
0
  6
Continuous
 62
     7
370
    25
100
AcDbLine
 10
21.5525315761
 20
22.7847048443
 30
0.0
 11
21.5525315761
 21
22.6957278989
 31
0.0
  0
LINE
  5
1BD
330
1F
100
AcDbEntity
  8
0
  6
Continuous
 62
     7
370
    25
100
AcDbLine
 10
21.5525315761
 20
24.0307277702
 30
0.0
 11
21.5525315761
 21
23.1067509107
 31
0.0
  0
LINE
  5
1BE
330
1F
100
AcDbEntity
  8
0
  6
Continuous
 62
     7
370
    25
100
AcDbLine
 10
19.3325315659
 20
24.0307277702
 30
0.0
 11
19.3625315926
 21
24.060727797
 31
0.0
  0
LINE
  5
1BF
330
1F
100
AcDbEntity
  8
0
  6
Continuous
 62
     7
370
    25
100
AcDbLine
 10
21.5225315768
 20
24.060727797
 30
0.0
 11
21.5525315761
 21
24.0307277702
 31
0.0
  0
LINE
  5
1C0
330
1F
100
AcDbEntity
  8
0
  6
Continuous
 62
     7
370
    25
100
AcDbLine
 10
19.9425315724
 20
24.060727797
 30
0.0
 11
19.9425315724
 21
26.7072512808
 31
0.0
  0
LINE
  5
1C1
330
1F
100
AcDbEntity
  8
0
  6
Continuous
 62
     7
370
    25
100
AcDbLine
 10
20.9425315603
 20
26.4849234258
 30
0.0
 11
20.9425315603
 21
24.060727797
 31
0.0
  0
LINE
  5
1C2
330
1F
100
AcDbEntity
  8
0
  6
Continuous
 62
     7
370
    25
100
AcDbLine
 10
20.442531603
 20
22.6957278989
 30
0.0
 11
19.2550315945
 21
22.6957278989
 31
0.0
  0
LINE
  5
1C3
330
1F
100
AcDbEntity
  8
0
  6
Continuous
 62
     7
370
    25
100
AcDbLine
 10
21.6300315749
 20
22.6957278989
 30
0.0
 11
20.442531603
 21
22.6957278989
 31
0.0
  0
LWPOLYLINE
  5
1C4
330
1F
100
AcDbEntity
  8
0
  6
Continuous
 62
     7
370
    25
100
AcDbPolyline
 90
       17
 70
   128
 43
0.0
 10
19.8551802615
 20
23.0366248141
 10
19.823141445
 20
23.0408185524
 10
19.7921515763
 20
23.0305355778
 10
19.7669285743
 20
23.0073413924
 10
19.7513124214
 20
22.9747671021
 10
19.7476805567
 20
22.9377717428
 10
19.7565859072
 20
22.9019878362
 10
19.7766727018
 20
22.8728628126
 10
19.8048828292
 20
22.8548306476
 10
19.8369217924
 20
22.8506372027
 10
19.8679116611
 20
22.8609201772
 10
19.8931345164
 20
22.8841143626
 10
19.9087506693
 20
22.916688653
 10
19.912382534
 20
22.953683719
 10
19.9034771836
 20
22.9894679189
 10
19.883390389
 20
23.0185929425
 10
19.8551802615
 20
23.0366248141
  0
LWPOLYLINE
  5
1C5
330
1F
100
AcDbEntity
  8
0
  6
Continuous
 62
     7
370
    25
100
AcDbPolyline
 90
       22
 70
   128
 43
0.0
 10
19.712739387
 20
22.9801957594
 10
19.7099927921
 20
22.9323023126
 10
19.7195936278
 20
22.8856015454
 10
19.7406890375
 20
22.8442434899
 10
19.771404496
 20
22.8119026902
 10
19.8090108615
 20
22.7914526064
 10
19.8501666661
 20
22.7847110043
 10
19.8912151119
 20
22.7922759836
 10
19.9285086411
 20
22.813476112
 10
19.9587336519
 20
22.8464273313
 10
19.9792045621
 20
22.8882019154
 10
19.9881024327
 20
22.9350877738
 10
19.9846365927
 20
22.9829190346
 10
19.9691150387
 20
23.0274459335
 10
19.942917008
 20
23.0647114497
 10
19.9083702204
 20
23.0914050613
 10
19.8685443738
 20
23.1051546092
 10
19.8269779073
 20
23.1047380806
 10
19.7873645783
 20
23.090193022
 10
19.7532240527
 20
23.0628115516
 10
19.7275896555
 20
23.0250268415
 10
19.712739387
 20
22.9801957594
  0
LWPOLYLINE
  5
1C6
330
1F
100
AcDbEntity
  8
0
  6
Continuous
 62
     7
370
    25
100
AcDbPolyline
 90
       12
 70
   128
 43
0.0
 10
19.8875316211
 20
22.7847048443
 10
19.919740129
 20
22.7890587407
 10
19.9583014302
 20
22.8069814937
 10
19.9905744708
 20
22.8372323175
 10
20.0136918037
 20
22.8771234301
 10
20.0255990928
 20
22.9231105255
 10
20.0252385903
 20
22.9711072243
 10
20.0126421225
 20
23.0168488026
 10
19.9889291831
 20
23.0562708805
 10
19.9562064678
 20
23.0858708053
 10
19.9173817563
 20
23.1030185805
 10
19.8875316211
 20
23.1067509107
  0
LINE
  5
1C7
330
1F
100
AcDbEntity
  8
0
  6
Continuous
 62
     7
370
    25
100
AcDbLine
 10
19.9069264504
 20
22.9298339411
 30
0.0
 11
19.8517675143
 21
22.924505016
 31
0.0
  0
LINE
  5
1C8
330
1F
100
AcDbEntity
  8
0
  6
Continuous
 62
     7
370
    25
100
AcDbLine
 10
19.8517675143
 20
22.924505016
 30
0.0
 11
19.856382621
 21
22.8608128185
 31
0.0
  0
LINE
  5
1C9
330
1F
100
AcDbEntity
  8
0
  6
Continuous
 62
     7
370
    25
100
AcDbLine
 10
19.856382621
 20
22.8608128185
 30
0.0
 11
19.8162669644
 21
22.8569373432
 31
0.0
  0
LINE
  5
1CA
330
1F
100
AcDbEntity
  8
0
  6
Continuous
 62
     7
370
    25
100
AcDbLine
 10
19.8162669644
 20
22.8569373432
 30
0.0
 11
19.8116520044
 21
22.9206292475
 31
0.0
  0
LINE
  5
1CB
330
1F
100
AcDbEntity
  8
0
  6
Continuous
 62
     7
370
    25
100
AcDbLine
 10
19.8116520044
 20
22.9206292475
 30
0.0
 11
19.7564930682
 21
22.9153003224
 31
0.0
  0
LINE
  5
1CC
330
1F
100
AcDbEntity
  8
0
  6
Continuous
 62
     7
370
    25
100
AcDbLine
 10
19.7564930682
 20
22.9153003224
 30
0.0
 11
19.7531366403
 21
22.9616218139
 31
0.0
  0
LINE
  5
1CD
330
1F
100
AcDbEntity
  8
0
  6
Continuous
 62
     7
370
    25
100
AcDbLine
 10
19.7531366403
 20
22.9616218139
 30
0.0
 11
19.8082955765
 21
22.966950739
 31
0.0
  0
LINE
  5
1CE
330
1F
100
AcDbEntity
  8
0
  6
Continuous
 62
     7
370
    25
100
AcDbLine
 10
19.8082955765
 20
22.966950739
 30
0.0
 11
19.8036806164
 21
23.0306426433
 31
0.0
  0
LINE
  5
1CF
330
1F
100
AcDbEntity
  8
0
  6
Continuous
 62
     7
370
    25
100
AcDbLine
 10
19.8036806164
 20
23.0306426433
 30
0.0
 11
19.8437961264
 21
23.0345184118
 31
0.0
  0
LINE
  5
1D0
330
1F
100
AcDbEntity
  8
0
  6
Continuous
 62
     7
370
    25
100
AcDbLine
 10
19.8437961264
 20
23.0345184118
 30
0.0
 11
19.848411233
 21
22.9708265076
 31
0.0
  0
LINE
  5
1D1
330
1F
100
AcDbEntity
  8
0
  6
Continuous
 62
     7
370
    25
100
AcDbLine
 10
19.9035700225
 20
22.9761554327
 30
0.0
 11
19.848411233
 21
22.9708265076
 31
0.0
  0
LINE
  5
1D2
330
1F
100
AcDbEntity
  8
0
  6
Continuous
 62
     7
370
    25
100
AcDbLine
 10
19.9035700225
 20
22.9761554327
 30
0.0
 11
19.9069264504
 21
22.9298339411
 31
0.0
  0
LINE
  5
1D3
330
1F
100
AcDbEntity
  8
0
  6
Continuous
 62
     7
370
    25
100
AcDbLine
 10
19.9035700225
 20
22.9761554327
 30
0.0
 11
19.8803685039
 21
22.9708265076
 31
0.0
  0
LINE
  5
1D4
330
1F
100
AcDbEntity
  8
0
  6
Continuous
 62
     7
370
    25
100
AcDbLine
 10
19.8835027343
 20
22.9275709006
 30
0.0
 11
19.8803685039
 21
22.9708265076
 31
0.0
  0
LINE
  5
1D5
330
1F
100
AcDbEntity
  8
0
  6
Continuous
 62
     7
370
    25
100
AcDbLine
 10
19.848411233
 20
22.9708265076
 30
0.0
 11
19.8803685039
 21
22.9708265076
 31
0.0
  0
LINE
  5
1D6
330
1F
100
AcDbEntity
  8
0
  6
Continuous
 62
     7
370
    25
100
AcDbLine
 10
19.8436092752
 20
22.9206292475
 30
0.0
 11
19.8519897117
 21
22.9214388381
 31
0.0
  0
LINE
  5
1D7
330
1F
100
AcDbEntity
  8
0
  6
Continuous
 62
     7
370
    25
100
AcDbLine
 10
19.8162669644
 20
22.8569373432
 30
0.0
 11
19.8436092752
 21
22.9206292475
 31
0.0
  0
LINE
  5
1D8
330
1F
100
AcDbEntity
  8
0
  6
Continuous
 62
     7
370
    25
100
AcDbLine
 10
19.8036806164
 20
23.0306426433
 30
0.0
 11
19.8402528473
 21
22.966950739
 31
0.0
  0
LINE
  5
1D9
330
1F
100
AcDbEntity
  8
0
  6
Continuous
 62
     7
370
    25
100
AcDbLine
 10
19.8803685039
 20
22.9708265076
 30
0.0
 11
19.8402528473
 21
22.966950739
 31
0.0
  0
LINE
  5
1DA
330
1F
100
AcDbEntity
  8
0
  6
Continuous
 62
     7
370
    25
100
AcDbLine
 10
19.8116520044
 20
22.9206292475
 30
0.0
 11
19.8436092752
 21
22.9206292475
 31
0.0
  0
LINE
  5
1DB
330
1F
100
AcDbEntity
  8
0
  6
Continuous
 62
     7
370
    25
100
AcDbLine
 10
19.8402528473
 20
22.966950739
 30
0.0
 11
19.8436092752
 21
22.9206292475
 31
0.0
  0
LINE
  5
1DC
330
1F
100
AcDbEntity
  8
0
  6
Continuous
 62
     7
370
    25
100
AcDbLine
 10
19.7531366403
 20
22.9616218139
 30
0.0
 11
19.8402528473
 21
22.966950739
 31
0.0
  0
LINE
  5
1DD
330
1F
100
AcDbEntity
  8
0
  6
Continuous
 62
     7
370
    25
100
AcDbLine
 10
19.8082955765
 20
22.966950739
 30
0.0
 11
19.8402528473
 21
22.966950739
 31
0.0
  0
LINE
  5
1DE
330
1F
100
AcDbEntity
  8
0
  6
Continuous
 62
     7
370
    25
100
AcDbLine
 10
19.8823181213
 20
22.9274565019
 30
0.0
 11
19.8736097419
 21
22.9457277309
 31
0.0
  0
LINE
  5
1DF
330
1F
100
AcDbEntity
  8
0
  6
Continuous
 62
     7
370
    25
100
AcDbLine
 10
19.8821274569
 20
22.9465508147
 30
0.0
 11
19.8736097419
 21
22.9457277309
 31
0.0
  0
LINE
  5
1E0
330
1F
100
AcDbEntity
  8
0
  6
Continuous
 62
     7
370
    25
100
AcDbLine
 10
19.8749850194
 20
22.9267478168
 30
0.0
 11
19.8736097419
 21
22.9457277309
 31
0.0
  0
LINE
  5
1E1
330
1F
100
AcDbEntity
  8
0
  6
Continuous
 62
     7
370
    25
100
AcDbLine
 10
19.8736097419
 20
22.9457277309
 30
0.0
 11
19.8803685039
 21
22.9708265076
 31
0.0
  0
LINE
  5
1E2
330
1F
100
AcDbEntity
  8
0
  6
Continuous
 62
     7
370
    25
100
AcDbLine
 10
19.8719314547
 20
22.9688884766
 30
0.0
 11
19.8803685039
 21
22.9708265076
 31
0.0
  0
LINE
  5
1E3
330
1F
100
AcDbEntity
  8
0
  6
Continuous
 62
     7
370
    25
100
AcDbLine
 10
19.8736097419
 20
22.9457277309
 30
0.0
 11
19.8719314547
 21
22.9688884766
 31
0.0
  0
LINE
  5
1E4
330
1F
100
AcDbEntity
  8
0
  6
Continuous
 62
     7
370
    25
100
AcDbLine
 10
19.8719314547
 20
22.9688884766
 30
0.0
 11
19.8402528473
 21
22.966950739
 31
0.0
  0
LINE
  5
1E5
330
1F
100
AcDbEntity
  8
0
  6
Continuous
 62
     7
370
    25
100
AcDbLine
 10
19.8436092752
 20
22.9206292475
 30
0.0
 11
19.8736097419
 21
22.9457277309
 31
0.0
  0
LINE
  5
1E6
330
1F
100
AcDbEntity
  8
0
  6
Continuous
 62
     7
370
    25
100
AcDbLine
 10
19.8736097419
 20
22.9457277309
 30
0.0
 11
19.8535518403
 21
22.9437899932
 31
0.0
  0
LINE
  5
1E7
330
1F
100
AcDbEntity
  8
0
  6
Continuous
 62
     7
370
    25
100
AcDbLine
 10
19.8436092752
 20
22.9206292475
 30
0.0
 11
19.8535518403
 21
22.9437899932
 31
0.0
  0
LINE
  5
1E8
330
1F
100
AcDbEntity
  8
0
  6
Continuous
 62
     7
370
    25
100
AcDbLine
 10
19.8736097419
 20
22.9457277309
 30
0.0
 11
19.8402528473
 21
22.966950739
 31
0.0
  0
LINE
  5
1E9
330
1F
100
AcDbEntity
  8
0
  6
Continuous
 62
     7
370
    25
100
AcDbLine
 10
19.8535518403
 20
22.9437899932
 30
0.0
 11
19.8402528473
 21
22.966950739
 31
0.0
  0
LINE
  5
1EA
330
1F
100
AcDbEntity
  8
0
  6
Continuous
 62
     7
370
    25
100
AcDbLine
 10
21.6296803765
 20
22.9323023126
 30
0.0
 11
21.6296803765
 21
22.7847048443
 31
0.0
  0
LINE
  5
1EB
330
1F
100
AcDbEntity
  8
0
  6
Continuous
 62
     7
370
    25
100
AcDbLine
 10
21.6296803765
 20
23.1067509107
 30
0.0
 11
21.6296803765
 21
22.9323023126
 31
0.0
  0
LINE
  5
1EC
330
1F
100
AcDbEntity
  8
0
  6
Continuous
 62
     7
370
    25
100
AcDbLine
 10
21.5525315761
 20
23.1067509107
 30
0.0
 11
21.5525315761
 21
22.7847048443
 31
0.0
  0
LINE
  5
1ED
330
1F
100
AcDbEntity
  8
0
  6
Continuous
 62
     7
370
    25
100
AcDbLine
 10
21.6675315755
 20
23.0411508952
 30
0.0
 11
21.6675315755
 21
22.8503048599
 31
0.0
  0
LINE
  5
1EE
330
1F
100
AcDbEntity
  8
0
  6
Continuous
 62
     7
370
    25
100
AcDbLine
 10
20.442531603
 20
24.0307277702
 30
0.0
 11
21.5525315761
 21
24.0307277702
 31
0.0
  0
LINE
  5
1EF
330
1F
100
AcDbEntity
  8
0
  6
Continuous
 62
     7
370
    25
100
AcDbLine
 10
19.3325315659
 20
24.0307277702
 30
0.0
 11
20.442531603
 21
24.0307277702
 31
0.0
  0
LINE
  5
1F0
330
1F
100
AcDbEntity
  8
0
  6
Continuous
 62
     7
370
    25
100
AcDbLine
 10
20.442531603
 20
24.060727797
 30
0.0
 11
19.3625315926
 21
24.060727797
 31
0.0
  0
LINE
  5
1F1
330
1F
100
AcDbEntity
  8
0
  6
Continuous
 62
     7
370
    25
100
AcDbLine
 10
21.5225315768
 20
24.060727797
 30
0.0
 11
20.442531603
 21
24.060727797
 31
0.0
  0
LINE
  5
1F2
330
1F
100
AcDbEntity
  8
0
  6
Continuous
 62
     7
370
    25
100
AcDbLine
 10
23.4050315333
 20
19.9351196625
 30
0.0
 11
23.3744759396
 21
19.0601199572
 31
0.0
  0
LINE
  5
1F3
330
1F
100
AcDbEntity
  8
0
  6
Continuous
 62
     7
370
    25
100
AcDbLine
 10
17.5105872665
 20
19.0601199572
 30
0.0
 11
17.4800316728
 21
19.9351196625
 31
0.0
  0
LINE
  5
1F4
330
1F
100
AcDbEntity
  8
0
  6
Continuous
 62
     7
370
    25
100
AcDbLine
 10
19.2550315945
 20
15.0487402703
 30
0.0
 11
19.2550315945
 21
19.0601199572
 31
0.0
  0
LINE
  5
1F5
330
1F
100
AcDbEntity
  8
0
  6
Continuous
 62
     7
370
    25
100
AcDbLine
 10
19.2550315945
 20
19.9351196625
 30
0.0
 11
19.2550315945
 21
21.2498197816
 31
0.0
  0
LINE
  5
1F6
330
1F
100
AcDbEntity
  8
0
  6
Continuous
 62
     7
370
    25
100
AcDbLine
 10
21.6300315749
 20
20.9210109934
 30
0.0
 11
21.6300315749
 21
19.9351196625
 31
0.0
  0
LINE
  5
1F7
330
1F
100
AcDbEntity
  8
0
  6
Continuous
 62
     7
370
    25
100
AcDbLine
 10
21.6300315749
 20
19.0601199572
 30
0.0
 11
21.6300315749
 21
10.9351210179
 31
0.0
  0
LINE
  5
1F8
330
1F
100
AcDbEntity
  8
0
  6
Continuous
 62
     7
370
    25
100
AcDbLine
 10
23.3744759396
 20
19.0601199572
 30
0.0
 11
17.5105872665
 21
19.0601199572
 31
0.0
  0
LINE
  5
1F9
330
1F
100
AcDbEntity
  8
0
  6
Continuous
 62
     7
370
    25
100
AcDbLine
 10
23.4050315333
 20
19.9351196625
 30
0.0
 11
17.4800316728
 21
19.9351196625
 31
0.0
  0
LWPOLYLINE
  5
1FA
330
1F
100
AcDbEntity
  8
0
  6
Continuous
 62
     7
370
    25
100
AcDbPolyline
 90
       42
 70
   128
 43
0.0
 10
21.6300315749
 20
10.9351210179
 10
21.6265472139
 20
10.9411542282
 10
21.616114577
 20
10.9592256994
 10
21.598794892
 20
10.9892227929
 10
21.5746897934
 20
11.0309742039
 10
21.5439407395
 20
11.0842335353
 10
21.5067281694
 20
11.1486886841
 10
21.4632704764
 20
11.2239594945
 10
21.4138226926
 20
11.3096047985
 10
21.3586749763
 20
11.405122415
 10
21.2981509622
 20
11.509953844
 10
21.232605836
 20
11.6234819192
 10
21.1624242635
 20
11.7450401949
 10
21.088018043
 20
11.8739152928
 10
21.0098238696
 20
12.0093515949
 10
20.9283005847
 20
12.1505535904
 10
20.8439266461
 20
12.2966929155
 10
20.7571971213
 20
12.4469130469
 10
20.6686210112
 20
12.6003316479
 10
20.5787181698
 20
12.756047609
 10
20.4880160776
 20
12.9131480875
 10
20.3970470552
 20
13.0707120273
 10
20.3063450363
 20
13.2278125058
 10
20.2164421949
 20
13.383528467
 10
20.1278660848
 20
13.536947068
 10
20.0411364867
 20
13.6871671993
 10
19.9567626214
 20
13.8333065245
 10
19.8752393365
 20
13.9745096933
 10
19.7970450531
 20
14.1099459954
 10
19.7226388326
 20
14.2388210932
 10
19.6524572967
 20
14.360379369
 10
19.5869121339
 20
14.4739062709
 10
19.5263881931
 20
14.5787376998
 10
19.4712404035
 20
14.6742553164
 10
19.4217926014
 20
14.7599017937
 10
19.3783350367
 20
14.8351726041
 10
19.3411224666
 20
14.8996265796
 10
19.3103734218
 20
14.952885911
 10
19.2862683003
 20
14.994637322
 10
19.2689486337
 20
15.0246355888
 10
19.2585159142
 20
15.0427058867
 10
19.2550315945
 20
15.0487402703
  0
POINT
  5
1FB
330
1F
100
AcDbEntity
  8
VP
100
AcDbPoint
 10
22.9425315754
 20
40.6493397917
 30
0.0
  0
DIMENSION
  5
1FC
330
1F
100
AcDbEntity
  8
SLD-0
100
AcDbDimension
  2
_D
 10
11.6874842306
 20
24.0607278117
 30
0.0
 11
11.6874842306
 21
33.2668846879
 31
0.0
 70
   160
  1
SPECIFY LENGTH:\P6" - 48" MAX\P[152mm - 1219mm]
 71
     2
 42
-1.0
  3
SLDDIMSTYLE0
100
AcDbAlignedDimension
 13
22.9425315754
 23
40.6493397917
 33
0.0
 14
19.3625315754
 24
24.0607278117
 34
0.0
 50
90.0
100
AcDbRotatedDimension
  0
DIMENSION
  5
20F
330
1F
100
AcDbEntity
  8
SLD-0
100
AcDbDimension
  2
_D_1
 10
21.6300315754
 20
18.6719349891
 30
0.0
 11
11.6874842306
 21
18.6719349891
 31
0.0
 70
   160
  1
%%c<>
 71
     2
 42
-1.0
  3
SLDDIMSTYLE1
100
AcDbAlignedDimension
 13
19.2550315754
 23
15.0487406478
 33
0.0
 14
21.6300315754
 24
22.6957278117
 34
0.0
100
AcDbRotatedDimension
  0
DIMENSION
  5
221
330
1F
100
AcDbEntity
  8
SLD-0
100
AcDbDimension
  2
_D_2
 10
32.3425507298
 20
22.6957278117
 30
0.0
 11
32.3425507298
 21
18.0293935412
 31
0.0
 70
   160
  1
SPECIFY LENGTH:\P12" OR 18" \P[305mm - 457mm]
 71
     2
 42
-1.0
  3
SLDDIMSTYLE0
100
AcDbAlignedDimension
 13
21.6300315754
 23
10.9351199798
 33
0.0
 14
21.6300315754
 24
22.6957278117
 34
0.0
 50
90.0
100
AcDbRotatedDimension
  0
DIMENSION
  5
232
330
1F
100
AcDbEntity
  8
SLD-0
100
AcDbDimension
  2
_D_3
 10
21.5525315754
 20
15.6192324345
 30
0.0
 11
11.6874842306
 21
15.6192324345
 31
0.0
 70
   160
  1
%%c<>
 71
     2
 42
-1.0
  3
SLDDIMSTYLE1
100
AcDbAlignedDimension
 13
19.3325315754
 23
22.6957278117
 33
0.0
 14
21.5525315754
 24
23.0137278117
 34
0.0
100
AcDbRotatedDimension
  0
DIMENSION
  5
245
330
1F
100
AcDbEntity
  8
SLD-0
100
AcDbDimension
  2
_D_4
 10
11.6874842306
 20
22.6957278117
 30
0.0
 11
11.6874842306
 21
21.5487792883
 31
0.0
 70
   160
  1
<>
 71
     2
 42
-1.0
  3
SLDDIMSTYLE2
100
AcDbAlignedDimension
 13
19.3625315754
 23
24.0607278117
 33
0.0
 14
19.2550315754
 24
22.6957278117
 34
0.0
 50
90.0
100
AcDbRotatedDimension
  0
DIMENSION
  5
25B
330
1F
100
AcDbEntity
  8
SLD-0
100
AcDbDimension
  2
_D_5
 10
26.0104218979
 20
19.0601199798
 30
0.0
 11
26.0104218979
 21
21.5487792883
 31
0.0
 70
   160
  1
<>
 71
     2
 42
-1.0
  3
SLDDIMSTYLE2
100
AcDbAlignedDimension
 13
23.4050315754
 23
19.9351199798
 33
0.0
 14
23.3744759021
 24
19.0601199798
 34
0.0
 50
90.0
100
AcDbRotatedDimension
  0
DIMENSION
  5
270
330
1F
100
AcDbEntity
  8
SLD-0
100
AcDbDimension
  2
_D_6
 10
17.4800315754
 20
13.3744865517
 30
0.0
 11
26.0104218979
 21
13.3744865517
 31
0.0
 70
   160
  1
%%c<>
 71
     2
 42
-1.0
  3
SLDDIMSTYLE1
100
AcDbAlignedDimension
 13
23.4050315754
 23
19.9351199798
 33
0.0
 14
17.4800315754
 24
19.9351199798
 34
0.0
 50
0.0
100
AcDbRotatedDimension
  0
DIMENSION
  5
283
330
1F
100
AcDbEntity
  8
SLD-0
100
AcDbDimension
  2
_D_7
 10
19.9425315754
 20
37.0418586509
 30
0.0
 11
16.106986857
 21
37.0418586509
 31
0.0
 70
   160
  1
%%c<>
 71
     2
 42
-1.0
  3
SLDDIMSTYLE3
100
AcDbAlignedDimension
 13
20.9425315754
 23
37.6493397917
 33
0.0
 14
19.9425315754
 24
37.6493397917
 34
0.0
100
AcDbRotatedDimension
  0
DIMENSION
  5
295
330
1F
100
AcDbEntity
  8
SLD-0
100
AcDbDimension
  2
_D_8
 10
30.7359782446
 20
34.5193397917
 30
0.0
 11
30.7359782446
 21
30.9830897917
 31
0.0
 70
   160
  1
<>
 71
     2
 42
-1.0
  3
SLDDIMSTYLE1
100
AcDbAlignedDimension
 13
26.4600315754
 23
27.4468397917
 33
0.0
 14
25.4425315754
 24
34.5193397917
 34
0.0
 50
90.0
100
AcDbRotatedDimension
  0
DIMENSION
  5
2A9
330
1F
100
AcDbEntity
  8
SLD-0
100
AcDbDimension
  2
_D_9
 10
24.3325315754
 20
25.7560797524
 30
0.0
 11
30.7359782446
 21
25.7560797524
 31
0.0
 70
   160
  1
%%c<>
 71
     2
 42
-1.0
  3
SLDDIMSTYLE1
100
AcDbAlignedDimension
 13
26.5525315754
 23
27.3543397917
 33
0.0
 14
24.3325315754
 24
29.5743397917
 34
0.0
 50
0.0
100
AcDbRotatedDimension
  0
DIMENSION
  5
2BC
330
1F
100
AcDbEntity
  8
SLD-0
100
AcDbDimension
  2
_D_10
 10
30.7359782446
 20
37.6493397917
 30
0.0
 11
30.7359782446
 21
36.0843397917
 31
0.0
 70
   160
  1
<>
 71
     2
 42
-1.0
  3
SLDDIMSTYLE2
100
AcDbAlignedDimension
 13
25.4425315754
 23
34.5193397917
 33
0.0
 14
25.9425315754
 24
37.6493397917
 34
0.0
 50
90.0
100
AcDbRotatedDimension
  0
ARC
  5
2D0
330
1F
100
AcDbEntity
  8
0
  6
HIDDEN
 62
     7
370
    18
100
AcDbCircle
 10
21.3487815754
 20
23.2604150492
 30
0.0
 40
2.356250000000001
100
AcDbArc
 50
247.380135052
 51
292.619864948
  0
ARC
  5
2D1
330
1F
100
AcDbEntity
  8
0
  6
HIDDEN
 62
     7
370
    18
100
AcDbCircle
 10
19.5362815754
 20
18.9104150492
 30
0.0
 40
2.356249999999994
100
AcDbArc
 50
67.380135052
 51
112.619864948
  0
ARC
  5
2D2
330
1F
100
AcDbEntity
  8
0
  6
HIDDEN
 62
     7
370
    18
100
AcDbCircle
 10
21.3487815754
 20
24.0104150492
 30
0.0
 40
2.356250000000001
100
AcDbArc
 50
247.380135052
 51
292.619864948
  0
ARC
  5
2D3
330
1F
100
AcDbEntity
  8
0
  6
HIDDEN
 62
     7
370
    18
100
AcDbCircle
 10
19.5362815754
 20
19.6604150492
 30
0.0
 40
2.356250000000001
100
AcDbArc
 50
67.380135052
 51
112.619864948
  0
ARC
  5
2D4
330
1F
100
AcDbEntity
  8
0
  6
HIDDEN
 62
     7
370
    18
100
AcDbCircle
 10
21.0050315754
 20
27.9460873487
 30
0.0
 40
1.462499999999998
100
AcDbArc
 50
247.380135052
 51
292.619864948
  0
ARC
  5
2D5
330
1F
100
AcDbEntity
  8
0
  6
HIDDEN
 62
     7
370
    18
100
AcDbCircle
 10
19.8800315754
 20
25.2460873487
 30
0.0
 40
1.462500000000001
100
AcDbArc
 50
67.380135052
 51
112.619864948
  0
ARC
  5
2D6
330
1F
100
AcDbEntity
  8
0
  6
HIDDEN
 62
     7
370
    18
100
AcDbCircle
 10
21.0050315754
 20
28.6960873487
 30
0.0
 40
1.462499999999995
100
AcDbArc
 50
247.380135052
 51
292.619864948
  0
ARC
  5
2D7
330
1F
100
AcDbEntity
  8
0
  6
HIDDEN
 62
     7
370
    18
100
AcDbCircle
 10
19.8800315754
 20
25.9960873487
 30
0.0
 40
1.462500000000001
100
AcDbArc
 50
67.380135052
 51
112.619864948
  0
LINE
  5
2D8
330
1F
100
AcDbEntity
  8
0
  6
Continuous
 62
     7
370
    25
100
AcDbLine
 10
27.2565526343
 20
5.297648162
 30
0.0
 11
27.2565526343
 21
6.196398162
 31
0.0
  0
LINE
  5
2D9
330
1F
100
AcDbEntity
  8
0
  6
Continuous
 62
     7
370
    25
100
AcDbLine
 10
27.2565526343
 20
3.4437877826
 30
0.0
 11
27.2565526343
 21
5.127648162
 31
0.0
  0
LINE
  5
2DA
330
1F
100
AcDbEntity
  8
0
  6
Continuous
 62
     7
370
    25
100
AcDbLine
 10
27.2565526343
 20
3.046398162
 30
0.0
 11
27.2565526343
 21
3.2749836284
 31
0.0
  0
LINE
  5
2DB
330
1F
100
AcDbEntity
  8
0
  6
Continuous
 62
     7
370
    25
100
AcDbLine
 10
24.4815526343
 20
6.196398162
 30
0.0
 11
24.4815526343
 21
3.046398162
 31
0.0
  0
ARC
  5
2DC
330
1F
100
AcDbEntity
  8
0
  6
Continuous
 62
     7
370
    25
100
AcDbCircle
 10
24.5190526343
 20
6.196398162
 30
0.0
 40
0.0375000000000014
100
AcDbArc
 50
90.0
 51
180.0
  0
ARC
  5
2DD
330
1F
100
AcDbEntity
  8
0
  6
Continuous
 62
     7
370
    25
100
AcDbCircle
 10
27.2190526343
 20
6.196398162
 30
0.0
 40
0.0374999999999988
100
AcDbArc
 50
0.0
 51
90.0
  0
SPLINE
  5
2DE
330
1F
100
AcDbEntity
  8
0
  6
Continuous
 62
     7
370
    25
100
AcDbSpline
210
0.0
220
0.0
230
1.0
 70
     8
 71
     3
 72
    34
 73
    30
 74
     0
 42
0.00000001
 43
0.00000001
 40
0.0
 40
0.0
 40
0.0
 40
0.0
 40
0.0624999999999994
 40
0.0624999999999994
 40
0.1249999999999988
 40
0.1249999999999988
 40
0.1874999999999982
 40
0.1874999999999982
 40
0.2499999999999976
 40
0.2499999999999976
 40
0.312499999999997
 40
0.312499999999997
 40
0.3749999999999964
 40
0.3749999999999964
 40
0.4374999999999958
 40
0.4374999999999958
 40
0.4999999999999952
 40
0.4999999999999952
 40
0.6249999999999978
 40
0.6249999999999978
 40
0.7500000000000004
 40
0.7500000000000004
 40
0.8125000000000004
 40
0.8125000000000004
 40
0.8750000000000002
 40
0.8750000000000002
 40
0.9375000000000001
 40
0.9375000000000001
 40
1.0
 40
1.0
 40
1.0
 40
1.0
 10
27.25655263427811
 20
5.127648161965395
 30
0.0
 10
27.25655263427811
 20
5.127648161965395
 30
0.0
 10
27.25651831294902
 20
5.128203281362016
 30
0.0
 10
27.25638763615124
 20
5.130378265935937
 30
0.0
 10
27.25629201227051
 20
5.131986088238118
 30
0.0
 10
27.25605067760156
 20
5.136248878799126
 30
0.0
 10
27.25590471402768
 20
5.138912852877685
 30
0.0
 10
27.25559096004849
 20
5.145070550801115
 30
0.0
 10
27.25542182890065
 20
5.148585563092461
 30
0.0
 10
27.25507771134144
 20
5.156523416759602
 30
0.0
 10
27.25490829834143
 20
5.160823017890302
 30
0.0
 10
27.25459450111442
 20
5.170031396505663
 30
0.0
 10
27.25444860775185
 20
5.175001529121766
 30
0.0
 10
27.25420695435334
 20
5.185303033144044
 30
0.0
 10
27.25411131900423
 20
5.190603086891138
 30
0.0
 10
27.25398074857104
 20
5.201498858903511
 30
0.0
 10
27.2539464465836
 20
5.207134175062726
 30
0.0
 10
27.25394685796116
 20
5.223778820018603
 30
0.0
 10
27.25408860041953
 20
5.234963433386263
 30
0.0
 10
27.25456927766651
 20
5.255423305910695
 30
0.0
 10
27.25491011685422
 20
5.264907565842868
 30
0.0
 10
27.25541989974443
 20
5.276665956967508
 30
0.0
 10
27.25559235078157
 20
5.280254637397038
 30
0.0
 10
27.25590701814499
 20
5.286427102928243
 30
0.0
 10
27.25605011852947
 20
5.289037309274115
 30
0.0
 10
27.25629148284197
 20
5.293301143756153
 30
0.0
 10
27.2563888503224
 20
5.294938429969961
 30
0.0
 10
27.25651862824394
 20
5.297098125090169
 30
0.0
 10
27.25655263427811
 20
5.297648161965394
 30
0.0
 10
27.25655263427811
 20
5.297648161965394
 30
0.0
  0
SPLINE
  5
2DF
330
1F
100
AcDbEntity
  8
0
  6
Continuous
 62
     7
370
    25
100
AcDbSpline
210
0.0
220
0.0
230
1.0
 70
     8
 71
     3
 72
    17
 73
    13
 74
     0
 42
0.00000001
 43
0.00000001
 40
0.0
 40
0.0
 40
0.0
 40
0.0
 40
0.0367829129270416
 40
0.1439469936102682
 40
0.251184901453735
 40
0.3585983106853327
 40
0.4660155695098375
 40
0.5732581291689579
 40
0.6804203613538189
 40
0.7877217257819763
 40
0.8951646959147106
 40
1.0
 40
1.0
 40
1.0
 40
1.0
 10
27.25648674831208
 20
3.274983628414092
 30
0.0
 10
27.25650479073149
 20
3.274685976122192
 30
0.0
 10
27.25657539829966
 20
3.273521137637402
 30
0.0
 10
27.25609448134105
 20
3.281384465883791
 30
0.0
 10
27.25524712972893
 20
3.297750666995276
 30
0.0
 10
27.25436261124298
 20
3.321664327556414
 30
0.0
 10
27.25387672275392
 20
3.349616454043511
 30
0.0
 10
27.25398950555254
 20
3.378627404896804
 30
0.0
 10
27.25465715000808
 20
3.405439011621759
 30
0.0
 10
27.25557226402903
 20
3.426835685856494
 30
0.0
 10
27.25638339670025
 20
3.44120978321952
 30
0.0
 10
27.25649227771503
 20
3.442935515857649
 30
0.0
 10
27.25654604946504
 20
3.443787782565369
 30
0.0
  0
SPLINE
  5
2E0
330
1F
100
AcDbEntity
  8
0
  6
Continuous
 62
     7
370
    25
100
AcDbSpline
210
0.0
220
0.0
230
1.0
 70
    11
 71
     3
 72
    56
 73
    52
 74
     0
 42
0.00000001
 43
0.00000001
 40
0.0
 40
0.0
 40
0.0
 40
0.0
 40
0.0312500000000001
 40
0.0312500000000001
 40
0.0625000000000002
 40
0.0625000000000002
 40
0.0937500000000003
 40
0.0937500000000003
 40
0.1250000000000004
 40
0.1250000000000004
 40
0.1875000000000003
 40
0.1875000000000003
 40
0.2500000000000002
 40
0.2500000000000002
 40
0.2812500000000001
 40
0.2812500000000001
 40
0.3125
 40
0.3125
 40
0.3437499999999999
 40
0.3437499999999999
 40
0.3749999999999999
 40
0.3749999999999999
 40
0.4062499999999998
 40
0.4062499999999998
 40
0.4374999999999997
 40
0.4374999999999997
 40
0.4687499999999997
 40
0.4687499999999997
 40
0.4999999999999996
 40
0.4999999999999996
 40
0.5624999999999998
 40
0.5624999999999998
 40
0.6249999999999998
 40
0.6249999999999998
 40
0.65625
 40
0.65625
 40
0.6875000000000002
 40
0.6875000000000002
 40
0.7187500000000004
 40
0.7187500000000004
 40
0.7500000000000007
 40
0.7500000000000007
 40
0.812500000000001
 40
0.812500000000001
 40
0.8437500000000012
 40
0.8437500000000012
 40
0.8750000000000011
 40
0.8750000000000011
 40
0.9375000000000006
 40
0.9375000000000006
 40
1.0
 40
1.0
 40
1.0
 40
1.0
 10
25.25021781909561
 20
3.358898161965398
 30
0.0
 10
25.25021781909561
 20
3.353281242267926
 30
0.0
 10
25.24972331905061
 20
3.347758448497822
 30
0.0
 10
25.24778787708103
 20
3.336893333202592
 30
0.0
 10
25.24632339605744
 20
3.331494639149597
 30
0.0
 10
25.24250723435253
 20
3.321201599997348
 30
0.0
 10
25.24017449059075
 20
3.316319949972906
 30
0.0
 10
25.23467530969384
 20
3.307081218635247
 30
0.0
 10
25.23148051243106
 20
3.302707963242113
 30
0.0
 10
25.2210404091544
 20
3.290949367216506
 30
0.0
 10
25.2126594833328
 20
3.284616910480059
 30
0.0
 10
25.19470524474006
 20
3.276137742726061
 30
0.0
 10
25.18494613692158
 20
3.273904126999255
 30
0.0
 10
25.17054015536064
 20
3.273895197817882
 30
0.0
 10
25.16567967452659
 20
3.27444706737705
 30
0.0
 10
25.15630300745931
 20
3.276615676581923
 30
0.0
 10
25.15176153442617
 20
3.278220241680516
 30
0.0
 10
25.14296846192464
 20
3.282476018274637
 30
0.0
 10
25.13873149298504
 20
3.285136800959084
 30
0.0
 10
25.13091171276406
 20
3.291288028039073
 30
0.0
 10
25.12727811287558
 20
3.29479970880055
 30
0.0
 10
25.12057534750419
 20
3.302730347784141
 30
0.0
 10
25.11761020599293
 20
3.307028071501847
 30
0.0
 10
25.11243452370887
 20
3.316230817687592
 30
0.0
 10
25.11020213795455
 20
3.32119770034878
 30
0.0
 10
25.10662596749119
 20
3.331495557031612
 30
0.0
 10
25.10528076451268
 20
3.336793781153949
 30
0.0
 10
25.10346107299882
 20
3.347685757053624
 30
0.0
 10
25.10299516759535
 20
3.353319986127518
 30
0.0
 10
25.10299017987447
 20
3.369963029087961
 30
0.0
 10
25.10484538699379
 20
3.38114731317381
 30
0.0
 10
25.11193388469108
 20
3.401611277511615
 30
0.0
 10
25.11724274553556
 20
3.41109971321428
 30
0.0
 10
25.12715823179344
 20
3.422866163046801
 30
0.0
 10
25.13085431011206
 20
3.426457990208345
 30
0.0
 10
25.13869819718034
 20
3.432638423861605
 30
0.0
 10
25.14285191921382
 20
3.435252631802249
 30
0.0
 10
25.15163339843211
 20
3.439525024045939
 30
0.0
 10
25.15626471440684
 20
3.441167468024649
 30
0.0
 10
25.16560958932187
 20
3.443337320615997
 30
0.0
 10
25.17037216434949
 20
3.443892529096748
 30
0.0
 10
25.18494345224198
 20
3.443909301021979
 30
0.0
 10
25.19457114413229
 20
3.441710787038065
 30
0.0
 10
25.20814193691353
 20
3.435318398621005
 30
0.0
 10
25.21244348567118
 20
3.432710739057625
 30
0.0
 10
25.2206010011685
 20
3.426554877145785
 30
0.0
 10
25.22447889223973
 20
3.422968768825953
 30
0.0
 10
25.23493149941512
 20
3.411212366779225
 30
0.0
 10
25.24059014949085
 20
3.401740474691035
 30
0.0
 10
25.24818990511131
 20
3.381292181899258
 30
0.0
 10
25.25021781909561
 20
3.370132001360342
 30
0.0
 10
25.25021781909561
 20
3.358898161965398
 30
0.0
  0
LINE
  5
2E1
330
1F
100
AcDbEntity
  8
0
  6
Continuous
 62
     7
370
    25
100
AcDbLine
 10
24.4815526343
 20
3.046398162
 30
0.0
 11
27.2565526343
 21
3.046398162
 31
0.0
  0
LINE
  5
2E2
330
1F
100
AcDbEntity
  8
0
  6
Continuous
 62
     7
370
    25
100
AcDbLine
 10
24.5190526343
 20
6.233898162
 30
0.0
 11
27.2190526343
 21
6.233898162
 31
0.0
  0
SPLINE
  5
2E3
330
1F
100
AcDbEntity
  8
0
  6
Continuous
 62
     7
370
    25
100
AcDbSpline
210
0.0
220
0.0
230
1.0
 70
     8
 71
     3
 72
    15
 73
    11
 74
     0
 42
0.00000001
 43
0.00000001
 40
0.0
 40
0.0
 40
0.0
 40
0.0
 40
0.0584234800087519
 40
0.1936311080014914
 40
0.329093242766638
 40
0.4645613164598969
 40
0.599776009249582
 40
0.7348738886528187
 40
0.8701733633330592
 40
1.0
 40
1.0
 40
1.0
 40
1.0
 10
25.20044970827848
 20
3.438818299846621
 30
0.0
 10
25.19700875924212
 20
3.437839802442252
 30
0.0
 10
25.18560452973736
 20
3.43459679917445
 30
0.0
 10
25.16976146234696
 20
3.419615344352877
 30
0.0
 10
25.15560564085246
 20
3.396272862390679
 30
0.0
 10
25.14903546610696
 20
3.368184842647333
 30
0.0
 10
25.15048904908941
 20
3.339164821830062
 30
0.0
 10
25.15993510770643
 20
3.312538708397901
 30
0.0
 10
25.17587852696496
 20
3.290720470640256
 30
0.0
 10
25.19044275288241
 20
3.282891636732773
 30
0.0
 10
25.19757454558631
 20
3.279058022721434
 30
0.0
  0
LINE
  5
2E4
330
1F
100
AcDbEntity
  8
0
  6
Continuous
 62
     7
370
    25
100
AcDbLine
 10
27.2565526343
 20
6.196398162
 30
0.0
 11
24.4815526343
 21
6.196398162
 31
0.0
  0
DIMENSION
  5
2E5
330
1F
100
AcDbEntity
  8
SLD-0
100
AcDbDimension
  2
_D_11
 10
22.2796883607
 20
3.046398162
 30
0.0
 11
22.2796883607
 21
5.40579558
 31
0.0
 70
   160
  1
<>
 71
     2
 42
-1.0
  3
SLDDIMSTYLE4
100
AcDbAlignedDimension
 13
24.6128026343
 23
6.233898162
 33
0.0
 14
24.4815526343
 24
3.046398162
 34
0.0
 50
90.0
100
AcDbRotatedDimension
  0
MTEXT
  5
2FA
330
1F
100
AcDbEntity
  8
SLD-0
100
AcDbMText
 10
24.2638137336
 20
2.0548723375
 30
0.0
 40
0.625
 41
0.0
 71
     1
 72
     1
  1
B/E CAP
  7
SLDTEXTSTYLE0
 73
     1
 44
1.0
  0
LINE
  5
2FB
330
1F
100
AcDbEntity
  8
0
  6
Continuous
 62
     7
370
    25
100
AcDbLine
 10
16.2728864241
 20
5.2787877826
 30
0.0
 11
16.2728864241
 21
6.202648162
 31
0.0
  0
LINE
  5
2FC
330
1F
100
AcDbEntity
  8
0
  6
Continuous
 62
     7
370
    25
100
AcDbLine
 10
16.2728864241
 20
3.4437877826
 30
0.0
 11
16.2728864241
 21
5.1099836284
 31
0.0
  0
LINE
  5
2FD
330
1F
100
AcDbEntity
  8
0
  6
Continuous
 62
     7
370
    25
100
AcDbLine
 10
16.2728864241
 20
3.046398162
 30
0.0
 11
16.2728864241
 21
3.2749836284
 31
0.0
  0
LINE
  5
2FE
330
1F
100
AcDbEntity
  8
0
  6
Continuous
 62
     7
370
    25
100
AcDbLine
 10
13.4978864241
 20
8.977648162
 30
0.0
 11
13.4978864241
 21
3.046398162
 31
0.0
  0
LINE
  5
2FF
330
1F
100
AcDbEntity
  8
0
  6
Continuous
 62
     7
370
    25
100
AcDbLine
 10
13.4978864241
 20
8.977648162
 30
0.0
 11
16.2728864241
 21
6.202648162
 31
0.0
  0
LINE
  5
300
330
1F
100
AcDbEntity
  8
0
  6
Continuous
 62
     7
370
    25
100
AcDbLine
 10
13.4978864241
 20
3.046398162
 30
0.0
 11
16.2728864241
 21
3.046398162
 31
0.0
  0
SPLINE
  5
301
330
1F
100
AcDbEntity
  8
0
  6
Continuous
 62
     7
370
    25
100
AcDbSpline
210
0.0
220
0.0
230
1.0
 70
     8
 71
     3
 72
    17
 73
    13
 74
     0
 42
0.00000001
 43
0.00000001
 40
0.0
 40
0.0
 40
0.0
 40
0.0
 40
0.0367829129270424
 40
0.1439469936102728
 40
0.251184901453753
 40
0.3585983106853359
 40
0.4660155695098235
 40
0.5732581291689257
 40
0.6804203613538459
 40
0.7877217257819907
 40
0.895164695914705
 40
1.0
 40
1.0
 40
1.0
 40
1.0
 10
16.27282053809497
 20
5.109983628414108
 30
0.0
 10
16.27283858051438
 20
5.109685976122208
 30
0.0
 10
16.27290918808254
 20
5.108521137637415
 30
0.0
 10
16.27242827112394
 20
5.116384465883806
 30
0.0
 10
16.27158091951179
 20
5.132750666995297
 30
0.0
 10
16.27069640102587
 20
5.156664327556428
 30
0.0
 10
16.27021051253679
 20
5.184616454043522
 30
0.0
 10
16.27032329533543
 20
5.213627404896813
 30
0.0
 10
16.27099093979096
 20
5.240439011621776
 30
0.0
 10
16.27190605381191
 20
5.261835685856511
 30
0.0
 10
16.27271718648312
 20
5.276209783219521
 30
0.0
 10
16.27282606749791
 20
5.277935515857656
 30
0.0
 10
16.27287983924792
 20
5.278787782565378
 30
0.0
  0
SPLINE
  5
302
330
1F
100
AcDbEntity
  8
0
  6
Continuous
 62
     7
370
    25
100
AcDbSpline
210
0.0
220
0.0
230
1.0
 70
     8
 71
     3
 72
    17
 73
    13
 74
     0
 42
0.00000001
 43
0.00000001
 40
0.0
 40
0.0
 40
0.0
 40
0.0
 40
0.0367829129270438
 40
0.1439469936102699
 40
0.2511849014537369
 40
0.3585983106853344
 40
0.4660155695098195
 40
0.5732581291689195
 40
0.680420361353818
 40
0.7877217257819764
 40
0.8951646959146896
 40
1.0
 40
1.0
 40
1.0
 40
1.0
 10
16.27282053809497
 20
3.274983628414083
 30
0.0
 10
16.27283858051438
 20
3.274685976122179
 30
0.0
 10
16.27290918808254
 20
3.273521137637368
 30
0.0
 10
16.27242827112394
 20
3.281384465883773
 30
0.0
 10
16.2715809195118
 20
3.297750666995253
 30
0.0
 10
16.27069640102587
 20
3.321664327556392
 30
0.0
 10
16.2702105125368
 20
3.349616454043484
 30
0.0
 10
16.27032329533542
 20
3.378627404896776
 30
0.0
 10
16.27099093979095
 20
3.405439011621734
 30
0.0
 10
16.27190605381191
 20
3.426835685856477
 30
0.0
 10
16.27271718648312
 20
3.441209783219476
 30
0.0
 10
16.27282606749791
 20
3.442935515857638
 30
0.0
 10
16.27287983924793
 20
3.443787782565374
 30
0.0
  0
SPLINE
  5
303
330
1F
100
AcDbEntity
  8
0
  6
Continuous
 62
     7
370
    25
100
AcDbSpline
210
0.0
220
0.0
230
1.0
 70
    11
 71
     3
 72
    56
 73
    52
 74
     0
 42
0.00000001
 43
0.00000001
 40
0.0
 40
0.0
 40
0.0
 40
0.0
 40
0.0312499999999997
 40
0.0312499999999997
 40
0.0624999999999994
 40
0.0624999999999994
 40
0.0937499999999991
 40
0.0937499999999991
 40
0.1249999999999988
 40
0.1249999999999988
 40
0.1874999999999983
 40
0.1874999999999983
 40
0.2499999999999978
 40
0.2499999999999978
 40
0.2812499999999978
 40
0.2812499999999978
 40
0.3124999999999978
 40
0.3124999999999978
 40
0.3437499999999978
 40
0.3437499999999978
 40
0.3749999999999979
 40
0.3749999999999979
 40
0.4062499999999979
 40
0.4062499999999979
 40
0.4374999999999979
 40
0.4374999999999979
 40
0.4687499999999979
 40
0.4687499999999979
 40
0.499999999999998
 40
0.499999999999998
 40
0.562499999999998
 40
0.562499999999998
 40
0.6249999999999981
 40
0.6249999999999981
 40
0.656249999999998
 40
0.656249999999998
 40
0.6874999999999979
 40
0.6874999999999979
 40
0.7187499999999979
 40
0.7187499999999979
 40
0.7499999999999978
 40
0.7499999999999978
 40
0.8124999999999984
 40
0.8124999999999984
 40
0.8437499999999989
 40
0.8437499999999989
 40
0.8749999999999992
 40
0.8749999999999992
 40
0.9374999999999996
 40
0.9374999999999996
 40
1.0
 40
1.0
 40
1.0
 40
1.0
 10
14.26655160887849
 20
3.35889816196539
 30
0.0
 10
14.26655160887849
 20
3.353281242267921
 30
0.0
 10
14.26605710883348
 20
3.347758448497821
 30
0.0
 10
14.26412166686391
 20
3.336893333202599
 30
0.0
 10
14.26265718584031
 20
3.331494639149608
 30
0.0
 10
14.25884102413541
 20
3.321201599997361
 30
0.0
 10
14.25650828037363
 20
3.316319949972919
 30
0.0
 10
14.25100909947672
 20
3.30708121863526
 30
0.0
 10
14.24781430221393
 20
3.302707963242128
 30
0.0
 10
14.23737419893728
 20
3.290949367216523
 30
0.0
 10
14.22899327311567
 20
3.284616910480078
 30
0.0
 10
14.21103903452294
 20
3.276137742726081
 30
0.0
 10
14.20127992670445
 20
3.273904126999276
 30
0.0
 10
14.18687394514352
 20
3.273895197817904
 30
0.0
 10
14.18201346430947
 20
3.274447067377073
 30
0.0
 10
14.17263679724219
 20
3.276615676581947
 30
0.0
 10
14.16809532420905
 20
3.278220241680539
 30
0.0
 10
14.15930225170752
 20
3.282476018274662
 30
0.0
 10
14.15506528276791
 20
3.285136800959108
 30
0.0
 10
14.14724550254694
 20
3.291288028039097
 30
0.0
 10
14.14361190265846
 20
3.294799708800573
 30
0.0
 10
14.13690913728706
 20
3.302730347784164
 30
0.0
 10
14.13394399577581
 20
3.30702807150187
 30
0.0
 10
14.12876831349176
 20
3.316230817687617
 30
0.0
 10
14.12653592773743
 20
3.321197700348805
 30
0.0
 10
14.12295975727407
 20
3.331495557031637
 30
0.0
 10
14.12161455429555
 20
3.336793781153974
 30
0.0
 10
14.11979486278171
 20
3.347685757053649
 30
0.0
 10
14.11932895737823
 20
3.353319986127542
 30
0.0
 10
14.11932396965735
 20
3.369963029087981
 30
0.0
 10
14.12117917677667
 20
3.381147313173829
 30
0.0
 10
14.12826767447396
 20
3.401611277511634
 30
0.0
 10
14.13357653531844
 20
3.4110997132143
 30
0.0
 10
14.14349202157632
 20
3.422866163046824
 30
0.0
 10
14.14718809989495
 20
3.426457990208368
 30
0.0
 10
14.15503198696322
 20
3.432638423861628
 30
0.0
 10
14.1591857089967
 20
3.435252631802272
 30
0.0
 10
14.16796718821499
 20
3.439525024045961
 30
0.0
 10
14.17259850418972
 20
3.441167468024672
 30
0.0
 10
14.18194337910475
 20
3.443337320616019
 30
0.0
 10
14.18670595413238
 20
3.44389252909677
 30
0.0
 10
14.20127724202486
 20
3.443909301022002
 30
0.0
 10
14.21090493391517
 20
3.441710787038086
 30
0.0
 10
14.22447572669642
 20
3.435318398621026
 30
0.0
 10
14.22877727545407
 20
3.432710739057645
 30
0.0
 10
14.23693479095138
 20
3.426554877145803
 30
0.0
 10
14.24081268202261
 20
3.42296876882597
 30
0.0
 10
14.251265289198
 20
3.411212366779242
 30
0.0
 10
14.25692393927373
 20
3.401740474691048
 30
0.0
 10
14.26452369489419
 20
3.38129218189926
 30
0.0
 10
14.26655160887849
 20
3.370132001360328
 30
0.0
 10
14.26655160887849
 20
3.35889816196539
 30
0.0
  0
SPLINE
  5
304
330
1F
100
AcDbEntity
  8
0
  6
Continuous
 62
     7
370
    25
100
AcDbSpline
210
0.0
220
0.0
230
1.0
 70
     8
 71
     3
 72
    15
 73
    11
 74
     0
 42
0.00000001
 43
0.00000001
 40
0.0
 40
0.0
 40
0.0
 40
0.0
 40
0.0571283598916674
 40
0.1925219633364215
 40
0.3281704236226811
 40
0.4638248310059583
 40
0.5992255089651233
 40
0.7345092128633325
 40
0.8699947893289514
 40
1.0
 40
1.0
 40
1.0
 40
1.0
 10
14.21654525561704
 20
3.43873735789067
 30
0.0
 10
14.21318618214587
 20
3.437779255663975
 30
0.0
 10
14.20186614038575
 20
3.434550461381938
 30
0.0
 10
14.1860974025173
 20
3.419609591032426
 30
0.0
 10
14.17193885391841
 20
3.396274405385837
 30
0.0
 10
14.16536941010296
 20
3.368184430053093
 30
0.0
 10
14.16682279763558
 20
3.339164932158139
 30
0.0
 10
14.17626890851522
 20
3.312538678898322
 30
0.0
 10
14.19221231411945
 20
3.290720477672565
 30
0.0
 10
14.20677654180136
 20
3.282891639044394
 30
0.0
 10
14.2139083353693
 20
3.279058022721424
 30
0.0
  0
DIMENSION
  5
305
330
1F
100
AcDbEntity
  8
SLD-0
100
AcDbDimension
  2
_D_12
 10
10.6065950753
 20
3.046398162
 30
0.0
 11
10.6065950753
 21
6.5219075583
 31
0.0
 70
   160
  1
<>
 71
     2
 42
-1.0
  3
SLDDIMSTYLE5
100
AcDbAlignedDimension
 13
13.4978864241
 23
8.977648162
 33
0.0
 14
13.4978864241
 24
3.046398162
 34
0.0
 50
90.0
100
AcDbRotatedDimension
  0
MTEXT
  5
31A
330
1F
100
AcDbEntity
  8
SLD-0
100
AcDbMText
 10
13.0845179181
 20
1.9974630421
 30
0.0
 40
0.625
 41
0.0
 71
     1
 72
     1
  1
A/D CAP
  7
SLDTEXTSTYLE0
 73
     1
 44
1.0
  0
ARC
  5
31B
330
1F
100
AcDbEntity
  8
0
  6
Continuous
 62
     7
370
    25
100
AcDbCircle
 10
34.9701613576
 20
5.071398162
 30
0.0
 40
0.0375000000000014
100
AcDbArc
 50
90.0
 51
180.0
  0
ARC
  5
31C
330
1F
100
AcDbEntity
  8
0
  6
Continuous
 62
     7
370
    25
100
AcDbCircle
 10
37.6701613576
 20
5.071398162
 30
0.0
 40
0.0375000000000014
100
AcDbArc
 50
0.0
 51
90.0
  0
LINE
  5
31D
330
1F
100
AcDbEntity
  8
0
  6
Continuous
 62
     7
370
    25
100
AcDbLine
 10
37.7076613576
 20
3.4428126955
 30
0.0
 11
37.7076613576
 21
5.071398162
 31
0.0
  0
LINE
  5
31E
330
1F
100
AcDbEntity
  8
0
  6
Continuous
 62
     7
370
    25
100
AcDbLine
 10
37.7076613576
 20
3.046398162
 30
0.0
 11
37.7076613576
 21
3.2740085414
 31
0.0
  0
LINE
  5
31F
330
1F
100
AcDbEntity
  8
0
  6
Continuous
 62
     7
370
    25
100
AcDbLine
 10
34.9326613576
 20
5.071398162
 30
0.0
 11
34.9326613576
 21
3.046398162
 31
0.0
  0
LINE
  5
320
330
1F
100
AcDbEntity
  8
0
  6
Continuous
 62
     7
370
    25
100
AcDbLine
 10
37.6701613576
 20
5.108898162
 30
0.0
 11
34.9701613576
 21
5.108898162
 31
0.0
  0
LINE
  5
321
330
1F
100
AcDbEntity
  8
0
  6
Continuous
 62
     7
370
    25
100
AcDbLine
 10
37.7076613576
 20
3.046398162
 30
0.0
 11
34.9326613576
 21
3.046398162
 31
0.0
  0
SPLINE
  5
322
330
1F
100
AcDbEntity
  8
0
  6
Continuous
 62
     7
370
    25
100
AcDbSpline
210
0.0
220
0.0
230
1.0
 70
     8
 71
     3
 72
    17
 73
    13
 74
     0
 42
0.00000001
 43
0.00000001
 40
0.0
 40
0.0
 40
0.0
 40
0.0
 40
0.0367829129270522
 40
0.1439469936102743
 40
0.2511849014537439
 40
0.3585983106853437
 40
0.4660155695098298
 40
0.5732581291689307
 40
0.6804203613538317
 40
0.7877217257819894
 40
0.8951646959147054
 40
0.9999999999999999
 40
0.9999999999999999
 40
0.9999999999999999
 40
0.9999999999999999
 10
37.7075954716606
 20
3.442812695516672
 30
0.0
 10
37.70761351408002
 20
3.443110347808571
 30
0.0
 10
37.70768412164817
 20
3.444275186293362
 30
0.0
 10
37.70720320468958
 20
3.436411858046972
 30
0.0
 10
37.70635585307745
 20
3.420045656935487
 30
0.0
 10
37.7054713345915
 20
3.396131996374351
 30
0.0
 10
37.70498544610243
 20
3.368179869887258
 30
0.0
 10
37.70509822890106
 20
3.339168919033966
 30
0.0
 10
37.7057658733566
 20
3.312357312309008
 30
0.0
 10
37.70668098737755
 20
3.290960638074268
 30
0.0
 10
37.70749212004877
 20
3.276586540711256
 30
0.0
 10
37.70760100106355
 20
3.274860808073126
 30
0.0
 10
37.70765477281356
 20
3.274008541365405
 30
0.0
  0
SPLINE
  5
323
330
1F
100
AcDbEntity
  8
0
  6
Continuous
 62
     7
370
    25
100
AcDbSpline
210
0.0
220
0.0
230
1.0
 70
    11
 71
     3
 72
    56
 73
    52
 74
     0
 42
0.00000001
 43
0.00000001
 40
0.0
 40
0.0
 40
0.0
 40
0.0
 40
0.0312500000000001
 40
0.0312500000000001
 40
0.0625000000000002
 40
0.0625000000000002
 40
0.0937500000000003
 40
0.0937500000000003
 40
0.1250000000000004
 40
0.1250000000000004
 40
0.1875000000000001
 40
0.1875000000000001
 40
0.2499999999999999
 40
0.2499999999999999
 40
0.2812499999999997
 40
0.2812499999999997
 40
0.3124999999999996
 40
0.3124999999999996
 40
0.3437499999999994
 40
0.3437499999999994
 40
0.3749999999999991
 40
0.3749999999999991
 40
0.4062499999999988
 40
0.4062499999999988
 40
0.4374999999999985
 40
0.4374999999999985
 40
0.4687499999999982
 40
0.4687499999999982
 40
0.4999999999999979
 40
0.4999999999999979
 40
0.5624999999999976
 40
0.5624999999999976
 40
0.6249999999999972
 40
0.6249999999999972
 40
0.6562499999999971
 40
0.6562499999999971
 40
0.687499999999997
 40
0.687499999999997
 40
0.7187499999999969
 40
0.7187499999999969
 40
0.7499999999999967
 40
0.7499999999999967
 40
0.8124999999999973
 40
0.8124999999999973
 40
0.8437499999999978
 40
0.8437499999999978
 40
0.8749999999999982
 40
0.8749999999999982
 40
0.9374999999999991
 40
0.9374999999999991
 40
1.0
 40
1.0
 40
1.0
 40
1.0
 10
35.70132654244411
 20
3.35889816196539
 30
0.0
 10
35.70132654244411
 20
3.364515081662862
 30
0.0
 10
35.70083204239911
 20
3.370037875432967
 30
0.0
 10
35.69889660042954
 20
3.380902990728196
 30
0.0
 10
35.69743211940594
 20
3.386301684781192
 30
0.0
 10
35.69361595770103
 20
3.396594723933443
 30
0.0
 10
35.69128321393926
 20
3.401476373957886
 30
0.0
 10
35.68578403304235
 20
3.410715105295547
 30
0.0
 10
35.68258923577957
 20
3.415088360688681
 30
0.0
 10
35.67214913250292
 20
3.426846956714288
 30
0.0
 10
35.6637682066813
 20
3.433179413450736
 30
0.0
 10
35.64581396808856
 20
3.441658581204734
 30
0.0
 10
35.63605486027008
 20
3.44389219693154
 30
0.0
 10
35.62164887870914
 20
3.443901126112912
 30
0.0
 10
35.6167883978751
 20
3.443349256553743
 30
0.0
 10
35.60741173080781
 20
3.441180647348869
 30
0.0
 10
35.60287025777468
 20
3.439576082250277
 30
0.0
 10
35.59407718527314
 20
3.435320305656155
 30
0.0
 10
35.58984021633354
 20
3.432659522971708
 30
0.0
 10
35.58202043611256
 20
3.426508295891721
 30
0.0
 10
35.57838683622409
 20
3.422996615130246
 30
0.0
 10
35.57168407085269
 20
3.415065976146657
 30
0.0
 10
35.56871892934144
 20
3.41076825242895
 30
0.0
 10
35.56354324705738
 20
3.401565506243203
 30
0.0
 10
35.56131086130306
 20
3.396598623582014
 30
0.0
 10
35.55773469083969
 20
3.386300766899182
 30
0.0
 10
35.55638948786118
 20
3.381002542776844
 30
0.0
 10
35.55456979634733
 20
3.37011056687717
 30
0.0
 10
35.55410389094386
 20
3.364476337803277
 30
0.0
 10
35.55409890322297
 20
3.347833294842836
 30
0.0
 10
35.55595411034229
 20
3.336649010756988
 30
0.0
 10
35.56304260803959
 20
3.316185046419184
 30
0.0
 10
35.56835146888407
 20
3.306696610716516
 30
0.0
 10
35.57826695514194
 20
3.294930160883993
 30
0.0
 10
35.58196303346057
 20
3.291338333722448
 30
0.0
 10
35.58980692052884
 20
3.285157900069188
 30
0.0
 10
35.59396064256232
 20
3.282543692128545
 30
0.0
 10
35.60274212178062
 20
3.278271299884855
 30
0.0
 10
35.60737343775535
 20
3.276628855906145
 30
0.0
 10
35.61671831267037
 20
3.274459003314797
 30
0.0
 10
35.621480887698
 20
3.273903794834046
 30
0.0
 10
35.63605217559048
 20
3.273887022908813
 30
0.0
 10
35.64567986748079
 20
3.276085536892729
 30
0.0
 10
35.65925066026204
 20
3.282477925309787
 30
0.0
 10
35.66355220901968
 20
3.285085584873167
 30
0.0
 10
35.671709724517
 20
3.291241446785007
 30
0.0
 10
35.67558761558823
 20
3.294827555104838
 30
0.0
 10
35.68604022276362
 20
3.306583957151565
 30
0.0
 10
35.69169887283935
 20
3.316055849239754
 30
0.0
 10
35.69929862845981
 20
3.336504142031532
 30
0.0
 10
35.70132654244411
 20
3.347664322570446
 30
0.0
 10
35.70132654244411
 20
3.35889816196539
 30
0.0
  0
SPLINE
  5
324
330
1F
100
AcDbEntity
  8
0
  6
Continuous
 62
     7
370
    25
100
AcDbSpline
210
0.0
220
0.0
230
1.0
 70
     8
 71
     3
 72
    16
 73
    12
 74
     0
 42
0.00000001
 43
0.00000001
 40
0.0
 40
0.0
 40
0.0
 40
0.0
 40
0.0495715766865304
 40
0.1848910475709122
 40
0.3204652357541236
 40
0.4560453677781256
 40
0.5913719093034256
 40
0.7265815408150165
 40
0.8619929343619979
 40
0.9976101416479319
 40
1.0
 40
1.0
 40
1.0
 40
1.0
 10
35.65001600741315
 20
3.438294267140322
 30
0.0
 10
35.64710455768174
 20
3.437449403914464
 30
0.0
 10
35.63624549233074
 20
3.434298250424418
 30
0.0
 10
35.62088428977604
 20
3.419574773527211
 30
0.0
 10
35.60671208653296
 20
3.39628928251389
 30
0.0
 10
35.60013918650357
 20
3.368159795358606
 30
0.0
 10
35.60162000044581
 20
3.339248411968953
 30
0.0
 10
35.61095993178645
 20
3.312229418676228
 30
0.0
 10
35.62752756791484
 20
3.291567195393268
 30
0.0
 10
35.64162249572156
 20
3.279962752204628
 30
0.0
 10
35.64986213436984
 20
3.278431168204045
 30
0.0
 10
35.65000481959505
 20
3.278404645874925
 30
0.0
  0
LINE
  5
325
330
1F
100
AcDbEntity
  8
0
  6
Continuous
 62
     7
370
    25
100
AcDbLine
 10
37.7076613576
 20
5.071398162
 30
0.0
 11
34.9326613576
 21
5.071398162
 31
0.0
  0
DIMENSION
  5
326
330
1F
100
AcDbEntity
  8
SLD-0
100
AcDbDimension
  2
_D_13
 10
32.2104776191
 20
5.108898162
 30
0.0
 11
32.2104776191
 21
4.7920122207
 31
0.0
 70
   160
  1
<>
 71
     2
 42
-1.0
  3
SLDDIMSTYLE4
100
AcDbAlignedDimension
 13
34.9326613576
 23
3.046398162
 33
0.0
 14
34.9701613576
 24
5.108898162
 34
0.0
 50
90.0
100
AcDbRotatedDimension
  0
MTEXT
  5
33A
330
1F
100
AcDbEntity
  8
SLD-0
100
AcDbMText
 10
35.1003834583
 20
2.0138929502
 30
0.0
 40
0.625
 41
0.0
 71
     1
 72
     1
  1
C CAP
  7
SLDTEXTSTYLE0
 73
     1
 44
1.0
  0
LINE
  5
33B
330
1F
100
AcDbEntity
  8
0
  6
Continuous
 62
     7
370
    25
100
AcDbLine
 10
47.3344100603
 20
3.4437877826
 30
0.0
 11
47.3344100603
 21
5.508898162
 31
0.0
  0
LINE
  5
33C
330
1F
100
AcDbEntity
  8
0
  6
Continuous
 62
     7
370
    25
100
AcDbLine
 10
47.3344100603
 20
3.046398162
 30
0.0
 11
47.3344100603
 21
3.2749836284
 31
0.0
  0
LINE
  5
33D
330
1F
100
AcDbEntity
  8
0
  6
Continuous
 62
     7
370
    25
100
AcDbLine
 10
44.5594100603
 20
5.508898162
 30
0.0
 11
44.5594100603
 21
3.046398162
 31
0.0
  0
ARC
  5
33E
330
1F
100
AcDbEntity
  8
0
  6
Continuous
 62
     7
370
    25
100
AcDbCircle
 10
44.5969100603
 20
5.508898162
 30
0.0
 40
0.0375000000000014
100
AcDbArc
 50
90.0
 51
180.0
  0
ARC
  5
33F
330
1F
100
AcDbEntity
  8
0
  6
Continuous
 62
     7
370
    25
100
AcDbCircle
 10
47.2969100603
 20
5.508898162
 30
0.0
 40
0.0375000000000085
100
AcDbArc
 50
0.0
 51
90.0
  0
SPLINE
  5
340
330
1F
100
AcDbEntity
  8
0
  6
Continuous
 62
     7
370
    25
100
AcDbSpline
210
0.0
220
0.0
230
1.0
 70
     8
 71
     3
 72
    17
 73
    13
 74
     0
 42
0.00000001
 43
0.00000001
 40
0.0
 40
0.0
 40
0.0
 40
0.0
 40
0.0367829129270468
 40
0.1439469936102846
 40
0.2511849014537454
 40
0.3585983106853375
 40
0.4660155695098404
 40
0.5732581291689193
 40
0.6804203613538232
 40
0.7877217257819941
 40
0.8951646959146954
 40
0.9999999999999999
 40
0.9999999999999999
 40
0.9999999999999999
 40
0.9999999999999999
 10
47.33434417437743
 20
3.274983628414113
 30
0.0
 10
47.33436221679684
 20
3.274685976122214
 30
0.0
 10
47.334432824365
 20
3.273521137637423
 30
0.0
 10
47.33395190740639
 20
3.281384465883821
 30
0.0
 10
47.33310455579426
 20
3.297750666995296
 30
0.0
 10
47.33222003730833
 20
3.321664327556437
 30
0.0
 10
47.33173414881926
 20
3.34961645404353
 30
0.0
 10
47.33184693161789
 20
3.378627404896823
 30
0.0
 10
47.33251457607343
 20
3.405439011621777
 30
0.0
 10
47.33342969009437
 20
3.426835685856524
 30
0.0
 10
47.33424082276559
 20
3.441209783219529
 30
0.0
 10
47.33434970378038
 20
3.44293551585766
 30
0.0
 10
47.33440347553039
 20
3.44378778256538
 30
0.0
  0
SPLINE
  5
341
330
1F
100
AcDbEntity
  8
0
  6
Continuous
 62
     7
370
    25
100
AcDbSpline
210
0.0
220
0.0
230
1.0
 70
    11
 71
     3
 72
    56
 73
    52
 74
     0
 42
0.00000001
 43
0.00000001
 40
0.0
 40
0.0
 40
0.0
 40
0.0
 40
0.0312500000000002
 40
0.0312500000000002
 40
0.0625000000000004
 40
0.0625000000000004
 40
0.0937500000000006
 40
0.0937500000000006
 40
0.1250000000000008
 40
0.1250000000000008
 40
0.187500000000001
 40
0.187500000000001
 40
0.2500000000000013
 40
0.2500000000000013
 40
0.2812500000000014
 40
0.2812500000000014
 40
0.3125000000000016
 40
0.3125000000000016
 40
0.3437500000000017
 40
0.3437500000000017
 40
0.3750000000000018
 40
0.3750000000000018
 40
0.4062500000000019
 40
0.4062500000000019
 40
0.4375000000000021
 40
0.4375000000000021
 40
0.4687500000000022
 40
0.4687500000000022
 40
0.5000000000000023
 40
0.5000000000000023
 40
0.5625000000000027
 40
0.5625000000000027
 40
0.625000000000003
 40
0.625000000000003
 40
0.6562500000000032
 40
0.6562500000000032
 40
0.6875000000000033
 40
0.6875000000000033
 40
0.7187500000000036
 40
0.7187500000000036
 40
0.7500000000000038
 40
0.7500000000000038
 40
0.8125000000000032
 40
0.8125000000000032
 40
0.8437500000000029
 40
0.8437500000000029
 40
0.8750000000000023
 40
0.8750000000000023
 40
0.9375000000000011
 40
0.9375000000000011
 40
1.0
 40
1.0
 40
1.0
 40
1.0
 10
45.32807524516095
 20
3.358898161965413
 30
0.0
 10
45.32807524516094
 20
3.35328124226794
 30
0.0
 10
45.32758074511594
 20
3.347758448497836
 30
0.0
 10
45.32564530314637
 20
3.336893333202606
 30
0.0
 10
45.32418082212276
 20
3.331494639149612
 30
0.0
 10
45.32036466041786
 20
3.321201599997361
 30
0.0
 10
45.31803191665608
 20
3.316319949972918
 30
0.0
 10
45.31253273575917
 20
3.307081218635258
 30
0.0
 10
45.30933793849638
 20
3.302707963242127
 30
0.0
 10
45.29889783521973
 20
3.290949367216522
 30
0.0
 10
45.29051690939813
 20
3.284616910480076
 30
0.0
 10
45.27256267080539
 20
3.276137742726079
 30
0.0
 10
45.26280356298691
 20
3.273904126999274
 30
0.0
 10
45.24839758142598
 20
3.273895197817901
 30
0.0
 10
45.24353710059193
 20
3.27444706737707
 30
0.0
 10
45.23416043352464
 20
3.276615676581943
 30
0.0
 10
45.2296189604915
 20
3.278220241680536
 30
0.0
 10
45.22082588798997
 20
3.282476018274659
 30
0.0
 10
45.21658891905037
 20
3.285136800959105
 30
0.0
 10
45.2087691388294
 20
3.291288028039093
 30
0.0
 10
45.20513553894092
 20
3.294799708800568
 30
0.0
 10
45.19843277356952
 20
3.302730347784157
 30
0.0
 10
45.19546763205827
 20
3.307028071501862
 30
0.0
 10
45.19029194977421
 20
3.316230817687608
 30
0.0
 10
45.18805956401989
 20
3.321197700348795
 30
0.0
 10
45.18448339355653
 20
3.331495557031628
 30
0.0
 10
45.18313819057801
 20
3.336793781153967
 30
0.0
 10
45.18131849906416
 20
3.347685757053643
 30
0.0
 10
45.18085259366068
 20
3.353319986127536
 30
0.0
 10
45.18084760593981
 20
3.369963029087976
 30
0.0
 10
45.18270281305912
 20
3.381147313173825
 30
0.0
 10
45.18979131075642
 20
3.40161127751163
 30
0.0
 10
45.19510017160089
 20
3.411099713214297
 30
0.0
 10
45.20501565785877
 20
3.42286616304682
 30
0.0
 10
45.2087117361774
 20
3.426457990208364
 30
0.0
 10
45.21655562324567
 20
3.432638423861624
 30
0.0
 10
45.22070934527915
 20
3.435252631802268
 30
0.0
 10
45.22949082449744
 20
3.439525024045957
 30
0.0
 10
45.23412214047217
 20
3.441167468024668
 30
0.0
 10
45.2434670153872
 20
3.443337320616016
 30
0.0
 10
45.24822959041483
 20
3.443892529096767
 30
0.0
 10
45.26280087830731
 20
3.443909301022
 30
0.0
 10
45.27242857019763
 20
3.441710787038085
 30
0.0
 10
45.28599936297887
 20
3.435318398621025
 30
0.0
 10
45.29030091173652
 20
3.432710739057644
 30
0.0
 10
45.29845842723383
 20
3.426554877145803
 30
0.0
 10
45.30233631830507
 20
3.42296876882597
 30
0.0
 10
45.31278892548045
 20
3.41121236677924
 30
0.0
 10
45.31844757555618
 20
3.401740474691046
 30
0.0
 10
45.32604733117665
 20
3.381292181899272
 30
0.0
 10
45.32807524516094
 20
3.370132001360356
 30
0.0
 10
45.32807524516095
 20
3.358898161965412
 30
0.0
  0
LINE
  5
342
330
1F
100
AcDbEntity
  8
0
  6
Continuous
 62
     7
370
    25
100
AcDbLine
 10
44.5594100603
 20
3.046398162
 30
0.0
 11
47.3344100603
 21
3.046398162
 31
0.0
  0
LINE
  5
343
330
1F
100
AcDbEntity
  8
0
  6
Continuous
 62
     7
370
    25
100
AcDbLine
 10
47.2969100603
 20
5.546398162
 30
0.0
 11
44.5969100603
 21
5.546398162
 31
0.0
  0
SPLINE
  5
344
330
1F
100
AcDbEntity
  8
0
  6
Continuous
 62
     7
370
    25
100
AcDbSpline
210
0.0
220
0.0
230
1.0
 70
     8
 71
     3
 72
    16
 73
    12
 74
     0
 42
0.00000001
 43
0.00000001
 40
0.0
 40
0.0
 40
0.0
 40
0.0
 40
0.0495715766868671
 40
0.1848910475712998
 40
0.3204652357545372
 40
0.456045367778537
 40
0.5913719093039145
 40
0.7265815408155067
 40
0.8619929343624605
 40
0.9976101416484201
 40
1.0
 40
1.0
 40
1.0
 40
1.0
 10
45.27676471013004
 20
3.279502056790454
 30
0.0
 10
45.27385326039861
 20
3.280346920016317
 30
0.0
 10
45.26299419504758
 20
3.28349807350637
 30
0.0
 10
45.24763299249287
 20
3.298221550403589
 30
0.0
 10
45.23346078924979
 20
3.321507041416911
 30
0.0
 10
45.2268878892204
 20
3.349636528572196
 30
0.0
 10
45.22836870316264
 20
3.378547911961849
 30
0.0
 10
45.23770863450327
 20
3.405566905254576
 30
0.0
 10
45.25427627063167
 20
3.426229128537514
 30
0.0
 10
45.26837119843837
 20
3.437833571726144
 30
0.0
 10
45.27661083708661
 20
3.43936515572673
 30
0.0
 10
45.2767535223118
 20
3.439391678055844
 30
0.0
  0
LINE
  5
345
330
1F
100
AcDbEntity
  8
0
  6
Continuous
 62
     7
370
    25
100
AcDbLine
 10
47.3344100603
 20
5.508898162
 30
0.0
 11
44.5594100603
 21
5.508898162
 31
0.0
  0
DIMENSION
  5
346
330
1F
100
AcDbEntity
  8
SLD-0
100
AcDbDimension
  2
_D_14
 10
42.4822018767
 20
3.046398162
 30
0.0
 11
42.4822018767
 21
4.296398162
 31
0.0
 70
   160
  1
<>
 71
     2
 42
-1.0
  3
SLDDIMSTYLE6
100
AcDbAlignedDimension
 13
44.5969100603
 23
5.546398162
 33
0.0
 14
44.5594100603
 24
3.046398162
 34
0.0
 50
90.0
100
AcDbRotatedDimension
  0
MTEXT
  5
35B
330
1F
100
AcDbEntity
  8
SLD-0
100
AcDbMText
 10
44.8178211935
 20
1.9515443774
 30
0.0
 40
0.625
 41
0.0
 71
     1
 72
     1
  1
F CAP
  7
SLDTEXTSTYLE0
 73
     1
 44
1.0
  0
ENDSEC
  0
SECTION
  2
OBJECTS
  0
DICTIONARY
  5
C
330
0
100
AcDbDictionary
281
     1
  3
ACAD_GROUP
350
D
  3
ACAD_LAYOUT
350
1A
  3
ACAD_MLINESTYLE
350
17
  3
ACAD_PLOTSETTINGS
350
19
  3
ACAD_PLOTSTYLENAME
350
E
  3
ACAD_SCALELIST
350
47
  3
DWGPROPS
350
35C
  0
DICTIONARY
  5
D
102
{ACAD_REACTORS
330
C
102
}
330
C
100
AcDbDictionary
281
     1
  0
DICTIONARY
  5
1A
102
{ACAD_REACTORS
330
C
102
}
330
C
100
AcDbDictionary
281
     1
  3
Layout1
350
1E
  3
Layout2
350
26
  3
Model
350
22
  0
DICTIONARY
  5
17
102
{ACAD_REACTORS
330
C
102
}
330
C
100
AcDbDictionary
281
     1
  3
Standard
350
18
  0
DICTIONARY
  5
19
102
{ACAD_REACTORS
330
C
102
}
330
C
100
AcDbDictionary
281
     1
  0
ACDBDICTIONARYWDFLT
  5
E
102
{ACAD_REACTORS
330
C
102
}
330
C
100
AcDbDictionary
281
     1
  3
Normal
350
F
100
AcDbDictionaryWithDefault
340
F
  0
DICTIONARY
  5
47
102
{ACAD_REACTORS
330
C
102
}
330
C
100
AcDbDictionary
281
     1
  3
A0
350
48
  3
A1
350
49
  3
A2
350
4A
  3
A3
350
4B
  3
A4
350
4C
  3
A5
350
4D
  3
A6
350
4E
  3
A7
350
4F
  3
A8
350
50
  3
A9
350
51
  3
B1
350
52
  3
B2
350
53
  3
B3
350
54
  3
B4
350
55
  3
B5
350
56
  3
B6
350
57
  3
B7
350
58
  0
XRECORD
  5
35C
102
{ACAD_REACTORS
330
C
102
}
330
C
100
AcDbXrecord
280
     1
  1
DWGPROPS COOKIE
  2

  3

  4

  6

  7

  8
gurisher.rai
  9

300
=
301
=
302
=
303
=
304
=
305
=
306
=
307
=
308
=
309
=
 40
0.0
 41
2460476.610062384
 42
2460476.610063241
  1

 90
        0
  0
LAYOUT
  5
1E
102
{ACAD_REACTORS
330
1A
102
}
330
1A
100
AcDbPlotSettings
  1

  2
none_device
  4

  6

 40
0.0
 41
0.0
 42
0.0
 43
0.0
 44
0.0
 45
0.0
 46
0.0
 47
0.0
 48
0.0
 49
0.0
140
0.0
141
0.0
142
1.0
143
1.0
 70
   688
 72
     0
 73
     0
 74
     5
  7

 75
    16
147
1.0
148
0.0
149
0.0
100
AcDbLayout
  1
Layout1
 70
     1
 71
     1
 10
0.0
 20
0.0
 11
12.0
 21
9.0
 12
0.0
 22
0.0
 32
0.0
 14
1.0000000000E+20
 24
1.0000000000E+20
 34
1.0000000000E+20
 15
-1.0000000000E+20
 25
-1.0000000000E+20
 35
-1.0000000000E+20
146
0.0
 13
0.0
 23
0.0
 33
0.0
 16
1.0
 26
0.0
 36
0.0
 17
0.0
 27
1.0
 37
0.0
 76
     0
330
1B
  0
LAYOUT
  5
26
102
{ACAD_REACTORS
330
1A
102
}
330
1A
100
AcDbPlotSettings
  1

  2
none_device
  4

  6

 40
0.0
 41
0.0
 42
0.0
 43
0.0
 44
0.0
 45
0.0
 46
0.0
 47
0.0
 48
0.0
 49
0.0
140
0.0
141
0.0
142
1.0
143
1.0
 70
   688
 72
     0
 73
     0
 74
     5
  7

 75
    16
147
1.0
148
0.0
149
0.0
100
AcDbLayout
  1
Layout2
 70
     1
 71
     2
 10
0.0
 20
0.0
 11
0.0
 21
0.0
 12
0.0
 22
0.0
 32
0.0
 14
0.0
 24
0.0
 34
0.0
 15
0.0
 25
0.0
 35
0.0
146
0.0
 13
0.0
 23
0.0
 33
0.0
 16
1.0
 26
0.0
 36
0.0
 17
0.0
 27
1.0
 37
0.0
 76
     0
330
23
  0
LAYOUT
  5
22
102
{ACAD_REACTORS
330
1A
102
}
330
1A
100
AcDbPlotSettings
  1

  2
none_device
  4
Letter_(8.50_x_11.00_Inches)
  6

 40
6.35
 41
6.35
 42
6.35000508
 43
6.35000508
 44
215.9
 45
279.4
 46
0.0
 47
0.0
 48
0.0
 49
0.0
140
0.0
141
0.0
142
1.0
143
1.0
 70
  1712
 72
     0
 73
     0
 74
     0
  7

 75
     0
147
1.0
148
0.0
149
0.0
100
AcDbLayout
  1
Model
 70
     1
 71
     0
 10
0.0
 20
0.0
 11
55.0
 21
42.5
 12
0.0
 22
0.0
 32
0.0
 14
0.0
 24
0.0
 34
0.0
 15
55.0
 25
42.5
 35
0.0
146
0.0
 13
0.0
 23
0.0
 33
0.0
 16
1.0
 26
0.0
 36
0.0
 17
0.0
 27
1.0
 37
0.0
 76
     0
330
1F
331
29
  0
MLINESTYLE
  5
18
102
{ACAD_REACTORS
330
17
102
}
330
17
100
AcDbMlineStyle
  2
Standard
 70
     0
  3

 62
   256
 51
90.0
 52
90.0
 71
     2
 49
0.5
 62
   256
  6
BYLAYER
 49
-0.5
 62
   256
  6
BYLAYER
  0
ACDBPLACEHOLDER
  5
F
102
{ACAD_REACTORS
330
E
102
}
330
E
  0
SCALE
  5
48
102
{ACAD_REACTORS
330
47
102
}
330
47
100
AcDbScale
 70
     0
300
1:1
140
1.0
141
1.0
290
     1
  0
SCALE
  5
49
102
{ACAD_REACTORS
330
47
102
}
330
47
100
AcDbScale
 70
     0
300
1/128" = 1'-0"
140
0.0078125
141
12.0
290
     0
  0
SCALE
  5
4A
102
{ACAD_REACTORS
330
47
102
}
330
47
100
AcDbScale
 70
     0
300
1/64" = 1'-0"
140
0.015625
141
12.0
290
     0
  0
SCALE
  5
4B
102
{ACAD_REACTORS
330
47
102
}
330
47
100
AcDbScale
 70
     0
300
1/32" = 1'-0"
140
0.03125
141
12.0
290
     0
  0
SCALE
  5
4C
102
{ACAD_REACTORS
330
47
102
}
330
47
100
AcDbScale
 70
     0
300
1/16" = 1'-0"
140
0.0625
141
12.0
290
     0
  0
SCALE
  5
4D
102
{ACAD_REACTORS
330
47
102
}
330
47
100
AcDbScale
 70
     0
300
3/32" = 1'-0"
140
0.09375
141
12.0
290
     0
  0
SCALE
  5
4E
102
{ACAD_REACTORS
330
47
102
}
330
47
100
AcDbScale
 70
     0
300
1/8" = 1'-0"
140
0.125
141
12.0
290
     0
  0
SCALE
  5
4F
102
{ACAD_REACTORS
330
47
102
}
330
47
100
AcDbScale
 70
     0
300
3/16" = 1'-0"
140
0.1875
141
12.0
290
     0
  0
SCALE
  5
50
102
{ACAD_REACTORS
330
47
102
}
330
47
100
AcDbScale
 70
     0
300
1/4" = 1'-0"
140
0.25
141
12.0
290
     0
  0
SCALE
  5
51
102
{ACAD_REACTORS
330
47
102
}
330
47
100
AcDbScale
 70
     0
300
3/8" = 1'-0"
140
0.375
141
12.0
290
     0
  0
SCALE
  5
52
102
{ACAD_REACTORS
330
47
102
}
330
47
100
AcDbScale
 70
     0
300
1/2" = 1'-0"
140
0.5
141
12.0
290
     0
  0
SCALE
  5
53
102
{ACAD_REACTORS
330
47
102
}
330
47
100
AcDbScale
 70
     0
300
3/4" = 1'-0"
140
0.75
141
12.0
290
     0
  0
SCALE
  5
54
102
{ACAD_REACTORS
330
47
102
}
330
47
100
AcDbScale
 70
     0
300
1" = 1'-0"
140
1.0
141
12.0
290
     0
  0
SCALE
  5
55
102
{ACAD_REACTORS
330
47
102
}
330
47
100
AcDbScale
 70
     0
300
1-1/2" = 1'-0"
140
1.5
141
12.0
290
     0
  0
SCALE
  5
56
102
{ACAD_REACTORS
330
47
102
}
330
47
100
AcDbScale
 70
     0
300
3" = 1'-0"
140
3.0
141
12.0
290
     0
  0
SCALE
  5
57
102
{ACAD_REACTORS
330
47
102
}
330
47
100
AcDbScale
 70
     0
300
6" = 1'-0"
140
6.0
141
12.0
290
     0
  0
SCALE
  5
58
102
{ACAD_REACTORS
330
47
102
}
330
47
100
AcDbScale
 70
     0
300
1'-0" = 1'-0"
140
12.0
141
12.0
290
     0
  0
ENDSEC
  0
EOF
