  0
SECTION
  2
HEADER
  9
$ACADVER
  1
AC1015
  9
$ACADMAINTVER
 70
     6
  9
$DWGCODEPAGE
  3
ANSI_1252
  9
$INSBASE
 10
0.0
 20
0.0
 30
0.0
  9
$EXTMIN
 10
0.0
 20
0.0
 30
0.0
  9
$EXTMAX
 10
55.0
 20
42.5
 30
0.0
  9
$LIMMIN
 10
0.0
 20
0.0
  9
$LIMMAX
 10
55.0
 20
42.5
  9
$ORTHOMODE
 70
     0
  9
$REGENMODE
 70
     1
  9
$FILLMODE
 70
     1
  9
$QTEXTMODE
 70
     0
  9
$MIRRTEXT
 70
     1
  9
$LTSCALE
 40
5.0
  9
$ATTMODE
 70
     1
  9
$TEXTSIZE
 40
0.625
  9
$TRACEWID
 40
0.05
  9
$TEXTSTYLE
  7
STANDARD
  9
$CLAYER
  8
0
  9
$CELTYPE
  6
ByLayer
  9
$CECOLOR
 62
   256
  9
$CELTSCALE
 40
1.0
  9
$DISPSILH
 70
     0
  9
$DIMSCALE
 40
1.0
  9
$DIMASZ
 40
0.65
  9
$DIMEXO
 40
0.25
  9
$DIMDLI
 40
0.38
  9
$DIMRND
 40
0.0
  9
$DIMDLE
 40
0.0
  9
$DIMEXE
 40
0.625
  9
$DIMTP
 40
0.0
  9
$DIMTM
 40
0.0
  9
$DIMTXT
 40
0.625
  9
$DIMCEN
 40
0.09
  9
$DIMTSZ
 40
0.0
  9
$DIMTOL
 70
     0
  9
$DIMLIM
 70
     0
  9
$DIMTIH
 70
     1
  9
$DIMTOH
 70
     1
  9
$DIMSE1
 70
     0
  9
$DIMSE2
 70
     0
  9
$DIMTAD
 70
     0
  9
$DIMZIN
 70
     1
  9
$DIMBLK
  1

  9
$DIMASO
 70
     1
  9
$DIMSHO
 70
     1
  9
$DIMPOST
  1

  9
$DIMAPOST
  1

  9
$DIMALT
 70
     0
  9
$DIMALTD
 70
     2
  9
$DIMALTF
 40
25.4
  9
$DIMLFAC
 40
1.0
  9
$DIMTOFL
 70
     0
  9
$DIMTVP
 40
0.0
  9
$DIMTIX
 70
     0
  9
$DIMSOXD
 70
     0
  9
$DIMSAH
 70
     0
  9
$DIMBLK1
  1

  9
$DIMBLK2
  1

  9
$DIMSTYLE
  2
Standard
  9
$DIMCLRD
 70
     0
  9
$DIMCLRE
 70
     0
  9
$DIMCLRT
 70
     0
  9
$DIMTFAC
 40
1.0
  9
$DIMGAP
 40
0.3
  9
$DIMJUST
 70
     0
  9
$DIMSD1
 70
     0
  9
$DIMSD2
 70
     0
  9
$DIMTOLJ
 70
     1
  9
$DIMTZIN
 70
     1
  9
$DIMALTZ
 70
     0
  9
$DIMALTTZ
 70
     0
  9
$DIMUPT
 70
     0
  9
$DIMDEC
 70
     0
  9
$DIMTDEC
 70
     0
  9
$DIMALTU
 70
     2
  9
$DIMALTTD
 70
     2
  9
$DIMTXSTY
  7
STANDARD
  9
$DIMAUNIT
 70
     0
  9
$DIMADEC
 70
     0
  9
$DIMALTRND
 40
0.0
  9
$DIMAZIN
 70
     0
  9
$DIMDSEP
 70
    46
  9
$DIMATFIT
 70
     3
  9
$DIMFRAC
 70
     0
  9
$DIMLDRBLK
  1

  9
$DIMLUNIT
 70
     2
  9
$DIMLWD
 70
    -2
  9
$DIMLWE
 70
    -2
  9
$DIMTMOVE
 70
     0
  9
$LUNITS
 70
     2
  9
$LUPREC
 70
     6
  9
$SKETCHINC
 40
0.1
  9
$FILLETRAD
 40
0.0
  9
$AUNITS
 70
     0
  9
$AUPREC
 70
     2
  9
$MENU
  1
.
  9
$ELEVATION
 40
0.0
  9
$PELEVATION
 40
0.0
  9
$THICKNESS
 40
0.0
  9
$LIMCHECK
 70
     0
  9
$CHAMFERA
 40
0.0
  9
$CHAMFERB
 40
0.0
  9
$CHAMFERC
 40
0.0
  9
$CHAMFERD
 40
0.0
  9
$SKPOLY
 70
     0
  9
$TDCREATE
 40
2460476.316479028
  9
$TDUCREATE
 40
2460476.608145694
  9
$TDUPDATE
 40
2460476.316480024
  9
$TDUUPDATE
 40
2460476.60814669
  9
$TDINDWG
 40
0.0000000116
  9
$TDUSRTIMER
 40
0.0000000116
  9
$USRTIMER
 70
     1
  9
$ANGBASE
 50
0.0
  9
$ANGDIR
 70
     0
  9
$PDMODE
 70
     0
  9
$PDSIZE
 40
-1.0
  9
$PLINEWID
 40
0.0
  9
$SPLFRAME
 70
     0
  9
$SPLINETYPE
 70
     6
  9
$SPLINESEGS
 70
     8
  9
$HANDSEED
  5
4C4
  9
$SURFTAB1
 70
     6
  9
$SURFTAB2
 70
     6
  9
$SURFTYPE
 70
     6
  9
$SURFU
 70
     6
  9
$SURFV
 70
     6
  9
$UCSBASE
  2

  9
$UCSNAME
  2

  9
$UCSORG
 10
0.0
 20
0.0
 30
0.0
  9
$UCSXDIR
 10
1.0
 20
0.0
 30
0.0
  9
$UCSYDIR
 10
0.0
 20
1.0
 30
0.0
  9
$UCSORTHOREF
  2

  9
$UCSORTHOVIEW
 70
     0
  9
$UCSORGTOP
 10
0.0
 20
0.0
 30
0.0
  9
$UCSORGBOTTOM
 10
0.0
 20
0.0
 30
0.0
  9
$UCSORGLEFT
 10
0.0
 20
0.0
 30
0.0
  9
$UCSORGRIGHT
 10
0.0
 20
0.0
 30
0.0
  9
$UCSORGFRONT
 10
0.0
 20
0.0
 30
0.0
  9
$UCSORGBACK
 10
0.0
 20
0.0
 30
0.0
  9
$PUCSBASE
  2

  9
$PUCSNAME
  2

  9
$PUCSORG
 10
0.0
 20
0.0
 30
0.0
  9
$PUCSXDIR
 10
1.0
 20
0.0
 30
0.0
  9
$PUCSYDIR
 10
0.0
 20
1.0
 30
0.0
  9
$PUCSORTHOREF
  2

  9
$PUCSORTHOVIEW
 70
     0
  9
$PUCSORGTOP
 10
0.0
 20
0.0
 30
0.0
  9
$PUCSORGBOTTOM
 10
0.0
 20
0.0
 30
0.0
  9
$PUCSORGLEFT
 10
0.0
 20
0.0
 30
0.0
  9
$PUCSORGRIGHT
 10
0.0
 20
0.0
 30
0.0
  9
$PUCSORGFRONT
 10
0.0
 20
0.0
 30
0.0
  9
$PUCSORGBACK
 10
0.0
 20
0.0
 30
0.0
  9
$USERI1
 70
     0
  9
$USERI2
 70
     0
  9
$USERI3
 70
     0
  9
$USERI4
 70
     0
  9
$USERI5
 70
     0
  9
$USERR1
 40
0.0
  9
$USERR2
 40
0.0
  9
$USERR3
 40
0.0
  9
$USERR4
 40
0.0
  9
$USERR5
 40
0.0
  9
$WORLDVIEW
 70
     1
  9
$SHADEDGE
 70
     3
  9
$SHADEDIF
 70
    70
  9
$TILEMODE
 70
     1
  9
$MAXACTVP
 70
    64
  9
$PINSBASE
 10
0.0
 20
0.0
 30
0.0
  9
$PLIMCHECK
 70
     0
  9
$PEXTMIN
 10
1.0000000000E+20
 20
1.0000000000E+20
 30
1.0000000000E+20
  9
$PEXTMAX
 10
-1.0000000000E+20
 20
-1.0000000000E+20
 30
-1.0000000000E+20
  9
$PLIMMIN
 10
0.0
 20
0.0
  9
$PLIMMAX
 10
12.0
 20
9.0
  9
$UNITMODE
 70
     0
  9
$VISRETAIN
 70
     1
  9
$PLINEGEN
 70
     0
  9
$PSLTSCALE
 70
     1
  9
$TREEDEPTH
 70
  3020
  9
$CMLSTYLE
  2
Standard
  9
$CMLJUST
 70
     0
  9
$CMLSCALE
 40
1.0
  9
$PROXYGRAPHICS
 70
     1
  9
$MEASUREMENT
 70
     0
  9
$CELWEIGHT
370
    -1
  9
$ENDCAPS
280
     0
  9
$JOINSTYLE
280
     0
  9
$LWDISPLAY
290
     1
  9
$INSUNITS
 70
     1
  9
$HYPERLINKBASE
  1

  9
$STYLESHEET
  1

  9
$XEDIT
290
     1
  9
$CEPSNTYPE
380
     0
  9
$PSTYLEMODE
290
     1
  9
$FINGERPRINTGUID
  2
{c5aed3e2-c7ca-4861-9898-454a13a95828}
  9
$VERSIONGUID
  2
{FAEB1C32-E019-11D5-929B-00C0DF256EC4}
  9
$EXTNAMES
290
     1
  9
$PSVPSCALE
 40
0.0
  9
$OLESTARTUP
290
     0
  0
ENDSEC
  0
SECTION
  2
CLASSES
  0
CLASS
  1
ACDBDICTIONARYWDFLT
  2
AcDbDictionaryWithDefault
  3
ObjectDBX Classes
 90
        0
280
     0
281
     0
  0
CLASS
  1
VISUALSTYLE
  2
AcDbVisualStyle
  3
ObjectDBX Classes
 90
     4095
280
     0
281
     0
  0
CLASS
  1
MATERIAL
  2
AcDbMaterial
  3
ObjectDBX Classes
 90
     1153
280
     0
281
     0
  0
CLASS
  1
SCALE
  2
AcDbScale
  3
ObjectDBX Classes
 90
     1153
280
     0
281
     0
  0
CLASS
  1
TABLESTYLE
  2
AcDbTableStyle
  3
ObjectDBX Classes
 90
     4095
280
     0
281
     0
  0
CLASS
  1
MLEADERSTYLE
  2
AcDbMLeaderStyle
  3
ACDB_MLEADERSTYLE_CLASS
 90
     4095
280
     0
281
     0
  0
CLASS
  1
SUN
  2
AcDbSun
  3
SCENEOE
 90
     1153
280
     0
281
     0
  0
CLASS
  1
ACDBPLACEHOLDER
  2
AcDbPlaceHolder
  3
ObjectDBX Classes
 90
        0
280
     0
281
     0
  0
CLASS
  1
LAYOUT
  2
AcDbLayout
  3
ObjectDBX Classes
 90
        0
280
     0
281
     0
  0
ENDSEC
  0
SECTION
  2
TABLES
  0
TABLE
  2
VPORT
  5
8
330
0
100
AcDbSymbolTable
 70
     1
  0
VPORT
  5
29
330
8
100
AcDbSymbolTableRecord
100
AcDbViewportTableRecord
  2
*Active
 70
     0
 10
0.0
 20
0.0
 11
1.0
 21
1.0
 12
27.5
 22
21.25
 13
0.0
 23
0.0
 14
0.5
 24
0.5
 15
0.5
 25
0.5
 16
0.0
 26
0.0
 36
1.0
 17
0.0
 27
0.0
 37
0.0
 40
42.5
 41
1.2941176471
 42
50.0
 43
0.0
 44
0.0
 50
0.0
 51
0.0
 71
     0
 72
  2000
 73
     1
 74
     3
 75
     0
 76
     0
 77
     0
 78
     0
281
     0
 65
     1
110
0.0
120
0.0
130
0.0
111
1.0
121
0.0
131
0.0
112
0.0
122
1.0
132
0.0
 79
     0
146
0.0
  0
ENDTAB
  0
TABLE
  2
LTYPE
  5
5
330
0
100
AcDbSymbolTable
 70
     6
  0
LTYPE
  5
14
330
5
100
AcDbSymbolTableRecord
100
AcDbLinetypeTableRecord
  2
ByBlock
 70
     0
  3

 72
    65
 73
     0
 40
0.0
  0
LTYPE
  5
15
330
5
100
AcDbSymbolTableRecord
100
AcDbLinetypeTableRecord
  2
ByLayer
 70
     0
  3

 72
    65
 73
     0
 40
0.0
  0
LTYPE
  5
16
330
5
100
AcDbSymbolTableRecord
100
AcDbLinetypeTableRecord
  2
Continuous
 70
     0
  3
Solid line
 72
    65
 73
     0
 40
0.0
  0
LTYPE
  5
5E
330
5
100
AcDbSymbolTableRecord
100
AcDbLinetypeTableRecord
  2
HIDDEN
 70
     0
  3
Hidden __ __ __ __ __ __ __ __ __ __ __ __ __ __
 72
    65
 73
     2
 40
0.075
 49
0.05
 74
     0
 49
-0.025
 74
     0
  0
LTYPE
  5
5F
330
5
100
AcDbSymbolTableRecord
100
AcDbLinetypeTableRecord
  2
PHANTOM
 70
     0
  3
Phantom ______  __  __  ______  __  __  ______
 72
    65
 73
     6
 40
0.5
 49
0.25
 74
     0
 49
-0.05
 74
     0
 49
0.05
 74
     0
 49
-0.05
 74
     0
 49
0.05
 74
     0
 49
-0.05
 74
     0
  0
LTYPE
  5
60
330
5
100
AcDbSymbolTableRecord
100
AcDbLinetypeTableRecord
  2
CENTER
 70
     0
  3
Center ____ _ ____ _ ____ _ ____ _ ____ _ ____
 72
    65
 73
     4
 40
0.4
 49
0.25
 74
     0
 49
-0.05
 74
     0
 49
0.05
 74
     0
 49
-0.05
 74
     0
  0
LTYPE
  5
61
330
5
100
AcDbSymbolTableRecord
100
AcDbLinetypeTableRecord
  2
CENTERX2
 70
     0
  3
Center (2x) ________  __  ________  __  _____
 72
    65
 73
     4
 40
0.8
 49
0.5
 74
     0
 49
-0.1
 74
     0
 49
0.1
 74
     0
 49
-0.1
 74
     0
  0
LTYPE
  5
62
330
5
100
AcDbSymbolTableRecord
100
AcDbLinetypeTableRecord
  2
DOT2
 70
     0
  3
Dot (.5x) ........................................
 72
    65
 73
     2
 40
0.025
 49
0.0
 74
     0
 49
-0.025
 74
     0
  0
ENDTAB
  0
TABLE
  2
LAYER
  5
2
330
0
100
AcDbSymbolTable
 70
    12
  0
LAYER
  5
10
330
2
100
AcDbSymbolTableRecord
100
AcDbLayerTableRecord
  2
0
 70
     0
 62
     7
  6
Continuous
370
    -3
390
F
  0
LAYER
  5
63
330
2
100
AcDbSymbolTableRecord
100
AcDbLayerTableRecord
  2
SLD-0
 70
     0
 62
     7
  6
Continuous
370
    -3
390
F
  0
LAYER
  5
64
330
2
100
AcDbSymbolTableRecord
100
AcDbLayerTableRecord
  2
DIM
 70
     0
 62
     7
  6
Continuous
370
    -3
390
F
  0
LAYER
  5
65
330
2
100
AcDbSymbolTableRecord
100
AcDbLayerTableRecord
  2
CEN
 70
     0
 62
     1
  6
CENTER
370
    -3
390
F
  0
LAYER
  5
66
330
2
100
AcDbSymbolTableRecord
100
AcDbLayerTableRecord
  2
HAT
 70
     0
 62
     4
  6
Continuous
370
    -3
390
F
  0
LAYER
  5
67
330
2
100
AcDbSymbolTableRecord
100
AcDbLayerTableRecord
  2
OBJ
 70
     0
 62
     5
  6
Continuous
370
    -3
390
F
  0
LAYER
  5
68
330
2
100
AcDbSymbolTableRecord
100
AcDbLayerTableRecord
  2
SLD-DEFPOINTS
 70
     0
 62
     7
  6
Continuous
370
    -3
390
F
  0
LAYER
  5
69
330
2
100
AcDbSymbolTableRecord
100
AcDbLayerTableRecord
  2
HID
 70
     0
 62
     4
  6
HIDDEN
370
    -3
390
F
  0
LAYER
  5
6A
330
2
100
AcDbSymbolTableRecord
100
AcDbLayerTableRecord
  2
NOTE
 70
     0
 62
     7
  6
Continuous
370
    -3
390
F
  0
LAYER
  5
6B
330
2
100
AcDbSymbolTableRecord
100
AcDbLayerTableRecord
  2
VP
 70
     0
 62
    -5
  6
Continuous
290
     0
370
    -3
390
F
  0
LAYER
  5
6C
330
2
100
AcDbSymbolTableRecord
100
AcDbLayerTableRecord
  2
TITLE
 70
     0
 62
     7
  6
Continuous
370
    -3
390
F
  0
LAYER
  5
6D
330
2
100
AcDbSymbolTableRecord
100
AcDbLayerTableRecord
  2
THICK_TITLE
 70
     0
 62
     7
  6
Continuous
370
   100
390
F
  0
ENDTAB
  0
TABLE
  2
STYLE
  5
3
330
0
100
AcDbSymbolTable
 70
     2
  0
STYLE
  5
11
330
3
100
AcDbSymbolTableRecord
100
AcDbTextStyleTableRecord
  2
STANDARD
 70
     0
 40
0.0
 41
1.0
 50
0.0
 71
     0
 42
0.625
  3
GOTHIC.TTF
  4

1001
ACAD
1000
CENTURY GOTHIC
1071
       34
  0
STYLE
  5
1CA
330
3
100
AcDbSymbolTableRecord
100
AcDbTextStyleTableRecord
  2
SLDTEXTSTYLE0
 70
     0
 40
0.0
 41
0.913
 50
0.0
 71
     0
 42
0.625
  3
GOTHIC.TTF
  4

1001
ACAD
1000
Century Gothic
1071
      290
  0
ENDTAB
  0
TABLE
  2
VIEW
  5
6
330
0
100
AcDbSymbolTable
 70
     0
  0
ENDTAB
  0
TABLE
  2
UCS
  5
7
330
0
100
AcDbSymbolTable
 70
     0
  0
ENDTAB
  0
TABLE
  2
APPID
  5
9
330
0
100
AcDbSymbolTable
 70
     1
  0
APPID
  5
12
330
9
100
AcDbSymbolTableRecord
100
AcDbRegAppTableRecord
  2
ACAD
 70
     0
  0
ENDTAB
  0
TABLE
  2
DIMSTYLE
  5
A
330
0
100
AcDbSymbolTable
 70
     9
100
AcDbDimStyleTable
  0
DIMSTYLE
105
27
330
A
100
AcDbSymbolTableRecord
100
AcDbDimStyleTableRecord
  2
Standard
 70
     0
178
     0
340
11
  0
DIMSTYLE
105
1CB
102
{ACAD_REACTORS
330
1C9
102
}
330
A
100
AcDbSymbolTableRecord
100
AcDbDimStyleTableRecord
  2
SLDDIMSTYLE0
 70
     0
 41
0.65
 44
0.0
 45
0.000000001
 78
    12
 79
     3
140
0.625
147
0.15625
148
0.000000001
170
     1
173
     1
178
     0
271
     0
272
     0
276
     2
277
     5
284
    12
340
1CA
  0
DIMSTYLE
105
1DD
102
{ACAD_REACTORS
330
1DC
330
203
330
218
330
23E
330
251
102
}
330
A
100
AcDbSymbolTableRecord
100
AcDbDimStyleTableRecord
  2
SLDDIMSTYLE1
 70
     0
 41
0.65
 44
0.0
 45
0.000000001
 78
    12
 79
     3
140
0.625
147
0.15625
148
0.000000001
170
     1
173
     1
178
     0
271
     6
272
     0
276
     2
277
     5
284
    12
340
1CA
  0
DIMSTYLE
105
1F2
102
{ACAD_REACTORS
330
1F1
330
265
102
}
330
A
100
AcDbSymbolTableRecord
100
AcDbDimStyleTableRecord
  2
SLDDIMSTYLE2
 70
     0
 41
0.65
 44
0.0
 45
0.000000001
 78
    12
 79
     3
140
0.625
147
0.15625
148
0.000000001
170
     1
172
     1
173
     1
178
     0
271
     6
272
     0
276
     2
277
     5
284
    12
289
     0
340
1CA
  0
DIMSTYLE
105
22D
102
{ACAD_REACTORS
330
22C
102
}
330
A
100
AcDbSymbolTableRecord
100
AcDbDimStyleTableRecord
  2
SLDDIMSTYLE3
 70
     0
 41
0.65
 44
0.0
 45
0.000000001
 78
    12
 79
     3
140
0.625
147
0.15625
148
0.000000001
170
     1
172
     1
173
     1
178
     0
271
     0
272
     0
276
     2
277
     5
284
    12
289
     0
340
1CA
  0
DIMSTYLE
105
27B
330
A
100
AcDbSymbolTableRecord
100
AcDbDimStyleTableRecord
  2
SLDDIMSTYLE4
 70
     0
 41
0.65
 44
0.0
 45
0.000000001
146
0.65
147
0.0
173
     1
178
     0
271
     0
272
     0
276
     2
277
     5
340
11
  0
DIMSTYLE
105
3FD
102
{ACAD_REACTORS
330
3FC
330
43D
330
48E
102
}
330
A
100
AcDbSymbolTableRecord
100
AcDbDimStyleTableRecord
  2
SLDDIMSTYLE5
 70
     0
 41
0.65
 44
0.0
 45
0.000000001
 78
    12
 79
     3
140
0.625
144
0.8
147
0.15625
148
0.000000001
170
     1
172
     1
173
     1
178
     0
271
     6
272
     0
276
     2
277
     5
284
    12
289
     0
340
1CA
  0
DIMSTYLE
105
41D
102
{ACAD_REACTORS
330
41C
102
}
330
A
100
AcDbSymbolTableRecord
100
AcDbDimStyleTableRecord
  2
SLDDIMSTYLE6
 70
     0
 41
0.65
 44
0.0
 45
0.000000001
 78
    12
 79
     3
140
0.625
144
0.8
147
0.15625
148
0.000000001
170
     1
173
     1
178
     0
271
     6
272
     0
276
     2
277
     5
284
    12
340
1CA
  0
DIMSTYLE
105
4AE
102
{ACAD_REACTORS
330
4AD
102
}
330
A
100
AcDbSymbolTableRecord
100
AcDbDimStyleTableRecord
  2
SLDDIMSTYLE7
 70
     0
 41
0.65
 44
0.0
 45
0.000000001
 78
    12
 79
     3
140
0.625
144
0.8
147
0.15625
148
0.000000001
170
     1
172
     1
173
     1
178
     0
271
     0
272
     0
276
     2
277
     5
284
    12
289
     0
340
1CA
  0
ENDTAB
  0
TABLE
  2
BLOCK_RECORD
  5
1
330
0
100
AcDbSymbolTable
 70
    16
  0
BLOCK_RECORD
  5
1F
330
1
100
AcDbSymbolTableRecord
100
AcDbBlockTableRecord
  2
*Model_Space
340
22
  0
BLOCK_RECORD
  5
1B
330
1
100
AcDbSymbolTableRecord
100
AcDbBlockTableRecord
  2
*Paper_Space
340
1E
  0
BLOCK_RECORD
  5
23
330
1
100
AcDbSymbolTableRecord
100
AcDbBlockTableRecord
  2
*Paper_Space0
340
26
  0
BLOCK_RECORD
  5
6E
330
1
100
AcDbSymbolTableRecord
100
AcDbBlockTableRecord
  2
SW_BROKEN_VIEW_0
340
0
102
{BLKREFS
331
71
102
}
  0
BLOCK_RECORD
  5
1CC
330
1
100
AcDbSymbolTableRecord
100
AcDbBlockTableRecord
  2
_D
340
0
  0
BLOCK_RECORD
  5
1DE
330
1
100
AcDbSymbolTableRecord
100
AcDbBlockTableRecord
  2
_D_1
340
0
  0
BLOCK_RECORD
  5
1F3
330
1
100
AcDbSymbolTableRecord
100
AcDbBlockTableRecord
  2
_D_2
340
0
  0
BLOCK_RECORD
  5
204
330
1
100
AcDbSymbolTableRecord
100
AcDbBlockTableRecord
  2
_D_3
340
0
  0
BLOCK_RECORD
  5
219
330
1
100
AcDbSymbolTableRecord
100
AcDbBlockTableRecord
  2
_D_4
340
0
  0
BLOCK_RECORD
  5
22E
330
1
100
AcDbSymbolTableRecord
100
AcDbBlockTableRecord
  2
_D_5
340
0
  0
BLOCK_RECORD
  5
23F
330
1
100
AcDbSymbolTableRecord
100
AcDbBlockTableRecord
  2
_D_6
340
0
  0
BLOCK_RECORD
  5
252
330
1
100
AcDbSymbolTableRecord
100
AcDbBlockTableRecord
  2
_D_7
340
0
  0
BLOCK_RECORD
  5
266
330
1
100
AcDbSymbolTableRecord
100
AcDbBlockTableRecord
  2
_D_8
340
0
  0
BLOCK_RECORD
  5
3FE
330
1
100
AcDbSymbolTableRecord
100
AcDbBlockTableRecord
  2
_D_9
340
0
  0
BLOCK_RECORD
  5
41E
330
1
100
AcDbSymbolTableRecord
100
AcDbBlockTableRecord
  2
_D_10
340
0
  0
BLOCK_RECORD
  5
43E
330
1
100
AcDbSymbolTableRecord
100
AcDbBlockTableRecord
  2
_D_11
340
0
  0
BLOCK_RECORD
  5
48F
330
1
100
AcDbSymbolTableRecord
100
AcDbBlockTableRecord
  2
_D_12
340
0
  0
BLOCK_RECORD
  5
4AF
330
1
100
AcDbSymbolTableRecord
100
AcDbBlockTableRecord
  2
_D_13
340
0
  0
ENDTAB
  0
ENDSEC
  0
SECTION
  2
BLOCKS
  0
BLOCK
  5
20
330
1F
100
AcDbEntity
  8
0
100
AcDbBlockBegin
  2
*Model_Space
 70
     0
 10
0.0
 20
0.0
 30
0.0
  3
*Model_Space
  1

  0
ENDBLK
  5
21
330
1F
100
AcDbEntity
  8
0
100
AcDbBlockEnd
  0
BLOCK
  5
1C
330
1B
100
AcDbEntity
 67
     1
  8
0
100
AcDbBlockBegin
  2
*Paper_Space
 70
     0
 10
0.0
 20
0.0
 30
0.0
  3
*Paper_Space
  1

  0
ENDBLK
  5
1D
330
1B
100
AcDbEntity
 67
     1
  8
0
100
AcDbBlockEnd
  0
BLOCK
  5
24
330
23
100
AcDbEntity
  8
0
100
AcDbBlockBegin
  2
*Paper_Space0
 70
     0
 10
0.0
 20
0.0
 30
0.0
  3
*Paper_Space0
  1

  0
ENDBLK
  5
25
330
23
100
AcDbEntity
  8
0
100
AcDbBlockEnd
  0
BLOCK
  5
6F
330
6E
100
AcDbEntity
  8
0
100
AcDbBlockBegin
  2
SW_BROKEN_VIEW_0
 70
     0
 10
0.0
 20
0.0
 30
0.0
  3
SW_BROKEN_VIEW_0
  1

  0
ENDBLK
  5
70
330
6E
100
AcDbEntity
  8
0
100
AcDbBlockEnd
  0
BLOCK
  5
1CD
330
1CC
100
AcDbEntity
  8
0
100
AcDbBlockBegin
  2
_D
 70
     0
 10
0.0
 20
0.0
 30
0.0
  3
_D
  1

  0
SOLID
  5
1CF
330
1CC
100
AcDbEntity
  8
SLD-0
100
AcDbTrace
 10
11.8849748986
 20
41.034906708
 30
0.0
 11
11.7849748986
 21
40.384906708
 31
0.0
 12
11.9849748986
 22
40.384906708
 32
0.0
 13
11.9849748986
 23
40.384906708
 33
0.0
  0
SOLID
  5
1D0
330
1CC
100
AcDbEntity
  8
SLD-0
100
AcDbTrace
 10
11.8849748986
 20
22.2340291825
 30
0.0
 11
11.9849748986
 21
22.8840291825
 31
0.0
 12
11.7849748986
 22
22.8840291825
 32
0.0
 13
11.7849748986
 23
22.8840291825
 33
0.0
  0
LINE
  5
1D1
330
1CC
100
AcDbEntity
  8
SLD-0
100
AcDbLine
 10
23.2415724752
 20
41.034906708
 30
0.0
 11
11.2599748986
 21
41.034906708
 31
0.0
  0
LINE
  5
1D2
330
1CC
100
AcDbEntity
  8
SLD-0
100
AcDbLine
 10
19.5681926335
 20
22.2340291825
 30
0.0
 11
11.2599748986
 21
22.2340291825
 31
0.0
  0
LINE
  5
1D3
330
1CC
100
AcDbEntity
  8
SLD-0
100
AcDbLine
 10
11.8849748986
 20
41.034906708
 30
0.0
 11
11.8849748986
 21
34.4331373277
 31
0.0
  0
LINE
  5
1D4
330
1CC
100
AcDbEntity
  8
SLD-0
100
AcDbLine
 10
11.8849748986
 20
22.2340291825
 30
0.0
 11
11.8849748986
 21
25.7509801178
 31
0.0
  0
LINE
  5
1D5
330
1CC
100
AcDbEntity
  8
SLD-0
100
AcDbLine
 10
11.8849748986
 20
25.7509801178
 30
0.0
 11
12.1974748986
 21
25.9072301178
 31
0.0
  0
LINE
  5
1D6
330
1CC
100
AcDbEntity
  8
SLD-0
100
AcDbLine
 10
12.1974748986
 20
25.9072301178
 30
0.0
 11
11.5724748986
 21
26.2197301178
 31
0.0
  0
LINE
  5
1D7
330
1CC
100
AcDbEntity
  8
SLD-0
100
AcDbLine
 10
11.5724748986
 20
26.2197301178
 30
0.0
 11
11.8849748986
 21
26.3759801178
 31
0.0
  0
LINE
  5
1D8
330
1CC
100
AcDbEntity
  8
SLD-0
100
AcDbLine
 10
11.8849748986
 20
26.3759801178
 30
0.0
 11
11.8849748986
 21
31.4565746466
 31
0.0
  0
MTEXT
  5
1D9
330
1CC
100
AcDbEntity
  8
SLD-0
100
AcDbMText
 10
8.5459990374
 20
34.2392897104
 30
0.0
 40
0.625
 41
0.0
 71
     1
 72
     1
  1
SPECIFY LENGTH:
  7
SLDTEXTSTYLE0
 73
     1
 44
1.0
  0
MTEXT
  5
1DA
330
1CC
100
AcDbEntity
  8
SLD-0
100
AcDbMText
 10
9.5047666616
 20
33.2471021805
 30
0.0
 40
0.625
 41
0.0
 71
     1
 72
     1
  1
6" - 72" MAX
  7
SLDTEXTSTYLE0
 73
     1
 44
1.0
  0
MTEXT
  5
1DB
330
1CC
100
AcDbEntity
  8
SLD-0
100
AcDbMText
 10
8.0442633001
 20
32.2549146507
 30
0.0
 40
0.625
 41
0.0
 71
     1
 72
     1
  1
[152mm - 1829mm]
  7
SLDTEXTSTYLE0
 73
     1
 44
1.0
  0
ENDBLK
  5
1CE
330
1CC
100
AcDbEntity
  8
0
100
AcDbBlockEnd
  0
BLOCK
  5
1DF
330
1DE
100
AcDbEntity
  8
0
100
AcDbBlockBegin
  2
_D_1
 70
     0
 10
0.0
 20
0.0
 30
0.0
  3
_D_1
  1

  0
SOLID
  5
1E1
330
1DE
100
AcDbEntity
  8
SLD-0
100
AcDbTrace
 10
22.4665724752
 20
16.3260240969
 30
0.0
 11
21.8165724752
 21
16.4260240969
 31
0.0
 12
21.8165724752
 22
16.2260240969
 32
0.0
 13
21.8165724752
 23
16.2260240969
 33
0.0
  0
SOLID
  5
1E2
330
1DE
100
AcDbEntity
  8
SLD-0
100
AcDbTrace
 10
19.5165724752
 20
16.3260240969
 30
0.0
 11
20.1665724752
 21
16.2260240969
 31
0.0
 12
20.1665724752
 22
16.4260240969
 32
0.0
 13
20.1665724752
 23
16.4260240969
 33
0.0
  0
LINE
  5
1E3
330
1DE
100
AcDbEntity
  8
SLD-0
100
AcDbLine
 10
24.6605644067
 20
15.6932629255
 30
0.0
 11
24.4701347212
 21
15.6932629255
 31
0.0
  0
LINE
  5
1E4
330
1DE
100
AcDbEntity
  8
SLD-0
100
AcDbLine
 10
24.4701347212
 20
15.6932629255
 30
0.0
 11
24.4701347212
 21
14.7010753957
 31
0.0
  0
LINE
  5
1E5
330
1DE
100
AcDbEntity
  8
SLD-0
100
AcDbLine
 10
24.4701347212
 20
14.7010753957
 30
0.0
 11
24.6605644067
 21
14.7010753957
 31
0.0
  0
LINE
  5
1E6
330
1DE
100
AcDbEntity
  8
SLD-0
100
AcDbLine
 10
27.1466755703
 20
15.6932629255
 30
0.0
 11
27.3371052559
 21
15.6932629255
 31
0.0
  0
LINE
  5
1E7
330
1DE
100
AcDbEntity
  8
SLD-0
100
AcDbLine
 10
27.3371052559
 20
15.6932629255
 30
0.0
 11
27.3371052559
 21
14.7010753957
 31
0.0
  0
LINE
  5
1E8
330
1DE
100
AcDbEntity
  8
SLD-0
100
AcDbLine
 10
27.3371052559
 20
14.7010753957
 30
0.0
 11
27.1466755703
 21
14.7010753957
 31
0.0
  0
LINE
  5
1E9
330
1DE
100
AcDbEntity
  8
SLD-0
100
AcDbLine
 10
22.4665724752
 20
21.8140291825
 30
0.0
 11
22.4665724752
 21
15.7010240969
 31
0.0
  0
LINE
  5
1EA
330
1DE
100
AcDbEntity
  8
SLD-0
100
AcDbLine
 10
19.5165724752
 20
21.8140291825
 30
0.0
 11
19.5165724752
 21
15.7010240969
 31
0.0
  0
LINE
  5
1EB
330
1DE
100
AcDbEntity
  8
SLD-0
100
AcDbLine
 10
22.4665724752
 20
16.3260240969
 30
0.0
 11
23.9219770056
 21
16.3260240969
 31
0.0
  0
LINE
  5
1EC
330
1DE
100
AcDbEntity
  8
SLD-0
100
AcDbLine
 10
19.5165724752
 20
16.3260240969
 30
0.0
 11
22.4665724752
 21
16.3260240969
 31
0.0
  0
MTEXT
  5
1ED
330
1DE
100
AcDbEntity
  8
SLD-0
100
AcDbMText
 10
24.0488022572
 20
16.6281045694
 30
0.0
 40
0.625
 41
0.0
 71
     1
 72
     1
  1
 
  7
SLDTEXTSTYLE0
 73
     1
 44
1.0
  0
MTEXT
  5
1EE
330
1DE
100
AcDbEntity
  8
SLD-0
100
AcDbMText
 10
24.3224567751
 20
16.618555912
 30
0.0
 40
0.625
 41
0.0
 71
     1
 72
     1
  1
2 15/16"
  7
SLDTEXTSTYLE0
 73
     1
 44
1.0
  0
MTEXT
  5
1EF
330
1DE
100
AcDbEntity
  8
SLD-0
100
AcDbMText
 10
24.6605644067
 20
15.4994153081
 30
0.0
 40
0.625
 41
0.0
 71
     1
 72
     1
  1
75mm
  7
SLDTEXTSTYLE0
 73
     1
 44
1.0
  0
MTEXT
  5
1F0
330
1DE
100
AcDbEntity
  8
SLD-0
100
AcDbMText
 10
27.5275348039
 20
16.6281045694
 30
0.0
 40
0.625
 41
0.0
 71
     1
 72
     1
  1
 
  7
SLDTEXTSTYLE0
 73
     1
 44
1.0
  0
ENDBLK
  5
1E0
330
1DE
100
AcDbEntity
  8
0
100
AcDbBlockEnd
  0
BLOCK
  5
1F4
330
1F3
100
AcDbEntity
  8
0
100
AcDbBlockBegin
  2
_D_2
 70
     0
 10
0.0
 20
0.0
 30
0.0
  3
_D_2
  1

  0
SOLID
  5
1F6
330
1F3
100
AcDbEntity
  8
SLD-0
100
AcDbTrace
 10
20.5665724752
 20
12.4104603099
 30
0.0
 11
19.9165724752
 21
12.5104603099
 31
0.0
 12
19.9165724752
 22
12.3104603099
 32
0.0
 13
19.9165724752
 23
12.3104603099
 33
0.0
  0
SOLID
  5
1F7
330
1F3
100
AcDbEntity
  8
SLD-0
100
AcDbTrace
 10
21.4165724752
 20
12.4104603099
 30
0.0
 11
22.0665724752
 21
12.3104603099
 31
0.0
 12
22.0665724752
 22
12.5104603099
 32
0.0
 13
22.0665724752
 23
12.5104603099
 33
0.0
  0
LINE
  5
1F8
330
1F3
100
AcDbEntity
  8
SLD-0
100
AcDbLine
 10
24.6605643609
 20
11.7872476698
 30
0.0
 11
24.4701346754
 21
11.7872476698
 31
0.0
  0
LINE
  5
1F9
330
1F3
100
AcDbEntity
  8
SLD-0
100
AcDbLine
 10
24.4701346754
 20
11.7872476698
 30
0.0
 11
24.4701346754
 21
10.79506014
 31
0.0
  0
LINE
  5
1FA
330
1F3
100
AcDbEntity
  8
SLD-0
100
AcDbLine
 10
24.4701346754
 20
10.79506014
 30
0.0
 11
24.6605643609
 21
10.79506014
 31
0.0
  0
LINE
  5
1FB
330
1F3
100
AcDbEntity
  8
SLD-0
100
AcDbLine
 10
27.1466755245
 20
11.7872476698
 30
0.0
 11
27.33710521
 21
11.7872476698
 31
0.0
  0
LINE
  5
1FC
330
1F3
100
AcDbEntity
  8
SLD-0
100
AcDbLine
 10
27.33710521
 20
11.7872476698
 30
0.0
 11
27.33710521
 21
10.79506014
 31
0.0
  0
LINE
  5
1FD
330
1F3
100
AcDbEntity
  8
SLD-0
100
AcDbLine
 10
27.33710521
 20
10.79506014
 30
0.0
 11
27.1466755245
 21
10.79506014
 31
0.0
  0
LINE
  5
1FE
330
1F3
100
AcDbEntity
  8
SLD-0
100
AcDbLine
 10
20.5665724752
 20
12.4104603099
 30
0.0
 11
19.3165724752
 21
12.4104603099
 31
0.0
  0
LINE
  5
1FF
330
1F3
100
AcDbEntity
  8
SLD-0
100
AcDbLine
 10
21.4165724752
 20
12.4104603099
 30
0.0
 11
24.1528797382
 21
12.4104603099
 31
0.0
  0
MTEXT
  5
200
330
1F3
100
AcDbEntity
  8
SLD-0
100
AcDbMText
 10
24.659327471
 20
12.7125407022
 30
0.0
 40
0.625
 41
0.0
 71
     1
 72
     1
  1
%%c
  7
SLDTEXTSTYLE0
 73
     1
 44
1.0
  0
MTEXT
  5
201
330
1F3
100
AcDbEntity
  8
SLD-0
100
AcDbMText
 10
25.601905574
 20
12.7125407022
 30
0.0
 40
0.625
 41
0.0
 71
     1
 72
     1
  1
7/8"
  7
SLDTEXTSTYLE0
 73
     1
 44
1.0
  0
MTEXT
  5
202
330
1F3
100
AcDbEntity
  8
SLD-0
100
AcDbMText
 10
24.6605643609
 20
11.5934000525
 30
0.0
 40
0.625
 41
0.0
 71
     1
 72
     1
  1
22mm
  7
SLDTEXTSTYLE0
 73
     1
 44
1.0
  0
ENDBLK
  5
1F5
330
1F3
100
AcDbEntity
  8
0
100
AcDbBlockEnd
  0
BLOCK
  5
205
330
204
100
AcDbEntity
  8
0
100
AcDbBlockBegin
  2
_D_3
 70
     0
 10
0.0
 20
0.0
 30
0.0
  3
_D_3
  1

  0
SOLID
  5
207
330
204
100
AcDbEntity
  8
SLD-0
100
AcDbTrace
 10
25.9036198969
 20
22.2246599612
 30
0.0
 11
25.8036198969
 21
21.5746599612
 31
0.0
 12
26.0036198969
 22
21.5746599612
 32
0.0
 13
26.0036198969
 23
21.5746599612
 33
0.0
  0
SOLID
  5
208
330
204
100
AcDbEntity
  8
SLD-0
100
AcDbTrace
 10
25.9036198969
 20
19.9077791825
 30
0.0
 11
26.0036198969
 21
20.5577791825
 31
0.0
 12
25.8036198969
 22
20.5577791825
 32
0.0
 13
25.8036198969
 23
20.5577791825
 33
0.0
  0
LINE
  5
209
330
204
100
AcDbEntity
  8
SLD-0
100
AcDbLine
 10
28.1458578012
 20
18.7100550429
 30
0.0
 11
27.9554281156
 21
18.7100550429
 31
0.0
  0
LINE
  5
20A
330
204
100
AcDbEntity
  8
SLD-0
100
AcDbLine
 10
27.9554281156
 20
18.7100550429
 30
0.0
 11
27.9554281156
 21
17.7178675131
 31
0.0
  0
LINE
  5
20B
330
204
100
AcDbEntity
  8
SLD-0
100
AcDbLine
 10
27.9554281156
 20
17.7178675131
 30
0.0
 11
28.1458578012
 21
17.7178675131
 31
0.0
  0
LINE
  5
20C
330
204
100
AcDbEntity
  8
SLD-0
100
AcDbLine
 10
30.6319689648
 20
18.7100550429
 30
0.0
 11
30.8223986503
 21
18.7100550429
 31
0.0
  0
LINE
  5
20D
330
204
100
AcDbEntity
  8
SLD-0
100
AcDbLine
 10
30.8223986503
 20
18.7100550429
 30
0.0
 11
30.8223986503
 21
17.7178675131
 31
0.0
  0
LINE
  5
20E
330
204
100
AcDbEntity
  8
SLD-0
100
AcDbLine
 10
30.8223986503
 20
17.7178675131
 30
0.0
 11
30.6319689648
 21
17.7178675131
 31
0.0
  0
LINE
  5
20F
330
204
100
AcDbEntity
  8
SLD-0
100
AcDbLine
 10
22.4149523169
 20
22.2246599612
 30
0.0
 11
26.5286198969
 21
22.2246599612
 31
0.0
  0
LINE
  5
210
330
204
100
AcDbEntity
  8
SLD-0
100
AcDbLine
 10
22.5967309362
 20
19.9077791825
 30
0.0
 11
26.5286198969
 21
19.9077791825
 31
0.0
  0
LINE
  5
211
330
204
100
AcDbEntity
  8
SLD-0
100
AcDbLine
 10
27.1536198969
 20
19.3428162144
 30
0.0
 11
25.9036198969
 21
19.3428162144
 31
0.0
  0
LINE
  5
212
330
204
100
AcDbEntity
  8
SLD-0
100
AcDbLine
 10
25.9036198969
 20
19.3428162144
 30
0.0
 11
25.9036198969
 21
19.9077791825
 31
0.0
  0
LINE
  5
213
330
204
100
AcDbEntity
  8
SLD-0
100
AcDbLine
 10
25.9036198969
 20
22.2246599612
 30
0.0
 11
25.9036198969
 21
19.9077791825
 31
0.0
  0
MTEXT
  5
214
330
204
100
AcDbEntity
  8
SLD-0
100
AcDbMText
 10
27.5340956517
 20
19.6448966869
 30
0.0
 40
0.625
 41
0.0
 71
     1
 72
     1
  1
 
  7
SLDTEXTSTYLE0
 73
     1
 44
1.0
  0
MTEXT
  5
215
330
204
100
AcDbEntity
  8
SLD-0
100
AcDbMText
 10
28.0386529021
 20
19.6353480295
 30
0.0
 40
0.625
 41
0.0
 71
     1
 72
     1
  1
2 5/16"
  7
SLDTEXTSTYLE0
 73
     1
 44
1.0
  0
MTEXT
  5
216
330
204
100
AcDbEntity
  8
SLD-0
100
AcDbMText
 10
28.1458578012
 20
18.5162074256
 30
0.0
 40
0.625
 41
0.0
 71
     1
 72
     1
  1
59mm
  7
SLDTEXTSTYLE0
 73
     1
 44
1.0
  0
MTEXT
  5
217
330
204
100
AcDbEntity
  8
SLD-0
100
AcDbMText
 10
31.0128281984
 20
19.6448966869
 30
0.0
 40
0.625
 41
0.0
 71
     1
 72
     1
  1
 
  7
SLDTEXTSTYLE0
 73
     1
 44
1.0
  0
ENDBLK
  5
206
330
204
100
AcDbEntity
  8
0
100
AcDbBlockEnd
  0
BLOCK
  5
21A
330
219
100
AcDbEntity
  8
0
100
AcDbBlockBegin
  2
_D_4
 70
     0
 10
0.0
 20
0.0
 30
0.0
  3
_D_4
  1

  0
SOLID
  5
21C
330
219
100
AcDbEntity
  8
SLD-0
100
AcDbTrace
 10
11.8849748986
 20
11.4390291825
 30
0.0
 11
11.9849748986
 21
12.0890291825
 31
0.0
 12
11.7849748986
 22
12.0890291825
 32
0.0
 13
11.7849748986
 23
12.0890291825
 33
0.0
  0
SOLID
  5
21D
330
219
100
AcDbEntity
  8
SLD-0
100
AcDbTrace
 10
11.8849748986
 20
19.9390291825
 30
0.0
 11
11.7849748986
 21
19.2890291825
 31
0.0
 12
11.9849748986
 22
19.2890291825
 32
0.0
 13
11.9849748986
 23
19.2890291825
 33
0.0
  0
LINE
  5
21E
330
219
100
AcDbEntity
  8
SLD-0
100
AcDbLine
 10
10.4110166759
 20
16.01154926
 30
0.0
 11
10.2205869903
 21
16.01154926
 31
0.0
  0
LINE
  5
21F
330
219
100
AcDbEntity
  8
SLD-0
100
AcDbLine
 10
10.2205869903
 20
16.01154926
 30
0.0
 11
10.2205869903
 21
15.0193617301
 31
0.0
  0
LINE
  5
220
330
219
100
AcDbEntity
  8
SLD-0
100
AcDbLine
 10
10.2205869903
 20
15.0193617301
 30
0.0
 11
10.4110166759
 21
15.0193617301
 31
0.0
  0
LINE
  5
221
330
219
100
AcDbEntity
  8
SLD-0
100
AcDbLine
 10
13.3589333046
 20
16.01154926
 30
0.0
 11
13.5493629902
 21
16.01154926
 31
0.0
  0
LINE
  5
222
330
219
100
AcDbEntity
  8
SLD-0
100
AcDbLine
 10
13.5493629902
 20
16.01154926
 30
0.0
 11
13.5493629902
 21
15.0193617301
 31
0.0
  0
LINE
  5
223
330
219
100
AcDbEntity
  8
SLD-0
100
AcDbLine
 10
13.5493629902
 20
15.0193617301
 30
0.0
 11
13.3589333046
 21
15.0193617301
 31
0.0
  0
LINE
  5
224
330
219
100
AcDbEntity
  8
SLD-0
100
AcDbLine
 10
20.3165724752
 20
11.4390291825
 30
0.0
 11
11.2599748986
 21
11.4390291825
 31
0.0
  0
LINE
  5
225
330
219
100
AcDbEntity
  8
SLD-0
100
AcDbLine
 10
20.3165724752
 20
19.9390291825
 30
0.0
 11
11.2599748986
 21
19.9390291825
 31
0.0
  0
LINE
  5
226
330
219
100
AcDbEntity
  8
SLD-0
100
AcDbLine
 10
11.8849748986
 20
11.4390291825
 30
0.0
 11
11.8849748986
 21
14.892408805
 31
0.0
  0
LINE
  5
227
330
219
100
AcDbEntity
  8
SLD-0
100
AcDbLine
 10
11.8849748986
 20
19.9390291825
 30
0.0
 11
11.8849748986
 21
17.1402385212
 31
0.0
  0
MTEXT
  5
228
330
219
100
AcDbEntity
  8
SLD-0
100
AcDbMText
 10
9.7992545263
 20
16.9463909039
 30
0.0
 40
0.625
 41
0.0
 71
     1
 72
     1
  1
 
  7
SLDTEXTSTYLE0
 73
     1
 44
1.0
  0
MTEXT
  5
229
330
219
100
AcDbEntity
  8
SLD-0
100
AcDbMText
 10
10.7656173337
 20
16.9368422465
 30
0.0
 40
0.625
 41
0.0
 71
     1
 72
     1
  1
8 1/2"
  7
SLDTEXTSTYLE0
 73
     1
 44
1.0
  0
MTEXT
  5
22A
330
219
100
AcDbEntity
  8
SLD-0
100
AcDbMText
 10
10.4110166759
 20
15.8177016426
 30
0.0
 40
0.625
 41
0.0
 71
     1
 72
     1
  1
216mm
  7
SLDTEXTSTYLE0
 73
     1
 44
1.0
  0
MTEXT
  5
22B
330
219
100
AcDbEntity
  8
SLD-0
100
AcDbMText
 10
13.7397925382
 20
16.9463909039
 30
0.0
 40
0.625
 41
0.0
 71
     1
 72
     1
  1
 
  7
SLDTEXTSTYLE0
 73
     1
 44
1.0
  0
ENDBLK
  5
21B
330
219
100
AcDbEntity
  8
0
100
AcDbBlockEnd
  0
BLOCK
  5
22F
330
22E
100
AcDbEntity
  8
0
100
AcDbBlockBegin
  2
_D_5
 70
     0
 10
0.0
 20
0.0
 30
0.0
  3
_D_5
  1

  0
SOLID
  5
231
330
22E
100
AcDbEntity
  8
SLD-0
100
AcDbTrace
 10
21.4915724752
 20
29.7644118051
 30
0.0
 11
22.1415724752
 21
29.6644118051
 31
0.0
 12
22.1415724752
 22
29.8644118051
 32
0.0
 13
22.1415724752
 23
29.8644118051
 33
0.0
  0
SOLID
  5
232
330
22E
100
AcDbEntity
  8
SLD-0
100
AcDbTrace
 10
20.4915724752
 20
29.7644118051
 30
0.0
 11
19.8415724752
 21
29.8644118051
 31
0.0
 12
19.8415724752
 22
29.6644118051
 32
0.0
 13
19.8415724752
 23
29.6644118051
 33
0.0
  0
LINE
  5
233
330
22E
100
AcDbEntity
  8
SLD-0
100
AcDbLine
 10
16.3050130022
 20
29.141199165
 30
0.0
 11
16.1145833167
 21
29.141199165
 31
0.0
  0
LINE
  5
234
330
22E
100
AcDbEntity
  8
SLD-0
100
AcDbLine
 10
16.1145833167
 20
29.141199165
 30
0.0
 11
16.1145833167
 21
28.1490116352
 31
0.0
  0
LINE
  5
235
330
22E
100
AcDbEntity
  8
SLD-0
100
AcDbLine
 10
16.1145833167
 20
28.1490116352
 30
0.0
 11
16.3050130022
 21
28.1490116352
 31
0.0
  0
LINE
  5
236
330
22E
100
AcDbEntity
  8
SLD-0
100
AcDbLine
 10
18.7911241658
 20
29.141199165
 30
0.0
 11
18.9815538513
 21
29.141199165
 31
0.0
  0
LINE
  5
237
330
22E
100
AcDbEntity
  8
SLD-0
100
AcDbLine
 10
18.9815538513
 20
29.141199165
 30
0.0
 11
18.9815538513
 21
28.1490116352
 31
0.0
  0
LINE
  5
238
330
22E
100
AcDbEntity
  8
SLD-0
100
AcDbLine
 10
18.9815538513
 20
28.1490116352
 30
0.0
 11
18.7911241658
 21
28.1490116352
 31
0.0
  0
LINE
  5
239
330
22E
100
AcDbEntity
  8
SLD-0
100
AcDbLine
 10
21.4915724752
 20
29.7644118051
 30
0.0
 11
22.7415724752
 21
29.7644118051
 31
0.0
  0
LINE
  5
23A
330
22E
100
AcDbEntity
  8
SLD-0
100
AcDbLine
 10
20.4915724752
 20
29.7644118051
 30
0.0
 11
19.2988086968
 21
29.7644118051
 31
0.0
  0
MTEXT
  5
23B
330
22E
100
AcDbEntity
  8
SLD-0
100
AcDbMText
 10
16.7169704808
 20
30.0664921974
 30
0.0
 40
0.625
 41
0.0
 71
     1
 72
     1
  1
%%c
  7
SLDTEXTSTYLE0
 73
     1
 44
1.0
  0
MTEXT
  5
23C
330
22E
100
AcDbEntity
  8
SLD-0
100
AcDbMText
 10
17.6595485837
 20
30.0664921974
 30
0.0
 40
0.625
 41
0.0
 71
     1
 72
     1
  1
1"
  7
SLDTEXTSTYLE0
 73
     1
 44
1.0
  0
MTEXT
  5
23D
330
22E
100
AcDbEntity
  8
SLD-0
100
AcDbMText
 10
16.3050130022
 20
28.9473515477
 30
0.0
 40
0.625
 41
0.0
 71
     1
 72
     1
  1
25mm
  7
SLDTEXTSTYLE0
 73
     1
 44
1.0
  0
ENDBLK
  5
230
330
22E
100
AcDbEntity
  8
0
100
AcDbBlockEnd
  0
BLOCK
  5
240
330
23F
100
AcDbEntity
  8
0
100
AcDbBlockBegin
  2
_D_6
 70
     0
 10
0.0
 20
0.0
 30
0.0
  3
_D_6
  1

  0
SOLID
  5
242
330
23F
100
AcDbEntity
  8
SLD-0
100
AcDbTrace
 10
24.8815724752
 20
24.6712469882
 30
0.0
 11
25.5315724752
 21
24.5712469882
 31
0.0
 12
25.5315724752
 22
24.7712469882
 32
0.0
 13
25.5315724752
 23
24.7712469882
 33
0.0
  0
SOLID
  5
243
330
23F
100
AcDbEntity
  8
SLD-0
100
AcDbTrace
 10
27.1015724752
 20
24.6712469882
 30
0.0
 11
26.4515724752
 21
24.7712469882
 31
0.0
 12
26.4515724752
 22
24.5712469882
 32
0.0
 13
26.4515724752
 23
24.5712469882
 33
0.0
  0
LINE
  5
244
330
23F
100
AcDbEntity
  8
SLD-0
100
AcDbLine
 10
29.8591184511
 20
24.6712468965
 30
0.0
 11
29.6686887656
 21
24.6712468965
 31
0.0
  0
LINE
  5
245
330
23F
100
AcDbEntity
  8
SLD-0
100
AcDbLine
 10
29.6686887656
 20
24.6712468965
 30
0.0
 11
29.6686887656
 21
23.6790593667
 31
0.0
  0
LINE
  5
246
330
23F
100
AcDbEntity
  8
SLD-0
100
AcDbLine
 10
29.6686887656
 20
23.6790593667
 30
0.0
 11
29.8591184511
 21
23.6790593667
 31
0.0
  0
LINE
  5
247
330
23F
100
AcDbEntity
  8
SLD-0
100
AcDbLine
 10
32.3452296147
 20
24.6712468965
 30
0.0
 11
32.5356593003
 21
24.6712468965
 31
0.0
  0
LINE
  5
248
330
23F
100
AcDbEntity
  8
SLD-0
100
AcDbLine
 10
32.5356593003
 20
24.6712468965
 30
0.0
 11
32.5356593003
 21
23.6790593667
 31
0.0
  0
LINE
  5
249
330
23F
100
AcDbEntity
  8
SLD-0
100
AcDbLine
 10
32.5356593003
 20
23.6790593667
 30
0.0
 11
32.3452296147
 21
23.6790593667
 31
0.0
  0
LINE
  5
24A
330
23F
100
AcDbEntity
  8
SLD-0
100
AcDbLine
 10
24.8815724752
 20
32.244906708
 30
0.0
 11
24.8815724752
 21
24.0462469882
 31
0.0
  0
LINE
  5
24B
330
23F
100
AcDbEntity
  8
SLD-0
100
AcDbLine
 10
27.1015724752
 20
32.244906708
 30
0.0
 11
27.1015724752
 21
24.0462469882
 31
0.0
  0
LINE
  5
24C
330
23F
100
AcDbEntity
  8
SLD-0
100
AcDbLine
 10
24.8815724752
 20
24.6712469882
 30
0.0
 11
27.1015724752
 21
24.6712469882
 31
0.0
  0
LINE
  5
24D
330
23F
100
AcDbEntity
  8
SLD-0
100
AcDbLine
 10
27.1015724752
 20
24.6712469882
 30
0.0
 11
29.3514338284
 21
24.6712469882
 31
0.0
  0
MTEXT
  5
24E
330
23F
100
AcDbEntity
  8
SLD-0
100
AcDbMText
 10
29.511527279
 20
25.5965399289
 30
0.0
 40
0.625
 41
0.0
 71
     1
 72
     1
  1
%%c
  7
SLDTEXTSTYLE0
 73
     1
 44
1.0
  0
MTEXT
  5
24F
330
23F
100
AcDbEntity
  8
SLD-0
100
AcDbMText
 10
30.454105382
 20
25.5965399289
 30
0.0
 40
0.625
 41
0.0
 71
     1
 72
     1
  1
2 1/4"
  7
SLDTEXTSTYLE0
 73
     1
 44
1.0
  0
MTEXT
  5
250
330
23F
100
AcDbEntity
  8
SLD-0
100
AcDbMText
 10
29.8591184511
 20
24.4773992792
 30
0.0
 40
0.625
 41
0.0
 71
     1
 72
     1
  1
56mm
  7
SLDTEXTSTYLE0
 73
     1
 44
1.0
  0
ENDBLK
  5
241
330
23F
100
AcDbEntity
  8
0
100
AcDbBlockEnd
  0
BLOCK
  5
253
330
252
100
AcDbEntity
  8
0
100
AcDbBlockBegin
  2
_D_7
 70
     0
 10
0.0
 20
0.0
 30
0.0
  3
_D_7
  1

  0
SOLID
  5
255
330
252
100
AcDbEntity
  8
SLD-0
100
AcDbTrace
 10
31.1021739871
 20
34.904906708
 30
0.0
 11
31.0021739871
 21
34.254906708
 31
0.0
 12
31.2021739871
 22
34.254906708
 32
0.0
 13
31.2021739871
 23
34.254906708
 33
0.0
  0
SOLID
  5
256
330
252
100
AcDbEntity
  8
SLD-0
100
AcDbTrace
 10
31.1021739871
 20
27.739906708
 30
0.0
 11
31.2021739871
 21
28.389906708
 31
0.0
 12
31.0021739871
 22
28.389906708
 32
0.0
 13
31.0021739871
 23
28.389906708
 33
0.0
  0
LINE
  5
257
330
252
100
AcDbEntity
  8
SLD-0
100
AcDbLine
 10
29.6282157644
 20
31.3176323048
 30
0.0
 11
29.4377860788
 21
31.3176323048
 31
0.0
  0
LINE
  5
258
330
252
100
AcDbEntity
  8
SLD-0
100
AcDbLine
 10
29.4377860788
 20
31.3176323048
 30
0.0
 11
29.4377860788
 21
30.325444775
 31
0.0
  0
LINE
  5
259
330
252
100
AcDbEntity
  8
SLD-0
100
AcDbLine
 10
29.4377860788
 20
30.325444775
 30
0.0
 11
29.6282157644
 21
30.325444775
 31
0.0
  0
LINE
  5
25A
330
252
100
AcDbEntity
  8
SLD-0
100
AcDbLine
 10
32.5761323931
 20
31.3176323048
 30
0.0
 11
32.7665620787
 21
31.3176323048
 31
0.0
  0
LINE
  5
25B
330
252
100
AcDbEntity
  8
SLD-0
100
AcDbLine
 10
32.7665620787
 20
31.3176323048
 30
0.0
 11
32.7665620787
 21
30.325444775
 31
0.0
  0
LINE
  5
25C
330
252
100
AcDbEntity
  8
SLD-0
100
AcDbLine
 10
32.7665620787
 20
30.325444775
 30
0.0
 11
32.5761323931
 21
30.325444775
 31
0.0
  0
LINE
  5
25D
330
252
100
AcDbEntity
  8
SLD-0
100
AcDbLine
 10
26.2415724752
 20
34.904906708
 30
0.0
 11
31.7271739871
 21
34.904906708
 31
0.0
  0
LINE
  5
25E
330
252
100
AcDbEntity
  8
SLD-0
100
AcDbLine
 10
27.3515724752
 20
27.739906708
 30
0.0
 11
31.7271739871
 21
27.739906708
 31
0.0
  0
LINE
  5
25F
330
252
100
AcDbEntity
  8
SLD-0
100
AcDbLine
 10
31.1021739871
 20
34.904906708
 30
0.0
 11
31.1021739871
 21
32.4463215661
 31
0.0
  0
LINE
  5
260
330
252
100
AcDbEntity
  8
SLD-0
100
AcDbLine
 10
31.1021739871
 20
27.739906708
 30
0.0
 11
31.1021739871
 21
30.1984918499
 31
0.0
  0
MTEXT
  5
261
330
252
100
AcDbEntity
  8
SLD-0
100
AcDbMText
 10
29.0164536148
 20
32.2524739487
 30
0.0
 40
0.625
 41
0.0
 71
     1
 72
     1
  1
 
  7
SLDTEXTSTYLE0
 73
     1
 44
1.0
  0
MTEXT
  5
262
330
252
100
AcDbEntity
  8
SLD-0
100
AcDbMText
 10
29.7519135979
 20
32.2429252913
 30
0.0
 40
0.625
 41
0.0
 71
     1
 72
     1
  1
7 3/16"
  7
SLDTEXTSTYLE0
 73
     1
 44
1.0
  0
MTEXT
  5
263
330
252
100
AcDbEntity
  8
SLD-0
100
AcDbMText
 10
29.6282157644
 20
31.1237846875
 30
0.0
 40
0.625
 41
0.0
 71
     1
 72
     1
  1
182mm
  7
SLDTEXTSTYLE0
 73
     1
 44
1.0
  0
MTEXT
  5
264
330
252
100
AcDbEntity
  8
SLD-0
100
AcDbMText
 10
32.9569916267
 20
32.2524739487
 30
0.0
 40
0.625
 41
0.0
 71
     1
 72
     1
  1
 
  7
SLDTEXTSTYLE0
 73
     1
 44
1.0
  0
ENDBLK
  5
254
330
252
100
AcDbEntity
  8
0
100
AcDbBlockEnd
  0
BLOCK
  5
267
330
266
100
AcDbEntity
  8
0
100
AcDbBlockBegin
  2
_D_8
 70
     0
 10
0.0
 20
0.0
 30
0.0
  3
_D_8
  1

  0
SOLID
  5
269
330
266
100
AcDbEntity
  8
SLD-0
100
AcDbTrace
 10
31.1021739871
 20
34.904906708
 30
0.0
 11
31.0021739871
 21
34.254906708
 31
0.0
 12
31.2021739871
 22
34.254906708
 32
0.0
 13
31.2021739871
 23
34.254906708
 33
0.0
  0
SOLID
  5
26A
330
266
100
AcDbEntity
  8
SLD-0
100
AcDbTrace
 10
31.1021739871
 20
38.034906708
 30
0.0
 11
31.2021739871
 21
38.684906708
 31
0.0
 12
31.0021739871
 22
38.684906708
 32
0.0
 13
31.0021739871
 23
38.684906708
 33
0.0
  0
LINE
  5
26B
330
266
100
AcDbEntity
  8
SLD-0
100
AcDbLine
 10
29.859118497
 20
36.4651323048
 30
0.0
 11
29.6686888114
 21
36.4651323048
 31
0.0
  0
LINE
  5
26C
330
266
100
AcDbEntity
  8
SLD-0
100
AcDbLine
 10
29.6686888114
 20
36.4651323048
 30
0.0
 11
29.6686888114
 21
35.472944775
 31
0.0
  0
LINE
  5
26D
330
266
100
AcDbEntity
  8
SLD-0
100
AcDbLine
 10
29.6686888114
 20
35.472944775
 30
0.0
 11
29.859118497
 21
35.472944775
 31
0.0
  0
LINE
  5
26E
330
266
100
AcDbEntity
  8
SLD-0
100
AcDbLine
 10
32.3452296605
 20
36.4651323048
 30
0.0
 11
32.5356593461
 21
36.4651323048
 31
0.0
  0
LINE
  5
26F
330
266
100
AcDbEntity
  8
SLD-0
100
AcDbLine
 10
32.5356593461
 20
36.4651323048
 30
0.0
 11
32.5356593461
 21
35.472944775
 31
0.0
  0
LINE
  5
270
330
266
100
AcDbEntity
  8
SLD-0
100
AcDbLine
 10
32.5356593461
 20
35.472944775
 30
0.0
 11
32.3452296605
 21
35.472944775
 31
0.0
  0
LINE
  5
271
330
266
100
AcDbEntity
  8
SLD-0
100
AcDbLine
 10
26.2415724752
 20
34.904906708
 30
0.0
 11
31.7271739871
 21
34.904906708
 31
0.0
  0
LINE
  5
272
330
266
100
AcDbEntity
  8
SLD-0
100
AcDbLine
 10
26.7415724752
 20
38.034906708
 30
0.0
 11
31.7271739871
 21
38.034906708
 31
0.0
  0
LINE
  5
273
330
266
100
AcDbEntity
  8
SLD-0
100
AcDbLine
 10
31.1021739871
 20
34.904906708
 30
0.0
 11
31.1021739871
 21
33.654906708
 31
0.0
  0
LINE
  5
274
330
266
100
AcDbEntity
  8
SLD-0
100
AcDbLine
 10
31.1021739871
 20
38.034906708
 30
0.0
 11
31.1021739871
 21
39.284906708
 31
0.0
  0
MTEXT
  5
275
330
266
100
AcDbEntity
  8
SLD-0
100
AcDbMText
 10
29.2473563474
 20
37.3999739487
 30
0.0
 40
0.625
 41
0.0
 71
     1
 72
     1
  1
 
  7
SLDTEXTSTYLE0
 73
     1
 44
1.0
  0
MTEXT
  5
276
330
266
100
AcDbEntity
  8
SLD-0
100
AcDbMText
 10
29.9828164222
 20
37.3904252913
 30
0.0
 40
0.625
 41
0.0
 71
     1
 72
     1
  1
3 1/8"
  7
SLDTEXTSTYLE0
 73
     1
 44
1.0
  0
MTEXT
  5
277
330
266
100
AcDbEntity
  8
SLD-0
100
AcDbMText
 10
29.859118497
 20
36.2712846875
 30
0.0
 40
0.625
 41
0.0
 71
     1
 72
     1
  1
80mm
  7
SLDTEXTSTYLE0
 73
     1
 44
1.0
  0
MTEXT
  5
278
330
266
100
AcDbEntity
  8
SLD-0
100
AcDbMText
 10
32.7260888941
 20
37.3999739487
 30
0.0
 40
0.625
 41
0.0
 71
     1
 72
     1
  1
 
  7
SLDTEXTSTYLE0
 73
     1
 44
1.0
  0
ENDBLK
  5
268
330
266
100
AcDbEntity
  8
0
100
AcDbBlockEnd
  0
BLOCK
  5
3FF
330
3FE
100
AcDbEntity
  8
0
100
AcDbBlockBegin
  2
_D_9
 70
     0
 10
0.0
 20
0.0
 30
0.0
  3
_D_9
  1

  0
SOLID
  5
401
330
3FE
100
AcDbEntity
  8
SLD-0
100
AcDbTrace
 10
22.3544853403
 20
5.6545338334
 30
0.0
 11
22.4544853403
 21
6.3045338334
 31
0.0
 12
22.2544853403
 22
6.3045338334
 32
0.0
 13
22.2544853403
 23
6.3045338334
 33
0.0
  0
SOLID
  5
402
330
3FE
100
AcDbEntity
  8
SLD-0
100
AcDbTrace
 10
22.3544853403
 20
2.4670338334
 30
0.0
 11
22.2544853403
 21
1.8170338334
 31
0.0
 12
22.4544853403
 22
1.8170338334
 32
0.0
 13
22.4544853403
 23
1.8170338334
 33
0.0
  0
LINE
  5
403
330
3FE
100
AcDbEntity
  8
SLD-0
100
AcDbLine
 10
21.1114298501
 20
3.9876949245
 30
0.0
 11
20.9210001646
 21
3.9876949245
 31
0.0
  0
LINE
  5
404
330
3FE
100
AcDbEntity
  8
SLD-0
100
AcDbLine
 10
20.9210001646
 20
3.9876949245
 30
0.0
 11
20.9210001646
 21
2.9955073947
 31
0.0
  0
LINE
  5
405
330
3FE
100
AcDbEntity
  8
SLD-0
100
AcDbLine
 10
20.9210001646
 20
2.9955073947
 30
0.0
 11
21.1114298501
 21
2.9955073947
 31
0.0
  0
LINE
  5
406
330
3FE
100
AcDbEntity
  8
SLD-0
100
AcDbLine
 10
23.5975410137
 20
3.9876949245
 30
0.0
 11
23.7879706993
 21
3.9876949245
 31
0.0
  0
LINE
  5
407
330
3FE
100
AcDbEntity
  8
SLD-0
100
AcDbLine
 10
23.7879706993
 20
3.9876949245
 30
0.0
 11
23.7879706993
 21
2.9955073947
 31
0.0
  0
LINE
  5
408
330
3FE
100
AcDbEntity
  8
SLD-0
100
AcDbLine
 10
23.7879706993
 20
2.9955073947
 30
0.0
 11
23.5975410137
 21
2.9955073947
 31
0.0
  0
LINE
  5
409
330
3FE
100
AcDbEntity
  8
SLD-0
100
AcDbLine
 10
25.618701976
 20
5.6545338334
 30
0.0
 11
21.7294853403
 21
5.6545338334
 31
0.0
  0
LINE
  5
40A
330
3FE
100
AcDbEntity
  8
SLD-0
100
AcDbLine
 10
25.487451976
 20
2.4670338334
 30
0.0
 11
21.7294853403
 21
2.4670338334
 31
0.0
  0
LINE
  5
40B
330
3FE
100
AcDbEntity
  8
SLD-0
100
AcDbLine
 10
22.3544853403
 20
5.6545338334
 30
0.0
 11
22.3544853403
 21
6.9045338334
 31
0.0
  0
LINE
  5
40C
330
3FE
100
AcDbEntity
  8
SLD-0
100
AcDbLine
 10
22.3544853403
 20
2.4670338334
 30
0.0
 11
22.3544853403
 21
1.2170338334
 31
0.0
  0
MTEXT
  5
40D
330
3FE
100
AcDbEntity
  8
SLD-0
100
AcDbMText
 10
20.4996677006
 20
4.9225365685
 30
0.0
 40
0.625
 41
0.0
 71
     1
 72
     1
  1
 
  7
SLDTEXTSTYLE0
 73
     1
 44
1.0
  0
MTEXT
  5
40E
330
3FE
100
AcDbEntity
  8
SLD-0
100
AcDbMText
 10
21.0042249511
 20
4.9129879111
 30
0.0
 40
0.625
 41
0.0
 71
     1
 72
     1
  1
2 9/16"
  7
SLDTEXTSTYLE0
 73
     1
 44
1.0
  0
MTEXT
  5
40F
330
3FE
100
AcDbEntity
  8
SLD-0
100
AcDbMText
 10
21.1114298501
 20
3.7938473072
 30
0.0
 40
0.625
 41
0.0
 71
     1
 72
     1
  1
65mm
  7
SLDTEXTSTYLE0
 73
     1
 44
1.0
  0
MTEXT
  5
410
330
3FE
100
AcDbEntity
  8
SLD-0
100
AcDbMText
 10
23.9784002473
 20
4.9225365685
 30
0.0
 40
0.625
 41
0.0
 71
     1
 72
     1
  1
 
  7
SLDTEXTSTYLE0
 73
     1
 44
1.0
  0
ENDBLK
  5
400
330
3FE
100
AcDbEntity
  8
0
100
AcDbBlockEnd
  0
BLOCK
  5
41F
330
41E
100
AcDbEntity
  8
0
100
AcDbBlockBegin
  2
_D_10
 70
     0
 10
0.0
 20
0.0
 30
0.0
  3
_D_10
  1

  0
SOLID
  5
421
330
41E
100
AcDbEntity
  8
SLD-0
100
AcDbTrace
 10
12.2166886928
 20
8.3982838334
 30
0.0
 11
12.1166886928
 21
7.7482838334
 31
0.0
 12
12.3166886928
 22
7.7482838334
 32
0.0
 13
12.3166886928
 23
7.7482838334
 33
0.0
  0
SOLID
  5
422
330
41E
100
AcDbEntity
  8
SLD-0
100
AcDbTrace
 10
12.2166886928
 20
2.4670338334
 30
0.0
 11
12.3166886928
 21
3.1170338334
 31
0.0
 12
12.1166886928
 22
3.1170338334
 32
0.0
 13
12.1166886928
 23
3.1170338334
 33
0.0
  0
LINE
  5
423
330
41E
100
AcDbEntity
  8
SLD-0
100
AcDbLine
 10
10.7427304701
 20
4.9282038832
 30
0.0
 11
10.5523007846
 21
4.9282038832
 31
0.0
  0
LINE
  5
424
330
41E
100
AcDbEntity
  8
SLD-0
100
AcDbLine
 10
10.5523007846
 20
4.9282038832
 30
0.0
 11
10.5523007846
 21
3.9360163534
 31
0.0
  0
LINE
  5
425
330
41E
100
AcDbEntity
  8
SLD-0
100
AcDbLine
 10
10.5523007846
 20
3.9360163534
 30
0.0
 11
10.7427304701
 21
3.9360163534
 31
0.0
  0
LINE
  5
426
330
41E
100
AcDbEntity
  8
SLD-0
100
AcDbLine
 10
13.6906470989
 20
4.9282038832
 30
0.0
 11
13.8810767844
 21
4.9282038832
 31
0.0
  0
LINE
  5
427
330
41E
100
AcDbEntity
  8
SLD-0
100
AcDbLine
 10
13.8810767844
 20
4.9282038832
 30
0.0
 11
13.8810767844
 21
3.9360163534
 31
0.0
  0
LINE
  5
428
330
41E
100
AcDbEntity
  8
SLD-0
100
AcDbLine
 10
13.8810767844
 20
3.9360163534
 30
0.0
 11
13.6906470989
 21
3.9360163534
 31
0.0
  0
LINE
  5
429
330
41E
100
AcDbEntity
  8
SLD-0
100
AcDbLine
 10
14.7148882259
 20
8.3982838334
 30
0.0
 11
11.5916886928
 21
8.3982838334
 31
0.0
  0
LINE
  5
42A
330
41E
100
AcDbEntity
  8
SLD-0
100
AcDbLine
 10
14.7148882259
 20
2.4670338334
 30
0.0
 11
11.5916886928
 21
2.4670338334
 31
0.0
  0
LINE
  5
42B
330
41E
100
AcDbEntity
  8
SLD-0
100
AcDbLine
 10
12.2166886928
 20
8.3982838334
 30
0.0
 11
12.2166886928
 21
6.0568931445
 31
0.0
  0
LINE
  5
42C
330
41E
100
AcDbEntity
  8
SLD-0
100
AcDbLine
 10
12.2166886928
 20
2.4670338334
 30
0.0
 11
12.2166886928
 21
3.8090634283
 31
0.0
  0
MTEXT
  5
42D
330
41E
100
AcDbEntity
  8
SLD-0
100
AcDbMText
 10
10.1309683206
 20
5.8630455272
 30
0.0
 40
0.625
 41
0.0
 71
     1
 72
     1
  1
 
  7
SLDTEXTSTYLE0
 73
     1
 44
1.0
  0
MTEXT
  5
42E
330
41E
100
AcDbEntity
  8
SLD-0
100
AcDbMText
 10
11.0973311279
 20
5.8534968698
 30
0.0
 40
0.625
 41
0.0
 71
     1
 72
     1
  1
4 3/4"
  7
SLDTEXTSTYLE0
 73
     1
 44
1.0
  0
MTEXT
  5
42F
330
41E
100
AcDbEntity
  8
SLD-0
100
AcDbMText
 10
10.7427304701
 20
4.7343562659
 30
0.0
 40
0.625
 41
0.0
 71
     1
 72
     1
  1
121mm
  7
SLDTEXTSTYLE0
 73
     1
 44
1.0
  0
MTEXT
  5
430
330
41E
100
AcDbEntity
  8
SLD-0
100
AcDbMText
 10
14.0715063325
 20
5.8630455272
 30
0.0
 40
0.625
 41
0.0
 71
     1
 72
     1
  1
 
  7
SLDTEXTSTYLE0
 73
     1
 44
1.0
  0
ENDBLK
  5
420
330
41E
100
AcDbEntity
  8
0
100
AcDbBlockEnd
  0
BLOCK
  5
43F
330
43E
100
AcDbEntity
  8
0
100
AcDbBlockBegin
  2
_D_11
 70
     0
 10
0.0
 20
0.0
 30
0.0
  3
_D_11
  1

  0
SOLID
  5
441
330
43E
100
AcDbEntity
  8
SLD-0
100
AcDbTrace
 10
33.2442710813
 20
2.4670338334
 30
0.0
 11
33.1442710813
 21
1.8170338334
 31
0.0
 12
33.3442710813
 22
1.8170338334
 32
0.0
 13
33.3442710813
 23
1.8170338334
 33
0.0
  0
SOLID
  5
442
330
43E
100
AcDbEntity
  8
SLD-0
100
AcDbTrace
 10
33.2442710813
 20
4.5295338334
 30
0.0
 11
33.3442710813
 21
5.1795338334
 31
0.0
 12
33.1442710813
 22
5.1795338334
 32
0.0
 13
33.1442710813
 23
5.1795338334
 33
0.0
  0
LINE
  5
443
330
43E
100
AcDbEntity
  8
SLD-0
100
AcDbLine
 10
32.0012155912
 20
3.4955075006
 30
0.0
 11
31.8107859056
 21
3.4955075006
 31
0.0
  0
LINE
  5
444
330
43E
100
AcDbEntity
  8
SLD-0
100
AcDbLine
 10
31.8107859056
 20
3.4955075006
 30
0.0
 11
31.8107859056
 21
2.5033199708
 31
0.0
  0
LINE
  5
445
330
43E
100
AcDbEntity
  8
SLD-0
100
AcDbLine
 10
31.8107859056
 20
2.5033199708
 30
0.0
 11
32.0012155912
 21
2.5033199708
 31
0.0
  0
LINE
  5
446
330
43E
100
AcDbEntity
  8
SLD-0
100
AcDbLine
 10
34.4873267548
 20
3.4955075006
 30
0.0
 11
34.6777564403
 21
3.4955075006
 31
0.0
  0
LINE
  5
447
330
43E
100
AcDbEntity
  8
SLD-0
100
AcDbLine
 10
34.6777564403
 20
3.4955075006
 30
0.0
 11
34.6777564403
 21
2.5033199708
 31
0.0
  0
LINE
  5
448
330
43E
100
AcDbEntity
  8
SLD-0
100
AcDbLine
 10
34.6777564403
 20
2.5033199708
 30
0.0
 11
34.4873267548
 21
2.5033199708
 31
0.0
  0
LINE
  5
449
330
43E
100
AcDbEntity
  8
SLD-0
100
AcDbLine
 10
35.1940401706
 20
2.4670338334
 30
0.0
 11
32.6192710813
 21
2.4670338334
 31
0.0
  0
LINE
  5
44A
330
43E
100
AcDbEntity
  8
SLD-0
100
AcDbLine
 10
35.2315401706
 20
4.5295338334
 30
0.0
 11
32.6192710813
 21
4.5295338334
 31
0.0
  0
LINE
  5
44B
330
43E
100
AcDbEntity
  8
SLD-0
100
AcDbLine
 10
33.2442710813
 20
2.4670338334
 30
0.0
 11
33.2442710813
 21
1.2170338334
 31
0.0
  0
LINE
  5
44C
330
43E
100
AcDbEntity
  8
SLD-0
100
AcDbLine
 10
33.2442710813
 20
4.5295338334
 30
0.0
 11
33.2442710813
 21
5.7795338334
 31
0.0
  0
MTEXT
  5
44D
330
43E
100
AcDbEntity
  8
SLD-0
100
AcDbMText
 10
31.3894534417
 20
4.4303491446
 30
0.0
 40
0.625
 41
0.0
 71
     1
 72
     1
  1
 
  7
SLDTEXTSTYLE0
 73
     1
 44
1.0
  0
MTEXT
  5
44E
330
43E
100
AcDbEntity
  8
SLD-0
100
AcDbMText
 10
32.1249135164
 20
4.4208004872
 30
0.0
 40
0.625
 41
0.0
 71
     1
 72
     1
  1
1 5/8"
  7
SLDTEXTSTYLE0
 73
     1
 44
1.0
  0
MTEXT
  5
44F
330
43E
100
AcDbEntity
  8
SLD-0
100
AcDbMText
 10
32.0012155912
 20
3.3016598833
 30
0.0
 40
0.625
 41
0.0
 71
     1
 72
     1
  1
42mm
  7
SLDTEXTSTYLE0
 73
     1
 44
1.0
  0
MTEXT
  5
450
330
43E
100
AcDbEntity
  8
SLD-0
100
AcDbMText
 10
34.8681859884
 20
4.4303491446
 30
0.0
 40
0.625
 41
0.0
 71
     1
 72
     1
  1
 
  7
SLDTEXTSTYLE0
 73
     1
 44
1.0
  0
ENDBLK
  5
440
330
43E
100
AcDbEntity
  8
0
100
AcDbBlockEnd
  0
BLOCK
  5
490
330
48F
100
AcDbEntity
  8
0
100
AcDbBlockBegin
  2
_D_12
 70
     0
 10
0.0
 20
0.0
 30
0.0
  3
_D_12
  1

  0
SOLID
  5
492
330
48F
100
AcDbEntity
  8
SLD-0
100
AcDbTrace
 10
46.2999035915
 20
13.4083457172
 30
0.0
 11
45.6499035915
 21
13.5083457172
 31
0.0
 12
45.6499035915
 22
13.3083457172
 32
0.0
 13
45.6499035915
 23
13.3083457172
 33
0.0
  0
SOLID
  5
493
330
48F
100
AcDbEntity
  8
SLD-0
100
AcDbTrace
 10
52.0874035915
 20
13.4083457172
 30
0.0
 11
52.7374035915
 21
13.3083457172
 31
0.0
 12
52.7374035915
 22
13.5083457172
 32
0.0
 13
52.7374035915
 23
13.5083457172
 33
0.0
  0
LINE
  5
494
330
48F
100
AcDbEntity
  8
SLD-0
100
AcDbLine
 10
47.7196953688
 20
13.403571314
 30
0.0
 11
47.5292656832
 21
13.403571314
 31
0.0
  0
LINE
  5
495
330
48F
100
AcDbEntity
  8
SLD-0
100
AcDbLine
 10
47.5292656832
 20
13.403571314
 30
0.0
 11
47.5292656832
 21
12.4113837842
 31
0.0
  0
LINE
  5
496
330
48F
100
AcDbEntity
  8
SLD-0
100
AcDbLine
 10
47.5292656832
 20
12.4113837842
 30
0.0
 11
47.7196953688
 21
12.4113837842
 31
0.0
  0
LINE
  5
497
330
48F
100
AcDbEntity
  8
SLD-0
100
AcDbLine
 10
50.6676119975
 20
13.403571314
 30
0.0
 11
50.8580416831
 21
13.403571314
 31
0.0
  0
LINE
  5
498
330
48F
100
AcDbEntity
  8
SLD-0
100
AcDbLine
 10
50.8580416831
 20
13.403571314
 30
0.0
 11
50.8580416831
 21
12.4113837842
 31
0.0
  0
LINE
  5
499
330
48F
100
AcDbEntity
  8
SLD-0
100
AcDbLine
 10
50.8580416831
 20
12.4113837842
 30
0.0
 11
50.6676119975
 21
12.4113837842
 31
0.0
  0
LINE
  5
49A
330
48F
100
AcDbEntity
  8
SLD-0
100
AcDbLine
 10
46.2999035915
 20
11.394342637
 30
0.0
 11
46.2999035915
 21
14.0333457172
 31
0.0
  0
LINE
  5
49B
330
48F
100
AcDbEntity
  8
SLD-0
100
AcDbLine
 10
52.0874035915
 20
11.394342637
 30
0.0
 11
52.0874035915
 21
14.0333457172
 31
0.0
  0
LINE
  5
49C
330
48F
100
AcDbEntity
  8
SLD-0
100
AcDbLine
 10
46.2999035915
 20
13.4083457172
 30
0.0
 11
45.0499035915
 21
13.4083457172
 31
0.0
  0
LINE
  5
49D
330
48F
100
AcDbEntity
  8
SLD-0
100
AcDbLine
 10
52.0874035915
 20
13.4083457172
 30
0.0
 11
53.3374035915
 21
13.4083457172
 31
0.0
  0
MTEXT
  5
49E
330
48F
100
AcDbEntity
  8
SLD-0
100
AcDbMText
 10
47.1079332192
 20
14.3384129579
 30
0.0
 40
0.625
 41
0.0
 71
     1
 72
     1
  1
 
  7
SLDTEXTSTYLE0
 73
     1
 44
1.0
  0
MTEXT
  5
49F
330
48F
100
AcDbEntity
  8
SLD-0
100
AcDbMText
 10
48.0742960266
 20
14.3288643005
 30
0.0
 40
0.625
 41
0.0
 71
     1
 72
     1
  1
4 5/8"
  7
SLDTEXTSTYLE0
 73
     1
 44
1.0
  0
MTEXT
  5
4A0
330
48F
100
AcDbEntity
  8
SLD-0
100
AcDbMText
 10
47.7196953688
 20
13.2097236967
 30
0.0
 40
0.625
 41
0.0
 71
     1
 72
     1
  1
118mm
  7
SLDTEXTSTYLE0
 73
     1
 44
1.0
  0
MTEXT
  5
4A1
330
48F
100
AcDbEntity
  8
SLD-0
100
AcDbMText
 10
51.0484712311
 20
14.3384129579
 30
0.0
 40
0.625
 41
0.0
 71
     1
 72
     1
  1
 
  7
SLDTEXTSTYLE0
 73
     1
 44
1.0
  0
ENDBLK
  5
491
330
48F
100
AcDbEntity
  8
0
100
AcDbBlockEnd
  0
BLOCK
  5
4B0
330
4AF
100
AcDbEntity
  8
0
100
AcDbBlockBegin
  2
_D_13
 70
     0
 10
0.0
 20
0.0
 30
0.0
  3
_D_13
  1

  0
SOLID
  5
4B2
330
4AF
100
AcDbEntity
  8
SLD-0
100
AcDbTrace
 10
41.6257927506
 20
4.9670338334
 30
0.0
 11
41.7257927506
 21
5.6170338334
 31
0.0
 12
41.5257927506
 22
5.6170338334
 32
0.0
 13
41.5257927506
 23
5.6170338334
 33
0.0
  0
SOLID
  5
4B3
330
4AF
100
AcDbEntity
  8
SLD-0
100
AcDbTrace
 10
41.6257927506
 20
2.4670338334
 30
0.0
 11
41.5257927506
 21
1.8170338334
 31
0.0
 12
41.7257927506
 22
1.8170338334
 32
0.0
 13
41.7257927506
 23
1.8170338334
 33
0.0
  0
LINE
  5
4B4
330
4AF
100
AcDbEntity
  8
SLD-0
100
AcDbLine
 10
40.3827372604
 20
3.7122594302
 30
0.0
 11
40.1923075749
 21
3.7122594302
 31
0.0
  0
LINE
  5
4B5
330
4AF
100
AcDbEntity
  8
SLD-0
100
AcDbLine
 10
40.1923075749
 20
3.7122594302
 30
0.0
 11
40.1923075749
 21
2.7200719004
 31
0.0
  0
LINE
  5
4B6
330
4AF
100
AcDbEntity
  8
SLD-0
100
AcDbLine
 10
40.1923075749
 20
2.7200719004
 30
0.0
 11
40.3827372604
 21
2.7200719004
 31
0.0
  0
LINE
  5
4B7
330
4AF
100
AcDbEntity
  8
SLD-0
100
AcDbLine
 10
42.868848424
 20
3.7122594302
 30
0.0
 11
43.0592781096
 21
3.7122594302
 31
0.0
  0
LINE
  5
4B8
330
4AF
100
AcDbEntity
  8
SLD-0
100
AcDbLine
 10
43.0592781096
 20
3.7122594302
 30
0.0
 11
43.0592781096
 21
2.7200719004
 31
0.0
  0
LINE
  5
4B9
330
4AF
100
AcDbEntity
  8
SLD-0
100
AcDbLine
 10
43.0592781096
 20
2.7200719004
 30
0.0
 11
42.868848424
 21
2.7200719004
 31
0.0
  0
LINE
  5
4BA
330
4AF
100
AcDbEntity
  8
SLD-0
100
AcDbLine
 10
43.4905009342
 20
4.9670338334
 30
0.0
 11
41.0007927506
 21
4.9670338334
 31
0.0
  0
LINE
  5
4BB
330
4AF
100
AcDbEntity
  8
SLD-0
100
AcDbLine
 10
43.4530009342
 20
2.4670338334
 30
0.0
 11
41.0007927506
 21
2.4670338334
 31
0.0
  0
LINE
  5
4BC
330
4AF
100
AcDbEntity
  8
SLD-0
100
AcDbLine
 10
41.6257927506
 20
4.9670338334
 30
0.0
 11
41.6257927506
 21
6.2170338334
 31
0.0
  0
LINE
  5
4BD
330
4AF
100
AcDbEntity
  8
SLD-0
100
AcDbLine
 10
41.6257927506
 20
2.4670338334
 30
0.0
 11
41.6257927506
 21
1.2170338334
 31
0.0
  0
MTEXT
  5
4BE
330
4AF
100
AcDbEntity
  8
SLD-0
100
AcDbMText
 10
39.7709751109
 20
4.6471010742
 30
0.0
 40
0.625
 41
0.0
 71
     1
 72
     1
  1
 
  7
SLDTEXTSTYLE0
 73
     1
 44
1.0
  0
MTEXT
  5
4BF
330
4AF
100
AcDbEntity
  8
SLD-0
100
AcDbMText
 10
41.2659837675
 20
4.6375524168
 30
0.0
 40
0.625
 41
0.0
 71
     1
 72
     1
  1
2"
  7
SLDTEXTSTYLE0
 73
     1
 44
1.0
  0
MTEXT
  5
4C0
330
4AF
100
AcDbEntity
  8
SLD-0
100
AcDbMText
 10
40.3827372604
 20
3.5184118129
 30
0.0
 40
0.625
 41
0.0
 71
     1
 72
     1
  1
51mm
  7
SLDTEXTSTYLE0
 73
     1
 44
1.0
  0
MTEXT
  5
4C1
330
4AF
100
AcDbEntity
  8
SLD-0
100
AcDbMText
 10
43.2497076576
 20
4.6471010742
 30
0.0
 40
0.625
 41
0.0
 71
     1
 72
     1
  1
 
  7
SLDTEXTSTYLE0
 73
     1
 44
1.0
  0
ENDBLK
  5
4B1
330
4AF
100
AcDbEntity
  8
0
100
AcDbBlockEnd
  0
ENDSEC
  0
SECTION
  2
ENTITIES
  0
INSERT
  5
71
330
1F
100
AcDbEntity
  8
0
  6
Continuous
 62
     7
100
AcDbBlockReference
  2
SW_BROKEN_VIEW_0
 10
0.0
 20
0.0
 30
0.0
  0
LINE
  5
72
330
1F
100
AcDbEntity
  8
0
  6
Continuous
 62
     7
370
    25
100
AcDbLine
 10
27.1015725496
 20
32.4849069377
 30
0.0
 11
27.1015725496
 21
27.7399067124
 31
0.0
  0
LINE
  5
73
330
1F
100
AcDbEntity
  8
0
  6
Continuous
 62
     7
370
    25
100
AcDbLine
 10
24.8815724752
 20
32.3020385969
 30
0.0
 11
24.8815724752
 21
32.4849069377
 31
0.0
  0
LINE
  5
74
330
1F
100
AcDbEntity
  8
0
  6
Continuous
 62
     7
370
    25
100
AcDbLine
 10
24.8815724752
 20
30.834038382
 30
0.0
 11
24.8815724752
 21
32.1669947703
 31
0.0
  0
LINE
  5
75
330
1F
100
AcDbEntity
  8
0
  6
Continuous
 62
     7
370
    25
100
AcDbLine
 10
24.8815724752
 20
29.9599069334
 30
0.0
 11
24.8815724752
 21
30.6989951421
 31
0.0
  0
LINE
  5
76
330
1F
100
AcDbEntity
  8
0
  6
Continuous
 62
     7
370
    25
100
AcDbLine
 10
26.4865725874
 20
36.5349070318
 30
0.0
 11
26.4865725874
 21
34.904906555
 31
0.0
  0
LINE
  5
77
330
1F
100
AcDbEntity
  8
0
  6
Continuous
 62
     7
370
    25
100
AcDbLine
 10
25.4965724373
 20
34.904906555
 30
0.0
 11
25.4965724373
 21
36.5349070318
 31
0.0
  0
ARC
  5
78
330
1F
100
AcDbEntity
  8
0
  6
Continuous
 62
     7
370
    25
100
AcDbCircle
 10
25.9915725124
 20
34.9049064817
 30
0.0
 40
0.4950000750502338
100
AcDbArc
 50
179.9999915118
 51
0.0000084882
  0
LINE
  5
79
330
1F
100
AcDbEntity
  8
0
  6
Continuous
 62
     7
370
    25
100
AcDbLine
 10
24.8815724752
 20
34.3399061486
 30
0.0
 11
24.911572502
 21
34.3699067621
 31
0.0
  0
LINE
  5
7A
330
1F
100
AcDbEntity
  8
0
  6
Continuous
 62
     7
370
    25
100
AcDbLine
 10
27.0715725228
 20
34.3699067621
 30
0.0
 11
27.1015725496
 21
34.3399061486
 31
0.0
  0
LINE
  5
7B
330
1F
100
AcDbEntity
  8
0
  6
Continuous
 62
     7
370
    25
100
AcDbLine
 10
24.8815724752
 20
32.4949065556
 30
0.0
 11
24.8815724752
 21
34.3399061486
 31
0.0
  0
LINE
  5
7C
330
1F
100
AcDbEntity
  8
0
  6
Continuous
 62
     7
370
    25
100
AcDbLine
 10
27.1015725496
 20
34.3399061486
 30
0.0
 11
27.1015725496
 21
32.4949065556
 31
0.0
  0
ARC
  5
7D
330
1F
100
AcDbEntity
  8
0
  6
Continuous
 62
     7
370
    25
100
AcDbCircle
 10
24.8915718629
 20
32.4949063254
 30
0.0
 40
0.0099993876825145
100
AcDbArc
 50
179.9986812177
 51
270.0038398083
  0
ARC
  5
7E
330
1F
100
AcDbEntity
  8
0
  6
Continuous
 62
     7
370
    25
100
AcDbCircle
 10
27.0915731619
 20
32.4949063254
 30
0.0
 40
0.009999387701127
100
AcDbArc
 50
269.9953199184
 51
0.0013187381
  0
LINE
  5
7F
330
1F
100
AcDbEntity
  8
0
  6
Continuous
 62
     7
370
    25
100
AcDbLine
 10
25.4965724373
 20
34.3699067621
 30
0.0
 11
25.4965724373
 21
34.904906555
 31
0.0
  0
LINE
  5
80
330
1F
100
AcDbEntity
  8
0
  6
Continuous
 62
     7
370
    25
100
AcDbLine
 10
26.4865725874
 20
34.904906555
 30
0.0
 11
26.4865725874
 21
34.3699067621
 31
0.0
  0
ARC
  5
81
330
1F
100
AcDbEntity
  8
0
  6
Continuous
 62
     7
370
    25
100
AcDbCircle
 10
23.4915725059
 20
38.0349068973
 30
0.0
 40
1.999999975829639
100
AcDbArc
 50
0.0000085867
 51
179.9999914133
  0
LWPOLYLINE
  5
82
330
1F
100
AcDbEntity
  8
0
  6
Continuous
 62
     7
370
    25
100
AcDbPolyline
 90
       47
 70
   128
 43
0.0
 10
20.4915726155
 20
38.034907197
 10
20.498566188
 20
38.2396338986
 10
20.5195146394
 20
38.4434066913
 10
20.5543202906
 20
38.645275186
 10
20.602820637
 20
38.8442972068
 10
20.6647898145
 20
39.0395458313
 10
20.7399385997
 20
39.2301105632
 10
20.8279167567
 20
39.4151020262
 10
20.9283142102
 20
39.5936590035
 10
21.0406628057
 20
39.7649472648
 10
21.1644386558
 20
39.9281701259
 10
21.299064634
 20
40.0825661023
 10
21.443913014
 20
40.2274147756
 10
21.5983086971
 20
40.3620403137
 10
21.7615315582
 20
40.4858161639
 10
21.9328205528
 20
40.5981650527
 10
22.1113773834
 20
40.6985625062
 10
22.296369213
 20
40.7865403699
 10
22.4869336516
 20
40.8616891551
 10
22.6821821294
 20
40.9236580392
 10
22.8812044436
 20
40.9721583856
 10
23.0830725349
 20
41.0069649169
 10
23.2868452359
 20
41.0279133682
 10
23.4915724738
 20
41.0349063541
 10
23.6962997209
 20
41.0279133682
 10
23.9000724402
 20
41.0069649169
 10
24.1019404949
 20
40.9721583856
 10
24.3009628091
 20
40.9236580392
 10
24.4962112869
 20
40.8616891551
 10
24.6867757255
 20
40.7865403699
 10
24.8717676285
 20
40.6985625062
 10
25.0503243124
 20
40.5981650527
 10
25.2216134537
 20
40.4858161639
 10
25.3848363148
 20
40.3620403137
 10
25.5392318512
 20
40.2274147756
 10
25.6840803779
 20
40.0825661023
 10
25.818706356
 20
39.9281701259
 10
25.9424822061
 20
39.7649472648
 10
26.0548308016
 20
39.5936590035
 10
26.1552282551
 20
39.4151020262
 10
26.2432064121
 20
39.2301105632
 10
26.3183551974
 20
39.0395458313
 10
26.3803243748
 20
38.8442972068
 10
26.4288247212
 20
38.645275186
 10
26.4636303725
 20
38.4434066913
 10
26.4845788238
 20
38.2396338986
 10
26.4915723963
 20
38.034907197
  0
LINE
  5
83
330
1F
100
AcDbEntity
  8
0
  6
Continuous
 62
     7
370
    25
100
AcDbLine
 10
20.4915726155
 20
26.8634503306
 30
0.0
 11
20.4915726155
 21
38.034907197
 31
0.0
  0
LINE
  5
84
330
1F
100
AcDbEntity
  8
0
  6
Continuous
 62
     7
370
    25
100
AcDbLine
 10
21.4915725301
 20
38.034907197
 30
0.0
 11
21.4915725301
 21
26.6411223656
 31
0.0
  0
LINE
  5
85
330
1F
100
AcDbEntity
  8
0
  6
Continuous
 62
     7
370
    25
100
AcDbLine
 10
25.4915724817
 20
36.5349070318
 30
0.0
 11
25.4915724817
 21
38.034907197
 31
0.0
  0
LINE
  5
86
330
1F
100
AcDbEntity
  8
0
  6
Continuous
 62
     7
370
    25
100
AcDbLine
 10
26.4915723963
 20
38.034907197
 30
0.0
 11
26.4915723963
 21
36.5349070318
 31
0.0
  0
LWPOLYLINE
  5
87
330
1F
100
AcDbEntity
  8
0
  6
Continuous
 62
     7
370
    25
100
AcDbPolyline
 90
       35
 70
   128
 43
0.0
 10
24.8815724752
 20
29.9599069334
 10
24.8864498188
 20
29.9550294431
 10
24.9010390236
 20
29.940440385
 10
24.9252119044
 20
29.9162670642
 10
24.9587559436
 20
29.8827230251
 10
25.0013764912
 20
29.8401027707
 10
25.0526988183
 20
29.7887800036
 10
25.1122720768
 20
29.7292070385
 10
25.1795726727
 20
29.6619065893
 10
25.2540091061
 20
29.5874700092
 10
25.3349272513
 20
29.5065520106
 10
25.4216160766
 20
29.4198630387
 10
25.5133136573
 20
29.3281657513
 10
25.6092142161
 20
29.2322650459
 10
25.7084750161
 20
29.1330039525
 10
25.8102235473
 20
29.0312554213
 10
25.9135660335
 20
28.9279135218
 10
26.0175937384
 20
28.8238852302
 10
26.1213929393
 20
28.7200863226
 10
26.2240510868
 20
28.6174278818
 10
26.3246664844
 20
28.5168127775
 10
26.4223544493
 20
28.4191245193
 10
26.5162566978
 20
28.3252225641
 10
26.605548093
 20
28.2359311689
 10
26.6894436838
 20
28.1520352848
 10
26.7672066255
 20
28.0742726364
 10
26.8381531659
 20
28.003326096
 10
26.9016596856
 20
27.9398195763
 10
26.9571685644
 20
27.8843106975
 10
27.0041917012
 20
27.8372875608
 10
27.0423157941
 20
27.7991631745
 10
27.0712061537
 20
27.7702731083
 10
27.0906084629
 20
27.7508707991
 10
27.1003525903
 20
27.7411266716
 10
27.1015725496
 20
27.7399067124
  0
LINE
  5
88
330
1F
100
AcDbEntity
  8
0
  6
Continuous
 62
     7
370
    25
100
AcDbLine
 10
24.8815724752
 20
32.4849069377
 30
0.0
 11
27.1015725496
 21
32.4849069377
 31
0.0
  0
SPLINE
  5
89
330
1F
100
AcDbEntity
  8
0
  6
Continuous
 62
     7
370
    25
100
AcDbSpline
210
0.0
220
0.0
230
1.0
 70
     8
 71
     3
 72
    12
 73
     8
 74
     0
 42
0.00000001
 43
0.00000001
 40
0.0
 40
0.0
 40
0.0
 40
0.0
 40
0.3347465014611458
 40
0.6318646634342846
 40
0.8582547784343022
 40
0.9880392559856054
 40
1.0
 40
1.0
 40
1.0
 40
1.0
 10
24.88365731776969
 20
30.76690689088333
 30
0.0
 10
24.88361385093764
 20
30.77440218434807
 30
0.0
 10
24.88353180331328
 20
30.78855023686471
 30
0.0
 10
24.88294770785955
 20
30.80775986185398
 30
0.0
 10
24.88229144867406
 20
30.8223729860272
 30
0.0
 10
24.88183291230826
 20
30.83060309817532
 30
0.0
 10
24.88164129680966
 20
30.83377106287261
 30
0.0
 10
24.88162512791239
 20
30.83403838204128
 30
0.0
  0
SPLINE
  5
8A
330
1F
100
AcDbEntity
  8
0
  6
Continuous
 62
     7
370
    25
100
AcDbSpline
210
0.0
220
0.0
230
1.0
 70
     8
 71
     3
 72
    13
 73
     9
 74
     0
 42
0.00000001
 43
0.00000001
 40
0.0
 40
0.0
 40
0.0
 40
0.0
 40
0.0012681099442316
 40
0.0600408499590988
 40
0.2244610527910404
 40
0.4763798774199549
 40
0.7874757997727034
 40
1.0
 40
1.0
 40
1.0
 40
1.0
 10
24.8815777551263
 20
30.69899514207231
 30
0.0
 10
24.88157600498428
 20
30.69896574295224
 30
0.0
 10
24.88149314149513
 20
30.69757379096475
 30
0.0
 10
24.8821651604954
 20
30.70878217756437
 30
0.0
 10
24.88240136572259
 20
30.7140599817705
 30
0.0
 10
24.88322637307721
 20
30.73338467198444
 30
0.0
 10
24.88358413626916
 20
30.75004982389002
 30
0.0
 10
24.88363619033667
 20
30.76204027088785
 30
0.0
 10
24.88365731776969
 20
30.76690689088333
 30
0.0
  0
SPLINE
  5
8B
330
1F
100
AcDbEntity
  8
0
  6
Continuous
 62
     7
370
    25
100
AcDbSpline
210
0.0
220
0.0
230
1.0
 70
     8
 71
     3
 72
    12
 73
     8
 74
     0
 42
0.00000001
 43
0.00000001
 40
0.0
 40
0.0
 40
0.0
 40
0.0
 40
0.3347523145585718
 40
0.6318591547424338
 40
0.8582472948586669
 40
0.9880393603235301
 40
1.0
 40
1.0
 40
1.0
 40
1.0
 10
24.88365731776969
 20
32.23490651909302
 30
0.0
 10
24.88361385432406
 20
32.2424020081448
 30
0.0
 10
24.88353181523182
 20
32.25655006081139
 30
0.0
 10
24.88294770686014
 20
32.27575968588015
 30
0.0
 10
24.88229141392167
 20
32.29037280782945
 30
0.0
 10
24.88183292476907
 20
32.29860311818978
 30
0.0
 10
24.88164129686201
 20
32.30177127774513
 30
0.0
 10
24.88162512791239
 20
32.30203859691086
 30
0.0
  0
SPLINE
  5
8C
330
1F
100
AcDbEntity
  8
0
  6
Continuous
 62
     7
370
    25
100
AcDbSpline
210
0.0
220
0.0
230
1.0
 70
     8
 71
     3
 72
    13
 73
     9
 74
     0
 42
0.00000001
 43
0.00000001
 40
0.0
 40
0.0
 40
0.0
 40
0.0
 40
0.0012681099532168
 40
0.0600408503845191
 40
0.2244696538249254
 40
0.4763798757283342
 40
0.7874844094394601
 40
1.0
 40
1.0
 40
1.0
 40
1.0
 10
24.8815777551263
 20
32.16699477028201
 30
0.0
 10
24.88157600498422
 20
32.16696537116358
 30
0.0
 10
24.88149314149204
 20
32.1655734192539
 30
0.0
 10
24.88216518783546
 20
32.17678219422028
 30
0.0
 10
24.88240132487813
 20
32.1820598652718
 30
0.0
 10
24.88322641021954
 20
32.20138470067785
 30
0.0
 10
24.88358412349539
 20
32.21804965391111
 30
0.0
 10
24.88363618725786
 20
32.23004009760722
 30
0.0
 10
24.88365731776969
 20
32.23490651909302
 30
0.0
  0
SPLINE
  5
8D
330
1F
100
AcDbEntity
  8
0
  6
Continuous
 62
     7
370
    25
100
AcDbSpline
210
0.0
220
0.0
230
1.0
 70
    11
 71
     3
 72
    26
 73
    22
 74
     0
 42
0.00000001
 43
0.00000001
 40
0.0
 40
0.0
 40
0.0
 40
0.0
 40
0.0365868141407356
 40
0.093750074696617
 40
0.1491152971381472
 40
0.2018160235547107
 40
0.2522551760721167
 40
0.3019343426197927
 40
0.3526946646634291
 40
0.4057497789779215
 40
0.4612266106836643
 40
0.5182958678665387
 40
0.5756852217768275
 40
0.6321643087295337
 40
0.686792718312829
 40
0.7390676896485985
 40
0.7893232860970423
 40
0.8389760547547349
 40
0.8899911103293925
 40
0.9437049988151832
 40
1.0
 40
1.0
 40
1.0
 40
1.0
 10
26.60311668109506
 20
32.22042892633942
 30
0.0
 10
26.60372650182888
 20
32.22524705693679
 30
0.0
 10
26.60528910684629
 20
32.23759303769546
 30
0.0
 10
26.60227614062725
 20
32.25747238277349
 30
0.0
 10
26.5931432228346
 20
32.27767541279822
 30
0.0
 10
26.57855306496729
 20
32.29336262779123
 30
0.0
 10
26.55993886637468
 20
32.30250170618391
 30
0.0
 10
26.53946473025604
 20
32.30374347367481
 30
0.0
 10
26.51977098633823
 20
32.297021790092
 30
0.0
 10
26.50314870147123
 20
32.28336733839006
 30
0.0
 10
26.49140138644433
 20
32.26440931849168
 30
0.0
 10
26.48583935340737
 20
32.24224205345924
 30
0.0
 10
26.48709211181855
 20
32.21929533633109
 30
0.0
 10
26.49500003363686
 20
32.19805208274065
 30
0.0
 10
26.50868173986591
 20
32.18079721225982
 30
0.0
 10
26.52667121200075
 20
32.16947581252049
 30
0.0
 10
26.54695444939041
 20
32.16557378806994
 30
0.0
 10
26.56705655159465
 20
32.16976504547719
 30
0.0
 10
26.58431360382501
 20
32.18147962876701
 30
0.0
 10
26.59739334091568
 20
32.19899244670166
 30
0.0
 10
26.6011792914133
 20
32.21317253179327
 30
0.0
 10
26.60311668109506
 20
32.22042892633941
 30
0.0
  0
ARC
  5
8E
330
1F
100
AcDbEntity
  8
0
  6
Continuous
 62
     7
370
    25
100
AcDbCircle
 10
25.9915743227
 20
34.9049076866
 30
0.0
 40
0.0902091219461275
100
AcDbArc
 50
7.4772282501
 51
67.4781864822
  0
LWPOLYLINE
  5
8F
330
1F
100
AcDbEntity
  8
0
  6
Continuous
 62
     7
370
    25
100
AcDbPolyline
 90
        4
 70
   128
 43
0.0
 10
26.0261275865
 20
34.9882368991
 10
26.0501249093
 20
34.9569374206
 10
26.067836758
 20
34.9338359275
 10
26.0810163658
 20
34.9166467927
  0
ARC
  5
90
330
1F
100
AcDbEntity
  8
0
  6
Continuous
 62
     7
370
    25
100
AcDbCircle
 10
25.9915715965
 20
34.904910728
 30
0.0
 40
0.0902073568441459
100
AcDbArc
 50
67.4758470255
 51
127.4782940649
  0
LWPOLYLINE
  5
91
330
1F
100
AcDbEntity
  8
0
  6
Continuous
 62
     7
370
    25
100
AcDbPolyline
 90
        4
 70
   128
 43
0.0
 10
25.9366839531
 20
34.9764978347
 10
25.9757883547
 20
34.9816299354
 10
26.0046511413
 20
34.9854185849
 10
26.0261275865
 20
34.9882368991
  0
ARC
  5
92
330
1F
100
AcDbEntity
  8
0
  6
Continuous
 62
     7
370
    25
100
AcDbCircle
 10
25.991572279
 20
34.9049113928
 30
0.0
 40
0.0902152962513258
100
AcDbArc
 50
247.4786274279
 51
307.4754651755
  0
LWPOLYLINE
  5
93
330
1F
100
AcDbEntity
  8
0
  6
Continuous
 62
     7
370
    25
100
AcDbPolyline
 90
        4
 70
   128
 43
0.0
 10
26.0464612183
 20
34.8333152754
 10
26.0073565234
 20
34.8281831747
 10
25.9784937368
 20
34.8243945251
 10
25.9570172916
 20
34.821576211
  0
LWPOLYLINE
  5
94
330
1F
100
AcDbEntity
  8
0
  6
Continuous
 62
     7
370
    25
100
AcDbPolyline
 90
        4
 70
   128
 43
0.0
 10
25.9570172916
 20
34.821576211
 10
25.9330202621
 20
34.8528756894
 10
25.9153081201
 20
34.8759771826
 10
25.902128659
 20
34.8931674906
  0
ARC
  5
95
330
1F
100
AcDbEntity
  8
0
  6
Continuous
 62
     7
370
    25
100
AcDbCircle
 10
25.9915740826
 20
34.9049077521
 30
0.0
 40
0.0902126241249507
100
AcDbArc
 50
187.4776764079
 51
247.4766836275
  0
ARC
  5
96
330
1F
100
AcDbEntity
  8
0
  6
Continuous
 62
     7
370
    25
100
AcDbCircle
 10
25.991572631
 20
34.9049068461
 30
0.0
 40
0.090211066955846
100
AcDbArc
 50
127.4773153433
 51
187.4772258684
  0
LWPOLYLINE
  5
97
330
1F
100
AcDbEntity
  8
0
  6
Continuous
 62
     7
370
    25
100
AcDbPolyline
 90
        5
 70
   128
 43
0.0
 10
25.902128659
 20
34.8931674906
 10
25.9079226587
 20
34.9071393826
 10
25.9191454624
 20
34.9342031766
 10
25.9307182087
 20
34.9621117609
 10
25.9366839531
 20
34.9764978347
  0
ARC
  5
98
330
1F
100
AcDbEntity
  8
0
  6
Continuous
 62
     7
370
    25
100
AcDbCircle
 10
25.9915706499
 20
34.9049070557
 30
0.0
 40
0.0902128456057492
100
AcDbArc
 50
307.4779622184
 51
7.4773219848
  0
LWPOLYLINE
  5
99
330
1F
100
AcDbEntity
  8
0
  6
Continuous
 62
     7
370
    25
100
AcDbPolyline
 90
        5
 70
   128
 43
0.0
 10
26.0810163658
 20
34.9166467927
 10
26.0750509147
 20
34.9022607189
 10
26.063477875
 20
34.8743521347
 10
26.0522550714
 20
34.8472883406
 10
26.0464612183
 20
34.8333152754
  0
CIRCLE
  5
9A
330
1F
100
AcDbEntity
  8
0
  6
Continuous
 62
     7
370
    25
100
AcDbCircle
 10
25.9915724621
 20
34.9049068465
 30
0.0
 40
0.1502264925004628
  0
CIRCLE
  5
9B
330
1F
100
AcDbEntity
  8
0
  6
Continuous
 62
     7
370
    25
100
AcDbCircle
 10
25.9915721712
 20
34.9049066335
 30
0.0
 40
0.155999943664859
  0
SPLINE
  5
9C
330
1F
100
AcDbEntity
  8
0
  6
Continuous
 62
     7
370
    25
100
AcDbSpline
210
0.0
220
0.0
230
1.0
 70
     8
 71
     3
 72
    17
 73
    13
 74
     0
 42
0.00000001
 43
0.00000001
 40
0.0
 40
0.0
 40
0.0
 40
0.0
 40
0.1038634203491313
 40
0.2067200595460014
 40
0.3127797257263885
 40
0.4222184305140217
 40
0.5286103553335255
 40
0.6306251770936927
 40
0.7331672991211007
 40
0.8402629445326704
 40
0.9496446352701206
 40
1.0
 40
1.0
 40
1.0
 40
1.0
 10
26.15557233116558
 20
34.90490655502477
 30
0.0
 10
26.15387746114051
 20
34.92274390429565
 30
0.0
 10
26.15050415000432
 20
34.95824569974032
 30
0.0
 10
26.12400730827169
 20
35.00631217974597
 30
0.0
 10
26.08389411785205
 20
35.04430581870499
 30
0.0
 10
26.03246756565171
 20
35.06699962876731
 30
0.0
 10
25.97727795382146
 20
35.07124822063497
 30
0.0
 10
25.92489261844494
 20
35.05784561376762
 30
0.0
 10
25.87925337068936
 20
35.02850925684372
 30
0.0
 10
25.84492070387699
 20
34.98495887248144
 30
0.0
 10
25.82928813610703
 20
34.94084386760305
 30
0.0
 10
25.82798374270783
 20
34.91352008082733
 30
0.0
 10
25.82757254691374
 20
34.90490655502477
 30
0.0
  0
ARC
  5
9D
330
1F
100
AcDbEntity
  8
0
  6
Continuous
 62
     7
370
    25
100
AcDbCircle
 10
25.991572439
 20
34.9049068484
 30
0.0
 40
0.1639998921261843
100
AcDbArc
 50
180.0001024792
 51
359.9998975208
  0
LINE
  5
9E
330
1F
100
AcDbEntity
  8
0
  6
Continuous
 62
     7
370
    25
100
AcDbLine
 10
24.8815724752
 20
34.3399061486
 30
0.0
 11
27.1015725496
 21
34.3399061486
 31
0.0
  0
LINE
  5
9F
330
1F
100
AcDbEntity
  8
0
  6
Continuous
 62
     7
370
    25
100
AcDbLine
 10
27.0715725228
 20
34.3699067621
 30
0.0
 11
24.911572502
 21
34.3699067621
 31
0.0
  0
LINE
  5
A0
330
1F
100
AcDbEntity
  8
0
  6
Continuous
 62
     7
370
    25
100
AcDbLine
 10
26.4773708271
 20
34.8099063725
 30
0.0
 11
26.4773708271
 21
34.3799069665
 31
0.0
  0
LINE
  5
A1
330
1F
100
AcDbEntity
  8
0
  6
Continuous
 62
     7
370
    25
100
AcDbLine
 10
26.4773708271
 20
34.3799069665
 30
0.0
 11
25.5057741977
 21
34.3799069665
 31
0.0
  0
LINE
  5
A2
330
1F
100
AcDbEntity
  8
0
  6
Continuous
 62
     7
370
    25
100
AcDbLine
 10
25.5057741977
 20
34.3799069665
 30
0.0
 11
25.5057741977
 21
34.8099063725
 31
0.0
  0
LINE
  5
A3
330
1F
100
AcDbEntity
  8
0
  6
Continuous
 62
     7
370
    25
100
AcDbLine
 10
24.8815724752
 20
32.1763672487
 30
0.0
 11
24.8815724752
 21
32.1715067715
 31
0.0
  0
LINE
  5
A4
330
1F
100
AcDbEntity
  8
0
  6
Continuous
 62
     7
370
    25
100
AcDbLine
 10
24.8815724752
 20
32.2983068534
 30
0.0
 11
24.8815724752
 21
32.1763672487
 31
0.0
  0
LWPOLYLINE
  5
A5
330
1F
100
AcDbEntity
  8
0
  6
Continuous
 62
     7
370
    25
100
AcDbPolyline
 90
       17
 70
   128
 43
0.0
 10
26.5246418276
 20
32.1767837772
 10
26.5070484842
 20
32.1908988141
 10
26.4954722179
 20
32.211713507
 10
26.4916756485
 20
32.2360593058
 10
26.4962363425
 20
32.2602296932
 10
26.5084605746
 20
32.2805451385
 10
26.526486873
 20
32.2939121841
 10
26.5475708428
 20
32.2982962935
 10
26.568503161
 20
32.2930298476
 10
26.5860965044
 20
32.2789148107
 10
26.5976727707
 20
32.2580995312
 10
26.6014693401
 20
32.2337537324
 10
26.5969086461
 20
32.209583345
 10
26.584684414
 20
32.1892684863
 10
26.5666581156
 20
32.1759014407
 10
26.5455741458
 20
32.1715173314
 10
26.5246418276
 20
32.1767837772
  0
LINE
  5
A6
330
1F
100
AcDbEntity
  8
0
  6
Continuous
 62
     7
370
    25
100
AcDbLine
 10
26.5371652563
 20
32.2786103342
 30
0.0
 11
26.5746466633
 21
32.266165518
 31
0.0
  0
LINE
  5
A7
330
1F
100
AcDbEntity
  8
0
  6
Continuous
 62
     7
370
    25
100
AcDbLine
 10
26.5840537546
 20
32.2224622895
 30
0.0
 11
26.5746466633
 21
32.266165518
 31
0.0
  0
LINE
  5
A8
330
1F
100
AcDbEntity
  8
0
  6
Continuous
 62
     7
370
    25
100
AcDbLine
 10
26.5559797323
 20
32.1912032906
 30
0.0
 11
26.5840537546
 21
32.2224622895
 31
0.0
  0
LINE
  5
A9
330
1F
100
AcDbEntity
  8
0
  6
Continuous
 62
     7
370
    25
100
AcDbLine
 10
26.5559797323
 20
32.1912032906
 30
0.0
 11
26.5184983253
 21
32.2036475202
 31
0.0
  0
LINE
  5
AA
330
1F
100
AcDbEntity
  8
0
  6
Continuous
 62
     7
370
    25
100
AcDbLine
 10
26.509091234
 20
32.2473513353
 30
0.0
 11
26.5184983253
 21
32.2036475202
 31
0.0
  0
LINE
  5
AB
330
1F
100
AcDbEntity
  8
0
  6
Continuous
 62
     7
370
    25
100
AcDbLine
 10
26.509091234
 20
32.2473513353
 30
0.0
 11
26.5371652563
 21
32.2786103342
 31
0.0
  0
LINE
  5
AC
330
1F
100
AcDbEntity
  8
0
  6
Continuous
 62
     7
370
    25
100
AcDbLine
 10
26.5268288957
 20
32.2671012405
 30
0.0
 11
26.5296466232
 21
32.266165518
 31
0.0
  0
LINE
  5
AD
330
1F
100
AcDbEntity
  8
0
  6
Continuous
 62
     7
370
    25
100
AcDbLine
 10
26.5296466232
 20
32.266165518
 30
0.0
 11
26.5746466633
 21
32.266165518
 31
0.0
  0
LINE
  5
AE
330
1F
100
AcDbEntity
  8
0
  6
Continuous
 62
     7
370
    25
100
AcDbLine
 10
26.5390537145
 20
32.2224622895
 30
0.0
 11
26.5840537546
 21
32.2224622895
 31
0.0
  0
LINE
  5
AF
330
1F
100
AcDbEntity
  8
0
  6
Continuous
 62
     7
370
    25
100
AcDbLine
 10
26.5213160527
 20
32.2027123843
 30
0.0
 11
26.5390537145
 21
32.2224622895
 31
0.0
  0
LINE
  5
B0
330
1F
100
AcDbEntity
  8
0
  6
Continuous
 62
     7
370
    25
100
AcDbLine
 10
26.5390537145
 20
32.2224622895
 30
0.0
 11
26.5296466232
 21
32.266165518
 31
0.0
  0
LINE
  5
B1
330
1F
100
AcDbEntity
  8
0
  6
Continuous
 62
     7
370
    25
100
AcDbLine
 10
25.991572439
 20
36.5349070318
 30
0.0
 11
25.4915724817
 21
36.5349070318
 31
0.0
  0
LINE
  5
B2
330
1F
100
AcDbEntity
  8
0
  6
Continuous
 62
     7
370
    25
100
AcDbLine
 10
26.4915723963
 20
36.5349070318
 30
0.0
 11
25.991572439
 21
36.5349070318
 31
0.0
  0
LINE
  5
B3
330
1F
100
AcDbEntity
  8
0
  6
Continuous
 62
     7
370
    25
100
AcDbLine
 10
25.8275725469
 20
34.904906555
 30
0.0
 11
25.4965724373
 21
34.904906555
 31
0.0
  0
LINE
  5
B4
330
1F
100
AcDbEntity
  8
0
  6
Continuous
 62
     7
370
    25
100
AcDbLine
 10
26.4865725874
 20
34.904906555
 30
0.0
 11
26.1555723312
 21
34.904906555
 31
0.0
  0
LINE
  5
B5
330
1F
100
AcDbEntity
  8
0
  6
Continuous
 62
     7
370
    25
100
AcDbLine
 10
27.1015725496
 20
32.4949065556
 30
0.0
 11
24.8815724752
 21
32.4949065556
 31
0.0
  0
LINE
  5
B6
330
1F
100
AcDbEntity
  8
0
  6
Continuous
 62
     7
370
    25
100
AcDbLine
 10
25.991572439
 20
38.034907197
 30
0.0
 11
25.4915724817
 21
38.034907197
 31
0.0
  0
LINE
  5
B7
330
1F
100
AcDbEntity
  8
0
  6
Continuous
 62
     7
370
    25
100
AcDbLine
 10
26.4915723963
 20
38.034907197
 30
0.0
 11
25.991572439
 21
38.034907197
 31
0.0
  0
LINE
  5
B8
330
1F
100
AcDbEntity
  8
0
  6
Continuous
 62
     7
370
    25
100
AcDbLine
 10
20.9915724261
 20
38.034907197
 30
0.0
 11
21.4915725301
 21
38.034907197
 31
0.0
  0
LINE
  5
B9
330
1F
100
AcDbEntity
  8
0
  6
Continuous
 62
     7
370
    25
100
AcDbLine
 10
20.4915726155
 20
38.034907197
 30
0.0
 11
20.9915724261
 21
38.034907197
 31
0.0
  0
LINE
  5
BA
330
1F
100
AcDbEntity
  8
0
  6
Continuous
 62
     7
370
    25
100
AcDbLine
 10
20.5665723891
 20
11.439029619
 30
0.0
 11
20.5665723891
 21
19.9390291863
 31
0.0
  0
LINE
  5
BB
330
1F
100
AcDbEntity
  8
0
  6
Continuous
 62
     7
370
    25
100
AcDbLine
 10
21.4165724632
 20
19.9390291863
 30
0.0
 11
21.4165724632
 21
11.439029619
 31
0.0
  0
LINE
  5
BC
330
1F
100
AcDbEntity
  8
0
  6
Continuous
 62
     7
370
    25
100
AcDbLine
 10
20.5665723891
 20
10.9890286308
 30
0.0
 11
20.6165725315
 21
11.0140297286
 31
0.0
  0
LINE
  5
BD
330
1F
100
AcDbEntity
  8
0
  6
Continuous
 62
     7
370
    25
100
AcDbLine
 10
21.3665724674
 20
11.0140297286
 30
0.0
 11
21.4165724632
 21
10.9890286308
 31
0.0
  0
LINE
  5
BE
330
1F
100
AcDbEntity
  8
0
  6
Continuous
 62
     7
370
    25
100
AcDbLine
 10
20.5665723891
 20
10.7890292345
 30
0.0
 11
20.6165725315
 21
10.8140291591
 31
0.0
  0
LINE
  5
BF
330
1F
100
AcDbEntity
  8
0
  6
Continuous
 62
     7
370
    25
100
AcDbLine
 10
21.3665724674
 20
10.8140291591
 30
0.0
 11
21.4165724632
 21
10.7890292345
 31
0.0
  0
LINE
  5
C0
330
1F
100
AcDbEntity
  8
0
  6
Continuous
 62
     7
370
    25
100
AcDbLine
 10
21.4165724632
 20
11.0890295022
 30
0.0
 11
21.3665724674
 21
11.0640295777
 31
0.0
  0
LINE
  5
C1
330
1F
100
AcDbEntity
  8
0
  6
Continuous
 62
     7
370
    25
100
AcDbLine
 10
20.6165725315
 20
11.0640295777
 30
0.0
 11
20.5665723891
 21
11.0890295022
 31
0.0
  0
LINE
  5
C2
330
1F
100
AcDbEntity
  8
0
  6
Continuous
 62
     7
370
    25
100
AcDbLine
 10
20.5665723891
 20
11.0890295022
 30
0.0
 11
20.612572391
 21
11.1120289166
 31
0.0
  0
LINE
  5
C3
330
1F
100
AcDbEntity
  8
0
  6
Continuous
 62
     7
370
    25
100
AcDbLine
 10
21.3705724612
 20
11.1120289166
 30
0.0
 11
21.4165724632
 21
11.0890295022
 31
0.0
  0
LINE
  5
C4
330
1F
100
AcDbEntity
  8
0
  6
Continuous
 62
     7
370
    25
100
AcDbLine
 10
21.4165724632
 20
10.8390290836
 30
0.0
 11
21.3665724674
 21
10.8140291591
 31
0.0
  0
LINE
  5
C5
330
1F
100
AcDbEntity
  8
0
  6
Continuous
 62
     7
370
    25
100
AcDbLine
 10
20.6165725315
 20
10.8140291591
 30
0.0
 11
20.5665723891
 21
10.8390290836
 31
0.0
  0
LINE
  5
C6
330
1F
100
AcDbEntity
  8
0
  6
Continuous
 62
     7
370
    25
100
AcDbLine
 10
21.4165724632
 20
10.9890286308
 30
0.0
 11
21.3665724674
 21
10.9640287063
 31
0.0
  0
LINE
  5
C7
330
1F
100
AcDbEntity
  8
0
  6
Continuous
 62
     7
370
    25
100
AcDbLine
 10
20.6165725315
 20
10.9640287063
 30
0.0
 11
20.5665723891
 21
10.9890286308
 31
0.0
  0
LINE
  5
C8
330
1F
100
AcDbEntity
  8
0
  6
Continuous
 62
     7
370
    25
100
AcDbLine
 10
21.4165724632
 20
10.7890292345
 30
0.0
 11
21.3665724674
 21
10.76402931
 31
0.0
  0
LINE
  5
C9
330
1F
100
AcDbEntity
  8
0
  6
Continuous
 62
     7
370
    25
100
AcDbLine
 10
20.6165725315
 20
10.76402931
 30
0.0
 11
20.5665723891
 21
10.7890292345
 31
0.0
  0
LINE
  5
CA
330
1F
100
AcDbEntity
  8
0
  6
Continuous
 62
     7
370
    25
100
AcDbLine
 10
20.5665723891
 20
10.8390290836
 30
0.0
 11
20.6165725315
 21
10.8640290081
 31
0.0
  0
LINE
  5
CB
330
1F
100
AcDbEntity
  8
0
  6
Continuous
 62
     7
370
    25
100
AcDbLine
 10
21.3665724674
 20
10.8640290081
 30
0.0
 11
21.4165724632
 21
10.8390290836
 31
0.0
  0
LINE
  5
CC
330
1F
100
AcDbEntity
  8
0
  6
Continuous
 62
     7
370
    25
100
AcDbLine
 10
21.4165724632
 20
11.0390296532
 30
0.0
 11
21.3665724674
 21
11.0140297286
 31
0.0
  0
LINE
  5
CD
330
1F
100
AcDbEntity
  8
0
  6
Continuous
 62
     7
370
    25
100
AcDbLine
 10
20.6165725315
 20
11.0140297286
 30
0.0
 11
20.5665723891
 21
11.0390296532
 31
0.0
  0
LINE
  5
CE
330
1F
100
AcDbEntity
  8
0
  6
Continuous
 62
     7
370
    25
100
AcDbLine
 10
20.5665723891
 20
10.9390287817
 30
0.0
 11
20.6165725315
 21
10.9640287063
 31
0.0
  0
LINE
  5
CF
330
1F
100
AcDbEntity
  8
0
  6
Continuous
 62
     7
370
    25
100
AcDbLine
 10
21.3665724674
 20
10.9640287063
 30
0.0
 11
21.4165724632
 21
10.9390287817
 31
0.0
  0
LINE
  5
D0
330
1F
100
AcDbEntity
  8
0
  6
Continuous
 62
     7
370
    25
100
AcDbLine
 10
20.5665723891
 20
10.8890289327
 30
0.0
 11
20.6165725315
 21
10.9140288572
 31
0.0
  0
LINE
  5
D1
330
1F
100
AcDbEntity
  8
0
  6
Continuous
 62
     7
370
    25
100
AcDbLine
 10
21.3665724674
 20
10.9140288572
 30
0.0
 11
21.4165724632
 21
10.8890289327
 31
0.0
  0
LINE
  5
D2
330
1F
100
AcDbEntity
  8
0
  6
Continuous
 62
     7
370
    25
100
AcDbLine
 10
21.4165724632
 20
10.8890289327
 30
0.0
 11
21.3665724674
 21
10.8640290081
 31
0.0
  0
LINE
  5
D3
330
1F
100
AcDbEntity
  8
0
  6
Continuous
 62
     7
370
    25
100
AcDbLine
 10
20.6165725315
 20
10.8640290081
 30
0.0
 11
20.5665723891
 21
10.8890289327
 31
0.0
  0
LINE
  5
D4
330
1F
100
AcDbEntity
  8
0
  6
Continuous
 62
     7
370
    25
100
AcDbLine
 10
21.4165724632
 20
10.9390287817
 30
0.0
 11
21.3665724674
 21
10.9140288572
 31
0.0
  0
LINE
  5
D5
330
1F
100
AcDbEntity
  8
0
  6
Continuous
 62
     7
370
    25
100
AcDbLine
 10
20.6165725315
 20
10.9140288572
 30
0.0
 11
20.5665723891
 21
10.9390287817
 31
0.0
  0
LINE
  5
D6
330
1F
100
AcDbEntity
  8
0
  6
Continuous
 62
     7
370
    25
100
AcDbLine
 10
20.5665723891
 20
11.0390296532
 30
0.0
 11
20.6165725315
 21
11.0640295777
 31
0.0
  0
LINE
  5
D7
330
1F
100
AcDbEntity
  8
0
  6
Continuous
 62
     7
370
    25
100
AcDbLine
 10
21.3665724674
 20
11.0640295777
 30
0.0
 11
21.4165724632
 21
11.0390296532
 31
0.0
  0
LINE
  5
D8
330
1F
100
AcDbEntity
  8
0
  6
Continuous
 62
     7
370
    25
100
AcDbLine
 10
20.5665723891
 20
10.6890295364
 30
0.0
 11
20.6165725315
 21
10.7140294609
 31
0.0
  0
LINE
  5
D9
330
1F
100
AcDbEntity
  8
0
  6
Continuous
 62
     7
370
    25
100
AcDbLine
 10
21.3665724674
 20
10.7140294609
 30
0.0
 11
21.4165724632
 21
10.6890295364
 31
0.0
  0
LINE
  5
DA
330
1F
100
AcDbEntity
  8
0
  6
Continuous
 62
     7
370
    25
100
AcDbLine
 10
20.5665723891
 20
10.7390293855
 30
0.0
 11
20.6165725315
 21
10.76402931
 31
0.0
  0
LINE
  5
DB
330
1F
100
AcDbEntity
  8
0
  6
Continuous
 62
     7
370
    25
100
AcDbLine
 10
21.3665724674
 20
10.76402931
 30
0.0
 11
21.4165724632
 21
10.7390293855
 31
0.0
  0
LINE
  5
DC
330
1F
100
AcDbEntity
  8
0
  6
Continuous
 62
     7
370
    25
100
AcDbLine
 10
21.4165724632
 20
10.7390293855
 30
0.0
 11
21.3665724674
 21
10.7140294609
 31
0.0
  0
LINE
  5
DD
330
1F
100
AcDbEntity
  8
0
  6
Continuous
 62
     7
370
    25
100
AcDbLine
 10
20.6165725315
 20
10.7140294609
 30
0.0
 11
20.5665723891
 21
10.7390293855
 31
0.0
  0
ARC
  5
DE
330
1F
100
AcDbEntity
  8
0
  6
Continuous
 62
     7
370
    25
100
AcDbCircle
 10
20.9915944115
 20
22.0321333454
 30
0.0
 40
0.2309690156465247
100
AcDbArc
 50
111.3623508434
 51
118.8020707479
  0
ARC
  5
DF
330
1F
100
AcDbEntity
  8
0
  6
Continuous
 62
     7
370
    25
100
AcDbCircle
 10
20.9915505874
 20
22.0321333454
 30
0.0
 40
0.2309690156464471
100
AcDbArc
 50
61.1979292521
 51
68.6376491566
  0
ARC
  5
E0
330
1F
100
AcDbEntity
  8
0
  6
Continuous
 62
     7
370
    25
100
AcDbCircle
 10
20.5521941905
 20
11.4106118626
 30
0.0
 40
0.3000109372522748
100
AcDbArc
 50
246.3969240205
 51
264.4075221674
  0
ARC
  5
E1
330
1F
100
AcDbEntity
  8
0
  6
Continuous
 62
     7
370
    25
100
AcDbCircle
 10
21.4309514176
 20
11.4106089605
 30
0.0
 40
0.3000079753959491
100
AcDbArc
 50
275.5923881876
 51
293.6031656245
  0
LINE
  5
E2
330
1F
100
AcDbEntity
  8
0
  6
Continuous
 62
     7
370
    25
100
AcDbLine
 10
20.4290725108
 20
11.1402812835
 30
0.0
 11
20.4290725108
 21
11.2480295855
 31
0.0
  0
ARC
  5
E3
330
1F
100
AcDbEntity
  8
0
  6
Continuous
 62
     7
370
    25
100
AcDbCircle
 10
20.4340737471
 20
11.1402819076
 30
0.0
 40
0.0050012362906516
100
AcDbArc
 50
180.0071492035
 51
246.385445598
  0
LINE
  5
E4
330
1F
100
AcDbEntity
  8
0
  6
Continuous
 62
     7
370
    25
100
AcDbLine
 10
21.5540724881
 20
11.2450294068
 30
0.0
 11
21.5540724881
 21
11.1402812835
 31
0.0
  0
ARC
  5
E5
330
1F
100
AcDbEntity
  8
0
  6
Continuous
 62
     7
370
    25
100
AcDbCircle
 10
21.5510722712
 20
11.2450293686
 30
0.0
 40
0.003000216895698
100
AcDbArc
 50
0.0007297998
 51
89.996469204
  0
ARC
  5
E6
330
1F
100
AcDbEntity
  8
0
  6
Continuous
 62
     7
370
    25
100
AcDbCircle
 10
21.5490714319
 20
11.1402818539
 30
0.0
 40
0.0050010562567952
100
AcDbArc
 50
293.611371299
 51
359.9934654073
  0
ARC
  5
E7
330
1F
100
AcDbEntity
  8
0
  6
Continuous
 62
     7
370
    25
100
AcDbCircle
 10
21.4309514176
 20
11.140449575
 30
0.0
 40
0.3000079753959364
100
AcDbArc
 50
66.3968343755
 51
84.4076118124
  0
ARC
  5
E8
330
1F
100
AcDbEntity
  8
0
  6
Continuous
 62
     7
370
    25
100
AcDbCircle
 10
20.5521941905
 20
11.140446673
 30
0.0
 40
0.3000109372522714
100
AcDbArc
 50
95.5924778326
 51
113.6030759795
  0
LINE
  5
E9
330
1F
100
AcDbEntity
  8
0
  6
Continuous
 62
     7
370
    25
100
AcDbLine
 10
20.4290725108
 20
11.3030289501
 30
0.0
 11
20.4290725108
 21
11.4107772521
 31
0.0
  0
ARC
  5
EA
330
1F
100
AcDbEntity
  8
0
  6
Continuous
 62
     7
370
    25
100
AcDbCircle
 10
20.4340737471
 20
11.410776628
 30
0.0
 40
0.0050012362906658
100
AcDbArc
 50
113.6145544021
 51
179.9928507964
  0
LINE
  5
EB
330
1F
100
AcDbEntity
  8
0
  6
Continuous
 62
     7
370
    25
100
AcDbLine
 10
21.5540724881
 20
11.4107772521
 30
0.0
 11
21.5540724881
 21
11.3030289501
 31
0.0
  0
ARC
  5
EC
330
1F
100
AcDbEntity
  8
0
  6
Continuous
 62
     7
370
    25
100
AcDbCircle
 10
21.5490714319
 20
11.4107766817
 30
0.0
 40
0.005001056256781
100
AcDbArc
 50
0.0065345926
 51
66.3886287011
  0
LINE
  5
ED
330
1F
100
AcDbEntity
  8
0
  6
Continuous
 62
     7
370
    25
100
AcDbLine
 10
20.4915726155
 20
22.2340291809
 30
0.0
 11
20.4915726155
 21
26.1134502855
 31
0.0
  0
LINE
  5
EE
330
1F
100
AcDbEntity
  8
0
  6
Continuous
 62
     7
370
    25
100
AcDbLine
 10
21.4915725301
 20
25.8911224672
 30
0.0
 11
21.4915725301
 21
22.2340291809
 31
0.0
  0
LINE
  5
EF
330
1F
100
AcDbEntity
  8
0
  6
Continuous
 62
     7
370
    25
100
AcDbLine
 10
21.4165724632
 20
10.9890286308
 30
0.0
 11
20.5665723891
 21
10.9890286308
 31
0.0
  0
LINE
  5
F0
330
1F
100
AcDbEntity
  8
0
  6
Continuous
 62
     7
370
    25
100
AcDbLine
 10
21.3665724674
 20
11.0140297286
 30
0.0
 11
20.6165725315
 21
11.0140297286
 31
0.0
  0
LINE
  5
F1
330
1F
100
AcDbEntity
  8
0
  6
Continuous
 62
     7
370
    25
100
AcDbLine
 10
21.4165724632
 20
10.7890292345
 30
0.0
 11
20.5665723891
 21
10.7890292345
 31
0.0
  0
LINE
  5
F2
330
1F
100
AcDbEntity
  8
0
  6
Continuous
 62
     7
370
    25
100
AcDbLine
 10
21.3665724674
 20
10.8140291591
 30
0.0
 11
20.6165725315
 21
10.8140291591
 31
0.0
  0
LINE
  5
F3
330
1F
100
AcDbEntity
  8
0
  6
Continuous
 62
     7
370
    25
100
AcDbLine
 10
21.3665724674
 20
11.0640295777
 30
0.0
 11
20.6165725315
 21
11.0640295777
 31
0.0
  0
LINE
  5
F4
330
1F
100
AcDbEntity
  8
0
  6
Continuous
 62
     7
370
    25
100
AcDbLine
 10
21.4165724632
 20
11.0890295022
 30
0.0
 11
20.5665723891
 21
11.0890295022
 31
0.0
  0
LINE
  5
F5
330
1F
100
AcDbEntity
  8
0
  6
Continuous
 62
     7
370
    25
100
AcDbLine
 10
21.4165724632
 20
10.8390290836
 30
0.0
 11
20.5665723891
 21
10.8390290836
 31
0.0
  0
LINE
  5
F6
330
1F
100
AcDbEntity
  8
0
  6
Continuous
 62
     7
370
    25
100
AcDbLine
 10
21.3665724674
 20
10.9640287063
 30
0.0
 11
20.6165725315
 21
10.9640287063
 31
0.0
  0
LINE
  5
F7
330
1F
100
AcDbEntity
  8
0
  6
Continuous
 62
     7
370
    25
100
AcDbLine
 10
21.3665724674
 20
10.76402931
 30
0.0
 11
20.6165725315
 21
10.76402931
 31
0.0
  0
LINE
  5
F8
330
1F
100
AcDbEntity
  8
0
  6
Continuous
 62
     7
370
    25
100
AcDbLine
 10
21.3665724674
 20
10.8640290081
 30
0.0
 11
20.6165725315
 21
10.8640290081
 31
0.0
  0
LINE
  5
F9
330
1F
100
AcDbEntity
  8
0
  6
Continuous
 62
     7
370
    25
100
AcDbLine
 10
21.4165724632
 20
11.0390296532
 30
0.0
 11
20.5665723891
 21
11.0390296532
 31
0.0
  0
LINE
  5
FA
330
1F
100
AcDbEntity
  8
0
  6
Continuous
 62
     7
370
    25
100
AcDbLine
 10
21.4165724632
 20
10.9390287817
 30
0.0
 11
20.5665723891
 21
10.9390287817
 31
0.0
  0
LINE
  5
FB
330
1F
100
AcDbEntity
  8
0
  6
Continuous
 62
     7
370
    25
100
AcDbLine
 10
21.4165724632
 20
10.8890289327
 30
0.0
 11
20.5665723891
 21
10.8890289327
 31
0.0
  0
LINE
  5
FC
330
1F
100
AcDbEntity
  8
0
  6
Continuous
 62
     7
370
    25
100
AcDbLine
 10
21.3665724674
 20
10.9140288572
 30
0.0
 11
20.6165725315
 21
10.9140288572
 31
0.0
  0
LINE
  5
FD
330
1F
100
AcDbEntity
  8
0
  6
Continuous
 62
     7
370
    25
100
AcDbLine
 10
21.4165724632
 20
10.6890295364
 30
0.0
 11
20.5665723891
 21
10.6890295364
 31
0.0
  0
LINE
  5
FE
330
1F
100
AcDbEntity
  8
0
  6
Continuous
 62
     7
370
    25
100
AcDbLine
 10
21.3665724674
 20
10.7140294609
 30
0.0
 11
20.6165725315
 21
10.7140294609
 31
0.0
  0
LINE
  5
FF
330
1F
100
AcDbEntity
  8
0
  6
Continuous
 62
     7
370
    25
100
AcDbLine
 10
21.4165724632
 20
10.7390293855
 30
0.0
 11
20.5665723891
 21
10.7390293855
 31
0.0
  0
LINE
  5
100
330
1F
100
AcDbEntity
  8
0
  6
Continuous
 62
     7
370
    25
100
AcDbLine
 10
19.6265725281
 20
20.220854144
 30
0.0
 11
19.6265725281
 21
21.9390290155
 31
0.0
  0
LINE
  5
101
330
1F
100
AcDbEntity
  8
0
  6
Continuous
 62
     7
370
    25
100
AcDbLine
 10
19.636414041
 20
19.9390291863
 30
0.0
 11
19.6265725281
 21
20.220854144
 31
0.0
  0
LINE
  5
102
330
1F
100
AcDbEntity
  8
0
  6
Continuous
 62
     7
370
    25
100
AcDbLine
 10
22.3467309579
 20
19.9390291863
 30
0.0
 11
19.636414041
 21
19.9390291863
 31
0.0
  0
LINE
  5
103
330
1F
100
AcDbEntity
  8
0
  6
Continuous
 62
     7
370
    25
100
AcDbLine
 10
22.3467309579
 20
19.9390291863
 30
0.0
 11
22.3565724709
 21
20.220854144
 31
0.0
  0
LINE
  5
104
330
1F
100
AcDbEntity
  8
0
  6
Continuous
 62
     7
370
    25
100
AcDbLine
 10
22.3565724709
 20
20.220854144
 30
0.0
 11
22.3565724709
 21
21.9390290155
 31
0.0
  0
LINE
  5
105
330
1F
100
AcDbEntity
  8
0
  6
Continuous
 62
     7
370
    25
100
AcDbLine
 10
22.3565724709
 20
21.9390290155
 30
0.0
 11
19.6265725281
 21
21.9390290155
 31
0.0
  0
CIRCLE
  5
106
330
1F
100
AcDbEntity
  8
0
  6
Continuous
 62
     7
370
    25
100
AcDbCircle
 10
21.7165731881
 20
20.6420210146
 30
0.0
 40
0.4031353661714743
  0
CIRCLE
  5
107
330
1F
100
AcDbEntity
  8
0
  6
Continuous
 62
     7
370
    25
100
AcDbCircle
 10
20.2665732949
 20
20.6420210953
 30
0.0
 40
0.4031353346343029
  0
LINE
  5
108
330
1F
100
AcDbEntity
  8
0
  6
Continuous
 62
     7
370
    25
100
AcDbLine
 10
19.6265725281
 20
20.220854144
 30
0.0
 11
19.5665724745
 21
21.9390290155
 31
0.0
  0
LINE
  5
109
330
1F
100
AcDbEntity
  8
0
  6
Continuous
 62
     7
370
    25
100
AcDbLine
 10
22.3565724709
 20
20.220854144
 30
0.0
 11
22.4165724511
 21
21.9390290155
 31
0.0
  0
LINE
  5
10A
330
1F
100
AcDbEntity
  8
0
  6
Continuous
 62
     7
370
    25
100
AcDbLine
 10
19.636414041
 20
19.9077789873
 30
0.0
 11
19.636414041
 21
19.9390291863
 31
0.0
  0
LINE
  5
10B
330
1F
100
AcDbEntity
  8
0
  6
Continuous
 62
     7
370
    25
100
AcDbLine
 10
19.636414041
 20
19.9077789873
 30
0.0
 11
20.1415724987
 21
19.9077789873
 31
0.0
  0
LINE
  5
10C
330
1F
100
AcDbEntity
  8
0
  6
Continuous
 62
     7
370
    25
100
AcDbLine
 10
20.1415724987
 20
19.9077789873
 30
0.0
 11
20.1415724987
 21
19.9390291863
 31
0.0
  0
LINE
  5
10D
330
1F
100
AcDbEntity
  8
0
  6
Continuous
 62
     7
370
    25
100
AcDbLine
 10
21.8415725002
 20
19.9077789873
 30
0.0
 11
21.8415725002
 21
19.9390291863
 31
0.0
  0
LINE
  5
10E
330
1F
100
AcDbEntity
  8
0
  6
Continuous
 62
     7
370
    25
100
AcDbLine
 10
21.8415725002
 20
19.9077789873
 30
0.0
 11
22.3467309579
 21
19.9077789873
 31
0.0
  0
LINE
  5
10F
330
1F
100
AcDbEntity
  8
0
  6
Continuous
 62
     7
370
    25
100
AcDbLine
 10
22.3467309579
 20
19.9077789873
 30
0.0
 11
22.3467309579
 21
19.9390291863
 31
0.0
  0
ARC
  5
110
330
1F
100
AcDbEntity
  8
0
  6
Continuous
 62
     7
370
    25
100
AcDbCircle
 10
21.7165727843
 20
20.6415292689
 30
0.0
 40
0.3949998552147816
100
AcDbArc
 50
313.0834688411
 51
122.9165585248
  0
LINE
  5
111
330
1F
100
AcDbEntity
  8
0
  6
Continuous
 62
     7
370
    25
100
AcDbLine
 10
21.5019231172
 20
20.9731169738
 30
0.0
 11
21.9863826007
 21
20.353037417
 31
0.0
  0
ARC
  5
112
330
1F
100
AcDbEntity
  8
0
  6
Continuous
 62
     7
370
    25
100
AcDbCircle
 10
21.7165722374
 20
20.6415290863
 30
0.0
 40
0.394999855214784
100
AcDbArc
 50
133.0834688411
 51
302.9165585248
  0
LINE
  5
113
330
1F
100
AcDbEntity
  8
0
  6
Continuous
 62
     7
370
    25
100
AcDbLine
 10
21.9312219046
 20
20.3099413815
 30
0.0
 11
21.4467624211
 21
20.9300209383
 31
0.0
  0
ARC
  5
114
330
1F
100
AcDbEntity
  8
0
  6
Continuous
 62
     7
370
    25
100
AcDbCircle
 10
21.7165655767
 20
20.6415362923
 30
0.0
 40
0.3949900426145987
100
AcDbArc
 50
122.9162344758
 51
133.0834771634
  0
ARC
  5
115
330
1F
100
AcDbEntity
  8
0
  6
Continuous
 62
     7
370
    25
100
AcDbCircle
 10
21.7165794451
 20
20.641522063
 30
0.0
 40
0.3949900426146783
100
AcDbArc
 50
302.9162344758
 51
313.0834771634
  0
LINE
  5
116
330
1F
100
AcDbEntity
  8
0
  6
Continuous
 62
     7
370
    25
100
AcDbLine
 10
20.051923241
 20
20.3099413815
 30
0.0
 11
20.5363825779
 21
20.9300209383
 31
0.0
  0
ARC
  5
117
330
1F
100
AcDbEntity
  8
0
  6
Continuous
 62
     7
370
    25
100
AcDbCircle
 10
20.2665724624
 20
20.6415293708
 30
0.0
 40
0.3949998517648623
100
AcDbArc
 50
237.0835181736
 51
46.9164712909
  0
LINE
  5
118
330
1F
100
AcDbEntity
  8
0
  6
Continuous
 62
     7
370
    25
100
AcDbLine
 10
20.4812218817
 20
20.9731169738
 30
0.0
 11
19.9967622516
 21
20.353037417
 31
0.0
  0
ARC
  5
119
330
1F
100
AcDbEntity
  8
0
  6
Continuous
 62
     7
370
    25
100
AcDbCircle
 10
20.2665724787
 20
20.6415289987
 30
0.0
 40
0.3949999384837958
100
AcDbArc
 50
57.0834949291
 51
226.9164608746
  0
ARC
  5
11A
330
1F
100
AcDbEntity
  8
0
  6
Continuous
 62
     7
370
    25
100
AcDbCircle
 10
20.2665522251
 20
20.6415066514
 30
0.0
 40
0.3949697824534871
100
AcDbArc
 50
226.9163923676
 51
237.0841916252
  0
ARC
  5
11B
330
1F
100
AcDbEntity
  8
0
  6
Continuous
 62
     7
370
    25
100
AcDbCircle
 10
20.2665794223
 20
20.6415362923
 30
0.0
 40
0.3949900426146015
100
AcDbArc
 50
46.9165228366
 51
57.0837655242
  0
ARC
  5
11C
330
1F
100
AcDbEntity
  8
0
  6
Continuous
 62
     7
370
    25
100
AcDbCircle
 10
20.9847595682
 20
22.0496732277
 30
0.0
 40
0.212144512177642
100
AcDbArc
 50
60.6179175674
 51
111.3688072501
  0
ARC
  5
11D
330
1F
100
AcDbEntity
  8
0
  6
Continuous
 62
     7
370
    25
100
AcDbCircle
 10
20.9981848528
 20
22.0487902243
 30
0.0
 40
0.2130483702727147
100
AcDbArc
 50
60.3969941372
 51
91.7785866708
  0
LINE
  5
11E
330
1F
100
AcDbEntity
  8
0
  6
Continuous
 62
     7
370
    25
100
AcDbLine
 10
20.3892999036
 20
11.3030289501
 30
0.0
 11
20.3892999036
 21
11.2480295855
 31
0.0
  0
LINE
  5
11F
330
1F
100
AcDbEntity
  8
0
  6
Continuous
 62
     7
370
    25
100
AcDbLine
 10
19.9882301635
 20
11.2480295855
 30
0.0
 11
19.9882301635
 21
11.3030289501
 31
0.0
  0
LINE
  5
120
330
1F
100
AcDbEntity
  8
0
  6
Continuous
 62
     7
370
    25
100
AcDbLine
 10
20.3892999036
 20
11.3030289501
 30
0.0
 11
19.9882301635
 21
11.3030289501
 31
0.0
  0
LINE
  5
121
330
1F
100
AcDbEntity
  8
0
  6
Continuous
 62
     7
370
    25
100
AcDbLine
 10
20.3892999036
 20
11.2480295855
 30
0.0
 11
19.9882301635
 21
11.2480295855
 31
0.0
  0
LINE
  5
122
330
1F
100
AcDbEntity
  8
0
  6
Continuous
 62
     7
370
    25
100
AcDbLine
 10
21.5986367866
 20
11.2480295855
 30
0.0
 11
21.5986367866
 21
11.3030289501
 31
0.0
  0
LINE
  5
123
330
1F
100
AcDbEntity
  8
0
  6
Continuous
 62
     7
370
    25
100
AcDbLine
 10
21.5986367866
 20
11.3030289501
 30
0.0
 11
20.3892999036
 21
11.3030289501
 31
0.0
  0
LINE
  5
124
330
1F
100
AcDbEntity
  8
0
  6
Continuous
 62
     7
370
    25
100
AcDbLine
 10
21.5986367866
 20
11.2480295855
 30
0.0
 11
20.3892999036
 21
11.2480295855
 31
0.0
  0
LINE
  5
125
330
1F
100
AcDbEntity
  8
0
  6
Continuous
 62
     7
370
    25
100
AcDbLine
 10
22.3926051946
 20
11.3030289501
 30
0.0
 11
22.3926051946
 21
11.2480295855
 31
0.0
  0
LINE
  5
126
330
1F
100
AcDbEntity
  8
0
  6
Continuous
 62
     7
370
    25
100
AcDbLine
 10
22.3926051946
 20
11.3030289501
 30
0.0
 11
21.5986367866
 21
11.3030289501
 31
0.0
  0
LINE
  5
127
330
1F
100
AcDbEntity
  8
0
  6
Continuous
 62
     7
370
    25
100
AcDbLine
 10
22.3926051946
 20
11.2480295855
 30
0.0
 11
21.5986367866
 21
11.2480295855
 31
0.0
  0
LINE
  5
128
330
1F
100
AcDbEntity
  8
0
  6
Continuous
 62
     7
370
    25
100
AcDbLine
 10
19.5926093204
 20
11.2480295855
 30
0.0
 11
19.5926093204
 21
11.3030289501
 31
0.0
  0
LINE
  5
129
330
1F
100
AcDbEntity
  8
0
  6
Continuous
 62
     7
370
    25
100
AcDbLine
 10
19.84656676
 20
11.2480295855
 30
0.0
 11
19.84656676
 21
11.3030289501
 31
0.0
  0
LINE
  5
12A
330
1F
100
AcDbEntity
  8
0
  6
Continuous
 62
     7
370
    25
100
AcDbLine
 10
19.84656676
 20
11.3030289501
 30
0.0
 11
19.5926093204
 21
11.3030289501
 31
0.0
  0
LINE
  5
12B
330
1F
100
AcDbEntity
  8
0
  6
Continuous
 62
     7
370
    25
100
AcDbLine
 10
19.84656676
 20
11.2480295855
 30
0.0
 11
19.5926093204
 21
11.2480295855
 31
0.0
  0
LINE
  5
12C
330
1F
100
AcDbEntity
  8
0
  6
Continuous
 62
     7
370
    25
100
AcDbLine
 10
19.84656676
 20
11.3030289501
 30
0.0
 11
19.9882301635
 21
11.3030289501
 31
0.0
  0
LINE
  5
12D
330
1F
100
AcDbEntity
  8
0
  6
Continuous
 62
     7
370
    25
100
AcDbLine
 10
19.84656676
 20
11.2480295855
 30
0.0
 11
19.9882301635
 21
11.2480295855
 31
0.0
  0
LINE
  5
12E
330
1F
100
AcDbEntity
  8
0
  6
Continuous
 62
     7
370
    25
100
AcDbLine
 10
19.5905398776
 20
11.3030289501
 30
0.0
 11
19.5905398776
 21
11.2480295855
 31
0.0
  0
LINE
  5
12F
330
1F
100
AcDbEntity
  8
0
  6
Continuous
 62
     7
370
    25
100
AcDbLine
 10
19.5926093204
 20
11.3030289501
 30
0.0
 11
19.5905398776
 21
11.3030289501
 31
0.0
  0
LINE
  5
130
330
1F
100
AcDbEntity
  8
0
  6
Continuous
 62
     7
370
    25
100
AcDbLine
 10
19.5926093204
 20
11.2480295855
 30
0.0
 11
19.5905398776
 21
11.2480295855
 31
0.0
  0
LINE
  5
131
330
1F
100
AcDbEntity
  8
0
  6
Continuous
 62
     7
370
    25
100
AcDbLine
 10
22.4665724468
 20
22.0640292248
 30
0.0
 11
22.4665724468
 21
21.9390290155
 31
0.0
  0
LINE
  5
132
330
1F
100
AcDbEntity
  8
0
  6
Continuous
 62
     7
370
    25
100
AcDbLine
 10
22.4665724468
 20
22.0640292248
 30
0.0
 11
19.5165723321
 21
22.0640292248
 31
0.0
  0
LINE
  5
133
330
1F
100
AcDbEntity
  8
0
  6
Continuous
 62
     7
370
    25
100
AcDbLine
 10
19.5165723321
 20
22.0640292248
 30
0.0
 11
19.5165723321
 21
21.9390290155
 31
0.0
  0
LINE
  5
134
330
1F
100
AcDbEntity
  8
0
  6
Continuous
 62
     7
370
    25
100
AcDbLine
 10
22.4665724468
 20
21.9390290155
 30
0.0
 11
19.5165723321
 21
21.9390290155
 31
0.0
  0
LINE
  5
135
330
1F
100
AcDbEntity
  8
0
  6
Continuous
 62
     7
370
    25
100
AcDbLine
 10
22.401572511
 20
22.128987141
 30
0.0
 11
22.401572511
 21
22.0640292248
 31
0.0
  0
ARC
  5
136
330
1F
100
AcDbEntity
  8
0
  6
Continuous
 62
     7
370
    25
100
AcDbCircle
 10
22.3584559773
 20
21.9472165357
 30
0.0
 40
0.1868143154387499
100
AcDbArc
 50
76.6558906286
 51
89.7378770988
  0
LINE
  5
137
330
1F
100
AcDbEntity
  8
0
  6
Continuous
 62
     7
370
    25
100
AcDbLine
 10
19.623834293
 20
22.1340288961
 30
0.0
 11
22.3593106326
 21
22.1340288961
 31
0.0
  0
ARC
  5
138
330
1F
100
AcDbEntity
  8
0
  6
Continuous
 62
     7
370
    25
100
AcDbCircle
 10
19.624688792
 20
21.9472184725
 30
0.0
 40
0.1868123779187179
100
AcDbArc
 50
90.2620776989
 51
103.3441779619
  0
LINE
  5
139
330
1F
100
AcDbEntity
  8
0
  6
Continuous
 62
     7
370
    25
100
AcDbLine
 10
19.5815724879
 20
22.128987141
 30
0.0
 11
19.5815724879
 21
22.0640292248
 31
0.0
  0
LINE
  5
13A
330
1F
100
AcDbEntity
  8
0
  6
Continuous
 62
     7
370
    25
100
AcDbLine
 10
22.1649523378
 20
22.2246602225
 30
0.0
 11
22.3593106326
 21
22.1340288961
 31
0.0
  0
LINE
  5
13B
330
1F
100
AcDbEntity
  8
0
  6
Continuous
 62
     7
370
    25
100
AcDbLine
 10
19.8181926611
 20
22.2246602225
 30
0.0
 11
22.1649523378
 21
22.2246602225
 31
0.0
  0
LINE
  5
13C
330
1F
100
AcDbEntity
  8
0
  6
Continuous
 62
     7
370
    25
100
AcDbLine
 10
19.623834293
 20
22.1340288961
 30
0.0
 11
19.8181926611
 21
22.2246602225
 31
0.0
  0
LINE
  5
13D
330
1F
100
AcDbEntity
  8
0
  6
Continuous
 62
     7
370
    25
100
AcDbLine
 10
19.775930856
 20
22.2246602225
 30
0.0
 11
19.5815724879
 21
22.1340288961
 31
0.0
  0
LINE
  5
13E
330
1F
100
AcDbEntity
  8
0
  6
Continuous
 62
     7
370
    25
100
AcDbLine
 10
19.5815724879
 20
22.1340288961
 30
0.0
 11
19.5815724879
 21
22.128987141
 31
0.0
  0
ARC
  5
13F
330
1F
100
AcDbEntity
  8
0
  6
Continuous
 62
     7
370
    25
100
AcDbCircle
 10
19.7970617586
 20
22.1753181409
 30
0.0
 40
0.0536764013233881
100
AcDbArc
 50
66.8168168757
 51
113.1831831243
  0
LINE
  5
140
330
1F
100
AcDbEntity
  8
0
  6
Continuous
 62
     7
370
    25
100
AcDbLine
 10
22.401572511
 20
22.1340288961
 30
0.0
 11
22.2072141429
 21
22.2246602225
 31
0.0
  0
ARC
  5
141
330
1F
100
AcDbEntity
  8
0
  6
Continuous
 62
     7
370
    25
100
AcDbCircle
 10
22.1860832404
 20
22.1753181067
 30
0.0
 40
0.0536764327615408
100
AcDbArc
 50
66.816831247
 51
113.183168753
  0
LINE
  5
142
330
1F
100
AcDbEntity
  8
0
  6
Continuous
 62
     7
370
    25
100
AcDbLine
 10
22.401572511
 20
22.128987141
 30
0.0
 11
22.401572511
 21
22.1340288961
 31
0.0
  0
LINE
  5
143
330
1F
100
AcDbEntity
  8
0
  6
Continuous
 62
     7
370
    25
100
AcDbLine
 10
22.1649523378
 20
22.2246602225
 30
0.0
 11
22.1649523378
 21
22.2340291809
 31
0.0
  0
LINE
  5
144
330
1F
100
AcDbEntity
  8
0
  6
Continuous
 62
     7
370
    25
100
AcDbLine
 10
22.1649523378
 20
22.2340291809
 30
0.0
 11
19.8181926611
 21
22.2340291809
 31
0.0
  0
LINE
  5
145
330
1F
100
AcDbEntity
  8
0
  6
Continuous
 62
     7
370
    25
100
AcDbLine
 10
19.8181926611
 20
22.2246602225
 30
0.0
 11
19.8181926611
 21
22.2340291809
 31
0.0
  0
ARC
  5
146
330
1F
100
AcDbEntity
  8
0
  6
Continuous
 62
     7
370
    25
100
AcDbCircle
 10
19.818190625
 20
22.1340359175
 30
0.0
 40
0.0999932634684023
100
AcDbArc
 50
89.9988333384
 51
115.0004993736
  0
ARC
  5
147
330
1F
100
AcDbEntity
  8
0
  6
Continuous
 62
     7
370
    25
100
AcDbCircle
 10
22.1649543739
 20
22.1340359175
 30
0.0
 40
0.0999932634684023
100
AcDbArc
 50
64.9995006264
 51
90.0011666616
  0
LINE
  5
148
330
1F
100
AcDbEntity
  8
0
  6
Continuous
 62
     7
370
    25
100
AcDbLine
 10
20.5229574529
 20
11.1120289166
 30
0.0
 11
21.4601873993
 21
11.1120289166
 31
0.0
  0
SPLINE
  5
149
330
1F
100
AcDbEntity
  8
0
  6
Continuous
 62
     7
370
    25
100
AcDbSpline
210
0.0
220
0.0
230
1.0
 70
     8
 71
     3
 72
    10
 73
     6
 74
     0
 42
0.00000001
 43
0.00000001
 40
0.0
 40
0.0
 40
0.0
 40
0.0
 40
0.5351114565813315
 40
0.8105263213726825
 40
1.0
 40
1.0
 40
1.0
 40
1.0
 10
21.46494697100334
 20
11.11345919336279
 30
0.0
 10
21.47971889267448
 20
11.11606309019181
 30
0.0
 10
21.50209372913977
 20
11.12000717864685
 30
0.0
 10
21.52873447316582
 20
11.12876647968266
 30
0.0
 10
21.54077575682535
 20
11.13369198967815
 30
0.0
 10
21.54568339832924
 20
11.13569946977455
 30
0.0
  0
LINE
  5
14A
330
1F
100
AcDbEntity
  8
0
  6
Continuous
 62
     7
370
    25
100
AcDbLine
 10
21.3540625319
 20
11.1134591934
 30
0.0
 11
21.464946971
 21
11.1134591934
 31
0.0
  0
SPLINE
  5
14B
330
1F
100
AcDbEntity
  8
0
  6
Continuous
 62
     7
370
    25
100
AcDbSpline
210
0.0
220
0.0
230
1.0
 70
     8
 71
     3
 72
    10
 73
     6
 74
     0
 42
0.00000001
 43
0.00000001
 40
0.0
 40
0.0
 40
0.0
 40
0.0
 40
0.4818765140794175
 40
0.7875121622173094
 40
1.0
 40
1.0
 40
1.0
 40
1.0
 10
21.40009832014049
 20
11.13569946977455
 30
0.0
 10
21.39324768282815
 20
11.13104268581675
 30
0.0
 10
21.38205195104878
 20
11.12343228378129
 30
0.0
 10
21.36616223496691
 20
11.11672377566924
 30
0.0
 10
21.35758155724893
 20
11.11440865036278
 30
0.0
 10
21.35406253194984
 20
11.11345919336279
 30
0.0
  0
LINE
  5
14C
330
1F
100
AcDbEntity
  8
0
  6
Continuous
 62
     7
370
    25
100
AcDbLine
 10
21.2015259741
 20
11.1356994698
 30
0.0
 11
21.4000983201
 21
11.1356994698
 31
0.0
  0
SPLINE
  5
14D
330
1F
100
AcDbEntity
  8
0
  6
Continuous
 62
     7
370
    25
100
AcDbSpline
210
0.0
220
0.0
230
1.0
 70
     8
 71
     3
 72
    10
 73
     6
 74
     0
 42
0.00000001
 43
0.00000001
 40
0.0
 40
0.0
 40
0.0
 40
0.0
 40
0.5168240618907598
 40
0.7988323815261167
 40
1.0
 40
1.0
 40
1.0
 40
1.0
 10
21.15591683427918
 20
11.11345919336279
 30
0.0
 10
21.16433739374752
 20
11.11611398216752
 30
0.0
 10
21.17735268477184
 20
11.12021737328206
 30
0.0
 10
21.19209603364612
 20
11.12887404611714
 30
0.0
 10
21.19875397652358
 20
11.13369308831742
 30
0.0
 10
21.20152597406518
 20
11.13569946977455
 30
0.0
  0
LINE
  5
14E
330
1F
100
AcDbEntity
  8
0
  6
Continuous
 62
     7
370
    25
100
AcDbLine
 10
20.899418864
 20
11.1134591934
 30
0.0
 11
21.1559168343
 21
11.1134591934
 31
0.0
  0
SPLINE
  5
14F
330
1F
100
AcDbEntity
  8
0
  6
Continuous
 62
     7
370
    25
100
AcDbSpline
210
0.0
220
0.0
230
1.0
 70
     8
 71
     3
 72
    10
 73
     6
 74
     0
 42
0.00000001
 43
0.00000001
 40
0.0
 40
0.0
 40
0.0
 40
0.0
 40
0.4953413685317278
 40
0.7962640635934406
 40
1.0
 40
1.0
 40
1.0
 40
1.0
 10
20.86475870442941
 20
11.13569946977455
 30
0.0
 10
20.86985549045646
 20
11.13108317431399
 30
0.0
 10
20.87804860294613
 20
11.12366245313929
 30
0.0
 10
20.89018400232921
 20
11.11677678631417
 30
0.0
 10
20.89676289618332
 20
11.11441334086366
 30
0.0
 10
20.89941886403229
 20
11.11345919336279
 30
0.0
  0
LINE
  5
150
330
1F
100
AcDbEntity
  8
0
  6
Continuous
 62
     7
370
    25
100
AcDbLine
 10
20.6474150019
 20
11.1356994698
 30
0.0
 11
20.8647587044
 21
11.1356994698
 31
0.0
  0
SPLINE
  5
151
330
1F
100
AcDbEntity
  8
0
  6
Continuous
 62
     7
370
    25
100
AcDbSpline
210
0.0
220
0.0
230
1.0
 70
     8
 71
     3
 72
    10
 73
     6
 74
     0
 42
0.00000001
 43
0.00000001
 40
0.0
 40
0.0
 40
0.0
 40
0.0
 40
0.504813903603565
 40
0.7910554628925165
 40
1.0
 40
1.0
 40
1.0
 40
1.0
 10
20.68254243607396
 20
11.11345919336279
 30
0.0
 10
20.67598740220322
 20
11.11616087291652
 30
0.0
 10
20.665715507321
 20
11.12039446940567
 30
0.0
 10
20.65457330037554
 20
11.12896313150682
 30
0.0
 10
20.64953916363217
 20
11.13370052097986
 30
0.0
 10
20.64741500186908
 20
11.13569946977455
 30
0.0
  0
LINE
  5
152
330
1F
100
AcDbEntity
  8
0
  6
Continuous
 62
     7
370
    25
100
AcDbLine
 10
20.5369287582
 20
11.1134591934
 30
0.0
 11
20.6825424361
 21
11.1134591934
 31
0.0
  0
SPLINE
  5
153
330
1F
100
AcDbEntity
  8
0
  6
Continuous
 62
     7
370
    25
100
AcDbSpline
210
0.0
220
0.0
230
1.0
 70
     8
 71
     3
 72
    10
 73
     6
 74
     0
 42
0.00000001
 43
0.00000001
 40
0.0
 40
0.0
 40
0.0
 40
0.0
 40
0.4687041865304225
 40
0.778578620177234
 40
1.0
 40
1.0
 40
1.0
 40
1.0
 10
20.45623281042207
 20
11.13569946977455
 30
0.0
 10
20.46848223311181
 20
11.13097874612956
 30
0.0
 10
20.48883011753406
 20
11.1231370101106
 30
0.0
 10
20.51611597801171
 20
11.11666283577607
 30
0.0
 10
20.53080641299516
 20
11.11440158571138
 30
0.0
 10
20.53692875821559
 20
11.11345919336279
 30
0.0
  0
LINE
  5
154
330
1F
100
AcDbEntity
  8
0
  6
Continuous
 62
     7
370
    25
100
AcDbLine
 10
20.7492873184
 20
11.2450294068
 30
0.0
 11
20.7654855846
 21
11.2480295855
 31
0.0
  0
LINE
  5
155
330
1F
100
AcDbEntity
  8
0
  6
Continuous
 62
     7
370
    25
100
AcDbLine
 10
20.6424093264
 20
11.2450294068
 30
0.0
 11
20.7492873184
 21
11.2450294068
 31
0.0
  0
LINE
  5
156
330
1F
100
AcDbEntity
  8
0
  6
Continuous
 62
     7
370
    25
100
AcDbLine
 10
20.6424093264
 20
11.1420236634
 30
0.0
 11
20.6424093264
 21
11.2450294068
 31
0.0
  0
LINE
  5
157
330
1F
100
AcDbEntity
  8
0
  6
Continuous
 62
     7
370
    25
100
AcDbLine
 10
20.6426258039
 20
11.1402812835
 30
0.0
 11
20.6424093264
 21
11.1420236634
 31
0.0
  0
LINE
  5
158
330
1F
100
AcDbEntity
  8
0
  6
Continuous
 62
     7
370
    25
100
AcDbLine
 10
20.8677295501
 20
11.1402812835
 30
0.0
 11
20.6426258039
 21
11.1402812835
 31
0.0
  0
LINE
  5
159
330
1F
100
AcDbEntity
  8
0
  6
Continuous
 62
     7
370
    25
100
AcDbLine
 10
20.867998827
 20
11.1420236634
 30
0.0
 11
20.8677295501
 21
11.1402812835
 31
0.0
  0
LINE
  5
15A
330
1F
100
AcDbEntity
  8
0
  6
Continuous
 62
     7
370
    25
100
AcDbLine
 10
20.867998827
 20
11.1420236634
 30
0.0
 11
20.867998827
 21
11.2480295855
 31
0.0
  0
SPLINE
  5
15B
330
1F
100
AcDbEntity
  8
0
  6
Continuous
 62
     7
370
    25
100
AcDbSpline
210
0.0
220
0.0
230
1.0
 70
     8
 71
     3
 72
    12
 73
     8
 74
     0
 42
0.00000001
 43
0.00000001
 40
0.0
 40
0.0
 40
0.0
 40
0.0
 40
0.2600498093053678
 40
0.5206023926154931
 40
0.83272269393181
 40
0.9870440657038632
 40
1.0
 40
1.0
 40
1.0
 40
1.0
 10
20.64262580386097
 20
11.14028128351171
 30
0.0
 10
20.64284128772963
 20
11.13972028452232
 30
0.0
 10
20.64327267207826
 20
11.13859720192168
 30
0.0
 10
20.64460608858264
 20
11.13717979543591
 30
0.0
 10
20.6460066807413
 20
11.13625561035548
 30
0.0
 10
20.64702301013823
 20
11.13582926115968
 30
0.0
 10
20.647386823831
 20
11.13570879973308
 30
0.0
 10
20.64741500186908
 20
11.13569946977455
 30
0.0
  0
SPLINE
  5
15C
330
1F
100
AcDbEntity
  8
0
  6
Continuous
 62
     7
370
    25
100
AcDbSpline
210
0.0
220
0.0
230
1.0
 70
     8
 71
     3
 72
    12
 73
     8
 74
     0
 42
0.00000001
 43
0.00000001
 40
0.0
 40
0.0
 40
0.0
 40
0.0
 40
0.3164433241213018
 40
0.5963038805728316
 40
0.8756043406710111
 40
0.991010273880613
 40
1.0
 40
1.0
 40
1.0
 40
1.0
 10
20.86772955010995
 20
11.14028128351171
 30
0.0
 10
20.86752620512386
 20
11.13973242962502
 30
0.0
 10
20.86714302306548
 20
11.13869817269005
 30
0.0
 10
20.86632140776188
 20
11.1372977780719
 30
0.0
 10
20.86553209938325
 20
11.1363237484344
 30
0.0
 10
20.86496217675154
 20
11.13583822111435
 30
0.0
 10
20.86477241777921
 20
11.13570882114794
 30
0.0
 10
20.86475870442941
 20
11.13569946977455
 30
0.0
  0
SPLINE
  5
15D
330
1F
100
AcDbEntity
  8
0
  6
Continuous
 62
     7
370
    25
100
AcDbSpline
210
0.0
220
0.0
230
1.0
 70
     8
 71
     3
 72
    13
 73
     9
 74
     0
 42
0.00000001
 43
0.00000001
 40
0.0
 40
0.0
 40
0.0
 40
0.0
 40
0.1310573644106699
 40
0.3058921040009253
 40
0.5356381832608961
 40
0.8077117487907947
 40
0.9387238059357562
 40
1.0
 40
1.0
 40
1.0
 40
1.0
 10
20.75043541176851
 20
11.2480295854608
 30
0.0
 10
20.75028587281717
 20
11.2479872181517
 30
0.0
 10
20.7499368440948
 20
11.24788833148952
 30
0.0
 10
20.7496065877618
 20
11.24731589563251
 30
0.0
 10
20.74937104264963
 20
11.24658487811801
 30
0.0
 10
20.74928548057591
 20
11.24585408813149
 30
0.0
 10
20.74927631141215
 20
11.24532073186741
 30
0.0
 10
20.7492846584328
 20
11.24509980818697
 30
0.0
 10
20.74928731836472
 20
11.24502940678579
 30
0.0
  0
LINE
  5
15E
330
1F
100
AcDbEntity
  8
0
  6
Continuous
 62
     7
370
    25
100
AcDbLine
 10
20.9023706433
 20
11.1184117762
 30
0.0
 11
20.9024002696
 21
11.1189550232
 31
0.0
  0
SPLINE
  5
15F
330
1F
100
AcDbEntity
  8
0
  6
Continuous
 62
     7
370
    25
100
AcDbSpline
210
0.0
220
0.0
230
1.0
 70
     8
 71
     3
 72
     9
 73
     5
 74
     0
 42
0.00000001
 43
0.00000001
 40
0.0
 40
0.0
 40
0.0
 40
0.0
 40
0.4545538249865258
 40
1.0
 40
1.0
 40
1.0
 40
1.0
 10
20.90240026959084
 20
11.11895502320782
 30
0.0
 10
20.89655669156421
 20
11.12148681238857
 30
0.0
 10
20.88370105664178
 20
11.12705664601789
 30
0.0
 10
20.87354073537249
 20
11.13674123911966
 30
0.0
 10
20.86799882699924
 20
11.14202366338359
 30
0.0
  0
SPLINE
  5
160
330
1F
100
AcDbEntity
  8
0
  6
Continuous
 62
     7
370
    25
100
AcDbSpline
210
0.0
220
0.0
230
1.0
 70
     8
 71
     3
 72
    13
 73
     9
 74
     0
 42
0.00000001
 43
0.00000001
 40
0.0
 40
0.0
 40
0.0
 40
0.0
 40
0.2475611769364105
 40
0.4705027546147087
 40
0.6819183515210723
 40
0.8863741692961014
 40
0.9930430815206672
 40
1.0
 40
1.0
 40
1.0
 40
1.0
 10
20.90237064326642
 20
11.11841177615013
 30
0.0
 10
20.90229290963289
 20
11.11791718387778
 30
0.0
 10
20.9021451728627
 20
11.11697718581576
 30
0.0
 10
20.90165772921568
 20
11.1156799021792
 30
0.0
 10
20.90100378006834
 20
11.11456298433991
 30
0.0
 10
20.90024652911653
 20
11.11379556448517
 30
0.0
 10
20.89965466636405
 20
11.11351929314229
 30
0.0
 10
20.89943246844594
 20
11.11346266076811
 30
0.0
 10
20.89941886403229
 20
11.11345919336279
 30
0.0
  0
LINE
  5
161
330
1F
100
AcDbEntity
  8
0
  6
Continuous
 62
     7
370
    25
100
AcDbLine
 10
20.9024002696
 20
11.1189550232
 30
0.0
 11
20.9024002696
 21
11.2480295855
 31
0.0
  0
LINE
  5
162
330
1F
100
AcDbEntity
  8
0
  6
Continuous
 62
     7
370
    25
100
AcDbLine
 10
21.1991747879
 20
11.1402812835
 30
0.0
 11
21.1989182709
 21
11.1420236634
 31
0.0
  0
SPLINE
  5
163
330
1F
100
AcDbEntity
  8
0
  6
Continuous
 62
     7
370
    25
100
AcDbSpline
210
0.0
220
0.0
230
1.0
 70
     8
 71
     3
 72
     9
 73
     5
 74
     0
 42
0.00000001
 43
0.00000001
 40
0.0
 40
0.0
 40
0.0
 40
0.0
 40
0.5325719251365587
 40
1.0
 40
1.0
 40
1.0
 40
1.0
 10
21.19891827085625
 20
11.14202366338359
 30
0.0
 10
21.19151257467976
 20
11.13670544755653
 30
0.0
 10
21.17760704224938
 20
11.12671953659117
 30
0.0
 10
21.16134402403099
 20
11.12142829709783
 30
0.0
 10
21.1537422327337
 20
11.11895502320782
 30
0.0
  0
LINE
  5
164
330
1F
100
AcDbEntity
  8
0
  6
Continuous
 62
     7
370
    25
100
AcDbLine
 10
21.1537422327
 20
11.1189550232
 30
0.0
 11
21.1537706857
 21
11.1184117762
 31
0.0
  0
SPLINE
  5
165
330
1F
100
AcDbEntity
  8
0
  6
Continuous
 62
     7
370
    25
100
AcDbSpline
210
0.0
220
0.0
230
1.0
 70
     8
 71
     3
 72
    13
 73
     9
 74
     0
 42
0.00000001
 43
0.00000001
 40
0.0
 40
0.0
 40
0.0
 40
0.0
 40
0.2674466766604977
 40
0.5032966414730334
 40
0.7178938959663261
 40
0.9079470442000739
 40
0.9946531747342389
 40
0.9999999999999999
 40
0.9999999999999999
 40
0.9999999999999999
 40
0.9999999999999999
 10
21.15377068573834
 20
11.11841177615013
 30
0.0
 10
21.15383820136933
 20
11.11791907848969
 30
0.0
 10
21.15396525619294
 20
11.11699189150478
 30
0.0
 10
21.15432946458055
 20
11.11570346421914
 30
0.0
 10
21.15479482427641
 20
11.11460722129732
 30
0.0
 10
21.1553092212981
 20
11.11383391623303
 30
0.0
 10
21.15574727160462
 20
11.11352245712895
 30
0.0
 10
21.15590752602425
 20
11.11346266626898
 30
0.0
 10
21.15591683427918
 20
11.11345919336279
 30
0.0
  0
SPLINE
  5
166
330
1F
100
AcDbEntity
  8
0
  6
Continuous
 62
     7
370
    25
100
AcDbSpline
210
0.0
220
0.0
230
1.0
 70
     8
 71
     3
 72
    12
 73
     8
 74
     0
 42
0.00000001
 43
0.00000001
 40
0.0
 40
0.0
 40
0.0
 40
0.0
 40
0.3327054474973252
 40
0.6181101060585655
 40
0.8883579327671157
 40
0.9922236028287243
 40
0.9999999999999999
 40
0.9999999999999999
 40
0.9999999999999999
 40
0.9999999999999999
 10
21.19917478789295
 20
11.14028128351171
 30
0.0
 10
21.19935873380244
 20
11.13973560263845
 30
0.0
 10
21.19970047400082
 20
11.13872182043264
 30
0.0
 10
21.20035781940938
 20
11.13733011747666
 30
0.0
 10
21.2009529333827
 20
11.13635215436863
 30
0.0
 10
21.20137771719332
 20
11.13584325843719
 30
0.0
 10
21.20151631974309
 20
11.13570883313184
 30
0.0
 10
21.20152597406518
 20
11.13569946977455
 30
0.0
  0
SPLINE
  5
167
330
1F
100
AcDbEntity
  8
0
  6
Continuous
 62
     7
370
    25
100
AcDbSpline
210
0.0
220
0.0
230
1.0
 70
     8
 71
     3
 72
    12
 73
     8
 74
     0
 42
0.00000001
 43
0.00000001
 40
0.0
 40
0.0
 40
0.0
 40
0.0
 40
0.16267433290642
 40
0.3563773640774114
 40
0.5880118304674986
 40
0.8448402949489603
 40
1.0
 40
1.0
 40
1.0
 40
1.0
 10
21.19717662430924
 20
11.2480295854608
 30
0.0
 10
21.19738203440474
 20
11.24798942786224
 30
0.0
 10
21.19783203476486
 20
11.2479014529564
 30
0.0
 10
21.19834965157785
 20
11.24731660559113
 30
0.0
 10
21.19871725935499
 20
11.24654289510788
 30
0.0
 10
21.19889404162112
 20
11.24574226892056
 30
0.0
 10
21.19891164224819
 20
11.24522443084129
 30
0.0
 10
21.19891827085625
 20
11.24502940678579
 30
0.0
  0
LINE
  5
168
330
1F
100
AcDbEntity
  8
0
  6
Continuous
 62
     7
370
    25
100
AcDbLine
 10
21.1537422327
 20
11.1189550232
 30
0.0
 11
21.1537422327
 21
11.2480295855
 31
0.0
  0
LINE
  5
169
330
1F
100
AcDbEntity
  8
0
  6
Continuous
 62
     7
370
    25
100
AcDbLine
 10
21.1989182709
 20
11.1420236634
 30
0.0
 11
21.1989182709
 21
11.2450294068
 31
0.0
  0
LINE
  5
16A
330
1F
100
AcDbEntity
  8
0
  6
Continuous
 62
     7
370
    25
100
AcDbLine
 10
21.1989182709
 20
11.2450294068
 30
0.0
 11
21.3100640669
 21
11.2450294068
 31
0.0
  0
SPLINE
  5
16B
330
1F
100
AcDbEntity
  8
0
  6
Continuous
 62
     7
370
    25
100
AcDbSpline
210
0.0
220
0.0
230
1.0
 70
     8
 71
     3
 72
    13
 73
     9
 74
     0
 42
0.00000001
 43
0.00000001
 40
0.0
 40
0.0
 40
0.0
 40
0.0
 40
0.0557636588661921
 40
0.1757534183519385
 40
0.4302041383231784
 40
0.6559128214595619
 40
0.8435840234935711
 40
1.0
 40
1.0
 40
1.0
 40
1.0
 10
21.31006406689053
 20
11.24502940678579
 30
0.0
 10
21.31006011069577
 20
11.2450998543919
 30
0.0
 10
21.31004764173719
 20
11.2453218880217
 30
0.0
 10
21.30997761845512
 20
11.24586184356041
 30
0.0
 10
21.30977967737481
 20
11.24660343757885
 30
0.0
 10
21.30938339211636
 20
11.24734853633081
 30
0.0
 10
21.30886823541733
 20
11.24790438626584
 30
0.0
 10
21.30843199517357
 20
11.24799045852596
 30
0.0
 10
21.30823368803522
 20
11.2480295854608
 30
0.0
  0
LINE
  5
16C
330
1F
100
AcDbEntity
  8
0
  6
Continuous
 62
     7
370
    25
100
AcDbLine
 10
21.4048372121
 20
11.1402812835
 30
0.0
 11
21.1991747879
 21
11.1402812835
 31
0.0
  0
LINE
  5
16D
330
1F
100
AcDbEntity
  8
0
  6
Continuous
 62
     7
370
    25
100
AcDbLine
 10
21.4050245032
 20
11.1420236634
 30
0.0
 11
21.4048372121
 21
11.1402812835
 31
0.0
  0
LINE
  5
16E
330
1F
100
AcDbEntity
  8
0
  6
Continuous
 62
     7
370
    25
100
AcDbLine
 10
21.4050245032
 20
11.1420236634
 30
0.0
 11
21.4050245032
 21
11.2480295855
 31
0.0
  0
SPLINE
  5
16F
330
1F
100
AcDbEntity
  8
0
  6
Continuous
 62
     7
370
    25
100
AcDbSpline
210
0.0
220
0.0
230
1.0
 70
     8
 71
     3
 72
    12
 73
     8
 74
     0
 42
0.00000001
 43
0.00000001
 40
0.0
 40
0.0
 40
0.0
 40
0.0
 40
0.0131705699331358
 40
0.169591462210554
 40
0.4829609716208801
 40
0.7421044056800123
 40
1.0
 40
1.0
 40
1.0
 40
1.0
 10
21.40009832014049
 20
11.13569946977455
 30
0.0
 10
21.40012693801105
 20
11.13570879908153
 30
0.0
 10
21.40049543736507
 20
11.13582892834091
 30
0.0
 10
21.40151906404367
 20
11.13625212987762
 30
0.0
 10
21.40292257231605
 20
11.13717316766295
 30
0.0
 10
21.40424214933266
 20
11.138595042403
 30
0.0
 10
21.40463917721985
 20
11.13972010823298
 30
0.0
 10
21.40483721206307
 20
11.14028128351171
 30
0.0
  0
SPLINE
  5
170
330
1F
100
AcDbEntity
  8
0
  6
Continuous
 62
     7
370
    25
100
AcDbSpline
210
0.0
220
0.0
230
1.0
 70
     8
 71
     3
 72
    12
 73
     8
 74
     0
 42
0.00000001
 43
0.00000001
 40
0.0
 40
0.0
 40
0.0
 40
0.0
 40
0.1371250859260486
 40
0.3216614517316225
 40
0.5600661754053605
 40
0.8333503563323724
 40
1.0
 40
1.0
 40
1.0
 40
1.0
 10
20.64373576437194
 20
11.2480295854608
 30
0.0
 10
20.64357672936092
 20
11.24798532062105
 30
0.0
 10
20.64320367265742
 20
11.24788148628236
 30
0.0
 10
20.64283378610466
 20
11.24728676717632
 30
0.0
 10
20.64255831426667
 20
11.24653061609932
 30
0.0
 10
20.64242791199896
 20
11.24573842855344
 30
0.0
 10
20.64241443248477
 20
11.24522419980458
 30
0.0
 10
20.64240932636174
 20
11.24502940678579
 30
0.0
  0
LINE
  5
171
330
1F
100
AcDbEntity
  8
0
  6
Continuous
 62
     7
370
    25
100
AcDbLine
 10
21.1537706857
 20
11.1184117762
 30
0.0
 11
20.9023706433
 21
11.1184117762
 31
0.0
  0
LINE
  5
172
330
1F
100
AcDbEntity
  8
0
  6
Continuous
 62
     7
370
    25
100
AcDbLine
 10
20.6768336487
 20
11.1184117762
 30
0.0
 11
20.5341145507
 21
11.1184117762
 31
0.0
  0
SPLINE
  5
173
330
1F
100
AcDbEntity
  8
0
  6
Continuous
 62
     7
370
    25
100
AcDbSpline
210
0.0
220
0.0
230
1.0
 70
     8
 71
     3
 72
    13
 73
     9
 74
     0
 42
0.00000001
 43
0.00000001
 40
0.0
 40
0.0
 40
0.0
 40
0.0
 40
0.2401818106144758
 40
0.4545543933840869
 40
0.6606131256399681
 40
0.8713658413783137
 40
0.9917914095816807
 40
1.0
 40
1.0
 40
1.0
 40
1.0
 10
20.53411455072556
 20
11.11841177615013
 30
0.0
 10
20.53412477034016
 20
11.11791852616099
 30
0.0
 10
20.53414411139977
 20
11.11698502936943
 30
0.0
 10
20.53452566586549
 20
11.11567212101993
 30
0.0
 10
20.53515968466406
 20
11.1145331691901
 30
0.0
 10
20.53599646975324
 20
11.11377072644874
 30
0.0
 10
20.53665473465761
 20
11.11351692470656
 30
0.0
 10
20.53691232075604
 20
11.1134626564104
 30
0.0
 10
20.53692875821559
 20
11.11345919336279
 30
0.0
  0
LINE
  5
174
330
1F
100
AcDbEntity
  8
0
  6
Continuous
 62
     7
370
    25
100
AcDbLine
 10
20.5341245239
 20
11.1189550232
 30
0.0
 11
20.5341245239
 21
11.2480295855
 31
0.0
  0
LINE
  5
175
330
1F
100
AcDbEntity
  8
0
  6
Continuous
 62
     7
370
    25
100
AcDbLine
 10
20.5341145507
 20
11.1184117762
 30
0.0
 11
20.5341245239
 21
11.1189550232
 31
0.0
  0
SPLINE
  5
176
330
1F
100
AcDbEntity
  8
0
  6
Continuous
 62
     7
370
    25
100
AcDbSpline
210
0.0
220
0.0
230
1.0
 70
     8
 71
     3
 72
    13
 73
     9
 74
     0
 42
0.00000001
 43
0.00000001
 40
0.0
 40
0.0
 40
0.0
 40
0.0
 40
0.0092633668161242
 40
0.1437147860374439
 40
0.3674516633921807
 40
0.5724062950672345
 40
0.7765415545234969
 40
1.0
 40
1.0
 40
1.0
 40
1.0
 10
21.46494697100334
 20
11.11345919336279
 30
0.0
 10
21.46496712183631
 20
11.11346265668761
 30
0.0
 10
21.46527974819626
 20
11.11351638779816
 30
0.0
 10
21.46606274798716
 20
11.11375832832371
 30
0.0
 10
21.46710165734253
 20
11.11449775090383
 30
0.0
 10
21.46792458404628
 20
11.11564556976271
 30
0.0
 10
21.46843507726664
 20
11.11696868728115
 30
0.0
 10
21.46848383562847
 20
11.11791646959881
 30
0.0
 10
21.46850931651749
 20
11.11841177615013
 30
0.0
  0
LINE
  5
177
330
1F
100
AcDbEntity
  8
0
  6
Continuous
 62
     7
370
    25
100
AcDbLine
 10
21.4685093165
 20
11.1184117762
 30
0.0
 11
21.359828812
 21
11.1184117762
 31
0.0
  0
LINE
  5
178
330
1F
100
AcDbEntity
  8
0
  6
Continuous
 62
     7
370
    25
100
AcDbLine
 10
21.4685038899
 20
11.1189550232
 30
0.0
 11
21.4685038899
 21
11.2480295855
 31
0.0
  0
LINE
  5
179
330
1F
100
AcDbEntity
  8
0
  6
Continuous
 62
     7
370
    25
100
AcDbLine
 10
21.4685038899
 20
11.1189550232
 30
0.0
 11
21.4685093165
 21
11.1184117762
 31
0.0
  0
LINE
  5
17A
330
1F
100
AcDbEntity
  8
0
  6
Continuous
 62
     7
370
    25
100
AcDbLine
 10
20.4545470432
 20
11.1420236634
 30
0.0
 11
20.4544649108
 21
11.1402812835
 31
0.0
  0
LINE
  5
17B
330
1F
100
AcDbEntity
  8
0
  6
Continuous
 62
     7
370
    25
100
AcDbLine
 10
20.4545470432
 20
11.1420236634
 30
0.0
 11
20.4545470432
 21
11.2480295855
 31
0.0
  0
SPLINE
  5
17C
330
1F
100
AcDbEntity
  8
0
  6
Continuous
 62
     7
370
    25
100
AcDbSpline
210
0.0
220
0.0
230
1.0
 70
     8
 71
     3
 72
    12
 73
     8
 74
     0
 42
0.00000001
 43
0.00000001
 40
0.0
 40
0.0
 40
0.0
 40
0.0
 40
0.3158820733187256
 40
0.5868618736452509
 40
0.8644235957203473
 40
0.9897450496246986
 40
1.0
 40
1.0
 40
1.0
 40
1.0
 10
20.45446491084499
 20
11.14028128351171
 30
0.0
 10
20.45444790466087
 20
11.13973710050297
 30
0.0
 10
20.45441630970211
 20
11.13872608947358
 30
0.0
 10
20.45483197275842
 20
11.1372810131025
 30
0.0
 10
20.45547115179974
 20
11.13628857905672
 30
0.0
 10
20.45602101716919
 20
11.13583223823204
 30
0.0
 10
20.45621791699052
 20
11.13570880613398
 30
0.0
 10
20.45623281042207
 20
11.13569946977455
 30
0.0
  0
SPLINE
  5
17D
330
1F
100
AcDbEntity
  8
0
  6
Continuous
 62
     7
370
    25
100
AcDbSpline
210
0.0
220
0.0
230
1.0
 70
     8
 71
     3
 72
     9
 73
     5
 74
     0
 42
0.00000001
 43
0.00000001
 40
0.0
 40
0.0
 40
0.0
 40
0.0
 40
0.481543831299097
 40
1.0
 40
1.0
 40
1.0
 40
1.0
 10
20.53412452394368
 20
11.11895502320782
 30
0.0
 10
20.52097131143348
 20
11.12133506421974
 30
0.0
 10
20.4936566379702
 20
11.12627758628566
 30
0.0
 10
20.46790048145622
 20
11.13664737991059
 30
0.0
 10
20.45454704322953
 20
11.14202366338359
 30
0.0
  0
SPLINE
  5
17E
330
1F
100
AcDbEntity
  8
0
  6
Continuous
 62
     7
370
    25
100
AcDbSpline
210
0.0
220
0.0
230
1.0
 70
     8
 71
     3
 72
    12
 73
     8
 74
     0
 42
0.00000001
 43
0.00000001
 40
0.0
 40
0.0
 40
0.0
 40
0.0
 40
0.0114008075946409
 40
0.1480917499692613
 40
0.4361418631915117
 40
0.7014221311615125
 40
1.0
 40
1.0
 40
1.0
 40
1.0
 10
21.54568339832924
 20
11.13569946977455
 30
0.0
 10
21.54570195484983
 20
11.13570880071094
 30
0.0
 10
21.5459429963361
 20
11.13583000569459
 30
0.0
 10
21.54661137108005
 20
11.13626988291687
 30
0.0
 10
21.54744878223004
 20
11.13724100586248
 30
0.0
 10
21.54806665857362
 20
11.13869902516904
 30
0.0
 10
21.54810255089306
 20
11.13973350104344
 30
0.0
 10
21.54812155683009
 20
11.14028128351171
 30
0.0
  0
LINE
  5
17F
330
1F
100
AcDbEntity
  8
0
  6
Continuous
 62
     7
370
    25
100
AcDbLine
 10
21.5481215568
 20
11.1402812835
 30
0.0
 11
21.5480813706
 21
11.1420236634
 31
0.0
  0
SPLINE
  5
180
330
1F
100
AcDbEntity
  8
0
  6
Continuous
 62
     7
370
    25
100
AcDbSpline
210
0.0
220
0.0
230
1.0
 70
     8
 71
     3
 72
     9
 73
     5
 74
     0
 42
0.00000001
 43
0.00000001
 40
0.0
 40
0.0
 40
0.0
 40
0.0
 40
0.5144145370561967
 40
1.0
 40
1.0
 40
1.0
 40
1.0
 10
21.54808137062766
 20
11.14202366338359
 30
0.0
 10
21.53483380248803
 20
11.13668598814075
 30
0.0
 10
21.50908109297978
 20
11.1263097742931
 30
0.0
 10
21.48176714566512
 20
11.12135903179546
 30
0.0
 10
21.46850388991351
 20
11.11895502320782
 30
0.0
  0
SPLINE
  5
181
330
1F
100
AcDbEntity
  8
0
  6
Continuous
 62
     7
370
    25
100
AcDbSpline
210
0.0
220
0.0
230
1.0
 70
     8
 71
     3
 72
    12
 73
     8
 74
     0
 42
0.00000001
 43
0.00000001
 40
0.0
 40
0.0
 40
0.0
 40
0.0
 40
0.2213966130181444
 40
0.4430491155107007
 40
0.6621813795192332
 40
0.8762258064590328
 40
1.0
 40
1.0
 40
1.0
 40
1.0
 10
21.54501343273541
 20
11.2480295854608
 30
0.0
 10
21.54536516205893
 20
11.24799519613757
 30
0.0
 10
21.54606902723356
 20
11.24792637774406
 30
0.0
 10
21.5470037924538
 20
11.24738761139123
 30
0.0
 10
21.54769635083752
 20
11.24659902391528
 30
0.0
 10
21.54803741449691
 20
11.24576009144437
 30
0.0
 10
21.54806958397399
 20
11.24522533683843
 30
0.0
 10
21.54808137062766
 20
11.24502940678579
 30
0.0
  0
LINE
  5
182
330
1F
100
AcDbEntity
  8
0
  6
Continuous
 62
     7
370
    25
100
AcDbLine
 10
21.5480813706
 20
11.1420236634
 30
0.0
 11
21.5480813706
 21
11.2450294068
 31
0.0
  0
LINE
  5
183
330
1F
100
AcDbEntity
  8
0
  6
Continuous
 62
     7
370
    25
100
AcDbLine
 10
21.4601873993
 20
11.439029619
 30
0.0
 11
20.5229574529
 21
11.439029619
 31
0.0
  0
SPLINE
  5
184
330
1F
100
AcDbEntity
  8
0
  6
Continuous
 62
     7
370
    25
100
AcDbSpline
210
0.0
220
0.0
230
1.0
 70
     8
 71
     3
 72
    10
 73
     6
 74
     0
 42
0.00000001
 43
0.00000001
 40
0.0
 40
0.0
 40
0.0
 40
0.0
 40
0.5331439354474938
 40
0.8095804513032127
 40
1.0
 40
1.0
 40
1.0
 40
1.0
 10
20.5328887248864
 20
11.43759934220146
 30
0.0
 10
20.51815247418692
 20
11.43500650053219
 30
0.0
 10
20.49577543920893
 20
11.43106926372014
 30
0.0
 10
20.46909459633872
 20
11.42232105774941
 30
0.0
 10
20.45698440107252
 20
11.41737602692484
 30
0.0
 10
20.45204493880072
 20
11.4153590657897
 30
0.0
  0
LINE
  5
185
330
1F
100
AcDbEntity
  8
0
  6
Continuous
 62
     7
370
    25
100
AcDbLine
 10
20.672734656
 20
11.4375993422
 30
0.0
 11
20.5328887249
 21
11.4375993422
 31
0.0
  0
SPLINE
  5
186
330
1F
100
AcDbEntity
  8
0
  6
Continuous
 62
     7
370
    25
100
AcDbSpline
210
0.0
220
0.0
230
1.0
 70
     8
 71
     3
 72
    10
 73
     6
 74
     0
 42
0.00000001
 43
0.00000001
 40
0.0
 40
0.0
 40
0.0
 40
0.0
 40
0.4915253638385488
 40
0.7937416289157695
 40
1.0
 40
1.0
 40
1.0
 40
1.0
 10
20.63565481772373
 20
11.4153590657897
 30
0.0
 10
20.6411198544004
 20
11.41998602504554
 30
0.0
 10
20.64994508994868
 20
11.42745788803948
 30
0.0
 10
20.66288398735328
 20
11.43429853716082
 30
0.0
 10
20.66989194014981
 20
11.43664679255838
 30
0.0
 10
20.67273465604094
 20
11.43759934220146
 30
0.0
  0
LINE
  5
187
330
1F
100
AcDbEntity
  8
0
  6
Continuous
 62
     7
370
    25
100
AcDbLine
 10
20.8501230068
 20
11.4153590658
 30
0.0
 11
20.6356548177
 21
11.4153590658
 31
0.0
  0
SPLINE
  5
188
330
1F
100
AcDbEntity
  8
0
  6
Continuous
 62
     7
370
    25
100
AcDbSpline
210
0.0
220
0.0
230
1.0
 70
     8
 71
     3
 72
    10
 73
     6
 74
     0
 42
0.00000001
 43
0.00000001
 40
0.0
 40
0.0
 40
0.0
 40
0.0
 40
0.50667358090716
 40
0.7922817967890583
 40
0.9999999999999999
 40
0.9999999999999999
 40
0.9999999999999999
 40
0.9999999999999999
 10
20.88674173047962
 20
11.43759934220146
 30
0.0
 10
20.87992671991384
 20
11.43490424652845
 30
0.0
 10
20.86927013741249
 20
11.4306899450081
 30
0.0
 10
20.85761278599388
 20
11.42210796212573
 30
0.0
 10
20.85234221431498
 20
11.41735875108216
 30
0.0
 10
20.85012300683557
 20
11.4153590657897
 30
0.0
  0
LINE
  5
189
330
1F
100
AcDbEntity
  8
0
  6
Continuous
 62
     7
370
    25
100
AcDbLine
 10
21.1436868822
 20
11.4375993422
 30
0.0
 11
20.8867417305
 21
11.4375993422
 31
0.0
  0
SPLINE
  5
18A
330
1F
100
AcDbEntity
  8
0
  6
Continuous
 62
     7
370
    25
100
AcDbSpline
210
0.0
220
0.0
230
1.0
 70
     8
 71
     3
 72
    10
 73
     6
 74
     0
 42
0.00000001
 43
0.00000001
 40
0.0
 40
0.0
 40
0.0
 40
0.0
 40
0.4862657555980216
 40
0.78971843983944
 40
1.0
 40
1.0
 40
1.0
 40
1.0
 10
21.1874772296908
 20
11.4153590657897
 30
0.0
 10
21.18093905143053
 20
11.42002742704387
 30
0.0
 10
21.1703207426649
 20
11.42760906511689
 30
0.0
 10
21.15516846692716
 20
11.43433988152496
 30
0.0
 10
21.14702156847115
 20
11.43665267160115
 30
0.0
 10
21.1436868822273
 20
11.43759934220146
 30
0.0
  0
LINE
  5
18B
330
1F
100
AcDbEntity
  8
0
  6
Continuous
 62
     7
370
    25
100
AcDbLine
 10
21.3896503475
 20
11.4153590658
 30
0.0
 11
21.1874772297
 21
11.4153590658
 31
0.0
  0
SPLINE
  5
18C
330
1F
100
AcDbEntity
  8
0
  6
Continuous
 62
     7
370
    25
100
AcDbSpline
210
0.0
220
0.0
230
1.0
 70
     8
 71
     3
 72
    10
 73
     6
 74
     0
 42
0.00000001
 43
0.00000001
 40
0.0
 40
0.0
 40
0.0
 40
0.0
 40
0.5158791993751923
 40
0.7981815340512056
 40
1.0
 40
1.0
 40
1.0
 40
1.0
 10
21.34542543172636
 20
11.43759934220146
 30
0.0
 10
21.35360530335073
 20
11.43493996612768
 30
0.0
 10
21.36626141061263
 20
11.43082531123027
 30
0.0
 10
21.38053029296467
 20
11.42217454705174
 30
0.0
 10
21.38696702624414
 20
11.41736433074541
 30
0.0
 10
21.38965034750303
 20
11.4153590657897
 30
0.0
  0
LINE
  5
18D
330
1F
100
AcDbEntity
  8
0
  6
Continuous
 62
     7
370
    25
100
AcDbLine
 10
21.4625245057
 20
11.4375993422
 30
0.0
 11
21.3454254317
 21
11.4375993422
 31
0.0
  0
SPLINE
  5
18E
330
1F
100
AcDbEntity
  8
0
  6
Continuous
 62
     7
370
    25
100
AcDbSpline
210
0.0
220
0.0
230
1.0
 70
     8
 71
     3
 72
    10
 73
     6
 74
     0
 42
0.00000001
 43
0.00000001
 40
0.0
 40
0.0
 40
0.0
 40
0.0
 40
0.4665607466556946
 40
0.7778291737262826
 40
0.9999999999999999
 40
0.9999999999999999
 40
0.9999999999999999
 40
0.9999999999999999
 10
21.54339469143525
 20
11.4153590657897
 30
0.0
 10
21.53117421272362
 20
11.42005981573209
 30
0.0
 10
21.51080077812388
 20
11.42789669543058
 30
0.0
 10
21.48345996046916
 20
11.43438271900042
 30
0.0
 10
21.46868012403502
 20
11.43665356361318
 30
0.0
 10
21.46252450565453
 20
11.43759934220146
 30
0.0
  0
LINE
  5
18F
330
1F
100
AcDbEntity
  8
0
  6
Continuous
 62
     7
370
    25
100
AcDbLine
 10
20.8532589973
 20
11.3060291288
 30
0.0
 11
20.7354122253
 21
11.3060291288
 31
0.0
  0
LINE
  5
190
330
1F
100
AcDbEntity
  8
0
  6
Continuous
 62
     7
370
    25
100
AcDbLine
 10
20.8532589973
 20
11.4090348722
 30
0.0
 11
20.8532589973
 21
11.3060291288
 31
0.0
  0
LINE
  5
191
330
1F
100
AcDbEntity
  8
0
  6
Continuous
 62
     7
370
    25
100
AcDbLine
 10
20.8529914804
 20
11.4107772521
 30
0.0
 11
20.8532589973
 21
11.4090348722
 31
0.0
  0
LINE
  5
192
330
1F
100
AcDbEntity
  8
0
  6
Continuous
 62
     7
370
    25
100
AcDbLine
 10
20.630865913
 20
11.4107772521
 30
0.0
 11
20.8529914804
 21
11.4107772521
 31
0.0
  0
LINE
  5
193
330
1F
100
AcDbEntity
  8
0
  6
Continuous
 62
     7
370
    25
100
AcDbLine
 10
20.6306544222
 20
11.4090348722
 30
0.0
 11
20.630865913
 21
11.4107772521
 31
0.0
  0
LINE
  5
194
330
1F
100
AcDbEntity
  8
0
  6
Continuous
 62
     7
370
    25
100
AcDbLine
 10
20.6306544222
 20
11.4090348722
 30
0.0
 11
20.6306544222
 21
11.3030289501
 31
0.0
  0
SPLINE
  5
195
330
1F
100
AcDbEntity
  8
0
  6
Continuous
 62
     7
370
    25
100
AcDbSpline
210
0.0
220
0.0
230
1.0
 70
     8
 71
     3
 72
    12
 73
     8
 74
     0
 42
0.00000001
 43
0.00000001
 40
0.0
 40
0.0
 40
0.0
 40
0.0
 40
0.3192312509427909
 40
0.600050407577337
 40
0.8777839874447991
 40
0.9910879029337325
 40
1.0
 40
1.0
 40
1.0
 40
1.0
 10
20.85299148036539
 20
11.41077725205253
 30
0.0
 10
20.85279131730696
 20
11.4113257155935
 30
0.0
 10
20.85241507618257
 20
11.41235664777927
 30
0.0
 10
20.851619308476
 20
11.41375354163911
 30
0.0
 10
20.85086707973394
 20
11.4147343685356
 30
0.0
 10
20.85031459962207
 20
11.41521554835445
 30
0.0
 10
20.85013602840292
 20
11.41534931165447
 30
0.0
 10
20.85012300683557
 20
11.4153590657897
 30
0.0
  0
SPLINE
  5
196
330
1F
100
AcDbEntity
  8
0
  6
Continuous
 62
     7
370
    25
100
AcDbSpline
210
0.0
220
0.0
230
1.0
 70
     8
 71
     3
 72
    12
 73
     8
 74
     0
 42
0.00000001
 43
0.00000001
 40
0.0
 40
0.0
 40
0.0
 40
0.0
 40
0.2595231044687212
 40
0.5198155535830419
 40
0.8322564935881372
 40
0.9869546876595079
 40
1.0
 40
1.0
 40
1.0
 40
1.0
 10
20.63086591304556
 20
11.41077725205253
 30
0.0
 10
20.63107879502564
 20
11.41133843474717
 30
0.0
 10
20.63150519006492
 20
11.41246246373746
 30
0.0
 10
20.63283935538325
 20
11.41387880539552
 30
0.0
 10
20.63424046038774
 20
11.41480822227791
 30
0.0
 10
20.63526303518504
 20
11.41522412280874
 30
0.0
 10
20.63562654758168
 20
11.41534932860934
 30
0.0
 10
20.63565481772373
 20
11.4153590657897
 30
0.0
  0
SPLINE
  5
197
330
1F
100
AcDbEntity
  8
0
  6
Continuous
 62
     7
370
    25
100
AcDbSpline
210
0.0
220
0.0
230
1.0
 70
     8
 71
     3
 72
    13
 73
     9
 74
     0
 42
0.00000001
 43
0.00000001
 40
0.0
 40
0.0
 40
0.0
 40
0.0
 40
0.1367813232331627
 40
0.3169912977453556
 40
0.5471614041728826
 40
0.8139992988587204
 40
0.940929228284074
 40
1.0
 40
1.0
 40
1.0
 40
1.0
 10
20.73692082122355
 20
11.30302895010345
 30
0.0
 10
20.73675868577673
 20
11.30307107104889
 30
0.0
 10
20.73638293618986
 20
11.30316868651892
 30
0.0
 10
20.73597969866981
 20
11.30373206582005
 30
0.0
 10
20.73565605298979
 20
11.30446539299649
 30
0.0
 10
20.73549182672073
 20
11.30519998878922
 30
0.0
 10
20.73542858906645
 20
11.3057368793362
 30
0.0
 10
20.73541616955179
 20
11.30595868647081
 30
0.0
 10
20.73541222531764
 20
11.30602912877846
 30
0.0
  0
SPLINE
  5
198
330
1F
100
AcDbEntity
  8
0
  6
Continuous
 62
     7
370
    25
100
AcDbSpline
210
0.0
220
0.0
230
1.0
 70
     8
 71
     3
 72
    12
 73
     8
 74
     0
 42
0.00000001
 43
0.00000001
 40
0.0
 40
0.0
 40
0.0
 40
0.0
 40
0.1419493405429054
 40
0.3280728167281849
 40
0.5651478321654967
 40
0.8351018673534143
 40
1.0
 40
1.0
 40
1.0
 40
1.0
 10
20.85465964776124
 20
11.30302895010344
 30
0.0
 10
20.85449227770328
 20
11.30307237622933
 30
0.0
 10
20.85410545261382
 20
11.30317274253878
 30
0.0
 10
20.8537083577715
 20
11.30376633198728
 30
0.0
 10
20.85341760347701
 20
11.30452569244887
 30
0.0
 10
20.85327848103848
 20
11.30531906281078
 30
0.0
 10
20.85326435423142
 20
11.305833899944
 30
0.0
 10
20.85325899727501
 20
11.30602912877846
 30
0.0
  0
LINE
  5
199
330
1F
100
AcDbEntity
  8
0
  6
Continuous
 62
     7
370
    25
100
AcDbLine
 10
20.8895591646
 20
11.4326467594
 30
0.0
 11
21.1413972953
 21
11.4326467594
 31
0.0
  0
SPLINE
  5
19A
330
1F
100
AcDbEntity
  8
0
  6
Continuous
 62
     7
370
    25
100
AcDbSpline
210
0.0
220
0.0
230
1.0
 70
     8
 71
     3
 72
    13
 73
     9
 74
     0
 42
0.00000001
 43
0.00000001
 40
0.0
 40
0.0
 40
0.0
 40
0.0
 40
0.2639532182912291
 40
0.4975064211629249
 40
0.7114780790208858
 40
0.9038486075160318
 40
0.9943377915853726
 40
0.9999999999999999
 40
0.9999999999999999
 40
0.9999999999999999
 40
0.9999999999999999
 10
21.14139729534347
 20
11.43264675941412
 30
0.0
 10
21.14146665884254
 20
11.43313977578335
 30
0.0
 10
21.14159739710898
 20
11.43406902684918
 30
0.0
 10
21.14198345204618
 20
11.4353587870141
 30
0.0
 10
21.14248080126795
 20
11.43645923220188
 30
0.0
 10
21.14304021271219
 20
11.4372310489092
 30
0.0
 10
21.14350545445103
 20
11.43753694294025
 30
0.0
 10
21.14367679239772
 20
11.43759587196155
 30
0.0
 10
21.1436868822273
 20
11.43759934220146
 30
0.0
  0
SPLINE
  5
19B
330
1F
100
AcDbEntity
  8
0
  6
Continuous
 62
     7
370
    25
100
AcDbSpline
210
0.0
220
0.0
230
1.0
 70
     8
 71
     3
 72
    13
 73
     9
 74
     0
 42
0.00000001
 43
0.00000001
 40
0.0
 40
0.0
 40
0.0
 40
0.0
 40
0.2508981294186349
 40
0.4759743283558359
 40
0.6878334983885656
 40
0.8897223185834682
 40
0.9932753171643877
 40
1.0
 40
1.0
 40
1.0
 40
1.0
 10
20.88955916459905
 20
11.43264675941412
 30
0.0
 10
20.88948301555411
 20
11.43314102561276
 30
0.0
 10
20.88933855457068
 20
11.43407868912771
 30
0.0
 10
20.88887167809459
 20
11.43537413407404
 30
0.0
 10
20.88825109727781
 20
11.43648864779555
 30
0.0
 10
20.88753231006173
 20
11.43725575091027
 30
0.0
 10
20.88696654975537
 20
11.43753903089309
 30
0.0
 10
20.88675465191359
 20
11.43759587582347
 30
0.0
 10
20.88674173047962
 20
11.43759934220146
 30
0.0
  0
LINE
  5
19C
330
1F
100
AcDbEntity
  8
0
  6
Continuous
 62
     7
370
    25
100
AcDbLine
 10
20.8895884976
 20
11.4321035124
 30
0.0
 11
20.8895884976
 21
11.3030289501
 31
0.0
  0
LINE
  5
19D
330
1F
100
AcDbEntity
  8
0
  6
Continuous
 62
     7
370
    25
100
AcDbLine
 10
21.141368549
 20
11.4321035124
 30
0.0
 11
21.141368549
 21
11.3030289501
 31
0.0
  0
LINE
  5
19E
330
1F
100
AcDbEntity
  8
0
  6
Continuous
 62
     7
370
    25
100
AcDbLine
 10
21.1413972953
 20
11.4326467594
 30
0.0
 11
21.141368549
 21
11.4321035124
 31
0.0
  0
LINE
  5
19F
330
1F
100
AcDbEntity
  8
0
  6
Continuous
 62
     7
370
    25
100
AcDbLine
 10
20.8895884976
 20
11.4321035124
 30
0.0
 11
20.8895591646
 21
11.4326467594
 31
0.0
  0
SPLINE
  5
1A0
330
1F
100
AcDbEntity
  8
0
  6
Continuous
 62
     7
370
    25
100
AcDbSpline
210
0.0
220
0.0
230
1.0
 70
     8
 71
     3
 72
     9
 73
     5
 74
     0
 42
0.00000001
 43
0.00000001
 40
0.0
 40
0.0
 40
0.0
 40
0.0
 40
0.5425913714014452
 40
1.0
 40
1.0
 40
1.0
 40
1.0
 10
20.85325899727501
 20
11.40903487218065
 30
0.0
 10
20.85913526431206
 20
11.41432502425429
 30
0.0
 10
20.86996526889151
 20
11.42407481452459
 30
0.0
 10
20.88342973473654
 20
11.42958370041581
 30
0.0
 10
20.88958849759352
 20
11.43210351235642
 30
0.0
  0
LINE
  5
1A1
330
1F
100
AcDbEntity
  8
0
  6
Continuous
 62
     7
370
    25
100
AcDbLine
 10
21.394598677
 20
11.4090348722
 30
0.0
 11
21.394598677
 21
11.3030289501
 31
0.0
  0
LINE
  5
1A2
330
1F
100
AcDbEntity
  8
0
  6
Continuous
 62
     7
370
    25
100
AcDbLine
 10
21.3944061059
 20
11.4107772521
 30
0.0
 11
21.394598677
 21
11.4090348722
 31
0.0
  0
LINE
  5
1A3
330
1F
100
AcDbEntity
  8
0
  6
Continuous
 62
     7
370
    25
100
AcDbLine
 10
21.1850144315
 20
11.4107772521
 30
0.0
 11
21.3944061059
 21
11.4107772521
 31
0.0
  0
LINE
  5
1A4
330
1F
100
AcDbEntity
  8
0
  6
Continuous
 62
     7
370
    25
100
AcDbLine
 10
21.1847552745
 20
11.4090348722
 30
0.0
 11
21.1850144315
 21
11.4107772521
 31
0.0
  0
LINE
  5
1A5
330
1F
100
AcDbEntity
  8
0
  6
Continuous
 62
     7
370
    25
100
AcDbLine
 10
21.1847552745
 20
11.4090348722
 30
0.0
 11
21.1847552745
 21
11.3030289501
 31
0.0
  0
SPLINE
  5
1A6
330
1F
100
AcDbEntity
  8
0
  6
Continuous
 62
     7
370
    25
100
AcDbSpline
210
0.0
220
0.0
230
1.0
 70
     8
 71
     3
 72
    12
 73
     8
 74
     0
 42
0.00000001
 43
0.00000001
 40
0.0
 40
0.0
 40
0.0
 40
0.0
 40
0.2581075631122026
 40
0.5174657894161332
 40
0.8307169986764418
 40
0.986812311791594
 40
1.0
 40
1.0
 40
1.0
 40
1.0
 10
21.39440610589743
 20
11.41077725205253
 30
0.0
 10
21.39420468732854
 20
11.41133854596629
 30
0.0
 10
21.39380087421472
 20
11.41246385354998
 30
0.0
 10
21.39247593202907
 20
11.41388317230124
 30
0.0
 10
21.391072927207
 20
11.41481054208153
 30
0.0
 10
21.39004556317596
 20
11.41522434264301
 30
0.0
 10
21.38967891089084
 20
11.41534932895548
 30
0.0
 10
21.38965034750303
 20
11.4153590657897
 30
0.0
  0
SPLINE
  5
1A7
330
1F
100
AcDbEntity
  8
0
  6
Continuous
 62
     7
370
    25
100
AcDbSpline
210
0.0
220
0.0
230
1.0
 70
     8
 71
     3
 72
    12
 73
     8
 74
     0
 42
0.00000001
 43
0.00000001
 40
0.0
 40
0.0
 40
0.0
 40
0.0
 40
0.3299040210022391
 40
0.6143483539019041
 40
0.8861356488090266
 40
0.9918529113222884
 40
1.0
 40
1.0
 40
1.0
 40
1.0
 10
21.18501443147459
 20
11.41077725205253
 30
0.0
 10
21.18520187914476
 20
11.41132361929564
 30
0.0
 10
21.18555094481319
 20
11.4123410661743
 30
0.0
 10
21.18623915938935
 20
11.41373246533296
 30
0.0
 10
21.18686369594784
 20
11.41471517039081
 30
0.0
 10
21.18732176120041
 20
11.41521290447105
 30
0.0
 10
21.18746684856933
 20
11.41534930613744
 30
0.0
 10
21.1874772296908
 20
11.4153590657897
 30
0.0
  0
SPLINE
  5
1A8
330
1F
100
AcDbEntity
  8
0
  6
Continuous
 62
     7
370
    25
100
AcDbSpline
210
0.0
220
0.0
230
1.0
 70
     8
 71
     3
 72
     9
 73
     5
 74
     0
 42
0.00000001
 43
0.00000001
 40
0.0
 40
0.0
 40
0.0
 40
0.0
 40
0.4636830830233607
 40
1.0
 40
1.0
 40
1.0
 40
1.0
 10
21.14136854900888
 20
11.43210351235642
 30
0.0
 10
21.14864696972109
 20
11.42963508914733
 30
0.0
 10
21.16434394245674
 20
11.42431157552464
 30
0.0
 10
21.17762982884262
 20
11.41436785676767
 30
0.0
 10
21.1847552744684
 20
11.40903487218065
 30
0.0
  0
LINE
  5
1A9
330
1F
100
AcDbEntity
  8
0
  6
Continuous
 62
     7
370
    25
100
AcDbLine
 10
21.394598677
 20
11.4090348722
 30
0.0
 11
21.3925952335
 21
11.4103677634
 31
0.0
  0
SPLINE
  5
1AA
330
1F
100
AcDbEntity
  8
0
  6
Continuous
 62
     7
370
    25
100
AcDbSpline
210
0.0
220
0.0
230
1.0
 70
     8
 71
     3
 72
    13
 73
     9
 74
     0
 42
0.00000001
 43
0.00000001
 40
0.0
 40
0.0
 40
0.0
 40
0.0
 40
0.2370818440312297
 40
0.4495065880579192
 40
0.6552828653618384
 40
0.8683737912887802
 40
0.9916245696075393
 40
1.0
 40
1.0
 40
1.0
 40
1.0
 10
20.52993987895172
 20
11.43264675941412
 30
0.0
 10
20.5299526760141
 20
11.43314036161465
 30
0.0
 10
20.52997693921262
 20
11.43407623016217
 30
0.0
 10
20.53038141644463
 20
11.43539092952943
 30
0.0
 10
20.5310486777096
 20
11.43653271707527
 30
0.0
 10
20.53192420533489
 20
11.43728885235662
 30
0.0
 10
20.5326041590264
 20
11.43754145148841
 30
0.0
 10
20.53287170107463
 20
11.43759587895888
 30
0.0
 10
20.5328887248864
 20
11.43759934220146
 30
0.0
  0
LINE
  5
1AB
330
1F
100
AcDbEntity
  8
0
  6
Continuous
 62
     7
370
    25
100
AcDbLine
 10
20.5299489722
 20
11.4321035124
 30
0.0
 11
20.5299489722
 21
11.3030289501
 31
0.0
  0
LINE
  5
1AC
330
1F
100
AcDbEntity
  8
0
  6
Continuous
 62
     7
370
    25
100
AcDbLine
 10
20.5299489722
 20
11.4321035124
 30
0.0
 11
20.529939879
 21
11.4326467594
 31
0.0
  0
SPLINE
  5
1AD
330
1F
100
AcDbEntity
  8
0
  6
Continuous
 62
     7
370
    25
100
AcDbSpline
210
0.0
220
0.0
230
1.0
 70
     8
 71
     3
 72
    13
 73
     9
 74
     0
 42
0.00000001
 43
0.00000001
 40
0.0
 40
0.0
 40
0.0
 40
0.0
 40
0.2261276429693921
 40
0.4318473869566053
 40
0.6369150744232747
 40
0.8585097603927213
 40
0.9908845646143365
 40
1.0
 40
1.0
 40
1.0
 40
1.0
 10
21.46596350592691
 20
11.43264675941412
 30
0.0
 10
21.46594061969988
 20
11.43314170732863
 30
0.0
 10
21.46589691271557
 20
11.43408693437277
 30
0.0
 10
21.46540811876238
 20
11.43540839234595
 30
0.0
 10
21.46461688068431
 20
11.43655591521241
 30
0.0
 10
21.46360932750225
 20
11.43729652381997
 30
0.0
 10
21.46284775777193
 20
11.43754214486043
 30
0.0
 10
21.46254407054669
 20
11.43759588032218
 30
0.0
 10
21.46252450565453
 20
11.43759934220146
 30
0.0
  0
LINE
  5
1AE
330
1F
100
AcDbEntity
  8
0
  6
Continuous
 62
     7
370
    25
100
AcDbLine
 10
21.4659571993
 20
11.4321035124
 30
0.0
 11
21.4659571993
 21
11.3030289501
 31
0.0
  0
LINE
  5
1AF
330
1F
100
AcDbEntity
  8
0
  6
Continuous
 62
     7
370
    25
100
AcDbLine
 10
21.4659635059
 20
11.4326467594
 30
0.0
 11
21.4659571993
 21
11.4321035124
 31
0.0
  0
LINE
  5
1B0
330
1F
100
AcDbEntity
  8
0
  6
Continuous
 62
     7
370
    25
100
AcDbLine
 10
20.4501579473
 20
11.4107772521
 30
0.0
 11
20.4502327464
 21
11.4090348722
 31
0.0
  0
SPLINE
  5
1B1
330
1F
100
AcDbEntity
  8
0
  6
Continuous
 62
     7
370
    25
100
AcDbSpline
210
0.0
220
0.0
230
1.0
 70
     8
 71
     3
 72
     9
 73
     5
 74
     0
 42
0.00000001
 43
0.00000001
 40
0.0
 40
0.0
 40
0.0
 40
0.0
 40
0.516349574313943
 40
1.0
 40
1.0
 40
1.0
 40
1.0
 10
20.45023274640199
 20
11.40903487218065
 30
0.0
 10
20.46355554859256
 20
11.41439112222062
 30
0.0
 10
20.48935745267716
 20
11.42476442415871
 30
0.0
 10
20.51671667342087
 20
11.4297110666229
 30
0.0
 10
20.52994897218001
 20
11.43210351235642
 30
0.0
  0
SPLINE
  5
1B2
330
1F
100
AcDbEntity
  8
0
  6
Continuous
 62
     7
370
    25
100
AcDbSpline
210
0.0
220
0.0
230
1.0
 70
     8
 71
     3
 72
    12
 73
     8
 74
     0
 42
0.00000001
 43
0.00000001
 40
0.0
 40
0.0
 40
0.0
 40
0.0
 40
0.3127756821359855
 40
0.5826536149794407
 40
0.862095590423703
 40
0.9893952357933197
 40
1.0
 40
1.0
 40
1.0
 40
1.0
 10
20.45015794726607
 20
11.41077725205253
 30
0.0
 10
20.45014696809804
 20
11.41132213981861
 30
0.0
 10
20.45012651557469
 20
11.41233718301026
 30
0.0
 10
20.45057864287616
 20
11.41378364825738
 30
0.0
 10
20.45125067965229
 20
11.4147774712197
 30
0.0
 10
20.45182689232748
 20
11.41522270509457
 30
0.0
 10
20.45202936850714
 20
11.41534932852578
 30
0.0
 10
20.45204493880072
 20
11.4153590657897
 30
0.0
  0
SPLINE
  5
1B3
330
1F
100
AcDbEntity
  8
0
  6
Continuous
 62
     7
370
    25
100
AcDbSpline
210
0.0
220
0.0
230
1.0
 70
     8
 71
     3
 72
    12
 73
     8
 74
     0
 42
0.00000001
 43
0.00000001
 40
0.0
 40
0.0
 40
0.0
 40
0.0
 40
0.2215843673062285
 40
0.4433254452123358
 40
0.6624348650599305
 40
0.8760932100112321
 40
1.0
 40
1.0
 40
1.0
 40
1.0
 10
20.45330625756319
 20
11.30302895010345
 30
0.0
 10
20.45295390236143
 20
11.30306332360059
 30
0.0
 10
20.45224894276254
 20
11.30313209490477
 30
0.0
 10
20.45131254119866
 20
11.30367074981134
 30
0.0
 10
20.45061890228342
 20
11.30445897012101
 30
0.0
 10
20.45027658430153
 20
11.30529790006991
 30
0.0
 10
20.45024451702793
 20
11.30583279136955
 30
0.0
 10
20.45023274640199
 20
11.30602912877846
 30
0.0
  0
LINE
  5
1B4
330
1F
100
AcDbEntity
  8
0
  6
Continuous
 62
     7
370
    25
100
AcDbLine
 10
20.4502327464
 20
11.4090348722
 30
0.0
 11
20.4502327464
 21
11.3060291288
 31
0.0
  0
LINE
  5
1B5
330
1F
100
AcDbEntity
  8
0
  6
Continuous
 62
     7
370
    25
100
AcDbLine
 10
20.4502327464
 20
11.3060291288
 30
0.0
 11
20.4297976225
 21
11.3060291288
 31
0.0
  0
SPLINE
  5
1B6
330
1F
100
AcDbEntity
  8
0
  6
Continuous
 62
     7
370
    25
100
AcDbSpline
210
0.0
220
0.0
230
1.0
 70
     8
 71
     3
 72
    13
 73
     9
 74
     0
 42
0.00000001
 43
0.00000001
 40
0.0
 40
0.0
 40
0.0
 40
0.0
 40
0.0450251126935644
 40
0.1423378171631345
 40
0.3569655751942152
 40
0.5714831897417724
 40
0.7857971119179072
 40
1.0
 40
1.0
 40
1.0
 40
1.0
 10
20.42979762247028
 20
11.30602912877846
 30
0.0
 10
20.42979930048717
 20
11.30595866957803
 30
0.0
 10
20.42980460519928
 20
11.30573592701976
 30
0.0
 10
20.42989023767457
 20
11.30518182874571
 30
0.0
 10
20.43021087386303
 20
11.30440404715688
 30
0.0
 10
20.43089455887982
 20
11.30364449118885
 30
0.0
 10
20.43179164286461
 20
11.30312863575722
 30
0.0
 10
20.43246521097454
 20
11.30306217291425
 30
0.0
 10
20.43280190776452
 20
11.30302895010344
 30
0.0
  0
SPLINE
  5
1B7
330
1F
100
AcDbEntity
  8
0
  6
Continuous
 62
     7
370
    25
100
AcDbSpline
210
0.0
220
0.0
230
1.0
 70
     8
 71
     3
 72
     9
 73
     5
 74
     0
 42
0.00000001
 43
0.00000001
 40
0.0
 40
0.0
 40
0.0
 40
0.0
 40
0.4836521177019044
 40
0.9999999999999999
 40
0.9999999999999999
 40
0.9999999999999999
 40
0.9999999999999999
 10
21.4659571993331
 20
11.43210351235642
 30
0.0
 10
21.47918954964289
 20
11.42971107558324
 30
0.0
 10
21.50654878125892
 20
11.42476446895087
 30
0.0
 10
21.5323506729679
 20
11.41439112589823
 30
0.0
 10
21.54567342511112
 20
11.40903487218065
 30
0.0
  0
LINE
  5
1B8
330
1F
100
AcDbEntity
  8
0
  6
Continuous
 62
     7
370
    25
100
AcDbLine
 10
21.5456734251
 20
11.4090348722
 30
0.0
 11
21.5457209446
 21
11.4107772521
 31
0.0
  0
SPLINE
  5
1B9
330
1F
100
AcDbEntity
  8
0
  6
Continuous
 62
     7
370
    25
100
AcDbSpline
210
0.0
220
0.0
230
1.0
 70
     8
 71
     3
 72
    12
 73
     8
 74
     0
 42
0.00000001
 43
0.00000001
 40
0.0
 40
0.0
 40
0.0
 40
0.0
 40
0.3014112469773202
 40
0.5675501761700917
 40
0.8538691759835246
 40
0.9886645231625878
 40
1.0
 40
1.0
 40
1.0
 40
1.0
 10
21.54572094456217
 20
11.41077725205253
 30
0.0
 10
21.54570830642429
 20
11.41132450576698
 30
0.0
 10
21.54568450911263
 20
11.41235497143525
 30
0.0
 10
21.54509989351392
 20
11.41380987659848
 30
0.0
 10
21.54429780566234
 20
11.41479001494277
 30
0.0
 10
21.54364423098303
 20
11.4152238273416
 30
0.0
 10
21.54341265495982
 20
11.41534933042228
 30
0.0
 10
21.54339469143525
 20
11.4153590657897
 30
0.0
  0
LINE
  5
1BA
330
1F
100
AcDbEntity
  8
0
  6
Continuous
 62
     7
370
    25
100
AcDbLine
 10
21.5456734251
 20
11.4090348722
 30
0.0
 11
21.5456734251
 21
11.3030289501
 31
0.0
  0
LINE
  5
1BB
330
1F
100
AcDbEntity
  8
0
  6
Continuous
 62
     7
370
    25
100
AcDbLine
 10
21.5456833983
 20
11.1356994698
 30
0.0
 11
21.5510745094
 21
11.1356994698
 31
0.0
  0
LINE
  5
1BC
330
1F
100
AcDbEntity
  8
0
  6
Continuous
 62
     7
370
    25
100
AcDbLine
 10
20.4320703429
 20
11.1356994698
 30
0.0
 11
20.4562328104
 21
11.1356994698
 31
0.0
  0
LINE
  5
1BD
330
1F
100
AcDbEntity
  8
0
  6
Continuous
 62
     7
370
    25
100
AcDbLine
 10
21.3100640669
 20
11.2450294068
 30
0.0
 11
21.3238956004
 21
11.2480295855
 31
0.0
  0
LINE
  5
1BE
330
1F
100
AcDbEntity
  8
0
  6
Continuous
 62
     7
370
    25
100
AcDbLine
 10
20.4544649108
 20
11.1402812835
 30
0.0
 11
20.4290725108
 21
11.1402812835
 31
0.0
  0
LINE
  5
1BF
330
1F
100
AcDbEntity
  8
0
  6
Continuous
 62
     7
370
    25
100
AcDbLine
 10
21.5480813706
 20
11.2450294068
 30
0.0
 11
21.5540724881
 21
11.2450294068
 31
0.0
  0
LINE
  5
1C0
330
1F
100
AcDbEntity
  8
0
  6
Continuous
 62
     7
370
    25
100
AcDbLine
 10
21.5540724881
 20
11.1402812835
 30
0.0
 11
21.5481215568
 21
11.1402812835
 31
0.0
  0
LINE
  5
1C1
330
1F
100
AcDbEntity
  8
0
  6
Continuous
 62
     7
370
    25
100
AcDbLine
 10
20.4520449388
 20
11.4153590658
 30
0.0
 11
20.4320703429
 21
11.4153590658
 31
0.0
  0
LINE
  5
1C2
330
1F
100
AcDbEntity
  8
0
  6
Continuous
 62
     7
370
    25
100
AcDbLine
 10
21.5510745094
 20
11.4153590658
 30
0.0
 11
21.5433946914
 21
11.4153590658
 31
0.0
  0
LINE
  5
1C3
330
1F
100
AcDbEntity
  8
0
  6
Continuous
 62
     7
370
    25
100
AcDbLine
 10
20.7354122253
 20
11.3060291288
 30
0.0
 11
20.7203159997
 21
11.3030289501
 31
0.0
  0
LINE
  5
1C4
330
1F
100
AcDbEntity
  8
0
  6
Continuous
 62
     7
370
    25
100
AcDbLine
 10
20.529939879
 20
11.4326467594
 30
0.0
 11
20.6561084214
 21
11.4326467594
 31
0.0
  0
LINE
  5
1C5
330
1F
100
AcDbEntity
  8
0
  6
Continuous
 62
     7
370
    25
100
AcDbLine
 10
21.3654302406
 20
11.4326467594
 30
0.0
 11
21.4659635059
 21
11.4326467594
 31
0.0
  0
LINE
  5
1C6
330
1F
100
AcDbEntity
  8
0
  6
Continuous
 62
     7
370
    25
100
AcDbLine
 10
20.4290725108
 20
11.4107772521
 30
0.0
 11
20.4501579473
 21
11.4107772521
 31
0.0
  0
LINE
  5
1C7
330
1F
100
AcDbEntity
  8
0
  6
Continuous
 62
     7
370
    25
100
AcDbLine
 10
21.5457209446
 20
11.4107772521
 30
0.0
 11
21.5540724881
 21
11.4107772521
 31
0.0
  0
POINT
  5
1C8
330
1F
100
AcDbEntity
  8
VP
100
AcDbPoint
 10
23.4915724752
 20
41.034906708
 30
0.0
  0
DIMENSION
  5
1C9
330
1F
100
AcDbEntity
  8
SLD-0
100
AcDbDimension
  2
_D
 10
11.8849748986
 20
22.2340291825
 30
0.0
 11
11.8849748986
 21
33.9372092379
 31
0.0
 70
   160
  1
SPECIFY LENGTH:\P6" - 72" MAX\P[152mm - 1829mm]
 71
     2
 42
-1.0
  3
SLDDIMSTYLE0
100
AcDbAlignedDimension
 13
23.4915724752
 23
41.034906708
 33
0.0
 14
19.8181926335
 24
22.2340291825
 34
0.0
 50
90.0
100
AcDbRotatedDimension
  0
DIMENSION
  5
1DC
330
1F
100
AcDbEntity
  8
SLD-0
100
AcDbDimension
  2
_D_1
 10
19.5165724752
 20
16.3260240969
 30
0.0
 11
25.9036198969
 21
16.3260240969
 31
0.0
 70
   160
  1
<>
 71
     2
 42
-1.0
  3
SLDDIMSTYLE1
100
AcDbAlignedDimension
 13
22.4665724752
 23
22.0640291825
 33
0.0
 14
19.5165724752
 24
22.0640291825
 34
0.0
100
AcDbRotatedDimension
  0
DIMENSION
  5
1F1
330
1F
100
AcDbEntity
  8
SLD-0
100
AcDbDimension
  2
_D_2
 10
21.4165724752
 20
12.4104603099
 30
0.0
 11
25.9036198969
 21
12.4104603099
 31
0.0
 70
   160
  1
%%c<>
 71
     2
 42
-1.0
  3
SLDDIMSTYLE2
100
AcDbAlignedDimension
 13
20.5665724752
 23
11.4390291825
 33
0.0
 14
21.4165724752
 24
11.4390291825
 34
0.0
100
AcDbRotatedDimension
  0
DIMENSION
  5
203
330
1F
100
AcDbEntity
  8
SLD-0
100
AcDbDimension
  2
_D_3
 10
25.9036198969
 20
19.9077791825
 30
0.0
 11
25.9036198969
 21
19.3428162144
 31
0.0
 70
   160
  1
<>
 71
     2
 42
-1.0
  3
SLDDIMSTYLE1
100
AcDbAlignedDimension
 13
22.1649523169
 23
22.2246599612
 33
0.0
 14
22.3467309362
 24
19.9077791825
 34
0.0
 50
90.0
100
AcDbRotatedDimension
  0
DIMENSION
  5
218
330
1F
100
AcDbEntity
  8
SLD-0
100
AcDbDimension
  2
_D_4
 10
11.8849748986
 20
19.9390291825
 30
0.0
 11
11.8849748986
 21
16.6443104314
 31
0.0
 70
   160
  1
<>
 71
     2
 42
-1.0
  3
SLDDIMSTYLE1
100
AcDbAlignedDimension
 13
20.5665724752
 23
11.4390291825
 33
0.0
 14
20.5665724752
 24
19.9390291825
 34
0.0
 50
90.0
100
AcDbRotatedDimension
  0
DIMENSION
  5
22C
330
1F
100
AcDbEntity
  8
SLD-0
100
AcDbDimension
  2
_D_5
 10
20.4915724752
 20
29.7644118051
 30
0.0
 11
17.5480685382
 21
29.7644118051
 31
0.0
 70
   160
  1
%%c<>
 71
     2
 42
-1.0
  3
SLDDIMSTYLE3
100
AcDbAlignedDimension
 13
21.4915724752
 23
23.034906708
 33
0.0
 14
20.4915724752
 24
25.5009679452
 34
0.0
 50
0.0
100
AcDbRotatedDimension
  0
DIMENSION
  5
23E
330
1F
100
AcDbEntity
  8
SLD-0
100
AcDbDimension
  2
_D_6
 10
27.1015724752
 20
24.6712469882
 30
0.0
 11
31.1021739871
 21
24.6712469882
 31
0.0
 70
   160
  1
%%c<>
 71
     2
 42
-1.0
  3
SLDDIMSTYLE1
100
AcDbAlignedDimension
 13
24.8815724752
 23
32.494906708
 33
0.0
 14
27.1015724752
 24
32.494906708
 34
0.0
 50
0.0
100
AcDbRotatedDimension
  0
DIMENSION
  5
251
330
1F
100
AcDbEntity
  8
SLD-0
100
AcDbDimension
  2
_D_7
 10
31.1021739871
 20
27.739906708
 30
0.0
 11
31.1021739871
 21
31.322406708
 31
0.0
 70
   160
  1
<>
 71
     2
 42
-1.0
  3
SLDDIMSTYLE1
100
AcDbAlignedDimension
 13
25.9915724752
 23
34.904906708
 33
0.0
 14
27.1015724752
 24
27.739906708
 34
0.0
 50
90.0
100
AcDbRotatedDimension
  0
DIMENSION
  5
265
330
1F
100
AcDbEntity
  8
SLD-0
100
AcDbDimension
  2
_D_8
 10
31.1021739871
 20
38.034906708
 30
0.0
 11
31.1021739871
 21
36.469906708
 31
0.0
 70
   160
  1
<>
 71
     2
 42
-1.0
  3
SLDDIMSTYLE2
100
AcDbAlignedDimension
 13
25.9915724752
 23
34.904906708
 33
0.0
 14
26.4915724752
 24
38.034906708
 34
0.0
 50
90.0
100
AcDbRotatedDimension
  0
MTEXT
  5
279
330
1F
100
AcDbEntity
  8
SLD-0
100
AcDbMText
 10
6.8882961173
 20
21.6084358669
 30
0.0
 40
0.625
 41
0.0
 71
     1
 72
     1
  1
(4) 1/2" Knockouts for 
  7
SLDTEXTSTYLE0
 73
     1
 44
1.0
  0
MTEXT
  5
27A
330
1F
100
AcDbEntity
  8
SLD-0
100
AcDbMText
 10
6.8882961173
 20
20.7865854943
 30
0.0
 40
0.625
 41
0.0
 71
     1
 72
     1
  1
use with surface conduit 
  7
SLDTEXTSTYLE0
 73
     1
 44
1.0
  0
LEADER
  5
27C
330
1F
100
AcDbEntity
  8
SLD-0
100
AcDbLeader
  3
SLDDIMSTYLE4
 76
     3
 10
19.8823392534
 20
20.520025441
 30
0.0
 10
18.27845336
 20
20.4765566221
 30
0.0
 10
17.02845336
 20
20.4765566221
 30
0.0
  0
ARC
  5
27D
330
1F
100
AcDbEntity
  8
0
  6
HIDDEN
 62
     7
370
    18
100
AcDbCircle
 10
21.5540724752
 20
27.3522863684
 30
0.0
 40
1.462500000000001
100
AcDbArc
 50
247.380135052
 51
292.619864948
  0
ARC
  5
27E
330
1F
100
AcDbEntity
  8
0
  6
HIDDEN
 62
     7
370
    18
100
AcDbCircle
 10
20.4290724752
 20
24.6522863684
 30
0.0
 40
1.462499999999998
100
AcDbArc
 50
67.380135052
 51
112.619864948
  0
ARC
  5
27F
330
1F
100
AcDbEntity
  8
0
  6
HIDDEN
 62
     7
370
    18
100
AcDbCircle
 10
21.5540724752
 20
28.1022863684
 30
0.0
 40
1.462500000000001
100
AcDbArc
 50
247.380135052
 51
292.619864948
  0
ARC
  5
280
330
1F
100
AcDbEntity
  8
0
  6
HIDDEN
 62
     7
370
    18
100
AcDbCircle
 10
20.4290724752
 20
25.4022863684
 30
0.0
 40
1.462499999999998
100
AcDbArc
 50
67.380135052
 51
112.619864948
  0
LINE
  5
281
330
1F
100
AcDbEntity
  8
0
  6
Continuous
 62
     7
370
    25
100
AcDbLine
 10
42.5341086144
 20
13.072256891
 30
0.0
 11
42.5341086144
 21
18.6623341849
 31
0.0
  0
LINE
  5
282
330
1F
100
AcDbEntity
  8
0
  6
Continuous
 62
     7
370
    25
100
AcDbLine
 10
41.6841086144
 20
19.1529075964
 30
0.0
 11
41.6841086144
 21
13.072256891
 31
0.0
  0
LINE
  5
283
330
1F
100
AcDbEntity
  8
0
  6
Continuous
 62
     7
370
    25
100
AcDbLine
 10
44.6688351623
 20
19.8806480382
 30
0.0
 11
44.7282248324
 21
21.2690853722
 31
0.0
  0
LINE
  5
284
330
1F
100
AcDbEntity
  8
0
  6
Continuous
 62
     7
370
    25
100
AcDbLine
 10
39.491782222
 20
21.9536658893
 30
0.0
 11
39.5493820665
 21
20.6070718723
 31
0.0
  0
LINE
  5
285
330
1F
100
AcDbEntity
  8
0
  6
Continuous
 62
     7
370
    25
100
AcDbLine
 10
42.9587937646
 20
19.0491931374
 30
0.0
 11
42.9970119589
 21
19.0271356904
 31
0.0
  0
LINE
  5
286
330
1F
100
AcDbEntity
  8
0
  6
Continuous
 62
     7
370
    25
100
AcDbLine
 10
43.3919067146
 20
19.7113565114
 30
0.0
 11
43.365839813
 21
19.7264008983
 31
0.0
  0
LINE
  5
287
330
1F
100
AcDbEntity
  8
0
  6
Continuous
 62
     7
370
    25
100
AcDbLine
 10
43.9840985973
 20
19.64094289
 30
0.0
 11
44.0223167916
 21
19.6188854429
 31
0.0
  0
LINE
  5
288
330
1F
100
AcDbEntity
  8
0
  6
Continuous
 62
     7
370
    25
100
AcDbLine
 10
44.4172115473
 20
20.3031062639
 30
0.0
 11
44.3911446457
 21
20.3181506508
 31
0.0
  0
ARC
  5
289
330
1F
100
AcDbEntity
  8
0
  6
Continuous
 62
     7
370
    25
100
AcDbCircle
 10
43.2802542207
 20
21.0471416322
 30
0.0
 40
0.2309191683920974
100
AcDbArc
 50
79.131326671
 51
102.6229248906
  0
ARC
  5
28A
330
1F
100
AcDbEntity
  8
0
  6
Continuous
 62
     7
370
    25
100
AcDbCircle
 10
40.937963008
 20
22.3989837393
 30
0.0
 40
0.2309191683921002
100
AcDbArc
 50
77.3770751094
 51
102.6229248906
  0
LINE
  5
28B
330
1F
100
AcDbEntity
  8
0
  6
Continuous
 62
     7
370
    25
100
AcDbLine
 10
40.5841086144
 20
12.9611936395
 30
0.0
 11
40.5841086144
 21
12.9162783539
 31
0.0
  0
LINE
  5
28C
330
1F
100
AcDbEntity
  8
0
  6
Continuous
 62
     7
370
    25
100
AcDbLine
 10
37.32922442
 20
32.2178161053
 30
0.0
 11
37.32922442
 21
28.7145298053
 31
0.0
  0
LINE
  5
28D
330
1F
100
AcDbEntity
  8
0
  6
Continuous
 62
     7
370
    25
100
AcDbLine
 10
39.54922442
 20
29.9964749801
 30
0.0
 11
39.54922442
 21
32.3239944457
 31
0.0
  0
LINE
  5
28E
330
1F
100
AcDbEntity
  8
0
  6
Continuous
 62
     7
370
    25
100
AcDbLine
 10
41.6241086144
 20
13.0670450494
 30
0.0
 11
41.6241086144
 21
12.9611936395
 31
0.0
  0
LINE
  5
28F
330
1F
100
AcDbEntity
  8
0
  6
Continuous
 62
     7
370
    25
100
AcDbLine
 10
38.8921857048
 20
33.8744275055
 30
0.0
 11
38.9007120223
 21
33.8755915239
 31
0.0
  0
LINE
  5
290
330
1F
100
AcDbEntity
  8
0
  6
Continuous
 62
     7
370
    25
100
AcDbLine
 10
39.0378055804
 20
34.113128907
 30
0.0
 11
39.0345480406
 21
34.1210939219
 31
0.0
  0
LINE
  5
291
330
1F
100
AcDbEntity
  8
0
  6
Continuous
 62
     7
370
    25
100
AcDbLine
 10
38.8005396792
 20
33.9116183553
 30
0.0
 11
38.853527322
 21
33.8810367921
 31
0.0
  0
LINE
  5
292
330
1F
100
AcDbEntity
  8
0
  6
Continuous
 62
     7
370
    25
100
AcDbLine
 10
39.0094857572
 20
34.1512607113
 30
0.0
 11
38.9745601971
 21
34.1714178303
 31
0.0
  0
LINE
  5
293
330
1F
100
AcDbEntity
  8
0
  6
Continuous
 62
     7
370
    25
100
AcDbLine
 10
38.8005396792
 20
33.9116183553
 30
0.0
 11
38.8314712119
 21
33.89376637
 31
0.0
  0
LINE
  5
294
330
1F
100
AcDbEntity
  8
0
  6
Continuous
 62
     7
370
    25
100
AcDbLine
 10
38.9874296471
 20
34.1639902892
 30
0.0
 11
38.9745601971
 21
34.1714178303
 31
0.0
  0
LINE
  5
295
330
1F
100
AcDbEntity
  8
0
  6
Continuous
 62
     7
370
    25
100
AcDbLine
 10
38.0785747084
 20
35.5131449473
 30
0.0
 11
38.0785747084
 21
34.6845381859
 31
0.0
  0
LINE
  5
296
330
1F
100
AcDbEntity
  8
0
  6
Continuous
 62
     7
370
    25
100
AcDbLine
 10
39.0685747084
 20
34.2227273864
 30
0.0
 11
39.0685747084
 21
35.5131449473
 31
0.0
  0
ARC
  5
297
330
1F
100
AcDbEntity
  8
0
  6
Continuous
 62
     7
370
    25
100
AcDbCircle
 10
38.5735747084
 20
34.2227273864
 30
0.0
 40
0.4950000000000055
100
AcDbArc
 50
226.4128923226
 51
317.852723137
  0
LWPOLYLINE
  5
298
330
1F
100
AcDbEntity
  8
0
  6
Continuous
 62
     7
370
    25
100
AcDbPolyline
 90
        3
 70
   128
 43
0.0
 10
39.0447859794
 20
34.0711195432
 10
39.060634939
 20
34.134424885
 10
39.0685747084
 20
34.2227273864
  0
LINE
  5
299
330
1F
100
AcDbEntity
  8
0
  6
Continuous
 62
     7
370
    25
100
AcDbLine
 10
39.1990613322
 20
34.3063195585
 30
0.0
 11
39.1812502035
 21
34.31661012
 31
0.0
  0
LINE
  5
29A
330
1F
100
AcDbEntity
  8
0
  6
Continuous
 62
     7
370
    25
100
AcDbLine
 10
37.6530864164
 20
34.31661012
 30
0.0
 11
37.6318619193
 21
34.3043474501
 31
0.0
  0
LINE
  5
29B
330
1F
100
AcDbEntity
  8
0
  6
Continuous
 62
     7
370
    25
100
AcDbLine
 10
37.3071683099
 20
33.8515941084
 30
0.0
 11
37.3071683099
 21
32.3448904391
 31
0.0
  0
ARC
  5
29C
330
1F
100
AcDbEntity
  8
0
  6
Continuous
 62
     7
370
    25
100
AcDbCircle
 10
38.4171683099
 20
34.312996587
 30
0.0
 40
0.4950000000000045
100
AcDbArc
 50
133.109437166
 51
180.0
  0
LINE
  5
29D
330
1F
100
AcDbEntity
  8
0
  6
Continuous
 62
     7
370
    25
100
AcDbLine
 10
37.9221683099
 20
34.312996587
 30
0.0
 11
37.9221683099
 21
33.876093355
 31
0.0
  0
LINE
  5
29E
330
1F
100
AcDbEntity
  8
0
  6
Continuous
 62
     7
370
    25
100
AcDbLine
 10
39.2245308106
 20
34.2916178723
 30
0.0
 11
39.2033063136
 21
34.3038805421
 31
0.0
  0
LINE
  5
29F
330
1F
100
AcDbEntity
  8
0
  6
Continuous
 62
     7
370
    25
100
AcDbLine
 10
39.54922442
 20
32.3321608612
 30
0.0
 11
39.54922442
 21
33.8388645305
 31
0.0
  0
LINE
  5
2A0
330
1F
100
AcDbEntity
  8
0
  6
Continuous
 62
     7
370
    25
100
AcDbLine
 10
38.93422442
 20
33.8633637772
 30
0.0
 11
38.93422442
 21
33.8715301927
 31
0.0
  0
SPLINE
  5
2A1
330
1F
100
AcDbEntity
  8
0
  6
Continuous
 62
     7
370
    25
100
AcDbSpline
210
0.0
220
0.0
230
1.0
 70
     8
 71
     3
 72
    56
 73
    52
 74
     0
 42
0.00000001
 43
0.00000001
 40
0.0
 40
0.0
 40
0.0
 40
0.0
 40
0.011693195335109
 40
0.0333836752918204
 40
0.0550802683689642
 40
0.0766915499221234
 40
0.0981432194871225
 40
0.1193556576658637
 40
0.1402565995134321
 40
0.160794720263119
 40
0.1809491083913672
 40
0.2007317633841106
 40
0.2201838290324928
 40
0.2393685224463612
 40
0.2583636536367707
 40
0.2772552933204138
 40
0.2961167073328909
 40
0.3150245587315705
 40
0.3340650884666858
 40
0.3533164059216309
 40
0.3728436155001673
 40
0.392693315450366
 40
0.4128883061515284
 40
0.4334241342473007
 40
0.4542694237169276
 40
0.4753711537166647
 40
0.496664095586042
 40
0.5180816328919993
 40
0.5395646839614965
 40
0.561061061421601
 40
0.5825360156856491
 40
0.6039729422623344
 40
0.6253641730295645
 40
0.6467084354588134
 40
0.6680087862252785
 40
0.6892710909338475
 40
0.7105029762340507
 40
0.731713143152734
 40
0.7529109363108766
 40
0.7741060830195263
 40
0.7953075710960369
 40
0.8165231095522962
 40
0.8377628181140276
 40
0.8590367363788002
 40
0.8803546198622192
 40
0.9017255975102522
 40
0.9231576070540934
 40
0.944656499514467
 40
0.9662246792932162
 40
0.9878591412764051
 40
1.0
 40
1.0
 40
1.0
 40
1.0
 10
42.60910861437155
 20
38.81933184211464
 30
0.0
 10
42.60881162139104
 20
38.84986576669045
 30
0.0
 10
42.60796371652494
 20
38.93703908366763
 30
0.0
 10
42.5985907518933
 20
39.07783847116744
 30
0.0
 10
42.57755142842402
 20
39.23965022390237
 30
0.0
 10
42.54576485016941
 20
39.39577987422145
 30
0.0
 10
42.50345379250281
 20
39.54520207364494
 30
0.0
 10
42.45077132389584
 20
39.6868903840345
 30
0.0
 10
42.38810266868815
 20
39.81990757646296
 30
0.0
 10
42.31596826950032
 20
39.94344586669263
 30
0.0
 10
42.23499850150153
 20
40.05687341780969
 30
0.0
 10
42.14587530372388
 20
40.15973602328229
 30
0.0
 10
42.04928757523773
 20
40.25173158762324
 30
0.0
 10
41.94589890292653
 20
40.33267052938065
 30
0.0
 10
41.83632831322527
 20
40.402436879876
 30
0.0
 10
41.72117153543605
 20
40.46093969934421
 30
0.0
 10
41.60099409453425
 20
40.5081091614778
 30
0.0
 10
41.47630005085538
 20
40.54389976638202
 30
0.0
 10
41.34749338088535
 20
40.56827376938846
 30
0.0
 10
41.21489724808358
 20
40.58116857172245
 30
0.0
 10
41.07881444955185
 20
40.58248147059231
 30
0.0
 10
40.93956983422838
 20
40.57208040466909
 30
0.0
 10
40.79755622122411
 20
40.54983208619859
 30
0.0
 10
40.65327176750848
 20
40.51564498479777
 30
0.0
 10
40.50733543358007
 20
40.46951753748981
 30
0.0
 10
40.36047252989252
 20
40.41157688712488
 30
0.0
 10
40.21347354045003
 20
40.34209494231214
 30
0.0
 10
40.06714053714474
 20
40.2614774224319
 30
0.0
 10
39.92225211283206
 20
40.17024082880378
 30
0.0
 10
39.77952458905263
 20
40.06897363173539
 30
0.0
 10
39.63958954741205
 20
39.95829464810679
 30
0.0
 10
39.50299066617992
 20
39.83881752696774
 30
0.0
 10
39.37020861518293
 20
39.71114309449503
 30
0.0
 10
39.24168952820288
 20
39.57586841205464
 30
0.0
 10
39.11785579739444
 20
39.43358869206125
 30
0.0
 10
38.99911328210299
 20
39.28490009951826
 30
0.0
 10
38.88585547887769
 20
39.13040218424408
 30
0.0
 10
38.77846549778303
 20
38.97069941579146
 30
0.0
 10
38.67731664744319
 20
38.80640170868222
 30
0.0
 10
38.58277370689907
 20
38.63812658793076
 30
0.0
 10
38.49519385910263
 20
38.46650214502215
 30
0.0
 10
38.41492174922725
 20
38.29215931438305
 30
0.0
 10
38.34228843864057
 20
38.11572687506975
 30
0.0
 10
38.27761095405729
 20
37.93782523387668
 30
0.0
 10
38.22119824654473
 20
37.75907225860629
 30
0.0
 10
38.17334757703589
 20
37.58008115241473
 30
0.0
 10
38.1343674395609
 20
37.4014700931471
 30
0.0
 10
38.10450291196963
 20
37.22383711395484
 30
0.0
 10
38.08422628520624
 20
37.04787891925435
 30
0.0
 10
38.07478234552089
 20
36.89957601926931
 30
0.0
 10
38.07389402401306
 20
36.81074618045878
 30
0.0
 10
38.0735747084388
 20
36.77881545409199
 30
0.0
  0
SPLINE
  5
2A2
330
1F
100
AcDbEntity
  8
0
  6
Continuous
 62
     7
370
    25
100
AcDbSpline
210
0.0
220
0.0
230
1.0
 70
     8
 71
     3
 72
    50
 73
    46
 74
     0
 42
0.00000001
 43
0.00000001
 40
0.0
 40
0.0
 40
0.0
 40
0.0
 40
0.0118175323980552
 40
0.03446033077819
 40
0.0571984578533472
 40
0.0800473625492306
 40
0.103006742141664
 40
0.1260698450083513
 40
0.1492258599524011
 40
0.1724615049168243
 40
0.1957620611725507
 40
0.2191120245037169
 40
0.242495494210245
 40
0.2658963871500273
 40
0.2892984203837441
 40
0.3126801320453992
 40
0.336025334820979
 40
0.3593179217016211
 40
0.3825420099580685
 40
0.4056822261425839
 40
0.4287242022276767
 40
0.4516553807302915
 40
0.4744662613356548
 40
0.4971522691998799
 40
0.5197164917642293
 40
0.5421736289161044
 40
0.5645556577156228
 40
0.5869196426631718
 40
0.6093258743170726
 40
0.6319036151758518
 40
0.6548539543359984
 40
0.6784888618549735
 40
0.7032996340613283
 40
0.7300770618600455
 40
0.7600392497523047
 40
0.7901898092256656
 40
0.8164741247410895
 40
0.84059749699983
 40
0.8634149561029568
 40
0.8876190231948661
 40
0.9109370214841833
 40
0.9337693301944193
 40
0.9563761612126767
 40
0.9789114135965948
 40
1.0
 40
1.0
 40
1.0
 40
1.0
 10
39.07357470843881
 20
36.778815454092
 30
0.0
 10
39.0737680133492
 20
36.79891545258233
 30
0.0
 10
39.07433169711404
 20
36.85752773924987
 30
0.0
 10
39.08073738602837
 20
36.95977443266815
 30
0.0
 10
39.09546839781018
 20
37.08680652498725
 30
0.0
 10
39.11795202494098
 20
37.2190022222279
 30
0.0
 10
39.14815635701443
 20
37.35532453938589
 30
0.0
 10
39.18610959148666
 20
37.49484120805108
 30
0.0
 10
39.23170861454061
 20
37.63655048588484
 30
0.0
 10
39.28477631899071
 20
37.77944775576153
 30
0.0
 10
39.34505220923987
 20
37.92252182421207
 30
0.0
 10
39.41220114367346
 20
38.06476819721794
 30
0.0
 10
39.48581697156215
 20
38.20519625649494
 30
0.0
 10
39.56542699368336
 20
38.34283675264042
 30
0.0
 10
39.65048953427198
 20
38.47673894234625
 30
0.0
 10
39.74040223527438
 20
38.60598901040942
 30
0.0
 10
39.83450616662184
 20
38.72971810644442
 30
0.0
 10
39.93209714403088
 20
38.84711813029966
 30
0.0
 10
40.03242264001338
 20
38.95743959928477
 30
0.0
 10
40.1346853698048
 20
39.0600004182487
 30
0.0
 10
40.23804754979015
 20
39.1541957487861
 30
0.0
 10
40.34163630388318
 20
39.23950912429017
 30
0.0
 10
40.44455086261827
 20
39.31552486925454
 30
0.0
 10
40.54587240462274
 20
39.38194169865591
 30
0.0
 10
40.644677644825
 20
39.43858706901864
 30
0.0
 10
40.74005760023644
 20
39.4854313624511
 30
0.0
 10
40.83114289982925
 20
39.52260002653232
 30
0.0
 10
40.91709552104774
 20
39.55036728060303
 30
0.0
 10
40.99719022588484
 20
39.56918321934306
 30
0.0
 10
41.07088668113327
 20
39.57966171143004
 30
0.0
 10
41.13795502186969
 20
39.58253092262444
 30
0.0
 10
41.1985821264895
 20
39.57851233954614
 30
0.0
 10
41.25356559794212
 20
39.56808486345632
 30
0.0
 10
41.30456531635763
 20
39.55099261960449
 30
0.0
 10
41.35190724947967
 20
39.52653600587603
 30
0.0
 10
41.39537280526871
 20
39.49421331097279
 30
0.0
 10
41.43482942003831
 20
39.45432288863812
 30
0.0
 10
41.47003875918809
 20
39.40799434070226
 30
0.0
 10
41.50301620768938
 20
39.35247082665449
 30
0.0
 10
41.53335439948887
 20
39.2863975287193
 30
0.0
 10
41.56007800079724
 20
39.20882196373541
 30
0.0
 10
41.58164370152647
 20
39.12247985541379
 30
0.0
 10
41.59741628264161
 20
39.02735153473099
 30
0.0
 10
41.60729080490482
 20
38.92660294244381
 30
0.0
 10
41.60851622377746
 20
38.8542895161813
 30
0.0
 10
41.60910861437155
 20
38.81933184211464
 30
0.0
  0
LINE
  5
2A3
330
1F
100
AcDbEntity
  8
0
  6
Continuous
 62
     7
370
    25
100
AcDbLine
 10
39.0735747084
 20
35.5538531213
 30
0.0
 11
39.0735747084
 21
36.7788154541
 31
0.0
  0
LINE
  5
2A4
330
1F
100
AcDbEntity
  8
0
  6
Continuous
 62
     7
370
    25
100
AcDbLine
 10
38.0735747084
 20
36.7788154541
 30
0.0
 11
38.0735747084
 21
35.5538531213
 31
0.0
  0
LINE
  5
2A5
330
1F
100
AcDbEntity
  8
0
  6
Continuous
 62
     7
370
    25
100
AcDbLine
 10
42.6091086144
 20
26.5697085147
 30
0.0
 11
42.6091086144
 21
38.8193318421
 31
0.0
  0
LINE
  5
2A6
330
1F
100
AcDbEntity
  8
0
  6
Continuous
 62
     7
370
    25
100
AcDbLine
 10
41.6091086144
 20
38.8193318421
 30
0.0
 11
41.6091086144
 21
26.5697085147
 31
0.0
  0
LINE
  5
2A7
330
1F
100
AcDbEntity
  8
0
  6
Continuous
 62
     7
370
    25
100
AcDbLine
 10
42.6091086144
 20
21.7864496129
 30
0.0
 11
42.6091086144
 21
26.5697085147
 31
0.0
  0
LINE
  5
2A8
330
1F
100
AcDbEntity
  8
0
  6
Continuous
 62
     7
370
    25
100
AcDbLine
 10
41.6091086144
 20
26.5697085147
 30
0.0
 11
41.6091086144
 21
21.7864496129
 31
0.0
  0
LWPOLYLINE
  5
2A9
330
1F
100
AcDbEntity
  8
0
  6
Continuous
 62
     7
370
    25
100
AcDbPolyline
 90
       19
 70
   128
 43
0.0
 10
41.6841086144
 20
13.072256891
 10
41.6845621001
 20
13.0609287025
 10
41.6953974413
 20
13.0160983648
 10
41.7203212203
 20
12.9731804383
 10
41.7584846877
 20
12.9336364416
 10
41.8085882324
 20
12.898812998
 10
41.8689256382
 20
12.8698959782
 10
41.9374421873
 20
12.8478701165
 10
42.0118046306
 20
12.8334854774
 10
42.0894806444
 20
12.8272319123
 10
42.1678250652
 20
12.829322379
 10
42.2441699677
 20
12.8396856892
 10
42.3159155178
 20
12.8579689327
 10
42.3806185068
 20
12.8835494956
 10
42.436075552
 20
12.9155562625
 10
42.4803981304
 20
12.9528992814
 10
42.5120768896
 20
12.9943068805
 10
42.5300330475
 20
13.0383689738
 10
42.5341086144
 20
13.072256891
  0
LWPOLYLINE
  5
2AA
330
1F
100
AcDbEntity
  8
0
  6
Continuous
 62
     7
370
    25
100
AcDbPolyline
 90
        3
 70
   128
 43
0.0
 10
42.0668231882
 20
12.2157061192
 10
42.0894806444
 20
12.2147507459
 10
42.1476960548
 20
12.2155021272
  0
LINE
  5
2AB
330
1F
100
AcDbEntity
  8
0
  6
Continuous
 62
     7
370
    25
100
AcDbLine
 10
42.7384336496
 20
18.7665260903
 30
0.0
 11
42.7808600565
 21
20.1451731586
 31
0.0
  0
LINE
  5
2AC
330
1F
100
AcDbEntity
  8
0
  6
Continuous
 62
     7
370
    25
100
AcDbLine
 10
42.7808600565
 20
20.1451731586
 30
0.0
 11
44.7112615691
 21
21.2592951065
 31
0.0
  0
LINE
  5
2AD
330
1F
100
AcDbEntity
  8
0
  6
Continuous
 62
     7
370
    25
100
AcDbLine
 10
44.6688351623
 20
19.8806480382
 30
0.0
 11
44.7112615691
 21
21.2592951065
 31
0.0
  0
LINE
  5
2AE
330
1F
100
AcDbEntity
  8
0
  6
Continuous
 62
     7
370
    25
100
AcDbLine
 10
44.6549171244
 20
19.6504981928
 30
0.0
 11
44.6688351623
 21
19.8806480382
 31
0.0
  0
LINE
  5
2AF
330
1F
100
AcDbEntity
  8
0
  6
Continuous
 62
     7
370
    25
100
AcDbLine
 10
42.7384336496
 20
18.5444089736
 30
0.0
 11
44.6549171244
 21
19.6504981928
 31
0.0
  0
LINE
  5
2B0
330
1F
100
AcDbEntity
  8
0
  6
Continuous
 62
     7
370
    25
100
AcDbLine
 10
42.7384336496
 20
18.5444089736
 30
0.0
 11
42.7384336496
 21
18.7665260903
 31
0.0
  0
ELLIPSE
  5
2B1
330
1F
100
AcDbEntity
  8
0
  6
Continuous
 62
     7
370
    25
100
AcDbEllipse
 10
43.2013817406
 20
19.3656523361
 30
0.0
 11
0.2116956159075798
 21
0.3432184807952332
 31
0.0
210
0.0
220
0.0
230
1.0
 40
0.5569700171
 41
0.0
 42
6.283185307179586
  0
ELLIPSE
  5
2B2
330
1F
100
AcDbEntity
  8
0
  6
Continuous
 62
     7
370
    25
100
AcDbEllipse
 10
44.2266865733
 20
19.9574020886
 30
0.0
 11
0.2116956159075798
 21
0.3432184807952297
 31
0.0
210
0.0
220
0.0
230
1.0
 40
0.5569700171
 41
0.0
 42
6.283185307179586
  0
LINE
  5
2B3
330
1F
100
AcDbEntity
  8
0
  6
Continuous
 62
     7
370
    25
100
AcDbLine
 10
42.4165880153
 20
18.7301606333
 30
0.0
 11
42.7384336496
 21
18.5444089736
 31
0.0
  0
LINE
  5
2B4
330
1F
100
AcDbEntity
  8
0
  6
Continuous
 62
     7
370
    25
100
AcDbLine
 10
42.4165880153
 20
18.7301606333
 30
0.0
 11
42.3723938415
 21
18.7556670882
 31
0.0
  0
LINE
  5
2B5
330
1F
100
AcDbEntity
  8
0
  6
Continuous
 62
     7
370
    25
100
AcDbLine
 10
39.9293399125
 20
20.1656639123
 30
0.0
 11
42.3723938415
 21
18.7556670882
 31
0.0
  0
LINE
  5
2B6
330
1F
100
AcDbEntity
  8
0
  6
Continuous
 62
     7
370
    25
100
AcDbLine
 10
39.9293399125
 20
20.1656639123
 30
0.0
 11
39.8851457387
 21
20.1911703671
 31
0.0
  0
LINE
  5
2B7
330
1F
100
AcDbEntity
  8
0
  6
Continuous
 62
     7
370
    25
100
AcDbLine
 10
39.5633001044
 20
20.3769220269
 30
0.0
 11
39.8851457387
 21
20.1911703671
 31
0.0
  0
LINE
  5
2B8
330
1F
100
AcDbEntity
  8
0
  6
Continuous
 62
     7
370
    25
100
AcDbLine
 10
39.5633001044
 20
20.3769220269
 30
0.0
 11
39.5493820665
 21
20.6070718723
 31
0.0
  0
LINE
  5
2B9
330
1F
100
AcDbEntity
  8
0
  6
Continuous
 62
     7
370
    25
100
AcDbLine
 10
42.4165880153
 20
18.7046405847
 30
0.0
 11
42.4165880153
 21
18.7301606333
 31
0.0
  0
LINE
  5
2BA
330
1F
100
AcDbEntity
  8
0
  6
Continuous
 62
     7
370
    25
100
AcDbLine
 10
42.4165880153
 20
18.7046405847
 30
0.0
 11
42.3723938415
 21
18.7301470396
 31
0.0
  0
LINE
  5
2BB
330
1F
100
AcDbEntity
  8
0
  6
Continuous
 62
     7
370
    25
100
AcDbLine
 10
42.3723938415
 20
18.7301470396
 30
0.0
 11
42.3723938415
 21
18.7556670882
 31
0.0
  0
LINE
  5
2BC
330
1F
100
AcDbEntity
  8
0
  6
Continuous
 62
     7
370
    25
100
AcDbLine
 10
42.438696879
 20
18.717400609
 30
0.0
 11
42.4165880153
 21
18.7046405847
 31
0.0
  0
LINE
  5
2BD
330
1F
100
AcDbEntity
  8
0
  6
Continuous
 62
     7
370
    25
100
AcDbLine
 10
39.9514487761
 20
20.152903888
 30
0.0
 11
39.9293399125
 21
20.1401438637
 31
0.0
  0
LINE
  5
2BE
330
1F
100
AcDbEntity
  8
0
  6
Continuous
 62
     7
370
    25
100
AcDbLine
 10
39.9293399125
 20
20.1401438637
 30
0.0
 11
39.9293399125
 21
20.1656639123
 31
0.0
  0
LINE
  5
2BF
330
1F
100
AcDbEntity
  8
0
  6
Continuous
 62
     7
370
    25
100
AcDbLine
 10
39.9293399125
 20
20.1401438637
 30
0.0
 11
39.8851457387
 21
20.1656503186
 31
0.0
  0
LINE
  5
2C0
330
1F
100
AcDbEntity
  8
0
  6
Continuous
 62
     7
370
    25
100
AcDbLine
 10
39.8851457387
 20
20.1656503186
 30
0.0
 11
39.8851457387
 21
20.1911703671
 31
0.0
  0
LINE
  5
2C1
330
1F
100
AcDbEntity
  8
0
  6
Continuous
 62
     7
370
    25
100
AcDbLine
 10
43.3462393549
 20
19.7276338104
 30
0.0
 11
43.3400433462
 21
19.7285580896
 31
0.0
  0
ARC
  5
2C2
330
1F
100
AcDbEntity
  8
0
  6
Continuous
 62
     7
370
    25
100
AcDbCircle
 10
43.1002472679
 20
19.1800901306
 30
0.0
 40
0.183939582833228
100
AcDbArc
 50
180.2199492427
 51
238.3302156815
  0
LINE
  5
2C3
330
1F
100
AcDbEntity
  8
0
  6
Continuous
 62
     7
370
    25
100
AcDbLine
 10
43.3462393549
 20
19.7276338104
 30
0.0
 11
43.0036747763
 21
19.0235413395
 31
0.0
  0
LINE
  5
2C4
330
1F
100
AcDbEntity
  8
0
  6
Continuous
 62
     7
370
    25
100
AcDbLine
 10
43.3652271088
 20
19.7265034555
 30
0.0
 11
43.3852438973
 21
19.7149508623
 31
0.0
  0
LINE
  5
2C5
330
1F
100
AcDbEntity
  8
0
  6
Continuous
 62
     7
370
    25
100
AcDbLine
 10
43.3462393549
 20
19.7276338104
 30
0.0
 11
43.3447795584
 21
19.7284763249
 31
0.0
  0
LINE
  5
2C6
330
1F
100
AcDbEntity
  8
0
  6
Continuous
 62
     7
370
    25
100
AcDbLine
 10
43.0426793186
 20
19.0108583914
 30
0.0
 11
43.0074082342
 21
19.0312149281
 31
0.0
  0
LWPOLYLINE
  5
2C7
330
1F
100
AcDbEntity
  8
0
  6
Continuous
 62
     7
370
    25
100
AcDbPolyline
 90
       16
 70
   128
 43
0.0
 10
43.0426793186
 20
19.0108583914
 10
43.0916653742
 20
19.0099860578
 10
43.144652445
 20
19.023097083
 10
43.1995781328
 20
19.0496811511
 10
43.2543045834
 20
19.088703539
 10
43.3067016974
 20
19.1386453916
 10
43.3547300394
 20
19.1975628387
 10
43.3965202184
 20
19.2631626561
 10
43.430445649
 20
19.3328915241
 10
43.4551858631
 20
19.4040354092
 10
43.4697779056
 20
19.4738252016
 10
43.4736538152
 20
19.5395444965
 10
43.4666627313
 20
19.5986353238
 10
43.4490767654
 20
19.6487977109
 10
43.4215804102
 20
19.6880792038
 10
43.3852438973
 20
19.7149508623
  0
LINE
  5
2C8
330
1F
100
AcDbEntity
  8
0
  6
Continuous
 62
     7
370
    25
100
AcDbLine
 10
43.3461551002
 20
19.7276824376
 30
0.0
 11
43.3465104745
 21
19.7284128586
 31
0.0
  0
LINE
  5
2C9
330
1F
100
AcDbEntity
  8
0
  6
Continuous
 62
     7
370
    25
100
AcDbLine
 10
43.0426793186
 20
19.0108583914
 30
0.0
 11
43.3852438973
 21
19.7149508623
 31
0.0
  0
LWPOLYLINE
  5
2CA
330
1F
100
AcDbEntity
  8
0
  6
Continuous
 62
     7
370
    25
100
AcDbPolyline
 90
       12
 70
   128
 43
0.0
 10
43.9416138731
 20
19.7711337705
 10
43.9444456006
 20
19.7477773786
 10
43.9590376431
 20
19.6948310405
 10
43.9837778572
 20
19.6522445466
 10
44.0177032878
 20
19.6216754768
 10
44.0594934668
 20
19.6043136609
 10
44.1075218088
 20
19.600834867
 10
44.1599189229
 20
19.6113744991
 10
44.2146453735
 20
19.6355223266
 10
44.2695710613
 20
19.6723384516
 10
44.322558132
 20
19.7203898924
 10
44.3715441876
 20
19.7778063588
  0
ARC
  5
2CB
330
1F
100
AcDbEntity
  8
0
  6
Continuous
 62
     7
370
    25
100
AcDbCircle
 10
43.7978453345
 20
20.2040840919
 30
0.0
 40
0.6742040307547273
100
AcDbArc
 50
323.7125109347
 51
328.9081180717
  0
LINE
  5
2CC
330
1F
100
AcDbEntity
  8
0
  6
Continuous
 62
     7
370
    25
100
AcDbLine
 10
44.41054873
 20
19.8355118749
 30
0.0
 11
44.3751933909
 21
19.8559170388
 31
0.0
  0
LWPOLYLINE
  5
2CD
330
1F
100
AcDbEntity
  8
0
  6
Continuous
 62
     7
370
    25
100
AcDbPolyline
 90
       11
 70
   128
 43
0.0
 10
44.41054873
 20
19.8355118749
 10
44.4468852429
 20
19.9043264207
 10
44.4743815981
 20
19.9753466919
 10
44.491967564
 20
20.0458083902
 10
44.4989586479
 20
20.1129689585
 10
44.4950827383
 20
20.1742143282
 10
44.4804906958
 20
20.2271606664
 10
44.4557504817
 20
20.2697471603
 10
44.4218250511
 20
20.30031623
 10
44.3800348722
 20
20.3176780459
 10
44.3653481789
 20
20.3203078421
  0
LINE
  5
2CE
330
1F
100
AcDbEntity
  8
0
  6
Continuous
 62
     7
370
    25
100
AcDbLine
 10
44.3715441876
 20
19.7778063588
 30
0.0
 11
44.0376227629
 21
20.0786917753
 31
0.0
  0
LINE
  5
2CF
330
1F
100
AcDbEntity
  8
0
  6
Continuous
 62
     7
370
    25
100
AcDbLine
 10
44.0772607091
 20
20.1358265524
 30
0.0
 11
44.41054873
 21
19.8355118749
 31
0.0
  0
LINE
  5
2D0
330
1F
100
AcDbEntity
  8
0
  6
Continuous
 62
     7
370
    25
100
AcDbLine
 10
44.3751933909
 20
19.8559170388
 30
0.0
 11
44.0720979754
 21
20.1290261704
 31
0.0
  0
LWPOLYLINE
  5
2D1
330
1F
100
AcDbEntity
  8
0
  6
Continuous
 62
     7
370
    25
100
AcDbPolyline
 90
        6
 70
   128
 43
0.0
 10
43.3960121458
 20
21.1524903732
 10
43.4029406496
 20
21.159100597
 10
43.418258477
 20
21.1856617192
 10
43.4168924718
 20
21.2136443576
 10
43.3990077754
 20
21.2396655902
 10
43.3667665331
 20
21.2605796163
  0
LWPOLYLINE
  5
2D2
330
1F
100
AcDbEntity
  8
0
  6
Continuous
 62
     7
370
    25
100
AcDbPolyline
 90
        9
 70
   128
 43
0.0
 10
43.2378273409
 20
21.1254149529
 10
43.2507803595
 20
21.1528751235
 10
43.2669020048
 20
21.1817926134
 10
43.283907859
 20
21.2070858888
 10
43.3013615633
 20
21.2281059415
 10
43.3188152677
 20
21.244313411
 10
43.3358211219
 20
21.2552924248
 10
43.3519427672
 20
21.2607612688
 10
43.3667665331
 20
21.2605796163
  0
SPLINE
  5
2D3
330
1F
100
AcDbEntity
  8
0
  6
Continuous
 62
     7
370
    25
100
AcDbSpline
210
0.0
220
0.0
230
1.0
 70
     8
 71
     3
 72
     9
 73
     5
 74
     0
 42
0.00000001
 43
0.00000001
 40
0.0
 40
0.0
 40
0.0
 40
0.0
 40
0.7666296161436807
 40
0.9999999999999999
 40
0.9999999999999999
 40
0.9999999999999999
 40
0.9999999999999999
 10
43.3131339620866
 20
21.23945627703895
 30
0.0
 10
43.31605499916328
 20
21.2482221180804
 30
0.0
 10
43.3198652316604
 20
21.25965637636738
 30
0.0
 10
43.32366507663147
 20
21.27109532001846
 30
0.0
 10
43.32455184791096
 20
21.27376483068922
 30
0.0
  0
LWPOLYLINE
  5
2D4
330
1F
100
AcDbEntity
  8
0
  6
Continuous
 62
     7
370
    25
100
AcDbPolyline
 90
        8
 70
   128
 43
0.0
 10
43.2297905998
 20
21.2724793461
 10
43.2290545399
 20
21.2723131217
 10
43.1877176243
 20
21.2576681918
 10
43.1575677918
 20
21.2357396558
 10
43.1422499644
 20
21.2091785337
 10
43.1436159696
 20
21.1811958952
 10
43.1615006661
 20
21.1551746626
 10
43.1644962956
 20
21.1524903732
  0
LWPOLYLINE
  5
2D5
330
1F
100
AcDbEntity
  8
0
  6
Continuous
 62
     7
370
    25
100
AcDbPolyline
 90
        9
 70
   128
 43
0.0
 10
43.3245518479
 20
21.2737648307
 10
43.3097280819
 20
21.2739464833
 10
43.2936064366
 20
21.2684776392
 10
43.2766005825
 20
21.2574986254
 10
43.2591468781
 20
21.2412911559
 10
43.2416931737
 20
21.2202711033
 10
43.2246873196
 20
21.1949778279
 10
43.2085656743
 20
21.1660603379
 10
43.1937419083
 20
21.1342606366
  0
LINE
  5
2D6
330
1F
100
AcDbEntity
  8
0
  6
Continuous
 62
     7
370
    25
100
AcDbLine
 10
43.2889930267
 20
21.2137108196
 30
0.0
 11
43.2120471749
 21
21.1316507783
 31
0.0
  0
LWPOLYLINE
  5
2D7
330
1F
100
AcDbEntity
  8
0
  6
Continuous
 62
     7
370
    25
100
AcDbPolyline
 90
        5
 70
   128
 43
0.0
 10
41.0537209331
 20
22.5043324803
 10
41.0723217411
 20
22.5276059737
 10
41.0770481959
 20
22.5554664912
 10
41.0649601403
 20
22.5825769535
 10
41.0375189432
 20
22.6056598792
  0
LWPOLYLINE
  5
2D8
330
1F
100
AcDbEntity
  8
0
  6
Continuous
 62
     7
370
    25
100
AcDbPolyline
 90
        9
 70
   128
 43
0.0
 10
40.8797161231
 20
22.4809226971
 10
40.8955652758
 20
22.5073290922
 10
40.9152963058
 20
22.534943672
 10
40.9361095053
 20
22.5588625778
 10
40.9574708216
 20
22.5784720667
 10
40.9788321379
 20
22.5932689725
 10
40.9996453374
 20
22.6028736167
 10
41.0193763674
 20
22.6070395506
 10
41.0375189432
 20
22.6056598792
  0
SPLINE
  5
2D9
330
1F
100
AcDbEntity
  8
0
  6
Continuous
 62
     7
370
    25
100
AcDbSpline
210
0.0
220
0.0
230
1.0
 70
     8
 71
     3
 72
     9
 73
     5
 74
     0
 42
0.00000001
 43
0.00000001
 40
0.0
 40
0.0
 40
0.0
 40
0.0
 40
0.7666296161436921
 40
1.0
 40
1.0
 40
1.0
 40
1.0
 10
40.9845291438396
 20
22.58841126797529
 30
0.0
 10
40.98810415552082
 20
22.59694103827519
 30
0.0
 10
40.99276743959691
 20
22.60806736332222
 30
0.0
 10
40.99741801054201
 20
22.6191992132266
 30
0.0
 10
40.99850331606861
 20
22.62179705731182
 30
0.0
  0
LINE
  5
2DA
330
1F
100
AcDbEntity
  8
0
  6
Continuous
 62
     7
370
    25
100
AcDbLine
 10
40.9985033161
 20
22.6217970573
 30
0.0
 11
40.9884266289
 21
22.6243214532
 31
0.0
  0
LWPOLYLINE
  5
2DB
330
1F
100
AcDbEntity
  8
0
  6
Continuous
 62
     7
370
    25
100
AcDbPolyline
 90
        7
 70
   128
 43
0.0
 10
40.8874993871
 20
22.6243214532
 10
40.8592514342
 20
22.6157335715
 10
40.8245738418
 20
22.5961609074
 10
40.8036042749
 20
22.5709184933
 10
40.7988778202
 20
22.5430579758
 10
40.8109658757
 20
22.5159475134
 10
40.8222050829
 20
22.5043324803
  0
LWPOLYLINE
  5
2DC
330
1F
100
AcDbEntity
  8
0
  6
Continuous
 62
     7
370
    25
100
AcDbPolyline
 90
        9
 70
   128
 43
0.0
 10
40.9985033161
 20
22.6217970573
 10
40.9803607403
 20
22.6231767287
 10
40.9606297103
 20
22.6190107948
 10
40.9398165108
 20
22.6094061506
 10
40.9184551945
 20
22.5946092448
 10
40.8970938782
 20
22.5749997559
 10
40.8762806787
 20
22.5510808501
 10
40.8565496487
 20
22.5234662703
 10
40.8384070729
 20
22.4928645878
  0
LINE
  5
2DD
330
1F
100
AcDbEntity
  8
0
  6
Continuous
 62
     7
370
    25
100
AcDbLine
 10
40.9106675444
 20
22.5289273086
 30
0.0
 11
40.8585885356
 21
22.4869858172
 31
0.0
  0
LWPOLYLINE
  5
2DE
330
1F
100
AcDbEntity
  8
0
  6
Continuous
 62
     7
370
    25
100
AcDbPolyline
 90
       17
 70
   128
 43
0.0
 10
42.1741739259
 20
12.2496093988
 10
42.1433889944
 20
12.2615252099
 10
42.1070464968
 20
12.2657347038
 10
42.0706792488
 20
12.2615970232
 10
42.0398238342
 20
12.2497420925
 10
42.0191777103
 20
12.2319747173
 10
42.0118840623
 20
12.2109998196
 10
42.0190532819
 20
12.1900106374
 10
42.0395939205
 20
12.1722025833
 10
42.0703788519
 20
12.1602867722
 10
42.1067213496
 20
12.1560772783
 10
42.1430885976
 20
12.1602149589
 10
42.1739440122
 20
12.1720698896
 10
42.194590136
 20
12.1898372648
 10
42.2018837841
 20
12.2108121625
 10
42.1947145645
 20
12.2318013448
 10
42.1741739259
 20
12.2496093988
  0
ARC
  5
2DF
330
1F
100
AcDbEntity
  8
0
  6
Continuous
 62
     7
370
    25
100
AcDbCircle
 10
42.1428114105
 20
11.4665669473
 30
0.0
 40
2.372395381683658
100
AcDbArc
 50
77.0636172306
 51
80.5063903722
  0
LINE
  5
2E0
330
1F
100
AcDbEntity
  8
0
  6
Continuous
 62
     7
370
    25
100
AcDbLine
 10
43.5275842246
 20
13.2843701809
 30
0.0
 11
42.6739172953
 21
13.7787491171
 31
0.0
  0
ARC
  5
2E1
330
1F
100
AcDbEntity
  8
0
  6
Continuous
 62
     7
370
    25
100
AcDbCircle
 10
43.0474508516
 20
12.9448755567
 30
0.0
 40
0.5880345701854093
100
AcDbArc
 50
7.0850384431
 51
35.2635193659
  0
LINE
  5
2E2
330
1F
100
AcDbEntity
  8
0
  6
Continuous
 62
     7
370
    25
100
AcDbLine
 10
43.6309952956
 20
13.0174051204
 30
0.0
 11
43.4092778409
 21
13.0176241042
 31
0.0
  0
LWPOLYLINE
  5
2E3
330
1F
100
AcDbEntity
  8
0
  6
Continuous
 62
     7
370
    25
100
AcDbPolyline
 90
        9
 70
   128
 43
0.0
 10
43.4092778409
 20
13.0176241042
 10
43.3709965272
 20
13.0132686509
 10
43.3385171435
 20
13.0007897764
 10
43.3167843815
 20
12.9820872763
 10
43.3091068572
 20
12.9600084366
 10
43.3166534042
 20
12.9379145605
 10
43.338275129
 20
12.9191692404
 10
43.37068032
 20
12.9066262814
 10
43.4089355807
 20
12.9021952352
  0
LINE
  5
2E4
330
1F
100
AcDbEntity
  8
0
  6
Continuous
 62
     7
370
    25
100
AcDbLine
 10
43.4089355807
 20
12.9021952352
 30
0.0
 11
43.6306530354
 21
12.9019762514
 31
0.0
  0
ARC
  5
2E5
330
1F
100
AcDbEntity
  8
0
  6
Continuous
 62
     7
370
    25
100
AcDbCircle
 10
43.0452743489
 20
12.9783333412
 30
0.0
 40
0.5903377099953121
100
AcDbArc
 50
324.4635756316
 51
352.568269803
  0
LINE
  5
2E6
330
1F
100
AcDbEntity
  8
0
  6
Continuous
 62
     7
370
    25
100
AcDbLine
 10
42.6690657049
 20
12.1425272639
 30
0.0
 11
43.5256594091
 21
12.635217026
 31
0.0
  0
ARC
  5
2E7
330
1F
100
AcDbEntity
  8
0
  6
Continuous
 62
     7
370
    25
100
AcDbCircle
 10
42.1091596299
 20
14.6508123713
 30
0.0
 40
2.570017313792412
100
AcDbArc
 50
257.3034017684
 51
282.5834195619
  0
LINE
  5
2E8
330
1F
100
AcDbEntity
  8
0
  6
Continuous
 62
     7
370
    25
100
AcDbLine
 10
40.6906330042
 20
12.638017098
 30
0.0
 11
41.5442999334
 21
12.1436381619
 31
0.0
  0
ARC
  5
2E9
330
1F
100
AcDbEntity
  8
0
  6
Continuous
 62
     7
370
    25
100
AcDbCircle
 10
41.1339532903
 20
12.9612820323
 30
0.0
 40
0.5486648283120336
100
AcDbArc
 50
143.5610486168
 51
216.0991749192
  0
LINE
  5
2EA
330
1F
100
AcDbEntity
  8
0
  6
Continuous
 62
     7
370
    25
100
AcDbLine
 10
41.5491515238
 20
13.7798600151
 30
0.0
 11
40.6925578197
 21
13.287170253
 31
0.0
  0
ARC
  5
2EB
330
1F
100
AcDbEntity
  8
0
  6
Continuous
 62
     7
370
    25
100
AcDbCircle
 10
42.0760705236
 20
11.4630350757
 30
0.0
 40
2.375988516825881
100
AcDbArc
 50
99.495371508
 51
102.8129166392
  0
LINE
  5
2EC
330
1F
100
AcDbEntity
  8
0
  6
Continuous
 62
     7
370
    25
100
AcDbLine
 10
40.7166288386
 20
12.9687020337
 30
0.0
 11
40.7162726714
 21
12.8485829606
 31
0.0
  0
LWPOLYLINE
  5
2ED
330
1F
100
AcDbEntity
  8
0
  6
Continuous
 62
     7
370
    25
100
AcDbPolyline
 90
        9
 70
   128
 43
0.0
 10
40.7162726714
 20
12.8485829606
 10
40.7232532274
 20
12.8281461252
 10
40.7432533228
 20
12.8108067041
 10
40.7732281245
 20
12.799204467
 10
40.8086142407
 20
12.7951057493
 10
40.8440244558
 20
12.7991345435
 10
40.8740678858
 20
12.8106775024
 10
40.8941706906
 20
12.827977315
 10
40.9012724006
 20
12.8484002418
  0
LINE
  5
2EE
330
1F
100
AcDbEntity
  8
0
  6
Continuous
 62
     7
370
    25
100
AcDbLine
 10
40.9012724006
 20
12.8484002418
 30
0.0
 11
40.9016285677
 21
12.9685193149
 31
0.0
  0
LWPOLYLINE
  5
2EF
330
1F
100
AcDbEntity
  8
0
  6
Continuous
 62
     7
370
    25
100
AcDbPolyline
 90
       17
 70
   128
 43
0.0
 10
40.9016285677
 20
12.9685193149
 10
40.9354685642
 20
12.9883946304
 10
40.957070842
 20
13.0133151007
 10
40.9643393981
 20
13.040862769
 10
40.9565689869
 20
13.0683647694
 10
40.9345135476
 20
13.0931526668
 10
40.9003130518
 20
13.1128213676
 10
40.8572858691
 20
13.1254624778
 10
40.8096067952
 20
13.1298494693
 10
40.7619019848
 20
13.1255566857
 10
40.7188000895
 20
13.1130006426
 10
40.6844831544
 20
13.0933996145
 10
40.6622808466
 20
13.0686554291
 10
40.654347388
 20
13.041168939
 10
40.6614525379
 20
13.0136070742
 10
40.6829069053
 20
12.9886440781
 10
40.7166288386
 20
12.9687020337
  0
ARC
  5
2F0
330
1F
100
AcDbEntity
  8
0
  6
Continuous
 62
     7
370
    25
100
AcDbCircle
 10
42.1091596299
 20
14.6058970858
 30
0.0
 40
2.570017313792357
100
AcDbArc
 50
257.3034017684
 51
282.5834195619
  0
LINE
  5
2F1
330
1F
100
AcDbEntity
  8
0
  6
Continuous
 62
     7
370
    25
100
AcDbLine
 10
41.5442999334
 20
12.1436381619
 30
0.0
 11
41.5442999334
 21
12.0987228763
 31
0.0
  0
LINE
  5
2F2
330
1F
100
AcDbEntity
  8
0
  6
Continuous
 62
     7
370
    25
100
AcDbLine
 10
42.6690657049
 20
12.0976119783
 30
0.0
 11
42.6690657049
 21
12.1425272639
 31
0.0
  0
ARC
  5
2F3
330
1F
100
AcDbEntity
  8
0
  6
Continuous
 62
     7
370
    25
100
AcDbCircle
 10
42.1068839232
 20
12.0993393347
 30
0.0
 40
0.1243032730305452
100
AcDbArc
 50
45.7964818107
 51
134.2035181893
  0
LINE
  5
2F4
330
1F
100
AcDbEntity
  8
0
  6
Continuous
 62
     7
370
    25
100
AcDbLine
 10
43.5256594091
 20
12.635217026
 30
0.0
 11
43.5256594091
 21
12.5903017404
 31
0.0
  0
LINE
  5
2F5
330
1F
100
AcDbEntity
  8
0
  6
Continuous
 62
     7
370
    25
100
AcDbLine
 10
42.6690657049
 20
12.0976119783
 30
0.0
 11
43.5256594091
 21
12.5903017404
 31
0.0
  0
LINE
  5
2F6
330
1F
100
AcDbEntity
  8
0
  6
Continuous
 62
     7
370
    25
100
AcDbLine
 10
40.6906330042
 20
12.5931018125
 30
0.0
 11
40.6906330042
 21
12.638017098
 31
0.0
  0
LINE
  5
2F7
330
1F
100
AcDbEntity
  8
0
  6
Continuous
 62
     7
370
    25
100
AcDbLine
 10
40.6906330042
 20
12.5931018125
 30
0.0
 11
41.5442999334
 21
12.0987228763
 31
0.0
  0
LINE
  5
2F8
330
1F
100
AcDbEntity
  8
0
  6
Continuous
 62
     7
370
    25
100
AcDbLine
 10
43.6306530354
 20
12.8570609658
 30
0.0
 11
43.6306530354
 21
12.9019762514
 31
0.0
  0
ARC
  5
2F9
330
1F
100
AcDbEntity
  8
0
  6
Continuous
 62
     7
370
    25
100
AcDbCircle
 10
43.0452743489
 20
12.9334180557
 30
0.0
 40
0.5903377099952624
100
AcDbArc
 50
324.4635756316
 51
352.568269803
  0
ARC
  5
2FA
330
1F
100
AcDbEntity
  8
0
  6
Continuous
 62
     7
370
    25
100
AcDbCircle
 10
41.1549188721
 20
12.9252825753
 30
0.0
 40
0.5708812716749537
100
AcDbArc
 50
180.9037348044
 51
215.5824325917
  0
LINE
  5
2FB
330
1F
100
AcDbEntity
  8
0
  6
Continuous
 62
     7
370
    25
100
AcDbLine
 10
40.7166288386
 20
12.9237867481
 30
0.0
 11
40.7166288386
 21
12.9687020337
 31
0.0
  0
LINE
  5
2FC
330
1F
100
AcDbEntity
  8
0
  6
Continuous
 62
     7
370
    25
100
AcDbLine
 10
40.7166288386
 20
12.9237867481
 30
0.0
 11
40.7163973589
 21
12.8457191017
 31
0.0
  0
LINE
  5
2FD
330
1F
100
AcDbEntity
  8
0
  6
Continuous
 62
     7
370
    25
100
AcDbLine
 10
43.4092778409
 20
12.9727088186
 30
0.0
 11
43.4092778409
 21
13.0176241042
 31
0.0
  0
ARC
  5
2FE
330
1F
100
AcDbEntity
  8
0
  6
Continuous
 62
     7
370
    25
100
AcDbCircle
 10
43.4007854331
 20
12.8565190362
 30
0.0
 40
0.1164997276194745
100
AcDbArc
 50
85.8196374834
 51
135.9962533761
  0
LWPOLYLINE
  5
2FF
330
1F
100
AcDbEntity
  8
0
  6
Continuous
 62
     7
370
    25
100
AcDbPolyline
 90
       11
 70
   128
 43
0.0
 10
40.9593778305
 20
13.0179344531
 10
40.9565689869
 20
13.0234494839
 10
40.9345135476
 20
13.0482373813
 10
40.9003130518
 20
13.0679060821
 10
40.8572858691
 20
13.0805471923
 10
40.8096067952
 20
13.0849341838
 10
40.7619019848
 20
13.0806414002
 10
40.7188000895
 20
13.0680853571
 10
40.6844831544
 20
13.048484329
 10
40.6622808466
 20
13.0237401436
 10
40.6593052567
 20
13.0179344531
  0
LINE
  5
300
330
1F
100
AcDbEntity
  8
0
  6
Continuous
 62
     7
370
    25
100
AcDbLine
 10
43.6309952956
 20
12.9724898348
 30
0.0
 11
43.6309952956
 21
13.0174051204
 31
0.0
  0
LINE
  5
301
330
1F
100
AcDbEntity
  8
0
  6
Continuous
 62
     7
370
    25
100
AcDbLine
 10
43.6309952956
 20
12.9724898348
 30
0.0
 11
43.4092778409
 21
12.9727088186
 31
0.0
  0
LINE
  5
302
330
1F
100
AcDbEntity
  8
0
  6
Continuous
 62
     7
370
    25
100
AcDbLine
 10
42.7030783106
 20
20.2023619924
 30
0.0
 11
42.7030783106
 21
20.1002817981
 31
0.0
  0
LINE
  5
303
330
1F
100
AcDbEntity
  8
0
  6
Continuous
 62
     7
370
    25
100
AcDbLine
 10
42.7030783106
 20
20.2023619924
 30
0.0
 11
44.7890433151
 21
21.4062666614
 31
0.0
  0
LINE
  5
304
330
1F
100
AcDbEntity
  8
0
  6
Continuous
 62
     7
370
    25
100
AcDbLine
 10
44.7890433151
 20
21.4062666614
 30
0.0
 11
44.7890433151
 21
21.304186467
 31
0.0
  0
LINE
  5
305
330
1F
100
AcDbEntity
  8
0
  6
Continuous
 62
     7
370
    25
100
AcDbLine
 10
42.7030783106
 20
20.1002817981
 30
0.0
 11
44.7890433151
 21
21.304186467
 31
0.0
  0
LINE
  5
306
330
1F
100
AcDbEntity
  8
0
  6
Continuous
 62
     7
370
    25
100
AcDbLine
 10
39.4291739137
 20
22.0918801678
 30
0.0
 11
39.4291739137
 21
21.9897999734
 31
0.0
  0
LINE
  5
307
330
1F
100
AcDbEntity
  8
0
  6
Continuous
 62
     7
370
    25
100
AcDbLine
 10
39.4291739137
 20
22.0918801678
 30
0.0
 11
42.7030783106
 21
20.2023619924
 31
0.0
  0
LINE
  5
308
330
1F
100
AcDbEntity
  8
0
  6
Continuous
 62
     7
370
    25
100
AcDbLine
 10
39.4291739137
 20
21.9897999734
 30
0.0
 11
42.7030783106
 21
20.1002817981
 31
0.0
  0
LINE
  5
309
330
1F
100
AcDbEntity
  8
0
  6
Continuous
 62
     7
370
    25
100
AcDbLine
 10
44.7890433151
 20
21.4062666614
 30
0.0
 11
44.6970972036
 21
21.4593329174
 31
0.0
  0
LINE
  5
30A
330
1F
100
AcDbEntity
  8
0
  6
Continuous
 62
     7
370
    25
100
AcDbLine
 10
41.5151611481
 20
23.2957720068
 30
0.0
 11
41.5151389182
 21
23.2957848367
 31
0.0
  0
LINE
  5
30B
330
1F
100
AcDbEntity
  8
0
  6
Continuous
 62
     7
370
    25
100
AcDbLine
 10
41.5151389182
 20
23.2957848367
 30
0.0
 11
41.5151166883
 21
23.2957720068
 31
0.0
  0
LINE
  5
30C
330
1F
100
AcDbEntity
  8
0
  6
Continuous
 62
     7
370
    25
100
AcDbLine
 10
39.5211200251
 20
22.1449464237
 30
0.0
 11
39.4291739137
 21
22.0918801678
 31
0.0
  0
ELLIPSE
  5
30D
330
1F
100
AcDbEntity
  8
0
  6
Continuous
 62
     7
370
    25
100
AcDbEllipse
 10
42.7030783106
 20
20.2224739014
 30
0.0
 11
-0.08824100266174641
 21
0.1151447702605282
 31
0.0
210
0.0
220
0.0
230
1.0
 40
0.4085996988
 41
5.202224986277234
 42
5.505697920629922
  0
LINE
  5
30E
330
1F
100
AcDbEntity
  8
0
  6
Continuous
 62
     7
370
    25
100
AcDbLine
 10
42.6731946867
 20
20.3298275172
 30
0.0
 11
42.6731946867
 21
20.562476922
 31
0.0
  0
ARC
  5
30F
330
1F
100
AcDbEntity
  8
0
  6
Continuous
 62
     7
370
    25
100
AcDbCircle
 10
42.7030783106
 20
20.3999801065
 30
0.0
 40
0.1652218085926713
100
AcDbArc
 50
79.5795768059
 51
100.4204231941
  0
LINE
  5
310
330
1F
100
AcDbEntity
  8
0
  6
Continuous
 62
     7
370
    25
100
AcDbLine
 10
42.7329619344
 20
20.562476922
 30
0.0
 11
42.7329619344
 21
20.3298275172
 31
0.0
  0
ELLIPSE
  5
311
330
1F
100
AcDbEntity
  8
0
  6
Continuous
 62
     7
370
    25
100
AcDbEllipse
 10
42.7030783106
 20
20.2224739014
 30
0.0
 11
0.08824100266174641
 21
0.1151447702605282
 31
0.0
210
0.0
220
0.0
230
1.0
 40
0.4085996988
 41
0.777487386549684
 42
1.080960320902364
  0
LINE
  5
312
330
1F
100
AcDbEntity
  8
0
  6
Continuous
 62
     7
370
    25
100
AcDbLine
 10
44.3923716204
 20
21.5201972405
 30
0.0
 11
42.7329619344
 21
20.562476922
 31
0.0
  0
LINE
  5
313
330
1F
100
AcDbEntity
  8
0
  6
Continuous
 62
     7
370
    25
100
AcDbLine
 10
44.6672358096
 20
21.4461843805
 30
0.0
 11
44.3923716204
 21
21.5201972405
 31
0.0
  0
LINE
  5
314
330
1F
100
AcDbEntity
  8
0
  6
Continuous
 62
     7
370
    25
100
AcDbLine
 10
44.6672358096
 20
21.4461843805
 30
0.0
 11
42.7329619344
 21
20.3298275172
 31
0.0
  0
LINE
  5
315
330
1F
100
AcDbEntity
  8
0
  6
Continuous
 62
     7
370
    25
100
AcDbLine
 10
42.6731946867
 20
20.3298275172
 30
0.0
 11
39.5509814191
 21
22.1317978868
 31
0.0
  0
LINE
  5
316
330
1F
100
AcDbEntity
  8
0
  6
Continuous
 62
     7
370
    25
100
AcDbLine
 10
39.8258456084
 20
22.2058107469
 30
0.0
 11
39.5509814191
 21
22.1317978868
 31
0.0
  0
LINE
  5
317
330
1F
100
AcDbEntity
  8
0
  6
Continuous
 62
     7
370
    25
100
AcDbLine
 10
42.6731946867
 20
20.562476922
 30
0.0
 11
39.8258456084
 21
22.2058107469
 31
0.0
  0
LINE
  5
318
330
1F
100
AcDbEntity
  8
0
  6
Continuous
 62
     7
370
    25
100
AcDbLine
 10
42.7030783106
 20
20.2554154185
 30
0.0
 11
44.6971194335
 21
21.4062666614
 31
0.0
  0
LINE
  5
319
330
1F
100
AcDbEntity
  8
0
  6
Continuous
 62
     7
370
    25
100
AcDbLine
 10
42.7030783106
 20
20.3084628609
 30
0.0
 11
42.7030783106
 21
20.2554154185
 31
0.0
  0
ELLIPSE
  5
31A
330
1F
100
AcDbEntity
  8
0
  6
Continuous
 62
     7
370
    25
100
AcDbEllipse
 10
44.6971194335
 20
21.3733251443
 30
0.0
 11
0.08824100266174639
 21
0.06762334522995062
 31
0.0
210
0.0
220
0.0
230
1.0
 40
0.6957378149
 41
1.080960320902322
 42
1.384433255255009
  0
LINE
  5
31B
330
1F
100
AcDbEntity
  8
0
  6
Continuous
 62
     7
370
    25
100
AcDbLine
 10
44.6971194335
 20
21.4593141037
 30
0.0
 11
44.6971194335
 21
21.4062666614
 31
0.0
  0
LINE
  5
31C
330
1F
100
AcDbEntity
  8
0
  6
Continuous
 62
     7
370
    25
100
AcDbLine
 10
39.5210977952
 20
22.0918801678
 30
0.0
 11
42.7030783106
 21
20.2554154185
 31
0.0
  0
LINE
  5
31D
330
1F
100
AcDbEntity
  8
0
  6
Continuous
 62
     7
370
    25
100
AcDbLine
 10
39.5210977952
 20
22.1449276101
 30
0.0
 11
39.5210977952
 21
22.0918801678
 31
0.0
  0
ELLIPSE
  5
31E
330
1F
100
AcDbEntity
  8
0
  6
Continuous
 62
     7
370
    25
100
AcDbEllipse
 10
39.5210977952
 20
22.0589386507
 30
0.0
 11
0.08824100266174639
 21
-0.06762334522995062
 31
0.0
210
0.0
220
0.0
230
1.0
 40
0.6957378149
 41
1.757159398334784
 42
2.060632332687471
  0
ARC
  5
31F
330
1F
100
AcDbEntity
  8
0
  6
Continuous
 62
     7
370
    25
100
AcDbCircle
 10
42.7669306983
 20
20.4803559045
 30
0.0
 40
0.124620629850561
100
AcDbArc
 50
120.822099622
 51
138.7787796733
  0
ARC
  5
320
330
1F
100
AcDbEntity
  8
0
  6
Continuous
 62
     7
370
    25
100
AcDbCircle
 10
42.6392259229
 20
20.4803559045
 30
0.0
 40
0.1246206298504289
100
AcDbArc
 50
41.2212203267
 51
59.177900378
  0
ARC
  5
321
330
1F
100
AcDbEntity
  8
0
  6
Continuous
 62
     7
370
    25
100
AcDbCircle
 10
39.9195816199
 20
22.1236897294
 30
0.0
 40
0.124620629850574
100
AcDbArc
 50
120.822099622
 51
138.7787796733
  0
LINE
  5
322
330
1F
100
AcDbEntity
  8
0
  6
Continuous
 62
     7
370
    25
100
AcDbLine
 10
39.8557292322
 20
22.2307092321
 30
0.0
 11
42.7030783106
 21
20.5873754072
 31
0.0
  0
LINE
  5
323
330
1F
100
AcDbEntity
  8
0
  6
Continuous
 62
     7
370
    25
100
AcDbLine
 10
42.7030783106
 20
20.5873754072
 30
0.0
 11
44.3624879965
 21
21.5450957258
 31
0.0
  0
ARC
  5
324
330
1F
100
AcDbEntity
  8
0
  6
Continuous
 62
     7
370
    25
100
AcDbCircle
 10
44.2986356088
 20
21.438076223
 30
0.0
 40
0.1246206298502159
100
AcDbArc
 50
41.2212203267
 51
59.177900378
  0
LINE
  5
325
330
1F
100
AcDbEntity
  8
0
  6
Continuous
 62
     7
370
    25
100
AcDbLine
 10
41.5151389182
 20
23.1884295507
 30
0.0
 11
39.8557292322
 21
22.2307092321
 31
0.0
  0
LWPOLYLINE
  5
326
330
1F
100
AcDbEntity
  8
0
  6
Continuous
 62
     7
370
    25
100
AcDbPolyline
 90
       21
 70
   128
 43
0.0
 10
40.8283614569
 20
22.5005675245
 10
40.8675944806
 20
22.4841163124
 10
40.913715666
 20
22.4754673984
 10
40.9622103501
 20
22.4754673984
 10
41.0083315355
 20
22.4841163124
 10
41.0475645591
 20
22.5005675245
 10
41.0760690193
 20
22.5232106753
 10
41.0910547008
 20
22.5498292956
 10
41.0910547008
 20
22.5778177693
 10
41.0760690193
 20
22.6044363896
 10
41.0475645591
 20
22.6270795405
 10
41.0083315355
 20
22.6435307526
 10
40.9622103501
 20
22.6521796666
 10
40.913715666
 20
22.6521796666
 10
40.8675944806
 20
22.6435307526
 10
40.8283614569
 20
22.6270795405
 10
40.7998569968
 20
22.6044363896
 10
40.7848713152
 20
22.5778177693
 10
40.7848713152
 20
22.5498292956
 10
40.7998569968
 20
22.5232106753
 10
40.8283614569
 20
22.5005675245
  0
LWPOLYLINE
  5
327
330
1F
100
AcDbEntity
  8
0
  6
Continuous
 62
     7
370
    25
100
AcDbPolyline
 90
       21
 70
   128
 43
0.0
 10
43.1706526696
 20
21.1487254174
 10
43.2098856933
 20
21.1322742053
 10
43.2560068786
 20
21.1236252913
 10
43.3045015628
 20
21.1236252913
 10
43.3506227482
 20
21.1322742053
 10
43.3898557718
 20
21.1487254174
 10
43.418360232
 20
21.1713685683
 10
43.4333459135
 20
21.1979871886
 10
43.4333459135
 20
21.2259756623
 10
43.418360232
 20
21.2525942826
 10
43.3898557718
 20
21.2752374334
 10
43.3506227482
 20
21.2916886455
 10
43.3045015628
 20
21.3003375595
 10
43.2560068786
 20
21.3003375595
 10
43.2098856933
 20
21.2916886455
 10
43.1706526696
 20
21.2752374334
 10
43.1421482095
 20
21.2525942826
 10
43.1271625279
 20
21.2259756623
 10
43.1271625279
 20
21.1979871886
 10
43.1421482095
 20
21.1713685683
 10
43.1706526696
 20
21.1487254174
  0
LWPOLYLINE
  5
328
330
1F
100
AcDbEntity
  8
0
  6
Continuous
 62
     7
370
    25
100
AcDbPolyline
 90
       18
 70
   128
 43
0.0
 10
41.7343420203
 20
21.6716077418
 10
41.8011379022
 20
21.6389567765
 10
41.8763344223
 20
21.6130964009
 10
41.9578804155
 20
21.5947320189
 10
42.0435515198
 20
21.5843645627
 10
42.1310108507
 20
21.5822768296
 10
42.2178727457
 20
21.5885257675
 10
42.3017678388
 20
21.6029409217
 10
42.3804076904
 20
21.6251290843
 10
42.4516472104
 20
21.6544850202
 10
42.5135431705
 20
21.6902079758
 10
42.5644072102
 20
21.7313235222
 10
42.602851891
 20
21.7767101343
 10
42.6278285424
 20
21.8251297837
 10
42.6386558663
 20
21.8752617086
 10
42.6350385216
 20
21.9257384408
 10
42.6170751801
 20
21.9751831065
 10
42.6091086144
 20
21.989355345
  0
LWPOLYLINE
  5
329
330
1F
100
AcDbEntity
  8
0
  6
Continuous
 62
     7
370
    25
100
AcDbPolyline
 90
        8
 70
   128
 43
0.0
 10
41.6091086144
 20
21.989355345
 10
41.5903886863
 20
21.9506751742
 10
41.5795613624
 20
21.9005432493
 10
41.5831787071
 20
21.8500665171
 10
41.6011420487
 20
21.8006218514
 10
41.632961394
 20
21.7535579736
 10
41.6777687942
 20
21.7101586638
 10
41.7343420203
 20
21.6716077418
  0
LINE
  5
32A
330
1F
100
AcDbEntity
  8
0
  6
Continuous
 62
     7
370
    25
100
AcDbLine
 10
44.3923716204
 20
21.5546916201
 30
0.0
 11
44.6672358096
 21
21.48067876
 31
0.0
  0
ELLIPSE
  5
32B
330
1F
100
AcDbEntity
  8
0
  6
Continuous
 62
     7
370
    25
100
AcDbEllipse
 10
44.6971194335
 20
21.3733251443
 30
0.0
 11
-0.08824100266175351
 21
0.1151447702605282
 31
0.0
210
0.0
220
0.0
230
1.0
 40
0.4085996988
 41
5.202224986277228
 42
5.505697920629899
  0
ARC
  5
32C
330
1F
100
AcDbEntity
  8
0
  6
Continuous
 62
     7
370
    25
100
AcDbCircle
 10
44.2930868013
 20
21.5374444303
 30
0.0
 40
0.1007717264167308
100
AcDbArc
 50
350.1452480018
 51
9.8547519982
  0
ARC
  5
32D
330
1F
100
AcDbEntity
  8
0
  6
Continuous
 62
     7
370
    25
100
AcDbCircle
 10
42.4400302355
 20
21.8551544607
 30
0.0
 40
0.1993558400006623
100
AcDbArc
 50
5.3121734531
 51
31.9918429452
  0
LWPOLYLINE
  5
32E
330
1F
100
AcDbEntity
  8
0
  6
Continuous
 62
     7
370
    25
100
AcDbPolyline
 90
        3
 70
   128
 43
0.0
 10
41.6091086144
 20
21.9607728905
 10
41.5903886863
 20
21.9220927198
 10
41.5796873766
 20
21.8736112517
  0
LINE
  5
32F
330
1F
100
AcDbEntity
  8
0
  6
Continuous
 62
     7
370
    25
100
AcDbLine
 10
41.545022542
 20
23.2826491297
 30
0.0
 11
41.545022542
 21
23.198025445
 31
0.0
  0
LINE
  5
330
330
1F
100
AcDbEntity
  8
0
  6
Continuous
 62
     7
370
    25
100
AcDbLine
 10
41.545022542
 20
23.2826491297
 30
0.0
 11
41.6091086144
 21
23.2456621613
 31
0.0
  0
LINE
  5
331
330
1F
100
AcDbEntity
  8
0
  6
Continuous
 62
     7
370
    25
100
AcDbLine
 10
42.6091086144
 20
22.6685169713
 30
0.0
 11
44.6672358096
 21
21.48067876
 31
0.0
  0
ARC
  5
332
330
1F
100
AcDbEntity
  8
0
  6
Continuous
 62
     7
370
    25
100
AcDbCircle
 10
44.3970261073
 20
21.4888666958
 30
0.0
 40
0.0659892787466612
100
AcDbArc
 50
94.0446582131
 51
121.5599037889
  0
ARC
  5
333
330
1F
100
AcDbEntity
  8
0
  6
Continuous
 62
     7
370
    25
100
AcDbCircle
 10
41.549677029
 20
23.1322005207
 30
0.0
 40
0.0659892787466978
100
AcDbArc
 50
94.0446582131
 51
121.5599037889
  0
ELLIPSE
  5
334
330
1F
100
AcDbEntity
  8
0
  6
Continuous
 62
     7
370
    25
100
AcDbEllipse
 10
39.5210977952
 20
22.0589386507
 30
0.0
 11
0.08824100266174641
 21
0.1151447702605282
 31
0.0
210
0.0
220
0.0
230
1.0
 40
0.4085996988
 41
0.7774873865496365
 42
1.080960320902325
  0
LINE
  5
335
330
1F
100
AcDbEntity
  8
0
  6
Continuous
 62
     7
370
    25
100
AcDbLine
 10
39.5509814191
 20
22.1662922664
 30
0.0
 11
39.8258456084
 21
22.2403051265
 31
0.0
  0
ARC
  5
336
330
1F
100
AcDbEntity
  8
0
  6
Continuous
 62
     7
370
    25
100
AcDbCircle
 10
39.9251304274
 20
22.2230579367
 30
0.0
 40
0.1007717264161287
100
AcDbArc
 50
170.1452480017
 51
189.8547519983
  0
LINE
  5
337
330
1F
100
AcDbEntity
  8
0
  6
Continuous
 62
     7
370
    25
100
AcDbLine
 10
41.4852552943
 20
23.198025445
 30
0.0
 11
41.4852552943
 21
23.2826491297
 31
0.0
  0
LINE
  5
338
330
1F
100
AcDbEntity
  8
0
  6
Continuous
 62
     7
370
    25
100
AcDbLine
 10
39.8258456084
 20
22.2403051265
 30
0.0
 11
41.4852552943
 21
23.198025445
 31
0.0
  0
LINE
  5
339
330
1F
100
AcDbEntity
  8
0
  6
Continuous
 62
     7
370
    25
100
AcDbLine
 10
39.5509814191
 20
22.1662922664
 30
0.0
 11
41.4852552943
 21
23.2826491297
 31
0.0
  0
ARC
  5
33A
330
1F
100
AcDbEntity
  8
0
  6
Continuous
 62
     7
370
    25
100
AcDbCircle
 10
39.8211911215
 20
22.1744802021
 30
0.0
 40
0.0659892787466583
100
AcDbArc
 50
58.4400962111
 51
85.9553417869
  0
ARC
  5
33B
330
1F
100
AcDbEntity
  8
0
  6
Continuous
 62
     7
370
    25
100
AcDbCircle
 10
41.4806008074
 20
23.1322005207
 30
0.0
 40
0.0659892787466975
100
AcDbArc
 50
58.4400962111
 51
85.9553417869
  0
ARC
  5
33C
330
1F
100
AcDbEntity
  8
0
  6
Continuous
 62
     7
370
    25
100
AcDbCircle
 10
41.5151389182
 20
23.0980640183
 30
0.0
 40
0.1043327263907241
100
AcDbArc
 50
73.3558831359
 51
106.6441168641
  0
ELLIPSE
  5
33D
330
1F
100
AcDbEntity
  8
0
  6
Continuous
 62
     7
370
    25
100
AcDbEllipse
 10
41.5151389182
 20
23.2097898935
 30
0.0
 11
0.08824100266174638
 21
0.06762334522994706
 31
0.0
210
0.0
220
0.0
230
1.0
 40
0.6957378149
 41
1.080960320902344
 42
1.384433255255028
  0
ELLIPSE
  5
33E
330
1F
100
AcDbEntity
  8
0
  6
Continuous
 62
     7
370
    25
100
AcDbEllipse
 10
41.5151389182
 20
23.2097898935
 30
0.0
 11
0.08824100266174641
 21
-0.06762334522995418
 31
0.0
210
0.0
220
0.0
230
1.0
 40
0.6957378149
 41
1.757159398334799
 42
2.060632332687485
  0
LWPOLYLINE
  5
33F
330
1F
100
AcDbEntity
  8
0
  6
Continuous
 62
     7
370
    25
100
AcDbPolyline
 90
       26
 70
   128
 43
0.0
 10
39.5492018732
 20
32.3280776537
 10
39.54922442
 20
32.3239944457
 10
39.542244973
 20
32.2522665134
 10
39.5213944025
 20
32.1814406014
 10
39.4869349167
 20
32.1124073868
 10
39.4392998634
 20
32.0460350022
 10
39.3790882812
 20
31.9831581189
 10
39.3070573656
 20
31.9245674501
 10
39.2241129471
 20
31.8709998075
 10
39.1312981001
 20
31.8231288354
 10
39.0297800249
 20
31.7815565389
 10
38.9208353704
 20
31.7468057139
 10
38.8058341788
 20
31.719313372
 10
38.6862226567
 20
31.6994252455
 10
38.5635049885
 20
31.687391439
 10
38.43922442
 20
31.6833632847
 10
38.3149438515
 20
31.687391439
 10
38.1922261833
 20
31.6994252455
 10
38.0726146612
 20
31.719313372
 10
37.9576134696
 20
31.7468057139
 10
37.8486688151
 20
31.7815565389
 10
37.74715074
 20
31.8231288354
 10
37.6543358929
 20
31.8709998075
 10
37.5713914745
 20
31.9245674501
 10
37.4993605589
 20
31.9831581189
 10
37.4804159752
 20
32.0012126837
  0
ELLIPSE
  5
340
330
1F
100
AcDbEntity
  8
0
  6
Continuous
 62
     7
370
    25
100
AcDbEllipse
 10
38.43922442
 20
29.3555023927
 30
0.0
 11
0.7849930695179665
 21
1.359406412147408
 31
0.0
210
0.0
220
0.0
230
1.0
 40
0.5772990062
 41
2.356327693011258
 42
5.497920346601069
  0
SPLINE
  5
341
330
1F
100
AcDbEntity
  8
0
  6
Continuous
 62
     7
370
    25
100
AcDbSpline
210
0.0
220
0.0
230
1.0
 70
    11
 71
     3
 72
    26
 73
    22
 74
     0
 42
0.00000001
 43
0.00000001
 40
0.0
 40
0.0
 40
0.0
 40
0.0
 40
0.0536200607839425
 40
0.1072376822530385
 40
0.1609185883661233
 40
0.2146408563604166
 40
0.2682944511770263
 40
0.3218767096526512
 40
0.375495881858672
 40
0.4292028051159846
 40
0.4829116531775971
 40
0.5365331513009036
 40
0.5901144855236016
 40
0.6437653861511352
 40
0.6974870899191873
 40
0.7511704282073725
 40
0.8047662990509781
 40
0.8583618717573714
 40
0.9120446244252708
 40
0.9657664953707834
 40
1.0
 40
1.0
 40
1.0
 40
1.0
 10
38.66029100738632
 20
31.49203654995366
 30
0.0
 10
38.66102808889364
 20
31.49836012230168
 30
0.0
 10
38.66250221837656
 20
31.51100697932212
 30
0.0
 10
38.67397135015071
 20
31.52899532061646
 30
0.0
 10
38.69081074388149
 20
31.54380341589041
 30
0.0
 10
38.71175815484617
 20
31.55396951515246
 30
0.0
 10
38.734206552594
 20
31.55840938380123
 30
0.0
 10
38.7556577431178
 20
31.55665506418995
 30
0.0
 10
38.77374080481002
 20
31.54883911043057
 30
0.0
 10
38.78649275225683
 20
31.53569761918297
 30
0.0
 10
38.79251492469631
 20
31.51857833758644
 30
0.0
 10
38.79115960742367
 20
31.49936017634012
 30
0.0
 10
38.78259130272276
 20
31.48022657795315
 30
0.0
 10
38.76772321220938
 20
31.46340452327942
 30
0.0
 10
38.74814626451782
 20
31.45092104368953
 30
0.0
 10
38.72602218597314
 20
31.44431499327088
 30
0.0
 10
38.7038561059203
 20
31.44436884783815
 30
0.0
 10
38.68411231420697
 20
31.45101250723342
 30
0.0
 10
38.66918829721588
 20
31.46340247844573
 30
0.0
 10
38.66137907240828
 20
31.47799561096636
 30
0.0
 10
38.66059584919274
 20
31.48810271776682
 30
0.0
 10
38.66029100738632
 20
31.49203654995366
 30
0.0
  0
LWPOLYLINE
  5
342
330
1F
100
AcDbEntity
  8
0
  6
Continuous
 62
     7
370
    25
100
AcDbPolyline
 90
       25
 70
   128
 43
0.0
 10
41.6841086144
 20
13.1861973966
 10
41.6632424969
 20
13.1555007674
 10
41.6449702588
 20
13.1095513097
 10
41.6408006297
 20
13.06246868
 10
41.6508603018
 20
13.0156834601
 10
41.674843617
 20
12.9706171953
 10
41.7120218543
 20
12.9286392012
 10
41.761265372
 20
12.891024958
 10
41.8210779305
 20
12.8589173553
 10
41.8896421556
 20
12.8332919664
 10
41.964874758
 20
12.8149274059
 10
42.0444898332
 20
12.8043816715
 10
42.1260683173
 20
12.8019751902
 10
42.2071314894
 20
12.8077810815
 10
42.2852162861
 20
12.8216229365
 10
42.3579501403
 20
12.8430801774
 10
42.4231230706
 20
12.8715008367
 10
42.4787548306
 20
12.9060213672
 10
42.5231550773
 20
12.9455928799
 10
42.5549747318
 20
12.9890130146
 10
42.5732469699
 20
13.0349624722
 10
42.577416599
 20
13.0820451019
 10
42.5673569269
 20
13.1288303218
 10
42.5433736118
 20
13.1738965866
 10
42.5341086144
 20
13.1861973966
  0
ARC
  5
343
330
1F
100
AcDbEntity
  8
0
  6
Continuous
 62
     7
370
    25
100
AcDbCircle
 10
41.8159342196
 20
13.074377834
 30
0.0
 40
0.1871240143761949
100
AcDbArc
 50
175.8938775838
 51
224.7786348003
  0
SPLINE
  5
344
330
1F
100
AcDbEntity
  8
0
  6
Continuous
 62
     7
370
    25
100
AcDbSpline
210
0.0
220
0.0
230
1.0
 70
     8
 71
     3
 72
    10
 73
     6
 74
     0
 42
0.00000001
 43
0.00000001
 40
0.0
 40
0.0
 40
0.0
 40
0.0
 40
0.4665495905510516
 40
0.7778212346569818
 40
1.0
 40
1.0
 40
1.0
 40
1.0
 10
41.55217864999832
 20
13.08385383649305
 30
0.0
 10
41.56383027201582
 20
13.08553898177097
 30
0.0
 10
41.58325560044168
 20
13.08834841898236
 30
0.0
 10
41.60932614002774
 20
13.08883058511468
 30
0.0
 10
41.6234203686287
 20
13.08808655205254
 30
0.0
 10
41.62929052685438
 20
13.08777666692697
 30
0.0
  0
ARC
  5
345
330
1F
100
AcDbEntity
  8
0
  6
Continuous
 62
     7
370
    25
100
AcDbCircle
 10
41.7924453535
 20
13.0360919065
 30
0.0
 40
0.2449679381988849
100
AcDbArc
 50
132.701606573
 51
168.7569022766
  0
SPLINE
  5
346
330
1F
100
AcDbEntity
  8
0
  6
Continuous
 62
     7
370
    25
100
AcDbSpline
210
0.0
220
0.0
230
1.0
 70
     8
 71
     3
 72
    10
 73
     6
 74
     0
 42
0.00000001
 43
0.00000001
 40
0.0
 40
0.0
 40
0.0
 40
0.0
 40
0.3820172168426938
 40
0.747948041113417
 40
1.0
 40
1.0
 40
1.0
 40
1.0
 10
41.68410861437151
 20
13.21994958052542
 30
0.0
 10
41.67652934090705
 20
13.2201941755501
 30
0.0
 10
41.66168995019145
 20
13.22067306592862
 30
0.0
 10
41.64255045584205
 20
13.21872098205863
 30
0.0
 10
41.63101699480234
 20
13.21687192305773
 30
0.0
 10
41.62631292937036
 20
13.21611776136267
 30
0.0
  0
ARC
  5
347
330
1F
100
AcDbEntity
  8
0
  6
Continuous
 62
     7
370
    25
100
AcDbCircle
 10
42.3107670153
 20
12.9284316209
 30
0.0
 40
0.4022198740435602
100
AcDbArc
 50
44.9595489098
 51
56.2705202009
  0
SPLINE
  5
348
330
1F
100
AcDbEntity
  8
0
  6
Continuous
 62
     7
370
    25
100
AcDbSpline
210
0.0
220
0.0
230
1.0
 70
     8
 71
     3
 72
    10
 73
     6
 74
     0
 42
0.00000001
 43
0.00000001
 40
0.0
 40
0.0
 40
0.0
 40
0.0
 40
0.5331753442086903
 40
0.8095997620717323
 40
1.0
 40
1.0
 40
1.0
 40
1.0
 10
42.53510989207812
 20
13.19960535852442
 30
0.0
 10
42.54609910144686
 20
13.20317326820692
 30
0.0
 10
42.5627856594187
 20
13.2085909583935
 30
0.0
 10
42.58267380575015
 20
13.211746755777
 30
0.0
 10
42.59169907366615
 20
13.21238346446836
 30
0.0
 10
42.59538014135882
 20
13.21264315402165
 30
0.0
  0
ARC
  5
349
330
1F
100
AcDbEntity
  8
0
  6
Continuous
 62
     7
370
    25
100
AcDbCircle
 10
42.4022830092
 20
13.0678008976
 30
0.0
 40
0.187124014376133
100
AcDbArc
 50
355.8938775838
 51
44.7786348003
  0
SPLINE
  5
34A
330
1F
100
AcDbEntity
  8
0
  6
Continuous
 62
     7
370
    25
100
AcDbSpline
210
0.0
220
0.0
230
1.0
 70
     8
 71
     3
 72
    10
 73
     6
 74
     0
 42
0.00000001
 43
0.00000001
 40
0.0
 40
0.0
 40
0.0
 40
0.0
 40
0.4665495905504955
 40
0.7778212346567605
 40
1.0
 40
1.0
 40
1.0
 40
1.0
 10
42.66603857874465
 20
13.02199941487941
 30
0.0
 10
42.65438695672717
 20
13.02799286432688
 30
0.0
 10
42.6349616283013
 20
13.03798501166448
 30
0.0
 10
42.60889108871525
 20
13.04809316914125
 30
0.0
 10
42.59479686011428
 20
13.05254705073487
 30
0.0
 10
42.58892670188858
 20
13.05440206461418
 30
0.0
  0
ARC
  5
34B
330
1F
100
AcDbEntity
  8
0
  6
Continuous
 62
     7
370
    25
100
AcDbCircle
 10
42.4257718753
 20
13.0697613449
 30
0.0
 40
0.2449679381987036
100
AcDbArc
 50
312.701606573
 51
348.7569022766
  0
SPLINE
  5
34C
330
1F
100
AcDbEntity
  8
0
  6
Continuous
 62
     7
370
    25
100
AcDbSpline
210
0.0
220
0.0
230
1.0
 70
     8
 71
     3
 72
    10
 73
     6
 74
     0
 42
0.00000001
 43
0.00000001
 40
0.0
 40
0.0
 40
0.0
 40
0.0
 40
0.5331753442087177
 40
0.8095997620717915
 40
1.0
 40
1.0
 40
1.0
 40
1.0
 10
42.51495174145593
 20
12.92242238272106
 30
0.0
 10
42.52897712766251
 20
12.91765505566921
 30
0.0
 10
42.55027396642136
 20
12.9104161109415
 30
0.0
 10
42.57567322397912
 20
12.8984814691706
 30
0.0
 10
42.58720210283945
 20
12.89226922926563
 30
0.0
 10
42.5919042993726
 20
12.88973549000978
 30
0.0
  0
ARC
  5
34D
330
1F
100
AcDbEntity
  8
0
  6
Continuous
 62
     7
370
    25
100
AcDbCircle
 10
42.2017134115
 20
13.2906080904
 30
0.0
 40
0.483403523677069
100
AcDbArc
 50
284.6506130002
 51
310.389866426
  0
SPLINE
  5
34E
330
1F
100
AcDbEntity
  8
0
  6
Continuous
 62
     7
370
    25
100
AcDbSpline
210
0.0
220
0.0
230
1.0
 70
     8
 71
     3
 72
    10
 73
     6
 74
     0
 42
0.00000001
 43
0.00000001
 40
0.0
 40
0.0
 40
0.0
 40
0.0
 40
0.4686381556240251
 40
0.7785358969781417
 40
1.0
 40
1.0
 40
1.0
 40
1.0
 10
42.34116629612614
 20
12.7590969509496
 30
0.0
 10
42.33856107841078
 20
12.76988424303929
 30
0.0
 10
42.3342331006597
 20
12.7878048797229
 30
0.0
 10
42.32841942129673
 20
12.80852957604575
 30
0.0
 10
42.32528443147955
 20
12.81868800103697
 30
0.0
 10
42.32397781205403
 20
12.82292188892825
 30
0.0
  0
ARC
  5
34F
330
1F
100
AcDbEntity
  8
0
  6
Continuous
 62
     7
370
    25
100
AcDbCircle
 10
42.1117484406
 20
13.6489387669
 30
0.0
 40
0.9189401557458228
100
AcDbArc
 50
269.6186861965
 51
284.4570882098
  0
SPLINE
  5
350
330
1F
100
AcDbEntity
  8
0
  6
Continuous
 62
     7
370
    25
100
AcDbSpline
210
0.0
220
0.0
230
1.0
 70
     8
 71
     3
 72
    10
 73
     6
 74
     0
 42
0.00000001
 43
0.00000001
 40
0.0
 40
0.0
 40
0.0
 40
0.0
 40
0.5332311337846909
 40
0.8096265694457356
 40
1.0
 40
1.0
 40
1.0
 40
1.0
 10
42.08895046374929
 20
12.79390638996721
 30
0.0
 10
42.09198695759228
 20
12.78345276088649
 30
0.0
 10
42.09659738998732
 20
12.7675805896747
 30
0.0
 10
42.1021084791659
 20
12.74534596632817
 30
0.0
 10
42.10461178835526
 20
12.73445917876343
 30
0.0
 10
42.10563277238528
 20
12.73001896167436
 30
0.0
  0
ARC
  5
351
330
1F
100
AcDbEntity
  8
0
  6
Continuous
 62
     7
370
    25
100
AcDbCircle
 10
42.1013166883
 20
13.5385601778
 30
0.0
 40
0.7447564616638391
100
AcDbArc
 50
249.8005001356
 51
269.048594979
  0
SPLINE
  5
352
330
1F
100
AcDbEntity
  8
0
  6
Continuous
 62
     7
370
    25
100
AcDbSpline
210
0.0
220
0.0
230
1.0
 70
     8
 71
     3
 72
    10
 73
     6
 74
     0
 42
0.00000001
 43
0.00000001
 40
0.0
 40
0.0
 40
0.0
 40
0.0
 40
0.466549590550439
 40
0.7778212346567723
 40
1.0
 40
1.0
 40
1.0
 40
1.0
 10
41.78423633175297
 20
12.79002416175642
 30
0.0
 10
41.79329451905321
 20
12.79861012471364
 30
0.0
 10
41.80839613005518
 20
12.81292445365824
 30
0.0
 10
41.82865345868609
 20
12.82884375719394
 30
0.0
 10
41.83960039422419
 20
12.8364438139083
 30
0.0
 10
41.84415972453693
 20
12.83960919008464
 30
0.0
  0
ARC
  5
353
330
1F
100
AcDbEntity
  8
0
  6
Continuous
 62
     7
370
    25
100
AcDbCircle
 10
41.9598057454
 20
13.2424627342
 30
0.0
 40
0.485309469111363
100
AcDbArc
 50
226.0255364875
 51
248.7911881111
  0
SPLINE
  5
354
330
1F
100
AcDbEntity
  8
0
  6
Continuous
 62
     7
370
    25
100
AcDbSpline
210
0.0
220
0.0
230
1.0
 70
     8
 71
     3
 72
    10
 73
     6
 74
     0
 42
0.00000001
 43
0.00000001
 40
0.0
 40
0.0
 40
0.0
 40
0.0
 40
0.5331753442086934
 40
0.8095997620717891
 40
1.0
 40
1.0
 40
1.0
 40
1.0
 10
41.68310733666485
 20
12.94257337301673
 30
0.0
 10
41.67211812729611
 20
12.93477094759986
 30
0.0
 10
41.65543156932427
 20
12.9229233596915
 30
0.0
 10
41.63554342299282
 20
12.90547956428241
 30
0.0
 10
41.62651815507682
 20
12.89676460273451
 30
0.0
 10
41.62283708738416
 20
12.89321009735081
 30
0.0
  0
LINE
  5
355
330
1F
100
AcDbEntity
  8
0
  6
Continuous
 62
     7
370
    25
100
AcDbLine
 10
42.1018691402
 20
12.7245677406
 30
0.0
 11
42.101593198
 21
12.7231468913
 31
0.0
  0
SPLINE
  5
356
330
1F
100
AcDbEntity
  8
0
  6
Continuous
 62
     7
370
    25
100
AcDbSpline
210
0.0
220
0.0
230
1.0
 70
     8
 71
     3
 72
     9
 73
     5
 74
     0
 42
0.00000001
 43
0.00000001
 40
0.0
 40
0.0
 40
0.0
 40
0.0
 40
0.5162711822620798
 40
1.0
 40
1.0
 40
1.0
 40
1.0
 10
42.10159319796645
 20
12.72314689128989
 30
0.0
 10
42.09880300445343
 20
12.73504917789886
 30
0.0
 10
42.09339849300889
 20
12.75810350868063
 30
0.0
 10
42.08766849559802
 20
12.77760245890713
 30
0.0
 10
42.08489673072482
 20
12.78703466304733
 30
0.0
  0
LINE
  5
357
330
1F
100
AcDbEntity
  8
0
  6
Continuous
 62
     7
370
    25
100
AcDbLine
 10
42.0848967307
 20
12.787034663
 30
0.0
 11
42.084926849
 21
12.7874777767
 31
0.0
  0
SPLINE
  5
358
330
1F
100
AcDbEntity
  8
0
  6
Continuous
 62
     7
370
    25
100
AcDbSpline
210
0.0
220
0.0
230
1.0
 70
     8
 71
     3
 72
    13
 73
     9
 74
     0
 42
0.00000001
 43
0.00000001
 40
0.0
 40
0.0
 40
0.0
 40
0.0
 40
0.1858612659551634
 40
0.3708268618809425
 40
0.5778789813017149
 40
0.8292801638921219
 40
0.9889166448664463
 40
1.0
 40
1.0
 40
1.0
 40
1.0
 10
42.08492684902291
 20
12.78747777669217
 30
0.0
 10
42.08501977405267
 20
12.78791237350814
 30
0.0
 10
42.08520517630416
 20
12.7887794728073
 30
0.0
 10
42.08588985072848
 20
12.7902265492503
 30
0.0
 10
42.08683711366955
 20
12.79171844371991
 30
0.0
 10
42.0878889132861
 20
12.79295712617088
 30
0.0
 10
42.0886307435812
 20
12.79364350013232
 30
0.0
 10
42.08893097249536
 20
12.79389036328814
 30
0.0
 10
42.08895046374929
 20
12.79390638996721
 30
0.0
  0
SPLINE
  5
359
330
1F
100
AcDbEntity
  8
0
  6
Continuous
 62
     7
370
    25
100
AcDbSpline
210
0.0
220
0.0
230
1.0
 70
     8
 71
     3
 72
    12
 73
     8
 74
     0
 42
0.00000001
 43
0.00000001
 40
0.0
 40
0.0
 40
0.0
 40
0.0
 40
0.2610466257360742
 40
0.5203567671406493
 40
0.8317512029540011
 40
0.9869218091725676
 40
0.9999999999999999
 40
0.9999999999999999
 40
0.9999999999999999
 40
0.9999999999999999
 10
42.1018691401821
 20
12.72456774061302
 30
0.0
 10
42.10209778428214
 20
12.72505645876767
 30
0.0
 10
42.10255355153974
 20
12.72603064411973
 30
0.0
 10
42.1036319351227
 20
12.72765673059414
 30
0.0
 10
42.10466448460389
 20
12.72896759534089
 30
0.0
 10
42.10536730691274
 20
12.72974192622422
 30
0.0
 10
42.10561362571468
 20
12.72999898052028
 30
0.0
 10
42.10563277238528
 20
12.73001896167436
 30
0.0
  0
ARC
  5
35A
330
1F
100
AcDbEntity
  8
0
  6
Continuous
 62
     7
370
    25
100
AcDbCircle
 10
42.111714242
 20
13.6478577157
 30
0.0
 40
0.9233424630432737
100
AcDbArc
 50
269.3890744855
 51
284.6866999208
  0
SPLINE
  5
35B
330
1F
100
AcDbEntity
  8
0
  6
Continuous
 62
     7
370
    25
100
AcDbSpline
210
0.0
220
0.0
230
1.0
 70
     8
 71
     3
 72
    12
 73
     8
 74
     0
 42
0.00000001
 43
0.00000001
 40
0.0
 40
0.0
 40
0.0
 40
0.0
 40
0.2610466257373285
 40
0.5203567671424565
 40
0.8317512029575893
 40
0.9869218091727242
 40
1.0
 40
1.0
 40
1.0
 40
1.0
 10
42.34581240125652
 20
12.754683961084
 30
0.0
 10
42.34558140824832
 20
12.75511593435287
 30
0.0
 10
42.34512095879933
 20
12.75597700740081
 30
0.0
 10
42.3438112157225
 20
12.75730826568985
 30
0.0
 10
42.34247618106551
 20
12.75832683834549
 30
0.0
 10
42.34152903556861
 20
12.75889747106561
 30
0.0
 10
42.34119245867208
 20
12.75908256348296
 30
0.0
 10
42.34116629612614
 20
12.7590969509496
 30
0.0
  0
LINE
  5
35C
330
1F
100
AcDbEntity
  8
0
  6
Continuous
 62
     7
370
    25
100
AcDbLine
 10
42.0848967307
 20
12.787034663
 30
0.0
 11
42.0848967307
 21
12.6816272351
 31
0.0
  0
LINE
  5
35D
330
1F
100
AcDbEntity
  8
0
  6
Continuous
 62
     7
370
    25
100
AcDbLine
 10
42.101593198
 20
12.7231468913
 30
0.0
 11
42.101593198
 21
12.6365784474
 31
0.0
  0
LINE
  5
35E
330
1F
100
AcDbEntity
  8
0
  6
Continuous
 62
     7
370
    25
100
AcDbLine
 10
42.0848967307
 20
12.6816272351
 30
0.0
 11
42.101593198
 21
12.6365784474
 31
0.0
  0
LINE
  5
35F
330
1F
100
AcDbEntity
  8
0
  6
Continuous
 62
     7
370
    25
100
AcDbLine
 10
42.3460627154
 20
12.7533280812
 30
0.0
 11
42.3458124013
 21
12.7546839611
 31
0.0
  0
LINE
  5
360
330
1F
100
AcDbEntity
  8
0
  6
Continuous
 62
     7
370
    25
100
AcDbLine
 10
42.3460627154
 20
12.7533280812
 30
0.0
 11
42.3460627154
 21
12.6667596373
 31
0.0
  0
ARC
  5
361
330
1F
100
AcDbEntity
  8
0
  6
Continuous
 62
     7
370
    25
100
AcDbCircle
 10
42.1095782869
 20
13.5940809584
 30
0.0
 40
0.9575358062633034
100
AcDbArc
 50
269.5221931158
 51
278.401709829
  0
ARC
  5
362
330
1F
100
AcDbEntity
  8
0
  6
Continuous
 62
     7
370
    25
100
AcDbCircle
 10
42.1011568453
 20
13.5393427218
 30
0.0
 40
0.7520400976619915
100
AcDbArc
 50
250.0857080179
 51
268.7633870967
  0
SPLINE
  5
363
330
1F
100
AcDbEntity
  8
0
  6
Continuous
 62
     7
370
    25
100
AcDbSpline
210
0.0
220
0.0
230
1.0
 70
     8
 71
     3
 72
    13
 73
     9
 74
     0
 42
0.00000001
 43
0.00000001
 40
0.0
 40
0.0
 40
0.0
 40
0.0
 40
0.1858612659549939
 40
0.3708268618810175
 40
0.5778789813017583
 40
0.8292801638918907
 40
0.9889166448680439
 40
1.0
 40
1.0
 40
1.0
 40
1.0
 10
41.8450013939776
 20
12.83227222091952
 30
0.0
 10
41.8449500947494
 20
12.83273374462192
 30
0.0
 10
41.84484774350526
 20
12.8336545679326
 30
0.0
 10
41.84466359780134
 20
12.83526385440358
 30
0.0
 10
41.84446707792491
 20
12.83696929484987
 30
0.0
 10
41.84429698997281
 20
12.83843610555233
 30
0.0
 10
41.84419849228215
 20
12.8392793700158
 30
0.0
 10
41.84416208795358
 20
12.83958908310562
 30
0.0
 10
41.84415972453693
 20
12.83960919008464
 30
0.0
  0
LINE
  5
364
330
1F
100
AcDbEntity
  8
0
  6
Continuous
 62
     7
370
    25
100
AcDbLine
 10
41.845026687
 20
12.8318187619
 30
0.0
 11
41.845026687
 21
12.7264113339
 31
0.0
  0
LINE
  5
365
330
1F
100
AcDbEntity
  8
0
  6
Continuous
 62
     7
370
    25
100
AcDbLine
 10
41.845001394
 20
12.8322722209
 30
0.0
 11
41.845026687
 21
12.8318187619
 31
0.0
  0
ARC
  5
366
330
1F
100
AcDbEntity
  8
0
  6
Continuous
 62
     7
370
    25
100
AcDbCircle
 10
42.1011561504
 20
13.4334962081
 30
0.0
 40
0.7520447601212864
100
AcDbArc
 50
250.0879425461
 51
268.7611525684
  0
LINE
  5
367
330
1F
100
AcDbEntity
  8
0
  6
Continuous
 62
     7
370
    25
100
AcDbLine
 10
42.3293393809
 20
12.8176519314
 30
0.0
 11
42.3293662481
 21
12.8172158529
 31
0.0
  0
SPLINE
  5
368
330
1F
100
AcDbEntity
  8
0
  6
Continuous
 62
     7
370
    25
100
AcDbSpline
210
0.0
220
0.0
230
1.0
 70
     8
 71
     3
 72
     9
 73
     5
 74
     0
 42
0.00000001
 43
0.00000001
 40
0.0
 40
0.0
 40
0.0
 40
0.0
 40
0.4815978158478311
 40
1.0
 40
1.0
 40
1.0
 40
1.0
 10
42.32936624812089
 20
12.81721585293513
 30
0.0
 10
42.3321258318225
 20
12.80782670475297
 30
0.0
 10
42.33785589041246
 20
12.78833087675461
 30
0.0
 10
42.34326079896417
 20
12.76527848922366
 30
0.0
 10
42.34606271536252
 20
12.75332808117769
 30
0.0
  0
SPLINE
  5
369
330
1F
100
AcDbEntity
  8
0
  6
Continuous
 62
     7
370
    25
100
AcDbSpline
210
0.0
220
0.0
230
1.0
 70
     8
 71
     3
 72
    13
 73
     9
 74
     0
 42
0.00000001
 43
0.00000001
 40
0.0
 40
0.0
 40
0.0
 40
0.0
 40
0.1858612659553276
 40
0.3708268618804135
 40
0.5778789813013399
 40
0.8292801638917238
 40
0.9889166448666293
 40
1.0
 40
1.0
 40
1.0
 40
1.0
 10
42.32933938092415
 20
12.81765193138778
 30
0.0
 10
42.32923781033009
 20
12.81806251658293
 30
0.0
 10
42.32903515861316
 20
12.81888170835303
 30
0.0
 10
42.32815139721272
 20
12.82013515223209
 30
0.0
 10
42.32688800613365
 20
12.82135412855034
 30
0.0
 10
42.3254515810759
 20
12.82228562513133
 30
0.0
 10
42.32442348315608
 20
12.82275349111639
 30
0.0
 10
42.32400498171515
 20
12.82291162281169
 30
0.0
 10
42.32397781205403
 20
12.82292188892825
 30
0.0
  0
SPLINE
  5
36A
330
1F
100
AcDbEntity
  8
0
  6
Continuous
 62
     7
370
    25
100
AcDbSpline
210
0.0
220
0.0
230
1.0
 70
     8
 71
     3
 72
    12
 73
     8
 74
     0
 42
0.00000001
 43
0.00000001
 40
0.0
 40
0.0
 40
0.0
 40
0.0
 40
0.2610466257366271
 40
0.5203567671402974
 40
0.8317512029543163
 40
0.9869218091727693
 40
1.0
 40
1.0
 40
1.0
 40
1.0
 10
41.78555194775241
 20
12.78362463739692
 30
0.0
 10
41.78539863234748
 20
12.78418466796709
 30
0.0
 10
41.78509302139297
 20
12.78530100377939
 30
0.0
 10
41.78468529030327
 20
12.78720455010401
 30
0.0
 10
41.78441079562252
 20
12.78875944196664
 30
0.0
 10
41.78427897748321
 20
12.78968960148011
 30
0.0
 10
41.784239407572
 20
12.79000003163002
 30
0.0
 10
41.78423633175297
 20
12.79002416175642
 30
0.0
  0
ARC
  5
36B
330
1F
100
AcDbEntity
  8
0
  6
Continuous
 62
     7
370
    25
100
AcDbCircle
 10
41.9592117395
 20
13.2394253309
 30
0.0
 40
0.4877622325540388
100
AcDbArc
 50
225.6735352864
 51
249.1431893122
  0
SPLINE
  5
36C
330
1F
100
AcDbEntity
  8
0
  6
Continuous
 62
     7
370
    25
100
AcDbSpline
210
0.0
220
0.0
230
1.0
 70
     8
 71
     3
 72
    12
 73
     8
 74
     0
 42
0.00000001
 43
0.00000001
 40
0.0
 40
0.0
 40
0.0
 40
0.0
 40
0.0130781908273427
 40
0.1682487970462617
 40
0.4796432328599085
 40
0.7389533742639023
 40
0.9999999999999999
 40
0.9999999999999999
 40
0.9999999999999999
 40
0.9999999999999999
 10
41.62283708738416
 20
12.89321009735081
 30
0.0
 10
41.62280911508233
 20
12.89320581694187
 30
0.0
 10
41.62244925597055
 20
12.89315075017737
 30
0.0
 10
41.62145043439082
 20
12.89294343244471
 30
0.0
 10
41.62010254307405
 20
12.89242576611378
 30
0.0
 10
41.61887381141216
 20
12.8915684448861
 30
0.0
 10
41.61855158526826
 20
12.8908534985515
 30
0.0
 10
41.61838993454534
 20
12.89049483245929
 30
0.0
  0
LINE
  5
36D
330
1F
100
AcDbEntity
  8
0
  6
Continuous
 62
     7
370
    25
100
AcDbLine
 10
41.7857777281
 20
12.7821101157
 30
0.0
 11
41.7855519478
 21
12.7836246374
 31
0.0
  0
LINE
  5
36E
330
1F
100
AcDbEntity
  8
0
  6
Continuous
 62
     7
370
    25
100
AcDbLine
 10
41.7857777281
 20
12.7821101157
 30
0.0
 11
41.7857777281
 21
12.6955416718
 31
0.0
  0
LINE
  5
36F
330
1F
100
AcDbEntity
  8
0
  6
Continuous
 62
     7
370
    25
100
AcDbLine
 10
41.6916841755
 20
12.7460337367
 30
0.0
 11
41.7080547455
 21
12.7334886683
 31
0.0
  0
ARC
  5
370
330
1F
100
AcDbEntity
  8
0
  6
Continuous
 62
     7
370
    25
100
AcDbCircle
 10
41.9089303836
 20
13.0913189469
 30
0.0
 40
0.4079433677154867
100
AcDbArc
 50
224.5581821522
 51
237.82275862
  0
LINE
  5
371
330
1F
100
AcDbEntity
  8
0
  6
Continuous
 62
     7
370
    25
100
AcDbLine
 10
41.6182550979
 20
12.8892108608
 30
0.0
 11
41.6182550979
 21
12.8050923415
 31
0.0
  0
LINE
  5
372
330
1F
100
AcDbEntity
  8
0
  6
Continuous
 62
     7
370
    25
100
AcDbLine
 10
41.6183899345
 20
12.8904948325
 30
0.0
 11
41.6182550979
 21
12.8892108608
 31
0.0
  0
SPLINE
  5
373
330
1F
100
AcDbEntity
  8
0
  6
Continuous
 62
     7
370
    25
100
AcDbSpline
210
0.0
220
0.0
230
1.0
 70
     8
 71
     3
 72
     9
 73
     5
 74
     0
 42
0.00000001
 43
0.00000001
 40
0.0
 40
0.0
 40
0.0
 40
0.0
 40
0.4836733775596284
 40
1.0
 40
1.0
 40
1.0
 40
1.0
 10
41.84502668703735
 20
12.83181876189062
 30
0.0
 10
41.83519194745346
 20
12.82474127228073
 30
0.0
 10
41.81485851576139
 20
12.8101084850771
 30
0.0
 10
41.79568007012708
 20
12.79164388190899
 30
0.0
 10
41.78577772806907
 20
12.7821101157205
 30
0.0
  0
LINE
  5
374
330
1F
100
AcDbEntity
  8
0
  6
Continuous
 62
     7
370
    25
100
AcDbLine
 10
42.2373282765
 20
12.6455685228
 30
0.0
 11
42.2261424096
 21
12.6454244101
 31
0.0
  0
SPLINE
  5
375
330
1F
100
AcDbEntity
  8
0
  6
Continuous
 62
     7
370
    25
100
AcDbSpline
210
0.0
220
0.0
230
1.0
 70
     8
 71
     3
 72
    13
 73
     9
 74
     0
 42
0.00000001
 43
0.00000001
 40
0.0
 40
0.0
 40
0.0
 40
0.0
 40
0.0053122994934345
 40
0.0120950336156006
 40
0.024830586274379
 40
0.0805242725868395
 40
0.3005695354966046
 40
1.0
 40
1.0
 40
1.0
 40
1.0
 10
42.22614240956706
 20
12.64542441010144
 30
0.0
 10
42.22615637279929
 20
12.64540117245867
 30
0.0
 10
42.22618816426047
 20
12.64534826503679
 30
0.0
 10
42.22633489801502
 20
12.6452672312553
 30
0.0
 10
42.22687165369259
 20
12.64511170605889
 30
0.0
 10
42.22918869602842
 20
12.64496014145935
 30
0.0
 10
42.23689887579982
 20
12.64522626404779
 30
0.0
 10
42.24404803491656
 20
12.64613226884795
 30
0.0
 10
42.24948628579448
 20
12.64682145219376
 30
0.0
  0
ARC
  5
376
330
1F
100
AcDbEntity
  8
0
  6
Continuous
 62
     7
370
    25
100
AcDbCircle
 10
42.2027668892
 20
13.2889754107
 30
0.0
 40
0.4880229685336849
100
AcDbArc
 50
285.0319509641
 51
310.0085284621
  0
SPLINE
  5
377
330
1F
100
AcDbEntity
  8
0
  6
Continuous
 62
     7
370
    25
100
AcDbSpline
210
0.0
220
0.0
230
1.0
 70
     8
 71
     3
 72
    13
 73
     9
 74
     0
 42
0.00000001
 43
0.00000001
 40
0.0
 40
0.0
 40
0.0
 40
0.0
 40
0.1858612659550232
 40
0.3708268618804074
 40
0.5778789813017651
 40
0.8292801638910126
 40
0.9889166448665979
 40
1.0
 40
1.0
 40
1.0
 40
1.0
 10
42.51651765025318
 20
12.91517482513485
 30
0.0
 10
42.51652859646978
 20
12.91564403340098
 30
0.0
 10
42.51655043615288
 20
12.91658018880703
 30
0.0
 10
42.51634448631659
 20
12.91818678343052
 30
0.0
 10
42.51597341943139
 20
12.91987067502903
 30
0.0
 10
42.51549025212771
 20
12.92129883425682
 30
0.0
 10
42.51511773757654
 20
12.92210826973831
 30
0.0
 10
42.51496186115703
 20
12.92240323330066
 30
0.0
 10
42.51495174145593
 20
12.92242238272106
 30
0.0
  0
LINE
  5
378
330
1F
100
AcDbEntity
  8
0
  6
Continuous
 62
     7
370
    25
100
AcDbLine
 10
42.5165012882
 20
12.9147162235
 30
0.0
 11
42.5165012882
 21
12.8093087956
 31
0.0
  0
LINE
  5
379
330
1F
100
AcDbEntity
  8
0
  6
Continuous
 62
     7
370
    25
100
AcDbLine
 10
42.5165012882
 20
12.9147162235
 30
0.0
 11
42.5165176503
 21
12.9151748251
 31
0.0
  0
ARC
  5
37A
330
1F
100
AcDbEntity
  8
0
  6
Continuous
 62
     7
370
    25
100
AcDbCircle
 10
42.2074559248
 20
13.1762257512
 30
0.0
 40
0.479726056188795
100
AcDbArc
 50
286.7938502881
 51
310.1066323142
  0
SPLINE
  5
37B
330
1F
100
AcDbEntity
  8
0
  6
Continuous
 62
     7
370
    25
100
AcDbSpline
210
0.0
220
0.0
230
1.0
 70
     8
 71
     3
 72
    13
 73
     9
 74
     0
 42
0.00000001
 43
0.00000001
 40
0.0
 40
0.0
 40
0.0
 40
0.0
 40
0.1203942677774048
 40
0.360262072208674
 40
0.6002852741072604
 40
0.8406311392450668
 40
0.9495300723829596
 40
0.9999999999999999
 40
0.9999999999999999
 40
0.9999999999999999
 40
0.9999999999999999
 10
41.69343967521307
 20
12.7446884650406
 30
0.0
 10
41.69331562578915
 20
12.74463950851849
 30
0.0
 10
41.69294442620179
 20
12.74449301335366
 30
0.0
 10
41.69241106967798
 20
12.74456938909617
 30
0.0
 10
41.69192916570714
 20
12.74490024681651
 30
0.0
 10
41.69172127126451
 20
12.7453966430342
 30
0.0
 10
41.69167840776299
 20
12.74580351645138
 30
0.0
 10
41.69168278825647
 20
12.7459783646842
 30
0.0
 10
41.69168417549855
 20
12.74603373671618
 30
0.0
  0
LINE
  5
37C
330
1F
100
AcDbEntity
  8
0
  6
Continuous
 62
     7
370
    25
100
AcDbLine
 10
42.59258782
 20
12.8832579298
 30
0.0
 11
42.5924467144
 21
12.8816981139
 31
0.0
  0
SPLINE
  5
37D
330
1F
100
AcDbEntity
  8
0
  6
Continuous
 62
     7
370
    25
100
AcDbSpline
210
0.0
220
0.0
230
1.0
 70
     8
 71
     3
 72
     9
 73
     5
 74
     0
 42
0.00000001
 43
0.00000001
 40
0.0
 40
0.0
 40
0.0
 40
0.0
 40
0.5163266224405109
 40
1.0
 40
1.0
 40
1.0
 40
1.0
 10
42.59244671439072
 20
12.8816981138975
 30
0.0
 10
42.57975387385532
 20
12.88844237281464
 30
0.0
 10
42.55517090643947
 20
12.90150437392792
 30
0.0
 10
42.52910747573866
 20
12.9104091974615
 30
0.0
 10
42.51650128818081
 20
12.91471622353657
 30
0.0
  0
SPLINE
  5
37E
330
1F
100
AcDbEntity
  8
0
  6
Continuous
 62
     7
370
    25
100
AcDbSpline
210
0.0
220
0.0
230
1.0
 70
     8
 71
     3
 72
    12
 73
     8
 74
     0
 42
0.00000001
 43
0.00000001
 40
0.0
 40
0.0
 40
0.0
 40
0.0
 40
0.2610466257367551
 40
0.5203567671394352
 40
0.8317512029535554
 40
0.9869218091719613
 40
1.0
 40
1.0
 40
1.0
 40
1.0
 10
42.59258782000825
 20
12.88325792978551
 30
0.0
 10
42.59265481338535
 20
12.88384515876166
 30
0.0
 10
42.59278835449906
 20
12.88501571046191
 30
0.0
 10
42.59263800642014
 20
12.8869510322226
 30
0.0
 10
42.59232266458454
 20
12.88850088126536
 30
0.0
 10
42.59202666531371
 20
12.88941077165916
 30
0.0
 10
42.59191312500384
 20
12.88971206973129
 30
0.0
 10
42.5919042993726
 20
12.88973549000978
 30
0.0
  0
SPLINE
  5
37F
330
1F
100
AcDbEntity
  8
0
  6
Continuous
 62
     7
370
    25
100
AcDbSpline
210
0.0
220
0.0
230
1.0
 70
     8
 71
     3
 72
    12
 73
     8
 74
     0
 42
0.00000001
 43
0.00000001
 40
0.0
 40
0.0
 40
0.0
 40
0.0
 40
0.2217181155142438
 40
0.4435284651949413
 40
0.662581296859312
 40
0.8762617802484348
 40
1.0
 40
1.0
 40
1.0
 40
1.0
 10
42.58951874048903
 20
12.79567632713743
 30
0.0
 10
42.58985438398962
 20
12.79564175669125
 30
0.0
 10
42.59052581061762
 20
12.79557260141767
 30
0.0
 10
42.59141784415187
 20
12.79584563539333
 30
0.0
 10
42.5920789114971
 20
12.79636590356778
 30
0.0
 10
42.59240477485671
 20
12.79699034219973
 30
0.0
 10
42.59243546112091
 20
12.79742148568101
 30
0.0
 10
42.59244671439072
 20
12.79757959466055
 30
0.0
  0
LINE
  5
380
330
1F
100
AcDbEntity
  8
0
  6
Continuous
 62
     7
370
    25
100
AcDbLine
 10
42.5924467144
 20
12.8816981139
 30
0.0
 11
42.5924467144
 21
12.7975795947
 31
0.0
  0
LINE
  5
381
330
1F
100
AcDbEntity
  8
0
  6
Continuous
 62
     7
370
    25
100
AcDbLine
 10
42.5165012882
 20
12.8093087956
 30
0.0
 11
42.5895187405
 21
12.7956763271
 31
0.0
  0
SPLINE
  5
382
330
1F
100
AcDbEntity
  8
0
  6
Continuous
 62
     7
370
    25
100
AcDbSpline
210
0.0
220
0.0
230
1.0
 70
     8
 71
     3
 72
    12
 73
     8
 74
     0
 42
0.00000001
 43
0.00000001
 40
0.0
 40
0.0
 40
0.0
 40
0.0
 40
0.0888822119290474
 40
0.3485507962837334
 40
0.6049912138678318
 40
0.8551423393925252
 40
1.0
 40
1.0
 40
1.0
 40
1.0
 10
41.62003233040459
 20
12.80366292320376
 30
0.0
 10
41.61994344226914
 20
12.80362943071727
 30
0.0
 10
41.6195948682438
 20
12.80349809023211
 30
0.0
 10
41.61905986236591
 20
12.80359416640531
 30
0.0
 10
41.61854149103003
 20
12.80395694201269
 30
0.0
 10
41.61828788877519
 20
12.80451263758394
 30
0.0
 10
41.61826389642444
 20
12.8049367946226
 30
0.0
 10
41.61825509794722
 20
12.80509234153323
 30
0.0
  0
ARC
  5
383
330
1F
100
AcDbEntity
  8
0
  6
Continuous
 62
     7
370
    25
100
AcDbCircle
 10
41.90968643
 20
13.0877821748
 30
0.0
 40
0.4052572187785358
100
AcDbArc
 50
224.4803953677
 51
237.8115094182
  0
SPLINE
  5
384
330
1F
100
AcDbEntity
  8
0
  6
Continuous
 62
     7
370
    25
100
AcDbSpline
210
0.0
220
0.0
230
1.0
 70
     8
 71
     3
 72
    13
 73
     9
 74
     0
 42
0.00000001
 43
0.00000001
 40
0.0
 40
0.0
 40
0.0
 40
0.0
 40
0.0110833551326168
 40
0.1707198361087072
 40
0.4221210186983015
 40
0.6291731381193179
 40
0.8141387340448102
 40
0.9999999999999999
 40
0.9999999999999999
 40
0.9999999999999999
 40
0.9999999999999999
 10
41.68310733666485
 20
12.94257337301673
 30
0.0
 10
41.68307772570981
 20
12.94257370792682
 30
0.0
 10
41.68262162037614
 20
12.94257886663509
 30
0.0
 10
41.68150727552989
 20
12.94251099794497
 30
0.0
 10
41.67997230860963
 20
12.94213426472664
 30
0.0
 10
41.67865397878339
 20
12.94139729959428
 30
0.0
 10
41.67776335452277
 20
12.94047513619361
 30
0.0
 10
41.67759979195439
 20
12.93972431718277
 30
0.0
 10
41.67751781314123
 20
12.93934800093872
 30
0.0
  0
LINE
  5
385
330
1F
100
AcDbEntity
  8
0
  6
Continuous
 62
     7
370
    25
100
AcDbLine
 10
41.6241086144
 20
12.8945894691
 30
0.0
 11
41.6289678197
 21
12.8990544369
 31
0.0
  0
SPLINE
  5
386
330
1F
100
AcDbEntity
  8
0
  6
Continuous
 62
     7
370
    25
100
AcDbSpline
210
0.0
220
0.0
230
1.0
 70
     8
 71
     3
 72
     9
 73
     5
 74
     0
 42
0.00000001
 43
0.00000001
 40
0.0
 40
0.0
 40
0.0
 40
0.0
 40
0.2568500820811712
 40
1.0
 40
1.0
 40
1.0
 40
1.0
 10
41.63855222595885
 20
12.90786124009087
 30
0.0
 10
41.64177496513786
 20
12.91089254383563
 30
0.0
 10
41.65432212553934
 20
12.92269438450547
 30
0.0
 10
41.66762099968543
 20
12.93200231738493
 30
0.0
 10
41.6775040569155
 20
12.9389195069403
 30
0.0
  0
ARC
  5
387
330
1F
100
AcDbEntity
  8
0
  6
Continuous
 62
     7
370
    25
100
AcDbCircle
 10
42.4271737509
 20
13.0659842065
 30
0.0
 40
0.2464765840094079
100
AcDbArc
 50
312.1531595328
 51
349.3053493168
  0
SPLINE
  5
388
330
1F
100
AcDbEntity
  8
0
  6
Continuous
 62
     7
370
    25
100
AcDbSpline
210
0.0
220
0.0
230
1.0
 70
     8
 71
     3
 72
    12
 73
     8
 74
     0
 42
0.00000001
 43
0.00000001
 40
0.0
 40
0.0
 40
0.0
 40
0.0
 40
0.2610466257376816
 40
0.5203567671429464
 40
0.8317512029569627
 40
0.9869218091718985
 40
1.0
 40
1.0
 40
1.0
 40
1.0
 10
42.6693690678756
 20
13.02024434531886
 30
0.0
 10
42.66929139027233
 20
13.02057346493127
 30
0.0
 10
42.66913655177785
 20
13.0212295148497
 30
0.0
 10
42.6682345397907
 20
13.02182378332806
 30
0.0
 10
42.66717399981451
 20
13.02204411474804
 30
0.0
 10
42.66635867245686
 20
13.0220274651978
 30
0.0
 10
42.66606166547156
 20
13.02200143800581
 30
0.0
 10
42.66603857874465
 20
13.02199941487941
 30
0.0
  0
LINE
  5
389
330
1F
100
AcDbEntity
  8
0
  6
Continuous
 62
     7
370
    25
100
AcDbLine
 10
42.6443515611
 20
12.8638103946
 30
0.0
 11
42.6501583754
 21
12.8734348328
 31
0.0
  0
ARC
  5
38A
330
1F
100
AcDbEntity
  8
0
  6
Continuous
 62
     7
370
    25
100
AcDbCircle
 10
42.3916629139
 20
13.0083873819
 30
0.0
 40
0.2911255015834206
100
AcDbArc
 50
313.6048825091
 51
330.2237671007
  0
LINE
  5
38B
330
1F
100
AcDbEntity
  8
0
  6
Continuous
 62
     7
370
    25
100
AcDbLine
 10
42.6693936017
 20
13.0189800488
 30
0.0
 11
42.6693690679
 21
13.0202443453
 31
0.0
  0
LINE
  5
38C
330
1F
100
AcDbEntity
  8
0
  6
Continuous
 62
     7
370
    25
100
AcDbLine
 10
42.6693936017
 20
13.0189800488
 30
0.0
 11
42.6693936017
 21
12.9324116049
 31
0.0
  0
SPLINE
  5
38D
330
1F
100
AcDbEntity
  8
0
  6
Continuous
 62
     7
370
    25
100
AcDbSpline
210
0.0
220
0.0
230
1.0
 70
     8
 71
     3
 72
    13
 73
     9
 74
     0
 42
0.00000001
 43
0.00000001
 40
0.0
 40
0.0
 40
0.0
 40
0.0
 40
0.0110833551324999
 40
0.1707198361086397
 40
0.4221210186985911
 40
0.6291731381187151
 40
0.8141387340447973
 40
0.9999999999999999
 40
0.9999999999999999
 40
0.9999999999999999
 40
0.9999999999999999
 10
41.62929052685438
 20
13.08777666692697
 30
0.0
 10
41.62926572060991
 20
13.08776403823327
 30
0.0
 10
41.62888362349754
 20
13.0875695151405
 30
0.0
 10
41.62795402326839
 20
13.08700318645188
 30
0.0
 10
41.62668768616275
 20
13.0859016623353
 30
0.0
 10
41.6256208149601
 20
13.08448623594598
 30
0.0
 10
41.62492119926358
 20
13.08304871177291
 30
0.0
 10
41.6248208987908
 20
13.0821272051146
 30
0.0
 10
41.62477062742494
 20
13.08166533891313
 30
0.0
  0
ARC
  5
38E
330
1F
100
AcDbEntity
  8
0
  6
Continuous
 62
     7
370
    25
100
AcDbCircle
 10
41.812922917
 20
13.0704668342
 30
0.0
 40
0.1884852529097512
100
AcDbArc
 50
176.5938707002
 51
224.0786416839
  0
ARC
  5
38F
330
1F
100
AcDbEntity
  8
0
  6
Continuous
 62
     7
370
    25
100
AcDbCircle
 10
41.7906423832
 20
12.9615237503
 30
0.0
 40
0.1665340960129428
100
AcDbArc
 50
180.1135741473
 51
198.9805692786
  0
ARC
  5
390
330
1F
100
AcDbEntity
  8
0
  6
Continuous
 62
     7
370
    25
100
AcDbCircle
 10
42.389854256
 20
13.0059202043
 30
0.0
 40
0.2899455022120079
100
AcDbArc
 50
313.5215719695
 51
330.1955131456
  0
SPLINE
  5
391
330
1F
100
AcDbEntity
  8
0
  6
Continuous
 62
     7
370
    25
100
AcDbSpline
210
0.0
220
0.0
230
1.0
 70
     8
 71
     3
 72
    13
 73
     9
 74
     0
 42
0.00000001
 43
0.00000001
 40
0.0
 40
0.0
 40
0.0
 40
0.0
 40
0.0955299755945392
 40
0.3010180945904148
 40
0.531043307339917
 40
0.81033825332914
 40
0.9876869112485704
 40
0.9999999999999999
 40
0.9999999999999999
 40
0.9999999999999999
 40
0.9999999999999999
 10
42.5933184993313
 20
13.05297099750387
 30
0.0
 10
42.59329050385934
 20
13.05313411694511
 30
0.0
 10
42.59320228920657
 20
13.05364811166862
 30
0.0
 10
42.59258583513254
 20
13.05422117110878
 30
0.0
 10
42.59153328336323
 20
13.05467403861172
 30
0.0
 10
42.59026250006287
 20
13.05470171478839
 30
0.0
 10
42.58933361203016
 20
13.05451776225479
 30
0.0
 10
42.58895150854669
 20
13.05440911794494
 30
0.0
 10
42.58892670188858
 20
13.05440206461418
 30
0.0
  0
ARC
  5
392
330
1F
100
AcDbEntity
  8
0
  6
Continuous
 62
     7
370
    25
100
AcDbCircle
 10
42.4052943118
 20
13.0636232646
 30
0.0
 40
0.1884852529098284
100
AcDbArc
 50
356.5938707002
 51
44.0786416838
  0
SPLINE
  5
393
330
1F
100
AcDbEntity
  8
0
  6
Continuous
 62
     7
370
    25
100
AcDbSpline
210
0.0
220
0.0
230
1.0
 70
     8
 71
     3
 72
    13
 73
     9
 74
     0
 42
0.00000001
 43
0.00000001
 40
0.0
 40
0.0
 40
0.0
 40
0.0
 40
0.1858612659553248
 40
0.3708268618807488
 40
0.5778789813022682
 40
0.8292801638917917
 40
0.9889166448668222
 40
1.0
 40
1.0
 40
1.0
 40
1.0
 10
42.54069941560175
 20
13.19474209782406
 30
0.0
 10
42.54061743678859
 20
13.19518763696845
 30
0.0
 10
42.5404538742202
 20
13.19607656819309
 30
0.0
 10
42.53956324995959
 20
13.19731776795473
 30
0.0
 10
42.53824492013334
 20
13.19843872734489
 30
0.0
 10
42.53670995321308
 20
13.19919441411683
 30
0.0
 10
42.53559560836684
 20
13.19950840584708
 30
0.0
 10
42.53513950303316
 20
13.19959944795186
 30
0.0
 10
42.53510989207812
 20
13.19960535852442
 30
0.0
  0
LINE
  5
394
330
1F
100
AcDbEntity
  8
0
  6
Continuous
 62
     7
370
    25
100
AcDbLine
 10
41.5488236271
 20
13.0765441179
 30
0.0
 11
41.5488481609
 21
13.0781256979
 31
0.0
  0
SPLINE
  5
395
330
1F
100
AcDbEntity
  8
0
  6
Continuous
 62
     7
370
    25
100
AcDbSpline
210
0.0
220
0.0
230
1.0
 70
     8
 71
     3
 72
    12
 73
     8
 74
     0
 42
0.00000001
 43
0.00000001
 40
0.0
 40
0.0
 40
0.0
 40
0.0
 40
0.0130781908285511
 40
0.168248797043292
 40
0.4796432328579114
 40
0.7389533742624292
 40
0.9999999999999999
 40
0.9999999999999999
 40
0.9999999999999999
 40
0.9999999999999999
 10
41.55217864999832
 20
13.08385383649305
 30
0.0
 10
41.55215556327141
 20
13.08383637429993
 30
0.0
 10
41.55185855628612
 20
13.08361172602686
 30
0.0
 10
41.55104322892846
 20
13.08290932199031
 30
0.0
 10
41.54998268895228
 20
13.08161635215643
 30
0.0
 10
41.54908067696512
 20
13.07987750760686
 30
0.0
 10
41.54892583847064
 20
13.07871093215971
 30
0.0
 10
41.54884816086737
 20
13.07812569794469
 30
0.0
  0
SPLINE
  5
396
330
1F
100
AcDbEntity
  8
0
  6
Continuous
 62
     7
370
    25
100
AcDbSpline
210
0.0
220
0.0
230
1.0
 70
     8
 71
     3
 72
     9
 73
     5
 74
     0
 42
0.00000001
 43
0.00000001
 40
0.0
 40
0.0
 40
0.0
 40
0.0
 40
0.4836733775589767
 40
1.0
 40
1.0
 40
1.0
 40
1.0
 10
41.62476905328795
 20
13.08120397638502
 30
0.0
 10
41.61216286573011
 20
13.08160413876041
 30
0.0
 10
41.5860994350293
 20
13.08243147884974
 30
0.0
 10
41.56151646761344
 20
13.07854883190414
 30
0.0
 10
41.54882362707804
 20
13.07654411792058
 30
0.0
  0
LINE
  5
397
330
1F
100
AcDbEntity
  8
0
  6
Continuous
 62
     7
370
    25
100
AcDbLine
 10
41.5488236271
 20
13.0765441179
 30
0.0
 11
41.5488236271
 21
12.989975674
 31
0.0
  0
ARC
  5
398
330
1F
100
AcDbEntity
  8
0
  6
Continuous
 62
     7
370
    25
100
AcDbCircle
 10
41.7910434778
 20
13.0323858367
 30
0.0
 40
0.2464765840093331
100
AcDbArc
 50
132.1531595328
 51
169.3053493168
  0
SPLINE
  5
399
330
1F
100
AcDbEntity
  8
0
  6
Continuous
 62
     7
370
    25
100
AcDbSpline
210
0.0
220
0.0
230
1.0
 70
     8
 71
     3
 72
    12
 73
     8
 74
     0
 42
0.00000001
 43
0.00000001
 40
0.0
 40
0.0
 40
0.0
 40
0.0
 40
0.0130781908275845
 40
0.1682487970462047
 40
0.4796432328598016
 40
0.738953374263782
 40
1.0
 40
1.0
 40
1.0
 40
1.0
 10
41.62631292937036
 20
13.21611776136267
 30
0.0
 10
41.62630410373913
 20
13.21612574257445
 30
0.0
 10
41.62619056342927
 20
13.21622841956548
 30
0.0
 10
41.62589456415844
 20
13.21645255547299
 30
0.0
 10
41.62557922232282
 20
13.21648910326187
 30
0.0
 10
41.62542887424391
 20
13.21609131199464
 30
0.0
 10
41.62556241535762
 20
13.21543923832932
 30
0.0
 10
41.62562940873473
 20
13.21511211347804
 30
0.0
  0
LINE
  5
39A
330
1F
100
AcDbEntity
  8
0
  6
Continuous
 62
     7
370
    25
100
AcDbLine
 10
42.5998272942
 20
13.2078752108
 30
0.0
 11
42.5999621308
 21
13.206313306
 31
0.0
  0
SPLINE
  5
39B
330
1F
100
AcDbEntity
  8
0
  6
Continuous
 62
     7
370
    25
100
AcDbSpline
210
0.0
220
0.0
230
1.0
 70
     8
 71
     3
 72
     9
 73
     5
 74
     0
 42
0.00000001
 43
0.00000001
 40
0.0
 40
0.0
 40
0.0
 40
0.0
 40
0.5163266224404941
 40
1.0
 40
1.0
 40
1.0
 40
1.0
 10
42.59996213079575
 20
13.20631330598539
 30
0.0
 10
42.59005978873773
 20
13.20552851269758
 30
0.0
 10
42.57088134310343
 20
13.20400855758836
 30
0.0
 10
42.55054791141135
 20
13.197453253829
 30
0.0
 10
42.54071317182747
 20
13.19428262791878
 30
0.0
  0
SPLINE
  5
39C
330
1F
100
AcDbEntity
  8
0
  6
Continuous
 62
     7
370
    25
100
AcDbSpline
210
0.0
220
0.0
230
1.0
 70
     8
 71
     3
 72
    12
 73
     8
 74
     0
 42
0.00000001
 43
0.00000001
 40
0.0
 40
0.0
 40
0.0
 40
0.0
 40
0.2610466257363467
 40
0.5203567671399142
 40
0.8317512029544071
 40
0.9869218091727383
 40
0.9999999999999999
 40
0.9999999999999999
 40
0.9999999999999999
 40
0.9999999999999999
 10
42.59982729419763
 20
13.20787521080427
 30
0.0
 10
42.5996656434747
 20
13.20843089853948
 30
0.0
 10
42.59934341733081
 20
13.20953857757045
 30
0.0
 10
42.59811468566892
 20
13.21101436937069
 30
0.0
 10
42.59676679435216
 20
13.21201000429367
 30
0.0
 10
42.59576797277241
 20
13.21248844104725
 30
0.0
 10
42.59540811366065
 20
13.21263199536387
 30
0.0
 10
42.59538014135882
 20
13.21264315402165
 30
0.0
  0
SPLINE
  5
39D
330
1F
100
AcDbEntity
  8
0
  6
Continuous
 62
     7
370
    25
100
AcDbSpline
210
0.0
220
0.0
230
1.0
 70
     8
 71
     3
 72
    12
 73
     8
 74
     0
 42
0.00000001
 43
0.00000001
 40
0.0
 40
0.0
 40
0.0
 40
0.0
 40
0.221718115514948
 40
0.4435284651945733
 40
0.6625812968591857
 40
0.8762617802482743
 40
1.0
 40
1.0
 40
1.0
 40
1.0
 10
42.59767786676277
 20
13.11855472372246
 30
0.0
 10
42.59793971963511
 20
13.11871924798885
 30
0.0
 10
42.59846353430991
 20
13.1190483649633
 30
0.0
 10
42.59915945585392
 20
13.11985052928054
 30
0.0
 10
42.5996751887159
 20
13.12076292485464
 30
0.0
 10
42.5999294115939
 20
13.12158065688211
 30
0.0
 10
42.59995335153734
 20
13.1220300026314
 30
0.0
 10
42.59996213079575
 20
13.12219478674844
 30
0.0
  0
LINE
  5
39E
330
1F
100
AcDbEntity
  8
0
  6
Continuous
 62
     7
370
    25
100
AcDbLine
 10
42.5999621308
 20
13.206313306
 30
0.0
 11
42.5999621308
 21
13.1221947867
 31
0.0
  0
LINE
  5
39F
330
1F
100
AcDbEntity
  8
0
  6
Continuous
 62
     7
370
    25
100
AcDbLine
 10
42.5874608746
 20
13.1132315062
 30
0.0
 11
42.5976778668
 21
13.1185547237
 31
0.0
  0
ARC
  5
3A0
330
1F
100
AcDbEntity
  8
0
  6
Continuous
 62
     7
370
    25
100
AcDbCircle
 10
42.3122950452
 20
12.9248052381
 30
0.0
 40
0.403489037822179
100
AcDbArc
 50
44.5519393728
 51
56.6509063446
  0
LWPOLYLINE
  5
3A1
330
1F
100
AcDbEntity
  8
0
  6
Continuous
 62
     7
370
    25
100
AcDbPolyline
 90
       21
 70
   128
 43
0.0
 10
38.840453513
 20
33.9084429577
 10
38.8578298973
 20
33.88575259
 10
38.88311043
 20
33.8754268271
 10
38.9138204765
 20
33.8784764268
 10
38.9469539235
 20
33.894602873
 10
38.9792674383
 20
33.9222275967
 10
39.007597949
 20
33.9586464975
 10
39.0291722677
 20
34.0002946397
 10
39.0418785499
 20
34.0430952129
 10
39.0444730161
 20
34.0828585988
 10
39.0367017018
 20
34.1156924802
 10
39.0193253175
 20
34.1383828479
 10
38.9940447848
 20
34.1487086108
 10
38.9633347382
 20
34.1456590111
 10
38.9302012913
 20
34.1295325649
 10
38.8978877764
 20
34.1019078412
 10
38.8695572658
 20
34.0654889404
 10
38.8479829471
 20
34.0238407982
 10
38.8352766649
 20
33.981040225
 10
38.8326821987
 20
33.9412768391
 10
38.840453513
 20
33.9084429577
  0
LWPOLYLINE
  5
3A2
330
1F
100
AcDbEntity
  8
0
  6
Continuous
 62
     7
370
    25
100
AcDbPolyline
 90
       12
 70
   128
 43
0.0
 10
38.8296113413
 20
33.9085414851
 10
38.8216837854
 20
33.9408207262
 10
38.8235144631
 20
33.979793193
 10
38.8349407107
 20
34.0219960108
 10
38.854947256
 20
34.0636792739
 10
38.8817564296
 20
34.1011392415
 10
38.9129861188
 20
34.1310474311
 10
38.9458614287
 20
34.1507463689
 10
38.9774612437
 20
34.1584857177
 10
39.0049777815
 20
34.1535778024
 10
39.0259660771
 20
34.1364587129
 10
39.0345480406
 20
34.1210939219
  0
ARC
  5
3A3
330
1F
100
AcDbEntity
  8
0
  6
Continuous
 62
     7
370
    25
100
AcDbCircle
 10
38.8820815091
 20
33.930339882
 30
0.0
 40
0.0568180307578099
100
AcDbArc
 50
202.5601302045
 51
280.2436402356
  0
ARC
  5
3A4
330
1F
100
AcDbEntity
  8
0
  6
Continuous
 62
     7
370
    25
100
AcDbCircle
 10
38.8575076254
 20
34.0585035935
 30
0.0
 40
0.1456305518487894
100
AcDbArc
 50
316.424348374
 51
352.2968149772
  0
ARC
  5
3A5
330
1F
100
AcDbEntity
  8
0
  6
Continuous
 62
     7
370
    25
100
AcDbCircle
 10
38.9571848529
 20
34.0512732047
 30
0.0
 40
0.0463000840656513
100
AcDbArc
 50
344.606616418
 51
64.1262399255
  0
ARC
  5
3A6
330
1F
100
AcDbEntity
  8
0
  6
Continuous
 62
     7
370
    25
100
AcDbCircle
 10
38.9687541434
 20
34.0254576058
 30
0.0
 40
0.0680248179649013
100
AcDbArc
 50
82.7067544556
 51
143.3989520575
  0
ARC
  5
3A7
330
1F
100
AcDbEntity
  8
0
  6
Continuous
 62
     7
370
    25
100
AcDbCircle
 10
39.0196475894
 20
33.9656318444
 30
0.0
 40
0.1456305518483383
100
AcDbArc
 50
136.4243483739
 51
172.2968149773
  0
ARC
  5
3A8
330
1F
100
AcDbEntity
  8
0
  6
Continuous
 62
     7
370
    25
100
AcDbCircle
 10
38.9199703619
 20
33.9728622332
 30
0.0
 40
0.0463000840655312
100
AcDbArc
 50
164.606616418
 51
244.1262399256
  0
ARC
  5
3A9
330
1F
100
AcDbEntity
  8
0
  6
Continuous
 62
     7
370
    25
100
AcDbCircle
 10
38.9084010714
 20
33.9986778321
 30
0.0
 40
0.0680248179646191
100
AcDbArc
 50
262.7067544555
 51
323.3989520577
  0
SPLINE
  5
3AA
330
1F
100
AcDbEntity
  8
0
  6
Continuous
 62
     7
370
    25
100
AcDbSpline
210
0.0
220
0.0
230
1.0
 70
     8
 71
     3
 72
     9
 73
     5
 74
     0
 42
0.00000001
 43
0.00000001
 40
0.0
 40
0.0
 40
0.0
 40
0.0
 40
0.719313291742218
 40
1.0
 40
1.0
 40
1.0
 40
1.0
 10
38.97738973592237
 20
34.0929320631689
 30
0.0
 10
38.9641052667052
 20
34.09148340663881
 30
0.0
 10
38.94563700069416
 20
34.08946946285838
 30
0.0
 10
38.93451550595877
 20
34.08248319549155
 30
0.0
 10
38.93139385021059
 20
34.08052224310134
 30
0.0
  0
SPLINE
  5
3AB
330
1F
100
AcDbEntity
  8
0
  6
Continuous
 62
     7
370
    25
100
AcDbSpline
210
0.0
220
0.0
230
1.0
 70
     8
 71
     3
 72
    11
 73
     7
 74
     0
 42
0.00000001
 43
0.00000001
 40
0.0
 40
0.0
 40
0.0
 40
0.0
 40
0.0388628383334605
 40
0.4220128906397503
 40
0.7943024137309718
 40
1.0
 40
1.0
 40
1.0
 40
1.0
 10
38.87491263654103
 20
33.97977824990594
 30
0.0
 10
38.87487502371601
 20
33.97938030753082
 30
0.0
 10
38.87446658476265
 20
33.97505903766911
 30
0.0
 10
38.87784087766088
 20
33.96356358551773
 30
0.0
 10
38.88836209853959
 20
33.94616941273927
 30
0.0
 10
38.8967723774037
 20
33.93513158452804
 30
0.0
 10
38.89976547886597
 20
33.93120337473938
 30
0.0
  0
SPLINE
  5
3AC
330
1F
100
AcDbEntity
  8
0
  6
Continuous
 62
     7
370
    25
100
AcDbSpline
210
0.0
220
0.0
230
1.0
 70
     8
 71
     3
 72
    11
 73
     7
 74
     0
 42
0.00000001
 43
0.00000001
 40
0.0
 40
0.0
 40
0.0
 40
0.0
 40
0.1753973659309006
 40
0.4928468941344765
 40
0.8195571446036065
 40
1.0
 40
1.0
 40
1.0
 40
1.0
 10
39.00182397072013
 20
34.03898308892289
 30
0.0
 10
38.99883579819659
 20
34.04290729890096
 30
0.0
 10
38.99043936909663
 20
34.05393388809381
 30
0.0
 10
38.97974703691148
 20
34.07146691689226
 30
0.0
 10
38.97625945472022
 20
34.08495890181118
 30
0.0
 10
38.97709312108022
 20
34.09083970067264
 30
0.0
 10
38.97738973592237
 20
34.0929320631689
 30
0.0
  0
LINE
  5
3AD
330
1F
100
AcDbEntity
  8
0
  6
Continuous
 62
     7
370
    25
100
AcDbLine
 10
39.0018239707
 20
34.0389830889
 30
0.0
 11
38.9302428294
 21
34.0802958003
 31
0.0
  0
SPLINE
  5
3AE
330
1F
100
AcDbEntity
  8
0
  6
Continuous
 62
     7
370
    25
100
AcDbSpline
210
0.0
220
0.0
230
1.0
 70
     8
 71
     3
 72
    10
 73
     6
 74
     0
 42
0.00000001
 43
0.00000001
 40
0.0
 40
0.0
 40
0.0
 40
0.0
 40
0.4391220929828241
 40
0.7513713642449422
 40
1.0
 40
1.0
 40
1.0
 40
1.0
 10
38.89976547886597
 20
33.93120337473938
 30
0.0
 10
38.90503621230728
 20
33.9372402543763
 30
0.0
 10
38.91405483887981
 20
33.94756981547344
 30
0.0
 10
38.93945374724621
 20
33.95549308705051
 30
0.0
 10
38.95577630214638
 20
33.9573123106068
 30
0.0
 10
38.9630118421919
 20
33.95811874470819
 30
0.0
  0
LINE
  5
3AF
330
1F
100
AcDbEntity
  8
0
  6
Continuous
 62
     7
370
    25
100
AcDbLine
 10
38.8852300963
 20
34.0030101052
 30
0.0
 11
38.8779313491
 21
33.9999040218
 31
0.0
  0
LINE
  5
3B0
330
1F
100
AcDbEntity
  8
0
  6
Continuous
 62
     7
370
    25
100
AcDbLine
 10
38.9630118422
 20
33.9581187447
 30
0.0
 11
38.8852300963
 21
34.0030101052
 31
0.0
  0
SPLINE
  5
3B1
330
1F
100
AcDbEntity
  8
0
  6
Continuous
 62
     7
370
    25
100
AcDbSpline
210
0.0
220
0.0
230
1.0
 70
     8
 71
     3
 72
    10
 73
     6
 74
     0
 42
0.00000001
 43
0.00000001
 40
0.0
 40
0.0
 40
0.0
 40
0.0
 40
0.439122092982017
 40
0.7513713642448251
 40
1.0
 40
1.0
 40
1.0
 40
1.0
 10
38.9630118421919
 20
33.95811874470819
 30
0.0
 10
38.9647845784642
 20
33.97187894208948
 30
0.0
 10
38.96781786531689
 20
33.99542368840011
 30
0.0
 10
38.98451609526884
 20
34.02255741119798
 30
0.0
 10
38.99650809835358
 20
34.03393817127453
 30
0.0
 10
39.00182397072013
 20
34.0389830889229
 30
0.0
  0
LINE
  5
3B2
330
1F
100
AcDbEntity
  8
0
  6
Continuous
 62
     7
370
    25
100
AcDbLine
 10
38.9167606228
 20
34.0687033679
 30
0.0
 11
38.8852300963
 21
34.0030101052
 31
0.0
  0
ARC
  5
3B3
330
1F
100
AcDbEntity
  8
0
  6
Continuous
 62
     7
370
    25
100
AcDbCircle
 10
38.9796758298
 20
33.9720874725
 30
0.0
 40
0.1794653390441483
100
AcDbArc
 50
147.1598362446
 51
196.4485627771
  0
LWPOLYLINE
  5
3B4
330
1F
100
AcDbEntity
  8
0
  6
Continuous
 62
     7
370
    25
100
AcDbPolyline
 90
        3
 70
   128
 43
0.0
 10
38.9616200594
 20
34.1712356285
 10
38.9829216714
 20
34.1663073802
 10
38.9874296471
 20
34.1639902892
  0
LWPOLYLINE
  5
3B5
330
1F
100
AcDbEntity
  8
0
  6
Continuous
 62
     7
370
    25
100
AcDbPolyline
 90
        3
 70
   128
 43
0.0
 10
38.8314712119
 20
33.89376637
 10
38.8245366227
 20
33.8985531996
 10
38.8075552312
 20
33.9212710629
  0
SPLINE
  5
3B6
330
1F
100
AcDbEntity
  8
0
  6
Continuous
 62
     7
370
    25
100
AcDbSpline
210
0.0
220
0.0
230
1.0
 70
     8
 71
     3
 72
    10
 73
     6
 74
     0
 42
0.00000001
 43
0.00000001
 40
0.0
 40
0.0
 40
0.0
 40
0.0
 40
0.2853607518545059
 40
0.8018316552984418
 40
1.0
 40
1.0
 40
1.0
 40
1.0
 10
38.97976786064022
 20
34.05171266676653
 30
0.0
 10
38.97681964995877
 20
34.05561019554042
 30
0.0
 10
38.96853550914577
 20
34.06656181354685
 30
0.0
 10
38.95947602764905
 20
34.08040590437709
 30
0.0
 10
38.95797736372099
 20
34.08723360033764
 30
0.0
 10
38.95756178655998
 20
34.08912690973835
 30
0.0
  0
SPLINE
  5
3B7
330
1F
100
AcDbEntity
  8
0
  6
Continuous
 62
     7
370
    25
100
AcDbSpline
210
0.0
220
0.0
230
1.0
 70
     8
 71
     3
 72
    10
 73
     6
 74
     0
 42
0.00000001
 43
0.00000001
 40
0.0
 40
0.0
 40
0.0
 40
0.0
 40
0.4391220929828303
 40
0.751371364244945
 40
1.0
 40
1.0
 40
1.0
 40
1.0
 10
38.87770936878605
 20
33.94393295258303
 30
0.0
 10
38.88298010222736
 20
33.94996983221994
 30
0.0
 10
38.8919987287999
 20
33.96029939331709
 30
0.0
 10
38.9173976371663
 20
33.96822266489418
 30
0.0
 10
38.93372019206647
 20
33.97004188845045
 30
0.0
 10
38.94095573211198
 20
33.97084832255184
 30
0.0
  0
SPLINE
  5
3B8
330
1F
100
AcDbEntity
  8
0
  6
Continuous
 62
     7
370
    25
100
AcDbSpline
210
0.0
220
0.0
230
1.0
 70
     8
 71
     3
 72
    10
 73
     6
 74
     0
 42
0.00000001
 43
0.00000001
 40
0.0
 40
0.0
 40
0.0
 40
0.0
 40
0.4391220929820182
 40
0.7513713642448203
 40
1.0
 40
1.0
 40
1.0
 40
1.0
 10
38.94095573211198
 20
33.97084832255184
 30
0.0
 10
38.94272846838428
 20
33.98460851993312
 30
0.0
 10
38.94576175523697
 20
34.00815326624375
 30
0.0
 10
38.96245998518893
 20
34.03528698904164
 30
0.0
 10
38.97445198827366
 20
34.04666774911819
 30
0.0
 10
38.97976786064022
 20
34.05171266676654
 30
0.0
  0
LINE
  5
3B9
330
1F
100
AcDbEntity
  8
0
  6
Continuous
 62
     7
370
    25
100
AcDbLine
 10
38.1628882835
 20
34.5250521138
 30
0.0
 11
38.1628882835
 21
34.0632413144
 31
0.0
  0
ARC
  5
3BA
330
1F
100
AcDbEntity
  8
0
  6
Continuous
 62
     7
370
    25
100
AcDbCircle
 10
38.288821755
 20
34.6936573965
 30
0.0
 40
0.210444720958285
100
AcDbArc
 50
182.4835782771
 51
233.2434696183
  0
SPLINE
  5
3BB
330
1F
100
AcDbEntity
  8
0
  6
Continuous
 62
     7
370
    25
100
AcDbSpline
210
0.0
220
0.0
230
1.0
 70
     8
 71
     3
 72
    16
 73
    12
 74
     0
 42
0.00000001
 43
0.00000001
 40
0.0
 40
0.0
 40
0.0
 40
0.0
 40
0.121359510118927
 40
0.2425523636685407
 40
0.3680112472062868
 40
0.496634436868561
 40
0.620796387841642
 40
0.740183460537636
 40
0.8611775548690606
 40
0.9878018396950133
 40
1.0
 40
1.0
 40
1.0
 40
1.0
 10
38.78785834469553
 20
33.96519674141238
 30
0.0
 10
38.78950546584628
 20
33.98023463637573
 30
0.0
 10
38.79279744624378
 20
34.01028977555997
 30
0.0
 10
38.81756988773137
 20
34.0567696556037
 30
0.0
 10
38.85257196825264
 20
34.09994870167531
 30
0.0
 10
38.89405490774075
 20
34.13657183522776
 30
0.0
 10
38.93427900871212
 20
34.16204724606262
 30
0.0
 10
38.96842777941441
 20
34.17459589081079
 30
0.0
 10
38.99373904925535
 20
34.1715290875535
 30
0.0
 10
39.00774942887776
 20
34.16271066623533
 30
0.0
 10
39.0107443214921
 20
34.1503935933841
 30
0.0
 10
39.01100747908287
 20
34.14931130709397
 30
0.0
  0
LWPOLYLINE
  5
3BC
330
1F
100
AcDbEntity
  8
0
  6
Continuous
 62
     7
370
    25
100
AcDbPolyline
 90
        9
 70
   128
 43
0.0
 10
38.1628882835
 20
34.0632413144
 10
38.2184013237
 20
34.0237362393
 10
38.285172905
 20
33.9905389285
 10
38.3610864537
 20
33.9647016942
 10
38.4437356077
 20
33.9470435436
 10
38.5305004948
 20
33.9381242174
 10
38.6186307792
 20
33.9382264468
 10
38.705332844
 20
33.9473469914
 10
38.7878583447
 20
33.9651967414
  0
LWPOLYLINE
  5
3BD
330
1F
100
AcDbEntity
  8
0
  6
Continuous
 62
     7
370
    25
100
AcDbPolyline
 90
       21
 70
   128
 43
0.0
 10
38.0785747084
 20
35.5538531213
 10
38.0786862239
 20
35.547789308
 10
38.0875803623
 20
35.4996060922
 10
38.1104556732
 20
35.4529834647
 10
38.1466540755
 20
35.4092626735
 10
38.1951342072
 20
35.3697014863
 10
38.254501383
 20
35.3354380063
 10
38.3230477175
 20
35.3074579315
 10
38.3988012574
 20
35.2865661977
 10
38.4795827112
 20
35.2733638221
 10
38.5630681437
 20
35.2682306129
 10
38.6468558309
 20
35.2713142433
 10
38.7285353537
 20
35.2825260027
 10
38.8057569408
 20
35.3015433494
 10
38.8762990678
 20
35.3278191888
 10
38.9381323662
 20
35.3605976129
 10
38.9894780045
 20
35.3989356461
 10
39.0288588622
 20
35.441730373
 10
39.0551420238
 20
35.4877506673
 10
39.0675713704
 20
35.5356726088
 10
39.0685747084
 20
35.5538531213
  0
ARC
  5
3BE
330
1F
100
AcDbEntity
  8
0
  6
Continuous
 62
     7
370
    25
100
AcDbCircle
 10
38.4290199073
 20
34.0444064689
 30
0.0
 40
0.266797287486006
100
AcDbArc
 50
175.9517746021
 51
222.4928119075
  0
ARC
  5
3BF
330
1F
100
AcDbEntity
  8
0
  6
Continuous
 62
     7
370
    25
100
AcDbCircle
 10
38.8566565586
 20
33.9522061053
 30
0.0
 40
0.0700139333432135
100
AcDbArc
 50
169.307173819
 51
265.4887296568
  0
LWPOLYLINE
  5
3C0
330
1F
100
AcDbEntity
  8
0
  6
Continuous
 62
     7
370
    25
100
AcDbPolyline
 90
       16
 70
   128
 43
0.0
 10
37.6433853164
 20
33.3922793977
 10
37.6322797828
 20
33.3985994702
 10
37.5493353644
 20
33.4521671128
 10
37.4773044488
 20
33.5107577815
 10
37.4170928666
 20
33.5736346649
 10
37.3694578133
 20
33.6400070495
 10
37.3349983274
 20
33.7090402641
 10
37.314147757
 20
33.779866176
 10
37.3071683099
 20
33.8515941084
 10
37.314147757
 20
33.9233220407
 10
37.3349983274
 20
33.9941479526
 10
37.3694578133
 20
34.0631811673
 10
37.4170928666
 20
34.1295535519
 10
37.4773044488
 20
34.1924304352
 10
37.5493353644
 20
34.251021104
 10
37.6318619193
 20
34.3043474501
  0
LWPOLYLINE
  5
3C1
330
1F
100
AcDbEntity
  8
0
  6
Continuous
 62
     7
370
    25
100
AcDbPolyline
 90
       30
 70
   128
 43
0.0
 10
37.6534929863
 20
33.4353418152
 10
37.745523251
 20
33.3879728609
 10
37.8463094362
 20
33.3469673038
 10
37.9545376398
 20
33.312859714
 10
38.0687969417
 20
33.286094736
 10
38.1875977972
 20
33.2670212923
 10
38.3093914554
 20
33.2558880344
 10
38.4325901497
 20
33.2528401013
 10
38.5555877968
 20
33.2579172275
 10
38.6767809341
 20
33.2710532249
 10
38.7945896239
 20
33.2920768458
 10
38.9074780497
 20
33.3207140149
 10
39.0139745381
 20
33.3565914031
 10
39.1126907447
 20
33.3992412937
 10
39.2023397527
 20
33.4481076802
 10
39.2817528501
 20
33.5025535145
 10
39.3498947659
 20
33.5618690118
 10
39.4058771659
 20
33.625280904
 10
39.4489702339
 20
33.6919625201
 10
39.4786121859
 20
33.7610445632
 10
39.4944165937
 20
33.8316264433
 10
39.4961774227
 20
33.9027880175
 10
39.4838717178
 20
33.973601586
 10
39.4576599026
 20
34.0431439856
 10
39.4178836883
 20
34.1105086247
 10
39.3650616187
 20
34.1748173023
 10
39.2998823101
 20
34.2352316564
 10
39.2231954746
 20
34.2909640936
 10
39.1360008424
 20
34.3412880562
 10
39.0685747084
 20
34.3732662358
  0
LWPOLYLINE
  5
3C2
330
1F
100
AcDbEntity
  8
0
  6
Continuous
 62
     7
370
    25
100
AcDbPolyline
 90
       18
 70
   128
 43
0.0
 10
37.9373137292
 20
34.4345061808
 10
37.8727223913
 20
34.4144119427
 10
37.7699484301
 20
34.3750841638
 10
37.6756119699
 20
34.3292512765
 10
37.5909428306
 20
34.2775107828
 10
37.517044804
 20
34.220537199
 10
37.4548812638
 20
34.1590732629
 10
37.4052626069
 20
34.093920251
 10
37.3688356884
 20
34.0259275323
 10
37.3460753888
 20
33.9559814961
 10
37.3372784235
 20
33.8849939957
 10
37.3425594743
 20
33.8138904618
 10
37.3618496947
 20
33.7435978378
 10
37.3948976071
 20
33.6750324955
 10
37.4412723815
 20
33.609088289
 10
37.5003694518
 20
33.5466249018
 10
37.5714183973
 20
33.4884566398
 10
37.6534929863
 20
33.4353418152
  0
LWPOLYLINE
  5
3C3
330
1F
100
AcDbEntity
  8
0
  6
Continuous
 62
     7
370
    25
100
AcDbPolyline
 90
       13
 70
   128
 43
0.0
 10
37.3071683099
 20
32.3448904391
 10
37.314147757
 20
32.2731625068
 10
37.3349983274
 20
32.2023365948
 10
37.3694578133
 20
32.1333033802
 10
37.4170928666
 20
32.0669309956
 10
37.4773044488
 20
32.0040541122
 10
37.5493353644
 20
31.9454634435
 10
37.6322797828
 20
31.8918958009
 10
37.7250946299
 20
31.8440248288
 10
37.826612705
 20
31.8024525323
 10
37.9355573595
 20
31.7677017073
 10
38.0505585512
 20
31.7402093654
 10
38.1272819624
 20
31.7264918494
  0
ARC
  5
3C4
330
1F
100
AcDbEntity
  8
0
  6
Continuous
 62
     7
370
    25
100
AcDbCircle
 10
38.173472196
 20
33.9018455581
 30
0.0
 40
0.2526199104000104
100
AcDbArc
 50
185.8509247797
 51
247.8808624176
  0
ARC
  5
3C5
330
1F
100
AcDbEntity
  8
0
  6
Continuous
 62
     7
370
    25
100
AcDbCircle
 10
38.7403922606
 20
34.0672020114
 30
0.0
 40
0.5996242084879381
100
AcDbArc
 50
164.3887705919
 51
179.1620789016
  0
LWPOLYLINE
  5
3C6
330
1F
100
AcDbEntity
  8
0
  6
Continuous
 62
     7
370
    25
100
AcDbPolyline
 90
       14
 70
   128
 43
0.0
 10
38.1679467858
 20
33.6374239882
 10
38.2152948096
 20
33.623410518
 10
38.2957294741
 20
33.6073036696
 10
38.3797566665
 20
33.5993900199
 10
38.4648906083
 20
33.5999036785
 10
38.5486127804
 20
33.6088294498
 10
38.6284464276
 20
33.6259032826
 10
38.7020298295
 20
33.6506200812
 10
38.7671861666
 20
33.6822486482
 10
38.8219879175
 20
33.7198533147
 10
38.8648138806
 20
33.7623216212
 10
38.8943971347
 20
33.8083972267
 10
38.9098625176
 20
33.8567170756
 10
38.9103766425
 20
33.8599747749
  0
LINE
  5
3C7
330
1F
100
AcDbEntity
  8
0
  6
Continuous
 62
     7
370
    25
100
AcDbLine
 10
37.6543358929
 20
33.3858698924
 30
0.0
 11
37.6433853164
 21
33.3922793977
 31
0.0
  0
LWPOLYLINE
  5
3C8
330
1F
100
AcDbEntity
  8
0
  6
Continuous
 62
     7
370
    25
100
AcDbPolyline
 90
       29
 70
   128
 43
0.0
 10
39.2245308106
 20
34.2916178723
 10
39.3070573656
 20
34.2382915261
 10
39.3790882812
 20
34.1797008574
 10
39.4392998634
 20
34.116823974
 10
39.4869349167
 20
34.0504515894
 10
39.5213944025
 20
33.9814183748
 10
39.542244973
 20
33.9105924628
 10
39.54922442
 20
33.8388645305
 10
39.542244973
 20
33.7671365982
 10
39.5213944025
 20
33.6963106863
 10
39.4869349167
 20
33.6272774716
 10
39.4392998634
 20
33.560905087
 10
39.3790882812
 20
33.4980282037
 10
39.3070573656
 20
33.4394375349
 10
39.2241129471
 20
33.3858698924
 10
39.1312981001
 20
33.3379989202
 10
39.0297800249
 20
33.2964266238
 10
38.9208353704
 20
33.2616757987
 10
38.8058341788
 20
33.2341834568
 10
38.6862226567
 20
33.2142953303
 10
38.5635049885
 20
33.2022615238
 10
38.43922442
 20
33.1982333696
 10
38.3149438515
 20
33.2022615238
 10
38.1922261833
 20
33.2142953303
 10
38.0726146612
 20
33.2341834568
 10
37.9576134696
 20
33.2616757987
 10
37.8486688151
 20
33.2964266238
 10
37.74715074
 20
33.3379989202
 10
37.6543358929
 20
33.3858698924
  0
LWPOLYLINE
  5
3C9
330
1F
100
AcDbEntity
  8
0
  6
Continuous
 62
     7
370
    25
100
AcDbPolyline
 90
       30
 70
   128
 43
0.0
 10
37.6755490963
 20
33.4226122374
 10
37.767579361
 20
33.3752432831
 10
37.8683655462
 20
33.334237726
 10
37.9765937499
 20
33.3001301361
 10
38.0908530518
 20
33.2733651581
 10
38.2096539073
 20
33.2542917144
 10
38.3314475655
 20
33.2431584565
 10
38.4546462598
 20
33.2401105234
 10
38.5776439069
 20
33.2451876497
 10
38.6988370442
 20
33.2583236471
 10
38.816645734
 20
33.2793472679
 10
38.9295341597
 20
33.3079844371
 10
39.0360306482
 20
33.3438618253
 10
39.1347468548
 20
33.3865117159
 10
39.2243958628
 20
33.4353781024
 10
39.3038089602
 20
33.4898239366
 10
39.371950876
 20
33.549139434
 10
39.427933276
 20
33.6125513262
 10
39.471026344
 20
33.6792329423
 10
39.500668296
 20
33.7483149854
 10
39.5164727038
 20
33.8188968654
 10
39.5182335328
 20
33.8900584397
 10
39.5059278279
 20
33.9608720081
 10
39.4797160127
 20
34.0304144077
 10
39.4399397984
 20
34.0977790469
 10
39.3871177287
 20
34.1620877245
 10
39.3219384202
 20
34.2225020786
 10
39.2452515847
 20
34.2782345157
 10
39.1580569525
 20
34.3285584783
 10
39.0685747084
 20
34.3699112629
  0
LWPOLYLINE
  5
3CA
330
1F
100
AcDbEntity
  8
0
  6
Continuous
 62
     7
370
    25
100
AcDbPolyline
 90
       18
 70
   128
 43
0.0
 10
37.9325467175
 20
34.4138276942
 10
37.8947785014
 20
34.4016823648
 10
37.7920045402
 20
34.3623545859
 10
37.6976680799
 20
34.3165216987
 10
37.6129989407
 20
34.264781205
 10
37.539100914
 20
34.2078076211
 10
37.4769373739
 20
34.1463436851
 10
37.427318717
 20
34.0811906731
 10
37.3908917985
 20
34.0131979545
 10
37.3681314989
 20
33.9432519182
 10
37.3593345336
 20
33.8722644178
 10
37.3646155844
 20
33.801160884
 10
37.3839058048
 20
33.73086826
 10
37.4169537172
 20
33.6623029177
 10
37.4633284916
 20
33.5963587111
 10
37.5224255619
 20
33.533895324
 10
37.5934745074
 20
33.475727062
 10
37.6755490963
 20
33.4226122374
  0
LWPOLYLINE
  5
3CB
330
1F
100
AcDbEntity
  8
0
  6
Continuous
 62
     7
370
    25
100
AcDbPolyline
 90
       26
 70
   128
 43
0.0
 10
37.4312596323
 20
32.0638615953
 10
37.4391489766
 20
32.0542014177
 10
37.4993605589
 20
31.9913245344
 10
37.5713914745
 20
31.9327338656
 10
37.6543358929
 20
31.8791662231
 10
37.74715074
 20
31.831295251
 10
37.8486688151
 20
31.7897229545
 10
37.9576134696
 20
31.7549721294
 10
38.0726146612
 20
31.7274797876
 10
38.1922261833
 20
31.707591661
 10
38.3149438515
 20
31.6955578546
 10
38.43922442
 20
31.6915297003
 10
38.5635049885
 20
31.6955578546
 10
38.6862226567
 20
31.707591661
 10
38.8058341788
 20
31.7274797876
 10
38.9208353704
 20
31.7549721294
 10
39.0297800249
 20
31.7897229545
 10
39.1312981001
 20
31.831295251
 10
39.2241129471
 20
31.8791662231
 10
39.3070573656
 20
31.9327338656
 10
39.3790882812
 20
31.9913245344
 10
39.4392998634
 20
32.0542014177
 10
39.4869349167
 20
32.1205738023
 10
39.5213944025
 20
32.189607017
 10
39.542244973
 20
32.2604329289
 10
39.54922442
 20
32.3321608612
  0
LWPOLYLINE
  5
3CC
330
1F
100
AcDbEntity
  8
0
  6
Continuous
 62
     7
370
    25
100
AcDbPolyline
 90
       16
 70
   128
 43
0.0
 10
38.93422442
 20
33.8633637772
 10
38.933221082
 20
33.8451832646
 10
38.9207917353
 20
33.7972613231
 10
38.8945085738
 20
33.7512410289
 10
38.8551277161
 20
33.7084463019
 10
38.8037820778
 20
33.6701082687
 10
38.7419487794
 20
33.6373298446
 10
38.6714066524
 20
33.6110540052
 10
38.5941850652
 20
33.5920366585
 10
38.5125055425
 20
33.5808248991
 10
38.4287178553
 20
33.5777412687
 10
38.3452324228
 20
33.5828744779
 10
38.2644509689
 20
33.5960768536
 10
38.1886974291
 20
33.6169685874
 10
38.1201510946
 20
33.6449486621
 10
38.0783522826
 20
33.6678177367
  0
LINE
  5
3CD
330
1F
100
AcDbEntity
  8
0
  6
Continuous
 62
     7
370
    25
100
AcDbLine
 10
38.1628882835
 20
33.6345044979
 30
0.0
 11
38.387392372
 21
33.7640759528
 31
0.0
  0
LINE
  5
3CE
330
1F
100
AcDbEntity
  8
0
  6
Continuous
 62
     7
370
    25
100
AcDbLine
 10
38.1628882835
 20
34.0632413144
 30
0.0
 11
38.1628882835
 21
33.6345044979
 31
0.0
  0
LWPOLYLINE
  5
3CF
330
1F
100
AcDbEntity
  8
0
  6
Continuous
 62
     7
370
    25
100
AcDbPolyline
 90
       14
 70
   128
 43
0.0
 10
38.1628882835
 20
33.6345044979
 10
38.2373509196
 20
33.6106809402
 10
38.3177855842
 20
33.5945740918
 10
38.4018127765
 20
33.586660442
 10
38.4869467184
 20
33.5871741006
 10
38.5706688905
 20
33.596099872
 10
38.6505025377
 20
33.6131737047
 10
38.7240859396
 20
33.6378905034
 10
38.7892422767
 20
33.6695190703
 10
38.8440440275
 20
33.7071237369
 10
38.8868699907
 20
33.7495920433
 10
38.9164532448
 20
33.7956676488
 10
38.9319186276
 20
33.8439874977
 10
38.9338089202
 20
33.8832331852
  0
LWPOLYLINE
  5
3D0
330
1F
100
AcDbEntity
  8
0
  6
Continuous
 62
     7
370
    25
100
AcDbPolyline
 90
       17
 70
   128
 43
0.0
 10
39.2209773671
 20
31.877363739
 10
39.2170418793
 20
31.8750808403
 10
39.1250632021
 20
31.8276411382
 10
39.0244597042
 20
31.7864433669
 10
38.916496533
 20
31.7520056124
 10
38.8025313882
 20
31.7247609492
 10
38.6839974474
 20
31.705051995
 10
38.5623853437
 20
31.6931266012
 10
38.43922442
 20
31.6891347366
 10
38.3160634963
 20
31.6931266012
 10
38.1944513927
 20
31.705051995
 10
38.0759174519
 20
31.7247609492
 10
37.961952307
 20
31.7520056124
 10
37.8539891358
 20
31.7864433669
 10
37.753385638
 20
31.8276411382
 10
37.6614069607
 20
31.8750808403
 10
37.657471478
 20
31.877363736
  0
LWPOLYLINE
  5
3D1
330
1F
100
AcDbEntity
  8
0
  6
Continuous
 62
     7
370
    25
100
AcDbPolyline
 90
       17
 70
   128
 43
0.0
 10
38.7705968272
 20
31.4719104283
 10
38.7835084578
 20
31.4909055076
 10
38.7877431319
 20
31.5114422342
 10
38.7826561588
 20
31.5303940778
 10
38.7690219839
 20
31.5448757919
 10
38.7489162869
 20
31.5526826669
 10
38.7253999778
 20
31.5526261768
 10
38.7020532014
 20
31.5447149217
 10
38.682430293
 20
31.5301533185
 10
38.6695186623
 20
31.5111582393
 10
38.6652839882
 20
31.4906215126
 10
38.6703709614
 20
31.4716696691
 10
38.6840051362
 20
31.4571879549
 10
38.7041108333
 20
31.4493810799
 10
38.7276271424
 20
31.44943757
 10
38.7509739187
 20
31.4573488251
 10
38.7705968272
 20
31.4719104283
  0
LINE
  5
3D2
330
1F
100
AcDbEntity
  8
0
  6
Continuous
 62
     7
370
    25
100
AcDbLine
 10
38.7370059981
 20
31.5383446575
 30
0.0
 11
38.6952010062
 21
31.5217169741
 31
0.0
  0
LINE
  5
3D3
330
1F
100
AcDbEntity
  8
0
  6
Continuous
 62
     7
370
    25
100
AcDbLine
 10
38.6847085681
 20
31.48440419
 30
0.0
 11
38.6952010062
 21
31.5217169741
 31
0.0
  0
LINE
  5
3D4
330
1F
100
AcDbEntity
  8
0
  6
Continuous
 62
     7
370
    25
100
AcDbLine
 10
38.716021122
 20
31.4637190893
 30
0.0
 11
38.6847085681
 21
31.48440419
 31
0.0
  0
LINE
  5
3D5
330
1F
100
AcDbEntity
  8
0
  6
Continuous
 62
     7
370
    25
100
AcDbLine
 10
38.716021122
 20
31.4637190893
 30
0.0
 11
38.757826114
 21
31.4803467727
 31
0.0
  0
LINE
  5
3D6
330
1F
100
AcDbEntity
  8
0
  6
Continuous
 62
     7
370
    25
100
AcDbLine
 10
38.768318552
 20
31.5176595568
 30
0.0
 11
38.757826114
 21
31.4803467727
 31
0.0
  0
LINE
  5
3D7
330
1F
100
AcDbEntity
  8
0
  6
Continuous
 62
     7
370
    25
100
AcDbLine
 10
38.768318552
 20
31.5176595568
 30
0.0
 11
38.7370059981
 21
31.5383446575
 31
0.0
  0
LINE
  5
3D8
330
1F
100
AcDbEntity
  8
0
  6
Continuous
 62
     7
370
    25
100
AcDbLine
 10
38.6928975934
 20
31.5135256708
 30
0.0
 11
38.716021122
 21
31.4637190893
 31
0.0
  0
LINE
  5
3D9
330
1F
100
AcDbEntity
  8
0
  6
Continuous
 62
     7
370
    25
100
AcDbLine
 10
38.7345323999
 20
31.5305199227
 30
0.0
 11
38.757826114
 21
31.4803467727
 31
0.0
  0
LINE
  5
3DA
330
1F
100
AcDbEntity
  8
0
  6
Continuous
 62
     7
370
    25
100
AcDbLine
 10
38.7366983201
 20
31.5382222805
 30
0.0
 11
38.7345323999
 21
31.5305199227
 31
0.0
  0
LINE
  5
3DB
330
1F
100
AcDbEntity
  8
0
  6
Continuous
 62
     7
370
    25
100
AcDbLine
 10
38.693035086
 20
31.5140146164
 30
0.0
 11
38.7345323999
 21
31.5305199227
 31
0.0
  0
ARC
  5
3DC
330
1F
100
AcDbEntity
  8
0
  6
Continuous
 62
     7
370
    25
100
AcDbCircle
 10
38.8286434015
 20
35.5750610818
 30
0.0
 40
0.2458477632563842
100
AcDbArc
 50
293.6152052767
 51
355.051251408
  0
LWPOLYLINE
  5
3DD
330
1F
100
AcDbEntity
  8
0
  6
Continuous
 62
     7
370
    25
100
AcDbPolyline
 90
       15
 70
   128
 43
0.0
 10
38.0735747084
 20
35.5538531213
 10
38.0790842213
 20
35.5111320634
 10
38.0987066833
 20
35.4635149486
 10
38.1319902338
 20
35.4184966985
 10
38.1779773656
 20
35.3773724063
 10
38.2353451127
 20
35.3413251429
 10
38.3024431095
 20
35.3113919225
 10
38.3773410687
 20
35.2884338694
 10
38.4578843124
 20
35.2731114449
 10
38.5417557582
 20
35.2658654472
 10
38.6265425773
 20
35.2669043307
 10
38.7098056072
 20
35.2761982083
 10
38.7891495222
 20
35.2934797123
 10
38.8622917423
 20
35.3182516853
 10
38.927128099
 20
35.3498014825
  0
LWPOLYLINE
  5
3DE
330
1F
100
AcDbEntity
  8
0
  6
Continuous
 62
     7
370
    25
100
AcDbPolyline
 90
       15
 70
   128
 43
0.0
 10
42.462662005
 20
26.3656568759
 10
42.3978256483
 20
26.3341070786
 10
42.3246834282
 20
26.3093351057
 10
42.2453395132
 20
26.2920536017
 10
42.1620764832
 20
26.282759724
 10
42.0772896642
 20
26.2817208406
 10
41.9934182184
 20
26.2889668382
 10
41.9128749746
 20
26.3042892627
 10
41.8379770154
 20
26.3272473159
 10
41.7708790186
 20
26.3571805362
 10
41.7135112715
 20
26.3932277996
 10
41.6675241397
 20
26.4343520919
 10
41.6342405892
 20
26.4793703419
 10
41.6146181273
 20
26.5269874568
 10
41.6091086144
 20
26.5697085147
  0
ARC
  5
3DF
330
1F
100
AcDbEntity
  8
0
  6
Continuous
 62
     7
370
    25
100
AcDbCircle
 10
42.358218489
 20
26.5951930826
 30
0.0
 40
0.2521811218511587
100
AcDbArc
 50
294.466474385
 51
354.1999822997
  0
ARC
  5
3E0
330
1F
100
AcDbEntity
  8
0
  6
Continuous
 62
     7
370
    25
100
AcDbCircle
 10
41.8540399213
 20
26.5909164751
 30
0.0
 40
0.2458477632563909
100
AcDbArc
 50
184.948748592
 51
246.3847947233
  0
LWPOLYLINE
  5
3E1
330
1F
100
AcDbEntity
  8
0
  6
Continuous
 62
     7
370
    25
100
AcDbPolyline
 90
       15
 70
   128
 43
0.0
 10
42.6091086144
 20
26.5697085147
 10
42.6035991015
 20
26.5269874568
 10
42.5839766395
 20
26.4793703419
 10
42.550693089
 20
26.4343520919
 10
42.5047059572
 20
26.3932277996
 10
42.4473382101
 20
26.3571805362
 10
42.3802402134
 20
26.3272473159
 10
42.3053422541
 20
26.3042892627
 10
42.2247990104
 20
26.2889668382
 10
42.1409275646
 20
26.2817208406
 10
42.0561407455
 20
26.282759724
 10
41.9728777156
 20
26.2920536017
 10
41.8935338006
 20
26.3093351057
 10
41.8203915805
 20
26.3341070786
 10
41.7555552238
 20
26.3656568759
  0
LINE
  5
3E2
330
1F
100
AcDbEntity
  8
0
  6
Continuous
 62
     7
370
    25
100
AcDbLine
 10
42.7384336496
 20
18.7665260903
 30
0.0
 11
42.6972858468
 21
20.1036248907
 31
0.0
  0
LINE
  5
3E3
330
1F
100
AcDbEntity
  8
0
  6
Continuous
 62
     7
370
    25
100
AcDbLine
 10
39.5493820665
 20
20.6070718723
 30
0.0
 11
39.5082342637
 21
21.9441706727
 31
0.0
  0
LINE
  5
3E4
330
1F
100
AcDbEntity
  8
0
  6
Continuous
 62
     7
370
    25
100
AcDbLine
 10
44.3624879965
 20
21.5450957258
 30
0.0
 11
42.6091086144
 21
22.5570502025
 31
0.0
  0
LINE
  5
3E5
330
1F
100
AcDbEntity
  8
0
  6
Continuous
 62
     7
370
    25
100
AcDbLine
 10
41.6091086144
 20
23.1341953925
 30
0.0
 11
41.5151389182
 21
23.1884295507
 31
0.0
  0
LINE
  5
3E6
330
1F
100
AcDbEntity
  8
0
  6
Continuous
 62
     7
370
    25
100
AcDbLine
 10
41.545022542
 20
23.198025445
 30
0.0
 11
41.6091086144
 21
23.1610384766
 31
0.0
  0
LINE
  5
3E7
330
1F
100
AcDbEntity
  8
0
  6
Continuous
 62
     7
370
    25
100
AcDbLine
 10
42.6091086144
 20
22.5838932866
 30
0.0
 11
44.3923716204
 21
21.5546916201
 31
0.0
  0
ARC
  5
3E8
330
1F
100
AcDbEntity
  8
0
  6
Continuous
 62
     7
370
    25
100
AcDbCircle
 10
38.8840238081
 20
34.2254892732
 30
0.0
 40
0.1845715655801803
100
AcDbArc
 50
324.9772773835
 51
359.1426070297
  0
LWPOLYLINE
  5
3E9
330
1F
100
AcDbEntity
  8
0
  6
Continuous
 62
     7
370
    25
100
AcDbPolyline
 90
        7
 70
   128
 43
0.0
 10
38.1408321734
 20
34.0759708922
 10
38.0760543925
 20
34.1059741204
 10
38.0208806499
 20
34.1418060514
 10
37.9768643583
 20
34.1824578398
 10
37.9452447932
 20
34.2267849374
 10
37.9269122015
 20
34.2735393179
 10
37.9221683099
 20
34.312996587
  0
LWPOLYLINE
  5
3EA
330
1F
100
AcDbEntity
  8
0
  6
Continuous
 62
     7
370
    25
100
AcDbPolyline
 90
        3
 70
   128
 43
0.0
 10
38.1628882835
 20
34.0632413144
 10
38.0981105026
 20
34.0932445425
 10
38.0783522826
 20
34.1047209687
  0
ARC
  5
3EB
330
1F
100
AcDbEntity
  8
0
  6
Continuous
 62
     7
370
    25
100
AcDbCircle
 10
38.8285401611
 20
36.800139765
 30
0.0
 40
0.2459957321486875
100
AcDbArc
 50
293.6263817811
 51
354.9320685214
  0
LWPOLYLINE
  5
3EC
330
1F
100
AcDbEntity
  8
0
  6
Continuous
 62
     7
370
    25
100
AcDbPolyline
 90
       15
 70
   128
 43
0.0
 10
38.0735747292
 20
36.7787322457
 10
38.0790842213
 20
36.7360943962
 10
38.0987066833
 20
36.6884772813
 10
38.1319902338
 20
36.6434590313
 10
38.1779773656
 20
36.602334739
 10
38.2353451127
 20
36.5662874756
 10
38.3024431095
 20
36.5363542553
 10
38.3773410687
 20
36.5133962021
 10
38.4578843124
 20
36.4980737776
 10
38.5417557582
 20
36.49082778
 10
38.6265425773
 20
36.4918666634
 10
38.7098056072
 20
36.5011605411
 10
38.7891495222
 20
36.5184420451
 10
38.8622917423
 20
36.543214018
 10
38.927128099
 20
36.5747638153
  0
LWPOLYLINE
  5
3ED
330
1F
100
AcDbEntity
  8
0
  6
Continuous
 62
     7
370
    25
100
AcDbPolyline
 90
       15
 70
   128
 43
0.0
 10
42.462662005
 20
38.6152802033
 10
42.3978256483
 20
38.583730406
 10
42.3246834282
 20
38.5589584331
 10
42.2453395132
 20
38.5416769291
 10
42.1620764832
 20
38.5323830514
 10
42.0772896642
 20
38.531344168
 10
41.9934182184
 20
38.5385901656
 10
41.9128749746
 20
38.5539125901
 10
41.8379770154
 20
38.5768706433
 10
41.7708790186
 20
38.6068038637
 10
41.7135112715
 20
38.642851127
 10
41.6675241397
 20
38.6839754193
 10
41.6342405892
 20
38.7289936694
 10
41.6146181273
 20
38.7766107842
 10
41.6091098857
 20
38.8186810858
  0
ARC
  5
3EE
330
1F
100
AcDbEntity
  8
0
  6
Continuous
 62
     7
370
    25
100
AcDbCircle
 10
42.3582149844
 20
38.8448206047
 30
0.0
 40
0.252186391326726
100
AcDbArc
 50
294.4668044176
 51
354.1960752331
  0
LINE
  5
3EF
330
1F
100
AcDbEntity
  8
0
  6
Continuous
 62
     7
370
    25
100
AcDbLine
 10
28.512451976
 20
4.7182838334
 30
0.0
 11
28.512451976
 21
5.6170338334
 31
0.0
  0
LINE
  5
3F0
330
1F
100
AcDbEntity
  8
0
  6
Continuous
 62
     7
370
    25
100
AcDbLine
 10
28.512451976
 20
2.864423454
 30
0.0
 11
28.512451976
 21
4.5482838334
 31
0.0
  0
LINE
  5
3F1
330
1F
100
AcDbEntity
  8
0
  6
Continuous
 62
     7
370
    25
100
AcDbLine
 10
28.512451976
 20
2.4670338334
 30
0.0
 11
28.512451976
 21
2.6956192998
 31
0.0
  0
LINE
  5
3F2
330
1F
100
AcDbEntity
  8
0
  6
Continuous
 62
     7
370
    25
100
AcDbLine
 10
25.737451976
 20
5.6170338334
 30
0.0
 11
25.737451976
 21
2.4670338334
 31
0.0
  0
ARC
  5
3F3
330
1F
100
AcDbEntity
  8
0
  6
Continuous
 62
     7
370
    25
100
AcDbCircle
 10
25.774951976
 20
5.6170338334
 30
0.0
 40
0.0375000000000014
100
AcDbArc
 50
90.0
 51
180.0
  0
ARC
  5
3F4
330
1F
100
AcDbEntity
  8
0
  6
Continuous
 62
     7
370
    25
100
AcDbCircle
 10
28.474951976
 20
5.6170338334
 30
0.0
 40
0.0375000000000014
100
AcDbArc
 50
0.0
 51
90.0
  0
SPLINE
  5
3F5
330
1F
100
AcDbEntity
  8
0
  6
Continuous
 62
     7
370
    25
100
AcDbSpline
210
0.0
220
0.0
230
1.0
 70
     8
 71
     3
 72
    34
 73
    30
 74
     0
 42
0.00000001
 43
0.00000001
 40
0.0
 40
0.0
 40
0.0
 40
0.0
 40
0.0624999999999994
 40
0.0624999999999994
 40
0.1249999999999988
 40
0.1249999999999988
 40
0.1874999999999982
 40
0.1874999999999982
 40
0.2499999999999976
 40
0.2499999999999976
 40
0.312499999999997
 40
0.312499999999997
 40
0.3749999999999964
 40
0.3749999999999964
 40
0.4374999999999958
 40
0.4374999999999958
 40
0.4999999999999952
 40
0.4999999999999952
 40
0.6249999999999978
 40
0.6249999999999978
 40
0.7500000000000004
 40
0.7500000000000004
 40
0.8125000000000004
 40
0.8125000000000004
 40
0.8750000000000002
 40
0.8750000000000002
 40
0.9375000000000001
 40
0.9375000000000001
 40
1.0
 40
1.0
 40
1.0
 40
1.0
 10
28.51245197603272
 20
4.548283833400958
 30
0.0
 10
28.51245197603272
 20
4.548283833400958
 30
0.0
 10
28.51241765470364
 20
4.548838952797579
 30
0.0
 10
28.51228697790585
 20
4.5510139373715
 30
0.0
 10
28.51219135402512
 20
4.552621759673682
 30
0.0
 10
28.51195001935617
 20
4.556884550234689
 30
0.0
 10
28.51180405578229
 20
4.559548524313248
 30
0.0
 10
28.5114903018031
 20
4.565706222236678
 30
0.0
 10
28.51132117065527
 20
4.569221234528024
 30
0.0
 10
28.51097705309606
 20
4.577159088195166
 30
0.0
 10
28.51080764009604
 20
4.581458689325865
 30
0.0
 10
28.51049384286903
 20
4.590667067941226
 30
0.0
 10
28.51034794950646
 20
4.59563720055733
 30
0.0
 10
28.51010629610795
 20
4.605938704579608
 30
0.0
 10
28.51001066075884
 20
4.611238758326702
 30
0.0
 10
28.50988009032566
 20
4.622134530339074
 30
0.0
 10
28.50984578833822
 20
4.627769846498289
 30
0.0
 10
28.50984619971577
 20
4.644414491454167
 30
0.0
 10
28.50998794217414
 20
4.655599104821827
 30
0.0
 10
28.51046861942112
 20
4.676058977346259
 30
0.0
 10
28.51080945860883
 20
4.685543237278431
 30
0.0
 10
28.51131924149904
 20
4.697301628403071
 30
0.0
 10
28.51149169253618
 20
4.700890308832601
 30
0.0
 10
28.51180635989961
 20
4.707062774363807
 30
0.0
 10
28.51194946028408
 20
4.709672980709679
 30
0.0
 10
28.51219082459658
 20
4.713936815191717
 30
0.0
 10
28.51228819207701
 20
4.715574101405525
 30
0.0
 10
28.51241796999856
 20
4.717733796525732
 30
0.0
 10
28.51245197603272
 20
4.718283833400958
 30
0.0
 10
28.51245197603272
 20
4.718283833400958
 30
0.0
  0
SPLINE
  5
3F6
330
1F
100
AcDbEntity
  8
0
  6
Continuous
 62
     7
370
    25
100
AcDbSpline
210
0.0
220
0.0
230
1.0
 70
     8
 71
     3
 72
    17
 73
    13
 74
     0
 42
0.00000001
 43
0.00000001
 40
0.0
 40
0.0
 40
0.0
 40
0.0
 40
0.0367829129270418
 40
0.1439469936102648
 40
0.2511849014537385
 40
0.3585983106853279
 40
0.4660155695098329
 40
0.5732581291689535
 40
0.6804203613538242
 40
0.7877217257819819
 40
0.8951646959147114
 40
1.0
 40
1.0
 40
1.0
 40
1.0
 10
28.5123860900667
 20
2.695619299849658
 30
0.0
 10
28.51240413248611
 20
2.695321647557759
 30
0.0
 10
28.51247474005427
 20
2.694156809072968
 30
0.0
 10
28.51199382309566
 20
2.702020137319353
 30
0.0
 10
28.51114647148354
 20
2.718386338430843
 30
0.0
 10
28.5102619529976
 20
2.742299998991978
 30
0.0
 10
28.50977606450853
 20
2.770252125479074
 30
0.0
 10
28.50988884730715
 20
2.799263076332368
 30
0.0
 10
28.51055649176269
 20
2.826074683057325
 30
0.0
 10
28.51147160578364
 20
2.847471357292061
 30
0.0
 10
28.51228273845485
 20
2.861845454655084
 30
0.0
 10
28.51239161946964
 20
2.863571187293213
 30
0.0
 10
28.51244539121966
 20
2.864423454000933
 30
0.0
  0
SPLINE
  5
3F7
330
1F
100
AcDbEntity
  8
0
  6
Continuous
 62
     7
370
    25
100
AcDbSpline
210
0.0
220
0.0
230
1.0
 70
    11
 71
     3
 72
    56
 73
    52
 74
     0
 42
0.00000001
 43
0.00000001
 40
0.0
 40
0.0
 40
0.0
 40
0.0
 40
0.0312500000000001
 40
0.0312500000000001
 40
0.0625000000000002
 40
0.0625000000000002
 40
0.0937500000000003
 40
0.0937500000000003
 40
0.1250000000000004
 40
0.1250000000000004
 40
0.1875000000000003
 40
0.1875000000000003
 40
0.2500000000000002
 40
0.2500000000000002
 40
0.2812500000000001
 40
0.2812500000000001
 40
0.3125
 40
0.3125
 40
0.3437499999999999
 40
0.3437499999999999
 40
0.3749999999999999
 40
0.3749999999999999
 40
0.4062499999999998
 40
0.4062499999999998
 40
0.4374999999999997
 40
0.4374999999999997
 40
0.4687499999999997
 40
0.4687499999999997
 40
0.4999999999999996
 40
0.4999999999999996
 40
0.5624999999999998
 40
0.5624999999999998
 40
0.6249999999999998
 40
0.6249999999999998
 40
0.65625
 40
0.65625
 40
0.6875000000000002
 40
0.6875000000000002
 40
0.7187500000000004
 40
0.7187500000000004
 40
0.7500000000000007
 40
0.7500000000000007
 40
0.812500000000001
 40
0.812500000000001
 40
0.8437500000000012
 40
0.8437500000000012
 40
0.8750000000000011
 40
0.8750000000000011
 40
0.9375000000000006
 40
0.9375000000000006
 40
1.0
 40
1.0
 40
1.0
 40
1.0
 10
26.50611716085022
 20
2.779533833400962
 30
0.0
 10
26.50611716085022
 20
2.77391691370349
 30
0.0
 10
26.50562266080522
 20
2.768394119933385
 30
0.0
 10
26.50368721883565
 20
2.757529004638156
 30
0.0
 10
26.50222273781205
 20
2.752130310585161
 30
0.0
 10
26.49840657610714
 20
2.741837271432912
 30
0.0
 10
26.49607383234536
 20
2.736955621408469
 30
0.0
 10
26.49057465144846
 20
2.72771689007081
 30
0.0
 10
26.48737985418567
 20
2.723343634677676
 30
0.0
 10
26.47693975090902
 20
2.711585038652069
 30
0.0
 10
26.46855882508741
 20
2.705252581915623
 30
0.0
 10
26.45060458649467
 20
2.696773414161624
 30
0.0
 10
26.44084547867619
 20
2.694539798434819
 30
0.0
 10
26.42643949711525
 20
2.694530869253445
 30
0.0
 10
26.42157901628121
 20
2.695082738812614
 30
0.0
 10
26.41220234921392
 20
2.697251348017487
 30
0.0
 10
26.40766087618078
 20
2.69885591311608
 30
0.0
 10
26.39886780367925
 20
2.703111689710201
 30
0.0
 10
26.39463083473965
 20
2.705772472394648
 30
0.0
 10
26.38681105451867
 20
2.711923699474637
 30
0.0
 10
26.3831774546302
 20
2.715435380236113
 30
0.0
 10
26.3764746892588
 20
2.723366019219704
 30
0.0
 10
26.37350954774754
 20
2.72766374293741
 30
0.0
 10
26.36833386546349
 20
2.736866489123156
 30
0.0
 10
26.36610147970916
 20
2.741833371784344
 30
0.0
 10
26.3625253092458
 20
2.752131228467176
 30
0.0
 10
26.36118010626729
 20
2.757429452589513
 30
0.0
 10
26.35936041475344
 20
2.768321428489187
 30
0.0
 10
26.35889450934996
 20
2.773955657563081
 30
0.0
 10
26.35888952162908
 20
2.790598700523525
 30
0.0
 10
26.3607447287484
 20
2.801782984609374
 30
0.0
 10
26.3678332264457
 20
2.822246948947178
 30
0.0
 10
26.37314208729018
 20
2.831735384649843
 30
0.0
 10
26.38305757354805
 20
2.843501834482365
 30
0.0
 10
26.38675365186668
 20
2.847093661643909
 30
0.0
 10
26.39459753893495
 20
2.853274095297169
 30
0.0
 10
26.39875126096844
 20
2.855888303237813
 30
0.0
 10
26.40753274018672
 20
2.860160695481502
 30
0.0
 10
26.41216405616146
 20
2.861803139460213
 30
0.0
 10
26.42150893107648
 20
2.86397299205156
 30
0.0
 10
26.42627150610411
 20
2.864528200532311
 30
0.0
 10
26.44084279399659
 20
2.864544972457543
 30
0.0
 10
26.4504704858869
 20
2.862346458473628
 30
0.0
 10
26.46404127866815
 20
2.855954070056569
 30
0.0
 10
26.4683428274258
 20
2.853346410493189
 30
0.0
 10
26.47650034292311
 20
2.847190548581349
 30
0.0
 10
26.48037823399434
 20
2.843604440261516
 30
0.0
 10
26.49083084116973
 20
2.831848038214789
 30
0.0
 10
26.49648949124546
 20
2.822376146126599
 30
0.0
 10
26.50408924686592
 20
2.801927853334822
 30
0.0
 10
26.50611716085022
 20
2.790767672795905
 30
0.0
 10
26.50611716085022
 20
2.779533833400962
 30
0.0
  0
LINE
  5
3F8
330
1F
100
AcDbEntity
  8
0
  6
Continuous
 62
     7
370
    25
100
AcDbLine
 10
25.737451976
 20
2.4670338334
 30
0.0
 11
28.512451976
 21
2.4670338334
 31
0.0
  0
LINE
  5
3F9
330
1F
100
AcDbEntity
  8
0
  6
Continuous
 62
     7
370
    25
100
AcDbLine
 10
25.774951976
 20
5.6545338334
 30
0.0
 11
28.474951976
 21
5.6545338334
 31
0.0
  0
SPLINE
  5
3FA
330
1F
100
AcDbEntity
  8
0
  6
Continuous
 62
     7
370
    25
100
AcDbSpline
210
0.0
220
0.0
230
1.0
 70
     8
 71
     3
 72
    15
 73
    11
 74
     0
 42
0.00000001
 43
0.00000001
 40
0.0
 40
0.0
 40
0.0
 40
0.0
 40
0.0571283598924249
 40
0.1925219633371835
 40
0.3281704236234607
 40
0.4638248310067214
 40
0.59922550896591
 40
0.734509212864131
 40
0.8699947893297308
 40
1.0
 40
1.0
 40
1.0
 40
1.0
 10
26.4561108075889
 20
2.859373029326225
 30
0.0
 10
26.45275173411769
 20
2.858414927099517
 30
0.0
 10
26.44143169235753
 20
2.855186132817471
 30
0.0
 10
26.42566295448903
 20
2.840245262467942
 30
0.0
 10
26.41150440589015
 20
2.816910076821346
 30
0.0
 10
26.4049349620747
 20
2.788820101488604
 30
0.0
 10
26.40638834960732
 20
2.75980060359365
 30
0.0
 10
26.41583446048696
 20
2.733174350333837
 30
0.0
 10
26.43177786609114
 20
2.711356149108115
 30
0.0
 10
26.446342093773
 20
2.703527310479965
 30
0.0
 10
26.45347388734089
 20
2.699693694157018
 30
0.0
  0
LINE
  5
3FB
330
1F
100
AcDbEntity
  8
0
  6
Continuous
 62
     7
370
    25
100
AcDbLine
 10
28.512451976
 20
5.6170338334
 30
0.0
 11
25.737451976
 21
5.6170338334
 31
0.0
  0
DIMENSION
  5
3FC
330
1F
100
AcDbEntity
  8
SLD-0
100
AcDbDimension
  2
_D_9
 10
22.3544853403
 20
2.4670338334
 30
0.0
 11
22.3544853403
 21
4.620456096
 31
0.0
 70
   160
  1
<>
 71
     2
 42
-1.0
  3
SLDDIMSTYLE5
100
AcDbAlignedDimension
 13
25.868701976
 23
5.6545338334
 33
0.0
 14
25.737451976
 24
2.4670338334
 34
0.0
 50
90.0
100
AcDbRotatedDimension
  0
MTEXT
  5
411
330
1F
100
AcDbEntity
  8
SLD-0
100
AcDbMText
 10
25.4893409396
 20
1.4996777245
 30
0.0
 40
0.625
 41
0.0
 71
     1
 72
     1
  1
B/E CAP
  7
SLDTEXTSTYLE0
 73
     1
 44
1.0
  0
LINE
  5
412
330
1F
100
AcDbEntity
  8
0
  6
Continuous
 62
     7
370
    25
100
AcDbLine
 10
17.7398882259
 20
4.699423454
 30
0.0
 11
17.7398882259
 21
5.6232838334
 31
0.0
  0
LINE
  5
413
330
1F
100
AcDbEntity
  8
0
  6
Continuous
 62
     7
370
    25
100
AcDbLine
 10
17.7398882259
 20
2.864423454
 30
0.0
 11
17.7398882259
 21
4.5306192998
 31
0.0
  0
LINE
  5
414
330
1F
100
AcDbEntity
  8
0
  6
Continuous
 62
     7
370
    25
100
AcDbLine
 10
17.7398882259
 20
2.4670338334
 30
0.0
 11
17.7398882259
 21
2.6956192998
 31
0.0
  0
LINE
  5
415
330
1F
100
AcDbEntity
  8
0
  6
Continuous
 62
     7
370
    25
100
AcDbLine
 10
14.9648882259
 20
8.3982838334
 30
0.0
 11
14.9648882259
 21
2.4670338334
 31
0.0
  0
LINE
  5
416
330
1F
100
AcDbEntity
  8
0
  6
Continuous
 62
     7
370
    25
100
AcDbLine
 10
14.9648882259
 20
8.3982838334
 30
0.0
 11
17.7398882259
 21
5.6232838334
 31
0.0
  0
LINE
  5
417
330
1F
100
AcDbEntity
  8
0
  6
Continuous
 62
     7
370
    25
100
AcDbLine
 10
14.9648882259
 20
2.4670338334
 30
0.0
 11
17.7398882259
 21
2.4670338334
 31
0.0
  0
SPLINE
  5
418
330
1F
100
AcDbEntity
  8
0
  6
Continuous
 62
     7
370
    25
100
AcDbSpline
210
0.0
220
0.0
230
1.0
 70
     8
 71
     3
 72
    17
 73
    13
 74
     0
 42
0.00000001
 43
0.00000001
 40
0.0
 40
0.0
 40
0.0
 40
0.0
 40
0.0367829129270422
 40
0.1439469936102728
 40
0.2511849014537529
 40
0.3585983106853359
 40
0.4660155695098233
 40
0.5732581291689255
 40
0.6804203613538459
 40
0.787721725781991
 40
0.895164695914705
 40
1.0
 40
1.0
 40
1.0
 40
1.0
 10
17.73982233994744
 20
4.530619299849674
 30
0.0
 10
17.73984038236685
 20
4.530321647557774
 30
0.0
 10
17.73991098993501
 20
4.529156809072981
 30
0.0
 10
17.73943007297641
 20
4.53702013731937
 30
0.0
 10
17.73858272136427
 20
4.553386338430864
 30
0.0
 10
17.73769820287834
 20
4.577299998991992
 30
0.0
 10
17.73721231438925
 20
4.605252125479086
 30
0.0
 10
17.7373250971879
 20
4.63426307633238
 30
0.0
 10
17.73799274164343
 20
4.661074683057341
 30
0.0
 10
17.73890785566438
 20
4.682471357292076
 30
0.0
 10
17.7397189883356
 20
4.696845454655088
 30
0.0
 10
17.73982786935038
 20
4.698571187293221
 30
0.0
 10
17.73988164110039
 20
4.699423454000944
 30
0.0
  0
SPLINE
  5
419
330
1F
100
AcDbEntity
  8
0
  6
Continuous
 62
     7
370
    25
100
AcDbSpline
210
0.0
220
0.0
230
1.0
 70
     8
 71
     3
 72
    17
 73
    13
 74
     0
 42
0.00000001
 43
0.00000001
 40
0.0
 40
0.0
 40
0.0
 40
0.0
 40
0.0367829129270434
 40
0.1439469936102681
 40
0.2511849014537393
 40
0.3585983106853283
 40
0.4660155695098131
 40
0.5732581291689229
 40
0.6804203613538218
 40
0.78772172578198
 40
0.8951646959146867
 40
0.9999999999999999
 40
0.9999999999999999
 40
0.9999999999999999
 40
0.9999999999999999
 10
17.73982233994744
 20
2.695619299849648
 30
0.0
 10
17.73984038236685
 20
2.695321647557745
 30
0.0
 10
17.73991098993501
 20
2.694156809072935
 30
0.0
 10
17.7394300729764
 20
2.702020137319335
 30
0.0
 10
17.73858272136427
 20
2.71838633843082
 30
0.0
 10
17.73769820287833
 20
2.742299998991954
 30
0.0
 10
17.73721231438927
 20
2.770252125479048
 30
0.0
 10
17.73732509718788
 20
2.799263076332341
 30
0.0
 10
17.73799274164343
 20
2.826074683057299
 30
0.0
 10
17.73890785566438
 20
2.847471357292043
 30
0.0
 10
17.73971898833559
 20
2.861845454655038
 30
0.0
 10
17.73982786935038
 20
2.863571187293203
 30
0.0
 10
17.7398816411004
 20
2.864423454000939
 30
0.0
  0
SPLINE
  5
41A
330
1F
100
AcDbEntity
  8
0
  6
Continuous
 62
     7
370
    25
100
AcDbSpline
210
0.0
220
0.0
230
1.0
 70
    11
 71
     3
 72
    56
 73
    52
 74
     0
 42
0.00000001
 43
0.00000001
 40
0.0
 40
0.0
 40
0.0
 40
0.0
 40
0.0312499999999997
 40
0.0312499999999997
 40
0.0624999999999994
 40
0.0624999999999994
 40
0.0937499999999991
 40
0.0937499999999991
 40
0.1249999999999988
 40
0.1249999999999988
 40
0.1874999999999983
 40
0.1874999999999983
 40
0.2499999999999978
 40
0.2499999999999978
 40
0.2812499999999978
 40
0.2812499999999978
 40
0.3124999999999978
 40
0.3124999999999978
 40
0.3437499999999978
 40
0.3437499999999978
 40
0.3749999999999979
 40
0.3749999999999979
 40
0.4062499999999979
 40
0.4062499999999979
 40
0.4374999999999979
 40
0.4374999999999979
 40
0.4687499999999979
 40
0.4687499999999979
 40
0.499999999999998
 40
0.499999999999998
 40
0.562499999999998
 40
0.562499999999998
 40
0.6249999999999981
 40
0.6249999999999981
 40
0.656249999999998
 40
0.656249999999998
 40
0.6874999999999979
 40
0.6874999999999979
 40
0.7187499999999979
 40
0.7187499999999979
 40
0.7499999999999978
 40
0.7499999999999978
 40
0.8124999999999984
 40
0.8124999999999984
 40
0.8437499999999989
 40
0.8437499999999989
 40
0.8749999999999992
 40
0.8749999999999992
 40
0.9374999999999996
 40
0.9374999999999996
 40
1.0
 40
1.0
 40
1.0
 40
1.0
 10
15.73355341073096
 20
2.779533833400953
 30
0.0
 10
15.73355341073096
 20
2.773916913703484
 30
0.0
 10
15.73305891068595
 20
2.768394119933384
 30
0.0
 10
15.73112346871638
 20
2.757529004638162
 30
0.0
 10
15.72965898769278
 20
2.752130310585172
 30
0.0
 10
15.72584282598788
 20
2.741837271432924
 30
0.0
 10
15.7235100822261
 20
2.736955621408482
 30
0.0
 10
15.71801090132919
 20
2.727716890070823
 30
0.0
 10
15.7148161040664
 20
2.723343634677691
 30
0.0
 10
15.70437600078975
 20
2.711585038652086
 30
0.0
 10
15.69599507496814
 20
2.705252581915641
 30
0.0
 10
15.67804083637541
 20
2.696773414161644
 30
0.0
 10
15.66828172855692
 20
2.694539798434839
 30
0.0
 10
15.65387574699599
 20
2.694530869253467
 30
0.0
 10
15.64901526616194
 20
2.695082738812635
 30
0.0
 10
15.63963859909466
 20
2.697251348017509
 30
0.0
 10
15.63509712606152
 20
2.698855913116102
 30
0.0
 10
15.62630405355999
 20
2.703111689710224
 30
0.0
 10
15.62206708462038
 20
2.705772472394671
 30
0.0
 10
15.61424730439941
 20
2.71192369947466
 30
0.0
 10
15.61061370451093
 20
2.715435380236136
 30
0.0
 10
15.60391093913953
 20
2.723366019219727
 30
0.0
 10
15.60094579762828
 20
2.727663742937433
 30
0.0
 10
15.59577011534423
 20
2.736866489123179
 30
0.0
 10
15.5935377295899
 20
2.741833371784368
 30
0.0
 10
15.58996155912654
 20
2.7521312284672
 30
0.0
 10
15.58861635614802
 20
2.757429452589537
 30
0.0
 10
15.58679666463417
 20
2.768321428489212
 30
0.0
 10
15.5863307592307
 20
2.773955657563104
 30
0.0
 10
15.58632577150982
 20
2.790598700523544
 30
0.0
 10
15.58818097862914
 20
2.801782984609392
 30
0.0
 10
15.59526947632643
 20
2.822246948947197
 30
0.0
 10
15.60057833717091
 20
2.831735384649863
 30
0.0
 10
15.61049382342879
 20
2.843501834482387
 30
0.0
 10
15.61418990174742
 20
2.847093661643931
 30
0.0
 10
15.62203378881569
 20
2.853274095297191
 30
0.0
 10
15.62618751084917
 20
2.855888303237835
 30
0.0
 10
15.63496899006746
 20
2.860160695481524
 30
0.0
 10
15.63960030604219
 20
2.861803139460235
 30
0.0
 10
15.64894518095721
 20
2.863972992051582
 30
0.0
 10
15.65370775598485
 20
2.864528200532333
 30
0.0
 10
15.66827904387733
 20
2.864544972457565
 30
0.0
 10
15.67790673576764
 20
2.862346458473649
 30
0.0
 10
15.69147752854889
 20
2.855954070056588
 30
0.0
 10
15.69577907730654
 20
2.853346410493208
 30
0.0
 10
15.70393659280385
 20
2.847190548581366
 30
0.0
 10
15.70781448387508
 20
2.843604440261532
 30
0.0
 10
15.71826709105047
 20
2.831848038214805
 30
0.0
 10
15.7239257411262
 20
2.822376146126611
 30
0.0
 10
15.73152549674666
 20
2.801927853334823
 30
0.0
 10
15.73355341073096
 20
2.790767672795891
 30
0.0
 10
15.73355341073096
 20
2.779533833400953
 30
0.0
  0
SPLINE
  5
41B
330
1F
100
AcDbEntity
  8
0
  6
Continuous
 62
     7
370
    25
100
AcDbSpline
210
0.0
220
0.0
230
1.0
 70
     8
 71
     3
 72
    15
 73
    11
 74
     0
 42
0.00000001
 43
0.00000001
 40
0.0
 40
0.0
 40
0.0
 40
0.0
 40
0.0571283598920307
 40
0.1925219633367883
 40
0.3281704236230482
 40
0.4638248310063162
 40
0.5992255089654975
 40
0.7345092128637103
 40
0.8699947893293228
 40
1.0
 40
1.0
 40
1.0
 40
1.0
 10
15.68354705746957
 20
2.859373029326256
 30
0.0
 10
15.68018798399838
 20
2.858414927099555
 30
0.0
 10
15.66886794223824
 20
2.855186132817512
 30
0.0
 10
15.65309920436976
 20
2.840245262467991
 30
0.0
 10
15.63894065577088
 20
2.816910076821399
 30
0.0
 10
15.63237121195543
 20
2.788820101488656
 30
0.0
 10
15.63382459948805
 20
2.759800603593703
 30
0.0
 10
15.64327071036769
 20
2.733174350333885
 30
0.0
 10
15.65921411597191
 20
2.711356149108149
 30
0.0
 10
15.67377834365379
 20
2.703527310479987
 30
0.0
 10
15.68091013722171
 20
2.699693694157028
 30
0.0
  0
DIMENSION
  5
41C
330
1F
100
AcDbEntity
  8
SLD-0
100
AcDbDimension
  2
_D_10
 10
12.2166886928
 20
2.4670338334
 30
0.0
 11
12.2166886928
 21
5.5609650547
 31
0.0
 70
   160
  1
<>
 71
     2
 42
-1.0
  3
SLDDIMSTYLE6
100
AcDbAlignedDimension
 13
14.9648882259
 23
8.3982838334
 33
0.0
 14
14.9648882259
 24
2.4670338334
 34
0.0
 50
90.0
100
AcDbRotatedDimension
  0
MTEXT
  5
431
330
1F
100
AcDbEntity
  8
SLD-0
100
AcDbMText
 10
14.6469142637
 20
1.5492130636
 30
0.0
 40
0.625
 41
0.0
 71
     1
 72
     1
  1
A/D CAP
  7
SLDTEXTSTYLE0
 73
     1
 44
1.0
  0
ARC
  5
432
330
1F
100
AcDbEntity
  8
0
  6
Continuous
 62
     7
370
    25
100
AcDbCircle
 10
35.4815401706
 20
4.4920338334
 30
0.0
 40
0.0375000000000014
100
AcDbArc
 50
90.0
 51
180.0
  0
ARC
  5
433
330
1F
100
AcDbEntity
  8
0
  6
Continuous
 62
     7
370
    25
100
AcDbCircle
 10
38.1815401706
 20
4.4920338334
 30
0.0
 40
0.0375000000000014
100
AcDbArc
 50
0.0
 51
90.0
  0
LINE
  5
434
330
1F
100
AcDbEntity
  8
0
  6
Continuous
 62
     7
370
    25
100
AcDbLine
 10
38.2190401706
 20
2.863448367
 30
0.0
 11
38.2190401706
 21
4.4920338334
 31
0.0
  0
LINE
  5
435
330
1F
100
AcDbEntity
  8
0
  6
Continuous
 62
     7
370
    25
100
AcDbLine
 10
38.2190401706
 20
2.4670338334
 30
0.0
 11
38.2190401706
 21
2.6946442128
 31
0.0
  0
LINE
  5
436
330
1F
100
AcDbEntity
  8
0
  6
Continuous
 62
     7
370
    25
100
AcDbLine
 10
35.4440401706
 20
4.4920338334
 30
0.0
 11
35.4440401706
 21
2.4670338334
 31
0.0
  0
LINE
  5
437
330
1F
100
AcDbEntity
  8
0
  6
Continuous
 62
     7
370
    25
100
AcDbLine
 10
38.1815401706
 20
4.5295338334
 30
0.0
 11
35.4815401706
 21
4.5295338334
 31
0.0
  0
LINE
  5
438
330
1F
100
AcDbEntity
  8
0
  6
Continuous
 62
     7
370
    25
100
AcDbLine
 10
38.2190401706
 20
2.4670338334
 30
0.0
 11
35.4440401706
 21
2.4670338334
 31
0.0
  0
SPLINE
  5
439
330
1F
100
AcDbEntity
  8
0
  6
Continuous
 62
     7
370
    25
100
AcDbSpline
210
0.0
220
0.0
230
1.0
 70
     8
 71
     3
 72
    17
 73
    13
 74
     0
 42
0.00000001
 43
0.00000001
 40
0.0
 40
0.0
 40
0.0
 40
0.0
 40
0.0367829129270518
 40
0.1439469936102707
 40
0.2511849014537451
 40
0.3585983106853361
 40
0.4660155695098217
 40
0.5732581291689326
 40
0.6804203613538332
 40
0.7877217257819903
 40
0.8951646959147057
 40
1.0
 40
1.0
 40
1.0
 40
1.0
 10
38.21897428464235
 20
2.863448366952235
 30
0.0
 10
38.21899232706176
 20
2.863746019244134
 30
0.0
 10
38.21906293462992
 20
2.864910857728924
 30
0.0
 10
38.21858201767132
 20
2.857047529482539
 30
0.0
 10
38.21773466605919
 20
2.840681328371049
 30
0.0
 10
38.21685014757325
 20
2.816767667809916
 30
0.0
 10
38.21636425908418
 20
2.788815541322823
 30
0.0
 10
38.21647704188281
 20
2.75980459046953
 30
0.0
 10
38.21714468633835
 20
2.732992983744571
 30
0.0
 10
38.2180598003593
 20
2.71159630950983
 30
0.0
 10
38.21887093303052
 20
2.697222212146819
 30
0.0
 10
38.2189798140453
 20
2.695496479508688
 30
0.0
 10
38.21903358579531
 20
2.694644212800968
 30
0.0
  0
SPLINE
  5
43A
330
1F
100
AcDbEntity
  8
0
  6
Continuous
 62
     7
370
    25
100
AcDbSpline
210
0.0
220
0.0
230
1.0
 70
    11
 71
     3
 72
    56
 73
    52
 74
     0
 42
0.00000001
 43
0.00000001
 40
0.0
 40
0.0
 40
0.0
 40
0.0
 40
0.0312500000000001
 40
0.0312500000000001
 40
0.0625000000000002
 40
0.0625000000000002
 40
0.0937500000000003
 40
0.0937500000000003
 40
0.1250000000000004
 40
0.1250000000000004
 40
0.1875000000000001
 40
0.1875000000000001
 40
0.2499999999999999
 40
0.2499999999999999
 40
0.2812499999999997
 40
0.2812499999999997
 40
0.3124999999999996
 40
0.3124999999999996
 40
0.3437499999999994
 40
0.3437499999999994
 40
0.3749999999999991
 40
0.3749999999999991
 40
0.4062499999999988
 40
0.4062499999999988
 40
0.4374999999999985
 40
0.4374999999999985
 40
0.4687499999999982
 40
0.4687499999999982
 40
0.4999999999999979
 40
0.4999999999999979
 40
0.5624999999999976
 40
0.5624999999999976
 40
0.6249999999999972
 40
0.6249999999999972
 40
0.6562499999999971
 40
0.6562499999999971
 40
0.687499999999997
 40
0.687499999999997
 40
0.7187499999999969
 40
0.7187499999999969
 40
0.7499999999999967
 40
0.7499999999999967
 40
0.8124999999999973
 40
0.8124999999999973
 40
0.8437499999999978
 40
0.8437499999999978
 40
0.8749999999999982
 40
0.8749999999999982
 40
0.9374999999999991
 40
0.9374999999999991
 40
1.0
 40
1.0
 40
1.0
 40
1.0
 10
36.21270535542586
 20
2.779533833400953
 30
0.0
 10
36.21270535542586
 20
2.785150753098425
 30
0.0
 10
36.21221085538087
 20
2.79067354686853
 30
0.0
 10
36.21027541341129
 20
2.801538662163759
 30
0.0
 10
36.20881093238769
 20
2.806937356216755
 30
0.0
 10
36.20499477068278
 20
2.817230395369006
 30
0.0
 10
36.20266202692101
 20
2.822112045393449
 30
0.0
 10
36.1971628460241
 20
2.83135077673111
 30
0.0
 10
36.19396804876131
 20
2.835724032124244
 30
0.0
 10
36.18352794548467
 20
2.847482628149851
 30
0.0
 10
36.17514701966306
 20
2.853815084886298
 30
0.0
 10
36.15719278107031
 20
2.862294252640297
 30
0.0
 10
36.14743367325183
 20
2.864527868367103
 30
0.0
 10
36.1330276916909
 20
2.864536797548475
 30
0.0
 10
36.12816721085685
 20
2.863984927989306
 30
0.0
 10
36.11879054378957
 20
2.861816318784433
 30
0.0
 10
36.11424907075643
 20
2.860211753685839
 30
0.0
 10
36.1054559982549
 20
2.855955977091717
 30
0.0
 10
36.1012190293153
 20
2.853295194407271
 30
0.0
 10
36.09339924909432
 20
2.847143967327284
 30
0.0
 10
36.08976564920584
 20
2.843632286565809
 30
0.0
 10
36.08306288383444
 20
2.83570164758222
 30
0.0
 10
36.08009774232318
 20
2.831403923864513
 30
0.0
 10
36.07492206003914
 20
2.822201177678766
 30
0.0
 10
36.07268967428481
 20
2.817234295017577
 30
0.0
 10
36.06911350382145
 20
2.806936438334745
 30
0.0
 10
36.06776830084294
 20
2.801638214212407
 30
0.0
 10
36.06594860932908
 20
2.790746238312733
 30
0.0
 10
36.06548270392561
 20
2.785112009238839
 30
0.0
 10
36.06547771620473
 20
2.768468966278399
 30
0.0
 10
36.06733292332405
 20
2.757284682192551
 30
0.0
 10
36.07442142102134
 20
2.736820717854746
 30
0.0
 10
36.07973028186582
 20
2.72733228215208
 30
0.0
 10
36.0896457681237
 20
2.715565832319556
 30
0.0
 10
36.09334184644232
 20
2.711974005158011
 30
0.0
 10
36.1011857335106
 20
2.705793571504751
 30
0.0
 10
36.10533945554408
 20
2.703179363564108
 30
0.0
 10
36.11412093476236
 20
2.698906971320418
 30
0.0
 10
36.1187522507371
 20
2.697264527341707
 30
0.0
 10
36.12809712565212
 20
2.69509467475036
 30
0.0
 10
36.13285970067975
 20
2.694539466269609
 30
0.0
 10
36.14743098857223
 20
2.694522694344376
 30
0.0
 10
36.15705868046254
 20
2.696721208328291
 30
0.0
 10
36.17062947324379
 20
2.70311359674535
 30
0.0
 10
36.17493102200144
 20
2.70572125630873
 30
0.0
 10
36.18308853749875
 20
2.71187711822057
 30
0.0
 10
36.18696642856998
 20
2.715463226540401
 30
0.0
 10
36.19741903574537
 20
2.727219628587128
 30
0.0
 10
36.20307768582111
 20
2.736691520675317
 30
0.0
 10
36.21067744144156
 20
2.757139813467095
 30
0.0
 10
36.21270535542586
 20
2.768299994006009
 30
0.0
 10
36.21270535542586
 20
2.779533833400953
 30
0.0
  0
SPLINE
  5
43B
330
1F
100
AcDbEntity
  8
0
  6
Continuous
 62
     7
370
    25
100
AcDbSpline
210
0.0
220
0.0
230
1.0
 70
     8
 71
     3
 72
    16
 73
    12
 74
     0
 42
0.00000001
 43
0.00000001
 40
0.0
 40
0.0
 40
0.0
 40
0.0
 40
0.0495715766868802
 40
0.1848910475713107
 40
0.3204652357545618
 40
0.4560453677785874
 40
0.591371909303937
 40
0.726581540815564
 40
0.8619929343625751
 40
0.9976101416485408
 40
1.0
 40
1.0
 40
1.0
 40
1.0
 10
36.16139482039497
 20
2.858929938575906
 30
0.0
 10
36.15848337066353
 20
2.858085075350044
 30
0.0
 10
36.14762430531252
 20
2.854933921859995
 30
0.0
 10
36.1322631027578
 20
2.840210444962775
 30
0.0
 10
36.11809089951471
 20
2.816924953949453
 30
0.0
 10
36.11151799948533
 20
2.78879546679417
 30
0.0
 10
36.11299881342757
 20
2.759884083404517
 30
0.0
 10
36.1223387447682
 20
2.732865090111789
 30
0.0
 10
36.13890638089659
 20
2.712202866828842
 30
0.0
 10
36.15300130870328
 20
2.700598423640204
 30
0.0
 10
36.16124094735152
 20
2.699066839639625
 30
0.0
 10
36.1613836325767
 20
2.699040317310512
 30
0.0
  0
LINE
  5
43C
330
1F
100
AcDbEntity
  8
0
  6
Continuous
 62
     7
370
    25
100
AcDbLine
 10
38.2190401706
 20
4.4920338334
 30
0.0
 11
35.4440401706
 21
4.4920338334
 31
0.0
  0
DIMENSION
  5
43D
330
1F
100
AcDbEntity
  8
SLD-0
100
AcDbDimension
  2
_D_11
 10
33.2442710813
 20
4.5295338334
 30
0.0
 11
33.2442710813
 21
4.1282686721
 31
0.0
 70
   160
  1
<>
 71
     2
 42
-1.0
  3
SLDDIMSTYLE5
100
AcDbAlignedDimension
 13
35.4440401706
 23
2.4670338334
 33
0.0
 14
35.4815401706
 24
4.5295338334
 34
0.0
 50
90.0
100
AcDbRotatedDimension
  0
MTEXT
  5
451
330
1F
100
AcDbEntity
  8
SLD-0
100
AcDbMText
 10
35.6280178732
 20
1.425117599
 30
0.0
 40
0.625
 41
0.0
 71
     1
 72
     1
  1
C CAP
  7
SLDTEXTSTYLE0
 73
     1
 44
1.0
  0
LINE
  5
452
330
1F
100
AcDbEntity
  8
0
  6
Continuous
 62
     7
370
    25
100
AcDbLine
 10
46.3687564521
 20
8.872467637
 30
0.0
 11
46.3737828444
 21
8.872467637
 31
0.0
  0
LINE
  5
453
330
1F
100
AcDbEntity
  8
0
  6
Continuous
 62
     7
370
    25
100
AcDbLine
 10
52.0135243385
 20
8.872467637
 30
0.0
 11
52.0185507309
 21
8.872467637
 31
0.0
  0
ARC
  5
454
330
1F
100
AcDbEntity
  8
0
  6
Continuous
 62
     7
370
    25
100
AcDbCircle
 10
51.2639660915
 20
11.1045290727
 30
0.0
 40
0.2886489604901234
100
AcDbArc
 50
96.0466880975
 51
119.0591099331
  0
ARC
  5
455
330
1F
100
AcDbEntity
  8
0
  6
Continuous
 62
     7
370
    25
100
AcDbCircle
 10
51.2639660915
 20
11.1045290727
 30
0.0
 40
0.2886489604901207
100
AcDbArc
 50
60.9408900669
 51
83.9533119025
  0
ARC
  5
456
330
1F
100
AcDbEntity
  8
0
  6
Continuous
 62
     7
370
    25
100
AcDbCircle
 10
47.1233410915
 20
11.1045290727
 30
0.0
 40
0.2886489604901203
100
AcDbArc
 50
96.2254275715
 51
119.0591099331
  0
ARC
  5
457
330
1F
100
AcDbEntity
  8
0
  6
Continuous
 62
     7
370
    25
100
AcDbCircle
 10
47.1233410915
 20
11.1045290727
 30
0.0
 40
0.2886489604901197
100
AcDbArc
 50
60.9408900669
 51
83.7745724285
  0
LINE
  5
458
330
1F
100
AcDbEntity
  8
0
  6
Continuous
 62
     7
370
    25
100
AcDbLine
 10
52.0124035915
 20
8.8403736408
 30
0.0
 11
52.0874035915
 21
10.988092637
 31
0.0
  0
LINE
  5
459
330
1F
100
AcDbEntity
  8
0
  6
Continuous
 62
     7
370
    25
100
AcDbLine
 10
52.0124035915
 20
8.8403736408
 30
0.0
 11
52.0124035915
 21
10.988092637
 31
0.0
  0
LINE
  5
45A
330
1F
100
AcDbEntity
  8
0
  6
Continuous
 62
     7
370
    25
100
AcDbLine
 10
52.0001016678
 20
8.488092637
 30
0.0
 11
52.0124035915
 21
8.8403736408
 31
0.0
  0
LINE
  5
45B
330
1F
100
AcDbEntity
  8
0
  6
Continuous
 62
     7
370
    25
100
AcDbLine
 10
51.4311535915
 20
8.488092637
 30
0.0
 11
52.0001016678
 21
8.488092637
 31
0.0
  0
LINE
  5
45C
330
1F
100
AcDbEntity
  8
0
  6
Continuous
 62
     7
370
    25
100
AcDbLine
 10
51.4311535915
 20
8.488092637
 30
0.0
 11
51.3530285915
 21
8.488092637
 31
0.0
  0
LINE
  5
45D
330
1F
100
AcDbEntity
  8
0
  6
Continuous
 62
     7
370
    25
100
AcDbLine
 10
47.0342785915
 20
8.488092637
 30
0.0
 11
51.3530285915
 21
8.488092637
 31
0.0
  0
LINE
  5
45E
330
1F
100
AcDbEntity
  8
0
  6
Continuous
 62
     7
370
    25
100
AcDbLine
 10
47.0342785915
 20
8.488092637
 30
0.0
 11
46.9561535915
 21
8.488092637
 31
0.0
  0
LINE
  5
45F
330
1F
100
AcDbEntity
  8
0
  6
Continuous
 62
     7
370
    25
100
AcDbLine
 10
46.3872055152
 20
8.488092637
 30
0.0
 11
46.9561535915
 21
8.488092637
 31
0.0
  0
LINE
  5
460
330
1F
100
AcDbEntity
  8
0
  6
Continuous
 62
     7
370
    25
100
AcDbLine
 10
46.3872055152
 20
8.488092637
 30
0.0
 11
46.3749035915
 21
8.8403736408
 31
0.0
  0
LINE
  5
461
330
1F
100
AcDbEntity
  8
0
  6
Continuous
 62
     7
370
    25
100
AcDbLine
 10
46.3749035915
 20
8.8403736408
 30
0.0
 11
46.3749035915
 21
10.988092637
 31
0.0
  0
LINE
  5
462
330
1F
100
AcDbEntity
  8
0
  6
Continuous
 62
     7
370
    25
100
AcDbLine
 10
46.3749035915
 20
8.8403736408
 30
0.0
 11
46.2999035915
 21
10.988092637
 31
0.0
  0
LINE
  5
463
330
1F
100
AcDbEntity
  8
0
  6
Continuous
 62
     7
370
    25
100
AcDbLine
 10
51.4311535915
 20
8.449030137
 30
0.0
 11
51.3530285915
 21
8.449030137
 31
0.0
  0
LINE
  5
464
330
1F
100
AcDbEntity
  8
0
  6
Continuous
 62
     7
370
    25
100
AcDbLine
 10
51.3530285915
 20
8.449030137
 30
0.0
 11
51.3530285915
 21
8.488092637
 31
0.0
  0
LINE
  5
465
330
1F
100
AcDbEntity
  8
0
  6
Continuous
 62
     7
370
    25
100
AcDbLine
 10
51.4311535915
 20
8.449030137
 30
0.0
 11
51.4311535915
 21
8.488092637
 31
0.0
  0
LINE
  5
466
330
1F
100
AcDbEntity
  8
0
  6
Continuous
 62
     7
370
    25
100
AcDbLine
 10
47.0342785915
 20
8.449030137
 30
0.0
 11
46.9561535915
 21
8.449030137
 31
0.0
  0
LINE
  5
467
330
1F
100
AcDbEntity
  8
0
  6
Continuous
 62
     7
370
    25
100
AcDbLine
 10
46.9561535915
 20
8.449030137
 30
0.0
 11
46.9561535915
 21
8.488092637
 31
0.0
  0
LINE
  5
468
330
1F
100
AcDbEntity
  8
0
  6
Continuous
 62
     7
370
    25
100
AcDbLine
 10
47.0342785915
 20
8.449030137
 30
0.0
 11
47.0342785915
 21
8.488092637
 31
0.0
  0
LINE
  5
469
330
1F
100
AcDbEntity
  8
0
  6
Continuous
 62
     7
370
    25
100
AcDbLine
 10
46.3687564521
 20
8.872467637
 30
0.0
 11
46.3687564521
 21
8.951732542
 31
0.0
  0
LINE
  5
46A
330
1F
100
AcDbEntity
  8
0
  6
Continuous
 62
     7
370
    25
100
AcDbLine
 10
46.371014853
 20
8.951732542
 30
0.0
 11
46.3687564521
 21
8.951732542
 31
0.0
  0
LINE
  5
46B
330
1F
100
AcDbEntity
  8
0
  6
Continuous
 62
     7
370
    25
100
AcDbLine
 10
46.3687564521
 20
9.0056029211
 30
0.0
 11
46.3691336579
 21
9.0056029211
 31
0.0
  0
LINE
  5
46C
330
1F
100
AcDbEntity
  8
0
  6
Continuous
 62
     7
370
    25
100
AcDbLine
 10
46.3687564521
 20
9.0056029211
 30
0.0
 11
46.3687564521
 21
9.0164046816
 31
0.0
  0
LINE
  5
46D
330
1F
100
AcDbEntity
  8
0
  6
Continuous
 62
     7
370
    25
100
AcDbLine
 10
46.3687564521
 20
8.951732542
 30
0.0
 11
46.3687564521
 21
9.0056029211
 31
0.0
  0
LINE
  5
46E
330
1F
100
AcDbEntity
  8
0
  6
Continuous
 62
     7
370
    25
100
AcDbLine
 10
52.0185507309
 20
8.951732542
 30
0.0
 11
52.01629233
 21
8.951732542
 31
0.0
  0
LINE
  5
46F
330
1F
100
AcDbEntity
  8
0
  6
Continuous
 62
     7
370
    25
100
AcDbLine
 10
52.0185507309
 20
8.872467637
 30
0.0
 11
52.0185507309
 21
8.951732542
 31
0.0
  0
LINE
  5
470
330
1F
100
AcDbEntity
  8
0
  6
Continuous
 62
     7
370
    25
100
AcDbLine
 10
52.0181735251
 20
9.0056029211
 30
0.0
 11
52.0185507309
 21
9.0056029211
 31
0.0
  0
LINE
  5
471
330
1F
100
AcDbEntity
  8
0
  6
Continuous
 62
     7
370
    25
100
AcDbLine
 10
52.0185507309
 20
9.0056029211
 30
0.0
 11
52.0185507309
 21
9.0164046816
 31
0.0
  0
LINE
  5
472
330
1F
100
AcDbEntity
  8
0
  6
Continuous
 62
     7
370
    25
100
AcDbLine
 10
52.0185507309
 20
8.951732542
 30
0.0
 11
52.0185507309
 21
9.0056029211
 31
0.0
  0
LWPOLYLINE
  5
473
330
1F
100
AcDbEntity
  8
0
  6
Continuous
 62
     7
370
    25
100
AcDbPolyline
 90
        6
 70
   128
 43
0.0
 10
51.233560149
 20
11.3915721027
 10
51.2343666143
 20
11.3916148132
 10
51.2418319679
 20
11.3879316007
 10
51.2491057655
 20
11.3769764718
 10
51.2560013665
 20
11.3590305277
 10
51.256670717
 20
11.356842637
  0
LWPOLYLINE
  5
474
330
1F
100
AcDbEntity
  8
0
  6
Continuous
 62
     7
370
    25
100
AcDbPolyline
 90
        9
 70
   128
 43
0.0
 10
51.3158696713
 20
11.356842637
 10
51.3152003208
 20
11.3590305277
 10
51.3083047197
 20
11.3769764718
 10
51.3010309221
 20
11.3879316007
 10
51.2935655686
 20
11.3916148132
 10
51.2861002151
 20
11.3879316007
 10
51.2788264175
 20
11.3769764718
 10
51.2719308165
 20
11.3590305277
 10
51.2712614659
 20
11.356842637
  0
ARC
  5
475
330
1F
100
AcDbEntity
  8
0
  6
Continuous
 62
     7
370
    25
100
AcDbCircle
 10
47.0833176375
 20
11.3386610244
 30
0.0
 40
0.0535302049914327
100
AcDbArc
 50
19.8556409017
 51
80.6224229074
  0
LWPOLYLINE
  5
476
330
1F
100
AcDbEntity
  8
0
  6
Continuous
 62
     7
370
    25
100
AcDbPolyline
 90
        8
 70
   128
 43
0.0
 10
47.1911712353
 20
11.356842637
 10
47.1899985178
 20
11.3590305277
 10
47.1779172669
 20
11.3769764718
 10
47.1651734069
 20
11.3879316007
 10
47.1520939365
 20
11.3916148132
 10
47.1390144662
 20
11.3879316007
 10
47.1262706061
 20
11.3769764718
 10
47.1233410915
 20
11.37334836
  0
LINE
  5
477
330
1F
100
AcDbEntity
  8
0
  6
Continuous
 62
     7
370
    25
100
AcDbLine
 10
46.2999035915
 20
11.144342637
 30
0.0
 11
46.2999035915
 21
10.988092637
 31
0.0
  0
LINE
  5
478
330
1F
100
AcDbEntity
  8
0
  6
Continuous
 62
     7
370
    25
100
AcDbLine
 10
52.0874035915
 20
11.144342637
 30
0.0
 11
52.0874035915
 21
10.988092637
 31
0.0
  0
LINE
  5
479
330
1F
100
AcDbEntity
  8
0
  6
Continuous
 62
     7
370
    25
100
AcDbLine
 10
46.2999035915
 20
10.988092637
 30
0.0
 11
52.0874035915
 21
10.988092637
 31
0.0
  0
LINE
  5
47A
330
1F
100
AcDbEntity
  8
0
  6
Continuous
 62
     7
370
    25
100
AcDbLine
 10
46.2999035915
 20
11.144342637
 30
0.0
 11
52.0874035915
 21
11.144342637
 31
0.0
  0
LINE
  5
47B
330
1F
100
AcDbEntity
  8
0
  6
Continuous
 62
     7
370
    25
100
AcDbLine
 10
46.3811535915
 20
11.2255401986
 30
0.0
 11
46.3811535915
 21
11.144342637
 31
0.0
  0
ELLIPSE
  5
47C
330
1F
100
AcDbEntity
  8
0
  6
Continuous
 62
     7
370
    25
100
AcDbEllipse
 10
46.3811535915
 20
11.0939203971
 30
0.0
 11
0.1686987794878121
 21
0.07866553279656685
 31
0.0
210
0.0
220
0.0
230
1.0
 40
0.6715429342
 41
0.9638504580895534
 42
1.267323392442224
  0
LINE
  5
47D
330
1F
100
AcDbEntity
  8
0
  6
Continuous
 62
     7
370
    25
100
AcDbLine
 10
51.9533263088
 20
11.231842637
 30
0.0
 11
46.4339808742
 21
11.231842637
 31
0.0
  0
ELLIPSE
  5
47E
330
1F
100
AcDbEntity
  8
0
  6
Continuous
 62
     7
370
    25
100
AcDbEllipse
 10
52.0061535915
 20
11.0939203971
 30
0.0
 11
-0.1686987794878192
 21
0.07866553279656685
 31
0.0
210
0.0
220
0.0
230
1.0
 40
0.6715429342
 41
5.015861914737364
 42
5.319334849090121
  0
LINE
  5
47F
330
1F
100
AcDbEntity
  8
0
  6
Continuous
 62
     7
370
    25
100
AcDbLine
 10
52.0061535915
 20
11.2255401986
 30
0.0
 11
52.0061535915
 21
11.144342637
 31
0.0
  0
LINE
  5
480
330
1F
100
AcDbEntity
  8
0
  6
Continuous
 62
     7
370
    25
100
AcDbLine
 10
46.6769287894
 20
11.3451311104
 30
0.0
 11
46.4339808742
 21
11.231842637
 31
0.0
  0
LINE
  5
481
330
1F
100
AcDbEntity
  8
0
  6
Continuous
 62
     7
370
    25
100
AcDbLine
 10
51.7103783936
 20
11.3451311104
 30
0.0
 11
46.6769287894
 21
11.3451311104
 31
0.0
  0
LINE
  5
482
330
1F
100
AcDbEntity
  8
0
  6
Continuous
 62
     7
370
    25
100
AcDbLine
 10
51.9533263088
 20
11.231842637
 30
0.0
 11
51.7103783936
 21
11.3451311104
 31
0.0
  0
ARC
  5
483
330
1F
100
AcDbEntity
  8
0
  6
Continuous
 62
     7
370
    25
100
AcDbCircle
 10
51.7367920349
 20
11.2834572651
 30
0.0
 40
0.0670920535236983
100
AcDbArc
 50
66.8155435857
 51
113.1844564143
  0
LINE
  5
484
330
1F
100
AcDbEntity
  8
0
  6
Continuous
 62
     7
370
    25
100
AcDbLine
 10
51.7632056763
 20
11.3451311104
 30
0.0
 11
52.0061535915
 21
11.231842637
 31
0.0
  0
LINE
  5
485
330
1F
100
AcDbEntity
  8
0
  6
Continuous
 62
     7
370
    25
100
AcDbLine
 10
52.0061535915
 20
11.231842637
 30
0.0
 11
52.0061535915
 21
11.2255401986
 31
0.0
  0
LINE
  5
486
330
1F
100
AcDbEntity
  8
0
  6
Continuous
 62
     7
370
    25
100
AcDbLine
 10
46.3811535915
 20
11.2255401986
 30
0.0
 11
46.3811535915
 21
11.231842637
 31
0.0
  0
LINE
  5
487
330
1F
100
AcDbEntity
  8
0
  6
Continuous
 62
     7
370
    25
100
AcDbLine
 10
46.3811535915
 20
11.231842637
 30
0.0
 11
46.6241015067
 21
11.3451311104
 31
0.0
  0
ARC
  5
488
330
1F
100
AcDbEntity
  8
0
  6
Continuous
 62
     7
370
    25
100
AcDbCircle
 10
46.650515148
 20
11.2834572651
 30
0.0
 40
0.0670920535236902
100
AcDbArc
 50
66.8155435857
 51
113.1844564143
  0
LINE
  5
489
330
1F
100
AcDbEntity
  8
0
  6
Continuous
 62
     7
370
    25
100
AcDbLine
 10
46.6769287894
 20
11.356842637
 30
0.0
 11
51.7103783936
 21
11.356842637
 31
0.0
  0
LINE
  5
48A
330
1F
100
AcDbEntity
  8
0
  6
Continuous
 62
     7
370
    25
100
AcDbLine
 10
51.7103783936
 20
11.356842637
 30
0.0
 11
51.7103783936
 21
11.3451311104
 31
0.0
  0
LINE
  5
48B
330
1F
100
AcDbEntity
  8
0
  6
Continuous
 62
     7
370
    25
100
AcDbLine
 10
46.6769287894
 20
11.356842637
 30
0.0
 11
46.6769287894
 21
11.3451311104
 31
0.0
  0
ARC
  5
48C
330
1F
100
AcDbEntity
  8
0
  6
Continuous
 62
     7
370
    25
100
AcDbCircle
 10
51.7103783936
 20
11.231842637
 30
0.0
 40
0.1250000000000001
100
AcDbArc
 50
65.0
 51
90.0
  0
ARC
  5
48D
330
1F
100
AcDbEntity
  8
0
  6
Continuous
 62
     7
370
    25
100
AcDbCircle
 10
46.6769287894
 20
11.231842637
 30
0.0
 40
0.1250000000000001
100
AcDbArc
 50
90.0
 51
115.0
  0
DIMENSION
  5
48E
330
1F
100
AcDbEntity
  8
SLD-0
100
AcDbDimension
  2
_D_12
 10
52.0874035915
 20
13.4083457172
 30
0.0
 11
49.1936535915
 21
13.4083457172
 31
0.0
 70
   160
  1
<>
 71
     2
 42
-1.0
  3
SLDDIMSTYLE5
100
AcDbAlignedDimension
 13
46.2999035915
 23
11.144342637
 33
0.0
 14
52.0874035915
 24
11.144342637
 34
0.0
100
AcDbRotatedDimension
  0
ARC
  5
4A2
330
1F
100
AcDbEntity
  8
0
  6
Continuous
 62
     7
370
    25
100
AcDbCircle
 10
43.7405009342
 20
4.9295338334
 30
0.0
 40
0.0375000000000014
100
AcDbArc
 50
90.0
 51
180.0
  0
ARC
  5
4A3
330
1F
100
AcDbEntity
  8
0
  6
Continuous
 62
     7
370
    25
100
AcDbCircle
 10
46.4405009342
 20
4.9295338334
 30
0.0
 40
0.0375000000000014
100
AcDbArc
 50
0.0
 51
90.0
  0
LINE
  5
4A4
330
1F
100
AcDbEntity
  8
0
  6
Continuous
 62
     7
370
    25
100
AcDbLine
 10
46.4780009342
 20
2.864423454
 30
0.0
 11
46.4780009342
 21
4.9295338334
 31
0.0
  0
LINE
  5
4A5
330
1F
100
AcDbEntity
  8
0
  6
Continuous
 62
     7
370
    25
100
AcDbLine
 10
46.4780009342
 20
2.4670338334
 30
0.0
 11
46.4780009342
 21
2.6956192998
 31
0.0
  0
LINE
  5
4A6
330
1F
100
AcDbEntity
  8
0
  6
Continuous
 62
     7
370
    25
100
AcDbLine
 10
43.7030009342
 20
4.9295338334
 30
0.0
 11
43.7030009342
 21
2.4670338334
 31
0.0
  0
LINE
  5
4A7
330
1F
100
AcDbEntity
  8
0
  6
Continuous
 62
     7
370
    25
100
AcDbLine
 10
46.4405009342
 20
4.9670338334
 30
0.0
 11
43.7405009342
 21
4.9670338334
 31
0.0
  0
SPLINE
  5
4A8
330
1F
100
AcDbEntity
  8
0
  6
Continuous
 62
     7
370
    25
100
AcDbSpline
210
0.0
220
0.0
230
1.0
 70
     8
 71
     3
 72
    17
 73
    13
 74
     0
 42
0.00000001
 43
0.00000001
 40
0.0
 40
0.0
 40
0.0
 40
0.0
 40
0.0367829129270418
 40
0.1439469936102685
 40
0.2511849014537426
 40
0.3585983106853313
 40
0.466015569509824
 40
0.5732581291689316
 40
0.680420361353837
 40
0.7877217257819928
 40
0.8951646959147085
 40
1.0
 40
1.0
 40
1.0
 40
1.0
 10
46.47793504821031
 20
2.695619299849676
 30
0.0
 10
46.47795309062972
 20
2.695321647557776
 30
0.0
 10
46.47802369819788
 20
2.694156809072985
 30
0.0
 10
46.47754278123928
 20
2.702020137319372
 30
0.0
 10
46.47669542962715
 20
2.718386338430861
 30
0.0
 10
46.47581091114121
 20
2.742299998991994
 30
0.0
 10
46.47532502265214
 20
2.770252125479087
 30
0.0
 10
46.47543780545077
 20
2.79926307633238
 30
0.0
 10
46.47610544990631
 20
2.82607468305734
 30
0.0
 10
46.47702056392725
 20
2.847471357292079
 30
0.0
 10
46.47783169659847
 20
2.861845454655089
 30
0.0
 10
46.47794057761325
 20
2.863571187293222
 30
0.0
 10
46.47799434936326
 20
2.864423454000943
 30
0.0
  0
SPLINE
  5
4A9
330
1F
100
AcDbEntity
  8
0
  6
Continuous
 62
     7
370
    25
100
AcDbSpline
210
0.0
220
0.0
230
1.0
 70
    11
 71
     3
 72
    56
 73
    52
 74
     0
 42
0.00000001
 43
0.00000001
 40
0.0
 40
0.0
 40
0.0
 40
0.0
 40
0.0312500000000002
 40
0.0312500000000002
 40
0.0625000000000004
 40
0.0625000000000004
 40
0.0937500000000006
 40
0.0937500000000006
 40
0.1250000000000008
 40
0.1250000000000008
 40
0.187500000000001
 40
0.187500000000001
 40
0.2500000000000013
 40
0.2500000000000013
 40
0.2812500000000014
 40
0.2812500000000014
 40
0.3125000000000016
 40
0.3125000000000016
 40
0.3437500000000017
 40
0.3437500000000017
 40
0.3750000000000018
 40
0.3750000000000018
 40
0.4062500000000019
 40
0.4062500000000019
 40
0.4375000000000021
 40
0.4375000000000021
 40
0.4687500000000022
 40
0.4687500000000022
 40
0.5000000000000023
 40
0.5000000000000023
 40
0.5625000000000027
 40
0.5625000000000027
 40
0.625000000000003
 40
0.625000000000003
 40
0.6562500000000032
 40
0.6562500000000032
 40
0.6875000000000033
 40
0.6875000000000033
 40
0.7187500000000036
 40
0.7187500000000036
 40
0.7500000000000038
 40
0.7500000000000038
 40
0.8125000000000032
 40
0.8125000000000032
 40
0.8437500000000029
 40
0.8437500000000029
 40
0.8750000000000023
 40
0.8750000000000023
 40
0.9375000000000011
 40
0.9375000000000011
 40
1.0
 40
1.0
 40
1.0
 40
1.0
 10
44.47166611899382
 20
2.779533833400975
 30
0.0
 10
44.47166611899382
 20
2.773916913703503
 30
0.0
 10
44.47117161894882
 20
2.768394119933398
 30
0.0
 10
44.46923617697925
 20
2.757529004638168
 30
0.0
 10
44.46777169595565
 20
2.752130310585175
 30
0.0
 10
44.46395553425074
 20
2.741837271432924
 30
0.0
 10
44.46162279048896
 20
2.736955621408481
 30
0.0
 10
44.45612360959205
 20
2.727716890070821
 30
0.0
 10
44.45292881232927
 20
2.723343634677689
 30
0.0
 10
44.44248870905262
 20
2.711585038652085
 30
0.0
 10
44.43410778323101
 20
2.705252581915639
 30
0.0
 10
44.41615354463827
 20
2.696773414161642
 30
0.0
 10
44.40639443681979
 20
2.694539798434837
 30
0.0
 10
44.39198845525886
 20
2.694530869253464
 30
0.0
 10
44.38712797442481
 20
2.695082738812632
 30
0.0
 10
44.37775130735752
 20
2.697251348017506
 30
0.0
 10
44.37320983432438
 20
2.698855913116099
 30
0.0
 10
44.36441676182286
 20
2.703111689710222
 30
0.0
 10
44.36017979288325
 20
2.705772472394668
 30
0.0
 10
44.35236001266227
 20
2.711923699474656
 30
0.0
 10
44.3487264127738
 20
2.715435380236131
 30
0.0
 10
44.3420236474024
 20
2.72336601921972
 30
0.0
 10
44.33905850589115
 20
2.727663742937426
 30
0.0
 10
44.33388282360709
 20
2.736866489123171
 30
0.0
 10
44.33165043785277
 20
2.741833371784358
 30
0.0
 10
44.32807426738941
 20
2.752131228467191
 30
0.0
 10
44.32672906441089
 20
2.75742945258953
 30
0.0
 10
44.32490937289704
 20
2.768321428489206
 30
0.0
 10
44.32444346749357
 20
2.773955657563099
 30
0.0
 10
44.32443847977269
 20
2.790598700523539
 30
0.0
 10
44.326293686892
 20
2.801782984609388
 30
0.0
 10
44.3333821845893
 20
2.822246948947193
 30
0.0
 10
44.33869104543378
 20
2.831735384649859
 30
0.0
 10
44.34860653169165
 20
2.843501834482383
 30
0.0
 10
44.35230261001028
 20
2.847093661643927
 30
0.0
 10
44.36014649707855
 20
2.853274095297186
 30
0.0
 10
44.36430021911203
 20
2.855888303237831
 30
0.0
 10
44.37308169833032
 20
2.86016069548152
 30
0.0
 10
44.37771301430506
 20
2.861803139460231
 30
0.0
 10
44.38705788922008
 20
2.863972992051579
 30
0.0
 10
44.39182046424771
 20
2.86452820053233
 30
0.0
 10
44.40639175214019
 20
2.864544972457562
 30
0.0
 10
44.4160194440305
 20
2.862346458473648
 30
0.0
 10
44.42959023681176
 20
2.855954070056588
 30
0.0
 10
44.4338917855694
 20
2.853346410493207
 30
0.0
 10
44.44204930106671
 20
2.847190548581366
 30
0.0
 10
44.44592719213794
 20
2.843604440261532
 30
0.0
 10
44.45637979931333
 20
2.831848038214803
 30
0.0
 10
44.46203844938906
 20
2.822376146126609
 30
0.0
 10
44.46963820500952
 20
2.801927853334835
 30
0.0
 10
44.47166611899382
 20
2.790767672795919
 30
0.0
 10
44.47166611899382
 20
2.779533833400975
 30
0.0
  0
LINE
  5
4AA
330
1F
100
AcDbEntity
  8
0
  6
Continuous
 62
     7
370
    25
100
AcDbLine
 10
43.7030009342
 20
2.4670338334
 30
0.0
 11
46.4780009342
 21
2.4670338334
 31
0.0
  0
SPLINE
  5
4AB
330
1F
100
AcDbEntity
  8
0
  6
Continuous
 62
     7
370
    25
100
AcDbSpline
210
0.0
220
0.0
230
1.0
 70
     8
 71
     3
 72
    16
 73
    12
 74
     0
 42
0.00000001
 43
0.00000001
 40
0.0
 40
0.0
 40
0.0
 40
0.0
 40
0.0495715766869071
 40
0.1848910475713694
 40
0.3204652357546294
 40
0.4560453677786514
 40
0.5913719093040029
 40
0.7265815408156334
 40
0.8619929343625934
 40
0.9976101416485662
 40
1.0
 40
1.0
 40
1.0
 40
1.0
 10
44.42035558396292
 20
2.700137728226005
 30
0.0
 10
44.41744413423149
 20
2.700982591451868
 30
0.0
 10
44.40658506888047
 20
2.704133744941919
 30
0.0
 10
44.39122386632576
 20
2.718857221839154
 30
0.0
 10
44.37705166308267
 20
2.742142712852473
 30
0.0
 10
44.37047876305328
 20
2.770272200007758
 30
0.0
 10
44.37195957699553
 20
2.799183583397408
 30
0.0
 10
44.38129950833616
 20
2.82620257669014
 30
0.0
 10
44.39786714446456
 20
2.846864799973068
 30
0.0
 10
44.41196207227124
 20
2.858469243161707
 30
0.0
 10
44.42020171091948
 20
2.860000827162285
 30
0.0
 10
44.42034439614466
 20
2.860027349491398
 30
0.0
  0
LINE
  5
4AC
330
1F
100
AcDbEntity
  8
0
  6
Continuous
 62
     7
370
    25
100
AcDbLine
 10
46.4780009342
 20
4.9295338334
 30
0.0
 11
43.7030009342
 21
4.9295338334
 31
0.0
  0
DIMENSION
  5
4AD
330
1F
100
AcDbEntity
  8
SLD-0
100
AcDbDimension
  2
_D_13
 10
41.6257927506
 20
2.4670338334
 30
0.0
 11
41.6257927506
 21
3.7170338334
 31
0.0
 70
   160
  1
<>
 71
     2
 42
-1.0
  3
SLDDIMSTYLE7
100
AcDbAlignedDimension
 13
43.7405009342
 23
4.9670338334
 33
0.0
 14
43.7030009342
 24
2.4670338334
 34
0.0
 50
90.0
100
AcDbRotatedDimension
  0
MTEXT
  5
4C2
330
1F
100
AcDbEntity
  8
SLD-0
100
AcDbMText
 10
44.0568066111
 20
1.4675745926
 30
0.0
 40
0.625
 41
0.0
 71
     1
 72
     1
  1
F CAP
  7
SLDTEXTSTYLE0
 73
     1
 44
1.0
  0
ENDSEC
  0
SECTION
  2
OBJECTS
  0
DICTIONARY
  5
C
330
0
100
AcDbDictionary
281
     1
  3
ACAD_GROUP
350
D
  3
ACAD_LAYOUT
350
1A
  3
ACAD_MLINESTYLE
350
17
  3
ACAD_PLOTSETTINGS
350
19
  3
ACAD_PLOTSTYLENAME
350
E
  3
ACAD_SCALELIST
350
47
  3
DWGPROPS
350
4C3
  0
DICTIONARY
  5
D
102
{ACAD_REACTORS
330
C
102
}
330
C
100
AcDbDictionary
281
     1
  0
DICTIONARY
  5
1A
102
{ACAD_REACTORS
330
C
102
}
330
C
100
AcDbDictionary
281
     1
  3
Layout1
350
1E
  3
Layout2
350
26
  3
Model
350
22
  0
DICTIONARY
  5
17
102
{ACAD_REACTORS
330
C
102
}
330
C
100
AcDbDictionary
281
     1
  3
Standard
350
18
  0
DICTIONARY
  5
19
102
{ACAD_REACTORS
330
C
102
}
330
C
100
AcDbDictionary
281
     1
  0
ACDBDICTIONARYWDFLT
  5
E
102
{ACAD_REACTORS
330
C
102
}
330
C
100
AcDbDictionary
281
     1
  3
Normal
350
F
100
AcDbDictionaryWithDefault
340
F
  0
DICTIONARY
  5
47
102
{ACAD_REACTORS
330
C
102
}
330
C
100
AcDbDictionary
281
     1
  3
A0
350
48
  3
A1
350
49
  3
A2
350
4A
  3
A3
350
4B
  3
A4
350
4C
  3
A5
350
4D
  3
A6
350
4E
  3
A7
350
4F
  3
A8
350
50
  3
A9
350
51
  3
B1
350
52
  3
B2
350
53
  3
B3
350
54
  3
B4
350
55
  3
B5
350
56
  3
B6
350
57
  3
B7
350
58
  0
XRECORD
  5
4C3
102
{ACAD_REACTORS
330
C
102
}
330
C
100
AcDbXrecord
280
     1
  1
DWGPROPS COOKIE
  2

  3

  4

  6

  7

  8
gurisher.rai
  9

300
=
301
=
302
=
303
=
304
=
305
=
306
=
307
=
308
=
309
=
 40
0.0
 41
2460476.608145694
 42
2460476.60814669
  1

 90
        0
  0
LAYOUT
  5
1E
102
{ACAD_REACTORS
330
1A
102
}
330
1A
100
AcDbPlotSettings
  1

  2
none_device
  4

  6

 40
0.0
 41
0.0
 42
0.0
 43
0.0
 44
0.0
 45
0.0
 46
0.0
 47
0.0
 48
0.0
 49
0.0
140
0.0
141
0.0
142
1.0
143
1.0
 70
   688
 72
     0
 73
     0
 74
     5
  7

 75
    16
147
1.0
148
0.0
149
0.0
100
AcDbLayout
  1
Layout1
 70
     1
 71
     1
 10
0.0
 20
0.0
 11
12.0
 21
9.0
 12
0.0
 22
0.0
 32
0.0
 14
1.0000000000E+20
 24
1.0000000000E+20
 34
1.0000000000E+20
 15
-1.0000000000E+20
 25
-1.0000000000E+20
 35
-1.0000000000E+20
146
0.0
 13
0.0
 23
0.0
 33
0.0
 16
1.0
 26
0.0
 36
0.0
 17
0.0
 27
1.0
 37
0.0
 76
     0
330
1B
  0
LAYOUT
  5
26
102
{ACAD_REACTORS
330
1A
102
}
330
1A
100
AcDbPlotSettings
  1

  2
none_device
  4

  6

 40
0.0
 41
0.0
 42
0.0
 43
0.0
 44
0.0
 45
0.0
 46
0.0
 47
0.0
 48
0.0
 49
0.0
140
0.0
141
0.0
142
1.0
143
1.0
 70
   688
 72
     0
 73
     0
 74
     5
  7

 75
    16
147
1.0
148
0.0
149
0.0
100
AcDbLayout
  1
Layout2
 70
     1
 71
     2
 10
0.0
 20
0.0
 11
0.0
 21
0.0
 12
0.0
 22
0.0
 32
0.0
 14
0.0
 24
0.0
 34
0.0
 15
0.0
 25
0.0
 35
0.0
146
0.0
 13
0.0
 23
0.0
 33
0.0
 16
1.0
 26
0.0
 36
0.0
 17
0.0
 27
1.0
 37
0.0
 76
     0
330
23
  0
LAYOUT
  5
22
102
{ACAD_REACTORS
330
1A
102
}
330
1A
100
AcDbPlotSettings
  1

  2
none_device
  4
Letter_(8.50_x_11.00_Inches)
  6

 40
6.35
 41
6.35
 42
6.35000508
 43
6.35000508
 44
215.9
 45
279.4
 46
0.0
 47
0.0
 48
0.0
 49
0.0
140
0.0
141
0.0
142
1.0
143
1.0
 70
  1712
 72
     0
 73
     0
 74
     0
  7

 75
     0
147
1.0
148
0.0
149
0.0
100
AcDbLayout
  1
Model
 70
     1
 71
     0
 10
0.0
 20
0.0
 11
55.0
 21
42.5
 12
0.0
 22
0.0
 32
0.0
 14
0.0
 24
0.0
 34
0.0
 15
55.0
 25
42.5
 35
0.0
146
0.0
 13
0.0
 23
0.0
 33
0.0
 16
1.0
 26
0.0
 36
0.0
 17
0.0
 27
1.0
 37
0.0
 76
     0
330
1F
331
29
  0
MLINESTYLE
  5
18
102
{ACAD_REACTORS
330
17
102
}
330
17
100
AcDbMlineStyle
  2
Standard
 70
     0
  3

 62
   256
 51
90.0
 52
90.0
 71
     2
 49
0.5
 62
   256
  6
BYLAYER
 49
-0.5
 62
   256
  6
BYLAYER
  0
ACDBPLACEHOLDER
  5
F
102
{ACAD_REACTORS
330
E
102
}
330
E
  0
SCALE
  5
48
102
{ACAD_REACTORS
330
47
102
}
330
47
100
AcDbScale
 70
     0
300
1:1
140
1.0
141
1.0
290
     1
  0
SCALE
  5
49
102
{ACAD_REACTORS
330
47
102
}
330
47
100
AcDbScale
 70
     0
300
1/128" = 1'-0"
140
0.0078125
141
12.0
290
     0
  0
SCALE
  5
4A
102
{ACAD_REACTORS
330
47
102
}
330
47
100
AcDbScale
 70
     0
300
1/64" = 1'-0"
140
0.015625
141
12.0
290
     0
  0
SCALE
  5
4B
102
{ACAD_REACTORS
330
47
102
}
330
47
100
AcDbScale
 70
     0
300
1/32" = 1'-0"
140
0.03125
141
12.0
290
     0
  0
SCALE
  5
4C
102
{ACAD_REACTORS
330
47
102
}
330
47
100
AcDbScale
 70
     0
300
1/16" = 1'-0"
140
0.0625
141
12.0
290
     0
  0
SCALE
  5
4D
102
{ACAD_REACTORS
330
47
102
}
330
47
100
AcDbScale
 70
     0
300
3/32" = 1'-0"
140
0.09375
141
12.0
290
     0
  0
SCALE
  5
4E
102
{ACAD_REACTORS
330
47
102
}
330
47
100
AcDbScale
 70
     0
300
1/8" = 1'-0"
140
0.125
141
12.0
290
     0
  0
SCALE
  5
4F
102
{ACAD_REACTORS
330
47
102
}
330
47
100
AcDbScale
 70
     0
300
3/16" = 1'-0"
140
0.1875
141
12.0
290
     0
  0
SCALE
  5
50
102
{ACAD_REACTORS
330
47
102
}
330
47
100
AcDbScale
 70
     0
300
1/4" = 1'-0"
140
0.25
141
12.0
290
     0
  0
SCALE
  5
51
102
{ACAD_REACTORS
330
47
102
}
330
47
100
AcDbScale
 70
     0
300
3/8" = 1'-0"
140
0.375
141
12.0
290
     0
  0
SCALE
  5
52
102
{ACAD_REACTORS
330
47
102
}
330
47
100
AcDbScale
 70
     0
300
1/2" = 1'-0"
140
0.5
141
12.0
290
     0
  0
SCALE
  5
53
102
{ACAD_REACTORS
330
47
102
}
330
47
100
AcDbScale
 70
     0
300
3/4" = 1'-0"
140
0.75
141
12.0
290
     0
  0
SCALE
  5
54
102
{ACAD_REACTORS
330
47
102
}
330
47
100
AcDbScale
 70
     0
300
1" = 1'-0"
140
1.0
141
12.0
290
     0
  0
SCALE
  5
55
102
{ACAD_REACTORS
330
47
102
}
330
47
100
AcDbScale
 70
     0
300
1-1/2" = 1'-0"
140
1.5
141
12.0
290
     0
  0
SCALE
  5
56
102
{ACAD_REACTORS
330
47
102
}
330
47
100
AcDbScale
 70
     0
300
3" = 1'-0"
140
3.0
141
12.0
290
     0
  0
SCALE
  5
57
102
{ACAD_REACTORS
330
47
102
}
330
47
100
AcDbScale
 70
     0
300
6" = 1'-0"
140
6.0
141
12.0
290
     0
  0
SCALE
  5
58
102
{ACAD_REACTORS
330
47
102
}
330
47
100
AcDbScale
 70
     0
300
1'-0" = 1'-0"
140
12.0
141
12.0
290
     0
  0
ENDSEC
  0
EOF
