  0
SECTION
  2
HEADER
  9
$ACADVER
  1
AC1015
  9
$ACADMAINTVER
 70
     6
  9
$DWGCODEPAGE
  3
ANSI_1252
  9
$INSBASE
 10
0.0
 20
0.0
 30
0.0
  9
$EXTMIN
 10
0.0
 20
0.0
 30
0.0
  9
$EXTMAX
 10
55.0
 20
42.5
 30
0.0
  9
$LIMMIN
 10
0.0
 20
0.0
  9
$LIMMAX
 10
55.0
 20
42.5
  9
$ORTHOMODE
 70
     0
  9
$REGENMODE
 70
     1
  9
$FILLMODE
 70
     1
  9
$QTEXTMODE
 70
     0
  9
$MIRRTEXT
 70
     1
  9
$LTSCALE
 40
5.0
  9
$ATTMODE
 70
     1
  9
$TEXTSIZE
 40
0.625
  9
$TRACEWID
 40
0.05
  9
$TEXTSTYLE
  7
STANDARD
  9
$CLAYER
  8
0
  9
$CELTYPE
  6
ByLayer
  9
$CECOLOR
 62
   256
  9
$CELTSCALE
 40
1.0
  9
$DISPSILH
 70
     0
  9
$DIMSCALE
 40
1.0
  9
$DIMASZ
 40
0.65
  9
$DIMEXO
 40
0.25
  9
$DIMDLI
 40
0.38
  9
$DIMRND
 40
0.0
  9
$DIMDLE
 40
0.0
  9
$DIMEXE
 40
0.625
  9
$DIMTP
 40
0.0
  9
$DIMTM
 40
0.0
  9
$DIMTXT
 40
0.625
  9
$DIMCEN
 40
0.09
  9
$DIMTSZ
 40
0.0
  9
$DIMTOL
 70
     0
  9
$DIMLIM
 70
     0
  9
$DIMTIH
 70
     1
  9
$DIMTOH
 70
     1
  9
$DIMSE1
 70
     0
  9
$DIMSE2
 70
     0
  9
$DIMTAD
 70
     0
  9
$DIMZIN
 70
     1
  9
$DIMBLK
  1

  9
$DIMASO
 70
     1
  9
$DIMSHO
 70
     1
  9
$DIMPOST
  1

  9
$DIMAPOST
  1

  9
$DIMALT
 70
     0
  9
$DIMALTD
 70
     2
  9
$DIMALTF
 40
25.4
  9
$DIMLFAC
 40
1.0
  9
$DIMTOFL
 70
     0
  9
$DIMTVP
 40
0.0
  9
$DIMTIX
 70
     0
  9
$DIMSOXD
 70
     0
  9
$DIMSAH
 70
     0
  9
$DIMBLK1
  1

  9
$DIMBLK2
  1

  9
$DIMSTYLE
  2
Standard
  9
$DIMCLRD
 70
     0
  9
$DIMCLRE
 70
     0
  9
$DIMCLRT
 70
     0
  9
$DIMTFAC
 40
1.0
  9
$DIMGAP
 40
0.3
  9
$DIMJUST
 70
     0
  9
$DIMSD1
 70
     0
  9
$DIMSD2
 70
     0
  9
$DIMTOLJ
 70
     1
  9
$DIMTZIN
 70
     1
  9
$DIMALTZ
 70
     0
  9
$DIMALTTZ
 70
     0
  9
$DIMUPT
 70
     0
  9
$DIMDEC
 70
     0
  9
$DIMTDEC
 70
     0
  9
$DIMALTU
 70
     2
  9
$DIMALTTD
 70
     2
  9
$DIMTXSTY
  7
STANDARD
  9
$DIMAUNIT
 70
     0
  9
$DIMADEC
 70
     0
  9
$DIMALTRND
 40
0.0
  9
$DIMAZIN
 70
     0
  9
$DIMDSEP
 70
    46
  9
$DIMATFIT
 70
     3
  9
$DIMFRAC
 70
     0
  9
$DIMLDRBLK
  1

  9
$DIMLUNIT
 70
     2
  9
$DIMLWD
 70
    -2
  9
$DIMLWE
 70
    -2
  9
$DIMTMOVE
 70
     0
  9
$LUNITS
 70
     2
  9
$LUPREC
 70
     6
  9
$SKETCHINC
 40
0.1
  9
$FILLETRAD
 40
0.0
  9
$AUNITS
 70
     0
  9
$AUPREC
 70
     2
  9
$MENU
  1
.
  9
$ELEVATION
 40
0.0
  9
$PELEVATION
 40
0.0
  9
$THICKNESS
 40
0.0
  9
$LIMCHECK
 70
     0
  9
$CHAMFERA
 40
0.0
  9
$CHAMFERB
 40
0.0
  9
$CHAMFERC
 40
0.0
  9
$CHAMFERD
 40
0.0
  9
$SKPOLY
 70
     0
  9
$TDCREATE
 40
2460476.332964294
  9
$TDUCREATE
 40
2460476.624630961
  9
$TDUPDATE
 40
2460476.332965197
  9
$TDUUPDATE
 40
2460476.624631864
  9
$TDINDWG
 40
0.0000000116
  9
$TDUSRTIMER
 40
0.0000000116
  9
$USRTIMER
 70
     1
  9
$ANGBASE
 50
0.0
  9
$ANGDIR
 70
     0
  9
$PDMODE
 70
     0
  9
$PDSIZE
 40
-1.0
  9
$PLINEWID
 40
0.0
  9
$SPLFRAME
 70
     0
  9
$SPLINETYPE
 70
     6
  9
$SPLINESEGS
 70
     8
  9
$HANDSEED
  5
371
  9
$SURFTAB1
 70
     6
  9
$SURFTAB2
 70
     6
  9
$SURFTYPE
 70
     6
  9
$SURFU
 70
     6
  9
$SURFV
 70
     6
  9
$UCSBASE
  2

  9
$UCSNAME
  2

  9
$UCSORG
 10
0.0
 20
0.0
 30
0.0
  9
$UCSXDIR
 10
1.0
 20
0.0
 30
0.0
  9
$UCSYDIR
 10
0.0
 20
1.0
 30
0.0
  9
$UCSORTHOREF
  2

  9
$UCSORTHOVIEW
 70
     0
  9
$UCSORGTOP
 10
0.0
 20
0.0
 30
0.0
  9
$UCSORGBOTTOM
 10
0.0
 20
0.0
 30
0.0
  9
$UCSORGLEFT
 10
0.0
 20
0.0
 30
0.0
  9
$UCSORGRIGHT
 10
0.0
 20
0.0
 30
0.0
  9
$UCSORGFRONT
 10
0.0
 20
0.0
 30
0.0
  9
$UCSORGBACK
 10
0.0
 20
0.0
 30
0.0
  9
$PUCSBASE
  2

  9
$PUCSNAME
  2

  9
$PUCSORG
 10
0.0
 20
0.0
 30
0.0
  9
$PUCSXDIR
 10
1.0
 20
0.0
 30
0.0
  9
$PUCSYDIR
 10
0.0
 20
1.0
 30
0.0
  9
$PUCSORTHOREF
  2

  9
$PUCSORTHOVIEW
 70
     0
  9
$PUCSORGTOP
 10
0.0
 20
0.0
 30
0.0
  9
$PUCSORGBOTTOM
 10
0.0
 20
0.0
 30
0.0
  9
$PUCSORGLEFT
 10
0.0
 20
0.0
 30
0.0
  9
$PUCSORGRIGHT
 10
0.0
 20
0.0
 30
0.0
  9
$PUCSORGFRONT
 10
0.0
 20
0.0
 30
0.0
  9
$PUCSORGBACK
 10
0.0
 20
0.0
 30
0.0
  9
$USERI1
 70
     0
  9
$USERI2
 70
     0
  9
$USERI3
 70
     0
  9
$USERI4
 70
     0
  9
$USERI5
 70
     0
  9
$USERR1
 40
0.0
  9
$USERR2
 40
0.0
  9
$USERR3
 40
0.0
  9
$USERR4
 40
0.0
  9
$USERR5
 40
0.0
  9
$WORLDVIEW
 70
     1
  9
$SHADEDGE
 70
     3
  9
$SHADEDIF
 70
    70
  9
$TILEMODE
 70
     1
  9
$MAXACTVP
 70
    64
  9
$PINSBASE
 10
0.0
 20
0.0
 30
0.0
  9
$PLIMCHECK
 70
     0
  9
$PEXTMIN
 10
1.0000000000E+20
 20
1.0000000000E+20
 30
1.0000000000E+20
  9
$PEXTMAX
 10
-1.0000000000E+20
 20
-1.0000000000E+20
 30
-1.0000000000E+20
  9
$PLIMMIN
 10
0.0
 20
0.0
  9
$PLIMMAX
 10
12.0
 20
9.0
  9
$UNITMODE
 70
     0
  9
$VISRETAIN
 70
     1
  9
$PLINEGEN
 70
     0
  9
$PSLTSCALE
 70
     1
  9
$TREEDEPTH
 70
  3020
  9
$CMLSTYLE
  2
Standard
  9
$CMLJUST
 70
     0
  9
$CMLSCALE
 40
1.0
  9
$PROXYGRAPHICS
 70
     1
  9
$MEASUREMENT
 70
     0
  9
$CELWEIGHT
370
    -1
  9
$ENDCAPS
280
     0
  9
$JOINSTYLE
280
     0
  9
$LWDISPLAY
290
     1
  9
$INSUNITS
 70
     1
  9
$HYPERLINKBASE
  1

  9
$STYLESHEET
  1

  9
$XEDIT
290
     1
  9
$CEPSNTYPE
380
     0
  9
$PSTYLEMODE
290
     1
  9
$FINGERPRINTGUID
  2
{ade11f97-02b9-4081-9431-9d398c140ef0}
  9
$VERSIONGUID
  2
{FAEB1C32-E019-11D5-929B-00C0DF256EC4}
  9
$EXTNAMES
290
     1
  9
$PSVPSCALE
 40
0.0
  9
$OLESTARTUP
290
     0
  0
ENDSEC
  0
SECTION
  2
CLASSES
  0
CLASS
  1
ACDBDICTIONARYWDFLT
  2
AcDbDictionaryWithDefault
  3
ObjectDBX Classes
 90
        0
280
     0
281
     0
  0
CLASS
  1
VISUALSTYLE
  2
AcDbVisualStyle
  3
ObjectDBX Classes
 90
     4095
280
     0
281
     0
  0
CLASS
  1
MATERIAL
  2
AcDbMaterial
  3
ObjectDBX Classes
 90
     1153
280
     0
281
     0
  0
CLASS
  1
SCALE
  2
AcDbScale
  3
ObjectDBX Classes
 90
     1153
280
     0
281
     0
  0
CLASS
  1
TABLESTYLE
  2
AcDbTableStyle
  3
ObjectDBX Classes
 90
     4095
280
     0
281
     0
  0
CLASS
  1
MLEADERSTYLE
  2
AcDbMLeaderStyle
  3
ACDB_MLEADERSTYLE_CLASS
 90
     4095
280
     0
281
     0
  0
CLASS
  1
SUN
  2
AcDbSun
  3
SCENEOE
 90
     1153
280
     0
281
     0
  0
CLASS
  1
ACDBPLACEHOLDER
  2
AcDbPlaceHolder
  3
ObjectDBX Classes
 90
        0
280
     0
281
     0
  0
CLASS
  1
LAYOUT
  2
AcDbLayout
  3
ObjectDBX Classes
 90
        0
280
     0
281
     0
  0
ENDSEC
  0
SECTION
  2
TABLES
  0
TABLE
  2
VPORT
  5
8
330
0
100
AcDbSymbolTable
 70
     1
  0
VPORT
  5
29
330
8
100
AcDbSymbolTableRecord
100
AcDbViewportTableRecord
  2
*Active
 70
     0
 10
0.0
 20
0.0
 11
1.0
 21
1.0
 12
27.5
 22
21.25
 13
0.0
 23
0.0
 14
0.5
 24
0.5
 15
0.5
 25
0.5
 16
0.0
 26
0.0
 36
1.0
 17
0.0
 27
0.0
 37
0.0
 40
42.5
 41
1.2941176471
 42
50.0
 43
0.0
 44
0.0
 50
0.0
 51
0.0
 71
     0
 72
  2000
 73
     1
 74
     3
 75
     0
 76
     0
 77
     0
 78
     0
281
     0
 65
     1
110
0.0
120
0.0
130
0.0
111
1.0
121
0.0
131
0.0
112
0.0
122
1.0
132
0.0
 79
     0
146
0.0
  0
ENDTAB
  0
TABLE
  2
LTYPE
  5
5
330
0
100
AcDbSymbolTable
 70
     6
  0
LTYPE
  5
14
330
5
100
AcDbSymbolTableRecord
100
AcDbLinetypeTableRecord
  2
ByBlock
 70
     0
  3

 72
    65
 73
     0
 40
0.0
  0
LTYPE
  5
15
330
5
100
AcDbSymbolTableRecord
100
AcDbLinetypeTableRecord
  2
ByLayer
 70
     0
  3

 72
    65
 73
     0
 40
0.0
  0
LTYPE
  5
16
330
5
100
AcDbSymbolTableRecord
100
AcDbLinetypeTableRecord
  2
Continuous
 70
     0
  3
Solid line
 72
    65
 73
     0
 40
0.0
  0
LTYPE
  5
5E
330
5
100
AcDbSymbolTableRecord
100
AcDbLinetypeTableRecord
  2
HIDDEN
 70
     0
  3
Hidden __ __ __ __ __ __ __ __ __ __ __ __ __ __
 72
    65
 73
     2
 40
0.075
 49
0.05
 74
     0
 49
-0.025
 74
     0
  0
LTYPE
  5
5F
330
5
100
AcDbSymbolTableRecord
100
AcDbLinetypeTableRecord
  2
PHANTOM
 70
     0
  3
Phantom ______  __  __  ______  __  __  ______
 72
    65
 73
     6
 40
0.5
 49
0.25
 74
     0
 49
-0.05
 74
     0
 49
0.05
 74
     0
 49
-0.05
 74
     0
 49
0.05
 74
     0
 49
-0.05
 74
     0
  0
LTYPE
  5
60
330
5
100
AcDbSymbolTableRecord
100
AcDbLinetypeTableRecord
  2
CENTER
 70
     0
  3
Center ____ _ ____ _ ____ _ ____ _ ____ _ ____
 72
    65
 73
     4
 40
0.4
 49
0.25
 74
     0
 49
-0.05
 74
     0
 49
0.05
 74
     0
 49
-0.05
 74
     0
  0
LTYPE
  5
61
330
5
100
AcDbSymbolTableRecord
100
AcDbLinetypeTableRecord
  2
CENTERX2
 70
     0
  3
Center (2x) ________  __  ________  __  _____
 72
    65
 73
     4
 40
0.8
 49
0.5
 74
     0
 49
-0.1
 74
     0
 49
0.1
 74
     0
 49
-0.1
 74
     0
  0
LTYPE
  5
62
330
5
100
AcDbSymbolTableRecord
100
AcDbLinetypeTableRecord
  2
DOT2
 70
     0
  3
Dot (.5x) ........................................
 72
    65
 73
     2
 40
0.025
 49
0.0
 74
     0
 49
-0.025
 74
     0
  0
ENDTAB
  0
TABLE
  2
LAYER
  5
2
330
0
100
AcDbSymbolTable
 70
    12
  0
LAYER
  5
10
330
2
100
AcDbSymbolTableRecord
100
AcDbLayerTableRecord
  2
0
 70
     0
 62
     7
  6
Continuous
370
    -3
390
F
  0
LAYER
  5
63
330
2
100
AcDbSymbolTableRecord
100
AcDbLayerTableRecord
  2
SLD-0
 70
     0
 62
     7
  6
Continuous
370
    -3
390
F
  0
LAYER
  5
64
330
2
100
AcDbSymbolTableRecord
100
AcDbLayerTableRecord
  2
DIM
 70
     0
 62
     7
  6
Continuous
370
    -3
390
F
  0
LAYER
  5
65
330
2
100
AcDbSymbolTableRecord
100
AcDbLayerTableRecord
  2
CEN
 70
     0
 62
     1
  6
CENTER
370
    -3
390
F
  0
LAYER
  5
66
330
2
100
AcDbSymbolTableRecord
100
AcDbLayerTableRecord
  2
HAT
 70
     0
 62
     4
  6
Continuous
370
    -3
390
F
  0
LAYER
  5
67
330
2
100
AcDbSymbolTableRecord
100
AcDbLayerTableRecord
  2
OBJ
 70
     0
 62
     5
  6
Continuous
370
    -3
390
F
  0
LAYER
  5
68
330
2
100
AcDbSymbolTableRecord
100
AcDbLayerTableRecord
  2
SLD-DEFPOINTS
 70
     0
 62
     7
  6
Continuous
370
    -3
390
F
  0
LAYER
  5
69
330
2
100
AcDbSymbolTableRecord
100
AcDbLayerTableRecord
  2
HID
 70
     0
 62
     4
  6
HIDDEN
370
    -3
390
F
  0
LAYER
  5
6A
330
2
100
AcDbSymbolTableRecord
100
AcDbLayerTableRecord
  2
NOTE
 70
     0
 62
     7
  6
Continuous
370
    -3
390
F
  0
LAYER
  5
6B
330
2
100
AcDbSymbolTableRecord
100
AcDbLayerTableRecord
  2
VP
 70
     0
 62
    -5
  6
Continuous
290
     0
370
    -3
390
F
  0
LAYER
  5
6C
330
2
100
AcDbSymbolTableRecord
100
AcDbLayerTableRecord
  2
TITLE
 70
     0
 62
     7
  6
Continuous
370
    -3
390
F
  0
LAYER
  5
6D
330
2
100
AcDbSymbolTableRecord
100
AcDbLayerTableRecord
  2
THICK_TITLE
 70
     0
 62
     7
  6
Continuous
370
   100
390
F
  0
ENDTAB
  0
TABLE
  2
STYLE
  5
3
330
0
100
AcDbSymbolTable
 70
     2
  0
STYLE
  5
11
330
3
100
AcDbSymbolTableRecord
100
AcDbTextStyleTableRecord
  2
STANDARD
 70
     0
 40
0.0
 41
1.0
 50
0.0
 71
     0
 42
0.625
  3
GOTHIC.TTF
  4

1001
ACAD
1000
CENTURY GOTHIC
1071
       34
  0
STYLE
  5
107
330
3
100
AcDbSymbolTableRecord
100
AcDbTextStyleTableRecord
  2
SLDTEXTSTYLE0
 70
     0
 40
0.0
 41
0.913
 50
0.0
 71
     0
 42
0.625
  3
GOTHIC.TTF
  4

1001
ACAD
1000
Century Gothic
1071
      290
  0
ENDTAB
  0
TABLE
  2
VIEW
  5
6
330
0
100
AcDbSymbolTable
 70
     0
  0
ENDTAB
  0
TABLE
  2
UCS
  5
7
330
0
100
AcDbSymbolTable
 70
     0
  0
ENDTAB
  0
TABLE
  2
APPID
  5
9
330
0
100
AcDbSymbolTable
 70
     1
  0
APPID
  5
12
330
9
100
AcDbSymbolTableRecord
100
AcDbRegAppTableRecord
  2
ACAD
 70
     0
  0
ENDTAB
  0
TABLE
  2
DIMSTYLE
  5
A
330
0
100
AcDbSymbolTable
 70
     8
100
AcDbDimStyleTable
  0
DIMSTYLE
105
27
330
A
100
AcDbSymbolTableRecord
100
AcDbDimStyleTableRecord
  2
Standard
 70
     0
178
     0
340
11
  0
DIMSTYLE
105
108
102
{ACAD_REACTORS
330
106
330
11A
330
12D
330
177
330
18B
102
}
330
A
100
AcDbSymbolTableRecord
100
AcDbDimStyleTableRecord
  2
SLDDIMSTYLE0
 70
     0
 41
0.65
 44
0.0
 45
0.000000001
 78
    12
 79
     3
140
0.625
147
0.15625
148
0.000000001
170
     1
172
     1
173
     1
178
     0
271
     6
272
     0
276
     2
277
     5
284
    12
289
     0
340
107
  0
DIMSTYLE
105
143
102
{ACAD_REACTORS
330
142
330
154
102
}
330
A
100
AcDbSymbolTableRecord
100
AcDbDimStyleTableRecord
  2
SLDDIMSTYLE1
 70
     0
 41
0.65
 44
0.0
 45
0.000000001
 78
    12
 79
     3
140
0.625
147
0.15625
148
0.000000001
170
     1
173
     1
178
     0
271
     0
272
     0
276
     2
277
     5
284
    12
340
107
  0
DIMSTYLE
105
166
102
{ACAD_REACTORS
330
165
330
1A0
330
1C5
330
1D9
330
1ED
102
}
330
A
100
AcDbSymbolTableRecord
100
AcDbDimStyleTableRecord
  2
SLDDIMSTYLE2
 70
     0
 41
0.65
 44
0.0
 45
0.000000001
 78
    12
 79
     3
140
0.625
147
0.15625
148
0.000000001
170
     1
173
     1
178
     0
271
     6
272
     0
276
     2
277
     5
284
    12
340
107
  0
DIMSTYLE
105
1B4
102
{ACAD_REACTORS
330
1B3
102
}
330
A
100
AcDbSymbolTableRecord
100
AcDbDimStyleTableRecord
  2
SLDDIMSTYLE3
 70
     0
 41
0.65
 44
0.0
 45
0.000000001
 78
    12
 79
     3
140
0.625
147
0.15625
148
0.000000001
170
     1
172
     1
173
     1
178
     0
271
     0
272
     0
276
     2
277
     5
284
    12
289
     0
340
107
  0
DIMSTYLE
105
2FA
102
{ACAD_REACTORS
330
2F9
330
33A
102
}
330
A
100
AcDbSymbolTableRecord
100
AcDbDimStyleTableRecord
  2
SLDDIMSTYLE4
 70
     0
 41
0.65
 44
0.0
 45
0.000000001
 78
    12
 79
     3
140
0.625
144
0.8
147
0.15625
148
0.000000001
170
     1
172
     1
173
     1
178
     0
271
     6
272
     0
276
     2
277
     5
284
    12
289
     0
340
107
  0
DIMSTYLE
105
31A
102
{ACAD_REACTORS
330
319
102
}
330
A
100
AcDbSymbolTableRecord
100
AcDbDimStyleTableRecord
  2
SLDDIMSTYLE5
 70
     0
 41
0.65
 44
0.0
 45
0.000000001
 78
    12
 79
     3
140
0.625
144
0.8
147
0.15625
148
0.000000001
170
     1
173
     1
178
     0
271
     6
272
     0
276
     2
277
     5
284
    12
340
107
  0
DIMSTYLE
105
35B
102
{ACAD_REACTORS
330
35A
102
}
330
A
100
AcDbSymbolTableRecord
100
AcDbDimStyleTableRecord
  2
SLDDIMSTYLE6
 70
     0
 41
0.65
 44
0.0
 45
0.000000001
 78
    12
 79
     3
140
0.625
144
0.8
147
0.15625
148
0.000000001
170
     1
172
     1
173
     1
178
     0
271
     0
272
     0
276
     2
277
     5
284
    12
289
     0
340
107
  0
ENDTAB
  0
TABLE
  2
BLOCK_RECORD
  5
1
330
0
100
AcDbSymbolTable
 70
    20
  0
BLOCK_RECORD
  5
1F
330
1
100
AcDbSymbolTableRecord
100
AcDbBlockTableRecord
  2
*Model_Space
340
22
  0
BLOCK_RECORD
  5
1B
330
1
100
AcDbSymbolTableRecord
100
AcDbBlockTableRecord
  2
*Paper_Space
340
1E
  0
BLOCK_RECORD
  5
23
330
1
100
AcDbSymbolTableRecord
100
AcDbBlockTableRecord
  2
*Paper_Space0
340
26
  0
BLOCK_RECORD
  5
6E
330
1
100
AcDbSymbolTableRecord
100
AcDbBlockTableRecord
  2
SW_BROKEN_VIEW_0
340
0
102
{BLKREFS
331
71
102
}
  0
BLOCK_RECORD
  5
109
330
1
100
AcDbSymbolTableRecord
100
AcDbBlockTableRecord
  2
_D
340
0
  0
BLOCK_RECORD
  5
11B
330
1
100
AcDbSymbolTableRecord
100
AcDbBlockTableRecord
  2
_D_1
340
0
  0
BLOCK_RECORD
  5
12E
330
1
100
AcDbSymbolTableRecord
100
AcDbBlockTableRecord
  2
_D_2
340
0
  0
BLOCK_RECORD
  5
144
330
1
100
AcDbSymbolTableRecord
100
AcDbBlockTableRecord
  2
_D_3
340
0
  0
BLOCK_RECORD
  5
155
330
1
100
AcDbSymbolTableRecord
100
AcDbBlockTableRecord
  2
_D_4
340
0
  0
BLOCK_RECORD
  5
167
330
1
100
AcDbSymbolTableRecord
100
AcDbBlockTableRecord
  2
_D_5
340
0
  0
BLOCK_RECORD
  5
178
330
1
100
AcDbSymbolTableRecord
100
AcDbBlockTableRecord
  2
_D_6
340
0
  0
BLOCK_RECORD
  5
18C
330
1
100
AcDbSymbolTableRecord
100
AcDbBlockTableRecord
  2
_D_7
340
0
  0
BLOCK_RECORD
  5
1A1
330
1
100
AcDbSymbolTableRecord
100
AcDbBlockTableRecord
  2
_D_8
340
0
  0
BLOCK_RECORD
  5
1B5
330
1
100
AcDbSymbolTableRecord
100
AcDbBlockTableRecord
  2
_D_9
340
0
  0
BLOCK_RECORD
  5
1C6
330
1
100
AcDbSymbolTableRecord
100
AcDbBlockTableRecord
  2
_D_10
340
0
  0
BLOCK_RECORD
  5
1DA
330
1
100
AcDbSymbolTableRecord
100
AcDbBlockTableRecord
  2
_D_11
340
0
  0
BLOCK_RECORD
  5
1EE
330
1
100
AcDbSymbolTableRecord
100
AcDbBlockTableRecord
  2
_D_12
340
0
  0
BLOCK_RECORD
  5
209
330
1
100
AcDbSymbolTableRecord
100
AcDbBlockTableRecord
  2
SW_BROKEN_VIEW_1
340
0
102
{BLKREFS
331
20C
102
}
  0
BLOCK_RECORD
  5
2FB
330
1
100
AcDbSymbolTableRecord
100
AcDbBlockTableRecord
  2
_D_13
340
0
  0
BLOCK_RECORD
  5
31B
330
1
100
AcDbSymbolTableRecord
100
AcDbBlockTableRecord
  2
_D_14
340
0
  0
BLOCK_RECORD
  5
33B
330
1
100
AcDbSymbolTableRecord
100
AcDbBlockTableRecord
  2
_D_15
340
0
  0
BLOCK_RECORD
  5
35C
330
1
100
AcDbSymbolTableRecord
100
AcDbBlockTableRecord
  2
_D_16
340
0
  0
ENDTAB
  0
ENDSEC
  0
SECTION
  2
BLOCKS
  0
BLOCK
  5
20
330
1F
100
AcDbEntity
  8
0
100
AcDbBlockBegin
  2
*Model_Space
 70
     0
 10
0.0
 20
0.0
 30
0.0
  3
*Model_Space
  1

  0
ENDBLK
  5
21
330
1F
100
AcDbEntity
  8
0
100
AcDbBlockEnd
  0
BLOCK
  5
1C
330
1B
100
AcDbEntity
 67
     1
  8
0
100
AcDbBlockBegin
  2
*Paper_Space
 70
     0
 10
0.0
 20
0.0
 30
0.0
  3
*Paper_Space
  1

  0
ENDBLK
  5
1D
330
1B
100
AcDbEntity
 67
     1
  8
0
100
AcDbBlockEnd
  0
BLOCK
  5
24
330
23
100
AcDbEntity
  8
0
100
AcDbBlockBegin
  2
*Paper_Space0
 70
     0
 10
0.0
 20
0.0
 30
0.0
  3
*Paper_Space0
  1

  0
ENDBLK
  5
25
330
23
100
AcDbEntity
  8
0
100
AcDbBlockEnd
  0
BLOCK
  5
6F
330
6E
100
AcDbEntity
  8
0
100
AcDbBlockBegin
  2
SW_BROKEN_VIEW_0
 70
     0
 10
0.0
 20
0.0
 30
0.0
  3
SW_BROKEN_VIEW_0
  1

  0
ENDBLK
  5
70
330
6E
100
AcDbEntity
  8
0
100
AcDbBlockEnd
  0
BLOCK
  5
10A
330
109
100
AcDbEntity
  8
0
100
AcDbBlockBegin
  2
_D
 70
     0
 10
0.0
 20
0.0
 30
0.0
  3
_D
  1

  0
SOLID
  5
10C
330
109
100
AcDbEntity
  8
SLD-0
100
AcDbTrace
 10
19.3010082367
 20
35.3860356648
 30
0.0
 11
19.9510082367
 21
35.2860356648
 31
0.0
 12
19.9510082367
 22
35.4860356648
 32
0.0
 13
19.9510082367
 23
35.4860356648
 33
0.0
  0
SOLID
  5
10D
330
109
100
AcDbEntity
  8
SLD-0
100
AcDbTrace
 10
18.0510082367
 20
35.3860356648
 30
0.0
 11
17.4010082367
 21
35.4860356648
 31
0.0
 12
17.4010082367
 22
35.2860356648
 32
0.0
 13
17.4010082367
 23
35.2860356648
 33
0.0
  0
LINE
  5
10E
330
109
100
AcDbEntity
  8
SLD-0
100
AcDbLine
 10
13.6429481177
 20
34.7533754944
 30
0.0
 11
13.4525184321
 21
34.7533754944
 31
0.0
  0
LINE
  5
10F
330
109
100
AcDbEntity
  8
SLD-0
100
AcDbLine
 10
13.4525184321
 20
34.7533754944
 30
0.0
 11
13.4525184321
 21
33.7611879646
 31
0.0
  0
LINE
  5
110
330
109
100
AcDbEntity
  8
SLD-0
100
AcDbLine
 10
13.4525184321
 20
33.7611879646
 30
0.0
 11
13.6429481177
 21
33.7611879646
 31
0.0
  0
LINE
  5
111
330
109
100
AcDbEntity
  8
SLD-0
100
AcDbLine
 10
16.1290592813
 20
34.7533754944
 30
0.0
 11
16.3194889668
 21
34.7533754944
 31
0.0
  0
LINE
  5
112
330
109
100
AcDbEntity
  8
SLD-0
100
AcDbLine
 10
16.3194889668
 20
34.7533754944
 30
0.0
 11
16.3194889668
 21
33.7611879646
 31
0.0
  0
LINE
  5
113
330
109
100
AcDbEntity
  8
SLD-0
100
AcDbLine
 10
16.3194889668
 20
33.7611879646
 30
0.0
 11
16.1290592813
 21
33.7611879646
 31
0.0
  0
LINE
  5
114
330
109
100
AcDbEntity
  8
SLD-0
100
AcDbLine
 10
19.3010082367
 20
35.3860356648
 30
0.0
 11
20.5510082367
 21
35.3860356648
 31
0.0
  0
LINE
  5
115
330
109
100
AcDbEntity
  8
SLD-0
100
AcDbLine
 10
18.0510082367
 20
35.3860356648
 30
0.0
 11
16.8675871566
 21
35.3860356648
 31
0.0
  0
MTEXT
  5
116
330
109
100
AcDbEntity
  8
SLD-0
100
AcDbMText
 10
13.0311859682
 20
35.6882171383
 30
0.0
 40
0.625
 41
0.0
 71
     1
 72
     1
  1
 
  7
SLDTEXTSTYLE0
 73
     1
 44
1.0
  0
MTEXT
  5
117
330
109
100
AcDbEntity
  8
SLD-0
100
AcDbMText
 10
13.7666460429
 20
35.6786684809
 30
0.0
 40
0.625
 41
0.0
 71
     1
 72
     1
  1
1 1/4"
  7
SLDTEXTSTYLE0
 73
     1
 44
1.0
  0
MTEXT
  5
118
330
109
100
AcDbEntity
  8
SLD-0
100
AcDbMText
 10
13.6429481177
 20
34.5595278771
 30
0.0
 40
0.625
 41
0.0
 71
     1
 72
     1
  1
32mm
  7
SLDTEXTSTYLE0
 73
     1
 44
1.0
  0
MTEXT
  5
119
330
109
100
AcDbEntity
  8
SLD-0
100
AcDbMText
 10
16.5099185149
 20
35.6882171383
 30
0.0
 40
0.625
 41
0.0
 71
     1
 72
     1
  1
 
  7
SLDTEXTSTYLE0
 73
     1
 44
1.0
  0
ENDBLK
  5
10B
330
109
100
AcDbEntity
  8
0
100
AcDbBlockEnd
  0
BLOCK
  5
11C
330
11B
100
AcDbEntity
  8
0
100
AcDbBlockBegin
  2
_D_1
 70
     0
 10
0.0
 20
0.0
 30
0.0
  3
_D_1
  1

  0
SOLID
  5
11E
330
11B
100
AcDbEntity
  8
SLD-0
100
AcDbTrace
 10
19.7860082367
 20
30.1917297857
 30
0.0
 11
20.4360082367
 21
30.0917297857
 31
0.0
 12
20.4360082367
 22
30.2917297857
 32
0.0
 13
20.4360082367
 23
30.2917297857
 33
0.0
  0
SOLID
  5
11F
330
11B
100
AcDbEntity
  8
SLD-0
100
AcDbTrace
 10
17.5660082367
 20
30.1917297857
 30
0.0
 11
16.9160082367
 21
30.2917297857
 31
0.0
 12
16.9160082367
 22
30.0917297857
 32
0.0
 13
16.9160082367
 23
30.0917297857
 33
0.0
  0
LINE
  5
120
330
11B
100
AcDbEntity
  8
SLD-0
100
AcDbLine
 10
13.5229643267
 20
29.5686181467
 30
0.0
 11
13.3325346412
 21
29.5686181467
 31
0.0
  0
LINE
  5
121
330
11B
100
AcDbEntity
  8
SLD-0
100
AcDbLine
 10
13.3325346412
 20
29.5686181467
 30
0.0
 11
13.3325346412
 21
28.5764306169
 31
0.0
  0
LINE
  5
122
330
11B
100
AcDbEntity
  8
SLD-0
100
AcDbLine
 10
13.3325346412
 20
28.5764306169
 30
0.0
 11
13.5229643267
 21
28.5764306169
 31
0.0
  0
LINE
  5
123
330
11B
100
AcDbEntity
  8
SLD-0
100
AcDbLine
 10
16.0090754903
 20
29.5686181467
 30
0.0
 11
16.1995051758
 21
29.5686181467
 31
0.0
  0
LINE
  5
124
330
11B
100
AcDbEntity
  8
SLD-0
100
AcDbLine
 10
16.1995051758
 20
29.5686181467
 30
0.0
 11
16.1995051758
 21
28.5764306169
 31
0.0
  0
LINE
  5
125
330
11B
100
AcDbEntity
  8
SLD-0
100
AcDbLine
 10
16.1995051758
 20
28.5764306169
 30
0.0
 11
16.0090754903
 21
28.5764306169
 31
0.0
  0
LINE
  5
126
330
11B
100
AcDbEntity
  8
SLD-0
100
AcDbLine
 10
19.7860082367
 20
28.3217691238
 30
0.0
 11
19.7860082367
 21
30.8167297857
 31
0.0
  0
LINE
  5
127
330
11B
100
AcDbEntity
  8
SLD-0
100
AcDbLine
 10
17.5660082367
 20
28.3217691238
 30
0.0
 11
17.5660082367
 21
30.8167297857
 31
0.0
  0
LINE
  5
128
330
11B
100
AcDbEntity
  8
SLD-0
100
AcDbLine
 10
19.7860082367
 20
30.1917297857
 30
0.0
 11
21.0360082367
 21
30.1917297857
 31
0.0
  0
LINE
  5
129
330
11B
100
AcDbEntity
  8
SLD-0
100
AcDbLine
 10
17.5660082367
 20
30.1917297857
 30
0.0
 11
16.5167006788
 21
30.1917297857
 31
0.0
  0
MTEXT
  5
12A
330
11B
100
AcDbEntity
  8
SLD-0
100
AcDbMText
 10
13.1753731546
 20
30.4939111791
 30
0.0
 40
0.625
 41
0.0
 71
     1
 72
     1
  1
%%c
  7
SLDTEXTSTYLE0
 73
     1
 44
1.0
  0
MTEXT
  5
12B
330
11B
100
AcDbEntity
  8
SLD-0
100
AcDbMText
 10
14.1179512575
 20
30.4939111791
 30
0.0
 40
0.625
 41
0.0
 71
     1
 72
     1
  1
2 1/4"
  7
SLDTEXTSTYLE0
 73
     1
 44
1.0
  0
MTEXT
  5
12C
330
11B
100
AcDbEntity
  8
SLD-0
100
AcDbMText
 10
13.5229643267
 20
29.3747705294
 30
0.0
 40
0.625
 41
0.0
 71
     1
 72
     1
  1
56mm
  7
SLDTEXTSTYLE0
 73
     1
 44
1.0
  0
ENDBLK
  5
11D
330
11B
100
AcDbEntity
  8
0
100
AcDbBlockEnd
  0
BLOCK
  5
12F
330
12E
100
AcDbEntity
  8
0
100
AcDbBlockBegin
  2
_D_2
 70
     0
 10
0.0
 20
0.0
 30
0.0
  3
_D_2
  1

  0
SOLID
  5
131
330
12E
100
AcDbEntity
  8
SLD-0
100
AcDbTrace
 10
24.5130661726
 20
26.7367691238
 30
0.0
 11
24.4130661726
 21
26.0867691238
 31
0.0
 12
24.6130661726
 22
26.0867691238
 32
0.0
 13
24.6130661726
 23
26.0867691238
 33
0.0
  0
SOLID
  5
132
330
12E
100
AcDbEntity
  8
SLD-0
100
AcDbTrace
 10
24.5130661726
 20
28.1017691238
 30
0.0
 11
24.6130661726
 21
28.7517691238
 31
0.0
 12
24.4130661726
 22
28.7517691238
 32
0.0
 13
24.4130661726
 23
28.7517691238
 33
0.0
  0
LINE
  5
133
330
12E
100
AcDbEntity
  8
SLD-0
100
AcDbLine
 10
26.7551260494
 20
24.2084001445
 30
0.0
 11
26.5646963638
 21
24.2084001445
 31
0.0
  0
LINE
  5
134
330
12E
100
AcDbEntity
  8
SLD-0
100
AcDbLine
 10
26.5646963638
 20
24.2084001445
 30
0.0
 11
26.5646963638
 21
23.2162126146
 31
0.0
  0
LINE
  5
135
330
12E
100
AcDbEntity
  8
SLD-0
100
AcDbLine
 10
26.5646963638
 20
23.2162126146
 30
0.0
 11
26.7551260494
 21
23.2162126146
 31
0.0
  0
LINE
  5
136
330
12E
100
AcDbEntity
  8
SLD-0
100
AcDbLine
 10
29.241237213
 20
24.2084001445
 30
0.0
 11
29.4316668985
 21
24.2084001445
 31
0.0
  0
LINE
  5
137
330
12E
100
AcDbEntity
  8
SLD-0
100
AcDbLine
 10
29.4316668985
 20
24.2084001445
 30
0.0
 11
29.4316668985
 21
23.2162126146
 31
0.0
  0
LINE
  5
138
330
12E
100
AcDbEntity
  8
SLD-0
100
AcDbLine
 10
29.4316668985
 20
23.2162126146
 30
0.0
 11
29.241237213
 21
23.2162126146
 31
0.0
  0
LINE
  5
139
330
12E
100
AcDbEntity
  8
SLD-0
100
AcDbLine
 10
20.1135082367
 20
26.7367691238
 30
0.0
 11
25.1380661726
 21
26.7367691238
 31
0.0
  0
LINE
  5
13A
330
12E
100
AcDbEntity
  8
SLD-0
100
AcDbLine
 10
20.0060082367
 20
28.1017691238
 30
0.0
 11
25.1380661726
 21
28.1017691238
 31
0.0
  0
LINE
  5
13B
330
12E
100
AcDbEntity
  8
SLD-0
100
AcDbLine
 10
25.7630661726
 20
24.8410603148
 30
0.0
 11
24.5130661726
 21
24.8410603148
 31
0.0
  0
LINE
  5
13C
330
12E
100
AcDbEntity
  8
SLD-0
100
AcDbLine
 10
24.5130661726
 20
24.8410603148
 30
0.0
 11
24.5130661726
 21
26.7367691238
 31
0.0
  0
LINE
  5
13D
330
12E
100
AcDbEntity
  8
SLD-0
100
AcDbLine
 10
24.5130661726
 20
28.1017691238
 30
0.0
 11
24.5130661726
 21
29.3517691238
 31
0.0
  0
MTEXT
  5
13E
330
12E
100
AcDbEntity
  8
SLD-0
100
AcDbMText
 10
26.1433638999
 20
25.1432417884
 30
0.0
 40
0.625
 41
0.0
 71
     1
 72
     1
  1
 
  7
SLDTEXTSTYLE0
 73
     1
 44
1.0
  0
MTEXT
  5
13F
330
12E
100
AcDbEntity
  8
SLD-0
100
AcDbMText
 10
26.8788239746
 20
25.133693131
 30
0.0
 40
0.625
 41
0.0
 71
     1
 72
     1
  1
1 3/8"
  7
SLDTEXTSTYLE0
 73
     1
 44
1.0
  0
MTEXT
  5
140
330
12E
100
AcDbEntity
  8
SLD-0
100
AcDbMText
 10
26.7551260494
 20
24.0145525271
 30
0.0
 40
0.625
 41
0.0
 71
     1
 72
     1
  1
35mm
  7
SLDTEXTSTYLE0
 73
     1
 44
1.0
  0
MTEXT
  5
141
330
12E
100
AcDbEntity
  8
SLD-0
100
AcDbMText
 10
29.6220964466
 20
25.1432417884
 30
0.0
 40
0.625
 41
0.0
 71
     1
 72
     1
  1
 
  7
SLDTEXTSTYLE0
 73
     1
 44
1.0
  0
ENDBLK
  5
130
330
12E
100
AcDbEntity
  8
0
100
AcDbBlockEnd
  0
BLOCK
  5
145
330
144
100
AcDbEntity
  8
0
100
AcDbBlockBegin
  2
_D_3
 70
     0
 10
0.0
 20
0.0
 30
0.0
  3
_D_3
  1

  0
SOLID
  5
147
330
144
100
AcDbEntity
  8
SLD-0
100
AcDbTrace
 10
8.0433850101
 20
26.7367691238
 30
0.0
 11
7.9433850101
 21
26.0867691238
 31
0.0
 12
8.1433850101
 22
26.0867691238
 32
0.0
 13
8.1433850101
 23
26.0867691238
 33
0.0
  0
SOLID
  5
148
330
144
100
AcDbEntity
  8
SLD-0
100
AcDbTrace
 10
8.0433850101
 20
13.3839946906
 30
0.0
 11
8.1433850101
 21
14.0339946906
 31
0.0
 12
7.9433850101
 22
14.0339946906
 32
0.0
 13
7.9433850101
 23
14.0339946906
 33
0.0
  0
LINE
  5
149
330
144
100
AcDbEntity
  8
SLD-0
100
AcDbLine
 10
17.2385082367
 20
26.7367691238
 30
0.0
 11
7.4183850101
 21
26.7367691238
 31
0.0
  0
LINE
  5
14A
330
144
100
AcDbEntity
  8
SLD-0
100
AcDbLine
 10
19.6135082367
 20
13.3839946906
 30
0.0
 11
7.4183850101
 21
13.3839946906
 31
0.0
  0
LINE
  5
14B
330
144
100
AcDbEntity
  8
SLD-0
100
AcDbLine
 10
8.0433850101
 20
26.7367691238
 30
0.0
 11
8.0433850101
 21
21.8805373345
 31
0.0
  0
LINE
  5
14C
330
144
100
AcDbEntity
  8
SLD-0
100
AcDbLine
 10
8.0433850101
 20
13.3839946906
 30
0.0
 11
8.0433850101
 21
17.4570232978
 31
0.0
  0
LINE
  5
14D
330
144
100
AcDbEntity
  8
SLD-0
100
AcDbLine
 10
8.0433850101
 20
17.4570232978
 30
0.0
 11
7.7308850101
 21
17.6132732978
 31
0.0
  0
LINE
  5
14E
330
144
100
AcDbEntity
  8
SLD-0
100
AcDbLine
 10
7.7308850101
 20
17.6132732978
 30
0.0
 11
8.3558850101
 21
17.9257732978
 31
0.0
  0
LINE
  5
14F
330
144
100
AcDbEntity
  8
SLD-0
100
AcDbLine
 10
8.3558850101
 20
17.9257732978
 30
0.0
 11
8.0433850101
 21
18.0820232978
 31
0.0
  0
LINE
  5
150
330
144
100
AcDbEntity
  8
SLD-0
100
AcDbLine
 10
8.0433850101
 20
18.0820232978
 30
0.0
 11
8.0433850101
 21
18.9039746534
 31
0.0
  0
MTEXT
  5
151
330
144
100
AcDbEntity
  8
SLD-0
100
AcDbMText
 10
4.7044091489
 20
21.6866897172
 30
0.0
 40
0.625
 41
0.0
 71
     1
 72
     1
  1
SPECIFY LENGTH:
  7
SLDTEXTSTYLE0
 73
     1
 44
1.0
  0
MTEXT
  5
152
330
144
100
AcDbEntity
  8
SLD-0
100
AcDbMText
 10
5.9005901472
 20
20.6945021874
 30
0.0
 40
0.625
 41
0.0
 71
     1
 72
     1
  1
12" OR 18" 
  7
SLDTEXTSTYLE0
 73
     1
 44
1.0
  0
MTEXT
  5
153
330
144
100
AcDbEntity
  8
SLD-0
100
AcDbMText
 10
4.4335761443
 20
19.7023146575
 30
0.0
 40
0.625
 41
0.0
 71
     1
 72
     1
  1
[305mm - 457mm]
  7
SLDTEXTSTYLE0
 73
     1
 44
1.0
  0
ENDBLK
  5
146
330
144
100
AcDbEntity
  8
0
100
AcDbBlockEnd
  0
BLOCK
  5
156
330
155
100
AcDbEntity
  8
0
100
AcDbBlockBegin
  2
_D_4
 70
     0
 10
0.0
 20
0.0
 30
0.0
  3
_D_4
  1

  0
SOLID
  5
158
330
155
100
AcDbEntity
  8
SLD-0
100
AcDbTrace
 10
8.0433850101
 20
33.5854831944
 30
0.0
 11
7.9433850101
 21
32.9354831944
 31
0.0
 12
8.1433850101
 22
32.9354831944
 32
0.0
 13
8.1433850101
 23
32.9354831944
 33
0.0
  0
SOLID
  5
159
330
155
100
AcDbEntity
  8
SLD-0
100
AcDbTrace
 10
8.0433850101
 20
28.1017691238
 30
0.0
 11
8.1433850101
 21
28.7517691238
 31
0.0
 12
7.9433850101
 22
28.7517691238
 32
0.0
 13
7.9433850101
 23
28.7517691238
 33
0.0
  0
LINE
  5
15A
330
155
100
AcDbEntity
  8
SLD-0
100
AcDbLine
 10
17.8010082367
 20
33.5854831944
 30
0.0
 11
7.4183850101
 21
33.5854831944
 31
0.0
  0
LINE
  5
15B
330
155
100
AcDbEntity
  8
SLD-0
100
AcDbLine
 10
17.3460082367
 20
28.1017691238
 30
0.0
 11
7.4183850101
 21
28.1017691238
 31
0.0
  0
LINE
  5
15C
330
155
100
AcDbEntity
  8
SLD-0
100
AcDbLine
 10
8.0433850101
 20
33.5854831944
 30
0.0
 11
8.0433850101
 21
32.8005796769
 31
0.0
  0
LINE
  5
15D
330
155
100
AcDbEntity
  8
SLD-0
100
AcDbLine
 10
8.0433850101
 20
28.1017691238
 30
0.0
 11
8.0433850101
 21
29.0857039445
 31
0.0
  0
LINE
  5
15E
330
155
100
AcDbEntity
  8
SLD-0
100
AcDbLine
 10
8.0433850101
 20
29.0857039445
 30
0.0
 11
7.7308850101
 21
29.2419539445
 31
0.0
  0
LINE
  5
15F
330
155
100
AcDbEntity
  8
SLD-0
100
AcDbLine
 10
7.7308850101
 20
29.2419539445
 30
0.0
 11
8.3558850101
 21
29.5544539445
 31
0.0
  0
LINE
  5
160
330
155
100
AcDbEntity
  8
SLD-0
100
AcDbLine
 10
8.3558850101
 20
29.5544539445
 30
0.0
 11
8.0433850101
 21
29.7107039445
 31
0.0
  0
LINE
  5
161
330
155
100
AcDbEntity
  8
SLD-0
100
AcDbLine
 10
8.0433850101
 20
29.7107039445
 30
0.0
 11
8.0433850101
 21
29.8240169957
 31
0.0
  0
MTEXT
  5
162
330
155
100
AcDbEntity
  8
SLD-0
100
AcDbMText
 10
4.7044091489
 20
32.6067320595
 30
0.0
 40
0.625
 41
0.0
 71
     1
 72
     1
  1
SPECIFY LENGTH:
  7
SLDTEXTSTYLE0
 73
     1
 44
1.0
  0
MTEXT
  5
163
330
155
100
AcDbEntity
  8
SLD-0
100
AcDbMText
 10
5.6631767731
 20
31.6145445297
 30
0.0
 40
0.625
 41
0.0
 71
     1
 72
     1
  1
6" - 48" MAX
  7
SLDTEXTSTYLE0
 73
     1
 44
1.0
  0
MTEXT
  5
164
330
155
100
AcDbEntity
  8
SLD-0
100
AcDbMText
 10
4.2026734117
 20
30.6223569999
 30
0.0
 40
0.625
 41
0.0
 71
     1
 72
     1
  1
[152mm - 1219mm]
  7
SLDTEXTSTYLE0
 73
     1
 44
1.0
  0
ENDBLK
  5
157
330
155
100
AcDbEntity
  8
0
100
AcDbBlockEnd
  0
BLOCK
  5
168
330
167
100
AcDbEntity
  8
0
100
AcDbBlockBegin
  2
_D_5
 70
     0
 10
0.0
 20
0.0
 30
0.0
  3
_D_5
  1

  0
SOLID
  5
16A
330
167
100
AcDbEntity
  8
SLD-0
100
AcDbTrace
 10
17.4885082367
 20
25.4131440857
 30
0.0
 11
18.1385082367
 21
25.3131440857
 31
0.0
 12
18.1385082367
 22
25.5131440857
 32
0.0
 13
18.1385082367
 23
25.5131440857
 33
0.0
  0
SOLID
  5
16B
330
167
100
AcDbEntity
  8
SLD-0
100
AcDbTrace
 10
19.8635082367
 20
25.4131440857
 30
0.0
 11
19.2135082367
 21
25.5131440857
 31
0.0
 12
19.2135082367
 22
25.3131440857
 32
0.0
 13
19.2135082367
 23
25.3131440857
 33
0.0
  0
LINE
  5
16C
330
167
100
AcDbEntity
  8
SLD-0
100
AcDbLine
 10
13.6429480719
 20
24.7900324467
 30
0.0
 11
13.4525183863
 21
24.7900324467
 31
0.0
  0
LINE
  5
16D
330
167
100
AcDbEntity
  8
SLD-0
100
AcDbLine
 10
13.4525183863
 20
24.7900324467
 30
0.0
 11
13.4525183863
 21
23.7978449168
 31
0.0
  0
LINE
  5
16E
330
167
100
AcDbEntity
  8
SLD-0
100
AcDbLine
 10
13.4525183863
 20
23.7978449168
 30
0.0
 11
13.6429480719
 21
23.7978449168
 31
0.0
  0
LINE
  5
16F
330
167
100
AcDbEntity
  8
SLD-0
100
AcDbLine
 10
16.1290592354
 20
24.7900324467
 30
0.0
 11
16.319488921
 21
24.7900324467
 31
0.0
  0
LINE
  5
170
330
167
100
AcDbEntity
  8
SLD-0
100
AcDbLine
 10
16.319488921
 20
24.7900324467
 30
0.0
 11
16.319488921
 21
23.7978449168
 31
0.0
  0
LINE
  5
171
330
167
100
AcDbEntity
  8
SLD-0
100
AcDbLine
 10
16.319488921
 20
23.7978449168
 30
0.0
 11
16.1290592354
 21
23.7978449168
 31
0.0
  0
LINE
  5
172
330
167
100
AcDbEntity
  8
SLD-0
100
AcDbLine
 10
17.4885082367
 20
25.4131440857
 30
0.0
 11
16.636684424
 21
25.4131440857
 31
0.0
  0
LINE
  5
173
330
167
100
AcDbEntity
  8
SLD-0
100
AcDbLine
 10
19.8635082367
 20
25.4131440857
 30
0.0
 11
17.4885082367
 21
25.4131440857
 31
0.0
  0
MTEXT
  5
174
330
167
100
AcDbEntity
  8
SLD-0
100
AcDbMText
 10
13.2953568998
 20
25.715325479
 30
0.0
 40
0.625
 41
0.0
 71
     1
 72
     1
  1
%%c
  7
SLDTEXTSTYLE0
 73
     1
 44
1.0
  0
MTEXT
  5
175
330
167
100
AcDbEntity
  8
SLD-0
100
AcDbMText
 10
14.2379350027
 20
25.715325479
 30
0.0
 40
0.625
 41
0.0
 71
     1
 72
     1
  1
2 3/8"
  7
SLDTEXTSTYLE0
 73
     1
 44
1.0
  0
MTEXT
  5
176
330
167
100
AcDbEntity
  8
SLD-0
100
AcDbMText
 10
13.6429480719
 20
24.5961848293
 30
0.0
 40
0.625
 41
0.0
 71
     1
 72
     1
  1
60mm
  7
SLDTEXTSTYLE0
 73
     1
 44
1.0
  0
ENDBLK
  5
169
330
167
100
AcDbEntity
  8
0
100
AcDbBlockEnd
  0
BLOCK
  5
179
330
178
100
AcDbEntity
  8
0
100
AcDbBlockBegin
  2
_D_6
 70
     0
 10
0.0
 20
0.0
 30
0.0
  3
_D_6
  1

  0
SOLID
  5
17B
330
178
100
AcDbEntity
  8
SLD-0
100
AcDbTrace
 10
8.0433850101
 20
36.0854831944
 30
0.0
 11
8.1433850101
 21
36.7354831944
 31
0.0
 12
7.9433850101
 22
36.7354831944
 32
0.0
 13
7.9433850101
 23
36.7354831944
 33
0.0
  0
SOLID
  5
17C
330
178
100
AcDbEntity
  8
SLD-0
100
AcDbTrace
 10
8.0433850101
 20
33.5854831944
 30
0.0
 11
7.9433850101
 21
32.9354831944
 31
0.0
 12
8.1433850101
 22
32.9354831944
 32
0.0
 13
8.1433850101
 23
32.9354831944
 33
0.0
  0
LINE
  5
17D
330
178
100
AcDbEntity
  8
SLD-0
100
AcDbLine
 10
6.80032952
 20
34.7533754944
 30
0.0
 11
6.6098998344
 21
34.7533754944
 31
0.0
  0
LINE
  5
17E
330
178
100
AcDbEntity
  8
SLD-0
100
AcDbLine
 10
6.6098998344
 20
34.7533754944
 30
0.0
 11
6.6098998344
 21
33.7611879646
 31
0.0
  0
LINE
  5
17F
330
178
100
AcDbEntity
  8
SLD-0
100
AcDbLine
 10
6.6098998344
 20
33.7611879646
 30
0.0
 11
6.80032952
 21
33.7611879646
 31
0.0
  0
LINE
  5
180
330
178
100
AcDbEntity
  8
SLD-0
100
AcDbLine
 10
9.2864406836
 20
34.7533754944
 30
0.0
 11
9.4768703691
 21
34.7533754944
 31
0.0
  0
LINE
  5
181
330
178
100
AcDbEntity
  8
SLD-0
100
AcDbLine
 10
9.4768703691
 20
34.7533754944
 30
0.0
 11
9.4768703691
 21
33.7611879646
 31
0.0
  0
LINE
  5
182
330
178
100
AcDbEntity
  8
SLD-0
100
AcDbLine
 10
9.4768703691
 20
33.7611879646
 30
0.0
 11
9.2864406836
 21
33.7611879646
 31
0.0
  0
LINE
  5
183
330
178
100
AcDbEntity
  8
SLD-0
100
AcDbLine
 10
18.0421247603
 20
36.0854831944
 30
0.0
 11
7.4183850101
 21
36.0854831944
 31
0.0
  0
LINE
  5
184
330
178
100
AcDbEntity
  8
SLD-0
100
AcDbLine
 10
17.8010082367
 20
33.5854831944
 30
0.0
 11
7.4183850101
 21
33.5854831944
 31
0.0
  0
LINE
  5
185
330
178
100
AcDbEntity
  8
SLD-0
100
AcDbLine
 10
8.0433850101
 20
36.0854831944
 30
0.0
 11
8.0433850101
 21
37.3354831944
 31
0.0
  0
LINE
  5
186
330
178
100
AcDbEntity
  8
SLD-0
100
AcDbLine
 10
8.0433850101
 20
33.5854831944
 30
0.0
 11
8.0433850101
 21
32.3354831944
 31
0.0
  0
MTEXT
  5
187
330
178
100
AcDbEntity
  8
SLD-0
100
AcDbMText
 10
6.1885673704
 20
35.6882171383
 30
0.0
 40
0.625
 41
0.0
 71
     1
 72
     1
  1
 
  7
SLDTEXTSTYLE0
 73
     1
 44
1.0
  0
MTEXT
  5
188
330
178
100
AcDbEntity
  8
SLD-0
100
AcDbMText
 10
6.9240274452
 20
35.6786684809
 30
0.0
 40
0.625
 41
0.0
 71
     1
 72
     1
  1
2 1/2"
  7
SLDTEXTSTYLE0
 73
     1
 44
1.0
  0
MTEXT
  5
189
330
178
100
AcDbEntity
  8
SLD-0
100
AcDbMText
 10
6.80032952
 20
34.5595278771
 30
0.0
 40
0.625
 41
0.0
 71
     1
 72
     1
  1
64mm
  7
SLDTEXTSTYLE0
 73
     1
 44
1.0
  0
MTEXT
  5
18A
330
178
100
AcDbEntity
  8
SLD-0
100
AcDbMText
 10
9.6672999172
 20
35.6882171383
 30
0.0
 40
0.625
 41
0.0
 71
     1
 72
     1
  1
 
  7
SLDTEXTSTYLE0
 73
     1
 44
1.0
  0
ENDBLK
  5
17A
330
178
100
AcDbEntity
  8
0
100
AcDbBlockEnd
  0
BLOCK
  5
18D
330
18C
100
AcDbEntity
  8
0
100
AcDbBlockBegin
  2
_D_7
 70
     0
 10
0.0
 20
0.0
 30
0.0
  3
_D_7
  1

  0
SOLID
  5
18F
330
18C
100
AcDbEntity
  8
SLD-0
100
AcDbTrace
 10
24.5130661726
 20
22.3839946906
 30
0.0
 11
24.6130661726
 21
23.0339946906
 31
0.0
 12
24.4130661726
 22
23.0339946906
 32
0.0
 13
24.4130661726
 23
23.0339946906
 33
0.0
  0
SOLID
  5
190
330
18C
100
AcDbEntity
  8
SLD-0
100
AcDbTrace
 10
24.5130661726
 20
21.5089946906
 30
0.0
 11
24.4130661726
 21
20.8589946906
 31
0.0
 12
24.6130661726
 22
20.8589946906
 32
0.0
 13
24.6130661726
 23
20.8589946906
 33
0.0
  0
LINE
  5
191
330
18C
100
AcDbEntity
  8
SLD-0
100
AcDbLine
 10
26.7551260494
 20
19.7094548059
 30
0.0
 11
26.5646963638
 21
19.7094548059
 31
0.0
  0
LINE
  5
192
330
18C
100
AcDbEntity
  8
SLD-0
100
AcDbLine
 10
26.5646963638
 20
19.7094548059
 30
0.0
 11
26.5646963638
 21
18.7172672761
 31
0.0
  0
LINE
  5
193
330
18C
100
AcDbEntity
  8
SLD-0
100
AcDbLine
 10
26.5646963638
 20
18.7172672761
 30
0.0
 11
26.7551260494
 21
18.7172672761
 31
0.0
  0
LINE
  5
194
330
18C
100
AcDbEntity
  8
SLD-0
100
AcDbLine
 10
29.241237213
 20
19.7094548059
 30
0.0
 11
29.4316668985
 21
19.7094548059
 31
0.0
  0
LINE
  5
195
330
18C
100
AcDbEntity
  8
SLD-0
100
AcDbLine
 10
29.4316668985
 20
19.7094548059
 30
0.0
 11
29.4316668985
 21
18.7172672761
 31
0.0
  0
LINE
  5
196
330
18C
100
AcDbEntity
  8
SLD-0
100
AcDbLine
 10
29.4316668985
 20
18.7172672761
 30
0.0
 11
29.241237213
 21
18.7172672761
 31
0.0
  0
LINE
  5
197
330
18C
100
AcDbEntity
  8
SLD-0
100
AcDbLine
 10
21.8885082367
 20
22.3839946906
 30
0.0
 11
25.1380661726
 21
22.3839946906
 31
0.0
  0
LINE
  5
198
330
18C
100
AcDbEntity
  8
SLD-0
100
AcDbLine
 10
21.8579525634
 20
21.5089946906
 30
0.0
 11
25.1380661726
 21
21.5089946906
 31
0.0
  0
LINE
  5
199
330
18C
100
AcDbEntity
  8
SLD-0
100
AcDbLine
 10
25.7630661726
 20
19.7142292091
 30
0.0
 11
24.5130661726
 21
19.7142292091
 31
0.0
  0
LINE
  5
19A
330
18C
100
AcDbEntity
  8
SLD-0
100
AcDbLine
 10
24.5130661726
 20
19.7142292091
 30
0.0
 11
24.5130661726
 21
21.5089946906
 31
0.0
  0
LINE
  5
19B
330
18C
100
AcDbEntity
  8
SLD-0
100
AcDbLine
 10
24.5130661726
 20
22.3839946906
 30
0.0
 11
24.5130661726
 21
23.6339946906
 31
0.0
  0
MTEXT
  5
19C
330
18C
100
AcDbEntity
  8
SLD-0
100
AcDbMText
 10
26.1433638999
 20
20.6442964499
 30
0.0
 40
0.625
 41
0.0
 71
     1
 72
     1
  1
 
  7
SLDTEXTSTYLE0
 73
     1
 44
1.0
  0
MTEXT
  5
19D
330
18C
100
AcDbEntity
  8
SLD-0
100
AcDbMText
 10
27.2251780735
 20
20.6347477925
 30
0.0
 40
0.625
 41
0.0
 71
     1
 72
     1
  1
7/8"
  7
SLDTEXTSTYLE0
 73
     1
 44
1.0
  0
MTEXT
  5
19E
330
18C
100
AcDbEntity
  8
SLD-0
100
AcDbMText
 10
26.7551260494
 20
19.5156071886
 30
0.0
 40
0.625
 41
0.0
 71
     1
 72
     1
  1
22mm
  7
SLDTEXTSTYLE0
 73
     1
 44
1.0
  0
MTEXT
  5
19F
330
18C
100
AcDbEntity
  8
SLD-0
100
AcDbMText
 10
29.6220964466
 20
20.6442964499
 30
0.0
 40
0.625
 41
0.0
 71
     1
 72
     1
  1
 
  7
SLDTEXTSTYLE0
 73
     1
 44
1.0
  0
ENDBLK
  5
18E
330
18C
100
AcDbEntity
  8
0
100
AcDbBlockEnd
  0
BLOCK
  5
1A2
330
1A1
100
AcDbEntity
  8
0
100
AcDbBlockBegin
  2
_D_8
 70
     0
 10
0.0
 20
0.0
 30
0.0
  3
_D_8
  1

  0
SOLID
  5
1A4
330
1A1
100
AcDbEntity
  8
SLD-0
100
AcDbTrace
 10
21.6385082367
 20
15.7560605522
 30
0.0
 11
20.9885082367
 21
15.8560605522
 31
0.0
 12
20.9885082367
 22
15.6560605522
 32
0.0
 13
20.9885082367
 23
15.6560605522
 33
0.0
  0
SOLID
  5
1A5
330
1A1
100
AcDbEntity
  8
SLD-0
100
AcDbTrace
 10
15.7135082367
 20
15.7560605522
 30
0.0
 11
16.3635082367
 21
15.6560605522
 31
0.0
 12
16.3635082367
 22
15.8560605522
 32
0.0
 13
16.3635082367
 23
15.8560605522
 33
0.0
  0
LINE
  5
1A6
330
1A1
100
AcDbEntity
  8
SLD-0
100
AcDbLine
 10
23.039107904
 20
15.7560604605
 30
0.0
 11
22.8486782185
 21
15.7560604605
 31
0.0
  0
LINE
  5
1A7
330
1A1
100
AcDbEntity
  8
SLD-0
100
AcDbLine
 10
22.8486782185
 20
15.7560604605
 30
0.0
 11
22.8486782185
 21
14.7638729307
 31
0.0
  0
LINE
  5
1A8
330
1A1
100
AcDbEntity
  8
SLD-0
100
AcDbLine
 10
22.8486782185
 20
14.7638729307
 30
0.0
 11
23.039107904
 21
14.7638729307
 31
0.0
  0
LINE
  5
1A9
330
1A1
100
AcDbEntity
  8
SLD-0
100
AcDbLine
 10
25.9870245328
 20
15.7560604605
 30
0.0
 11
26.1774542183
 21
15.7560604605
 31
0.0
  0
LINE
  5
1AA
330
1A1
100
AcDbEntity
  8
SLD-0
100
AcDbLine
 10
26.1774542183
 20
15.7560604605
 30
0.0
 11
26.1774542183
 21
14.7638729307
 31
0.0
  0
LINE
  5
1AB
330
1A1
100
AcDbEntity
  8
SLD-0
100
AcDbLine
 10
26.1774542183
 20
14.7638729307
 30
0.0
 11
25.9870245328
 21
14.7638729307
 31
0.0
  0
LINE
  5
1AC
330
1A1
100
AcDbEntity
  8
SLD-0
100
AcDbLine
 10
21.6385082367
 20
22.1339946906
 30
0.0
 11
21.6385082367
 21
15.1310605522
 31
0.0
  0
LINE
  5
1AD
330
1A1
100
AcDbEntity
  8
SLD-0
100
AcDbLine
 10
15.7135082367
 20
22.1339946906
 30
0.0
 11
15.7135082367
 21
15.1310605522
 31
0.0
  0
LINE
  5
1AE
330
1A1
100
AcDbEntity
  8
SLD-0
100
AcDbLine
 10
21.6385082367
 20
15.7560605522
 30
0.0
 11
22.3338480903
 21
15.7560605522
 31
0.0
  0
LINE
  5
1AF
330
1A1
100
AcDbEntity
  8
SLD-0
100
AcDbLine
 10
15.7135082367
 20
15.7560605522
 30
0.0
 11
21.6385082367
 21
15.7560605522
 31
0.0
  0
MTEXT
  5
1B0
330
1A1
100
AcDbEntity
  8
SLD-0
100
AcDbMText
 10
22.4606139994
 20
16.6813534929
 30
0.0
 40
0.625
 41
0.0
 71
     1
 72
     1
  1
%%c
  7
SLDTEXTSTYLE0
 73
     1
 44
1.0
  0
MTEXT
  5
1B1
330
1A1
100
AcDbEntity
  8
SLD-0
100
AcDbMText
 10
23.4031921023
 20
16.6813534929
 30
0.0
 40
0.625
 41
0.0
 71
     1
 72
     1
  1
5 15/16"
  7
SLDTEXTSTYLE0
 73
     1
 44
1.0
  0
MTEXT
  5
1B2
330
1A1
100
AcDbEntity
  8
SLD-0
100
AcDbMText
 10
23.039107904
 20
15.5622128432
 30
0.0
 40
0.625
 41
0.0
 71
     1
 72
     1
  1
150mm
  7
SLDTEXTSTYLE0
 73
     1
 44
1.0
  0
ENDBLK
  5
1A3
330
1A1
100
AcDbEntity
  8
0
100
AcDbBlockEnd
  0
BLOCK
  5
1B6
330
1B5
100
AcDbEntity
  8
0
100
AcDbBlockBegin
  2
_D_9
 70
     0
 10
0.0
 20
0.0
 30
0.0
  3
_D_9
  1

  0
SOLID
  5
1B8
330
1B5
100
AcDbEntity
  8
SLD-0
100
AcDbTrace
 10
19.1760082367
 20
32.2105327087
 30
0.0
 11
19.8260082367
 21
32.1105327087
 31
0.0
 12
19.8260082367
 22
32.3105327087
 32
0.0
 13
19.8260082367
 23
32.3105327087
 33
0.0
  0
SOLID
  5
1B9
330
1B5
100
AcDbEntity
  8
SLD-0
100
AcDbTrace
 10
18.1760082367
 20
32.2105327087
 30
0.0
 11
17.5260082367
 21
32.3105327087
 31
0.0
 12
17.5260082367
 22
32.1105327087
 32
0.0
 13
17.5260082367
 23
32.1105327087
 33
0.0
  0
LINE
  5
1BA
330
1B5
100
AcDbEntity
  8
SLD-0
100
AcDbLine
 10
13.6429480719
 20
32.210532617
 30
0.0
 11
13.4525183863
 21
32.210532617
 31
0.0
  0
LINE
  5
1BB
330
1B5
100
AcDbEntity
  8
SLD-0
100
AcDbLine
 10
13.4525183863
 20
32.210532617
 30
0.0
 11
13.4525183863
 21
31.2183450872
 31
0.0
  0
LINE
  5
1BC
330
1B5
100
AcDbEntity
  8
SLD-0
100
AcDbLine
 10
13.4525183863
 20
31.2183450872
 30
0.0
 11
13.6429480719
 21
31.2183450872
 31
0.0
  0
LINE
  5
1BD
330
1B5
100
AcDbEntity
  8
SLD-0
100
AcDbLine
 10
16.1290592354
 20
32.210532617
 30
0.0
 11
16.319488921
 21
32.210532617
 31
0.0
  0
LINE
  5
1BE
330
1B5
100
AcDbEntity
  8
SLD-0
100
AcDbLine
 10
16.319488921
 20
32.210532617
 30
0.0
 11
16.319488921
 21
31.2183450872
 31
0.0
  0
LINE
  5
1BF
330
1B5
100
AcDbEntity
  8
SLD-0
100
AcDbLine
 10
16.319488921
 20
31.2183450872
 30
0.0
 11
16.1290592354
 21
31.2183450872
 31
0.0
  0
LINE
  5
1C0
330
1B5
100
AcDbEntity
  8
SLD-0
100
AcDbLine
 10
19.1760082367
 20
32.2105327087
 30
0.0
 11
20.4260082367
 21
32.2105327087
 31
0.0
  0
LINE
  5
1C1
330
1B5
100
AcDbEntity
  8
SLD-0
100
AcDbLine
 10
18.1760082367
 20
32.2105327087
 30
0.0
 11
16.636684424
 21
32.2105327087
 31
0.0
  0
MTEXT
  5
1C2
330
1B5
100
AcDbEntity
  8
SLD-0
100
AcDbMText
 10
14.0549055504
 20
33.1358256494
 30
0.0
 40
0.625
 41
0.0
 71
     1
 72
     1
  1
%%c
  7
SLDTEXTSTYLE0
 73
     1
 44
1.0
  0
MTEXT
  5
1C3
330
1B5
100
AcDbEntity
  8
SLD-0
100
AcDbMText
 10
14.9974836533
 20
33.1358256494
 30
0.0
 40
0.625
 41
0.0
 71
     1
 72
     1
  1
1"
  7
SLDTEXTSTYLE0
 73
     1
 44
1.0
  0
MTEXT
  5
1C4
330
1B5
100
AcDbEntity
  8
SLD-0
100
AcDbMText
 10
13.6429480719
 20
32.0166849997
 30
0.0
 40
0.625
 41
0.0
 71
     1
 72
     1
  1
25mm
  7
SLDTEXTSTYLE0
 73
     1
 44
1.0
  0
ENDBLK
  5
1B7
330
1B5
100
AcDbEntity
  8
0
100
AcDbBlockEnd
  0
BLOCK
  5
1C7
330
1C6
100
AcDbEntity
  8
0
100
AcDbBlockBegin
  2
_D_10
 70
     0
 10
0.0
 20
0.0
 30
0.0
  3
_D_10
  1

  0
SOLID
  5
1C9
330
1C6
100
AcDbEntity
  8
SLD-0
100
AcDbTrace
 10
26.2266121167
 20
28.3451022603
 30
0.0
 11
26.7569422026
 21
28.7340109899
 31
0.0
 12
26.6155208463
 22
28.8754323462
 32
0.0
 13
26.6155208463
 23
28.8754323462
 33
0.0
  0
SOLID
  5
1CA
330
1C6
100
AcDbEntity
  8
SLD-0
100
AcDbTrace
 10
27.7963891709
 20
29.9148793145
 30
0.0
 11
27.266059085
 21
29.5259705849
 31
0.0
 12
27.4074804412
 22
29.3845492286
 32
0.0
 13
27.4074804412
 23
29.3845492286
 33
0.0
  0
LINE
  5
1CB
330
1C6
100
AcDbEntity
  8
SLD-0
100
AcDbLine
 10
30.0730292971
 20
30.5606599779
 30
0.0
 11
29.8825996115
 21
30.5606599779
 31
0.0
  0
LINE
  5
1CC
330
1C6
100
AcDbEntity
  8
SLD-0
100
AcDbLine
 10
29.8825996115
 20
30.5606599779
 30
0.0
 11
29.8825996115
 21
29.5684724481
 31
0.0
  0
LINE
  5
1CD
330
1C6
100
AcDbEntity
  8
SLD-0
100
AcDbLine
 10
29.8825996115
 20
29.5684724481
 30
0.0
 11
30.0730292971
 21
29.5684724481
 31
0.0
  0
LINE
  5
1CE
330
1C6
100
AcDbEntity
  8
SLD-0
100
AcDbLine
 10
32.5591404606
 20
30.5606599779
 30
0.0
 11
32.7495701462
 21
30.5606599779
 31
0.0
  0
LINE
  5
1CF
330
1C6
100
AcDbEntity
  8
SLD-0
100
AcDbLine
 10
32.7495701462
 20
30.5606599779
 30
0.0
 11
32.7495701462
 21
29.5684724481
 31
0.0
  0
LINE
  5
1D0
330
1C6
100
AcDbEntity
  8
SLD-0
100
AcDbLine
 10
32.7495701462
 20
29.5684724481
 30
0.0
 11
32.5591404606
 21
29.5684724481
 31
0.0
  0
LINE
  5
1D1
330
1C6
100
AcDbEntity
  8
SLD-0
100
AcDbLine
 10
23.8195394379
 20
30.7521749391
 30
0.0
 11
26.6685538549
 21
27.903160522
 31
0.0
  0
LINE
  5
1D2
330
1C6
100
AcDbEntity
  8
SLD-0
100
AcDbLine
 10
26.9590935464
 20
30.7521749391
 30
0.0
 11
28.2383309091
 21
29.4729375763
 31
0.0
  0
LINE
  5
1D3
330
1C6
100
AcDbEntity
  8
SLD-0
100
AcDbLine
 10
26.2266121167
 20
28.3451022603
 30
0.0
 11
27.7963891709
 21
29.9148793145
 31
0.0
  0
LINE
  5
1D4
330
1C6
100
AcDbEntity
  8
SLD-0
100
AcDbLine
 10
27.7963891709
 20
29.9148793145
 30
0.0
 11
28.4421699259
 21
30.5606600696
 31
0.0
  0
LINE
  5
1D5
330
1C6
100
AcDbEntity
  8
SLD-0
100
AcDbLine
 10
28.4421699259
 20
30.5606600696
 30
0.0
 11
29.6921699259
 21
30.5606600696
 31
0.0
  0
MTEXT
  5
1D6
330
1C6
100
AcDbEntity
  8
SLD-0
100
AcDbMText
 10
29.725438125
 20
31.4859530103
 30
0.0
 40
0.625
 41
0.0
 71
     1
 72
     1
  1
%%c
  7
SLDTEXTSTYLE0
 73
     1
 44
1.0
  0
MTEXT
  5
1D7
330
1C6
100
AcDbEntity
  8
SLD-0
100
AcDbMText
 10
30.6680162279
 20
31.4859530103
 30
0.0
 40
0.625
 41
0.0
 71
     1
 72
     1
  1
2 1/4"
  7
SLDTEXTSTYLE0
 73
     1
 44
1.0
  0
MTEXT
  5
1D8
330
1C6
100
AcDbEntity
  8
SLD-0
100
AcDbMText
 10
30.0730292971
 20
30.3668123606
 30
0.0
 40
0.625
 41
0.0
 71
     1
 72
     1
  1
56mm
  7
SLDTEXTSTYLE0
 73
     1
 44
1.0
  0
ENDBLK
  5
1C8
330
1C6
100
AcDbEntity
  8
0
100
AcDbBlockEnd
  0
BLOCK
  5
1DB
330
1DA
100
AcDbEntity
  8
0
100
AcDbBlockBegin
  2
_D_11
 70
     0
 10
0.0
 20
0.0
 30
0.0
  3
_D_11
  1

  0
SOLID
  5
1DD
330
1DA
100
AcDbEntity
  8
SLD-0
100
AcDbTrace
 10
28.6089972592
 20
32.7556320425
 30
0.0
 11
28.2200885295
 21
33.2859621283
 31
0.0
 12
28.0786671733
 22
33.1445407721
 32
0.0
 13
28.0786671733
 23
33.1445407721
 33
0.0
  0
SOLID
  5
1DE
330
1DA
100
AcDbEntity
  8
SLD-0
100
AcDbTrace
 10
23.5425771719
 20
37.8220521297
 30
0.0
 11
23.9314859016
 21
37.2917220438
 31
0.0
 12
24.0729072578
 22
37.4331434
 32
0.0
 13
24.0729072578
 23
37.4331434
 33
0.0
  0
LINE
  5
1DF
330
1DA
100
AcDbEntity
  8
SLD-0
100
AcDbLine
 10
24.6018289928
 20
35.2840676829
 30
0.0
 11
24.4113993073
 21
35.2840676829
 31
0.0
  0
LINE
  5
1E0
330
1DA
100
AcDbEntity
  8
SLD-0
100
AcDbLine
 10
24.4113993073
 20
35.2840676829
 30
0.0
 11
24.4113993073
 21
34.291880153
 31
0.0
  0
LINE
  5
1E1
330
1DA
100
AcDbEntity
  8
SLD-0
100
AcDbLine
 10
24.4113993073
 20
34.291880153
 30
0.0
 11
24.6018289928
 21
34.291880153
 31
0.0
  0
LINE
  5
1E2
330
1DA
100
AcDbEntity
  8
SLD-0
100
AcDbLine
 10
27.5497456216
 20
35.2840676829
 30
0.0
 11
27.7401753071
 21
35.2840676829
 31
0.0
  0
LINE
  5
1E3
330
1DA
100
AcDbEntity
  8
SLD-0
100
AcDbLine
 10
27.7401753071
 20
35.2840676829
 30
0.0
 11
27.7401753071
 21
34.291880153
 31
0.0
  0
LINE
  5
1E4
330
1DA
100
AcDbEntity
  8
SLD-0
100
AcDbLine
 10
27.7401753071
 20
34.291880153
 30
0.0
 11
27.5497456216
 21
34.291880153
 31
0.0
  0
LINE
  5
1E5
330
1DA
100
AcDbEntity
  8
SLD-0
100
AcDbLine
 10
26.9590935464
 20
31.1057283297
 30
0.0
 11
29.0509389974
 21
33.1975737807
 31
0.0
  0
LINE
  5
1E6
330
1DA
100
AcDbEntity
  8
SLD-0
100
AcDbLine
 10
21.4578027887
 20
35.7372777464
 30
0.0
 11
23.9845189102
 21
38.2639938679
 31
0.0
  0
LINE
  5
1E7
330
1DA
100
AcDbEntity
  8
SLD-0
100
AcDbLine
 10
28.6089972592
 20
32.7556320425
 30
0.0
 11
27.1997020737
 21
34.1649272279
 31
0.0
  0
LINE
  5
1E8
330
1DA
100
AcDbEntity
  8
SLD-0
100
AcDbLine
 10
23.5425771719
 20
37.8220521297
 30
0.0
 11
24.9518723574
 21
36.4127569442
 31
0.0
  0
MTEXT
  5
1E9
330
1DA
100
AcDbEntity
  8
SLD-0
100
AcDbMText
 10
23.9900668433
 20
36.2189093268
 30
0.0
 40
0.625
 41
0.0
 71
     1
 72
     1
  1
 
  7
SLDTEXTSTYLE0
 73
     1
 44
1.0
  0
MTEXT
  5
1EA
330
1DA
100
AcDbEntity
  8
SLD-0
100
AcDbMText
 10
24.7255268264
 20
36.2093606694
 30
0.0
 40
0.625
 41
0.0
 71
     1
 72
     1
  1
7 3/16"
  7
SLDTEXTSTYLE0
 73
     1
 44
1.0
  0
MTEXT
  5
1EB
330
1DA
100
AcDbEntity
  8
SLD-0
100
AcDbMText
 10
24.6018289928
 20
35.0902200655
 30
0.0
 40
0.625
 41
0.0
 71
     1
 72
     1
  1
182mm
  7
SLDTEXTSTYLE0
 73
     1
 44
1.0
  0
MTEXT
  5
1EC
330
1DA
100
AcDbEntity
  8
SLD-0
100
AcDbMText
 10
27.9306048552
 20
36.2189093268
 30
0.0
 40
0.625
 41
0.0
 71
     1
 72
     1
  1
 
  7
SLDTEXTSTYLE0
 73
     1
 44
1.0
  0
ENDBLK
  5
1DC
330
1DA
100
AcDbEntity
  8
0
100
AcDbBlockEnd
  0
BLOCK
  5
1EF
330
1EE
100
AcDbEntity
  8
0
100
AcDbBlockBegin
  2
_D_12
 70
     0
 10
0.0
 20
0.0
 30
0.0
  3
_D_12
  1

  0
SOLID
  5
1F1
330
1EE
100
AcDbEntity
  8
SLD-0
100
AcDbTrace
 10
20.9310082367
 20
39.5218013918
 30
0.0
 11
20.2810082367
 21
39.6218013918
 31
0.0
 12
20.2810082367
 22
39.4218013918
 32
0.0
 13
20.2810082367
 23
39.4218013918
 33
0.0
  0
SOLID
  5
1F2
330
1EE
100
AcDbEntity
  8
SLD-0
100
AcDbTrace
 10
18.0510082367
 20
39.5218013918
 30
0.0
 11
18.7010082367
 21
39.4218013918
 31
0.0
 12
18.7010082367
 22
39.6218013918
 32
0.0
 13
18.7010082367
 23
39.6218013918
 33
0.0
  0
LINE
  5
1F3
330
1EE
100
AcDbEntity
  8
SLD-0
100
AcDbLine
 10
6.80032952
 20
39.5170269887
 30
0.0
 11
6.6098998344
 21
39.5170269887
 31
0.0
  0
LINE
  5
1F4
330
1EE
100
AcDbEntity
  8
SLD-0
100
AcDbLine
 10
6.6098998344
 20
39.5170269887
 30
0.0
 11
6.6098998344
 21
38.5248394588
 31
0.0
  0
LINE
  5
1F5
330
1EE
100
AcDbEntity
  8
SLD-0
100
AcDbLine
 10
6.6098998344
 20
38.5248394588
 30
0.0
 11
6.80032952
 21
38.5248394588
 31
0.0
  0
LINE
  5
1F6
330
1EE
100
AcDbEntity
  8
SLD-0
100
AcDbLine
 10
9.2864406836
 20
39.5170269887
 30
0.0
 11
9.4768703691
 21
39.5170269887
 31
0.0
  0
LINE
  5
1F7
330
1EE
100
AcDbEntity
  8
SLD-0
100
AcDbLine
 10
9.4768703691
 20
39.5170269887
 30
0.0
 11
9.4768703691
 21
38.5248394588
 31
0.0
  0
LINE
  5
1F8
330
1EE
100
AcDbEntity
  8
SLD-0
100
AcDbLine
 10
9.4768703691
 20
38.5248394588
 30
0.0
 11
9.2864406836
 21
38.5248394588
 31
0.0
  0
LINE
  5
1F9
330
1EE
100
AcDbEntity
  8
SLD-0
100
AcDbLine
 10
20.9310082367
 20
35.4604831944
 30
0.0
 11
20.9310082367
 21
40.1468013918
 31
0.0
  0
LINE
  5
1FA
330
1EE
100
AcDbEntity
  8
SLD-0
100
AcDbLine
 10
18.0510082367
 20
36.2735046803
 30
0.0
 11
18.0510082367
 21
40.1468013918
 31
0.0
  0
LINE
  5
1FB
330
1EE
100
AcDbEntity
  8
SLD-0
100
AcDbLine
 10
20.9310082367
 20
39.5218013918
 30
0.0
 11
18.0510082367
 21
39.5218013918
 31
0.0
  0
LINE
  5
1FC
330
1EE
100
AcDbEntity
  8
SLD-0
100
AcDbLine
 10
18.0510082367
 20
39.5218013918
 30
0.0
 11
10.0249685588
 21
39.5218013918
 31
0.0
  0
MTEXT
  5
1FD
330
1EE
100
AcDbEntity
  8
SLD-0
100
AcDbMText
 10
6.1885673704
 20
40.4518686326
 30
0.0
 40
0.625
 41
0.0
 71
     1
 72
     1
  1
 
  7
SLDTEXTSTYLE0
 73
     1
 44
1.0
  0
MTEXT
  5
1FE
330
1EE
100
AcDbEntity
  8
SLD-0
100
AcDbMText
 10
6.9240274452
 20
40.4423199752
 30
0.0
 40
0.625
 41
0.0
 71
     1
 72
     1
  1
2 7/8"
  7
SLDTEXTSTYLE0
 73
     1
 44
1.0
  0
MTEXT
  5
1FF
330
1EE
100
AcDbEntity
  8
SLD-0
100
AcDbMText
 10
6.80032952
 20
39.3231793713
 30
0.0
 40
0.625
 41
0.0
 71
     1
 72
     1
  1
73mm
  7
SLDTEXTSTYLE0
 73
     1
 44
1.0
  0
MTEXT
  5
200
330
1EE
100
AcDbEntity
  8
SLD-0
100
AcDbMText
 10
9.6672999172
 20
40.4518686326
 30
0.0
 40
0.625
 41
0.0
 71
     1
 72
     1
  1
 
  7
SLDTEXTSTYLE0
 73
     1
 44
1.0
  0
ENDBLK
  5
1F0
330
1EE
100
AcDbEntity
  8
0
100
AcDbBlockEnd
  0
BLOCK
  5
20A
330
209
100
AcDbEntity
  8
0
100
AcDbBlockBegin
  2
SW_BROKEN_VIEW_1
 70
     0
 10
0.0
 20
0.0
 30
0.0
  3
SW_BROKEN_VIEW_1
  1

  0
ENDBLK
  5
20B
330
209
100
AcDbEntity
  8
0
100
AcDbBlockEnd
  0
BLOCK
  5
2FC
330
2FB
100
AcDbEntity
  8
0
100
AcDbBlockBegin
  2
_D_13
 70
     0
 10
0.0
 20
0.0
 30
0.0
  3
_D_13
  1

  0
SOLID
  5
2FE
330
2FB
100
AcDbEntity
  8
SLD-0
100
AcDbTrace
 10
19.6855892005
 20
6.9972581597
 30
0.0
 11
19.7855892005
 21
7.6472581597
 31
0.0
 12
19.5855892005
 22
7.6472581597
 32
0.0
 13
19.5855892005
 23
7.6472581597
 33
0.0
  0
SOLID
  5
2FF
330
2FB
100
AcDbEntity
  8
SLD-0
100
AcDbTrace
 10
19.6855892005
 20
3.8097581597
 30
0.0
 11
19.5855892005
 21
3.1597581597
 31
0.0
 12
19.7855892005
 22
3.1597581597
 32
0.0
 13
19.7855892005
 23
3.1597581597
 33
0.0
  0
LINE
  5
300
330
2FB
100
AcDbEntity
  8
SLD-0
100
AcDbLine
 10
18.4425337104
 20
5.198036561
 30
0.0
 11
18.2521040248
 21
5.198036561
 31
0.0
  0
LINE
  5
301
330
2FB
100
AcDbEntity
  8
SLD-0
100
AcDbLine
 10
18.2521040248
 20
5.198036561
 30
0.0
 11
18.2521040248
 21
4.2058490311
 31
0.0
  0
LINE
  5
302
330
2FB
100
AcDbEntity
  8
SLD-0
100
AcDbLine
 10
18.2521040248
 20
4.2058490311
 30
0.0
 11
18.4425337104
 21
4.2058490311
 31
0.0
  0
LINE
  5
303
330
2FB
100
AcDbEntity
  8
SLD-0
100
AcDbLine
 10
20.928644874
 20
5.198036561
 30
0.0
 11
21.1190745595
 21
5.198036561
 31
0.0
  0
LINE
  5
304
330
2FB
100
AcDbEntity
  8
SLD-0
100
AcDbLine
 10
21.1190745595
 20
5.198036561
 30
0.0
 11
21.1190745595
 21
4.2058490311
 31
0.0
  0
LINE
  5
305
330
2FB
100
AcDbEntity
  8
SLD-0
100
AcDbLine
 10
21.1190745595
 20
4.2058490311
 30
0.0
 11
20.928644874
 21
4.2058490311
 31
0.0
  0
LINE
  5
306
330
2FB
100
AcDbEntity
  8
SLD-0
100
AcDbLine
 10
22.9498058363
 20
6.9972581597
 30
0.0
 11
19.0605892005
 21
6.9972581597
 31
0.0
  0
LINE
  5
307
330
2FB
100
AcDbEntity
  8
SLD-0
100
AcDbLine
 10
22.8185558363
 20
3.8097581597
 30
0.0
 11
19.0605892005
 21
3.8097581597
 31
0.0
  0
LINE
  5
308
330
2FB
100
AcDbEntity
  8
SLD-0
100
AcDbLine
 10
19.6855892005
 20
6.9972581597
 30
0.0
 11
19.6855892005
 21
8.2472581597
 31
0.0
  0
LINE
  5
309
330
2FB
100
AcDbEntity
  8
SLD-0
100
AcDbLine
 10
19.6855892005
 20
3.8097581597
 30
0.0
 11
19.6855892005
 21
2.5597581597
 31
0.0
  0
MTEXT
  5
30A
330
2FB
100
AcDbEntity
  8
SLD-0
100
AcDbMText
 10
17.8307715609
 20
6.1328782049
 30
0.0
 40
0.625
 41
0.0
 71
     1
 72
     1
  1
 
  7
SLDTEXTSTYLE0
 73
     1
 44
1.0
  0
MTEXT
  5
30B
330
2FB
100
AcDbEntity
  8
SLD-0
100
AcDbMText
 10
18.3353288113
 20
6.1233295475
 30
0.0
 40
0.625
 41
0.0
 71
     1
 72
     1
  1
2 9/16"
  7
SLDTEXTSTYLE0
 73
     1
 44
1.0
  0
MTEXT
  5
30C
330
2FB
100
AcDbEntity
  8
SLD-0
100
AcDbMText
 10
18.4425337104
 20
5.0041889436
 30
0.0
 40
0.625
 41
0.0
 71
     1
 72
     1
  1
65mm
  7
SLDTEXTSTYLE0
 73
     1
 44
1.0
  0
MTEXT
  5
30D
330
2FB
100
AcDbEntity
  8
SLD-0
100
AcDbMText
 10
21.3095041076
 20
6.1328782049
 30
0.0
 40
0.625
 41
0.0
 71
     1
 72
     1
  1
 
  7
SLDTEXTSTYLE0
 73
     1
 44
1.0
  0
ENDBLK
  5
2FD
330
2FB
100
AcDbEntity
  8
0
100
AcDbBlockEnd
  0
BLOCK
  5
31C
330
31B
100
AcDbEntity
  8
0
100
AcDbBlockBegin
  2
_D_14
 70
     0
 10
0.0
 20
0.0
 30
0.0
  3
_D_14
  1

  0
SOLID
  5
31E
330
31B
100
AcDbEntity
  8
SLD-0
100
AcDbTrace
 10
8.7820888283
 20
9.7410081597
 30
0.0
 11
8.6820888283
 21
9.0910081597
 31
0.0
 12
8.8820888283
 22
9.0910081597
 32
0.0
 13
8.8820888283
 23
9.0910081597
 33
0.0
  0
SOLID
  5
31F
330
31B
100
AcDbEntity
  8
SLD-0
100
AcDbTrace
 10
8.7820888283
 20
3.8097581597
 30
0.0
 11
8.8820888283
 21
4.4597581597
 31
0.0
 12
8.6820888283
 22
4.4597581597
 32
0.0
 13
8.6820888283
 23
4.4597581597
 33
0.0
  0
LINE
  5
320
330
31B
100
AcDbEntity
  8
SLD-0
100
AcDbLine
 10
7.3081306056
 20
6.2710292105
 30
0.0
 11
7.1177009201
 21
6.2710292105
 31
0.0
  0
LINE
  5
321
330
31B
100
AcDbEntity
  8
SLD-0
100
AcDbLine
 10
7.1177009201
 20
6.2710292105
 30
0.0
 11
7.1177009201
 21
5.2788416807
 31
0.0
  0
LINE
  5
322
330
31B
100
AcDbEntity
  8
SLD-0
100
AcDbLine
 10
7.1177009201
 20
5.2788416807
 30
0.0
 11
7.3081306056
 21
5.2788416807
 31
0.0
  0
LINE
  5
323
330
31B
100
AcDbEntity
  8
SLD-0
100
AcDbLine
 10
10.2560472344
 20
6.2710292105
 30
0.0
 11
10.4464769199
 21
6.2710292105
 31
0.0
  0
LINE
  5
324
330
31B
100
AcDbEntity
  8
SLD-0
100
AcDbLine
 10
10.4464769199
 20
6.2710292105
 30
0.0
 11
10.4464769199
 21
5.2788416807
 31
0.0
  0
LINE
  5
325
330
31B
100
AcDbEntity
  8
SLD-0
100
AcDbLine
 10
10.4464769199
 20
5.2788416807
 30
0.0
 11
10.2560472344
 21
5.2788416807
 31
0.0
  0
LINE
  5
326
330
31B
100
AcDbEntity
  8
SLD-0
100
AcDbLine
 10
11.2802883614
 20
9.7410081597
 30
0.0
 11
8.1570888283
 21
9.7410081597
 31
0.0
  0
LINE
  5
327
330
31B
100
AcDbEntity
  8
SLD-0
100
AcDbLine
 10
11.2802883614
 20
3.8097581597
 30
0.0
 11
8.1570888283
 21
3.8097581597
 31
0.0
  0
LINE
  5
328
330
31B
100
AcDbEntity
  8
SLD-0
100
AcDbLine
 10
8.7820888283
 20
9.7410081597
 30
0.0
 11
8.7820888283
 21
7.3997184718
 31
0.0
  0
LINE
  5
329
330
31B
100
AcDbEntity
  8
SLD-0
100
AcDbLine
 10
8.7820888283
 20
3.8097581597
 30
0.0
 11
8.7820888283
 21
5.1518887556
 31
0.0
  0
MTEXT
  5
32A
330
31B
100
AcDbEntity
  8
SLD-0
100
AcDbMText
 10
6.6963684561
 20
7.2058708545
 30
0.0
 40
0.625
 41
0.0
 71
     1
 72
     1
  1
 
  7
SLDTEXTSTYLE0
 73
     1
 44
1.0
  0
MTEXT
  5
32B
330
31B
100
AcDbEntity
  8
SLD-0
100
AcDbMText
 10
7.6627312634
 20
7.1963221971
 30
0.0
 40
0.625
 41
0.0
 71
     1
 72
     1
  1
4 3/4"
  7
SLDTEXTSTYLE0
 73
     1
 44
1.0
  0
MTEXT
  5
32C
330
31B
100
AcDbEntity
  8
SLD-0
100
AcDbMText
 10
7.3081306056
 20
6.0771815932
 30
0.0
 40
0.625
 41
0.0
 71
     1
 72
     1
  1
121mm
  7
SLDTEXTSTYLE0
 73
     1
 44
1.0
  0
MTEXT
  5
32D
330
31B
100
AcDbEntity
  8
SLD-0
100
AcDbMText
 10
10.636906468
 20
7.2058708545
 30
0.0
 40
0.625
 41
0.0
 71
     1
 72
     1
  1
 
  7
SLDTEXTSTYLE0
 73
     1
 44
1.0
  0
ENDBLK
  5
31D
330
31B
100
AcDbEntity
  8
0
100
AcDbBlockEnd
  0
BLOCK
  5
33C
330
33B
100
AcDbEntity
  8
0
100
AcDbBlockBegin
  2
_D_15
 70
     0
 10
0.0
 20
0.0
 30
0.0
  3
_D_15
  1

  0
SOLID
  5
33E
330
33B
100
AcDbEntity
  8
SLD-0
100
AcDbTrace
 10
30.8787207723
 20
3.8097581597
 30
0.0
 11
30.7787207723
 21
3.1597581597
 31
0.0
 12
30.9787207723
 22
3.1597581597
 32
0.0
 13
30.9787207723
 23
3.1597581597
 33
0.0
  0
SOLID
  5
33F
330
33B
100
AcDbEntity
  8
SLD-0
100
AcDbTrace
 10
30.8787207723
 20
5.8722581597
 30
0.0
 11
30.9787207723
 21
6.5222581597
 31
0.0
 12
30.7787207723
 22
6.5222581597
 32
0.0
 13
30.7787207723
 23
6.5222581597
 33
0.0
  0
LINE
  5
340
330
33B
100
AcDbEntity
  8
SLD-0
100
AcDbLine
 10
29.6356652822
 20
4.7565625769
 30
0.0
 11
29.4452355967
 21
4.7565625769
 31
0.0
  0
LINE
  5
341
330
33B
100
AcDbEntity
  8
SLD-0
100
AcDbLine
 10
29.4452355967
 20
4.7565625769
 30
0.0
 11
29.4452355967
 21
3.7643750471
 31
0.0
  0
LINE
  5
342
330
33B
100
AcDbEntity
  8
SLD-0
100
AcDbLine
 10
29.4452355967
 20
3.7643750471
 30
0.0
 11
29.6356652822
 21
3.7643750471
 31
0.0
  0
LINE
  5
343
330
33B
100
AcDbEntity
  8
SLD-0
100
AcDbLine
 10
32.1217764458
 20
4.7565625769
 30
0.0
 11
32.3122061313
 21
4.7565625769
 31
0.0
  0
LINE
  5
344
330
33B
100
AcDbEntity
  8
SLD-0
100
AcDbLine
 10
32.3122061313
 20
4.7565625769
 30
0.0
 11
32.3122061313
 21
3.7643750471
 31
0.0
  0
LINE
  5
345
330
33B
100
AcDbEntity
  8
SLD-0
100
AcDbLine
 10
32.3122061313
 20
3.7643750471
 30
0.0
 11
32.1217764458
 21
3.7643750471
 31
0.0
  0
LINE
  5
346
330
33B
100
AcDbEntity
  8
SLD-0
100
AcDbLine
 10
34.0095922238
 20
3.8097581597
 30
0.0
 11
30.2537207723
 21
3.8097581597
 31
0.0
  0
LINE
  5
347
330
33B
100
AcDbEntity
  8
SLD-0
100
AcDbLine
 10
34.0470922238
 20
5.8722581597
 30
0.0
 11
30.2537207723
 21
5.8722581597
 31
0.0
  0
LINE
  5
348
330
33B
100
AcDbEntity
  8
SLD-0
100
AcDbLine
 10
30.8787207723
 20
3.8097581597
 30
0.0
 11
30.8787207723
 21
2.5597581597
 31
0.0
  0
LINE
  5
349
330
33B
100
AcDbEntity
  8
SLD-0
100
AcDbLine
 10
30.8787207723
 20
5.8722581597
 30
0.0
 11
30.8787207723
 21
7.1222581597
 31
0.0
  0
MTEXT
  5
34A
330
33B
100
AcDbEntity
  8
SLD-0
100
AcDbMText
 10
29.0239031327
 20
5.6914042209
 30
0.0
 40
0.625
 41
0.0
 71
     1
 72
     1
  1
 
  7
SLDTEXTSTYLE0
 73
     1
 44
1.0
  0
MTEXT
  5
34B
330
33B
100
AcDbEntity
  8
SLD-0
100
AcDbMText
 10
29.7593632074
 20
5.6818555635
 30
0.0
 40
0.625
 41
0.0
 71
     1
 72
     1
  1
1 5/8"
  7
SLDTEXTSTYLE0
 73
     1
 44
1.0
  0
MTEXT
  5
34C
330
33B
100
AcDbEntity
  8
SLD-0
100
AcDbMText
 10
29.6356652822
 20
4.5627149596
 30
0.0
 40
0.625
 41
0.0
 71
     1
 72
     1
  1
42mm
  7
SLDTEXTSTYLE0
 73
     1
 44
1.0
  0
MTEXT
  5
34D
330
33B
100
AcDbEntity
  8
SLD-0
100
AcDbMText
 10
32.5026356794
 20
5.6914042209
 30
0.0
 40
0.625
 41
0.0
 71
     1
 72
     1
  1
 
  7
SLDTEXTSTYLE0
 73
     1
 44
1.0
  0
ENDBLK
  5
33D
330
33B
100
AcDbEntity
  8
0
100
AcDbBlockEnd
  0
BLOCK
  5
35D
330
35C
100
AcDbEntity
  8
0
100
AcDbBlockBegin
  2
_D_16
 70
     0
 10
0.0
 20
0.0
 30
0.0
  3
_D_16
  1

  0
SOLID
  5
35F
330
35C
100
AcDbEntity
  8
SLD-0
100
AcDbTrace
 10
41.3439989669
 20
6.3097581597
 30
0.0
 11
41.4439989669
 21
6.9597581597
 31
0.0
 12
41.2439989669
 22
6.9597581597
 32
0.0
 13
41.2439989669
 23
6.9597581597
 33
0.0
  0
SOLID
  5
360
330
35C
100
AcDbEntity
  8
SLD-0
100
AcDbTrace
 10
41.3439989669
 20
3.8097581597
 30
0.0
 11
41.2439989669
 21
3.1597581597
 31
0.0
 12
41.4439989669
 22
3.1597581597
 32
0.0
 13
41.4439989669
 23
3.1597581597
 33
0.0
  0
LINE
  5
361
330
35C
100
AcDbEntity
  8
SLD-0
100
AcDbLine
 10
40.1009434768
 20
5.0549837565
 30
0.0
 11
39.9105137913
 21
5.0549837565
 31
0.0
  0
LINE
  5
362
330
35C
100
AcDbEntity
  8
SLD-0
100
AcDbLine
 10
39.9105137913
 20
5.0549837565
 30
0.0
 11
39.9105137913
 21
4.0627962267
 31
0.0
  0
LINE
  5
363
330
35C
100
AcDbEntity
  8
SLD-0
100
AcDbLine
 10
39.9105137913
 20
4.0627962267
 30
0.0
 11
40.1009434768
 21
4.0627962267
 31
0.0
  0
LINE
  5
364
330
35C
100
AcDbEntity
  8
SLD-0
100
AcDbLine
 10
42.5870546404
 20
5.0549837565
 30
0.0
 11
42.7774843259
 21
5.0549837565
 31
0.0
  0
LINE
  5
365
330
35C
100
AcDbEntity
  8
SLD-0
100
AcDbLine
 10
42.7774843259
 20
5.0549837565
 30
0.0
 11
42.7774843259
 21
4.0627962267
 31
0.0
  0
LINE
  5
366
330
35C
100
AcDbEntity
  8
SLD-0
100
AcDbLine
 10
42.7774843259
 20
4.0627962267
 30
0.0
 11
42.5870546404
 21
4.0627962267
 31
0.0
  0
LINE
  5
367
330
35C
100
AcDbEntity
  8
SLD-0
100
AcDbLine
 10
43.644433309
 20
6.3097581597
 30
0.0
 11
40.7189989669
 21
6.3097581597
 31
0.0
  0
LINE
  5
368
330
35C
100
AcDbEntity
  8
SLD-0
100
AcDbLine
 10
43.369433309
 20
3.8097581597
 30
0.0
 11
40.7189989669
 21
3.8097581597
 31
0.0
  0
LINE
  5
369
330
35C
100
AcDbEntity
  8
SLD-0
100
AcDbLine
 10
41.3439989669
 20
6.3097581597
 30
0.0
 11
41.3439989669
 21
7.5597581597
 31
0.0
  0
LINE
  5
36A
330
35C
100
AcDbEntity
  8
SLD-0
100
AcDbLine
 10
41.3439989669
 20
3.8097581597
 30
0.0
 11
41.3439989669
 21
2.5597581597
 31
0.0
  0
MTEXT
  5
36B
330
35C
100
AcDbEntity
  8
SLD-0
100
AcDbMText
 10
39.4891813273
 20
5.9898254004
 30
0.0
 40
0.625
 41
0.0
 71
     1
 72
     1
  1
 
  7
SLDTEXTSTYLE0
 73
     1
 44
1.0
  0
MTEXT
  5
36C
330
35C
100
AcDbEntity
  8
SLD-0
100
AcDbMText
 10
40.9841899839
 20
5.980276743
 30
0.0
 40
0.625
 41
0.0
 71
     1
 72
     1
  1
2"
  7
SLDTEXTSTYLE0
 73
     1
 44
1.0
  0
MTEXT
  5
36D
330
35C
100
AcDbEntity
  8
SLD-0
100
AcDbMText
 10
40.1009434768
 20
4.8611361392
 30
0.0
 40
0.625
 41
0.0
 71
     1
 72
     1
  1
51mm
  7
SLDTEXTSTYLE0
 73
     1
 44
1.0
  0
MTEXT
  5
36E
330
35C
100
AcDbEntity
  8
SLD-0
100
AcDbMText
 10
42.967913874
 20
5.9898254004
 30
0.0
 40
0.625
 41
0.0
 71
     1
 72
     1
  1
 
  7
SLDTEXTSTYLE0
 73
     1
 44
1.0
  0
ENDBLK
  5
35E
330
35C
100
AcDbEntity
  8
0
100
AcDbBlockEnd
  0
ENDSEC
  0
SECTION
  2
ENTITIES
  0
INSERT
  5
71
330
1F
100
AcDbEntity
  8
0
  6
Continuous
 62
     7
100
AcDbBlockReference
  2
SW_BROKEN_VIEW_0
 10
0.0
 20
0.0
 30
0.0
  0
LINE
  5
72
330
1F
100
AcDbEntity
  8
0
  6
Continuous
 62
     7
370
    25
100
AcDbLine
 10
23.4270950492
 20
34.284173293
 30
0.0
 11
26.7823167694
 21
30.9289515728
 31
0.0
  0
LINE
  5
73
330
1F
100
AcDbEntity
  8
0
  6
Continuous
 62
     7
370
    25
100
AcDbLine
 10
21.9866256096
 20
32.585088921
 30
0.0
 11
21.8573181434
 21
32.7143958005
 31
0.0
  0
LINE
  5
74
330
1F
100
AcDbEntity
  8
0
  6
Continuous
 62
     7
370
    25
100
AcDbLine
 10
23.0246583915
 20
31.5470564324
 30
0.0
 11
22.0821156532
 21
32.4895982907
 31
0.0
  0
LINE
  5
75
330
1F
100
AcDbEntity
  8
0
  6
Continuous
 62
     7
370
    25
100
AcDbLine
 10
23.6427626644
 20
30.9289515728
 30
0.0
 11
23.1201484351
 21
31.4515658022
 31
0.0
  0
LINE
  5
76
330
1F
100
AcDbEntity
  8
0
  6
Continuous
 62
     7
370
    25
100
AcDbLine
 10
19.3010082474
 20
35.7054835939
 30
0.0
 11
20.9310082384
 21
35.7054835939
 31
0.0
  0
LINE
  5
77
330
1F
100
AcDbEntity
  8
0
  6
Continuous
 62
     7
370
    25
100
AcDbLine
 10
20.9310082384
 20
34.7154832971
 30
0.0
 11
19.3010082474
 21
34.7154832971
 31
0.0
  0
ARC
  5
78
330
1F
100
AcDbEntity
  8
0
  6
Continuous
 62
     7
370
    25
100
AcDbCircle
 10
20.9310081009
 20
35.2104834455
 30
0.0
 40
0.4950001483827342
100
AcDbArc
 50
270.0000159153
 51
89.9999840847
  0
LINE
  5
79
330
1F
100
AcDbEntity
  8
0
  6
Continuous
 62
     7
370
    25
100
AcDbLine
 10
21.8502470584
 20
32.7214673988
 30
0.0
 11
20.5456350327
 21
34.0260804878
 31
0.0
  0
LINE
  5
7A
330
1F
100
AcDbEntity
  8
0
  6
Continuous
 62
     7
370
    25
100
AcDbLine
 10
22.1154121219
 20
35.5958556337
 30
0.0
 11
23.4200240375
 21
34.291243718
 31
0.0
  0
LINE
  5
7B
330
1F
100
AcDbEntity
  8
0
  6
Continuous
 62
     7
370
    25
100
AcDbLine
 10
20.5456350327
 20
34.0260804878
 30
0.0
 11
20.5456350327
 21
34.0685053844
 31
0.0
  0
LINE
  5
7C
330
1F
100
AcDbEntity
  8
0
  6
Continuous
 62
     7
370
    25
100
AcDbLine
 10
22.0729856853
 20
35.5958556337
 30
0.0
 11
22.1154121219
 21
35.5958556337
 31
0.0
  0
ARC
  5
7D
330
1F
100
AcDbEntity
  8
0
  6
Continuous
 62
     7
370
    25
100
AcDbCircle
 10
21.8573181067
 20
32.7285395328
 30
0.0
 40
0.0100007401110182
100
AcDbArc
 50
225.0043980124
 51
314.9956019876
  0
ARC
  5
7E
330
1F
100
AcDbEntity
  8
0
  6
Continuous
 62
     7
370
    25
100
AcDbCircle
 10
23.41295441
 20
34.284173293
 30
0.0
 40
0.0099985270613418
100
AcDbArc
 50
314.9967688153
 51
45.0032311847
  0
LINE
  5
7F
330
1F
100
AcDbEntity
  8
0
  6
Continuous
 62
     7
370
    25
100
AcDbLine
 10
20.959292505
 20
34.4821639658
 30
0.0
 11
20.7259725228
 21
34.7154832971
 31
0.0
  0
LINE
  5
80
330
1F
100
AcDbEntity
  8
0
  6
Continuous
 62
     7
370
    25
100
AcDbLine
 10
21.2810261108
 20
35.5605011621
 30
0.0
 11
21.6593282039
 21
35.1821993989
 31
0.0
  0
LINE
  5
81
330
1F
100
AcDbEntity
  8
0
  6
Continuous
 62
     7
370
    25
100
AcDbLine
 10
19.1760081848
 20
33.5854824843
 30
0.0
 11
19.1760081848
 21
29.9811145223
 31
0.0
  0
LINE
  5
82
330
1F
100
AcDbEntity
  8
0
  6
Continuous
 62
     7
370
    25
100
AcDbLine
 10
18.1760082702
 20
30.2034421939
 30
0.0
 11
18.1760082702
 21
33.5854824843
 31
0.0
  0
ARC
  5
83
330
1F
100
AcDbEntity
  8
0
  6
Continuous
 62
     7
370
    25
100
AcDbCircle
 10
18.2921342826
 20
35.5854490812
 30
0.0
 40
0.5000352429746897
100
AcDbArc
 50
90.0010992909
 51
118.8216077494
  0
ARC
  5
84
330
1F
100
AcDbEntity
  8
0
  6
Continuous
 62
     7
370
    25
100
AcDbCircle
 10
19.0598942597
 20
35.5855066825
 30
0.0
 40
0.4999776415458267
100
AcDbArc
 50
61.1644271223
 51
90.0002857561
  0
LINE
  5
85
330
1F
100
AcDbEntity
  8
0
  6
Continuous
 62
     7
370
    25
100
AcDbLine
 10
23.6427626644
 20
30.9289515728
 30
0.0
 11
26.7823167694
 21
30.9289515728
 31
0.0
  0
LWPOLYLINE
  5
86
330
1F
100
AcDbEntity
  8
0
  6
Continuous
 62
     7
370
    25
100
AcDbPolyline
 90
       29
 70
   128
 43
0.0
 10
21.8573181434
 20
32.7143958005
 10
21.8622533464
 20
32.7193319568
 10
21.8769969161
 20
32.7340747199
 10
21.9013634679
 20
32.7584410517
 10
21.9350465455
 20
32.7921247159
 10
21.977622507
 20
32.8347009707
 10
22.0285560986
 20
32.8856347824
 10
22.0872066144
 20
32.9442843448
 10
22.1528366229
 20
33.00991516
 10
22.2246207669
 20
33.0816988641
 10
22.3016562504
 20
33.1587343475
 10
22.382974351
 20
33.2400524481
 10
22.4675525206
 20
33.3246312044
 10
22.5543269981
 20
33.4114052419
 10
22.6422065963
 20
33.4992857201
 10
22.7300863411
 20
33.5871650249
 10
22.8168608187
 20
33.6739390625
 10
22.9014388416
 20
33.7585166454
 10
22.9827570889
 20
33.839834746
 10
23.0597925723
 20
33.9168702294
 10
23.1315765697
 20
33.9886539335
 10
23.1972066515
 20
34.0542847487
 10
23.2558572407
 20
34.1129343112
 10
23.306790759
 20
34.1638681228
 10
23.3493667204
 20
34.2064455509
 10
23.383049798
 20
34.2401268685
 10
23.4074164232
 20
34.2644943737
 10
23.4221600662
 20
34.27923831
 10
23.4270950492
 20
34.284173293
  0
SPLINE
  5
87
330
1F
100
AcDbEntity
  8
0
  6
Continuous
 62
     7
370
    25
100
AcDbSpline
210
0.0
220
0.0
230
1.0
 70
     8
 71
     3
 72
    12
 73
     8
 74
     0
 42
0.00000001
 43
0.00000001
 40
0.0
 40
0.0
 40
0.0
 40
0.0
 40
0.3347515661098077
 40
0.6318627870583046
 40
0.8582639509525432
 40
0.9880437714820536
 40
1.0
 40
1.0
 40
1.0
 40
1.0
 10
23.07360181277094
 20
31.50106112373733
 30
0.0
 10
23.06827111036116
 20
31.50633049026331
 30
0.0
 10
23.05820910371916
 20
31.51627672190556
 30
0.0
 10
23.0442120078229
 20
31.5294462504817
 30
0.0
 10
23.03341625739475
 20
31.53931661496913
 30
0.0
 10
23.02727127287703
 20
31.54481063936402
 30
0.0
 10
23.02489601102846
 20
31.54691526810269
 30
0.0
 10
23.02469564440583
 20
31.54709280530874
 30
0.0
  0
SPLINE
  5
88
330
1F
100
AcDbEntity
  8
0
  6
Continuous
 62
     7
370
    25
100
AcDbSpline
210
0.0
220
0.0
230
1.0
 70
     8
 71
     3
 72
    13
 73
     9
 74
     0
 42
0.00000001
 43
0.00000001
 40
0.0
 40
0.0
 40
0.0
 40
0.0
 40
0.0012672149737505
 40
0.0600396845125524
 40
0.2244589502392057
 40
0.4763749528130112
 40
0.7874816413800706
 40
1.0
 40
1.0
 40
1.0
 40
1.0
 10
23.12015210168469
 20
31.45156932213751
 30
0.0
 10
23.12017165052094
 20
31.45154732286554
 30
0.0
 10
23.12109785955849
 20
31.45050501404197
 30
0.0
 10
23.1136464341408
 20
31.45890478835864
 30
0.0
 10
23.11008222784676
 20
31.46280427661691
 30
0.0
 10
23.09700038807125
 20
31.47705207075312
 30
0.0
 10
23.08547016365058
 20
31.48908994835954
 30
0.0
 10
23.07702810502401
 20
31.49760514692361
 30
0.0
 10
23.07360181277094
 20
31.50106112373733
 30
0.0
  0
SPLINE
  5
89
330
1F
100
AcDbEntity
  8
0
  6
Continuous
 62
     7
370
    25
100
AcDbSpline
210
0.0
220
0.0
230
1.0
 70
     8
 71
     3
 72
    12
 73
     8
 74
     0
 42
0.00000001
 43
0.00000001
 40
0.0
 40
0.0
 40
0.0
 40
0.0
 40
0.3347476686708171
 40
0.6318554304185999
 40
0.858253958373794
 40
0.9880439106857934
 40
1.0
 40
1.0
 40
1.0
 40
1.0
 10
22.03556903088088
 20
32.53909361229744
 30
0.0
 10
22.03023830625238
 20
32.54436295397431
 30
0.0
 10
22.02017625767127
 20
32.55430913871245
 30
0.0
 10
22.00617942738979
 20
32.56747896434842
 30
0.0
 10
21.99538282143601
 20
32.57734876311527
 30
0.0
 10
21.98923869883662
 20
32.58284414260014
 30
0.0
 10
21.98686323012891
 20
32.58494893109036
 30
0.0
 10
21.98666286251578
 20
32.58512646718864
 30
0.0
  0
SPLINE
  5
8A
330
1F
100
AcDbEntity
  8
0
  6
Continuous
 62
     7
370
    25
100
AcDbSpline
210
0.0
220
0.0
230
1.0
 70
     8
 71
     3
 72
    13
 73
     9
 74
     0
 42
0.00000001
 43
0.00000001
 40
0.0
 40
0.0
 40
0.0
 40
0.0
 40
0.0012794164717791
 40
0.0600511473194207
 40
0.2244811482940149
 40
0.4763939846214749
 40
0.787484312450863
 40
1.0
 40
1.0
 40
1.0
 40
1.0
 10
22.08211939312712
 20
32.4896029840174
 30
0.0
 10
22.08213892343227
 20
32.48958058218495
 30
0.0
 10
22.08305560479238
 20
32.48852912179634
 30
0.0
 10
22.07562623209923
 20
32.49694809956141
 30
0.0
 10
22.07204247007674
 20
32.50083196612968
 30
0.0
 10
22.05897086303496
 20
32.51508794005118
 30
0.0
 10
22.04743654973947
 20
32.52712211639772
 30
0.0
 10
22.03899514088376
 20
32.53563748449682
 30
0.0
 10
22.03556903088088
 20
32.53909361229744
 30
0.0
  0
SPLINE
  5
8B
330
1F
100
AcDbEntity
  8
0
  6
Continuous
 62
     7
370
    25
100
AcDbSpline
210
0.0
220
0.0
230
1.0
 70
    11
 71
     3
 72
    26
 73
    22
 74
     0
 42
0.00000001
 43
0.00000001
 40
0.0
 40
0.0
 40
0.0
 40
0.0
 40
0.036586756340963
 40
0.0937509638990398
 40
0.1491160236804679
 40
0.2018169550165596
 40
0.2522562582245043
 40
0.3019368457873918
 40
0.3526957300314101
 40
0.4057526206308403
 40
0.461228466742822
 40
0.5182971710298583
 40
0.5756856032523051
 40
0.6321668490652724
 40
0.686793658913464
 40
0.7390687955128579
 40
0.7893227600142462
 40
0.8389781471996675
 40
0.8899944848169059
 40
0.9437083420440603
 40
1.0
 40
1.0
 40
1.0
 40
1.0
 10
23.26164801377851
 20
33.74469728506093
 30
0.0
 10
23.25867213558757
 20
33.74853526651574
 30
0.0
 10
23.25104665913795
 20
33.75836982133283
 30
0.0
 10
23.23486030978959
 20
33.77029769088957
 30
0.0
 10
23.21411591769217
 20
33.77812401840536
 30
0.0
 10
23.19270680385285
 20
33.77890100973464
 30
0.0
 10
23.17308172481652
 20
33.77220111556604
 30
0.0
 10
23.15772701115436
 20
33.75860095858781
 30
0.0
 10
23.14855384856503
 20
33.73992258814342
 30
0.0
 10
23.14645525713489
 20
33.71851366708802
 30
0.0
 10
23.15155409927526
 20
33.69680173944334
 30
0.0
 10
23.16329605919294
 20
33.67719455993533
 30
0.0
 10
23.18040793714498
 20
33.66185528625534
 30
0.0
 10
23.201020178741
 20
33.65242341251458
 30
0.0
 10
23.22289610060707
 20
33.64990026504063
 30
0.0
 10
23.2436217776972
 20
33.65461276713546
 30
0.0
 10
23.26072406953126
 20
33.66619601934729
 30
0.0
 10
23.27197362834758
 20
33.68337502318168
 30
0.0
 10
23.27589361659845
 20
33.70386129684772
 30
0.0
 10
23.27275859006332
 20
33.7254933066531
 30
0.0
 10
23.26540894818354
 20
33.7381967308812
 30
0.0
 10
23.26164801377851
 20
33.74469728506093
 30
0.0
  0
LWPOLYLINE
  5
8C
330
1F
100
AcDbEntity
  8
0
  6
Continuous
 62
     7
370
    25
100
AcDbPolyline
 90
        4
 70
   128
 43
0.0
 10
20.8965189755
 20
35.2938407759
 10
20.9356194493
 20
35.2886781689
 10
20.9644791375
 20
35.2848672262
 10
20.9859535203
 20
35.282030139
  0
ARC
  5
8D
330
1F
100
AcDbEntity
  8
0
  6
Continuous
 62
     7
370
    25
100
AcDbCircle
 10
20.9310090521
 20
35.2104913185
 30
0.0
 40
0.0902036441865783
100
AcDbArc
 50
52.4744003571
 51
112.4798134861
  0
ARC
  5
8E
330
1F
100
AcDbEntity
  8
0
  6
Continuous
 62
     7
370
    25
100
AcDbCircle
 10
20.9310108517
 20
35.2104809105
 30
0.0
 40
0.0902139494964644
100
AcDbArc
 50
112.4783420942
 51
172.4757282313
  0
LWPOLYLINE
  5
8F
330
1F
100
AcDbEntity
  8
0
  6
Continuous
 62
     7
370
    25
100
AcDbPolyline
 90
        4
 70
   128
 43
0.0
 10
20.8415736913
 20
35.2222940824
 10
20.8655955828
 20
35.2535747877
 10
20.8833259044
 20
35.2766610277
 10
20.8965189755
 20
35.2938407759
  0
ARC
  5
90
330
1F
100
AcDbEntity
  8
0
  6
Continuous
 62
     7
370
    25
100
AcDbCircle
 10
20.9310140843
 20
35.2104794893
 30
0.0
 40
0.0902047155613178
100
AcDbArc
 50
292.4749509616
 51
352.4791124376
  0
LWPOLYLINE
  5
91
330
1F
100
AcDbEntity
  8
0
  6
Continuous
 62
     7
370
    25
100
AcDbPolyline
 90
        4
 70
   128
 43
0.0
 10
21.0204427877
 20
35.1986728086
 10
20.9964208894
 20
35.1673921033
 10
20.97869057
 20
35.1443058633
 10
20.9654974966
 20
35.1271261151
  0
ARC
  5
92
330
1F
100
AcDbEntity
  8
0
  6
Continuous
 62
     7
370
    25
100
AcDbCircle
 10
20.9310074214
 20
35.2104755716
 30
0.0
 40
0.0902036428559974
100
AcDbArc
 50
232.4744005117
 51
292.4798129504
  0
LWPOLYLINE
  5
93
330
1F
100
AcDbEntity
  8
0
  6
Continuous
 62
     7
370
    25
100
AcDbPolyline
 90
        4
 70
   128
 43
0.0
 10
20.9654974966
 20
35.1271261151
 10
20.9263970183
 20
35.1322887222
 10
20.8975373392
 20
35.1360996648
 10
20.8760629541
 20
35.138936752
  0
ARC
  5
94
330
1F
100
AcDbEntity
  8
0
  6
Continuous
 62
     7
370
    25
100
AcDbCircle
 10
20.9310079484
 20
35.2104840198
 30
0.0
 40
0.0902106640725226
100
AcDbArc
 50
172.4774445931
 51
232.4774034014
  0
LWPOLYLINE
  5
95
330
1F
100
AcDbEntity
  8
0
  6
Continuous
 62
     7
370
    25
100
AcDbPolyline
 90
        5
 70
   128
 43
0.0
 10
20.8760629541
 20
35.138936752
 10
20.8702799188
 20
35.1529133372
 10
20.8590785385
 20
35.1799865178
 10
20.8475277953
 20
35.207902142
 10
20.8415736913
 20
35.2222940824
  0
ARC
  5
96
330
1F
100
AcDbEntity
  8
0
  6
Continuous
 62
     7
370
    25
100
AcDbCircle
 10
20.9310084683
 20
35.2104828424
 30
0.0
 40
0.0902107220946253
100
AcDbArc
 50
352.4774679167
 51
52.4773854575
  0
LWPOLYLINE
  5
97
330
1F
100
AcDbEntity
  8
0
  6
Continuous
 62
     7
370
    25
100
AcDbPolyline
 90
        5
 70
   128
 43
0.0
 10
20.9859535203
 20
35.282030139
 10
20.9919076232
 20
35.2676405452
 10
21.0034583697
 20
35.2397225744
 10
21.0146597512
 20
35.2126493938
 10
21.0204427877
 20
35.1986728086
  0
CIRCLE
  5
98
330
1F
100
AcDbEntity
  8
0
  6
Continuous
 62
     7
370
    25
100
AcDbCircle
 10
20.9310082123
 20
35.2104834787
 30
0.0
 40
0.1502266348599864
  0
CIRCLE
  5
99
330
1F
100
AcDbEntity
  8
0
  6
Continuous
 62
     7
370
    25
100
AcDbCircle
 10
20.9310081749
 20
35.2104831514
 30
0.0
 40
0.1559999958786378
  0
SPLINE
  5
9A
330
1F
100
AcDbEntity
  8
0
  6
Continuous
 62
     7
370
    25
100
AcDbSpline
210
0.0
220
0.0
230
1.0
 70
     8
 71
     3
 72
    10
 73
     6
 74
     0
 42
0.00000001
 43
0.00000001
 40
0.0
 40
0.0
 40
0.0
 40
0.0
 40
0.083381903285528
 40
0.6089283628937516
 40
1.0
 40
1.0
 40
1.0
 40
1.0
 10
20.87531088594864
 20
35.26622552157024
 30
0.0
 10
20.87653299185941
 20
35.26716179864157
 30
0.0
 10
20.88545788949549
 20
35.27399932143483
 30
0.0
 10
20.90010815116824
 20
35.28523653925591
 30
0.0
 10
20.9135386587971
 20
35.29553441096593
 30
0.0
 10
20.91926873397717
 20
35.29992795890347
 30
0.0
  0
LWPOLYLINE
  5
9B
330
1F
100
AcDbEntity
  8
0
  6
Continuous
 62
     7
370
    25
100
AcDbPolyline
 90
        4
 70
   128
 43
0.0
 10
20.8548860498
 20
35.1901193074
 10
20.854284858
 20
35.1946999478
 10
20.8504966324
 20
35.2235612678
 10
20.8476778267
 20
35.245037713
  0
LWPOLYLINE
  5
9C
330
1F
100
AcDbEntity
  8
0
  6
Continuous
 62
     7
370
    25
100
AcDbPolyline
 90
        4
 70
   128
 43
0.0
 10
21.0067292461
 20
35.2339052549
 10
21.0077316187
 20
35.2262669432
 10
21.0115198375
 20
35.1974056233
 10
21.0143386466
 20
35.1759268314
  0
LWPOLYLINE
  5
9D
330
1F
100
AcDbEntity
  8
0
  6
Continuous
 62
     7
370
    25
100
AcDbPolyline
 90
        4
 70
   128
 43
0.0
 10
20.9867055908
 20
35.1547413694
 10
20.9830393423
 20
35.1519300953
 10
20.9599376383
 20
35.1342176599
 10
20.9427477336
 20
35.1210389321
  0
LWPOLYLINE
  5
9E
330
1F
100
AcDbEntity
  8
0
  6
Continuous
 62
     7
370
    25
100
AcDbPolyline
 90
        4
 70
   128
 43
0.0
 10
20.9105833993
 20
35.1343772314
 10
20.9017112456
 20
35.1380567622
 10
20.8738031929
 20
35.1496280418
 10
20.8594173281
 20
35.1555955462
  0
LWPOLYLINE
  5
9F
330
1F
100
AcDbEntity
  8
0
  6
Continuous
 62
     7
370
    25
100
AcDbPolyline
 90
        4
 70
   128
 43
0.0
 10
20.9514330774
 20
35.2865896597
 10
20.9615626587
 20
35.2823891748
 10
20.9886265994
 20
35.2711651978
 10
21.0025991422
 20
35.2653713448
  0
SPLINE
  5
A0
330
1F
100
AcDbEntity
  8
0
  6
Continuous
 62
     7
370
    25
100
AcDbSpline
210
0.0
220
0.0
230
1.0
 70
     8
 71
     3
 72
    17
 73
    13
 74
     0
 42
0.00000001
 43
0.00000001
 40
0.0
 40
0.0
 40
0.0
 40
0.0
 40
0.1038644294044079
 40
0.2067210139309617
 40
0.3127809794128331
 40
0.4222204239211621
 40
0.5286107942617487
 40
0.6306267138806962
 40
0.7331683006398354
 40
0.8402649558557552
 40
0.9496448368286781
 40
1.0
 40
1.0
 40
1.0
 40
1.0
 10
20.93100823836141
 20
35.37448304430343
 30
0.0
 10
20.91317073276407
 20
35.3727880312413
 30
0.0
 10
20.8776688071845
 20
35.36941445261732
 30
0.0
 10
20.82960293493636
 20
35.34291649613015
 30
0.0
 10
20.79160847083726
 20
35.30280408499876
 30
0.0
 10
20.76891503769922
 20
35.25137742803241
 30
0.0
 10
20.76466641910557
 20
35.19618792051941
 30
0.0
 10
20.77806985150103
 20
35.14380289117317
 30
0.0
 10
20.80740665770221
 20
35.09816421444682
 30
0.0
 10
20.85095559299343
 20
35.06382954060487
 30
0.0
 10
20.89507155277983
 20
35.048200667646
 30
0.0
 10
20.92239480659122
 20
35.04689534041887
 30
0.0
 10
20.93100823836141
 20
35.04648384671148
 30
0.0
  0
ARC
  5
A1
330
1F
100
AcDbEntity
  8
0
  6
Continuous
 62
     7
370
    25
100
AcDbCircle
 10
20.9310086325
 20
35.2104834455
 30
0.0
 40
0.1639995987964487
100
AcDbArc
 50
269.9998622936
 51
90.0001377064
  0
LWPOLYLINE
  5
A2
330
1F
100
AcDbEntity
  8
0
  6
Continuous
 62
     7
370
    25
100
AcDbPolyline
 90
       29
 70
   128
 43
0.0
 10
20.5456350327
 20
34.0260804878
 10
20.550570254
 20
34.0310154708
 10
20.5653138421
 20
34.0457570605
 10
20.5896803756
 20
34.0701245657
 10
20.6233634348
 20
34.1038082299
 10
20.6659394513
 20
34.1463833114
 10
20.7168730062
 20
34.197317123
 10
20.7755235679
 20
34.2559690321
 10
20.8411535764
 20
34.3215975007
 10
20.9129376929
 20
34.3933812047
 10
20.9899731947
 20
34.4704166882
 10
21.0712913136
 20
34.5517347888
 10
21.1558694466
 20
34.6363147184
 10
21.2426439242
 20
34.7230887559
 10
21.330523559
 20
34.8109680607
 10
21.4184031938
 20
34.8988473656
 10
21.5051776713
 20
34.9856214031
 10
21.589755841
 20
35.0701989861
 10
21.6710739416
 20
35.1515170867
 10
21.748109425
 20
35.2285525701
 10
21.819893569
 20
35.3003386208
 10
21.8855235776
 20
35.3659670893
 10
21.9441740933
 20
35.4246189985
 10
21.995107685
 20
35.4755528101
 10
22.0376837198
 20
35.5181278916
 10
22.0713667973
 20
35.5518115558
 10
22.0957333492
 20
35.5761767143
 10
22.1104768455
 20
35.5909206507
 10
22.1154121219
 20
35.5958556337
  0
LWPOLYLINE
  5
A3
330
1F
100
AcDbEntity
  8
0
  6
Continuous
 62
     7
370
    25
100
AcDbPolyline
 90
       29
 70
   128
 43
0.0
 10
22.0729856853
 20
35.5958556337
 10
22.0680078761
 20
35.5908784112
 10
22.0531392012
 20
35.5760101029
 10
22.0285736984
 20
35.55144548
 10
21.9946313905
 20
35.5175013388
 10
21.9517549124
 20
35.4746258874
 10
21.9005032045
 20
35.4233729329
 10
21.8415443989
 20
35.3644159606
 10
21.7756470935
 20
35.2985176285
 10
21.7036703783
 20
35.2265415
 10
21.6265525425
 20
35.1494238842
 10
21.5452990479
 20
35.0681691429
 10
21.4609689987
 20
34.9838403037
 10
21.3746618691
 20
34.8975332474
 10
21.2875027993
 20
34.8103743609
 10
21.2006280395
 20
34.7234994179
 10
21.1151701001
 20
34.6380418451
 10
21.0322430664
 20
34.5551139497
 10
20.9529280426
 20
34.4757998793
 10
20.8782590077
 20
34.4011298086
 10
20.8092093816
 20
34.3320799396
 10
20.7466793344
 20
34.2695490353
 10
20.6914840529
 20
34.2143537262
 10
20.6443430708
 20
34.1672144308
 10
20.6058709602
 20
34.1287412752
 10
20.5765692604
 20
34.0994387871
 10
20.5568199602
 20
34.0796918152
 10
20.5468805117
 20
34.06975145
 10
20.5456350327
 20
34.0685053844
  0
LINE
  5
A4
330
1F
100
AcDbEntity
  8
0
  6
Continuous
 62
     7
370
    25
100
AcDbLine
 10
21.3416946632
 20
35.4868190266
 30
0.0
 11
21.6457505474
 21
35.1827625924
 31
0.0
  0
LWPOLYLINE
  5
A5
330
1F
100
AcDbEntity
  8
0
  6
Continuous
 62
     7
370
    25
100
AcDbPolyline
 90
       17
 70
   128
 43
0.0
 10
21.6457505474
 20
35.1827625924
 10
21.6291584124
 20
35.1661718507
 10
21.6028949692
 20
35.1399082608
 10
21.5677372486
 20
35.1047509069
 10
21.5247252522
 20
35.0617370038
 10
21.4751314451
 20
35.0121454701
 10
21.4204230271
 20
34.9574359154
 10
21.3622183362
 20
34.8992322144
 10
21.3022392924
 20
34.8392521073
 10
21.2422602486
 20
34.7792720002
 10
21.1840555576
 20
34.7210682993
 10
21.1293471213
 20
34.6663610913
 10
21.0797533509
 20
34.6167672108
 10
21.0367413728
 20
34.5737533077
 10
21.0015836339
 20
34.5385959539
 10
20.9753201998
 20
34.5123323639
 10
20.958728019
 20
34.4957416223
  0
LINE
  5
A6
330
1F
100
AcDbEntity
  8
0
  6
Continuous
 62
     7
370
    25
100
AcDbLine
 10
20.958728019
 20
34.4957416223
 30
0.0
 11
20.738985675
 21
34.7154832971
 31
0.0
  0
SPLINE
  5
A7
330
1F
100
AcDbEntity
  8
0
  6
Continuous
 62
     7
370
    25
100
AcDbSpline
210
0.0
220
0.0
230
1.0
 70
    24
 71
     3
 72
    17
 73
    13
 74
     0
 42
0.00000001
 43
0.00000001
 40
0.0
 40
0.0
 40
0.0
 40
0.0
 40
0.0000107146109768
 40
0.029090168808696
 40
0.1313075575508544
 40
0.2106760383797368
 40
0.3158453024466806
 40
0.4434295326822414
 40
0.5998039226190802
 40
0.7470869651400116
 40
0.9101365577169294
 40
1.0
 40
1.0
 40
1.0
 40
1.0
 10
18.05100835419916
 20
36.02350018680202
 30
0.0
 10
18.05100835419916
 20
36.02350175184307
 30
0.0
 10
18.05100835419993
 20
36.02775083828512
 30
0.0
 10
18.05100835419785
 20
35.98557537153886
 30
0.0
 10
18.05100835419954
 20
35.9735277154652
 30
0.0
 10
18.05100835419904
 20
35.92609278267107
 30
0.0
 10
18.05100835419921
 20
35.88239124397735
 30
0.0
 10
18.05100835419915
 20
35.82488971164054
 30
0.0
 10
18.05100835419917
 20
35.76215674475984
 30
0.0
 10
18.05100835419916
 20
35.69394925727127
 30
0.0
 10
18.05100835419916
 20
35.6355337424347
 30
0.0
 10
18.05100835419916
 20
35.59860483135104
 30
0.0
 10
18.05100835419916
 20
35.58548348680832
 30
0.0
  0
SPLINE
  5
A8
330
1F
100
AcDbEntity
  8
0
  6
Continuous
 62
     7
370
    25
100
AcDbSpline
210
0.0
220
0.0
230
1.0
 70
     8
 71
     3
 72
    24
 73
    20
 74
     0
 42
0.00000001
 43
0.00000001
 40
0.0
 40
0.0
 40
0.0
 40
0.0
 40
0.0182964384591485
 40
0.0886705245203542
 40
0.1601875757573203
 40
0.2384185666256792
 40
0.298873365213793
 40
0.3594386156528576
 40
0.4295909058271852
 40
0.4998041292502829
 40
0.6000418098723835
 40
0.699908730148645
 40
0.7477920707589315
 40
0.795622236082525
 40
0.8439726587326472
 40
0.8922610156955305
 40
0.9345254536455327
 40
0.9767693615598859
 40
1.0
 40
1.0
 40
1.0
 40
1.0
 10
18.05100835419916
 20
35.58548348680831
 30
0.0
 10
18.05129114825006
 20
35.59583237012604
 30
0.0
 10
18.05266166070692
 20
35.64598644322786
 30
0.0
 10
18.07696486856282
 20
35.73547111829606
 30
0.0
 10
18.14627902151854
 20
35.84103519509168
 30
0.0
 10
18.23952367323821
 20
35.91762247332132
 30
0.0
 10
18.34087685991176
 20
35.9680839593946
 30
0.0
 10
18.44442286530387
 20
36.00053147421781
 30
0.0
 10
18.5568244421632
 20
36.01955204175754
 30
0.0
 10
18.69298555453577
 20
36.0262876534374
 30
0.0
 10
18.84609332995297
 20
36.01570243272792
 30
0.0
 10
18.98316829398172
 20
35.98025243045665
 30
0.0
 10
19.08331909361413
 20
35.93251082707627
 30
0.0
 10
19.15126994148218
 20
35.88685681771733
 30
0.0
 10
19.21036381146147
 20
35.82977362928263
 30
0.0
 10
19.25596554873509
 20
35.76504431879469
 30
0.0
 10
19.28571559462567
 20
35.69564500357819
 30
0.0
 10
19.29934197516477
 20
35.63568314167774
 30
0.0
 10
19.30057187419186
 20
35.59863006933098
 30
0.0
 10
19.30100824742706
 20
35.58548348680831
 30
0.0
  0
LINE
  5
A9
330
1F
100
AcDbEntity
  8
0
  6
Continuous
 62
     7
370
    25
100
AcDbLine
 10
19.3010082474
 20
35.5854834868
 30
0.0
 11
19.3010082474
 21
36.0235048801
 31
0.0
  0
LINE
  5
AA
330
1F
100
AcDbEntity
  8
0
  6
Continuous
 62
     7
370
    25
100
AcDbLine
 10
18.2921246888
 20
36.0854843241
 30
0.0
 11
19.0598916195
 21
36.0854843241
 31
0.0
  0
LINE
  5
AB
330
1F
100
AcDbEntity
  8
0
  6
Continuous
 62
     7
370
    25
100
AcDbLine
 10
19.3010082474
 20
33.5854824843
 30
0.0
 11
18.0510083542
 21
33.5854824843
 31
0.0
  0
LINE
  5
AC
330
1F
100
AcDbEntity
  8
0
  6
Continuous
 62
     7
370
    25
100
AcDbLine
 10
18.0510083542
 20
35.5854834868
 30
0.0
 11
18.0510083542
 21
33.5854824843
 31
0.0
  0
LINE
  5
AD
330
1F
100
AcDbEntity
  8
0
  6
Continuous
 62
     7
370
    25
100
AcDbLine
 10
19.3010082474
 20
35.5854834868
 30
0.0
 11
19.3010082474
 21
33.5854824843
 31
0.0
  0
LWPOLYLINE
  5
AE
330
1F
100
AcDbEntity
  8
0
  6
Continuous
 62
     7
370
    25
100
AcDbPolyline
 90
       17
 70
   128
 43
0.0
 10
23.1525399809
 20
33.7303194245
 10
23.1597111647
 20
33.7510684115
 10
23.1747556176
 20
33.7663215686
 10
23.1953831659
 20
33.7737533761
 10
23.2184532728
 20
33.7722327536
 10
23.2404538986
 20
33.7619920186
 10
23.2580353622
 20
33.7445893396
 10
23.268521321
 20
33.7226764194
 10
23.2703151803
 20
33.6995854862
 10
23.2631439965
 20
33.6788364992
 10
23.2480995436
 20
33.6635833421
 10
23.2274719952
 20
33.6561515346
 10
23.2044018884
 20
33.657672157
 10
23.1824014092
 20
33.6679128921
 10
23.164819799
 20
33.685315571
 10
23.1543338401
 20
33.7072284912
 10
23.1525399809
 20
33.7303194245
  0
LINE
  5
AF
330
1F
100
AcDbEntity
  8
0
  6
Continuous
 62
     7
370
    25
100
AcDbLine
 10
23.2476500155
 20
33.7310609626
 30
0.0
 11
23.2481620229
 21
33.6892978184
 31
0.0
  0
LINE
  5
B0
330
1F
100
AcDbEntity
  8
0
  6
Continuous
 62
     7
370
    25
100
AcDbLine
 10
23.211939588
 20
33.6731904844
 30
0.0
 11
23.2481620229
 21
33.6892978184
 31
0.0
  0
LINE
  5
B1
330
1F
100
AcDbEntity
  8
0
  6
Continuous
 62
     7
370
    25
100
AcDbLine
 10
23.1752051457
 20
33.6988439481
 30
0.0
 11
23.211939588
 21
33.6731904844
 31
0.0
  0
LINE
  5
B2
330
1F
100
AcDbEntity
  8
0
  6
Continuous
 62
     7
370
    25
100
AcDbLine
 10
23.1752051457
 20
33.6988439481
 30
0.0
 11
23.1746931383
 21
33.7406070923
 31
0.0
  0
LINE
  5
B3
330
1F
100
AcDbEntity
  8
0
  6
Continuous
 62
     7
370
    25
100
AcDbLine
 10
23.2109155732
 20
33.7567144262
 30
0.0
 11
23.1746931383
 21
33.7406070923
 31
0.0
  0
LINE
  5
B4
330
1F
100
AcDbEntity
  8
0
  6
Continuous
 62
     7
370
    25
100
AcDbLine
 10
23.2109155732
 20
33.7567144262
 30
0.0
 11
23.2476500155
 21
33.7310609626
 31
0.0
  0
LINE
  5
B5
330
1F
100
AcDbEntity
  8
0
  6
Continuous
 62
     7
370
    25
100
AcDbLine
 10
23.1790958741
 20
33.7248963405
 30
0.0
 11
23.1749085891
 21
33.7230331087
 31
0.0
  0
LINE
  5
B6
330
1F
100
AcDbEntity
  8
0
  6
Continuous
 62
     7
370
    25
100
AcDbLine
 10
23.1790958741
 20
33.7248963405
 30
0.0
 11
23.2109155732
 21
33.7567144262
 31
0.0
  0
LINE
  5
B7
330
1F
100
AcDbEntity
  8
0
  6
Continuous
 62
     7
370
    25
100
AcDbLine
 10
23.2158303164
 20
33.6992405302
 30
0.0
 11
23.2476500155
 21
33.7310609626
 31
0.0
  0
LINE
  5
B8
330
1F
100
AcDbEntity
  8
0
  6
Continuous
 62
     7
370
    25
100
AcDbLine
 10
23.2158303164
 20
33.6992405302
 30
0.0
 11
23.216126873
 21
33.6750513696
 31
0.0
  0
LINE
  5
B9
330
1F
100
AcDbEntity
  8
0
  6
Continuous
 62
     7
370
    25
100
AcDbLine
 10
23.1790958741
 20
33.7248963405
 30
0.0
 11
23.2158303164
 21
33.6992405302
 31
0.0
  0
LWPOLYLINE
  5
BA
330
1F
100
AcDbEntity
  8
0
  6
Continuous
 62
     7
370
    25
100
AcDbPolyline
 90
       10
 70
   128
 43
0.0
 10
21.9892642591
 20
32.5824501248
 10
21.9918281828
 20
32.5798864211
 10
22.000764113
 20
32.5709504176
 10
22.0147744311
 20
32.5569398061
 10
22.0317260419
 20
32.5399888553
 10
22.0490383753
 20
32.5226765219
 10
22.0640755682
 20
32.5076392557
 10
22.0745485473
 20
32.4971662033
 10
22.0788627707
 20
32.4928519065
 10
22.0789253967
 20
32.4927885472
  0
LINE
  5
BB
330
1F
100
AcDbEntity
  8
0
  6
Continuous
 62
     7
370
    25
100
AcDbLine
 10
20.9310082384
 20
35.0464838467
 30
0.0
 11
20.9310082384
 21
34.7154832971
 31
0.0
  0
LINE
  5
BC
330
1F
100
AcDbEntity
  8
0
  6
Continuous
 62
     7
370
    25
100
AcDbLine
 10
20.9310082384
 20
35.7054835939
 30
0.0
 11
20.9310082384
 21
35.3744830443
 31
0.0
  0
LWPOLYLINE
  5
BD
330
1F
100
AcDbEntity
  8
0
  6
Continuous
 62
     7
370
    25
100
AcDbPolyline
 90
       29
 70
   128
 43
0.0
 10
23.4200240375
 20
34.291243718
 10
23.4150887612
 20
34.286308735
 10
23.4003454115
 20
34.2715647986
 10
23.3759787864
 20
34.2471996401
 10
23.3422957088
 20
34.2135159759
 10
23.2997197473
 20
34.1709408944
 10
23.2487860824
 20
34.1200070828
 10
23.1901356399
 20
34.0613551737
 10
23.1245055581
 20
33.9957267051
 10
23.052721414
 20
33.9239406544
 10
22.9756859306
 20
33.846905171
 10
22.89436783
 20
33.7655870704
 10
22.8097896604
 20
33.6810094875
 10
22.7230151828
 20
33.5942354499
 10
22.6351355846
 20
33.5063561451
 10
22.5472559865
 20
33.4184756669
 10
22.4604815089
 20
33.3317016294
 10
22.3759033393
 20
33.2471240464
 10
22.2945852387
 20
33.1658059458
 10
22.2175497553
 20
33.0887704624
 10
22.1457656112
 20
33.016985585
 10
22.0801356027
 20
32.9513559431
 10
22.0214850136
 20
32.8927052073
 10
21.9705514953
 20
32.8417713957
 10
21.9279754605
 20
32.7991951409
 10
21.8942923829
 20
32.76551265
 10
21.8699258311
 20
32.7411463182
 10
21.8551822614
 20
32.7264023818
 10
21.8502470584
 20
32.7214673988
  0
LINE
  5
BE
330
1F
100
AcDbEntity
  8
0
  6
Continuous
 62
     7
370
    25
100
AcDbLine
 10
17.4885082922
 20
24.0912442816
 30
0.0
 11
17.4885082922
 21
26.7367691603
 31
0.0
  0
LINE
  5
BF
330
1F
100
AcDbEntity
  8
0
  6
Continuous
 62
     7
370
    25
100
AcDbLine
 10
19.863508236
 20
26.7367691603
 30
0.0
 11
19.863508236
 21
23.76243608
 31
0.0
  0
LINE
  5
C0
330
1F
100
AcDbEntity
  8
0
  6
Continuous
 62
     7
370
    25
100
AcDbLine
 10
18.1210083189
 20
26.8257461057
 30
0.0
 11
18.0824339645
 21
26.8257461057
 31
0.0
  0
LINE
  5
C1
330
1F
100
AcDbEntity
  8
0
  6
Continuous
 62
     7
370
    25
100
AcDbLine
 10
18.0824339645
 20
27.1477921721
 30
0.0
 11
18.1210083189
 21
27.1477921721
 31
0.0
  0
LINE
  5
C2
330
1F
100
AcDbEntity
  8
0
  6
Continuous
 62
     7
370
    25
100
AcDbLine
 10
19.7860082647
 20
27.1477921721
 30
0.0
 11
19.8631570468
 21
27.1477921721
 31
0.0
  0
LINE
  5
C3
330
1F
100
AcDbEntity
  8
0
  6
Continuous
 62
     7
370
    25
100
AcDbLine
 10
19.8631570468
 20
26.8257461057
 30
0.0
 11
19.7860082647
 21
26.8257461057
 31
0.0
  0
ARC
  5
C4
330
1F
100
AcDbEntity
  8
0
  6
Continuous
 62
     7
370
    25
100
AcDbCircle
 10
19.8252363259
 20
27.0821918187
 30
0.0
 40
0.0757719436284933
100
AcDbArc
 50
0.0002555079
 51
59.9696545743
  0
ARC
  5
C5
330
1F
100
AcDbEntity
  8
0
  6
Continuous
 62
     7
370
    25
100
AcDbCircle
 10
19.8252363259
 20
26.8913464591
 30
0.0
 40
0.0757719436284915
100
AcDbArc
 50
300.0303454257
 51
359.9997444921
  0
LINE
  5
C6
330
1F
100
AcDbEntity
  8
0
  6
Continuous
 62
     7
370
    25
100
AcDbLine
 10
17.566008117
 20
26.7367691603
 30
0.0
 11
17.566008117
 21
28.0717691782
 31
0.0
  0
LINE
  5
C7
330
1F
100
AcDbEntity
  8
0
  6
Continuous
 62
     7
370
    25
100
AcDbLine
 10
19.7860082647
 20
26.8257461057
 30
0.0
 11
19.7860082647
 21
26.7367691603
 31
0.0
  0
LINE
  5
C8
330
1F
100
AcDbEntity
  8
0
  6
Continuous
 62
     7
370
    25
100
AcDbLine
 10
19.7860082647
 20
28.0717691782
 30
0.0
 11
19.7860082647
 21
27.1477921721
 31
0.0
  0
LINE
  5
C9
330
1F
100
AcDbEntity
  8
0
  6
Continuous
 62
     7
370
    25
100
AcDbLine
 10
17.566008117
 20
28.0717691782
 30
0.0
 11
17.5960081437
 21
28.101769205
 31
0.0
  0
LINE
  5
CA
330
1F
100
AcDbEntity
  8
0
  6
Continuous
 62
     7
370
    25
100
AcDbLine
 10
19.7560082379
 20
28.101769205
 30
0.0
 11
19.7860082647
 21
28.0717691782
 31
0.0
  0
LINE
  5
CB
330
1F
100
AcDbEntity
  8
0
  6
Continuous
 62
     7
370
    25
100
AcDbLine
 10
19.1760081848
 20
29.2311148654
 30
0.0
 11
19.1760081848
 21
28.101769205
 31
0.0
  0
LINE
  5
CC
330
1F
100
AcDbEntity
  8
0
  6
Continuous
 62
     7
370
    25
100
AcDbLine
 10
18.1760082702
 20
28.101769205
 30
0.0
 11
18.1760082702
 21
29.4534426837
 31
0.0
  0
LINE
  5
CD
330
1F
100
AcDbEntity
  8
0
  6
Continuous
 62
     7
370
    25
100
AcDbLine
 10
18.6760082275
 20
26.7367691603
 30
0.0
 11
17.4885082922
 21
26.7367691603
 31
0.0
  0
LINE
  5
CE
330
1F
100
AcDbEntity
  8
0
  6
Continuous
 62
     7
370
    25
100
AcDbLine
 10
19.863508236
 20
26.7367691603
 30
0.0
 11
18.6760082275
 21
26.7367691603
 31
0.0
  0
LWPOLYLINE
  5
CF
330
1F
100
AcDbEntity
  8
0
  6
Continuous
 62
     7
370
    25
100
AcDbPolyline
 90
       17
 70
   128
 43
0.0
 10
18.0886569593
 20
27.0776660755
 10
18.0566179961
 20
27.0818598137
 10
18.0256282741
 20
27.0715768392
 10
18.0004051254
 20
27.0483826538
 10
17.9847891192
 20
27.0158083634
 10
17.9811571078
 20
26.9788130041
 10
17.9900626049
 20
26.9430290975
 10
18.0101492529
 20
26.913904074
 10
18.0383596737
 20
26.8958722023
 10
18.0703983435
 20
26.8916784641
 10
18.1013883589
 20
26.9019614386
 10
18.1266112142
 20
26.925155624
 10
18.1422275138
 20
26.9577299144
 10
18.1458592318
 20
26.9947252737
 10
18.136954028
 20
27.0305091803
 10
18.1168670867
 20
27.0596342038
 10
18.0886569593
 20
27.0776660755
  0
LWPOLYLINE
  5
D0
330
1F
100
AcDbEntity
  8
0
  6
Continuous
 62
     7
370
    25
100
AcDbPolyline
 90
       22
 70
   128
 43
0.0
 10
17.9462162314
 20
27.0212370207
 10
17.9434694898
 20
26.973343574
 10
17.9530701789
 20
26.9266428068
 10
17.9741655886
 20
26.8852847513
 10
18.0048810471
 20
26.8529439515
 10
18.042487706
 20
26.8324941611
 10
18.0836433639
 20
26.8257522656
 10
18.124691663
 20
26.8333175382
 10
18.1619853389
 20
26.8545173733
 10
18.1922103497
 20
26.8874685927
 10
18.2126812599
 20
26.9292431768
 10
18.2215791304
 20
26.9761290351
 10
18.2181131438
 20
27.0239602959
 10
18.2025918831
 20
27.0684871949
 10
18.1763937057
 20
27.1057527111
 10
18.1418467715
 20
27.1324463227
 10
18.1020210716
 20
27.1461958705
 10
18.0604547517
 20
27.145779342
 10
18.0208411294
 20
27.1312342834
 10
17.9867007504
 20
27.103852813
 10
17.9610663532
 20
27.0660681028
 10
17.9462162314
 20
27.0212370207
  0
LWPOLYLINE
  5
D1
330
1F
100
AcDbEntity
  8
0
  6
Continuous
 62
     7
370
    25
100
AcDbPolyline
 90
       12
 70
   128
 43
0.0
 10
18.1210083189
 20
26.8257461057
 10
18.1532168268
 20
26.8301000021
 10
18.1917779813
 20
26.848022755
 10
18.2240513152
 20
26.8782735789
 10
18.2471683548
 20
26.9181649848
 10
18.2590757906
 20
26.9641517868
 10
18.2587152881
 20
27.0121484857
 10
18.2461188203
 20
27.057890064
 10
18.2224057342
 20
27.0973121419
 10
18.1896830189
 20
27.1269120666
 10
18.1508584541
 20
27.1440598419
 10
18.1210083189
 20
27.1477921721
  0
LINE
  5
D2
330
1F
100
AcDbEntity
  8
0
  6
Continuous
 62
     7
370
    25
100
AcDbLine
 10
18.1404030015
 20
26.9708752025
 30
0.0
 11
18.0852443587
 21
26.9655462774
 31
0.0
  0
LINE
  5
D3
330
1F
100
AcDbEntity
  8
0
  6
Continuous
 62
     7
370
    25
100
AcDbLine
 10
18.0852443587
 20
26.9655462774
 30
0.0
 11
18.0898593187
 21
26.9018540798
 31
0.0
  0
LINE
  5
D4
330
1F
100
AcDbEntity
  8
0
  6
Continuous
 62
     7
370
    25
100
AcDbLine
 10
18.0898593187
 20
26.9018540798
 30
0.0
 11
18.0497438088
 21
26.8979786046
 31
0.0
  0
LINE
  5
D5
330
1F
100
AcDbEntity
  8
0
  6
Continuous
 62
     7
370
    25
100
AcDbLine
 10
18.0497438088
 20
26.8979786046
 30
0.0
 11
18.0451285555
 21
26.9616705088
 31
0.0
  0
LINE
  5
D6
330
1F
100
AcDbEntity
  8
0
  6
Continuous
 62
     7
370
    25
100
AcDbLine
 10
18.0451285555
 20
26.9616705088
 30
0.0
 11
17.9899696193
 21
26.9563415837
 31
0.0
  0
LINE
  5
D7
330
1F
100
AcDbEntity
  8
0
  6
Continuous
 62
     7
370
    25
100
AcDbLine
 10
17.9899696193
 20
26.9563415837
 30
0.0
 11
17.9866133381
 21
27.0026630753
 31
0.0
  0
LINE
  5
D8
330
1F
100
AcDbEntity
  8
0
  6
Continuous
 62
     7
370
    25
100
AcDbLine
 10
17.9866133381
 20
27.0026630753
 30
0.0
 11
18.0417722742
 21
27.0079920004
 31
0.0
  0
LINE
  5
D9
330
1F
100
AcDbEntity
  8
0
  6
Continuous
 62
     7
370
    25
100
AcDbLine
 10
18.0417722742
 20
27.0079920004
 30
0.0
 11
18.0371573142
 21
27.071684198
 31
0.0
  0
LINE
  5
DA
330
1F
100
AcDbEntity
  8
0
  6
Continuous
 62
     7
370
    25
100
AcDbLine
 10
18.0371573142
 20
27.071684198
 30
0.0
 11
18.0772728241
 21
27.0755596732
 31
0.0
  0
LINE
  5
DB
330
1F
100
AcDbEntity
  8
0
  6
Continuous
 62
     7
370
    25
100
AcDbLine
 10
18.0772728241
 20
27.0755596732
 30
0.0
 11
18.0818877841
 21
27.011867769
 31
0.0
  0
LINE
  5
DC
330
1F
100
AcDbEntity
  8
0
  6
Continuous
 62
     7
370
    25
100
AcDbLine
 10
18.1370467203
 20
27.0171966941
 30
0.0
 11
18.0818877841
 21
27.011867769
 31
0.0
  0
LINE
  5
DD
330
1F
100
AcDbEntity
  8
0
  6
Continuous
 62
     7
370
    25
100
AcDbLine
 10
18.1370467203
 20
27.0171966941
 30
0.0
 11
18.1404030015
 21
26.9708752025
 31
0.0
  0
LINE
  5
DE
330
1F
100
AcDbEntity
  8
0
  6
Continuous
 62
     7
370
    25
100
AcDbLine
 10
18.1370467203
 20
27.0171966941
 30
0.0
 11
18.1138452016
 21
27.011867769
 31
0.0
  0
LINE
  5
DF
330
1F
100
AcDbEntity
  8
0
  6
Continuous
 62
     7
370
    25
100
AcDbLine
 10
18.1169794321
 20
26.968612162
 30
0.0
 11
18.1138452016
 21
27.011867769
 31
0.0
  0
LINE
  5
E0
330
1F
100
AcDbEntity
  8
0
  6
Continuous
 62
     7
370
    25
100
AcDbLine
 10
18.0818877841
 20
27.011867769
 30
0.0
 11
18.1138452016
 21
27.011867769
 31
0.0
  0
LINE
  5
E1
330
1F
100
AcDbEntity
  8
0
  6
Continuous
 62
     7
370
    25
100
AcDbLine
 10
18.0770859729
 20
26.9616705088
 30
0.0
 11
18.0854664095
 21
26.9624800995
 31
0.0
  0
LINE
  5
E2
330
1F
100
AcDbEntity
  8
0
  6
Continuous
 62
     7
370
    25
100
AcDbLine
 10
18.0497438088
 20
26.8979786046
 30
0.0
 11
18.0770859729
 21
26.9616705088
 31
0.0
  0
LINE
  5
E3
330
1F
100
AcDbEntity
  8
0
  6
Continuous
 62
     7
370
    25
100
AcDbLine
 10
18.0371573142
 20
27.071684198
 30
0.0
 11
18.0737293984
 21
27.0079920004
 31
0.0
  0
LINE
  5
E4
330
1F
100
AcDbEntity
  8
0
  6
Continuous
 62
     7
370
    25
100
AcDbLine
 10
18.1138452016
 20
27.011867769
 30
0.0
 11
18.0737293984
 21
27.0079920004
 31
0.0
  0
LINE
  5
E5
330
1F
100
AcDbEntity
  8
0
  6
Continuous
 62
     7
370
    25
100
AcDbLine
 10
18.0451285555
 20
26.9616705088
 30
0.0
 11
18.0770859729
 21
26.9616705088
 31
0.0
  0
LINE
  5
E6
330
1F
100
AcDbEntity
  8
0
  6
Continuous
 62
     7
370
    25
100
AcDbLine
 10
18.0737293984
 20
27.0079920004
 30
0.0
 11
18.0770859729
 21
26.9616705088
 31
0.0
  0
LINE
  5
E7
330
1F
100
AcDbEntity
  8
0
  6
Continuous
 62
     7
370
    25
100
AcDbLine
 10
17.9866133381
 20
27.0026630753
 30
0.0
 11
18.0737293984
 21
27.0079920004
 31
0.0
  0
LINE
  5
E8
330
1F
100
AcDbEntity
  8
0
  6
Continuous
 62
     7
370
    25
100
AcDbLine
 10
18.0417722742
 20
27.0079920004
 30
0.0
 11
18.0737293984
 21
27.0079920004
 31
0.0
  0
LINE
  5
E9
330
1F
100
AcDbEntity
  8
0
  6
Continuous
 62
     7
370
    25
100
AcDbLine
 10
18.1157946724
 20
26.9684977633
 30
0.0
 11
18.107086293
 21
26.9867689922
 31
0.0
  0
LINE
  5
EA
330
1F
100
AcDbEntity
  8
0
  6
Continuous
 62
     7
370
    25
100
AcDbLine
 10
18.115604008
 20
26.9875920761
 30
0.0
 11
18.107086293
 21
26.9867689922
 31
0.0
  0
LINE
  5
EB
330
1F
100
AcDbEntity
  8
0
  6
Continuous
 62
     7
370
    25
100
AcDbLine
 10
18.1084617172
 20
26.9677893715
 30
0.0
 11
18.107086293
 21
26.9867689922
 31
0.0
  0
LINE
  5
EC
330
1F
100
AcDbEntity
  8
0
  6
Continuous
 62
     7
370
    25
100
AcDbLine
 10
18.107086293
 20
26.9867689922
 30
0.0
 11
18.1138452016
 21
27.011867769
 31
0.0
  0
LINE
  5
ED
330
1F
100
AcDbEntity
  8
0
  6
Continuous
 62
     7
370
    25
100
AcDbLine
 10
18.1054081524
 20
27.009929738
 30
0.0
 11
18.1138452016
 21
27.011867769
 31
0.0
  0
LINE
  5
EE
330
1F
100
AcDbEntity
  8
0
  6
Continuous
 62
     7
370
    25
100
AcDbLine
 10
18.107086293
 20
26.9867689922
 30
0.0
 11
18.1054081524
 21
27.009929738
 31
0.0
  0
LINE
  5
EF
330
1F
100
AcDbEntity
  8
0
  6
Continuous
 62
     7
370
    25
100
AcDbLine
 10
18.1054081524
 20
27.009929738
 30
0.0
 11
18.0737293984
 21
27.0079920004
 31
0.0
  0
LINE
  5
F0
330
1F
100
AcDbEntity
  8
0
  6
Continuous
 62
     7
370
    25
100
AcDbLine
 10
18.0770859729
 20
26.9616705088
 30
0.0
 11
18.107086293
 21
26.9867689922
 31
0.0
  0
LINE
  5
F1
330
1F
100
AcDbEntity
  8
0
  6
Continuous
 62
     7
370
    25
100
AcDbLine
 10
18.107086293
 20
26.9867689922
 30
0.0
 11
18.0870286848
 21
26.9848312546
 31
0.0
  0
LINE
  5
F2
330
1F
100
AcDbEntity
  8
0
  6
Continuous
 62
     7
370
    25
100
AcDbLine
 10
18.0770859729
 20
26.9616705088
 30
0.0
 11
18.0870286848
 21
26.9848312546
 31
0.0
  0
LINE
  5
F3
330
1F
100
AcDbEntity
  8
0
  6
Continuous
 62
     7
370
    25
100
AcDbLine
 10
18.107086293
 20
26.9867689922
 30
0.0
 11
18.0737293984
 21
27.0079920004
 31
0.0
  0
LINE
  5
F4
330
1F
100
AcDbEntity
  8
0
  6
Continuous
 62
     7
370
    25
100
AcDbLine
 10
18.0870286848
 20
26.9848312546
 30
0.0
 11
18.0737293984
 21
27.0079920004
 31
0.0
  0
LINE
  5
F5
330
1F
100
AcDbEntity
  8
0
  6
Continuous
 62
     7
370
    25
100
AcDbLine
 10
19.8631570468
 20
26.973343574
 30
0.0
 11
19.8631570468
 21
26.8257461057
 31
0.0
  0
LINE
  5
F6
330
1F
100
AcDbEntity
  8
0
  6
Continuous
 62
     7
370
    25
100
AcDbLine
 10
19.8631570468
 20
27.1477921721
 30
0.0
 11
19.8631570468
 21
26.973343574
 31
0.0
  0
LINE
  5
F7
330
1F
100
AcDbEntity
  8
0
  6
Continuous
 62
     7
370
    25
100
AcDbLine
 10
19.7860082647
 20
27.1477921721
 30
0.0
 11
19.7860082647
 21
26.8257461057
 31
0.0
  0
LINE
  5
F8
330
1F
100
AcDbEntity
  8
0
  6
Continuous
 62
     7
370
    25
100
AcDbLine
 10
19.9010082695
 20
27.0821921566
 30
0.0
 11
19.9010082695
 21
26.8913461212
 31
0.0
  0
LINE
  5
F9
330
1F
100
AcDbEntity
  8
0
  6
Continuous
 62
     7
370
    25
100
AcDbLine
 10
18.6760082275
 20
28.0717691782
 30
0.0
 11
19.7860082647
 21
28.0717691782
 31
0.0
  0
LINE
  5
FA
330
1F
100
AcDbEntity
  8
0
  6
Continuous
 62
     7
370
    25
100
AcDbLine
 10
17.566008117
 20
28.0717691782
 30
0.0
 11
18.6760082275
 21
28.0717691782
 31
0.0
  0
LINE
  5
FB
330
1F
100
AcDbEntity
  8
0
  6
Continuous
 62
     7
370
    25
100
AcDbLine
 10
18.6760082275
 20
28.101769205
 30
0.0
 11
17.5960081437
 21
28.101769205
 31
0.0
  0
LINE
  5
FC
330
1F
100
AcDbEntity
  8
0
  6
Continuous
 62
     7
370
    25
100
AcDbLine
 10
19.7560082379
 20
28.101769205
 30
0.0
 11
18.6760082275
 21
28.101769205
 31
0.0
  0
LINE
  5
FD
330
1F
100
AcDbEntity
  8
0
  6
Continuous
 62
     7
370
    25
100
AcDbLine
 10
21.6385082311
 20
22.3839952025
 30
0.0
 11
21.6079525641
 21
21.5089943239
 31
0.0
  0
LINE
  5
FE
330
1F
100
AcDbEntity
  8
0
  6
Continuous
 62
     7
370
    25
100
AcDbLine
 10
15.7440639642
 20
21.5089943239
 30
0.0
 11
15.7135083705
 21
22.3839952025
 31
0.0
  0
LINE
  5
FF
330
1F
100
AcDbEntity
  8
0
  6
Continuous
 62
     7
370
    25
100
AcDbLine
 10
17.4885082922
 20
17.4976158104
 30
0.0
 11
17.4885082922
 21
21.5089943239
 31
0.0
  0
LINE
  5
100
330
1F
100
AcDbEntity
  8
0
  6
Continuous
 62
     7
370
    25
100
AcDbLine
 10
17.4885082922
 20
22.3839952025
 30
0.0
 11
17.4885082922
 21
23.3412446243
 31
0.0
  0
LINE
  5
101
330
1F
100
AcDbEntity
  8
0
  6
Continuous
 62
     7
370
    25
100
AcDbLine
 10
19.863508236
 20
23.012435836
 30
0.0
 11
19.863508236
 21
22.3839952025
 31
0.0
  0
LINE
  5
102
330
1F
100
AcDbEntity
  8
0
  6
Continuous
 62
     7
370
    25
100
AcDbLine
 10
19.863508236
 20
21.5089943239
 30
0.0
 11
19.863508236
 21
13.3839953846
 31
0.0
  0
LINE
  5
103
330
1F
100
AcDbEntity
  8
0
  6
Continuous
 62
     7
370
    25
100
AcDbLine
 10
21.6079525641
 20
21.5089943239
 30
0.0
 11
15.7440639642
 21
21.5089943239
 31
0.0
  0
LINE
  5
104
330
1F
100
AcDbEntity
  8
0
  6
Continuous
 62
     7
370
    25
100
AcDbLine
 10
21.6385082311
 20
22.3839952025
 30
0.0
 11
15.7135083705
 21
22.3839952025
 31
0.0
  0
LWPOLYLINE
  5
105
330
1F
100
AcDbEntity
  8
0
  6
Continuous
 62
     7
370
    25
100
AcDbPolyline
 90
       42
 70
   128
 43
0.0
 10
19.863508236
 20
13.3839953846
 10
19.860023843
 20
13.3900309415
 10
19.8495912701
 20
13.4081000661
 10
19.8322715302
 20
13.4380971596
 10
19.808166482
 20
13.4798485706
 10
19.7774173639
 20
13.533107902
 10
19.7402048671
 20
13.5975630508
 10
19.6967471558
 20
13.6728338612
 10
19.6472993537
 20
13.7584791652
 10
19.5921517108
 20
13.8539991284
 10
19.5316276233
 20
13.9588282107
 10
19.4660824605
 20
14.0723562859
 10
19.3959009246
 20
14.1939145617
 10
19.3214947041
 20
14.3227896596
 10
19.2433005674
 20
14.4582259617
 10
19.1617772825
 20
14.5994279571
 10
19.0774032705
 20
14.7455672823
 10
18.9906738191
 20
14.8957874136
 10
18.902097709
 20
15.0492060146
 10
18.8121948676
 20
15.2049219758
 10
18.721492702
 20
15.3620224543
 10
18.6305237529
 20
15.5195875674
 10
18.5398217341
 20
15.6766880459
 10
18.449918746
 20
15.832404007
 10
18.3613426359
 20
15.9858226081
 10
18.2746131844
 20
16.1360427394
 10
18.1902391725
 20
16.2821820645
 10
18.1087160342
 20
16.42338406
 10
18.0305218975
 20
16.5588203621
 10
17.9561155304
 20
16.68769546
 10
17.8859339945
 20
16.8092537357
 10
17.8203888317
 20
16.9227818109
 10
17.7598648908
 20
17.0276120666
 10
17.7047171013
 20
17.1231308564
 10
17.6552692991
 20
17.2087761604
 10
17.6118115878
 20
17.2840481442
 10
17.5745991644
 20
17.3485021196
 10
17.5438499729
 20
17.4017602777
 10
17.5197449981
 20
17.4435116887
 10
17.5024253315
 20
17.4735099555
 10
17.4919924653
 20
17.4915802534
 10
17.4885082922
 20
17.4976158104
  0
DIMENSION
  5
106
330
1F
100
AcDbEntity
  8
SLD-0
100
AcDbDimension
  2
_D
 10
18.0510082367
 20
35.3860356648
 30
0.0
 11
14.8860036078
 21
35.3860356648
 31
0.0
 70
   160
  1
<>
 71
     2
 42
-1.0
  3
SLDDIMSTYLE0
100
AcDbAlignedDimension
 13
19.3010082367
 23
36.0235046803
 33
0.0
 14
18.0510082367
 24
36.0235046803
 34
0.0
100
AcDbRotatedDimension
  0
DIMENSION
  5
11A
330
1F
100
AcDbEntity
  8
SLD-0
100
AcDbDimension
  2
_D_1
 10
17.5660082367
 20
30.1917297857
 30
0.0
 11
14.7660198627
 21
30.1917297857
 31
0.0
 70
   160
  1
%%c<>
 71
     2
 42
-1.0
  3
SLDDIMSTYLE0
100
AcDbAlignedDimension
 13
19.7860082367
 23
28.0717691238
 33
0.0
 14
17.5660082367
 24
28.0717691238
 34
0.0
100
AcDbRotatedDimension
  0
DIMENSION
  5
12D
330
1F
100
AcDbEntity
  8
SLD-0
100
AcDbDimension
  2
_D_2
 10
24.5130661726
 20
28.1017691238
 30
0.0
 11
24.5130661726
 21
24.8410603148
 31
0.0
 70
   160
  1
<>
 71
     2
 42
-1.0
  3
SLDDIMSTYLE0
100
AcDbAlignedDimension
 13
19.8635082367
 23
26.7367691238
 33
0.0
 14
19.7560082367
 24
28.1017691238
 34
0.0
 50
90.0
100
AcDbRotatedDimension
  0
DIMENSION
  5
142
330
1F
100
AcDbEntity
  8
SLD-0
100
AcDbDimension
  2
_D_3
 10
8.0433850101
 20
13.3839946906
 30
0.0
 11
8.0433850101
 21
21.3845082436
 31
0.0
 70
   160
  1
SPECIFY LENGTH:\P12" OR 18" \P[305mm - 457mm]
 71
     2
 42
-1.0
  3
SLDDIMSTYLE1
100
AcDbAlignedDimension
 13
17.4885082367
 23
26.7367691238
 33
0.0
 14
19.8635082367
 24
13.3839946906
 34
0.0
 50
90.0
100
AcDbRotatedDimension
  0
DIMENSION
  5
154
330
1F
100
AcDbEntity
  8
SLD-0
100
AcDbDimension
  2
_D_4
 10
8.0433850101
 20
28.1017691238
 30
0.0
 11
8.0433850101
 21
32.3045505859
 31
0.0
 70
   160
  1
SPECIFY LENGTH:\P6" - 48" MAX\P[152mm - 1219mm]
 71
     2
 42
-1.0
  3
SLDDIMSTYLE1
100
AcDbAlignedDimension
 13
18.0510082367
 23
33.5854831944
 33
0.0
 14
17.5960082367
 24
28.1017691238
 34
0.0
 50
90.0
100
AcDbRotatedDimension
  0
DIMENSION
  5
165
330
1F
100
AcDbEntity
  8
SLD-0
100
AcDbDimension
  2
_D_5
 10
19.8635082367
 20
25.4131440857
 30
0.0
 11
14.8860036078
 21
25.4131440857
 31
0.0
 70
   160
  1
%%c<>
 71
     2
 42
-1.0
  3
SLDDIMSTYLE2
100
AcDbAlignedDimension
 13
17.4885082367
 23
26.7367691238
 33
0.0
 14
19.8635082367
 24
26.7367691238
 34
0.0
100
AcDbRotatedDimension
  0
DIMENSION
  5
177
330
1F
100
AcDbEntity
  8
SLD-0
100
AcDbDimension
  2
_D_6
 10
8.0433850101
 20
33.5854831944
 30
0.0
 11
8.0433850101
 21
35.3860356648
 31
0.0
 70
   160
  1
<>
 71
     2
 42
-1.0
  3
SLDDIMSTYLE0
100
AcDbAlignedDimension
 13
18.2921247603
 23
36.0854831944
 33
0.0
 14
18.0510082367
 24
33.5854831944
 34
0.0
 50
90.0
100
AcDbRotatedDimension
  0
DIMENSION
  5
18B
330
1F
100
AcDbEntity
  8
SLD-0
100
AcDbDimension
  2
_D_7
 10
24.5130661726
 20
21.5089946906
 30
0.0
 11
24.5130661726
 21
19.7142292091
 31
0.0
 70
   160
  1
<>
 71
     2
 42
-1.0
  3
SLDDIMSTYLE0
100
AcDbAlignedDimension
 13
21.6385082367
 23
22.3839946906
 33
0.0
 14
21.6079525634
 24
21.5089946906
 34
0.0
 50
90.0
100
AcDbRotatedDimension
  0
DIMENSION
  5
1A0
330
1F
100
AcDbEntity
  8
SLD-0
100
AcDbDimension
  2
_D_8
 10
15.7135082367
 20
15.7560605522
 30
0.0
 11
24.5130661726
 21
15.7560605522
 31
0.0
 70
   160
  1
%%c<>
 71
     2
 42
-1.0
  3
SLDDIMSTYLE2
100
AcDbAlignedDimension
 13
21.6385082367
 23
22.3839946906
 33
0.0
 14
15.7135082367
 24
22.3839946906
 34
0.0
 50
0.0
100
AcDbRotatedDimension
  0
DIMENSION
  5
1B3
330
1F
100
AcDbEntity
  8
SLD-0
100
AcDbDimension
  2
_D_9
 10
18.1760082367
 20
32.2105327087
 30
0.0
 11
14.8860036078
 21
32.2105327087
 31
0.0
 70
   160
  1
%%c<>
 71
     2
 42
-1.0
  3
SLDDIMSTYLE3
100
AcDbAlignedDimension
 13
19.1760082367
 23
34.5854831944
 33
0.0
 14
18.1760082367
 24
34.5854831944
 34
0.0
100
AcDbRotatedDimension
  0
DIMENSION
  5
1C5
330
1F
100
AcDbEntity
  8
SLD-0
100
AcDbDimension
  2
_D_10
 10
27.7963891709
 20
29.9148793145
 30
0.0
 11
28.4421699259
 21
30.5606600696
 31
0.0
 70
   160
  1
%%c<>
 71
     2
 42
-1.0
  3
SLDDIMSTYLE2
100
AcDbAlignedDimension
 13
23.6427627426
 23
30.9289516344
 33
0.0
 14
26.7823168511
 24
30.9289516344
 34
0.0
 50
45.0
100
AcDbRotatedDimension
  0
DIMENSION
  5
1D9
330
1F
100
AcDbEntity
  8
SLD-0
100
AcDbDimension
  2
_D_11
 10
23.5425771719
 20
37.8220521297
 30
0.0
 11
26.0757872156
 21
35.2888420861
 31
0.0
 70
   160
  1
<>
 71
     2
 42
-1.0
  3
SLDDIMSTYLE2
100
AcDbAlignedDimension
 13
26.7823168511
 23
30.9289516344
 33
0.0
 14
21.2810260934
 24
35.5605010511
 34
0.0
 50
-45.0
100
AcDbRotatedDimension
  0
DIMENSION
  5
1ED
330
1F
100
AcDbEntity
  8
SLD-0
100
AcDbDimension
  2
_D_12
 10
18.0510082367
 20
39.5218013918
 30
0.0
 11
8.0433850101
 21
39.5218013918
 31
0.0
 70
   160
  1
<>
 71
     2
 42
-1.0
  3
SLDDIMSTYLE2
100
AcDbAlignedDimension
 13
20.9310082367
 23
35.2104831944
 33
0.0
 14
18.0510082367
 24
36.0235046803
 34
0.0
 50
0.0
100
AcDbRotatedDimension
  0
ARC
  5
201
330
1F
100
AcDbEntity
  8
0
  6
HIDDEN
 62
     7
370
    18
100
AcDbCircle
 10
19.5822582367
 20
25.3518401535
 30
0.0
 40
2.356250000000001
100
AcDbArc
 50
247.380135052
 51
292.619864948
  0
ARC
  5
202
330
1F
100
AcDbEntity
  8
0
  6
HIDDEN
 62
     7
370
    18
100
AcDbCircle
 10
17.7697582367
 20
21.0018401535
 30
0.0
 40
2.356250000000001
100
AcDbArc
 50
67.380135052
 51
112.619864948
  0
ARC
  5
203
330
1F
100
AcDbEntity
  8
0
  6
HIDDEN
 62
     7
370
    18
100
AcDbCircle
 10
19.5822582367
 20
26.1018401535
 30
0.0
 40
2.356250000000001
100
AcDbArc
 50
247.380135052
 51
292.619864948
  0
ARC
  5
204
330
1F
100
AcDbEntity
  8
0
  6
HIDDEN
 62
     7
370
    18
100
AcDbCircle
 10
17.7697582367
 20
21.7518401535
 30
0.0
 40
2.356250000000001
100
AcDbArc
 50
67.380135052
 51
112.619864948
  0
ARC
  5
205
330
1F
100
AcDbEntity
  8
0
  6
HIDDEN
 62
     7
370
    18
100
AcDbCircle
 10
19.2385082367
 20
30.6922788192
 30
0.0
 40
1.462500000000006
100
AcDbArc
 50
247.380135052
 51
292.619864948
  0
ARC
  5
206
330
1F
100
AcDbEntity
  8
0
  6
HIDDEN
 62
     7
370
    18
100
AcDbCircle
 10
18.1135082367
 20
27.9922788192
 30
0.0
 40
1.462500000000003
100
AcDbArc
 50
67.380135052
 51
112.619864948
  0
ARC
  5
207
330
1F
100
AcDbEntity
  8
0
  6
HIDDEN
 62
     7
370
    18
100
AcDbCircle
 10
19.2385082367
 20
31.4422788192
 30
0.0
 40
1.462500000000003
100
AcDbArc
 50
247.380135052
 51
292.619864948
  0
ARC
  5
208
330
1F
100
AcDbEntity
  8
0
  6
HIDDEN
 62
     7
370
    18
100
AcDbCircle
 10
18.1135082367
 20
28.7422788192
 30
0.0
 40
1.462499999999999
100
AcDbArc
 50
67.380135052
 51
112.619864948
  0
INSERT
  5
20C
330
1F
100
AcDbEntity
  8
0
  6
Continuous
 62
     7
100
AcDbBlockReference
  2
SW_BROKEN_VIEW_1
 10
0.0
 20
0.0
 30
0.0
  0
LINE
  5
20D
330
1F
100
AcDbEntity
  8
0
  6
Continuous
 62
     7
370
    25
100
AcDbLine
 10
37.1647982147
 20
35.8279019026
 30
0.0
 11
35.0268118729
 21
32.1248002545
 31
0.0
  0
LINE
  5
20E
330
1F
100
AcDbEntity
  8
0
  6
Continuous
 62
     7
370
    25
100
AcDbLine
 10
37.5903610052
 20
32.1249973722
 30
0.0
 11
39.0873746316
 21
34.7179014988
 31
0.0
  0
LINE
  5
20F
330
1F
100
AcDbEntity
  8
0
  6
Continuous
 62
     7
370
    25
100
AcDbLine
 10
39.7890477441
 20
36.942843156
 30
0.0
 11
39.7975740573
 21
36.9440070893
 31
0.0
  0
LINE
  5
210
330
1F
100
AcDbEntity
  8
0
  6
Continuous
 62
     7
370
    25
100
AcDbLine
 10
39.9346676003
 20
37.1815445052
 30
0.0
 11
39.9314100612
 21
37.1895101732
 31
0.0
  0
LINE
  5
211
330
1F
100
AcDbEntity
  8
0
  6
Continuous
 62
     7
370
    25
100
AcDbLine
 10
39.6974017162
 20
36.9800338731
 30
0.0
 11
39.7503893507
 21
36.9494524664
 31
0.0
  0
LINE
  5
212
330
1F
100
AcDbEntity
  8
0
  6
Continuous
 62
     7
370
    25
100
AcDbLine
 10
39.9063478041
 20
37.2196762247
 30
0.0
 11
39.8621153351
 21
37.2452053165
 31
0.0
  0
LINE
  5
213
330
1F
100
AcDbEntity
  8
0
  6
Continuous
 62
     7
370
    25
100
AcDbLine
 10
39.6974017162
 20
36.9800338731
 30
0.0
 11
39.7283332488
 21
36.9621818126
 31
0.0
  0
LINE
  5
214
330
1F
100
AcDbEntity
  8
0
  6
Continuous
 62
     7
370
    25
100
AcDbLine
 10
39.8842917022
 20
37.232405571
 30
0.0
 11
39.8621153351
 21
37.2452053165
 31
0.0
  0
ARC
  5
215
330
1F
100
AcDbEntity
  8
0
  6
Continuous
 62
     7
370
    25
100
AcDbCircle
 10
39.4704365463
 20
37.2911424739
 30
0.0
 40
0.4949993919934389
100
AcDbArc
 50
226.4128576147
 51
299.9912527231
  0
LINE
  5
216
330
1F
100
AcDbEntity
  8
0
  6
Continuous
 62
     7
370
    25
100
AcDbLine
 10
40.3755867634
 20
38.3850725753
 30
0.0
 11
39.622871573
 21
37.9506462338
 31
0.0
  0
LINE
  5
217
330
1F
100
AcDbEntity
  8
0
  6
Continuous
 62
     7
370
    25
100
AcDbLine
 10
39.717870793
 20
36.8624226451
 30
0.0
 11
40.8704549133
 21
37.5276304272
 31
0.0
  0
LINE
  5
218
330
1F
100
AcDbEntity
  8
0
  6
Continuous
 62
     7
370
    25
100
AcDbLine
 10
39.0923746605
 20
34.726561772
 30
0.0
 11
40.0148746404
 21
36.3243780873
 31
0.0
  0
LINE
  5
219
330
1F
100
AcDbEntity
  8
0
  6
Continuous
 62
     7
370
    25
100
AcDbLine
 10
38.0922982601
 20
37.4343784911
 30
0.0
 11
37.1697983169
 21
35.8365621759
 31
0.0
  0
LINE
  5
21A
330
1F
100
AcDbEntity
  8
0
  6
Continuous
 62
     7
370
    25
100
AcDbLine
 10
40.0148746404
 20
36.3243780873
 30
0.0
 11
40.0038939072
 21
36.3653598005
 31
0.0
  0
LINE
  5
21B
330
1F
100
AcDbEntity
  8
0
  6
Continuous
 62
     7
370
    25
100
AcDbLine
 10
38.1332790934
 20
37.4453595909
 30
0.0
 11
38.0922982601
 21
37.4343784911
 31
0.0
  0
LINE
  5
21C
330
1F
100
AcDbEntity
  8
0
  6
Continuous
 62
     7
370
    25
100
AcDbLine
 10
39.4973734155
 20
36.6580397261
 30
0.0
 11
39.5022690281
 21
36.6665193082
 31
0.0
  0
LINE
  5
21D
330
1F
100
AcDbEntity
  8
0
  6
Continuous
 62
     7
370
    25
100
AcDbLine
 10
38.9074038773
 20
37.6161832176
 30
0.0
 11
38.6400082596
 21
37.1530398745
 31
0.0
  0
ARC
  5
21E
330
1F
100
AcDbEntity
  8
0
  6
Continuous
 62
     7
370
    25
100
AcDbCircle
 10
39.336085493
 20
37.3686847227
 30
0.0
 40
0.4949984167530604
100
AcDbArc
 50
63.9414295572
 51
150.0000953663
  0
LINE
  5
21F
330
1F
100
AcDbEntity
  8
0
  6
Continuous
 62
     7
370
    25
100
AcDbLine
 10
40.5649625557
 20
36.6628174843
 30
0.0
 11
40.5649625557
 21
30.8362839395
 31
0.0
  0
LINE
  5
220
330
1F
100
AcDbEntity
  8
0
  6
Continuous
 62
     7
370
    25
100
AcDbLine
 10
41.5649625436
 20
30.6139550946
 30
0.0
 11
41.5649625436
 21
36.6628174843
 31
0.0
  0
SPLINE
  5
221
330
1F
100
AcDbEntity
  8
0
  6
Continuous
 62
     7
370
    25
100
AcDbSpline
210
0.0
220
0.0
230
1.0
 70
     8
 71
     3
 72
    12
 73
     8
 74
     0
 42
0.00000001
 43
0.00000001
 40
0.0
 40
0.0
 40
0.0
 40
0.0
 40
0.159419248577911
 40
0.3717392221266779
 40
0.5852724961323857
 40
0.7999557805985587
 40
1.0
 40
1.0
 40
1.0
 40
1.0
 10
41.31009695451186
 20
39.21185587754466
 30
0.0
 10
41.28432497394802
 20
39.2173563986576
 30
0.0
 10
41.22422899373908
 20
39.23018270073879
 30
0.0
 10
41.12768461050948
 20
39.23895602171733
 30
0.0
 10
41.02181843236329
 20
39.23993534607964
 30
0.0
 10
40.91807386722302
 20
39.23197128005476
 30
0.0
 10
40.85083336861231
 20
39.21857469200059
 30
0.0
 10
40.81839984797212
 20
39.21211283457627
 30
0.0
  0
LWPOLYLINE
  5
222
330
1F
100
AcDbEntity
  8
0
  6
Continuous
 62
     7
370
    25
100
AcDbPolyline
 90
       35
 70
   128
 43
0.0
 10
37.5903610052
 20
32.1249973722
 10
37.5520595943
 20
32.0651299038
 10
37.4951419985
 20
31.9921341604
 10
37.4277968165
 20
31.9203046968
 10
37.3506159881
 20
31.8502739325
 10
37.2642778388
 20
31.7826555136
 10
37.1695409199
 20
31.7180454867
 10
37.067237995
 20
31.6570105651
 10
36.9582681205
 20
31.6000881293
 10
36.8435887253
 20
31.5477768403
 10
36.7242075444
 20
31.5005378127
 10
36.6011741124
 20
31.4587864017
 10
36.4755693501
 20
31.4228875097
 10
36.348497058
 20
31.3931591065
 10
36.2210739433
 20
31.3698604956
 10
36.0944199398
 20
31.3531970081
 10
35.9696482345
 20
31.3433164822
 10
35.8478550015
 20
31.3403033971
 10
35.7301106017
 20
31.3441859122
 10
35.6174499031
 20
31.3549288281
 10
35.5108631878
 20
31.3724382792
 10
35.4112867647
 20
31.3965605605
 10
35.3195956373
 20
31.4270833012
 10
35.2365958761
 20
31.4637389845
 10
35.1630169928
 20
31.5062049472
 10
35.0995051931
 20
31.5541080738
 10
35.0466189774
 20
31.6070271425
 10
35.0048229802
 20
31.6644975186
 10
34.9744844507
 20
31.7260135013
 10
34.9558700258
 20
31.7910341902
 10
34.9491433835
 20
31.8589905251
 10
34.9543634832
 20
31.9292829398
 10
34.9714848587
 20
32.0012942679
 10
35.0003564452
 20
32.0743920901
 10
35.0268118729
 20
32.1248002545
  0
LWPOLYLINE
  5
223
330
1F
100
AcDbEntity
  8
0
  6
Continuous
 62
     7
370
    25
100
AcDbPolyline
 90
       30
 70
   128
 43
0.0
 10
39.0873746316
 20
34.7179014988
 10
39.0859483514
 20
34.7187404224
 10
39.0740520622
 20
34.7256395427
 10
39.0502345506
 20
34.7394213568
 10
39.0147953067
 20
34.7599110401
 10
38.9681800452
 20
34.7868528089
 10
38.910974986
 20
34.8199064004
 10
38.8438994842
 20
34.8586576327
 10
38.7677970834
 20
34.9026172316
 10
38.6836248091
 20
34.9512337366
 10
38.5924411424
 20
35.0038946749
 10
38.4953927835
 20
35.0599394675
 10
38.393700205
 20
35.1186617758
 10
38.2886421786
 20
35.179324755
 10
38.1815399359
 20
35.2411634007
 10
38.0737404478
 20
35.3034021483
 10
37.9665990456
 20
35.3652560471
 10
37.8614634334
 20
35.4259495327
 10
37.7596556495
 20
35.4847176004
 10
37.6624557857
 20
35.5408234056
 10
37.5710864412
 20
35.5935582631
 10
37.4866965894
 20
35.6422615938
 10
37.4103473514
 20
35.6863197515
 10
37.3429989428
 20
35.7251789293
 10
37.2854983537
 20
35.7583498527
 10
37.2385686425
 20
35.7854171667
 10
37.202799989
 20
35.8060382618
 10
37.1786422148
 20
35.8199561811
 10
37.1663990629
 20
35.8269937531
 10
37.1647982147
 20
35.8279019026
  0
SPLINE
  5
224
330
1F
100
AcDbEntity
  8
0
  6
Continuous
 62
     7
370
    25
100
AcDbSpline
210
0.0
220
0.0
230
1.0
 70
    11
 71
     3
 72
    26
 73
    22
 74
     0
 42
0.00000001
 43
0.00000001
 40
0.0
 40
0.0
 40
0.0
 40
0.0
 40
0.0358395445113487
 40
0.0919092811223444
 40
0.1471721759531642
 40
0.2010810614630932
 40
0.2534274202970864
 40
0.3045741278475753
 40
0.3556172741134878
 40
0.4078945777827152
 40
0.4621288883187329
 40
0.5179330361770956
 40
0.5740874122153394
 40
0.6292848009136427
 40
0.6827626634982251
 40
0.7345777492454857
 40
0.785577251434685
 40
0.8369851393266579
 40
0.8897738922803091
 40
0.9442514649246722
 40
1.0
 40
1.0
 40
1.0
 40
1.0
 10
38.34309954285247
 20
34.84247520633636
 30
0.0
 10
38.34491671993783
 20
34.84698791960818
 30
0.0
 10
38.34957680816897
 20
34.85856061782127
 30
0.0
 10
38.36258678511169
 20
34.87423351942288
 30
0.0
 10
38.38160125316556
 20
34.88661745377724
 30
0.0
 10
38.40321208663888
 20
34.89208223363521
 30
0.0
 10
38.42486095845391
 20
34.88998512517847
 30
0.0
 10
38.44402125356739
 20
34.88043923157959
 30
0.0
 10
38.45831879313597
 20
34.86452130069143
 30
0.0
 10
38.46611414005842
 20
34.84419529250074
 30
0.0
 10
38.46674635348761
 20
34.82185091481738
 30
0.0
 10
38.46039459072327
 20
34.79991783363875
 30
0.0
 10
38.44787327764163
 20
34.78068175002709
 30
0.0
 10
38.43047644513869
 20
34.76616167015548
 30
0.0
 10
38.4099021045111
 20
34.75802053397571
 30
0.0
 10
38.38828657655905
 20
34.75742545934113
 30
0.0
 10
38.36818525538479
 20
34.76466219375326
 30
0.0
 10
38.35201696096647
 20
34.77884185018332
 30
0.0
 10
38.34174705322246
 20
34.79811145323821
 30
0.0
 10
38.33788718228032
 20
34.82042800191915
 30
0.0
 10
38.34134878465659
 20
34.83506986219421
 30
0.0
 10
38.34309954285247
 20
34.84247520633636
 30
0.0
  0
LWPOLYLINE
  5
225
330
1F
100
AcDbEntity
  8
0
  6
Continuous
 62
     7
370
    25
100
AcDbPolyline
 90
       21
 70
   128
 43
0.0
 10
39.7546373366
 20
37.1134872647
 10
39.7372833688
 20
37.0707361853
 10
39.7295376433
 20
37.0289401881
 10
39.7321583263
 20
36.9921882927
 10
39.7448889193
 20
36.964080244
 10
39.7664832281
 20
36.9473663038
 10
39.7948274807
 20
36.943683253
 10
39.8271471423
 20
36.9533901275
 10
39.8602785396
 20
36.975538885
 10
39.8909784883
 20
37.0079600571
 10
39.9162419698
 20
37.0474798139
 10
39.9335959193
 20
37.0902308934
 10
39.9413416632
 20
37.1320268906
 10
39.9387209434
 20
37.168778786
 10
39.9259903872
 20
37.1968868346
 10
39.90439606
 20
37.2136007749
 10
39.8760518074
 20
37.2172838257
 10
39.8437321641
 20
37.2075757778
 10
39.8106007668
 20
37.1854281937
 10
39.7799007815
 20
37.1530070215
 10
39.7546373366
 20
37.1134872647
  0
LWPOLYLINE
  5
226
330
1F
100
AcDbEntity
  8
0
  6
Continuous
 62
     7
370
    25
100
AcDbPolyline
 90
        9
 70
   128
 43
0.0
 10
39.7264399691
 20
37.0744427025
 10
39.7433990781
 20
37.1167643469
 10
39.7679080783
 20
37.1562254377
 10
39.7977892698
 20
37.1893189221
 10
39.8303875949
 20
37.2131044606
 10
39.8628064937
 20
37.2254689045
 10
39.8921654112
 20
37.2253128529
 10
39.9158557276
 20
37.2126515592
 10
39.9314100612
 20
37.1895101732
  0
LWPOLYLINE
  5
227
330
1F
100
AcDbEntity
  8
0
  6
Continuous
 62
     7
370
    25
100
AcDbPolyline
 90
        7
 70
   128
 43
0.0
 10
39.7890477441
 20
36.942843156
 10
39.7786964054
 20
36.9421473774
 10
39.7518721703
 20
36.9486287959
 10
39.7318449766
 20
36.9671883681
 10
39.7203943289
 20
36.9961775799
 10
39.7185376787
 20
37.033019821
 10
39.7264399691
 20
37.0744427025
  0
ARC
  5
228
330
1F
100
AcDbEntity
  8
0
  6
Continuous
 62
     7
370
    25
100
AcDbCircle
 10
39.7897933136
 20
37.0938777237
 30
0.0
 40
0.0978789351799608
100
AcDbArc
 50
282.5442906887
 51
329.6887208376
  0
ARC
  5
229
330
1F
100
AcDbEntity
  8
0
  6
Continuous
 62
     7
370
    25
100
AcDbCircle
 10
39.77159109
 20
37.1196617215
 30
0.0
 40
0.1272790793875407
100
AcDbArc
 50
323.7935767452
 51
3.1371705769
  0
ARC
  5
22A
330
1F
100
AcDbEntity
  8
0
  6
Continuous
 62
     7
370
    25
100
AcDbCircle
 10
39.8628692917
 20
37.1269496167
 30
0.0
 40
0.0358115850358154
100
AcDbArc
 50
359.4842678529
 51
94.8729025262
  0
ARC
  5
22B
330
1F
100
AcDbEntity
  8
0
  6
Continuous
 62
     7
370
    25
100
AcDbCircle
 10
39.8810891573
 20
37.0670849844
 30
0.0
 40
0.0978838886733665
100
AcDbArc
 50
102.5455431308
 51
149.6874525778
  0
ARC
  5
22C
330
1F
100
AcDbEntity
  8
0
  6
Continuous
 62
     7
370
    25
100
AcDbCircle
 10
39.8992884228
 20
37.0413052904
 30
0.0
 40
0.1272793001333854
100
AcDbArc
 50
143.7936122698
 51
183.1371350523
  0
ARC
  5
22D
330
1F
100
AcDbEntity
  8
0
  6
Continuous
 62
     7
370
    25
100
AcDbCircle
 10
39.8080093979
 20
37.0340168147
 30
0.0
 40
0.035810992446366
100
AcDbArc
 50
179.4832235841
 51
274.873973753
  0
LINE
  5
22E
330
1F
100
AcDbEntity
  8
0
  6
Continuous
 62
     7
370
    25
100
AcDbLine
 10
39.8598272515
 20
37.1626317637
 30
0.0
 11
39.8279186184
 21
37.1490670137
 31
0.0
  0
LINE
  5
22F
330
1F
100
AcDbEntity
  8
0
  6
Continuous
 62
     7
370
    25
100
AcDbLine
 10
39.7717525889
 20
37.0482354319
 30
0.0
 11
39.7721998621
 21
37.0343398057
 31
0.0
  0
SPLINE
  5
230
330
1F
100
AcDbEntity
  8
0
  6
Continuous
 62
     7
370
    25
100
AcDbSpline
210
0.0
220
0.0
230
1.0
 70
     8
 71
     3
 72
    10
 73
     6
 74
     0
 42
0.00000001
 43
0.00000001
 40
0.0
 40
0.0
 40
0.0
 40
0.0
 40
0.2606408124543536
 40
0.6304827544911699
 40
1.0
 40
1.0
 40
1.0
 40
1.0
 10
39.77219986209697
 20
37.03433980572947
 30
0.0
 10
39.77493123917636
 20
37.03058731979526
 30
0.0
 10
39.78153836308898
 20
37.02151016243946
 30
0.0
 10
39.79564591785444
 20
37.01050544501383
 30
0.0
 10
39.8059181796314
 20
37.00239083712903
 30
0.0
 10
39.81105205493979
 20
36.99833531498975
 30
0.0
  0
SPLINE
  5
231
330
1F
100
AcDbEntity
  8
0
  6
Continuous
 62
     7
370
    25
100
AcDbSpline
210
0.0
220
0.0
230
1.0
 70
     8
 71
     3
 72
    10
 73
     6
 74
     0
 42
0.00000001
 43
0.00000001
 40
0.0
 40
0.0
 40
0.0
 40
0.0
 40
0.6137273241221627
 40
0.8865192684309658
 40
1.0
 40
1.0
 40
1.0
 40
1.0
 10
39.89867942599425
 20
37.1266272729501
 30
0.0
 10
39.89017666643352
 20
37.13336972745139
 30
0.0
 10
39.87789456673035
 20
37.14310909475176
 30
0.0
 10
39.86432560602155
 20
37.15494730447067
 30
0.0
 10
39.86084870837932
 20
37.16088682700523
 30
0.0
 10
39.85982725148455
 20
37.16263176368982
 30
0.0
  0
LINE
  5
232
330
1F
100
AcDbEntity
  8
0
  6
Continuous
 62
     7
370
    25
100
AcDbLine
 10
39.8766233241
 20
37.1393566192
 30
0.0
 11
39.898679426
 21
37.126627273
 31
0.0
  0
LINE
  5
233
330
1F
100
AcDbEntity
  8
0
  6
Continuous
 62
     7
370
    25
100
AcDbLine
 10
39.8522357258
 20
37.0572078082
 30
0.0
 11
39.8742918277
 21
37.0444784619
 31
0.0
  0
SPLINE
  5
234
330
1F
100
AcDbEntity
  8
0
  6
Continuous
 62
     7
370
    25
100
AcDbSpline
210
0.0
220
0.0
230
1.0
 70
     8
 71
     3
 72
    10
 73
     6
 74
     0
 42
0.00000001
 43
0.00000001
 40
0.0
 40
0.0
 40
0.0
 40
0.0
 40
0.3916333282094044
 40
0.7196712365651687
 40
1.0
 40
1.0
 40
1.0
 40
1.0
 10
39.81105205493979
 20
36.99833531498975
 30
0.0
 10
39.81677859976147
 20
37.00738158571797
 30
0.0
 10
39.827301783812
 20
37.02400514753548
 30
0.0
 10
39.85162543950374
 20
37.03717252793888
 30
0.0
 10
39.86714197600792
 20
37.04217388900874
 30
0.0
 10
39.87429182772187
 20
37.04447846194018
 30
0.0
  0
LINE
  5
235
330
1F
100
AcDbEntity
  8
0
  6
Continuous
 62
     7
370
    25
100
AcDbLine
 10
39.8093641061
 20
37.1326675232
 30
0.0
 11
39.7999555665
 21
37.1009761559
 31
0.0
  0
SPLINE
  5
236
330
1F
100
AcDbEntity
  8
0
  6
Continuous
 62
     7
370
    25
100
AcDbSpline
210
0.0
220
0.0
230
1.0
 70
     8
 71
     3
 72
    11
 73
     7
 74
     0
 42
0.00000001
 43
0.00000001
 40
0.0
 40
0.0
 40
0.0
 40
0.0
 40
0.1864820149656604
 40
0.5177728915493812
 40
0.8352768553863383
 40
1.0
 40
1.0
 40
1.0
 40
1.0
 10
39.87429182772187
 20
37.04447846194018
 30
0.0
 10
39.87400143559105
 20
37.04995322744928
 30
0.0
 10
39.87319515315527
 20
37.06515407761557
 30
0.0
 10
39.87614782387654
 20
37.08986388148334
 30
0.0
 10
39.88653078216582
 20
37.11196747834473
 30
0.0
 10
39.89558620081236
 20
37.12289467147828
 30
0.0
 10
39.89867942599425
 20
37.1266272729501
 30
0.0
  0
ARC
  5
237
330
1F
100
AcDbEntity
  8
0
  6
Continuous
 62
     7
370
    25
100
AcDbCircle
 10
39.8520566772
 20
37.13133386
 30
0.0
 40
0.1060876411380051
100
AcDbArc
 50
72.3108420828
 51
146.0456125352
  0
LWPOLYLINE
  5
238
330
1F
100
AcDbEntity
  8
0
  6
Continuous
 62
     7
370
    25
100
AcDbPolyline
 90
        8
 70
   128
 43
0.0
 10
39.7283332488
 20
36.9621818126
 10
39.7163743153
 20
36.9716246902
 10
39.7015445616
 20
36.9969590109
 10
39.6960239271
 20
37.0312093886
 10
39.700302896
 20
37.0713310584
 10
39.7140012761
 20
37.1137594749
 10
39.7359019131
 20
37.1547247617
 10
39.7640588378
 20
37.1905872807
  0
LWPOLYLINE
  5
239
330
1F
100
AcDbEntity
  8
0
  6
Continuous
 62
     7
370
    25
100
AcDbPolyline
 90
        3
 70
   128
 43
0.0
 10
39.8522357258
 20
37.0572078082
 10
39.8585068634
 20
37.067183373
 10
39.8640059565
 20
37.0776047993
  0
ARC
  5
23A
330
1F
100
AcDbEntity
  8
0
  6
Continuous
 62
     7
370
    25
100
AcDbCircle
 10
39.7615027675
 20
37.1307135665
 30
0.0
 40
0.1154445534597947
100
AcDbArc
 50
332.6105042776
 51
4.2936130216
  0
SPLINE
  5
23B
330
1F
100
AcDbEntity
  8
0
  6
Continuous
 62
     7
370
    25
100
AcDbSpline
210
0.0
220
0.0
230
1.0
 70
     8
 71
     3
 72
    10
 73
     6
 74
     0
 42
0.00000001
 43
0.00000001
 40
0.0
 40
0.0
 40
0.0
 40
0.0
 40
0.0207117854706794
 40
0.5105679282079943
 40
1.0
 40
1.0
 40
1.0
 40
1.0
 10
39.76736737958888
 20
37.02913026591052
 30
0.0
 10
39.76764216195144
 20
37.02909184413271
 30
0.0
 10
39.77441584458531
 20
37.02814470572594
 30
0.0
 10
39.78679023147056
 20
37.02243344515912
 30
0.0
 10
39.79898681140423
 20
37.01772977482737
 30
0.0
 10
39.80508246056772
 20
37.01537895810013
 30
0.0
  0
SPLINE
  5
23C
330
1F
100
AcDbEntity
  8
0
  6
Continuous
 62
     7
370
    25
100
AcDbSpline
210
0.0
220
0.0
230
1.0
 70
     8
 71
     3
 72
    10
 73
     6
 74
     0
 42
0.00000001
 43
0.00000001
 40
0.0
 40
0.0
 40
0.0
 40
0.0
 40
0.5563781765975836
 40
0.901671163798503
 40
1.0
 40
1.0
 40
1.0
 40
1.0
 10
39.86400595654513
 20
37.0776047992619
 30
0.0
 10
39.86144815593527
 20
37.0904591966905
 30
0.0
 10
39.8573029627022
 20
37.11129114153824
 30
0.0
 10
39.86115740983761
 20
37.13531167005637
 30
0.0
 10
39.86632086313751
 20
37.14437478971175
 30
0.0
 10
39.86746534324867
 20
37.14638363138963
 30
0.0
  0
LINE
  5
23D
330
1F
100
AcDbEntity
  8
0
  6
Continuous
 62
     7
370
    25
100
AcDbLine
 10
39.808280307
 20
37.1097666677
 30
0.0
 11
39.8640059565
 21
37.0776047993
 31
0.0
  0
SPLINE
  5
23E
330
1F
100
AcDbEntity
  8
0
  6
Continuous
 62
     7
370
    25
100
AcDbSpline
210
0.0
220
0.0
230
1.0
 70
     8
 71
     3
 72
    11
 73
     7
 74
     0
 42
0.00000001
 43
0.00000001
 40
0.0
 40
0.0
 40
0.0
 40
0.0
 40
0.1600340167983396
 40
0.4677146006243116
 40
0.8081774325532854
 40
1.0
 40
1.0
 40
1.0
 40
1.0
 10
39.80508246056772
 20
37.01537895810013
 30
0.0
 10
39.80671505728476
 20
37.0197964915458
 30
0.0
 10
39.81148647611662
 20
37.03270715224545
 30
0.0
 10
39.82510159074616
 20
37.05274797698053
 30
0.0
 10
39.84503947315034
 20
37.06793523802408
 30
0.0
 10
39.85898156832276
 20
37.07504324746616
 30
0.0
 10
39.86400595654513
 20
37.0776047992619
 30
0.0
  0
LWPOLYLINE
  5
23F
330
1F
100
AcDbEntity
  8
0
  6
Continuous
 62
     7
370
    25
100
AcDbPolyline
 90
       14
 70
   128
 43
0.0
 10
39.1291557423
 20
36.9326012477
 10
39.1057721024
 20
36.9598562928
 10
39.0804666014
 20
37.0079260309
 10
39.0649690271
 20
37.0657789092
 10
39.0597503207
 20
37.1316572948
 10
39.0649690271
 20
37.2035595042
 10
39.0804666014
 20
37.2793008159
 10
39.1057721024
 20
37.3565803498
 10
39.1401166756
 20
37.4330491198
 10
39.1824567999
 20
37.5063839526
 10
39.2315059666
 20
37.5743578874
 10
39.2857738213
 20
37.6349035346
 10
39.3436115015
 20
37.6861823023
 10
39.4032616033
 20
37.7266360216
  0
LWPOLYLINE
  5
240
330
1F
100
AcDbEntity
  8
0
  6
Continuous
 62
     7
370
    25
100
AcDbPolyline
 90
        9
 70
   128
 43
0.0
 10
39.4032616033
 20
37.7266360216
 10
39.4652426789
 20
37.6983343752
 10
39.5273883975
 20
37.6571238646
 10
39.587728826
 20
37.6043139147
 10
39.6443512448
 20
37.5415765061
 10
39.6954607886
 20
37.4708992426
 10
39.7394373639
 20
37.3945255115
 10
39.7748869661
 20
37.3148746983
 10
39.8006858847
 20
37.2344706138
  0
LWPOLYLINE
  5
241
330
1F
100
AcDbEntity
  8
0
  6
Continuous
 62
     7
370
    25
100
AcDbPolyline
 90
       10
 70
   128
 43
0.0
 10
39.8006858847
 20
37.2344706138
 10
39.764850572
 20
37.2072331685
 10
39.7325230821
 20
37.1695531771
 10
39.7068678218
 20
37.1251160371
 10
39.6903961354
 20
37.0782747649
 10
39.6847203843
 20
37.0336123475
 10
39.6903961354
 20
36.9955017477
 10
39.7068678218
 20
36.9676729492
 10
39.7325230821
 20
36.9528504004
 10
39.7480116365
 20
36.9508252505
  0
LINE
  5
242
330
1F
100
AcDbEntity
  8
0
  6
Continuous
 62
     7
370
    25
100
AcDbLine
 10
39.8031304781
 20
37.9574186356
 30
0.0
 11
39.4032616033
 21
37.7266360216
 31
0.0
  0
ARC
  5
243
330
1F
100
AcDbEntity
  8
0
  6
Continuous
 62
     7
370
    25
100
AcDbCircle
 10
39.722556146
 20
37.7800997828
 30
0.0
 40
0.1947670366406873
100
AcDbArc
 50
65.5627796373
 51
167.2713191025
  0
SPLINE
  5
244
330
1F
100
AcDbEntity
  8
0
  6
Continuous
 62
     7
370
    25
100
AcDbSpline
210
0.0
220
0.0
230
1.0
 70
     8
 71
     3
 72
    11
 73
     7
 74
     0
 42
0.00000001
 43
0.00000001
 40
0.0
 40
0.0
 40
0.0
 40
0.0
 40
0.2669410108662061
 40
0.5148852219384573
 40
0.765468426034328
 40
1.0
 40
1.0
 40
1.0
 40
1.0
 10
39.80068588469067
 20
37.2344706138013
 30
0.0
 10
39.81353153559177
 20
37.24015293635411
 30
0.0
 10
39.83830867940229
 20
37.25111320019382
 30
0.0
 10
39.87913182534646
 20
37.24603813500717
 30
0.0
 10
39.91338444531664
 20
37.22557718135891
 30
0.0
 10
39.92420484066858
 20
37.20240883791725
 30
0.0
 10
39.92943602402475
 20
37.19120796690842
 30
0.0
  0
LWPOLYLINE
  5
245
330
1F
100
AcDbEntity
  8
0
  6
Continuous
 62
     7
370
    25
100
AcDbPolyline
 90
       21
 70
   128
 43
0.0
 10
40.3755867634
 20
38.3850725753
 10
40.3808298162
 20
38.3879730218
 10
40.4270196026
 20
38.4043877655
 10
40.4788479972
 20
38.4079124181
 10
40.5348240039
 20
38.3984484208
 10
40.5933372412
 20
38.3762644637
 10
40.6527043621
 20
38.3420011795
 10
40.7112175995
 20
38.2966429835
 10
40.7671935328
 20
38.2414957806
 10
40.8190220008
 20
38.1781447257
 10
40.8652117872
 20
38.1084143313
 10
40.9044341074
 20
38.0343086273
 10
40.9355608145
 20
37.957959536
 10
40.9576962255
 20
37.8815646852
 10
40.9702036677
 20
37.8073217028
 10
40.9727232252
 20
37.737366031
 10
40.9651825923
 20
37.673709913
 10
40.9477985398
 20
37.6181849011
 10
40.9210711952
 20
37.5723878835
 10
40.885769523
 20
37.5376376716
 10
40.8704549133
 20
37.5276304272
  0
LINE
  5
246
330
1F
100
AcDbEntity
  8
0
  6
Continuous
 62
     7
370
    25
100
AcDbLine
 10
40.5265226198
 20
38.4012092422
 30
0.0
 11
40.5591788225
 21
38.3989564682
 31
0.0
  0
LINE
  5
247
330
1F
100
AcDbEntity
  8
0
  6
Continuous
 62
     7
370
    25
100
AcDbLine
 10
40.9743223134
 20
37.6796516044
 30
0.0
 11
40.9599352129
 21
37.650249384
 31
0.0
  0
LWPOLYLINE
  5
248
330
1F
100
AcDbEntity
  8
0
  6
Continuous
 62
     7
370
    25
100
AcDbPolyline
 90
       30
 70
   128
 43
0.0
 10
39.078714395
 20
34.7229010143
 10
39.077300948
 20
34.7237328981
 10
39.0655118342
 20
34.7305698324
 10
39.0419088568
 20
34.7442272746
 10
39.0067889392
 20
34.7645327467
 10
38.9605936162
 20
34.7912316383
 10
38.9039039377
 20
34.8239872066
 10
38.8374327323
 20
34.8623887896
 10
38.7620159168
 20
34.9059529797
 10
38.6786019004
 20
34.9541318365
 10
38.5882397043
 20
35.0063187536
 10
38.4920656886
 20
35.0618578453
 10
38.3912892528
 20
35.1200521597
 10
38.2871777289
 20
35.1801671986
 10
38.181040395
 20
35.2414496907
 10
38.0742119757
 20
35.3031264182
 10
37.9680359223
 20
35.3644241634
 10
37.8638474725
 20
35.4245708819
 10
37.7629567847
 20
35.4828097825
 10
37.6666326575
 20
35.5384087135
 10
37.5760863968
 20
35.5906695498
 10
37.4924568562
 20
35.6389340589
 10
37.4167954769
 20
35.6825956345
 10
37.3500538213
 20
35.7211039897
 10
37.2930712529
 20
35.7539768899
 10
37.2465643768
 20
35.7808001534
 10
37.2111179463
 20
35.801235864
 10
37.1871776762
 20
35.8150270647
 10
37.1750448163
 20
35.8220012774
 10
37.173458488
 20
35.8229012137
  0
LWPOLYLINE
  5
249
330
1F
100
AcDbEntity
  8
0
  6
Continuous
 62
     7
370
    25
100
AcDbPolyline
 90
       30
 70
   128
 43
0.0
 10
37.1697983169
 20
35.8365621759
 10
37.1713990184
 20
35.8356540264
 10
37.1836421703
 20
35.8286164543
 10
37.2077999446
 20
35.8146985351
 10
37.2435685981
 20
35.79407744
 10
37.2904983093
 20
35.767010126
 10
37.3479988983
 20
35.7338392026
 10
37.415347307
 20
35.6949800248
 10
37.491696545
 20
35.6509218671
 10
37.5760863968
 20
35.6022185364
 10
37.6674557413
 20
35.5494836789
 10
37.7646556051
 20
35.4933778737
 10
37.866463389
 20
35.4346098059
 10
37.9715991478
 20
35.3739163204
 10
38.0787404034
 20
35.3120624216
 10
38.1865400381
 20
35.2498236739
 10
38.2936422075
 20
35.1879850283
 10
38.3987001605
 20
35.1273220491
 10
38.5003927391
 20
35.0685997408
 10
38.597441098
 20
35.0125549482
 10
38.6886247646
 20
34.9598940099
 10
38.772797039
 20
34.9112775049
 10
38.8488995131
 20
34.867317906
 10
38.9159749783
 20
34.8285666737
 10
38.9731800374
 20
34.7955130822
 10
39.0197952989
 20
34.7685713134
 10
39.0552345429
 20
34.7480816301
 10
39.0790520544
 20
34.734299816
 10
39.0909483803
 20
34.7274006957
 10
39.0923746605
 20
34.726561772
  0
ARC
  5
24A
330
1F
100
AcDbEntity
  8
0
  6
Continuous
 62
     7
370
    25
100
AcDbCircle
 10
-133.3866486433
 20
-260.3344024539
 30
0.0
 40
343.6150115123383
100
AcDbArc
 50
59.9850328953
 51
60.0632404247
  0
LWPOLYLINE
  5
24B
330
1F
100
AcDbEntity
  8
0
  6
Continuous
 62
     7
370
    25
100
AcDbPolyline
 90
       21
 70
   128
 43
0.0
 10
40.0148746404
 20
36.3243780873
 10
40.0134483602
 20
36.3252170109
 10
40.0015520709
 20
36.3321161312
 10
39.9777345227
 20
36.3458979453
 10
39.9422953155
 20
36.366388802
 10
39.895680054
 20
36.3933293974
 10
39.8384749948
 20
36.4263841622
 10
39.771399493
 20
36.4651342212
 10
39.6952970738
 20
36.5090938201
 10
39.611124772
 20
36.5577103251
 10
39.5199411095
 20
36.6103724368
 10
39.4228927648
 20
36.6664172293
 10
39.3212001771
 20
36.7251395376
 10
39.2161421874
 20
36.7858013435
 10
39.1090399813
 20
36.8476411625
 10
39.0012403833
 20
36.9098787368
 10
38.894099091
 20
36.971733809
 10
38.7889634789
 20
37.0324261212
 10
38.6871556216
 20
37.0911953623
 10
38.5899558311
 20
37.1472999941
 10
38.4985864867
 20
37.2000360249
  0
LWPOLYLINE
  5
24C
330
1F
100
AcDbEntity
  8
0
  6
Continuous
 62
     7
370
    25
100
AcDbPolyline
 90
       21
 70
   128
 43
0.0
 10
38.5285864401
 20
37.2173495316
 10
38.6191587338
 20
37.1650746155
 10
38.7155899998
 20
37.1094134985
 10
38.8166230993
 20
37.0510912922
 10
38.9209409809
 20
36.9908706546
 10
39.0271835836
 20
36.9295341898
 10
39.1339659867
 20
36.8678832753
 10
39.239896028
 20
36.8067204619
 10
39.3435928017
 20
36.7468436069
 10
39.4437044511
 20
36.6890329681
 10
39.5389258583
 20
36.63404299
 10
39.6280156727
 20
36.582590571
 10
39.7098124695
 20
36.5353445035
 10
39.7832499128
 20
36.4929231269
 10
39.8473706287
 20
36.4558779015
 10
39.9013386819
 20
36.4246934084
 10
39.9444505572
 20
36.3997744429
 10
39.9761441978
 20
36.3814460147
 10
39.9960064117
 20
36.3699486542
 10
40.0037782985
 20
36.3654301997
 10
40.0038939072
 20
36.3653598005
  0
ARC
  5
24D
330
1F
100
AcDbEntity
  8
0
  6
Continuous
 62
     7
370
    25
100
AcDbCircle
 10
-141.4615695822
 20
-274.379879877
 30
0.0
 40
359.8462027589777
100
AcDbArc
 50
59.9876709132
 51
60.0603325212
  0
LINE
  5
24E
330
1F
100
AcDbEntity
  8
0
  6
Continuous
 62
     7
370
    25
100
AcDbLine
 10
39.1603624551
 20
37.4702503967
 30
0.0
 11
38.8978624409
 21
37.0155866357
 31
0.0
  0
LWPOLYLINE
  5
24F
330
1F
100
AcDbEntity
  8
0
  6
Continuous
 62
     7
370
    25
100
AcDbPolyline
 90
       13
 70
   128
 43
0.0
 10
38.8978624409
 20
37.0155866357
 10
38.9674653468
 20
36.9754086465
 10
39.0402076165
 20
36.9334143583
 10
39.1139373447
 20
36.8908463167
 10
39.1864733668
 20
36.8489646672
 10
39.2556698824
 20
36.8090060888
 10
39.3194797786
 20
36.7721544612
 10
39.3760154314
 20
36.7394997984
 10
39.4236043099
 20
36.712008916
 10
39.4608386094
 20
36.6904925779
 10
39.4866168162
 20
36.67558907
 10
39.5001763366
 20
36.6677395607
 10
39.5022690281
 20
36.6665193082
  0
LINE
  5
250
330
1F
100
AcDbEntity
  8
0
  6
Continuous
 62
     7
370
    25
100
AcDbLine
 10
39.3837350872
 20
36.7350411833
 30
0.0
 11
39.4204721236
 21
36.7986714882
 31
0.0
  0
ARC
  5
251
330
1F
100
AcDbEntity
  8
0
  6
Continuous
 62
     7
370
    25
100
AcDbCircle
 10
39.7058229659
 20
37.1905089201
 30
0.0
 40
0.6130109808460966
100
AcDbArc
 50
111.0590777121
 51
152.8488098254
  0
SPLINE
  5
252
330
1F
100
AcDbEntity
  8
0
  6
Continuous
 62
     7
370
    25
100
AcDbSpline
210
0.0
220
0.0
230
1.0
 70
     8
 71
     3
 72
    17
 73
    13
 74
     0
 42
0.00000001
 43
0.00000001
 40
0.0
 40
0.0
 40
0.0
 40
0.0
 40
0.0259553619055272
 40
0.1349372490033036
 40
0.2547719224073938
 40
0.387447967547066
 40
0.4855965819862576
 40
0.5823379602582898
 40
0.686864964508102
 40
0.7876249489605059
 40
0.9189796896704006
 40
1.0
 40
1.0
 40
1.0
 40
1.0
 10
40.18107909035589
 20
38.51765653699469
 30
0.0
 10
40.18129195802599
 20
38.52629268813069
 30
0.0
 10
40.18239861868091
 20
38.57119048152352
 30
0.0
 10
40.20107598994014
 20
38.65492374011169
 30
0.0
 10
40.24886977929259
 20
38.76577727828808
 30
0.0
 10
40.31303289011726
 20
38.86393406715274
 30
0.0
 10
40.38429065010614
 20
38.94663777304229
 30
0.0
 10
40.45686990547719
 20
39.01506978280701
 30
0.0
 10
40.53633916623588
 20
39.07696470918062
 30
0.0
 10
40.6310006484128
 20
39.13655333008517
 30
0.0
 10
40.72351349530348
 20
39.18689596616169
 30
0.0
 10
40.79258909722927
 20
39.20278393616326
 30
0.0
 10
40.81894118838517
 20
39.20884513899163
 30
0.0
  0
SPLINE
  5
253
330
1F
100
AcDbEntity
  8
0
  6
Continuous
 62
     7
370
    25
100
AcDbSpline
210
0.0
220
0.0
230
1.0
 70
     8
 71
     3
 72
    19
 73
    15
 74
     0
 42
0.00000001
 43
0.00000001
 40
0.0
 40
0.0
 40
0.0
 40
0.0
 40
0.0304841562107211
 40
0.1184588922663495
 40
0.2137462769261938
 40
0.35521016042722
 40
0.5126788693109591
 40
0.5900275273847818
 40
0.6711104833070042
 40
0.7515966460096308
 40
0.834239130919986
 40
0.9013575605127832
 40
0.966924647344877
 40
1.0
 40
1.0
 40
1.0
 40
1.0
 10
41.30997800921926
 20
39.21124223130022
 30
0.0
 10
41.31997698740331
 20
39.20935873405723
 30
0.0
 10
41.35883218389588
 20
39.2020396206316
 30
0.0
 10
41.42497831973745
 20
39.17392944401388
 30
0.0
 10
41.52132004444984
 20
39.12476813989016
 30
0.0
 10
41.6309220114099
 20
39.05139952944955
 30
0.0
 10
41.72551837249467
 20
38.96826192412857
 30
0.0
 10
41.7954075940709
 20
38.88932205517093
 30
0.0
 10
41.84274571954502
 20
38.82511059445162
 30
0.0
 10
41.88437676800218
 20
38.7549905180632
 30
0.0
 10
41.91611586919603
 20
38.6848574640787
 30
0.0
 10
41.93748795320707
 20
38.61621443381571
 30
0.0
 10
41.9475286142642
 20
38.56157564104638
 30
0.0
 10
41.94851525591906
 20
38.52868496247297
 30
0.0
 10
41.94884608229409
 20
38.51765653699468
 30
0.0
  0
SPLINE
  5
254
330
1F
100
AcDbEntity
  8
0
  6
Continuous
 62
     7
370
    25
100
AcDbSpline
210
0.0
220
0.0
230
1.0
 70
     8
 71
     3
 72
    24
 73
    20
 74
     0
 42
0.00000001
 43
0.00000001
 40
0.0
 40
0.0
 40
0.0
 40
0.0
 40
0.0181644369492046
 40
0.0802932066736951
 40
0.1338205609349921
 40
0.1904092363914827
 40
0.2371801499234385
 40
0.28964542309605
 40
0.3541036414357062
 40
0.4239196694994116
 40
0.5275688567401552
 40
0.6429446211240761
 40
0.6996172884631088
 40
0.7590265966679713
 40
0.8179973262569161
 40
0.8785486569607074
 40
0.9277256659894328
 40
0.9757660215324859
 40
0.9999999999999999
 40
0.9999999999999999
 40
0.9999999999999999
 40
0.9999999999999999
 10
41.94884608229409
 20
38.51765653699468
 30
0.0
 10
41.9486525729644
 20
38.52591300350753
 30
0.0
 10
41.94779719359614
 20
38.56240949244167
 30
0.0
 10
41.9338922309792
 20
38.62344541516853
 30
0.0
 10
41.88290709130055
 20
38.68731241704592
 30
0.0
 10
41.81266787654032
 20
38.71243715874323
 30
0.0
 10
41.74122669417491
 20
38.71148439985233
 30
0.0
 10
41.66812237106909
 20
38.69528990759858
 30
0.0
 10
41.58869841238258
 20
38.66443682934676
 30
0.0
 10
41.49254508266817
 20
38.6143665766426
 30
0.0
 10
41.38286641166265
 20
38.54136802417803
 30
0.0
 10
41.28829306134137
 20
38.45812041220313
 30
0.0
 10
41.21839995307408
 20
38.37919558611597
 30
0.0
 10
41.17106389025686
 20
38.314980008326
 30
0.0
 10
41.12943127431453
 20
38.24486167899074
 30
0.0
 10
41.09769271906577
 20
38.17472844915419
 30
0.0
 10
41.07632057922619
 20
38.1060855186257
 30
0.0
 10
41.06627982641071
 20
38.05144671144477
 30
0.0
 10
41.0652933554272
 20
38.01855602872385
 30
0.0
 10
41.064962586325
 20
38.00752760338099
 30
0.0
  0
SPLINE
  5
255
330
1F
100
AcDbEntity
  8
0
  6
Continuous
 62
     7
370
    25
100
AcDbSpline
210
0.0
220
0.0
230
1.0
 70
     8
 71
     3
 72
    24
 73
    20
 74
     0
 42
0.00000001
 43
0.00000001
 40
0.0
 40
0.0
 40
0.0
 40
0.0
 40
0.0189676370003711
 40
0.0986093181272964
 40
0.1861819882411447
 40
0.2831381717979577
 40
0.3548637407173392
 40
0.4255603532886088
 40
0.5019464569318031
 40
0.575579788998398
 40
0.671571083081443
 40
0.7608251649580077
 40
0.7983467015146821
 40
0.8342515692549947
 40
0.8682990960343694
 40
0.9046812184853792
 40
0.9381844747644045
 40
0.9770912998873327
 40
1.0
 40
1.0
 40
1.0
 40
1.0
 10
41.064962586325
 20
38.00752760338099
 30
0.0
 10
41.06474969172626
 20
38.01616375281449
 30
0.0
 10
41.06364289116832
 20
38.0610615335378
 30
0.0
 10
41.04496563911282
 20
38.14479502822459
 30
0.0
 10
40.99717200081105
 20
38.25564713528978
 30
0.0
 10
40.93300868862447
 20
38.3538082402193
 30
0.0
 10
40.86174905347212
 20
38.43649779951046
 30
0.0
 10
40.78918056298627
 20
38.50498320529345
 30
0.0
 10
40.70966632811517
 20
38.5666655249758
 30
0.0
 10
40.61518646956914
 20
38.62711094480898
 30
0.0
 10
40.50967232337265
 20
38.68003544226798
 30
0.0
 10
40.41130256419582
 20
38.70973645389152
 30
0.0
 10
40.33685395690362
 20
38.71242032428564
 30
0.0
 10
40.28824113395521
 20
38.7031082277059
 30
0.0
 10
40.24467778831867
 20
38.68017154577803
 30
0.0
 10
40.21205750971608
 20
38.6445287364527
 30
0.0
 10
40.19098137092428
 20
38.59916904883902
 30
0.0
 10
40.18215848208794
 20
38.55623191467803
 30
0.0
 10
40.18137094857463
 20
38.52808698655556
 30
0.0
 10
40.18107909035589
 20
38.51765653699468
 30
0.0
  0
LWPOLYLINE
  5
256
330
1F
100
AcDbEntity
  8
0
  6
Continuous
 62
     7
370
    25
100
AcDbPolyline
 90
       34
 70
   128
 43
0.0
 10
41.2801321273
 20
39.1094590871
 10
41.3364090906
 20
39.0826416902
 10
41.3828753404
 20
39.0501618521
 10
41.4178514164
 20
39.0131928925
 10
41.4400730664
 20
38.973072396
 10
41.4487372996
 20
38.9312494125
 10
41.4435308397
 20
38.8892363511
 10
41.4246420046
 20
38.8485514878
 10
41.3927535197
 20
38.8106638188
 10
41.3490175849
 20
38.776944955
 10
41.2950153954
 20
38.7486128023
 10
41.2326983286
 20
38.7266893222
 10
41.1643188652
 20
38.7119700256
 10
41.0923484566
 20
38.704985253
 10
41.0193882061
 20
38.705987268
 10
40.94807515
 20
38.7149408713
 10
40.8809867783
 20
38.7315222264
 10
40.8205477565
 20
38.7551305937
 10
40.768942366
 20
38.7849141429
 10
40.7280361119
 20
38.81979694
 10
40.6993071571
 20
38.8585164927
 10
40.683793963
 20
38.8996742039
 10
40.6820571563
 20
38.9417834774
 10
40.6941595832
 20
38.9833201709
 10
40.7196638152
 20
39.0227847817
 10
40.7576479898
 20
39.0587517262
 10
40.806739396
 20
39.0899186195
 10
40.8651635344
 20
39.1151602479
 10
40.9308090161
 20
39.133564942
 10
41.0013030951
 20
39.144466256
 10
41.0740980541
 20
39.147471128
 10
41.1465628703
 20
39.1424704391
 10
41.2160784006
 20
39.1296460539
 10
41.2801321273
 20
39.1094590871
  0
LINE
  5
257
330
1F
100
AcDbEntity
  8
0
  6
Continuous
 62
     7
370
    25
100
AcDbLine
 10
40.1810790904
 20
36.8843731115
 30
0.0
 11
41.0649625863
 21
36.3742441779
 31
0.0
  0
LINE
  5
258
330
1F
100
AcDbEntity
  8
0
  6
Continuous
 62
     7
370
    25
100
AcDbLine
 10
40.1810790904
 20
38.517656537
 30
0.0
 11
40.1810790904
 21
38.2728128588
 31
0.0
  0
LINE
  5
259
330
1F
100
AcDbEntity
  8
0
  6
Continuous
 62
     7
370
    25
100
AcDbLine
 10
40.1810790904
 20
37.1297612101
 30
0.0
 11
40.1810790904
 21
36.8843731115
 31
0.0
  0
LINE
  5
25A
330
1F
100
AcDbEntity
  8
0
  6
Continuous
 62
     7
370
    25
100
AcDbLine
 10
41.0649625863
 20
38.0075276034
 30
0.0
 11
41.0649625863
 21
36.3742441779
 31
0.0
  0
LWPOLYLINE
  5
25B
330
1F
100
AcDbEntity
  8
0
  6
Continuous
 62
     7
370
    25
100
AcDbPolyline
 90
       17
 70
   128
 43
0.0
 10
40.9801097132
 20
37.750259642
 10
40.9749733592
 20
37.8229209893
 10
40.9597118422
 20
37.8994202656
 10
40.9347644237
 20
37.9775574963
 10
40.9008487355
 20
38.0550846007
 10
40.858940393
 20
38.1297722712
 10
40.8102451288
 20
38.1994698127
 10
40.7561637403
 20
38.2621743683
 10
40.6982520493
 20
38.316080199
 10
40.6381760966
 20
38.3596373491
 10
40.577664109
 20
38.3915927133
 10
40.5184569996
 20
38.4110264088
 10
40.4622580622
 20
38.4173811087
 10
40.4106839113
 20
38.4104726019
 10
40.3652182832
 20
38.3904991793
 10
40.3271692094
 20
38.3580369409
 10
40.3255734211
 20
38.3562077354
  0
LWPOLYLINE
  5
25C
330
1F
100
AcDbEntity
  8
0
  6
Continuous
 62
     7
370
    25
100
AcDbPolyline
 90
        7
 70
   128
 43
0.0
 10
40.8204415711
 20
37.4987655873
 10
40.858940393
 20
37.5106114238
 10
40.9008487355
 20
37.5369242932
 10
40.9347644237
 20
37.5753024098
 10
40.9597118422
 20
37.6246440265
 10
40.9749733592
 20
37.6835270796
 10
40.9801097132
 20
37.750259642
  0
LINE
  5
25D
330
1F
100
AcDbEntity
  8
0
  6
Continuous
 62
     7
370
    25
100
AcDbLine
 10
41.0649625863
 20
36.3742441779
 30
0.0
 11
41.9488460823
 21
36.8843731115
 31
0.0
  0
LINE
  5
25E
330
1F
100
AcDbEntity
  8
0
  6
Continuous
 62
     7
370
    25
100
AcDbLine
 10
41.9488460823
 20
38.517656537
 30
0.0
 11
41.9488460823
 21
36.8843731115
 31
0.0
  0
LWPOLYLINE
  5
25F
330
1F
100
AcDbEntity
  8
0
  6
Continuous
 62
     7
370
    25
100
AcDbPolyline
 90
        3
 70
   128
 43
0.0
 10
40.3965516412
 20
38.4059119079
 10
40.3766666576
 20
38.3866037576
 10
40.3750708693
 20
38.3847745521
  0
LINE
  5
260
330
1F
100
AcDbEntity
  8
0
  6
Continuous
 62
     7
370
    25
100
AcDbLine
 10
40.8699389459
 20
37.5273335773
 30
0.0
 11
40.8989874104
 21
37.5353579113
 31
0.0
  0
LWPOLYLINE
  5
261
330
1F
100
AcDbEntity
  8
0
  6
Continuous
 62
     7
370
    25
100
AcDbPolyline
 90
        3
 70
   128
 43
0.0
 10
37.0385249534
 20
35.6114490431
 10
37.0510433955
 20
35.632286029
 10
37.058557042
 20
35.6438854684
  0
LWPOLYLINE
  5
262
330
1F
100
AcDbEntity
  8
0
  6
Continuous
 62
     7
370
    25
100
AcDbPolyline
 90
        3
 70
   128
 43
0.0
 10
37.0210284089
 20
35.5788847259
 10
37.0268175687
 20
35.5902436347
 10
37.0385249534
 20
35.6114490431
  0
LWPOLYLINE
  5
263
330
1F
100
AcDbEntity
  8
0
  6
Continuous
 62
     7
370
    25
100
AcDbPolyline
 90
       17
 70
   128
 43
0.0
 10
38.457523301
 20
34.8537484628
 10
38.4443922394
 20
34.8724195004
 10
38.4250082633
 20
34.8837831025
 10
38.4023224187
 20
34.8861086223
 10
38.3797884457
 20
34.8790428906
 10
38.3608369113
 20
34.8636606683
 10
38.3483530822
 20
34.8423039016
 10
38.3442373697
 20
34.8182250331
 10
38.3491164733
 20
34.7950883404
 10
38.362247535
 20
34.7764173028
 10
38.3816314377
 20
34.765054874
 10
38.4043172823
 20
34.7627293542
 10
38.4268512553
 20
34.7697950859
 10
38.4458027897
 20
34.7851773082
 10
38.4582866922
 20
34.8065329015
 10
38.4624023313
 20
34.8306117701
 10
38.457523301
 20
34.8537484628
  0
LINE
  5
264
330
1F
100
AcDbEntity
  8
0
  6
Continuous
 62
     7
370
    25
100
AcDbLine
 10
38.3625998976
 20
34.831510533
 30
0.0
 11
38.3741459509
 21
34.7903234888
 31
0.0
  0
LINE
  5
265
330
1F
100
AcDbEntity
  8
0
  6
Continuous
 62
     7
370
    25
100
AcDbLine
 10
38.4148659405
 20
34.7832319441
 30
0.0
 11
38.3741459509
 21
34.7903234888
 31
0.0
  0
LINE
  5
266
330
1F
100
AcDbEntity
  8
0
  6
Continuous
 62
     7
370
    25
100
AcDbLine
 10
38.4440398034
 20
34.8173274435
 30
0.0
 11
38.4148659405
 21
34.7832319441
 31
0.0
  0
LINE
  5
267
330
1F
100
AcDbEntity
  8
0
  6
Continuous
 62
     7
370
    25
100
AcDbLine
 10
38.4440398034
 20
34.8173274435
 30
0.0
 11
38.4324937502
 21
34.8585144877
 31
0.0
  0
LINE
  5
268
330
1F
100
AcDbEntity
  8
0
  6
Continuous
 62
     7
370
    25
100
AcDbLine
 10
38.3917737606
 20
34.8656060325
 30
0.0
 11
38.4324937502
 21
34.8585144877
 31
0.0
  0
LINE
  5
269
330
1F
100
AcDbEntity
  8
0
  6
Continuous
 62
     7
370
    25
100
AcDbLine
 10
38.3917737606
 20
34.8656060325
 30
0.0
 11
38.3625998976
 21
34.831510533
 31
0.0
  0
LINE
  5
26A
330
1F
100
AcDbEntity
  8
0
  6
Continuous
 62
     7
370
    25
100
AcDbLine
 10
38.3822524172
 20
34.8020402601
 30
0.0
 11
38.3702765622
 21
34.8041264227
 31
0.0
  0
LINE
  5
26B
330
1F
100
AcDbEntity
  8
0
  6
Continuous
 62
     7
370
    25
100
AcDbLine
 10
38.3822524172
 20
34.8020402601
 30
0.0
 11
38.4148659405
 21
34.7832319441
 31
0.0
  0
LINE
  5
26C
330
1F
100
AcDbEntity
  8
0
  6
Continuous
 62
     7
370
    25
100
AcDbLine
 10
38.4114262802
 20
34.8361357596
 30
0.0
 11
38.4440398034
 21
34.8173274435
 31
0.0
  0
LINE
  5
26D
330
1F
100
AcDbEntity
  8
0
  6
Continuous
 62
     7
370
    25
100
AcDbLine
 10
38.4114262802
 20
34.8361357596
 30
0.0
 11
38.4037496889
 21
34.8635198699
 31
0.0
  0
LINE
  5
26E
330
1F
100
AcDbEntity
  8
0
  6
Continuous
 62
     7
370
    25
100
AcDbLine
 10
38.4114262802
 20
34.8361357596
 30
0.0
 11
38.3822524172
 21
34.8020402601
 31
0.0
  0
ARC
  5
26F
330
1F
100
AcDbEntity
  8
0
  6
Continuous
 62
     7
370
    25
100
AcDbCircle
 10
39.6231197758
 20
37.0210579124
 30
0.0
 40
0.1847779838239988
100
AcDbArc
 50
300.8493854403
 51
335.0313645263
  0
LWPOLYLINE
  5
270
330
1F
100
AcDbEntity
  8
0
  6
Continuous
 62
     7
370
    25
100
AcDbPolyline
 90
        8
 70
   128
 43
0.0
 10
39.1603624551
 20
37.4702503967
 10
39.0974580318
 20
37.5065587773
 10
39.0412721842
 20
37.5389846427
 10
38.9933868407
 20
37.5666151502
 10
38.9551501457
 20
37.588673562
 10
38.9276386935
 20
37.6045380188
 10
38.9116270585
 20
37.6137614855
 10
38.9074038773
 20
37.6161832176
  0
LINE
  5
271
330
1F
100
AcDbEntity
  8
0
  6
Continuous
 62
     7
370
    25
100
AcDbLine
 10
38.1033648656
 20
19.8343105774
 30
0.0
 11
38.1339112194
 21
19.120184747
 31
0.0
  0
LINE
  5
272
330
1F
100
AcDbEntity
  8
0
  6
Continuous
 62
     7
370
    25
100
AcDbLine
 10
43.9960138066
 20
19.120184747
 30
0.0
 11
44.026560307
 21
19.8343105774
 31
0.0
  0
LINE
  5
273
330
1F
100
AcDbEntity
  8
0
  6
Continuous
 62
     7
370
    25
100
AcDbLine
 10
40.7737710169
 20
19.1882830537
 30
0.0
 11
40.7746719798
 21
19.2046931041
 31
0.0
  0
LINE
  5
274
330
1F
100
AcDbEntity
  8
0
  6
Continuous
 62
     7
370
    25
100
AcDbLine
 10
42.2524626682
 20
15.3941212308
 30
0.0
 11
42.2524626682
 21
17.6147943508
 31
0.0
  0
LINE
  5
275
330
1F
100
AcDbEntity
  8
0
  6
Continuous
 62
     7
370
    25
100
AcDbLine
 10
42.2524626682
 20
19.7078795046
 30
0.0
 11
42.2524626682
 21
27.1714466982
 31
0.0
  0
LINE
  5
276
330
1F
100
AcDbEntity
  8
0
  6
Continuous
 62
     7
370
    25
100
AcDbLine
 10
39.8774625411
 20
27.226281798
 30
0.0
 11
39.8774625411
 21
19.6507552578
 31
0.0
  0
LINE
  5
277
330
1F
100
AcDbEntity
  8
0
  6
Continuous
 62
     7
370
    25
100
AcDbLine
 10
39.8774625411
 20
17.6147943508
 30
0.0
 11
39.8774625411
 21
13.0187001386
 31
0.0
  0
SPLINE
  5
278
330
1F
100
AcDbEntity
  8
0
  6
Continuous
 62
     7
370
    25
100
AcDbSpline
210
0.0
220
0.0
230
1.0
 70
     8
 71
     3
 72
    20
 73
    16
 74
     0
 42
0.00000001
 43
0.00000001
 40
0.0
 40
0.0
 40
0.0
 40
0.0
 40
0.0045476031702781
 40
0.0701860620265623
 40
0.1309323253937281
 40
0.193260580764552
 40
0.2767899519400953
 40
0.3806630448184593
 40
0.4980758316893545
 40
0.6119061420841811
 40
0.7193127531581738
 40
0.8272221353298737
 40
0.9073544933362551
 40
0.9777667034936899
 40
1.0
 40
1.0
 40
1.0
 40
1.0
 10
42.19153099877722
 20
27.09487995599553
 30
0.0
 10
42.19204859073179
 20
27.09500077508877
 30
0.0
 10
42.20003691769594
 20
27.09686545326206
 30
0.0
 10
42.21277348161775
 20
27.10651393953186
 30
0.0
 10
42.228464780861
 20
27.12184149964409
 30
0.0
 10
42.24138561886486
 20
27.14250227460858
 30
0.0
 10
42.25267802427215
 20
27.16944556443567
 30
0.0
 10
42.26249130428599
 20
27.2037337358294
 30
0.0
 10
42.27004860860383
 20
27.24215534968108
 30
0.0
 10
42.27477765259675
 20
27.28147653444143
 30
0.0
 10
42.27614541490563
 20
27.31986108413838
 30
0.0
 10
42.27327360362989
 20
27.35463109627431
 30
0.0
 10
42.26300476861648
 20
27.38304110562236
 30
0.0
 10
42.25208606649095
 20
27.40087193710209
 30
0.0
 10
42.24313035999262
 20
27.4070173971683
 30
0.0
 10
42.24098114752489
 20
27.4084921997868
 30
0.0
  0
LINE
  5
279
330
1F
100
AcDbEntity
  8
0
  6
Continuous
 62
     7
370
    25
100
AcDbLine
 10
42.1125313781
 20
27.1055031933
 30
0.0
 11
42.1870512639
 21
27.0939788464
 31
0.0
  0
LINE
  5
27A
330
1F
100
AcDbEntity
  8
0
  6
Continuous
 62
     7
370
    25
100
AcDbLine
 10
42.2362690953
 20
27.4122418365
 30
0.0
 11
42.1617492095
 21
27.42376589
 31
0.0
  0
SPLINE
  5
27B
330
1F
100
AcDbEntity
  8
0
  6
Continuous
 62
     7
370
    25
100
AcDbSpline
210
0.0
220
0.0
230
1.0
 70
     8
 71
     3
 72
    16
 73
    12
 74
     0
 42
0.00000001
 43
0.00000001
 40
0.0
 40
0.0
 40
0.0
 40
0.0
 40
0.0651757012886089
 40
0.1784643524886072
 40
0.3059316072557242
 40
0.4453942985040167
 40
0.5883079776097471
 40
0.7319981372795432
 40
0.8624477447328829
 40
0.9805892953250799
 40
1.0
 40
1.0
 40
1.0
 40
1.0
 10
40.11868051452291
 20
27.05009111340006
 30
0.0
 10
40.11615780247723
 20
27.04351135896205
 30
0.0
 10
40.10925010278478
 20
27.02549465040198
 30
0.0
 10
40.10811028393834
 20
26.99193926615661
 30
0.0
 10
40.11426431992493
 20
26.95134583329058
 30
0.0
 10
40.1300536636837
 20
26.90973351435208
 30
0.0
 10
40.15413783051386
 20
26.8704727974352
 30
0.0
 10
40.18480598169003
 20
26.83695106446645
 30
0.0
 10
40.21997003837798
 20
26.81364369847763
 30
0.0
 10
40.24719822633332
 20
26.80138962820692
 30
0.0
 10
40.26202499617349
 20
26.80080939390922
 30
0.0
 10
40.26411727775834
 20
26.80072751406964
 30
0.0
  0
LINE
  5
27C
330
1F
100
AcDbEntity
  8
0
  6
Continuous
 62
     7
370
    25
100
AcDbLine
 10
40.1995839566
 20
27.1169099148
 30
0.0
 11
40.1450315534
 21
27.0854250519
 31
0.0
  0
LINE
  5
27D
330
1F
100
AcDbEntity
  8
0
  6
Continuous
 62
     7
370
    25
100
AcDbLine
 10
40.3060116138
 20
26.8065002474
 30
0.0
 11
40.3605640169
 21
26.8379851103
 31
0.0
  0
LINE
  5
27E
330
1F
100
AcDbEntity
  8
0
  6
Continuous
 62
     7
370
    25
100
AcDbLine
 10
41.8502688877
 20
28.7692515735
 30
0.0
 11
41.8290444129
 21
28.7815142319
 31
0.0
  0
LINE
  5
27F
330
1F
100
AcDbEntity
  8
0
  6
Continuous
 62
     7
370
    25
100
AcDbLine
 10
40.3008806131
 20
28.7815142319
 30
0.0
 11
40.2796561383
 21
28.7692515735
 31
0.0
  0
LINE
  5
280
330
1F
100
AcDbEntity
  8
0
  6
Continuous
 62
     7
370
    25
100
AcDbLine
 10
42.1749625502
 20
27.4217225536
 30
0.0
 11
42.1749625502
 21
28.3164981238
 31
0.0
  0
LINE
  5
281
330
1F
100
AcDbEntity
  8
0
  6
Continuous
 62
     7
370
    25
100
AcDbLine
 10
39.9549625491
 20
28.3164981238
 30
0.0
 11
39.9549625491
 21
27.226281798
 31
0.0
  0
LINE
  5
282
330
1F
100
AcDbEntity
  8
0
  6
Continuous
 62
     7
370
    25
100
AcDbLine
 10
40.5649625557
 20
30.0862834698
 30
0.0
 11
40.5649625557
 21
28.3409974807
 31
0.0
  0
LINE
  5
283
330
1F
100
AcDbEntity
  8
0
  6
Continuous
 62
     7
370
    25
100
AcDbLine
 10
41.5649625436
 20
28.3409974807
 30
0.0
 11
41.5649625436
 21
29.8639556274
 31
0.0
  0
ARC
  5
284
330
1F
100
AcDbEntity
  8
0
  6
Continuous
 62
     7
370
    25
100
AcDbCircle
 10
41.3963649113
 20
20.3111876819
 30
0.0
 40
1.107123347930211
100
AcDbArc
 50
289.8037732909
 51
314.8062975784
  0
SPLINE
  5
285
330
1F
100
AcDbEntity
  8
0
  6
Continuous
 62
     7
370
    25
100
AcDbSpline
210
0.0
220
0.0
230
1.0
 70
     8
 71
     3
 72
    12
 73
     8
 74
     0
 42
0.00000001
 43
0.00000001
 40
0.0
 40
0.0
 40
0.0
 40
0.0
 40
0.1475186609293153
 40
0.3950492546286199
 40
0.5995264167276597
 40
0.7808175830054127
 40
1.0
 40
1.0
 40
1.0
 40
1.0
 10
42.15306722978064
 20
19.57255114791316
 30
0.0
 10
42.15603790768508
 20
19.57148303767648
 30
0.0
 10
42.16399326793914
 20
19.56862267987358
 30
0.0
 10
42.17501190552697
 20
19.56163840617162
 30
0.0
 10
42.18350775396026
 20
19.55055622425954
 30
0.0
 10
42.18479745989725
 20
19.53664775561643
 30
0.0
 10
42.17947904797001
 20
19.5295666491619
 30
0.0
 10
42.17656823829498
 20
19.52569110257773
 30
0.0
  0
SPLINE
  5
286
330
1F
100
AcDbEntity
  8
0
  6
Continuous
 62
     7
370
    25
100
AcDbSpline
210
0.0
220
0.0
230
1.0
 70
     8
 71
     3
 72
    10
 73
     6
 74
     0
 42
0.00000001
 43
0.00000001
 40
0.0
 40
0.0
 40
0.0
 40
0.0
 40
0.0306869487186189
 40
0.8385493783604813
 40
0.9999999999999999
 40
0.9999999999999999
 40
0.9999999999999999
 40
0.9999999999999999
 10
42.13455048368767
 20
19.5819154130697
 30
0.0
 10
42.13469540840641
 20
19.58175913337789
 30
0.0
 10
42.13865561096424
 20
19.57748864563332
 30
0.0
 10
42.14567642113154
 20
19.57509507315567
 30
0.0
 10
42.15201196891633
 20
19.57291436997418
 30
0.0
 10
42.15306722978064
 20
19.57255114791316
 30
0.0
  0
SPLINE
  5
287
330
1F
100
AcDbEntity
  8
0
  6
Continuous
 62
     7
370
    25
100
AcDbSpline
210
0.0
220
0.0
230
1.0
 70
     8
 71
     3
 72
     9
 73
     5
 74
     0
 42
0.00000001
 43
0.00000001
 40
0.0
 40
0.0
 40
0.0
 40
0.0
 40
0.9228589871955357
 40
1.0
 40
1.0
 40
1.0
 40
1.0
 10
42.23816371340546
 20
19.70830541966823
 30
0.0
 10
42.2314001112634
 20
19.70899091328041
 30
0.0
 10
42.22407114526112
 20
19.70973370673173
 30
0.0
 10
42.21693367658006
 20
19.70831947596018
 30
0.0
 10
42.21638308501714
 20
19.70821038076612
 30
0.0
  0
SPLINE
  5
288
330
1F
100
AcDbEntity
  8
0
  6
Continuous
 62
     7
370
    25
100
AcDbSpline
210
0.0
220
0.0
230
1.0
 70
     8
 71
     3
 72
    12
 73
     8
 74
     0
 42
0.00000001
 43
0.00000001
 40
0.0
 40
0.0
 40
0.0
 40
0.0
 40
0.1631120227477838
 40
0.3603814144075397
 40
0.5900013789752234
 40
0.8390565418717347
 40
1.0
 40
1.0
 40
1.0
 40
1.0
 10
42.3081739446413
 20
19.73564025056059
 30
0.0
 10
42.30605460785764
 20
19.7317841143484
 30
0.0
 10
42.30137212293204
 20
19.72326432654312
 30
0.0
 10
42.28743366978032
 20
19.71488178145836
 30
0.0
 10
42.27039436276008
 20
19.70923106685561
 30
0.0
 10
42.25331229711126
 20
19.70722674005248
 30
0.0
 10
42.24243396346476
 20
19.70800134954639
 30
0.0
 10
42.23816371340546
 20
19.70830541966823
 30
0.0
  0
ARC
  5
289
330
1F
100
AcDbEntity
  8
0
  6
Continuous
 62
     7
370
    25
100
AcDbCircle
 10
41.8932193554
 20
19.8771619697
 30
0.0
 40
0.4384241189582515
100
AcDbArc
 50
341.1678772454
 51
27.8672600957
  0
SPLINE
  5
28A
330
1F
100
AcDbEntity
  8
0
  6
Continuous
 62
     7
370
    25
100
AcDbSpline
210
0.0
220
0.0
230
1.0
 70
     8
 71
     3
 72
    10
 73
     6
 74
     0
 42
0.00000001
 43
0.00000001
 40
0.0
 40
0.0
 40
0.0
 40
0.0
 40
0.0973884969451827
 40
0.5689523064248111
 40
0.9999999999999999
 40
0.9999999999999999
 40
0.9999999999999999
 40
0.9999999999999999
 10
42.25246266822271
 20
20.10226044199953
 30
0.0
 10
42.25358654227097
 20
20.10199987638787
 30
0.0
 10
42.26015231494375
 20
20.10047762878806
 30
0.0
 10
42.27110648930319
 20
20.09472113230915
 30
0.0
 10
42.277667456941
 20
20.08617398923814
 30
0.0
 10
42.28080068752617
 20
20.08209224831755
 30
0.0
  0
SPLINE
  5
28B
330
1F
100
AcDbEntity
  8
0
  6
Continuous
 62
     7
370
    25
100
AcDbSpline
210
0.0
220
0.0
230
1.0
 70
     8
 71
     3
 72
    11
 73
     7
 74
     0
 42
0.00000001
 43
0.00000001
 40
0.0
 40
0.0
 40
0.0
 40
0.0
 40
0.1988046866613643
 40
0.4392599737623662
 40
0.7191460855060724
 40
0.9999999999999999
 40
0.9999999999999999
 40
0.9999999999999999
 40
0.9999999999999999
 10
39.82175100801123
 20
20.01737544926487
 30
0.0
 10
39.82387044149349
 20
20.02123395795229
 30
0.0
 10
39.82855334063154
 20
20.02975935266636
 30
0.0
 10
39.84249157889563
 20
20.0380844298228
 30
0.0
 10
39.85906026831831
 20
20.04384107233216
 30
0.0
 10
39.8713213961846
 20
20.04470399115382
 30
0.0
 10
39.87746254109352
 20
20.04513619523703
 30
0.0
  0
ARC
  5
28C
330
1F
100
AcDbEntity
  8
0
  6
Continuous
 62
     7
370
    25
100
AcDbCircle
 10
40.2367046165
 20
19.8758537757
 30
0.0
 40
0.4384231759942389
100
AcDbArc
 50
161.1678415084
 51
207.8673319899
  0
SPLINE
  5
28D
330
1F
100
AcDbEntity
  8
0
  6
Continuous
 62
     7
370
    25
100
AcDbSpline
210
0.0
220
0.0
230
1.0
 70
     8
 71
     3
 72
    12
 73
     8
 74
     0
 42
0.00000001
 43
0.00000001
 40
0.0
 40
0.0
 40
0.0
 40
0.0
 40
0.1286266360408612
 40
0.3745601355083363
 40
0.607537800198562
 40
0.812568312300112
 40
1.0
 40
1.0
 40
1.0
 40
1.0
 10
39.92315476658636
 20
19.64737844350185
 30
0.0
 10
39.91967644051518
 20
19.64692141172202
 30
0.0
 10
39.9095475719957
 20
19.6455905374128
 30
0.0
 10
39.8928202642303
 20
19.64632960289103
 30
0.0
 10
39.87471604408353
 20
19.65074200434335
 30
0.0
 10
39.85878813839967
 20
19.65813839088163
 30
0.0
 10
39.85224786978355
 20
19.66679109981017
 30
0.0
 10
39.84912437512509
 20
19.67092345150791
 30
0.0
  0
SPLINE
  5
28E
330
1F
100
AcDbEntity
  8
0
  6
Continuous
 62
     7
370
    25
100
AcDbSpline
210
0.0
220
0.0
230
1.0
 70
     8
 71
     3
 72
    10
 73
     6
 74
     0
 42
0.00000001
 43
0.00000001
 40
0.0
 40
0.0
 40
0.0
 40
0.0
 40
0.060878307402934
 40
0.8565215986642403
 40
1.0
 40
1.0
 40
1.0
 40
1.0
 10
39.94835661211916
 20
19.6482044606263
 30
0.0
 10
39.94785163288302
 20
19.6482946403126
 30
0.0
 10
39.94074687519382
 20
19.64956341489545
 30
0.0
 10
39.93216353209985
 20
19.64871931079431
 30
0.0
 10
39.92434871002044
 20
19.6475561503916
 30
0.0
 10
39.92315476658636
 20
19.64737844350185
 30
0.0
  0
SPLINE
  5
28F
330
1F
100
AcDbEntity
  8
0
  6
Continuous
 62
     7
370
    25
100
AcDbSpline
210
0.0
220
0.0
230
1.0
 70
     8
 71
     3
 72
     9
 73
     5
 74
     0
 42
0.00000001
 43
0.00000001
 40
0.0
 40
0.0
 40
0.0
 40
0.0
 40
0.9281051606332139
 40
1.0
 40
1.0
 40
1.0
 40
1.0
 10
40.02930555699004
 20
19.51665771359888
 30
0.0
 10
40.03469480824459
 20
19.51865740632235
 30
0.0
 10
40.040501533046
 20
19.520812003461
 30
0.0
 10
40.04437487629997
 20
19.52535728068329
 30
0.0
 10
40.04465334969102
 20
19.52568406265906
 30
0.0
  0
SPLINE
  5
290
330
1F
100
AcDbEntity
  8
0
  6
Continuous
 62
     7
370
    25
100
AcDbSpline
210
0.0
220
0.0
230
1.0
 70
     8
 71
     3
 72
    12
 73
     8
 74
     0
 42
0.00000001
 43
0.00000001
 40
0.0
 40
0.0
 40
0.0
 40
0.0
 40
0.2128781541937735
 40
0.3982848720439677
 40
0.5933285427608987
 40
0.8272281012165704
 40
1.0
 40
1.0
 40
1.0
 40
1.0
 10
40.01329153865201
 20
19.46875693361945
 30
0.0
 10
40.01009700207847
 20
19.47202665297102
 30
0.0
 10
40.00412017653125
 20
19.47814414190968
 30
0.0
 10
40.00207185278524
 20
19.49139856071322
 30
0.0
 10
40.00809313177841
 20
19.50349843907464
 30
0.0
 10
40.01814591941747
 20
19.51169284867265
 30
0.0
 10
40.02597810185036
 20
19.51517734605028
 30
0.0
 10
40.02930555699004
 20
19.51665771359888
 30
0.0
  0
ARC
  5
291
330
1F
100
AcDbEntity
  8
0
  6
Continuous
 62
     7
370
    25
100
AcDbCircle
 10
40.8140898828
 20
20.4507188387
 30
0.0
 40
1.267093986711617
100
AcDbArc
 50
230.8024614442
 51
253.6366140725
  0
SPLINE
  5
292
330
1F
100
AcDbEntity
  8
0
  6
Continuous
 62
     7
370
    25
100
AcDbSpline
210
0.0
220
0.0
230
1.0
 70
     8
 71
     3
 72
    12
 73
     8
 74
     0
 42
0.00000001
 43
0.00000001
 40
0.0
 40
0.0
 40
0.0
 40
0.0
 40
0.0914992819675658
 40
0.2896953916310835
 40
0.5134160873111652
 40
0.7478920453712452
 40
1.0
 40
1.0
 40
1.0
 40
1.0
 10
40.53830715029353
 20
19.24851307789526
 30
0.0
 10
40.53636737931466
 20
19.24674871622025
 30
0.0
 10
40.53022588070051
 20
19.24116258007327
 30
0.0
 10
40.51661374913352
 20
19.23491453152282
 30
0.0
 10
40.49826388459135
 20
19.23083977349504
 30
0.0
 10
40.4777458484383
 20
19.23009822633102
 30
0.0
 10
40.46415515377045
 20
19.23329381089857
 30
0.0
 10
40.45711356824872
 20
19.23494950124952
 30
0.0
  0
SPLINE
  5
293
330
1F
100
AcDbEntity
  8
0
  6
Continuous
 62
     7
370
    25
100
AcDbSpline
210
0.0
220
0.0
230
1.0
 70
     8
 71
     3
 72
     9
 73
     5
 74
     0
 42
0.00000001
 43
0.00000001
 40
0.0
 40
0.0
 40
0.0
 40
0.0
 40
0.8471167807293252
 40
1.0
 40
1.0
 40
1.0
 40
1.0
 10
40.55253482593421
 20
19.25819179275259
 30
0.0
 10
40.5481649937472
 20
19.25590541571996
 30
0.0
 10
40.54300651703369
 20
19.25320640528286
 30
0.0
 10
40.53893033077163
 20
19.24913545749808
 30
0.0
 10
40.53830715029353
 20
19.24851307789526
 30
0.0
  0
SPLINE
  5
294
330
1F
100
AcDbEntity
  8
0
  6
Continuous
 62
     7
370
    25
100
AcDbSpline
210
0.0
220
0.0
230
1.0
 70
     8
 71
     3
 72
     9
 73
     5
 74
     0
 42
0.00000001
 43
0.00000001
 40
0.0
 40
0.0
 40
0.0
 40
0.0
 40
0.9074717649895107
 40
1.0
 40
1.0
 40
1.0
 40
1.0
 10
40.77352359305311
 20
19.19940025858407
 30
0.0
 10
40.7745806931221
 20
19.20350326843579
 30
0.0
 10
40.77574557792597
 20
19.20802463208589
 30
0.0
 10
40.77352289624949
 20
19.21170569674659
 30
0.0
 10
40.77331723543698
 20
19.2120462991626
 30
0.0
  0
SPLINE
  5
295
330
1F
100
AcDbEntity
  8
0
  6
Continuous
 62
     7
370
    25
100
AcDbSpline
210
0.0
220
0.0
230
1.0
 70
     8
 71
     3
 72
    12
 73
     8
 74
     0
 42
0.00000001
 43
0.00000001
 40
0.0
 40
0.0
 40
0.0
 40
0.0
 40
0.274521531009028
 40
0.518451798965039
 40
0.7221749710570551
 40
0.8936308673860324
 40
1.0
 40
1.0
 40
1.0
 40
1.0
 10
40.8208866992438
 20
19.15899464535316
 30
0.0
 10
40.81452585883465
 20
19.16006379805794
 30
0.0
 10
40.80251299725349
 20
19.16208296260624
 30
0.0
 10
40.78699922432745
 20
19.16943852998556
 30
0.0
 10
40.77604795539737
 20
19.17927930975511
 30
0.0
 10
40.77158019479566
 20
19.19049661808485
 30
0.0
 10
40.77298553805996
 20
19.19693517032461
 30
0.0
 10
40.77352359305311
 20
19.19940025858407
 30
0.0
  0
ARC
  5
296
330
1F
100
AcDbEntity
  8
0
  6
Continuous
 62
     7
370
    25
100
AcDbCircle
 10
41.0645872532
 20
21.3116234353
 30
0.0
 40
2.166379622176479
100
AcDbArc
 50
263.541006793
 51
279.4739759012
  0
SPLINE
  5
297
330
1F
100
AcDbEntity
  8
0
  6
Continuous
 62
     7
370
    25
100
AcDbSpline
210
0.0
220
0.0
230
1.0
 70
     8
 71
     3
 72
    12
 73
     8
 74
     0
 42
0.00000001
 43
0.00000001
 40
0.0
 40
0.0
 40
0.0
 40
0.0
 40
0.0933179358662072
 40
0.2647146275841087
 40
0.4599050702751981
 40
0.695715417123446
 40
1.0
 40
1.0
 40
1.0
 40
1.0
 10
41.461967213427
 20
19.21751866261206
 30
0.0
 10
41.46276980756862
 20
19.21553933743719
 30
0.0
 10
41.46504652326458
 20
19.20992459337252
 30
0.0
 10
41.46343534824782
 20
19.19882193948211
 30
0.0
 10
41.45450986089224
 20
19.18793378754498
 30
0.0
 10
41.4399660666339
 20
19.17913251220964
 30
0.0
 10
41.42794503703055
 20
19.17635630999575
 30
0.0
 10
41.42117249802437
 20
19.1747922228582
 30
0.0
  0
SPLINE
  5
298
330
1F
100
AcDbEntity
  8
0
  6
Continuous
 62
     7
370
    25
100
AcDbSpline
210
0.0
220
0.0
230
1.0
 70
     8
 71
     3
 72
     9
 73
     5
 74
     0
 42
0.00000001
 43
0.00000001
 40
0.0
 40
0.0
 40
0.0
 40
0.0
 40
0.8244002110859472
 40
1.0
 40
1.0
 40
1.0
 40
1.0
 10
41.46017042085037
 20
19.23016822314992
 30
0.0
 10
41.46000308639243
 20
19.22652436246714
 30
0.0
 10
41.45980010917858
 20
19.22210434821462
 30
0.0
 10
41.46164351223874
 20
19.21820362821977
 30
0.0
 10
41.461967213427
 20
19.21751866261206
 30
0.0
  0
SPLINE
  5
299
330
1F
100
AcDbEntity
  8
0
  6
Continuous
 62
     7
370
    25
100
AcDbSpline
210
0.0
220
0.0
230
1.0
 70
     8
 71
     3
 72
     9
 73
     5
 74
     0
 42
0.00000001
 43
0.00000001
 40
0.0
 40
0.0
 40
0.0
 40
0.0
 40
0.90309871022525
 40
1.0
 40
1.0
 40
1.0
 40
1.0
 10
41.6884626635989
 20
19.2787835548748
 30
0.0
 10
41.68405945971561
 20
19.28214833556277
 30
0.0
 10
41.67918379791537
 20
19.28587415274076
 30
0.0
 10
41.67338482550963
 20
19.2874848657215
 30
0.0
 10
41.67282289760414
 20
19.28764094588679
 30
0.0
  0
SPLINE
  5
29A
330
1F
100
AcDbEntity
  8
0
  6
Continuous
 62
     7
370
    25
100
AcDbSpline
210
0.0
220
0.0
230
1.0
 70
     8
 71
     3
 72
    12
 73
     8
 74
     0
 42
0.00000001
 43
0.00000001
 40
0.0
 40
0.0
 40
0.0
 40
0.0
 40
0.2187127902489812
 40
0.45029755597708
 40
0.6773745277200359
 40
0.8839235817162147
 40
1.0
 40
1.0
 40
1.0
 40
1.0
 10
41.77145817149437
 20
19.26954131497527
 30
0.0
 10
41.76538713882262
 20
19.26768567980357
 30
0.0
 10
41.75288777300486
 20
19.26386519915564
 30
0.0
 10
41.73308046310517
 20
19.26318001712886
 30
0.0
 10
41.71400259796433
 20
19.26592144088318
 30
0.0
 10
41.69873792448772
 20
19.27127334159973
 30
0.0
 10
41.69118140155413
 20
19.27679642266436
 30
0.0
 10
41.6884626635989
 20
19.2787835548748
 30
0.0
  0
LWPOLYLINE
  5
29B
330
1F
100
AcDbEntity
  8
0
  6
Continuous
 62
     7
370
    25
100
AcDbPolyline
 90
       82
 70
   128
 43
0.0
 10
39.8774625411
 20
21.4429278878
 10
39.7169100275
 20
21.3990293016
 10
39.5400276491
 20
21.342386116
 10
39.3702552287
 20
21.2789077559
 10
39.208384307
 20
21.2088910714
 10
39.055169607
 20
21.1326622454
 10
38.9113255153
 20
21.0505767936
 10
38.7775226577
 20
20.9630172185
 10
38.6543848735
 20
20.8703918351
 10
38.5424863929
 20
20.7731318387
 10
38.4423487563
 20
20.6716918905
 10
38.3544390185
 20
20.5665448385
 10
38.2791670347
 20
20.4581799571
 10
38.2168835542
 20
20.3471035336
 10
38.167879267
 20
20.2338324154
 10
38.1323825304
 20
20.1188957698
 10
38.1105587825
 20
20.0028286306
 10
38.1025098088
 20
19.8861724849
 10
38.1082733023
 20
19.7694717531
 10
38.1278221298
 20
19.6532696821
 10
38.1610652124
 20
19.5381083458
 10
38.207847672
 20
19.4245251246
 10
38.267951271
 20
19.3130491857
 10
38.3410958793
 20
19.2042003098
 10
38.4269404276
 20
19.098485371
 10
38.5250845939
 20
18.996398337
 10
38.63507093
 20
18.8984155756
 10
38.7563864752
 20
18.8049923348
 10
38.8884656894
 20
18.7165650897
 10
39.0306926897
 20
18.6335468487
 10
39.1824044405
 20
18.5563224608
 10
39.3428935215
 20
18.4852544818
 10
39.5114117042
 20
18.4206726145
 10
39.687173246
 20
18.3628784022
 10
39.869358678
 20
18.3121417083
 10
40.057118589
 20
18.2686995435
 10
40.2495774991
 20
18.2327525454
 10
40.4458381118
 20
18.2044696721
 10
40.6449853846
 20
18.1839835088
 10
40.8460907814
 20
18.1713879209
 10
41.0482166731
 20
18.1667427479
 10
41.2504205906
 20
18.1700691095
 10
41.451759918
 20
18.1813517525
 10
41.6512957063
 20
18.2005378775
 10
41.8480978061
 20
18.227537139
 10
42.0412486815
 20
18.2622263382
 10
42.2298475161
 20
18.3044412106
 10
42.4130150535
 20
18.3539858116
 10
42.5898974101
 20
18.4106289972
 10
42.7596697423
 20
18.4741079439
 10
42.9215406456
 20
18.5441246284
 10
43.0747553824
 20
18.6203528678
 10
43.218599694
 20
18.7024383195
 10
43.3524024416
 20
18.7899984814
 10
43.4755402991
 20
18.8826238647
 10
43.5874386331
 20
18.9798838611
 10
43.6875761963
 20
19.0813232226
 10
43.7754860075
 20
19.1864702746
 10
43.8507579912
 20
19.2948357428
 10
43.9130413251
 20
19.4059115796
 10
43.9620459056
 20
19.5191826978
 10
43.9975426422
 20
19.63411993
 10
44.0193663901
 20
19.7501870692
 10
44.0274150705
 20
19.8668432149
 10
44.0216517237
 20
19.9835439468
 10
44.0021030429
 20
20.0997460177
 10
43.9688599603
 20
20.214907354
 10
43.922077354
 20
20.3284905752
 10
43.861973755
 20
20.4399665141
 10
43.7888292933
 20
20.54881539
 10
43.702984525
 20
20.6545297421
 10
43.6048404321
 20
20.7566167762
 10
43.494854316
 20
20.8546001242
 10
43.3735386241
 20
20.9480227783
 10
43.2414594832
 20
21.0364500235
 10
43.0992322996
 20
21.1194688511
 10
42.9475205855
 20
21.1966926524
 10
42.7870315595
 20
21.267761218
 10
42.6185135062
 20
21.3323424987
 10
42.4427519633
 20
21.390136711
 10
42.2605664946
 20
21.4408734049
 10
42.2524626682
 20
21.4429278878
  0
LWPOLYLINE
  5
29C
330
1F
100
AcDbEntity
  8
0
  6
Continuous
 62
     7
370
    25
100
AcDbPolyline
 90
       21
 70
   128
 43
0.0
 10
38.8939029266
 20
20.420299328
 10
38.8514430504
 20
20.4338212518
 10
38.8038215206
 20
20.4391082307
 10
38.7556998631
 20
20.4356434174
 10
38.7117885171
 20
20.4237659013
 10
38.6763857927
 20
20.4046384422
 10
38.65295731
 20
20.380133072
 10
38.6437962492
 20
20.3526480562
 10
38.6497993932
 20
20.3248749903
 10
38.6703792021
 20
20.2995318698
 10
38.7035210859
 20
20.2790990925
 10
38.7459808887
 20
20.2655777553
 10
38.7936024186
 20
20.2602901898
 10
38.8417241494
 20
20.2637550031
 10
38.8856354954
 20
20.2756325192
 10
38.9210381465
 20
20.2947605649
 10
38.9444667025
 20
20.3192659351
 10
38.9536277266
 20
20.3467503643
 10
38.9476245827
 20
20.3745234301
 10
38.9270447737
 20
20.3998665507
 10
38.8939029266
 20
20.420299328
  0
LWPOLYLINE
  5
29D
330
1F
100
AcDbEntity
  8
0
  6
Continuous
 62
     7
370
    25
100
AcDbPolyline
 90
       21
 70
   128
 43
0.0
 10
38.752655245
 20
19.8837472329
 10
38.7101953688
 20
19.8972685701
 10
38.6625739123
 20
19.902555549
 10
38.6144521815
 20
19.8990907357
 10
38.5705408354
 20
19.8872132196
 10
38.5351381844
 20
19.8680857605
 10
38.5117096284
 20
19.8435798036
 10
38.5025485676
 20
19.8160959611
 10
38.5085517115
 20
19.7883223086
 10
38.5291315205
 20
19.7629797747
 10
38.5622734043
 20
19.7425464108
 10
38.6047332804
 20
19.7290250736
 10
38.652354737
 20
19.7237380947
 10
38.7004764677
 20
19.727202908
 10
38.7443878138
 20
19.7390804242
 10
38.7797904648
 20
19.7582078832
 10
38.8032190208
 20
19.7827138401
 10
38.8123800817
 20
19.8101976826
 10
38.8063769377
 20
19.8379713351
 10
38.7857971288
 20
19.863313869
 10
38.752655245
 20
19.8837472329
  0
LWPOLYLINE
  5
29E
330
1F
100
AcDbEntity
  8
0
  6
Continuous
 62
     7
370
    25
100
AcDbPolyline
 90
       21
 70
   128
 43
0.0
 10
38.9779273626
 20
19.3568398265
 10
38.9354675231
 20
19.3703623369
 10
38.8878460299
 20
19.3756493159
 10
38.8397242991
 20
19.3721845026
 10
38.7958129531
 20
19.3603069864
 10
38.760410302
 20
19.3411795274
 10
38.736981746
 20
19.3166735705
 10
38.7278206852
 20
19.289189728
 10
38.7338238292
 20
19.2614160755
 10
38.7544036381
 20
19.2360735416
 10
38.7875455219
 20
19.2156401776
 10
38.8300053981
 20
19.2021188405
 10
38.8776269279
 20
19.1968318616
 10
38.9257485854
 20
19.2002966749
 10
38.9696599314
 20
19.212174191
 10
39.0050626191
 20
19.2313016501
 10
39.0284911385
 20
19.2558064336
 10
39.0376521993
 20
19.2832914495
 10
39.0316490187
 20
19.311065102
 10
39.0110692464
 20
19.3364076359
 10
38.9779273626
 20
19.3568398265
  0
LWPOLYLINE
  5
29F
330
1F
100
AcDbEntity
  8
0
  6
Continuous
 62
     7
370
    25
100
AcDbPolyline
 90
       21
 70
   128
 43
0.0
 10
39.535423619
 20
18.9197969819
 10
39.4929637818
 20
18.9333183191
 10
39.4453422588
 20
18.938605298
 10
39.3972205739
 20
18.9351404847
 10
39.3533092278
 20
18.9232629685
 10
39.3179065401
 20
18.9041355095
 10
39.2944780024
 20
18.8796307259
 10
39.2853169416
 20
18.8521457101
 10
39.2913201223
 20
18.8243732309
 10
39.3118998945
 20
18.7990295237
 10
39.3450417967
 20
18.7785973331
 10
39.387501627
 20
18.7650748226
 10
39.4351231569
 20
18.7597878437
 10
39.4832448326
 20
18.763252657
 10
39.527156189
 20
18.7751301731
 10
39.5625588664
 20
18.7942576322
 10
39.5859874087
 20
18.8187635891
 10
39.5951484649
 20
18.8462474316
 10
39.5891452843
 20
18.8740210841
 10
39.5685655074
 20
18.8993647913
 10
39.535423619
 20
18.9197969819
  0
LWPOLYLINE
  5
2A0
330
1F
100
AcDbEntity
  8
0
  6
Continuous
 62
     7
370
    25
100
AcDbPolyline
 90
       21
 70
   128
 43
0.0
 10
40.340270278
 20
18.6391517973
 10
40.2978104019
 20
18.6526743077
 10
40.250188872
 20
18.6579612867
 10
40.2020672146
 20
18.6544964734
 10
40.1581558685
 20
18.6426189572
 10
40.1227531808
 20
18.6234914982
 10
40.0993246615
 20
18.5989855413
 10
40.0901636006
 20
18.5715005255
 10
40.0961667813
 20
18.5437280463
 10
40.1167465535
 20
18.5183843391
 10
40.1498884373
 20
18.4979521484
 10
40.1923483135
 20
18.4844308113
 10
40.23996977
 20
18.4791426591
 10
40.2880915008
 20
18.4826074724
 10
40.3320028469
 20
18.4944849885
 10
40.3674054979
 20
18.5136136208
 10
40.3908340539
 20
18.5381184044
 10
40.3999951148
 20
18.5656034203
 10
40.3939919708
 20
18.5933758994
 10
40.3734121618
 20
18.6187196067
 10
40.340270278
 20
18.6391517973
  0
LWPOLYLINE
  5
2A1
330
1F
100
AcDbEntity
  8
0
  6
Continuous
 62
     7
370
    25
100
AcDbPolyline
 90
       21
 70
   128
 43
0.0
 10
41.2699367118
 20
18.5576318857
 10
41.2274769089
 20
18.5711532228
 10
41.1798553791
 20
18.5764402017
 10
41.1317337216
 20
18.5729753884
 10
41.0878222289
 20
18.5610978723
 10
41.0524196512
 20
18.5419704133
 10
41.0289910952
 20
18.5174656297
 10
41.019829961
 20
18.4899806139
 10
41.0258332517
 20
18.4622069614
 10
41.0464129873
 20
18.4368644275
 10
41.0795548711
 20
18.4164322368
 10
41.1220146739
 20
18.4029097264
 10
41.1696362038
 20
18.3976227475
 10
41.2177578612
 20
18.4010875608
 10
41.2616692073
 20
18.4129650769
 10
41.2970719316
 20
18.4320925359
 10
41.3205004877
 20
18.4565984928
 10
41.3296614752
 20
18.4840823353
 10
41.3236583312
 20
18.5118559878
 10
41.3030785956
 20
18.537199695
 10
41.2699367118
 20
18.5576318857
  0
LWPOLYLINE
  5
2A2
330
1F
100
AcDbEntity
  8
0
  6
Continuous
 62
     7
370
    25
100
AcDbPolyline
 90
       21
 70
   128
 43
0.0
 10
42.1828894986
 20
18.6876462771
 10
42.1404296958
 20
18.7011676142
 10
42.0928081659
 20
18.7064557665
 10
42.0446865085
 20
18.7029909531
 10
42.0007753091
 20
18.691113437
 10
41.9653725847
 20
18.6719848047
 10
41.9419440287
 20
18.6474800211
 10
41.9327828945
 20
18.6199950053
 10
41.9387861852
 20
18.5922225261
 10
41.9593659208
 20
18.5668788189
 10
41.9925078046
 20
18.5464466282
 10
42.0349676074
 20
18.5329252911
 10
42.0825891373
 20
18.5276371388
 10
42.1307107947
 20
18.5311019522
 10
42.1746222874
 20
18.5429794683
 10
42.2100248651
 20
18.5621069273
 10
42.2334534212
 20
18.5866128842
 10
42.2426144087
 20
18.6140979
 10
42.2366114113
 20
18.6418703792
 10
42.2160313824
 20
18.6672140864
 10
42.1828894986
 20
18.6876462771
  0
LWPOLYLINE
  5
2A3
330
1F
100
AcDbEntity
  8
0
  6
Continuous
 62
     7
370
    25
100
AcDbPolyline
 90
       21
 70
   128
 43
0.0
 10
42.9401401108
 20
19.0094022401
 10
42.8976803079
 20
19.0229247506
 10
42.8500587781
 20
19.0282117295
 10
42.8019371206
 20
19.0247469162
 10
42.7580259212
 20
19.0128694001
 10
42.7226230502
 20
18.993741941
 10
42.6991944942
 20
18.9692359841
 10
42.6900335067
 20
18.9417521416
 10
42.6960367973
 20
18.9139784891
 10
42.7166165329
 20
18.8886347819
 10
42.7497584168
 20
18.8682025913
 10
42.7922182196
 20
18.8546812541
 10
42.8398397495
 20
18.8493942752
 10
42.8879614069
 20
18.8528590885
 10
42.9318728996
 20
18.8647366046
 10
42.9672754773
 20
18.8838640637
 10
42.9907040333
 20
18.9083688473
 10
42.9998650208
 20
18.9358538631
 10
42.9938620235
 20
18.9636275156
 10
42.9732819946
 20
18.9889700495
 10
42.9401401108
 20
19.0094022401
  0
LWPOLYLINE
  5
2A4
330
1F
100
AcDbEntity
  8
0
  6
Continuous
 62
     7
370
    25
100
AcDbPolyline
 90
       21
 70
   128
 43
0.0
 10
43.4264040134
 20
19.4739160207
 10
43.3839442106
 20
19.4874373578
 10
43.3363226807
 20
19.4927255101
 10
43.2882010233
 20
19.4892606968
 10
43.2442895306
 20
19.4773831806
 10
43.2088869529
 20
19.4582545483
 10
43.1854583968
 20
19.4337497647
 10
43.1762974093
 20
19.4062647489
 10
43.1823004067
 20
19.3784922697
 10
43.2028801423
 20
19.3531485625
 10
43.2360223194
 20
19.3327163718
 10
43.2784821222
 20
19.3191938614
 10
43.3261036521
 20
19.3139068825
 10
43.3742253095
 20
19.3173716958
 10
43.4181365089
 20
19.3292492119
 10
43.4535393799
 20
19.3483766709
 10
43.476967936
 20
19.3728826278
 10
43.4861289235
 20
19.4003676437
 10
43.4801256328
 20
19.4281401228
 10
43.4595458972
 20
19.4534838301
 10
43.4264040134
 20
19.4739160207
  0
LWPOLYLINE
  5
2A5
330
1F
100
AcDbEntity
  8
0
  6
Continuous
 62
     7
370
    25
100
AcDbPolyline
 90
       21
 70
   128
 43
0.0
 10
43.5676517684
 20
20.0104681157
 10
43.5251919655
 20
20.0239906262
 10
43.4775704357
 20
20.0292776051
 10
43.4294484849
 20
20.0258127918
 10
43.3855372855
 20
20.0139352757
 10
43.3501347078
 20
19.9948078166
 10
43.3267061518
 20
19.9703018597
 10
43.317544871
 20
19.9428180172
 10
43.3235481616
 20
19.9150443647
 10
43.3441278972
 20
19.8897006575
 10
43.377269781
 20
19.8692684669
 10
43.4197295839
 20
19.8557471297
 10
43.4673511137
 20
19.8504601508
 10
43.5154727712
 20
19.8539249641
 10
43.5593842639
 20
19.8658024802
 10
43.5947868416
 20
19.8849299393
 10
43.6182153976
 20
19.9094347229
 10
43.6273763851
 20
19.9369197387
 10
43.6213733878
 20
19.9646933912
 10
43.6007936522
 20
19.9900359251
 10
43.5676517684
 20
20.0104681157
  0
LWPOLYLINE
  5
2A6
330
1F
100
AcDbEntity
  8
0
  6
Continuous
 62
     7
370
    25
100
AcDbPolyline
 90
       21
 70
   128
 43
0.0
 10
43.3423796507
 20
20.5373749355
 10
43.2999198479
 20
20.5508968593
 10
43.252298318
 20
20.5561838382
 10
43.2041763673
 20
20.5527190249
 10
43.1602651679
 20
20.5408415088
 10
43.1248625902
 20
20.5217140498
 10
43.1014340342
 20
20.4972086795
 10
43.0922727533
 20
20.4697236637
 10
43.098276044
 20
20.4419505979
 10
43.1188557796
 20
20.4166074773
 10
43.1519976634
 20
20.3961752867
 10
43.1944574662
 20
20.3826533629
 10
43.2420789961
 20
20.3773657973
 10
43.2902006535
 20
20.3808306106
 10
43.3341121462
 20
20.3927081267
 10
43.3695147239
 20
20.4118361724
 10
43.39294328
 20
20.4363415427
 10
43.4021042675
 20
20.4638259718
 10
43.3961012701
 20
20.4915990377
 10
43.3755215346
 20
20.5169421582
 10
43.3423796507
 20
20.5373749355
  0
LWPOLYLINE
  5
2A7
330
1F
100
AcDbEntity
  8
0
  6
Continuous
 62
     7
370
    25
100
AcDbPolyline
 90
       21
 70
   128
 43
0.0
 10
42.784883211
 20
20.9744183668
 10
42.7424234082
 20
20.9879402906
 10
42.6948018783
 20
20.9932272695
 10
42.6466802209
 20
20.9897624562
 10
42.6027690215
 20
20.97788494
 10
42.5673661504
 20
20.958757481
 10
42.5439375944
 20
20.9342521108
 10
42.5347766069
 20
20.9067676816
 10
42.5407798976
 20
20.8789940291
 10
42.5613596332
 20
20.8536509085
 10
42.594501517
 20
20.8332187179
 10
42.6369613198
 20
20.8196967941
 10
42.6845828497
 20
20.8144098152
 10
42.7327045071
 20
20.8178746285
 10
42.7766157065
 20
20.8297521446
 10
42.8120185775
 20
20.8488796037
 10
42.8354471335
 20
20.8733849739
 10
42.844608121
 20
20.9008694031
 10
42.8386048304
 20
20.9286424689
 10
42.8180250948
 20
20.9539861761
 10
42.784883211
 20
20.9744183668
  0
LWPOLYLINE
  5
2A8
330
1F
100
AcDbEntity
  8
0
  6
Continuous
 62
     7
370
    25
100
AcDbPolyline
 90
       21
 70
   128
 43
0.0
 10
39.3801666642
 20
20.8848125219
 10
39.3377068247
 20
20.8983344457
 10
39.2900852949
 20
20.9036214246
 10
39.2419636191
 20
20.9001566113
 10
39.198052273
 20
20.8882790952
 10
39.1626495853
 20
20.8691516361
 10
39.1392210293
 20
20.8446462659
 10
39.1300600052
 20
20.8171618367
 10
39.1360631491
 20
20.7893881842
 10
39.1566429581
 20
20.7640450637
 10
39.1897848419
 20
20.743612873
 10
39.232244663
 20
20.7300909492
 10
39.2798661929
 20
20.7248039703
 10
39.3279878687
 20
20.7282687836
 10
39.3718992331
 20
20.7401462998
 10
39.4073019116
 20
20.7592737588
 10
39.4307304493
 20
20.783779129
 10
39.4398915101
 20
20.8112635582
 10
39.4338883295
 20
20.8390372107
 10
39.413308548
 20
20.8643803313
 10
39.3801666642
 20
20.8848125219
  0
LWPOLYLINE
  5
2A9
330
1F
100
AcDbEntity
  8
0
  6
Continuous
 62
     7
370
    25
100
AcDbPolyline
 90
       46
 70
   128
 43
0.0
 10
38.1339112194
 20
19.120184747
 10
38.1434564691
 20
19.0192851126
 10
38.1674710984
 20
18.9032965859
 10
38.2052936481
 20
18.7885412182
 10
38.2567438671
 20
18.6755646033
 10
38.3215763848
 20
18.5649064683
 10
38.3994824715
 20
18.4570936338
 10
38.4900907715
 20
18.3526388404
 10
38.592969503
 20
18.2520407492
 10
38.7076283651
 20
18.1557792479
 10
38.8335210308
 20
18.0643131045
 10
38.970047567
 20
17.9780764474
 10
39.1165572945
 20
17.8974822851
 10
39.272352088
 20
17.8229142932
 10
39.4366894654
 20
17.7547268142
 10
39.608786309
 20
17.6932448578
 10
39.7878224866
 20
17.6387629272
 10
39.9729448114
 20
17.5915391527
 10
40.1632711027
 20
17.5517988118
 10
40.3578944211
 20
17.5197319823
 10
40.5558871472
 20
17.4954911956
 10
40.7563058586
 20
17.4791914372
 10
40.9581956197
 20
17.4709113196
 10
41.1605940149
 20
17.4706895621
 10
41.3625367221
 20
17.4785273383
 10
41.5630613256
 20
17.4943871017
 10
41.7612123032
 20
17.51819376
 10
41.9560452791
 20
17.5498335012
 10
42.1466318641
 20
17.5891549669
 10
42.3320639087
 20
17.6359727728
 10
42.511457463
 20
17.6900616413
 10
42.6839577636
 20
17.7511657887
 10
42.8487431933
 20
17.8189918852
 10
43.0050276279
 20
17.893218441
 10
43.1520671826
 20
17.9734911137
 10
43.2891605055
 20
18.0594262277
 10
43.4156543509
 20
18.1506166409
 10
43.5309465124
 20
18.2466258784
 10
43.634486703
 20
18.3469975189
 10
43.7257821283
 20
18.4512516746
 10
43.8043974868
 20
18.5588932044
 10
43.8699584894
 20
18.6694093678
 10
43.9221521532
 20
18.7822721706
 10
43.9607300275
 20
18.8969442326
 10
43.9855081946
 20
19.0128787866
 10
43.9960138066
 20
19.120184747
  0
LWPOLYLINE
  5
2AA
330
1F
100
AcDbEntity
  8
0
  6
Continuous
 62
     7
370
    25
100
AcDbPolyline
 90
        8
 70
   128
 43
0.0
 10
41.9046518195
 20
26.7416590764
 10
41.9905158009
 20
26.7968969183
 10
42.0655287744
 20
26.8571688887
 10
42.1288108967
 20
26.9217683558
 10
42.1796203364
 20
26.9899379416
 10
42.2173613404
 20
27.0608783221
 10
42.2415915671
 20
27.1337582002
 10
42.2442030836
 20
27.1455881969
  0
LWPOLYLINE
  5
2AB
330
1F
100
AcDbEntity
  8
0
  6
Continuous
 62
     7
370
    25
100
AcDbPolyline
 90
        3
 70
   128
 43
0.0
 10
42.2055630233
 20
27.4169902616
 10
42.2001557791
 20
27.4274504074
 10
42.1749625502
 20
27.4698181047
  0
LWPOLYLINE
  5
2AC
330
1F
100
AcDbEntity
  8
0
  6
Continuous
 62
     7
370
    25
100
AcDbPolyline
 90
       27
 70
   128
 43
0.0
 10
39.9549625491
 20
27.4698181047
 10
39.9503047629
 20
27.4626256544
 10
39.9125636856
 20
27.3916849806
 10
39.8883333855
 20
27.3188053959
 10
39.8778980261
 20
27.2448407836
 10
39.8813798892
 20
27.1706588139
 10
39.8987381653
 20
27.0971289167
 10
39.9297693568
 20
27.0251131886
 10
39.9741096613
 20
26.9554558333
 10
40.0312392247
 20
26.8889737746
 10
40.1004882647
 20
26.8264463903
 10
40.1810448441
 20
26.7686067118
 10
40.2719645871
 20
26.716132918
 10
40.3721814961
 20
26.6696401217
 10
40.4805205645
 20
26.6296733301
 10
40.5957117472
 20
26.5967012843
 10
40.7164044796
 20
26.5711103
 10
40.8411836648
 20
26.5532010402
 10
40.9685865397
 20
26.5431826492
 10
41.0971193215
 20
26.5411730458
 10
41.2252750277
 20
26.5471959896
 10
41.3515512223
 20
26.5611802013
 10
41.474467469
 20
26.5829622964
 10
41.5925826379
 20
26.6122867843
 10
41.7045119182
 20
26.648809589
 10
41.8089430985
 20
26.6921030356
 10
41.9046518195
 20
26.7416590764
  0
LWPOLYLINE
  5
2AD
330
1F
100
AcDbEntity
  8
0
  6
Continuous
 62
     7
370
    25
100
AcDbPolyline
 90
       32
 70
   128
 43
0.0
 10
40.2252732065
 20
12.0421108869
 10
40.2920146422
 20
12.0113640421
 10
40.3632919854
 20
11.9934979018
 10
40.4386870944
 20
11.9886192381
 10
40.5177573344
 20
11.9967550375
 10
40.6000388772
 20
12.0178571937
 10
40.6850486818
 20
12.0518036816
 10
40.7722880873
 20
12.09839269
 10
40.8612449397
 20
12.1573543556
 10
40.9513972582
 20
12.2283390289
 10
41.0422161691
 20
12.3109325281
 10
41.1331683984
 20
12.4046502721
 10
41.2237205257
 20
12.5089408007
 10
41.3133408904
 20
12.6231916408
 10
41.4015036986
 20
12.7467351737
 10
41.4876915163
 20
12.8788439409
 10
41.5713986426
 20
13.0187435514
 10
41.6521337499
 20
13.1656126814
 10
41.7294231104
 20
13.3185889409
 10
41.8028132359
 20
13.4767759135
 10
41.8718732248
 20
13.63924433
 10
41.9361979884
 20
13.805042628
 10
41.9954100111
 20
13.9731946055
 10
42.0491618434
 20
14.1427158472
 10
42.0971380092
 20
14.3126102045
 10
42.1390569116
 20
14.4818827024
 10
42.1746727402
 20
14.6495371923
 10
42.2037760573
 20
14.8145927789
 10
42.2261964383
 20
14.9760779534
 10
42.2418024714
 20
15.1330470201
 10
42.2505020509
 20
15.2845777496
 10
42.2524626682
 20
15.3941212308
  0
LWPOLYLINE
  5
2AE
330
1F
100
AcDbEntity
  8
0
  6
Continuous
 62
     7
370
    25
100
AcDbPolyline
 90
       12
 70
   128
 43
0.0
 10
39.8774625411
 20
13.0187001386
 10
39.8776804119
 20
12.9830394305
 10
39.8829053516
 20
12.845014785
 10
39.8950670677
 20
12.7149792738
 10
39.9140942079
 20
12.5936955549
 10
39.9398750868
 20
12.4818770067
 10
39.972258456
 20
12.3801771682
 10
40.0110542378
 20
12.2891956059
 10
40.0560347349
 20
12.2094650069
 10
40.1069360602
 20
12.1414535259
 10
40.1634594939
 20
12.0855589183
 10
40.2252732065
 20
12.0421108869
  0
LWPOLYLINE
  5
2AF
330
1F
100
AcDbEntity
  8
0
  6
Continuous
 62
     7
370
    25
100
AcDbPolyline
 90
       17
 70
   128
 43
0.0
 10
42.2407057107
 20
27.3054978963
 10
42.2502808801
 20
27.3295465518
 10
42.2595424798
 20
27.341097885
 10
42.2670804727
 20
27.3383930896
 10
42.2717476454
 20
27.3218440008
 10
42.2728329662
 20
27.2939700294
 10
42.2701715836
 20
27.2590147799
 10
42.264168293
 20
27.222299844
 10
42.2557376971
 20
27.1894146239
 10
42.2461625277
 20
27.1653659684
 10
42.236900928
 20
27.1538146352
 10
42.2293629351
 20
27.1565194306
 10
42.2246957623
 20
27.1730685194
 10
42.2236104415
 20
27.2009424908
 10
42.2262718241
 20
27.2358977403
 10
42.2322748214
 20
27.2726126761
 10
42.2407057107
 20
27.3054978963
  0
LWPOLYLINE
  5
2B0
330
1F
100
AcDbEntity
  8
0
  6
Continuous
 62
     7
370
    25
100
AcDbPolyline
 90
       14
 70
   128
 43
0.0
 10
42.1914913992
 20
27.0945942526
 10
42.1878854942
 20
27.0938990607
 10
42.1788526919
 20
27.1013519879
 10
42.1727347092
 20
27.1222892927
 10
42.17007538
 20
27.1548503832
 10
42.171111128
 20
27.1961424395
 10
42.1757501411
 20
27.2424964907
 10
42.1835794106
 20
27.2897933043
 10
42.193904038
 20
27.3338309289
 10
42.2058064872
 20
27.3706960497
 10
42.2182290104
 20
27.3971133446
 10
42.2300678069
 20
27.4107352939
 10
42.2402709957
 20
27.410351325
 10
42.240510353
 20
27.4101480473
  0
LWPOLYLINE
  5
2B1
330
1F
100
AcDbEntity
  8
0
  6
Continuous
 62
     7
370
    25
100
AcDbPolyline
 90
        3
 70
   128
 43
0.0
 10
42.1406150803
 20
27.4031591681
 10
42.152702034
 20
27.4201403319
 10
42.1617492095
 20
27.42376589
  0
LWPOLYLINE
  5
2B2
330
1F
100
AcDbEntity
  8
0
  6
Continuous
 62
     7
370
    25
100
AcDbPolyline
 90
       10
 70
   128
 43
0.0
 10
42.1125313781
 20
27.1055031933
 10
42.1063450495
 20
27.1097016248
 10
42.0994362493
 20
27.1273973404
 10
42.0958775704
 20
27.1572873684
 10
42.0959852225
 20
27.1967153129
 10
42.099749819
 20
27.2421785211
 10
42.1068366705
 20
27.2896369595
 10
42.1166159975
 20
27.3348737169
 10
42.1282192502
 20
27.3738695864
 10
42.1406150803
 20
27.4031591681
  0
LINE
  5
2B3
330
1F
100
AcDbEntity
  8
0
  6
Continuous
 62
     7
370
    25
100
AcDbLine
 10
42.2252410627
 20
27.1849777152
 30
0.0
 11
42.2417256189
 21
27.2161328753
 31
0.0
  0
LINE
  5
2B4
330
1F
100
AcDbEntity
  8
0
  6
Continuous
 62
     7
370
    25
100
AcDbLine
 10
42.2417256189
 20
27.2161328753
 30
0.0
 11
42.2403463815
 21
27.1611484705
 31
0.0
  0
LINE
  5
2B5
330
1F
100
AcDbEntity
  8
0
  6
Continuous
 62
     7
370
    25
100
AcDbLine
 10
42.2403463815
 20
27.1611484705
 30
0.0
 11
42.252335363
 21
27.183806742
 31
0.0
  0
LINE
  5
2B6
330
1F
100
AcDbEntity
  8
0
  6
Continuous
 62
     7
370
    25
100
AcDbLine
 10
42.252335363
 20
27.183806742
 30
0.0
 11
42.2537146004
 21
27.2387911469
 31
0.0
  0
LINE
  5
2B7
330
1F
100
AcDbEntity
  8
0
  6
Continuous
 62
     7
370
    25
100
AcDbLine
 10
42.2537146004
 20
27.2387911469
 30
0.0
 11
42.2701991567
 21
27.2699463069
 31
0.0
  0
LINE
  5
2B8
330
1F
100
AcDbEntity
  8
0
  6
Continuous
 62
     7
370
    25
100
AcDbLine
 10
42.2701991567
 20
27.2699463069
 30
0.0
 11
42.2712023451
 21
27.309934805
 31
0.0
  0
LINE
  5
2B9
330
1F
100
AcDbEntity
  8
0
  6
Continuous
 62
     7
370
    25
100
AcDbLine
 10
42.2712023451
 20
27.309934805
 30
0.0
 11
42.2547177888
 21
27.2787796449
 31
0.0
  0
LINE
  5
2BA
330
1F
100
AcDbEntity
  8
0
  6
Continuous
 62
     7
370
    25
100
AcDbLine
 10
42.2547177888
 20
27.2787796449
 30
0.0
 11
42.2560970262
 21
27.3337640497
 31
0.0
  0
LINE
  5
2BB
330
1F
100
AcDbEntity
  8
0
  6
Continuous
 62
     7
370
    25
100
AcDbLine
 10
42.2560970262
 20
27.3337640497
 30
0.0
 11
42.2441080447
 21
27.3111057781
 31
0.0
  0
LINE
  5
2BC
330
1F
100
AcDbEntity
  8
0
  6
Continuous
 62
     7
370
    25
100
AcDbLine
 10
42.2441080447
 20
27.3111057781
 30
0.0
 11
42.2427288073
 21
27.2561213733
 31
0.0
  0
LINE
  5
2BD
330
1F
100
AcDbEntity
  8
0
  6
Continuous
 62
     7
370
    25
100
AcDbLine
 10
42.2262439578
 20
27.2249662132
 30
0.0
 11
42.2427288073
 21
27.2561213733
 31
0.0
  0
LINE
  5
2BE
330
1F
100
AcDbEntity
  8
0
  6
Continuous
 62
     7
370
    25
100
AcDbLine
 10
42.2262439578
 20
27.2249662132
 30
0.0
 11
42.2252410627
 21
27.1849777152
 31
0.0
  0
LINE
  5
2BF
330
1F
100
AcDbEntity
  8
0
  6
Continuous
 62
     7
370
    25
100
AcDbLine
 10
42.2417256189
 20
27.2161328753
 30
0.0
 11
42.226083213
 21
27.2185519673
 31
0.0
  0
LINE
  5
2C0
330
1F
100
AcDbEntity
  8
0
  6
Continuous
 62
     7
370
    25
100
AcDbLine
 10
42.2547177888
 20
27.2787796449
 30
0.0
 11
42.2433412803
 21
27.2805390379
 31
0.0
  0
LINE
  5
2C1
330
1F
100
AcDbEntity
  8
0
  6
Continuous
 62
     7
370
    25
100
AcDbLine
 10
42.252335363
 20
27.183806742
 30
0.0
 11
42.2412131715
 21
27.1956980447
 31
0.0
  0
LINE
  5
2C2
330
1F
100
AcDbEntity
  8
0
  6
Continuous
 62
     7
370
    25
100
AcDbLine
 10
42.2701991567
 20
27.2699463069
 30
0.0
 11
42.2428863255
 21
27.2624012741
 31
0.0
  0
LINE
  5
2C3
330
1F
100
AcDbEntity
  8
0
  6
Continuous
 62
     7
370
    25
100
AcDbLine
 10
42.2537146004
 20
27.2387911469
 30
0.0
 11
42.2350834557
 21
27.2416722336
 31
0.0
  0
LWPOLYLINE
  5
2C4
330
1F
100
AcDbEntity
  8
0
  6
Continuous
 62
     7
370
    25
100
AcDbPolyline
 90
       17
 70
   128
 43
0.0
 10
40.1782229367
 20
27.0165969403
 10
40.2043825412
 20
27.0049238752
 10
40.2296856222
 20
26.9819227009
 10
40.2502800976
 20
26.9510951903
 10
40.263030637
 20
26.917134916
 10
40.2659960561
 20
26.8852115248
 10
40.2587248467
 20
26.8601852005
 10
40.2423240362
 20
26.8458662993
 10
40.2192905223
 20
26.8444342625
 10
40.1931309178
 20
26.8561073277
 10
40.1678278368
 20
26.8791085019
 10
40.1472333613
 20
26.9099360125
 10
40.134482822
 20
26.9438962868
 10
40.1315174396
 20
26.9758196781
 10
40.1387886122
 20
27.0008460023
 10
40.1551894228
 20
27.0151649035
 10
40.1782229367
 20
27.0165969403
  0
ARC
  5
2C5
330
1F
100
AcDbEntity
  8
0
  6
Continuous
 62
     7
370
    25
100
AcDbCircle
 10
40.2740786627
 20
26.864318188
 30
0.0
 40
0.0651145088254619
100
AcDbArc
 50
261.7504915881
 51
4.5764992488
  0
LWPOLYLINE
  5
2C6
330
1F
100
AcDbEntity
  8
0
  6
Continuous
 62
     7
370
    25
100
AcDbPolyline
 90
       11
 70
   128
 43
0.0
 10
40.1181593772
 20
27.0517146946
 10
40.1274130203
 20
27.0693200646
 10
40.1488036299
 20
27.0874070823
 10
40.177011044
 20
27.0929263786
 10
40.2095287217
 20
27.0853875057
 10
40.2434675096
 20
27.0654598425
 10
40.2758116827
 20
27.0349145154
 10
40.303687414
 20
26.9964651196
 10
40.3246176789
 20
26.9535286556
 10
40.3367429121
 20
26.9099198793
 10
40.3389855662
 20
26.8695136794
  0
LWPOLYLINE
  5
2C7
330
1F
100
AcDbEntity
  8
0
  6
Continuous
 62
     7
370
    25
100
AcDbPolyline
 90
        9
 70
   128
 43
0.0
 10
40.2895673171
 20
27.1030087154
 10
40.3225896689
 20
27.0748965602
 10
40.3518342978
 20
27.0381255983
 10
40.3747027403
 20
26.995963232
 10
40.3891629532
 20
26.9521555781
 10
40.3939301515
 20
26.9105954182
 10
40.3885807666
 20
26.8749751897
 10
40.3735900665
 20
26.8484599227
 10
40.3605640169
 20
26.8379851103
  0
ARC
  5
2C8
330
1F
100
AcDbEntity
  8
0
  6
Continuous
 62
     7
370
    25
100
AcDbCircle
 10
40.2334665612
 20
27.0380495518
 30
0.0
 40
0.0858311584144897
100
AcDbArc
 50
49.185087876
 51
113.250931519
  0
LINE
  5
2C9
330
1F
100
AcDbEntity
  8
0
  6
Continuous
 62
     7
370
    25
100
AcDbLine
 10
40.1359723148
 20
26.9537715328
 30
0.0
 11
40.1810093512
 21
26.9234268433
 31
0.0
  0
LINE
  5
2CA
330
1F
100
AcDbEntity
  8
0
  6
Continuous
 62
     7
370
    25
100
AcDbLine
 10
40.1810093512
 20
26.9234268433
 30
0.0
 11
40.1772412347
 21
26.8735880324
 31
0.0
  0
LINE
  5
2CB
330
1F
100
AcDbEntity
  8
0
  6
Continuous
 62
     7
370
    25
100
AcDbLine
 10
40.1772412347
 20
26.8735880324
 30
0.0
 11
40.2099954096
 21
26.8515190607
 31
0.0
  0
LINE
  5
2CC
330
1F
100
AcDbEntity
  8
0
  6
Continuous
 62
     7
370
    25
100
AcDbLine
 10
40.2099954096
 20
26.8515190607
 30
0.0
 11
40.2137635994
 21
26.9013578716
 31
0.0
  0
LINE
  5
2CD
330
1F
100
AcDbEntity
  8
0
  6
Continuous
 62
     7
370
    25
100
AcDbLine
 10
40.2137635994
 20
26.9013578716
 30
0.0
 11
40.2588006725
 21
26.8710131821
 31
0.0
  0
LINE
  5
2CE
330
1F
100
AcDbEntity
  8
0
  6
Continuous
 62
     7
370
    25
100
AcDbLine
 10
40.2588006725
 20
26.8710131821
 30
0.0
 11
40.2615411809
 21
26.9072593767
 31
0.0
  0
LINE
  5
2CF
330
1F
100
AcDbEntity
  8
0
  6
Continuous
 62
     7
370
    25
100
AcDbLine
 10
40.2615411809
 20
26.9072593767
 30
0.0
 11
40.2165041078
 21
26.9376043595
 31
0.0
  0
LINE
  5
2D0
330
1F
100
AcDbEntity
  8
0
  6
Continuous
 62
     7
370
    25
100
AcDbLine
 10
40.2165041078
 20
26.9376043595
 30
0.0
 11
40.2202722243
 21
26.9874431704
 31
0.0
  0
LINE
  5
2D1
330
1F
100
AcDbEntity
  8
0
  6
Continuous
 62
     7
370
    25
100
AcDbLine
 10
40.2202722243
 20
26.9874431704
 30
0.0
 11
40.1875180493
 21
27.0095121422
 31
0.0
  0
LINE
  5
2D2
330
1F
100
AcDbEntity
  8
0
  6
Continuous
 62
     7
370
    25
100
AcDbLine
 10
40.1875180493
 20
27.0095121422
 30
0.0
 11
40.1837498595
 21
26.9596733312
 31
0.0
  0
LINE
  5
2D3
330
1F
100
AcDbEntity
  8
0
  6
Continuous
 62
     7
370
    25
100
AcDbLine
 10
40.1387127864
 20
26.9900180207
 30
0.0
 11
40.1837498595
 21
26.9596733312
 31
0.0
  0
LINE
  5
2D4
330
1F
100
AcDbEntity
  8
0
  6
Continuous
 62
     7
370
    25
100
AcDbLine
 10
40.1387127864
 20
26.9900180207
 30
0.0
 11
40.1359723148
 21
26.9537715328
 31
0.0
  0
LINE
  5
2D5
330
1F
100
AcDbEntity
  8
0
  6
Continuous
 62
     7
370
    25
100
AcDbLine
 10
40.2588006725
 20
26.8710131821
 30
0.0
 11
40.2589067113
 21
26.9090346096
 31
0.0
  0
LINE
  5
2D6
330
1F
100
AcDbEntity
  8
0
  6
Continuous
 62
     7
370
    25
100
AcDbLine
 10
40.1837498595
 20
26.9596733312
 30
0.0
 11
40.219743277
 21
26.9804466646
 31
0.0
  0
LINE
  5
2D7
330
1F
100
AcDbEntity
  8
0
  6
Continuous
 62
     7
370
    25
100
AcDbLine
 10
40.2137635994
 20
26.9013578716
 30
0.0
 11
40.244215501
 21
26.9189330285
 31
0.0
  0
LINE
  5
2D8
330
1F
100
AcDbEntity
  8
0
  6
Continuous
 62
     7
370
    25
100
AcDbLine
 10
40.1359723148
 20
26.9537715328
 30
0.0
 11
40.217435577
 21
26.9499248039
 31
0.0
  0
LINE
  5
2D9
330
1F
100
AcDbEntity
  8
0
  6
Continuous
 62
     7
370
    25
100
AcDbLine
 10
40.1772412347
 20
26.8735880324
 30
0.0
 11
40.2179131182
 21
26.9366548505
 31
0.0
  0
LINE
  5
2DA
330
1F
100
AcDbEntity
  8
0
  6
Continuous
 62
     7
370
    25
100
AcDbLine
 10
40.1810093512
 20
26.9234268433
 30
0.0
 11
40.2170027687
 21
26.9442001767
 31
0.0
  0
LWPOLYLINE
  5
2DB
330
1F
100
AcDbEntity
  8
0
  6
Continuous
 62
     7
370
    25
100
AcDbPolyline
 90
       18
 70
   128
 43
0.0
 10
41.8286378576
 20
27.900245919
 10
41.9107124562
 20
27.9533606388
 10
41.9817613687
 20
28.0115289935
 10
42.0408585527
 20
28.0739922852
 10
42.087233137
 20
28.1399365234
 10
42.1202811552
 20
28.208501958
 10
42.1395714124
 20
28.2787945193
 10
42.1448525247
 20
28.3498979913
 10
42.1360555596
 20
28.4208855979
 10
42.1132952092
 20
28.4908315898
 10
42.0768683234
 20
28.5588242977
 10
42.0272495099
 20
28.6239772784
 10
41.9650860014
 20
28.685441195
 10
41.891187975
 20
28.7424148169
 10
41.8065188731
 20
28.7941552858
 10
41.7121823496
 20
28.8399882364
 10
41.6094084835
 20
28.8793160087
 10
41.5649625436
 20
28.8934914716
  0
LWPOLYLINE
  5
2DC
330
1F
100
AcDbEntity
  8
0
  6
Continuous
 62
     7
370
    25
100
AcDbPolyline
 90
       33
 70
   128
 43
0.0
 10
40.5649625557
 20
28.8934914716
 10
40.5473736122
 20
28.8880694876
 10
40.4426957415
 20
28.8504515355
 10
40.3461299837
 20
28.8061920801
 10
40.2589353843
 20
28.7558681015
 10
40.1822485235
 20
28.7001357053
 10
40.1170692165
 20
28.6397213232
 10
40.0642471667
 20
28.5754126928
 10
40.0244709295
 20
28.5080480043
 10
39.9982591123
 20
28.4385056343
 10
39.9859534078
 20
28.367692119
 10
39.9877142675
 20
28.2965305678
 10
40.0035186649
 20
28.2259486365
 10
40.0331606091
 20
28.1568666478
 10
40.0762536746
 20
28.0901849781
 10
40.1322360979
 20
28.0267730574
 10
40.2003780007
 20
27.9674576359
 10
40.27979107
 20
27.9130117849
 10
40.3694401077
 20
27.8641453627
 10
40.4681563407
 20
27.8214954821
 10
40.5746527838
 20
27.7856181499
 10
40.687541253
 20
27.756980934
 10
40.8053498921
 20
27.7359572435
 10
40.9265431187
 20
27.722821342
 10
41.0495407645
 20
27.7177442406
 10
41.1727393413
 20
27.7207920854
 10
41.2945330143
 20
27.7319254235
 10
41.4133338419
 20
27.7509987631
 10
41.5275931886
 20
27.7777638006
 10
41.6358213784
 20
27.8118713266
 10
41.7366076408
 20
27.8528769462
 10
41.8286378576
 20
27.900245919
 10
41.8286378576
 20
27.900245919
  0
LWPOLYLINE
  5
2DD
330
1F
100
AcDbEntity
  8
0
  6
Continuous
 62
     7
370
    25
100
AcDbPolyline
 90
       29
 70
   128
 43
0.0
 10
41.8498510392
 20
27.8635035568
 10
41.7570361648
 20
27.8156325498
 10
41.6555181908
 20
27.7740602167
 10
41.5465735427
 20
27.7393094182
 10
41.4315723646
 20
27.7118170691
 10
41.311960773
 20
27.6919290055
 10
41.1892431106
 20
27.6798951445
 10
41.0649625863
 20
27.6758669911
 10
40.9406819154
 20
27.6798951445
 10
40.817964253
 20
27.6919290055
 10
40.6983528081
 20
27.7118170691
 10
40.5833515566
 20
27.7393094182
 10
40.4744069085
 20
27.7740602167
 10
40.3728888612
 20
27.8156325498
 10
40.2800739868
 20
27.8635035568
 10
40.1971295916
 20
27.917071178
 10
40.1250986837
 20
27.9756617811
 10
40.0648871026
 20
28.0385386681
 10
40.0172520429
 20
28.104911168
 10
39.9827925576
 20
28.1739443172
 10
39.9619419685
 20
28.244770299
 10
39.9549625491
 20
28.3164981238
 10
39.9619419685
 20
28.3882260952
 10
39.9827925576
 20
28.459052077
 10
40.0172520429
 20
28.5280852262
 10
40.0648871026
 20
28.5944575794
 10
40.1250986837
 20
28.6573344664
 10
40.1971295916
 20
28.7159252162
 10
40.2796561383
 20
28.7692515735
  0
LWPOLYLINE
  5
2DE
330
1F
100
AcDbEntity
  8
0
  6
Continuous
 62
     7
370
    25
100
AcDbPolyline
 90
       15
 70
   128
 43
0.0
 10
41.8502688877
 20
28.7692515735
 10
41.9327955077
 20
28.7159252162
 10
42.0048264889
 20
28.6573344664
 10
42.0650380334
 20
28.5944575794
 10
42.1126730564
 20
28.5280852262
 10
42.1471325783
 20
28.459052077
 10
42.1679830575
 20
28.3882260952
 10
42.1749625502
 20
28.3164981238
 10
42.1679830575
 20
28.244770299
 10
42.1471325783
 20
28.1739443172
 10
42.1126730564
 20
28.104911168
 10
42.0650380334
 20
28.0385386681
 10
42.0048264889
 20
27.9756617811
 10
41.9327955077
 20
27.917071178
 10
41.8498510392
 20
27.8635035568
  0
LWPOLYLINE
  5
2DF
330
1F
100
AcDbEntity
  8
0
  6
Continuous
 62
     7
370
    25
100
AcDbPolyline
 90
       22
 70
   128
 43
0.0
 10
42.1529237914
 20
27.0992567321
 10
42.1471325783
 20
27.0837278448
 10
42.1126730564
 20
27.0146946956
 10
42.0650380334
 20
26.9483223424
 10
42.0048264889
 20
26.8854453087
 10
41.9327955077
 20
26.8268547056
 10
41.8498510392
 20
26.7732870844
 10
41.7570361648
 20
26.7254162241
 10
41.6555181908
 20
26.6838437443
 10
41.5465735427
 20
26.6490929458
 10
41.4315723646
 20
26.6216005967
 10
41.311960773
 20
26.6017125331
 10
41.1892431106
 20
26.5896786721
 10
41.0649625863
 20
26.5856506653
 10
40.9406819154
 20
26.5896786721
 10
40.817964253
 20
26.6017125331
 10
40.6983528081
 20
26.6216005967
 10
40.5833515566
 20
26.6490929458
 10
40.4744069085
 20
26.6838437443
 10
40.3728888612
 20
26.7254162241
 10
40.2800739868
 20
26.7732870844
 10
40.2223527402
 20
26.8092534422
  0
ARC
  5
2E0
330
1F
100
AcDbEntity
  8
0
  6
Continuous
 62
     7
370
    25
100
AcDbCircle
 10
40.4592226768
 20
27.2610908878
 30
0.0
 40
0.5054601359848454
100
AcDbArc
 50
183.9488648019
 51
236.2222023509
  0
LWPOLYLINE
  5
2E1
330
1F
100
AcDbEntity
  8
0
  6
Continuous
 62
     7
370
    25
100
AcDbPolyline
 90
       20
 70
   128
 43
0.0
 10
40.5649625557
 20
28.3409974807
 10
40.5699822377
 20
28.3002096586
 10
40.5890456042
 20
28.2525169962
 10
40.6218002924
 20
28.2073697044
 10
40.6673039068
 20
28.1660666482
 10
40.7242474623
 20
28.1297959606
 10
40.7909927112
 20
28.0996013094
 10
40.8656196625
 20
28.076351098
 10
40.9459813608
 20
28.0607142653
 10
41.0297657796
 20
28.0531406328
 10
41.11456292
 20
28.0538482912
 10
41.1979330102
 20
28.062816561
 10
41.2774777847
 20
28.0797876049
 10
41.3509089764
 20
28.1042731754
 10
41.4161140231
 20
28.1355688405
 10
41.4712170799
 20
28.1727743707
 10
41.514632845
 20
28.214819405
 10
41.5451124663
 20
28.2604942507
 10
41.5617790337
 20
28.308485083
 10
41.5649625436
 20
28.3409974807
  0
LINE
  5
2E2
330
1F
100
AcDbEntity
  8
0
  6
Continuous
 62
     7
370
    25
100
AcDbLine
 10
40.7730266921
 20
19.1904478287
 30
0.0
 11
40.7735235931
 21
19.1994002586
 31
0.0
  0
LINE
  5
2E3
330
1F
100
AcDbEntity
  8
0
  6
Continuous
 62
     7
370
    25
100
AcDbLine
 10
41.4619672134
 20
19.2175186626
 30
0.0
 11
41.4628659764
 21
19.2020402281
 31
0.0
  0
LINE
  5
2E4
330
1F
100
AcDbEntity
  8
0
  6
Continuous
 62
     7
370
    25
100
AcDbLine
 10
40.0258598468
 20
19.4600731939
 30
0.0
 11
40.029305557
 21
19.5166577136
 31
0.0
  0
LINE
  5
2E5
330
1F
100
AcDbEntity
  8
0
  6
Continuous
 62
     7
370
    25
100
AcDbLine
 10
42.1530672298
 20
19.5725511479
 30
0.0
 11
42.1569740913
 21
19.506440445
 31
0.0
  0
LINE
  5
2E6
330
1F
100
AcDbEntity
  8
0
  6
Continuous
 62
     7
370
    25
100
AcDbLine
 10
39.8142656678
 20
19.7880184188
 30
0.0
 11
39.821751008
 21
20.0173754493
 31
0.0
  0
SPLINE
  5
2E7
330
1F
100
AcDbEntity
  8
0
  6
Continuous
 62
     7
370
    25
100
AcDbSpline
210
0.0
220
0.0
230
1.0
 70
     8
 71
     3
 72
     9
 73
     5
 74
     0
 42
0.00000001
 43
0.00000001
 40
0.0
 40
0.0
 40
0.0
 40
0.0
 40
0.9506880018686235
 40
1.0
 40
1.0
 40
1.0
 40
1.0
 10
42.28080068752617
 20
20.08209224831755
 30
0.0
 10
42.28394955638951
 20
19.96659516201225
 30
0.0
 10
42.28726175645636
 20
19.84510726474387
 30
0.0
 10
42.2904500720279
 20
19.72361607213602
 30
0.0
 10
42.29060729423941
 20
19.71762509867316
 30
0.0
  0
ARC
  5
2E8
330
1F
100
AcDbEntity
  8
0
  6
HIDDEN
 62
     7
370
    18
100
AcDbCircle
 10
41.627462537
 20
31.3251195513
 30
0.0
 40
1.462500000000007
100
AcDbArc
 50
247.380135052
 51
292.619864948
  0
ARC
  5
2E9
330
1F
100
AcDbEntity
  8
0
  6
HIDDEN
 62
     7
370
    18
100
AcDbCircle
 10
40.502462537
 20
28.6251195513
 30
0.0
 40
1.462500000000001
100
AcDbArc
 50
67.380135052
 51
112.619864948
  0
ARC
  5
2EA
330
1F
100
AcDbEntity
  8
0
  6
HIDDEN
 62
     7
370
    18
100
AcDbCircle
 10
41.627462537
 20
32.0751195513
 30
0.0
 40
1.462500000000004
100
AcDbArc
 50
247.380135052
 51
292.619864948
  0
ARC
  5
2EB
330
1F
100
AcDbEntity
  8
0
  6
HIDDEN
 62
     7
370
    18
100
AcDbCircle
 10
40.502462537
 20
29.3751195513
 30
0.0
 40
1.462500000000001
100
AcDbArc
 50
67.380135052
 51
112.619864948
  0
ARC
  5
2EC
330
1F
100
AcDbEntity
  8
0
  6
Continuous
 62
     7
370
    25
100
AcDbCircle
 10
23.1060558363
 20
6.9597581597
 30
0.0
 40
0.0375000000000014
100
AcDbArc
 50
90.0
 51
180.0
  0
ARC
  5
2ED
330
1F
100
AcDbEntity
  8
0
  6
Continuous
 62
     7
370
    25
100
AcDbCircle
 10
25.8060558363
 20
6.9597581597
 30
0.0
 40
0.0374999999999996
100
AcDbArc
 50
0.0
 51
90.0
  0
LINE
  5
2EE
330
1F
100
AcDbEntity
  8
0
  6
Continuous
 62
     7
370
    25
100
AcDbLine
 10
25.8435558363
 20
6.0610081597
 30
0.0
 11
25.8435558363
 21
6.9597581597
 31
0.0
  0
LINE
  5
2EF
330
1F
100
AcDbEntity
  8
0
  6
Continuous
 62
     7
370
    25
100
AcDbLine
 10
25.8435558363
 20
4.2071477803
 30
0.0
 11
25.8435558363
 21
5.8910081597
 31
0.0
  0
LINE
  5
2F0
330
1F
100
AcDbEntity
  8
0
  6
Continuous
 62
     7
370
    25
100
AcDbLine
 10
25.8435558363
 20
3.8097581597
 30
0.0
 11
25.8435558363
 21
4.0383436261
 31
0.0
  0
LINE
  5
2F1
330
1F
100
AcDbEntity
  8
0
  6
Continuous
 62
     7
370
    25
100
AcDbLine
 10
23.0685558363
 20
6.9597581597
 30
0.0
 11
23.0685558363
 21
3.8097581597
 31
0.0
  0
LINE
  5
2F2
330
1F
100
AcDbEntity
  8
0
  6
Continuous
 62
     7
370
    25
100
AcDbLine
 10
23.1060558363
 20
6.9972581597
 30
0.0
 11
25.8060558363
 21
6.9972581597
 31
0.0
  0
LINE
  5
2F3
330
1F
100
AcDbEntity
  8
0
  6
Continuous
 62
     7
370
    25
100
AcDbLine
 10
23.0685558363
 20
3.8097581597
 30
0.0
 11
25.8435558363
 21
3.8097581597
 31
0.0
  0
SPLINE
  5
2F4
330
1F
100
AcDbEntity
  8
0
  6
Continuous
 62
     7
370
    25
100
AcDbSpline
210
0.0
220
0.0
230
1.0
 70
     8
 71
     3
 72
    34
 73
    30
 74
     0
 42
0.00000001
 43
0.00000001
 40
0.0
 40
0.0
 40
0.0
 40
0.0
 40
0.0625000000000001
 40
0.0625000000000001
 40
0.1250000000000001
 40
0.1250000000000001
 40
0.1875000000000002
 40
0.1875000000000002
 40
0.2500000000000002
 40
0.2500000000000002
 40
0.3125000000000002
 40
0.3125000000000002
 40
0.3750000000000002
 40
0.3750000000000002
 40
0.4375000000000002
 40
0.4375000000000002
 40
0.5000000000000001
 40
0.5000000000000001
 40
0.6250000000000002
 40
0.6250000000000002
 40
0.7500000000000002
 40
0.7500000000000002
 40
0.8125000000000001
 40
0.8125000000000001
 40
0.8750000000000001
 40
0.8750000000000001
 40
0.9375
 40
0.9375
 40
1.0
 40
1.0
 40
1.0
 40
1.0
 10
25.84355583627628
 20
5.89100815966153
 30
0.0
 10
25.84355583627628
 20
5.89100815966153
 30
0.0
 10
25.84352151494721
 20
5.891563279058151
 30
0.0
 10
25.84339083814942
 20
5.893738263632071
 30
0.0
 10
25.84329521426869
 20
5.895346085934252
 30
0.0
 10
25.84305387959974
 20
5.89960887649526
 30
0.0
 10
25.84290791602586
 20
5.902272850573818
 30
0.0
 10
25.84259416204667
 20
5.908430548497249
 30
0.0
 10
25.84242503089883
 20
5.911945560788595
 30
0.0
 10
25.84208091333963
 20
5.919883414455737
 30
0.0
 10
25.84191150033961
 20
5.924183015586437
 30
0.0
 10
25.84159770311259
 20
5.933391394201798
 30
0.0
 10
25.84145180975003
 20
5.938361526817902
 30
0.0
 10
25.84121015635151
 20
5.948663030840176
 30
0.0
 10
25.84111452100241
 20
5.95396308458727
 30
0.0
 10
25.84098395056922
 20
5.964858856599641
 30
0.0
 10
25.84094964858179
 20
5.970494172758855
 30
0.0
 10
25.84095005995934
 20
5.987138817714733
 30
0.0
 10
25.84109180241771
 20
5.998323431082393
 30
0.0
 10
25.84157247966469
 20
6.018783303606836
 30
0.0
 10
25.84191331885239
 20
6.028267563539004
 30
0.0
 10
25.84242310174261
 20
6.04002595466364
 30
0.0
 10
25.84259555277974
 20
6.043614635093169
 30
0.0
 10
25.84291022014317
 20
6.049787100624377
 30
0.0
 10
25.84305332052765
 20
6.052397306970248
 30
0.0
 10
25.84329468484015
 20
6.056661141452288
 30
0.0
 10
25.84339205232057
 20
6.058298427666095
 30
0.0
 10
25.84352183024212
 20
6.060458122786304
 30
0.0
 10
25.84355583627628
 20
6.061008159661529
 30
0.0
 10
25.84355583627628
 20
6.061008159661529
 30
0.0
  0
SPLINE
  5
2F5
330
1F
100
AcDbEntity
  8
0
  6
Continuous
 62
     7
370
    25
100
AcDbSpline
210
0.0
220
0.0
230
1.0
 70
     8
 71
     3
 72
    17
 73
    13
 74
     0
 42
0.00000001
 43
0.00000001
 40
0.0
 40
0.0
 40
0.0
 40
0.0
 40
0.0367829129270406
 40
0.1439469936102656
 40
0.251184901453761
 40
0.3585983106854448
 40
0.4660155695098352
 40
0.5732581291689138
 40
0.6804203613538502
 40
0.7877217257820204
 40
0.8951646959146955
 40
1.0
 40
1.0
 40
1.0
 40
1.0
 10
25.84348995031028
 20
4.038343626110244
 30
0.0
 10
25.84350799272969
 20
4.038045973818343
 30
0.0
 10
25.84357860029784
 20
4.036881135333547
 30
0.0
 10
25.84309768333924
 20
4.044744463579938
 30
0.0
 10
25.84225033172714
 20
4.061110664691416
 30
0.0
 10
25.84136581324118
 20
4.085024325252581
 30
0.0
 10
25.84087992475211
 20
4.112976451739657
 30
0.0
 10
25.84099270755073
 20
4.141987402592949
 30
0.0
 10
25.84166035200628
 20
4.168799009317899
 30
0.0
 10
25.84257546602724
 20
4.190195683552654
 30
0.0
 10
25.84338659869843
 20
4.204569780915639
 30
0.0
 10
25.84349547971323
 20
4.206295513553781
 30
0.0
 10
25.84354925146325
 20
4.207147780261507
 30
0.0
  0
SPLINE
  5
2F6
330
1F
100
AcDbEntity
  8
0
  6
Continuous
 62
     7
370
    25
100
AcDbSpline
210
0.0
220
0.0
230
1.0
 70
    11
 71
     3
 72
    56
 73
    52
 74
     0
 42
0.00000001
 43
0.00000001
 40
0.0
 40
0.0
 40
0.0
 40
0.0
 40
0.0312499999999997
 40
0.0312499999999997
 40
0.0624999999999994
 40
0.0624999999999994
 40
0.0937499999999991
 40
0.0937499999999991
 40
0.1249999999999988
 40
0.1249999999999988
 40
0.1874999999999983
 40
0.1874999999999983
 40
0.2499999999999978
 40
0.2499999999999978
 40
0.2812499999999981
 40
0.2812499999999981
 40
0.3124999999999983
 40
0.3124999999999983
 40
0.3437499999999986
 40
0.3437499999999986
 40
0.3749999999999988
 40
0.3749999999999988
 40
0.4062499999999991
 40
0.4062499999999991
 40
0.4374999999999993
 40
0.4374999999999993
 40
0.4687499999999996
 40
0.4687499999999996
 40
0.4999999999999998
 40
0.4999999999999998
 40
0.5625000000000001
 40
0.5625000000000001
 40
0.6250000000000007
 40
0.6250000000000007
 40
0.6562500000000009
 40
0.6562500000000009
 40
0.687500000000001
 40
0.687500000000001
 40
0.7187500000000011
 40
0.7187500000000011
 40
0.7500000000000012
 40
0.7500000000000012
 40
0.812500000000001
 40
0.812500000000001
 40
0.843750000000001
 40
0.843750000000001
 40
0.875000000000001
 40
0.875000000000001
 40
0.9375000000000006
 40
0.9375000000000006
 40
1.0
 40
1.0
 40
1.0
 40
1.0
 10
23.8372210210938
 20
4.122258159661522
 30
0.0
 10
23.8372210210938
 20
4.116641239964051
 30
0.0
 10
23.83672652104879
 20
4.111118446193949
 30
0.0
 10
23.83479107907921
 20
4.100253330898723
 30
0.0
 10
23.83332659805561
 20
4.094854636845731
 30
0.0
 10
23.82951043635071
 20
4.084561597693481
 30
0.0
 10
23.82717769258893
 20
4.079679947669039
 30
0.0
 10
23.82167851169202
 20
4.070441216331379
 30
0.0
 10
23.81848371442923
 20
4.066067960938247
 30
0.0
 10
23.80804361115258
 20
4.054309364912637
 30
0.0
 10
23.79966268533097
 20
4.04797690817619
 30
0.0
 10
23.78170844673823
 20
4.039497740422193
 30
0.0
 10
23.77194933891975
 20
4.037264124695389
 30
0.0
 10
23.75754335735881
 20
4.037255195514017
 30
0.0
 10
23.75268287652477
 20
4.037807065073186
 30
0.0
 10
23.74330620945749
 20
4.039975674278059
 30
0.0
 10
23.73876473642435
 20
4.041580239376652
 30
0.0
 10
23.72997166392282
 20
4.045836015970774
 30
0.0
 10
23.72573469498321
 20
4.048496798655221
 30
0.0
 10
23.71791491476224
 20
4.05464802573521
 30
0.0
 10
23.71428131487376
 20
4.058159706496686
 30
0.0
 10
23.70757854950236
 20
4.066090345480276
 30
0.0
 10
23.70461340799111
 20
4.070388069197981
 30
0.0
 10
23.69943772570706
 20
4.079590815383723
 30
0.0
 10
23.69720533995273
 20
4.08455769804491
 30
0.0
 10
23.69362916948937
 20
4.094855554727745
 30
0.0
 10
23.69228396651085
 20
4.100153778850084
 30
0.0
 10
23.690464274997
 20
4.111045754749761
 30
0.0
 10
23.68999836959353
 20
4.116679983823654
 30
0.0
 10
23.68999338187265
 20
4.13332302678409
 30
0.0
 10
23.69184858899196
 20
4.144507310869937
 30
0.0
 10
23.69893708668926
 20
4.164971275207745
 30
0.0
 10
23.70424594753374
 20
4.174459710910412
 30
0.0
 10
23.71416143379162
 20
4.186226160742936
 30
0.0
 10
23.71785751211024
 20
4.18981798790448
 30
0.0
 10
23.72570139917852
 20
4.19599842155774
 30
0.0
 10
23.729855121212
 20
4.198612629498385
 30
0.0
 10
23.73863660043029
 20
4.202885021742074
 30
0.0
 10
23.74326791640502
 20
4.204527465720784
 30
0.0
 10
23.75261279132004
 20
4.206697318312131
 30
0.0
 10
23.75737536634767
 20
4.207252526792883
 30
0.0
 10
23.77194665424015
 20
4.207269298718115
 30
0.0
 10
23.78157434613047
 20
4.205070784734199
 30
0.0
 10
23.79514513891172
 20
4.198678396317139
 30
0.0
 10
23.79944668766937
 20
4.19607073675376
 30
0.0
 10
23.80760420316668
 20
4.18991487484192
 30
0.0
 10
23.81148209423791
 20
4.186328766522087
 30
0.0
 10
23.8219347014133
 20
4.174572364475357
 30
0.0
 10
23.82759335148903
 20
4.165100472387165
 30
0.0
 10
23.83519310710949
 20
4.144652179595386
 30
0.0
 10
23.8372210210938
 20
4.133491999056464
 30
0.0
 10
23.8372210210938
 20
4.122258159661522
 30
0.0
  0
SPLINE
  5
2F7
330
1F
100
AcDbEntity
  8
0
  6
Continuous
 62
     7
370
    25
100
AcDbSpline
210
0.0
220
0.0
230
1.0
 70
     8
 71
     3
 72
    15
 73
    11
 74
     0
 42
0.00000001
 43
0.00000001
 40
0.0
 40
0.0
 40
0.0
 40
0.0
 40
0.0571283598924758
 40
0.1925219633371315
 40
0.3281704236235478
 40
0.4638248310068063
 40
0.5992255089659904
 40
0.7345092128642364
 40
0.8699947893298483
 40
1.0
 40
1.0
 40
1.0
 40
1.0
 10
23.78721466783252
 20
4.202097355586802
 30
0.0
 10
23.7838555943613
 20
4.201139253360096
 30
0.0
 10
23.77253555260114
 20
4.197910459078056
 30
0.0
 10
23.75676681473262
 20
4.18296958872854
 30
0.0
 10
23.74260826613376
 20
4.159634403081924
 30
0.0
 10
23.73603882231827
 20
4.131544427749185
 30
0.0
 10
23.73749220985095
 20
4.102524929854233
 30
0.0
 10
23.74693832073053
 20
4.075898676594407
 30
0.0
 10
23.76288172633473
 20
4.054080475368692
 30
0.0
 10
23.77744595401658
 20
4.046251636740538
 30
0.0
 10
23.78457774758446
 20
4.042418020417592
 30
0.0
  0
LINE
  5
2F8
330
1F
100
AcDbEntity
  8
0
  6
Continuous
 62
     7
370
    25
100
AcDbLine
 10
25.8435558363
 20
6.9597581597
 30
0.0
 11
23.0685558363
 21
6.9597581597
 31
0.0
  0
DIMENSION
  5
2F9
330
1F
100
AcDbEntity
  8
SLD-0
100
AcDbDimension
  2
_D_13
 10
19.6855892005
 20
3.8097581597
 30
0.0
 11
19.6855892005
 21
5.8306967313
 31
0.0
 70
   160
  1
<>
 71
     2
 42
-1.0
  3
SLDDIMSTYLE4
100
AcDbAlignedDimension
 13
23.1998058363
 23
6.9972581597
 33
0.0
 14
23.0685558363
 24
3.8097581597
 34
0.0
 50
90.0
100
AcDbRotatedDimension
  0
MTEXT
  5
30E
330
1F
100
AcDbEntity
  8
SLD-0
100
AcDbMText
 10
23.0401920019
 20
2.6045535318
 30
0.0
 40
0.625
 41
0.0
 71
     1
 72
     1
  1
B/E CAP
  7
SLDTEXTSTYLE0
 73
     1
 44
1.0
  0
LINE
  5
30F
330
1F
100
AcDbEntity
  8
0
  6
Continuous
 62
     7
370
    25
100
AcDbLine
 10
14.3052883614
 20
6.0421477803
 30
0.0
 11
14.3052883614
 21
6.9660081597
 31
0.0
  0
LINE
  5
310
330
1F
100
AcDbEntity
  8
0
  6
Continuous
 62
     7
370
    25
100
AcDbLine
 10
14.3052883614
 20
4.2071477803
 30
0.0
 11
14.3052883614
 21
5.8733436261
 31
0.0
  0
LINE
  5
311
330
1F
100
AcDbEntity
  8
0
  6
Continuous
 62
     7
370
    25
100
AcDbLine
 10
14.3052883614
 20
3.8097581597
 30
0.0
 11
14.3052883614
 21
4.0383436261
 31
0.0
  0
LINE
  5
312
330
1F
100
AcDbEntity
  8
0
  6
Continuous
 62
     7
370
    25
100
AcDbLine
 10
11.5302883614
 20
9.7410081597
 30
0.0
 11
11.5302883614
 21
3.8097581597
 31
0.0
  0
LINE
  5
313
330
1F
100
AcDbEntity
  8
0
  6
Continuous
 62
     7
370
    25
100
AcDbLine
 10
11.5302883614
 20
9.7410081597
 30
0.0
 11
14.3052883614
 21
6.9660081597
 31
0.0
  0
LINE
  5
314
330
1F
100
AcDbEntity
  8
0
  6
Continuous
 62
     7
370
    25
100
AcDbLine
 10
11.5302883614
 20
3.8097581597
 30
0.0
 11
14.3052883614
 21
3.8097581597
 31
0.0
  0
SPLINE
  5
315
330
1F
100
AcDbEntity
  8
0
  6
Continuous
 62
     7
370
    25
100
AcDbSpline
210
0.0
220
0.0
230
1.0
 70
     8
 71
     3
 72
    17
 73
    13
 74
     0
 42
0.00000001
 43
0.00000001
 40
0.0
 40
0.0
 40
0.0
 40
0.0
 40
0.0367829129270423
 40
0.1439469936102601
 40
0.2511849014537288
 40
0.3585983106853201
 40
0.466015569509807
 40
0.5732581291689193
 40
0.6804203613538308
 40
0.7877217257820066
 40
0.8951646959147179
 40
1.0
 40
1.0
 40
1.0
 40
1.0
 10
14.30522247545033
 20
5.87334362611027
 30
0.0
 10
14.30524051786974
 20
5.873045973818371
 30
0.0
 10
14.3053111254379
 20
5.871881135333584
 30
0.0
 10
14.30483020847929
 20
5.879744463579956
 30
0.0
 10
14.30398285686716
 20
5.896110664691447
 30
0.0
 10
14.30309833838123
 20
5.920024325252578
 30
0.0
 10
14.30261244989217
 20
5.947976451739674
 30
0.0
 10
14.30272523269077
 20
5.976987402592967
 30
0.0
 10
14.30339287714633
 20
6.003799009317928
 30
0.0
 10
14.30430799116727
 20
6.025195683552672
 30
0.0
 10
14.3051191238385
 20
6.039569780915684
 30
0.0
 10
14.30522800485328
 20
6.041295513553805
 30
0.0
 10
14.30528177660329
 20
6.042147780261519
 30
0.0
  0
SPLINE
  5
316
330
1F
100
AcDbEntity
  8
0
  6
Continuous
 62
     7
370
    25
100
AcDbSpline
210
0.0
220
0.0
230
1.0
 70
     8
 71
     3
 72
    17
 73
    13
 74
     0
 42
0.00000001
 43
0.00000001
 40
0.0
 40
0.0
 40
0.0
 40
0.0
 40
0.0367829129270418
 40
0.1439469936102701
 40
0.2511849014537372
 40
0.3585983106853455
 40
0.4660155695098315
 40
0.5732581291689433
 40
0.6804203613538341
 40
0.7877217257820012
 40
0.8951646959147004
 40
1.0
 40
1.0
 40
1.0
 40
1.0
 10
14.30522247545033
 20
4.038343626110259
 30
0.0
 10
14.30524051786974
 20
4.03804597381836
 30
0.0
 10
14.30531112543791
 20
4.03688113533357
 30
0.0
 10
14.30483020847928
 20
4.044744463579959
 30
0.0
 10
14.30398285686718
 20
4.061110664691445
 30
0.0
 10
14.30309833838122
 20
4.085024325252583
 30
0.0
 10
14.30261244989218
 20
4.112976451739677
 30
0.0
 10
14.30272523269078
 20
4.14198740259297
 30
0.0
 10
14.30339287714632
 20
4.168799009317927
 30
0.0
 10
14.30430799116728
 20
4.190195683552671
 30
0.0
 10
14.30511912383847
 20
4.204569780915667
 30
0.0
 10
14.30522800485328
 20
4.206295513553812
 30
0.0
 10
14.3052817766033
 20
4.20714778026154
 30
0.0
  0
SPLINE
  5
317
330
1F
100
AcDbEntity
  8
0
  6
Continuous
 62
     7
370
    25
100
AcDbSpline
210
0.0
220
0.0
230
1.0
 70
    11
 71
     3
 72
    56
 73
    52
 74
     0
 42
0.00000001
 43
0.00000001
 40
0.0
 40
0.0
 40
0.0
 40
0.0
 40
0.0312500000000001
 40
0.0312500000000001
 40
0.0625000000000002
 40
0.0625000000000002
 40
0.0937500000000002
 40
0.0937500000000002
 40
0.1250000000000003
 40
0.1250000000000003
 40
0.1875000000000006
 40
0.1875000000000006
 40
0.2500000000000009
 40
0.2500000000000009
 40
0.2812500000000011
 40
0.2812500000000011
 40
0.3125000000000012
 40
0.3125000000000012
 40
0.3437500000000013
 40
0.3437500000000013
 40
0.3750000000000015
 40
0.3750000000000015
 40
0.4062500000000016
 40
0.4062500000000016
 40
0.4375000000000017
 40
0.4375000000000017
 40
0.4687500000000019
 40
0.4687500000000019
 40
0.500000000000002
 40
0.500000000000002
 40
0.562500000000002
 40
0.562500000000002
 40
0.6250000000000021
 40
0.6250000000000021
 40
0.656250000000002
 40
0.656250000000002
 40
0.6875000000000021
 40
0.6875000000000021
 40
0.7187500000000022
 40
0.7187500000000022
 40
0.7500000000000023
 40
0.7500000000000023
 40
0.812500000000002
 40
0.812500000000002
 40
0.8437500000000018
 40
0.8437500000000018
 40
0.8750000000000014
 40
0.8750000000000014
 40
0.9375000000000008
 40
0.9375000000000008
 40
1.0
 40
1.0
 40
1.0
 40
1.0
 10
12.29895354623383
 20
4.122258159661571
 30
0.0
 10
12.29895354623383
 20
4.1166412399641
 30
0.0
 10
12.29845904618883
 20
4.111118446193998
 30
0.0
 10
12.29652360421925
 20
4.100253330898768
 30
0.0
 10
12.29505912319566
 20
4.094854636845778
 30
0.0
 10
12.29124296149075
 20
4.08456159769352
 30
0.0
 10
12.28891021772897
 20
4.079679947669075
 30
0.0
 10
12.28341103683206
 20
4.070441216331409
 30
0.0
 10
12.28021623956928
 20
4.066067960938277
 30
0.0
 10
12.26977613629263
 20
4.054309364912674
 30
0.0
 10
12.26139521047103
 20
4.047976908176228
 30
0.0
 10
12.24344097187829
 20
4.039497740422226
 30
0.0
 10
12.23368186405981
 20
4.037264124695415
 30
0.0
 10
12.21927588249886
 20
4.037255195514041
 30
0.0
 10
12.21441540166481
 20
4.03780706507321
 30
0.0
 10
12.20503873459753
 20
4.039975674278082
 30
0.0
 10
12.20049726156439
 20
4.041580239376676
 30
0.0
 10
12.19170418906286
 20
4.045836015970796
 30
0.0
 10
12.18746722012325
 20
4.048496798655243
 30
0.0
 10
12.17964743990228
 20
4.054648025735229
 30
0.0
 10
12.17601384001381
 20
4.058159706496703
 30
0.0
 10
12.16931107464241
 20
4.066090345480291
 30
0.0
 10
12.16634593313115
 20
4.070388069198001
 30
0.0
 10
12.1611702508471
 20
4.079590815383748
 30
0.0
 10
12.15893786509277
 20
4.08455769804494
 30
0.0
 10
12.15536169462941
 20
4.09485555472778
 30
0.0
 10
12.15401649165089
 20
4.100153778850121
 30
0.0
 10
12.15219680013704
 20
4.111045754749803
 30
0.0
 10
12.15173089473357
 20
4.116679983823703
 30
0.0
 10
12.15172590701269
 20
4.133323026784133
 30
0.0
 10
12.15358111413201
 20
4.144507310869986
 30
0.0
 10
12.16066961182931
 20
4.164971275207787
 30
0.0
 10
12.16597847267379
 20
4.174459710910456
 30
0.0
 10
12.17589395893167
 20
4.186226160742979
 30
0.0
 10
12.1795900372503
 20
4.189817987904521
 30
0.0
 10
12.18743392431858
 20
4.195998421557779
 30
0.0
 10
12.19158764635206
 20
4.198612629498422
 30
0.0
 10
12.20036912557035
 20
4.202885021742108
 30
0.0
 10
12.20500044154508
 20
4.204527465720817
 30
0.0
 10
12.2143453164601
 20
4.20669731831216
 30
0.0
 10
12.21910789148774
 20
4.207252526792909
 30
0.0
 10
12.23367917938021
 20
4.207269298718136
 30
0.0
 10
12.24330687127052
 20
4.205070784734221
 30
0.0
 10
12.25687766405177
 20
4.198678396317157
 30
0.0
 10
12.26117921280942
 20
4.196070736753775
 30
0.0
 10
12.26933672830673
 20
4.189914874841929
 30
0.0
 10
12.27321461937796
 20
4.186328766522099
 30
0.0
 10
12.28366722655335
 20
4.174572364475359
 30
0.0
 10
12.28932587662907
 20
4.165100472387167
 30
0.0
 10
12.29692563224952
 20
4.144652179595418
 30
0.0
 10
12.29895354623383
 20
4.133491999056513
 30
0.0
 10
12.29895354623383
 20
4.122258159661571
 30
0.0
  0
SPLINE
  5
318
330
1F
100
AcDbEntity
  8
0
  6
Continuous
 62
     7
370
    25
100
AcDbSpline
210
0.0
220
0.0
230
1.0
 70
     8
 71
     3
 72
    15
 73
    11
 74
     0
 42
0.00000001
 43
0.00000001
 40
0.0
 40
0.0
 40
0.0
 40
0.0
 40
0.0571283598924428
 40
0.1925219633372622
 40
0.328170423623575
 40
0.4638248310067293
 40
0.5992255089659319
 40
0.7345092128641588
 40
0.869994789329764
 40
1.0
 40
1.0
 40
1.0
 40
1.0
 10
12.24894719297254
 20
4.202097355586834
 30
0.0
 10
12.24558811950133
 20
4.201139253360126
 30
0.0
 10
12.23426807774116
 20
4.197910459078076
 30
0.0
 10
12.21849933987264
 20
4.182969588728549
 30
0.0
 10
12.20434079127378
 20
4.159634403081939
 30
0.0
 10
12.19777134745834
 20
4.131544427749207
 30
0.0
 10
12.19922473499095
 20
4.102524929854257
 30
0.0
 10
12.2086708458706
 20
4.075898676594443
 30
0.0
 10
12.22461425147478
 20
4.054080475368728
 30
0.0
 10
12.23917847915663
 20
4.046251636740568
 30
0.0
 10
12.24631027272452
 20
4.042418020417616
 30
0.0
  0
DIMENSION
  5
319
330
1F
100
AcDbEntity
  8
SLD-0
100
AcDbDimension
  2
_D_14
 10
8.7820888283
 20
3.8097581597
 30
0.0
 11
8.7820888283
 21
6.9036893809
 31
0.0
 70
   160
  1
<>
 71
     2
 42
-1.0
  3
SLDDIMSTYLE5
100
AcDbAlignedDimension
 13
11.5302883614
 23
9.7410081597
 33
0.0
 14
11.5302883614
 24
3.8097581597
 34
0.0
 50
90.0
100
AcDbRotatedDimension
  0
MTEXT
  5
32E
330
1F
100
AcDbEntity
  8
SLD-0
100
AcDbMText
 10
11.1584572233
 20
2.7287774376
 30
0.0
 40
0.625
 41
0.0
 71
     1
 72
     1
  1
A/D CAP
  7
SLDTEXTSTYLE0
 73
     1
 44
1.0
  0
LINE
  5
32F
330
1F
100
AcDbEntity
  8
0
  6
Continuous
 62
     7
370
    25
100
AcDbLine
 10
37.0345922238
 20
4.2061726932
 30
0.0
 11
37.0345922238
 21
5.8347581597
 31
0.0
  0
LINE
  5
330
330
1F
100
AcDbEntity
  8
0
  6
Continuous
 62
     7
370
    25
100
AcDbLine
 10
37.0345922238
 20
3.8097581597
 30
0.0
 11
37.0345922238
 21
4.0373685391
 31
0.0
  0
LINE
  5
331
330
1F
100
AcDbEntity
  8
0
  6
Continuous
 62
     7
370
    25
100
AcDbLine
 10
34.2595922238
 20
5.8347581597
 30
0.0
 11
34.2595922238
 21
3.8097581597
 31
0.0
  0
ARC
  5
332
330
1F
100
AcDbEntity
  8
0
  6
Continuous
 62
     7
370
    25
100
AcDbCircle
 10
34.2970922238
 20
5.8347581597
 30
0.0
 40
0.0375000000000014
100
AcDbArc
 50
90.0
 51
180.0
  0
ARC
  5
333
330
1F
100
AcDbEntity
  8
0
  6
Continuous
 62
     7
370
    25
100
AcDbCircle
 10
36.9970922238
 20
5.8347581597
 30
0.0
 40
0.0375000000000014
100
AcDbArc
 50
0.0
 51
90.0
  0
SPLINE
  5
334
330
1F
100
AcDbEntity
  8
0
  6
Continuous
 62
     7
370
    25
100
AcDbSpline
210
0.0
220
0.0
230
1.0
 70
     8
 71
     3
 72
    17
 73
    13
 74
     0
 42
0.00000001
 43
0.00000001
 40
0.0
 40
0.0
 40
0.0
 40
0.0
 40
0.036782912927044
 40
0.1439469936102864
 40
0.2511849014537318
 40
0.3585983106853131
 40
0.4660155695097964
 40
0.5732581291689361
 40
0.6804203613538425
 40
0.787721725781984
 40
0.8951646959147097
 40
0.9999999999999999
 40
0.9999999999999999
 40
0.9999999999999999
 40
0.9999999999999999
 10
37.03452633787477
 20
4.206172693212797
 30
0.0
 10
37.03454438029417
 20
4.206470345504697
 30
0.0
 10
37.03461498786233
 20
4.207635183989492
 30
0.0
 10
37.03413407090375
 20
4.199771855743076
 30
0.0
 10
37.03328671929162
 20
4.183405654631608
 30
0.0
 10
37.03240220080566
 20
4.159491994070474
 30
0.0
 10
37.03191631231661
 20
4.131539867583379
 30
0.0
 10
37.03202909511524
 20
4.102528916730082
 30
0.0
 10
37.03269673957078
 20
4.075717310005118
 30
0.0
 10
37.03361185359172
 20
4.054320635770385
 30
0.0
 10
37.03442298626295
 20
4.039946538407362
 30
0.0
 10
37.03453186727773
 20
4.038220805769233
 30
0.0
 10
37.03458563902773
 20
4.037368539061513
 30
0.0
  0
SPLINE
  5
335
330
1F
100
AcDbEntity
  8
0
  6
Continuous
 62
     7
370
    25
100
AcDbSpline
210
0.0
220
0.0
230
1.0
 70
    11
 71
     3
 72
    56
 73
    52
 74
     0
 42
0.00000001
 43
0.00000001
 40
0.0
 40
0.0
 40
0.0
 40
0.0
 40
0.0312499999999999
 40
0.0312499999999999
 40
0.0624999999999998
 40
0.0624999999999998
 40
0.0937499999999996
 40
0.0937499999999996
 40
0.1249999999999995
 40
0.1249999999999995
 40
0.187499999999999
 40
0.187499999999999
 40
0.2499999999999984
 40
0.2499999999999984
 40
0.2812499999999986
 40
0.2812499999999986
 40
0.3124999999999988
 40
0.3124999999999988
 40
0.3437499999999989
 40
0.3437499999999989
 40
0.3749999999999991
 40
0.3749999999999991
 40
0.4062499999999992
 40
0.4062499999999992
 40
0.4374999999999994
 40
0.4374999999999994
 40
0.4687499999999996
 40
0.4687499999999996
 40
0.4999999999999998
 40
0.4999999999999998
 40
0.5625000000000001
 40
0.5625000000000001
 40
0.6250000000000004
 40
0.6250000000000004
 40
0.6562500000000006
 40
0.6562500000000006
 40
0.6875000000000007
 40
0.6875000000000007
 40
0.7187500000000008
 40
0.7187500000000008
 40
0.7500000000000008
 40
0.7500000000000008
 40
0.812500000000001
 40
0.812500000000001
 40
0.8437500000000007
 40
0.8437500000000007
 40
0.8750000000000003
 40
0.8750000000000003
 40
0.9375000000000002
 40
0.9375000000000002
 40
1.0
 40
1.0
 40
1.0
 40
1.0
 10
35.02825740865827
 20
4.12225815966153
 30
0.0
 10
35.02825740865827
 20
4.127875079359002
 30
0.0
 10
35.02776290861327
 20
4.133397873129105
 30
0.0
 10
35.0258274666437
 20
4.144262988424336
 30
0.0
 10
35.02436298562009
 20
4.14966168247733
 30
0.0
 10
35.02054682391519
 20
4.15995472162958
 30
0.0
 10
35.01821408015341
 20
4.164836371654022
 30
0.0
 10
35.0127148992565
 20
4.174075102991681
 30
0.0
 10
35.00952010199372
 20
4.178448358384814
 30
0.0
 10
34.99907999871706
 20
4.19020695441042
 30
0.0
 10
34.99069907289546
 20
4.196539411146865
 30
0.0
 10
34.97274483430272
 20
4.205018578900862
 30
0.0
 10
34.96298572648424
 20
4.207252194627668
 30
0.0
 10
34.9485797449233
 20
4.20726112380904
 30
0.0
 10
34.94371926408925
 20
4.206709254249872
 30
0.0
 10
34.93434259702197
 20
4.204540645044998
 30
0.0
 10
34.92980112398883
 20
4.202936079946405
 30
0.0
 10
34.9210080514873
 20
4.198680303352283
 30
0.0
 10
34.9167710825477
 20
4.196019520667837
 30
0.0
 10
34.90895130232673
 20
4.189868293587848
 30
0.0
 10
34.90531770243825
 20
4.186356612826373
 30
0.0
 10
34.89861493706685
 20
4.178425973842783
 30
0.0
 10
34.8956497955556
 20
4.174128250125077
 30
0.0
 10
34.89047411327154
 20
4.164925503939331
 30
0.0
 10
34.88824172751722
 20
4.159958621278142
 30
0.0
 10
34.88466555705386
 20
4.149660764595311
 30
0.0
 10
34.88332035407534
 20
4.144362540472973
 30
0.0
 10
34.88150066256149
 20
4.133470564573298
 30
0.0
 10
34.88103475715801
 20
4.127836335499405
 30
0.0
 10
34.88102976943714
 20
4.111193292538964
 30
0.0
 10
34.88288497655645
 20
4.100009008453116
 30
0.0
 10
34.88997347425375
 20
4.079545044115309
 30
0.0
 10
34.89528233509822
 20
4.070056608412643
 30
0.0
 10
34.9051978213561
 20
4.05829015858012
 30
0.0
 10
34.90889389967473
 20
4.054698331418576
 30
0.0
 10
34.916737786743
 20
4.048517897765317
 30
0.0
 10
34.92089150877649
 20
4.045903689824673
 30
0.0
 10
34.92967298799477
 20
4.041631297580984
 30
0.0
 10
34.9343043039695
 20
4.039988853602273
 30
0.0
 10
34.94364917888453
 20
4.037819001010926
 30
0.0
 10
34.94841175391216
 20
4.037263792530174
 30
0.0
 10
34.96298304180464
 20
4.037247020604942
 30
0.0
 10
34.97261073369496
 20
4.039445534588856
 30
0.0
 10
34.9861815264762
 20
4.045837923005917
 30
0.0
 10
34.99048307523385
 20
4.048445582569297
 30
0.0
 10
34.99864059073116
 20
4.054601444481138
 30
0.0
 10
35.0025184818024
 20
4.058187552800972
 30
0.0
 10
35.01297108897778
 20
4.069943954847701
 30
0.0
 10
35.01862973905352
 20
4.079415846935893
 30
0.0
 10
35.02622949467397
 20
4.099864139727668
 30
0.0
 10
35.02825740865827
 20
4.111024320266585
 30
0.0
 10
35.02825740865827
 20
4.122258159661529
 30
0.0
  0
LINE
  5
336
330
1F
100
AcDbEntity
  8
0
  6
Continuous
 62
     7
370
    25
100
AcDbLine
 10
37.0345922238
 20
3.8097581597
 30
0.0
 11
34.2595922238
 21
3.8097581597
 31
0.0
  0
LINE
  5
337
330
1F
100
AcDbEntity
  8
0
  6
Continuous
 62
     7
370
    25
100
AcDbLine
 10
36.9970922238
 20
5.8722581597
 30
0.0
 11
34.2970922238
 21
5.8722581597
 31
0.0
  0
SPLINE
  5
338
330
1F
100
AcDbEntity
  8
0
  6
Continuous
 62
     7
370
    25
100
AcDbSpline
210
0.0
220
0.0
230
1.0
 70
     8
 71
     3
 72
    15
 73
    11
 74
     0
 42
0.00000001
 43
0.00000001
 40
0.0
 40
0.0
 40
0.0
 40
0.0
 40
0.0497024519631802
 40
0.1853791834858234
 40
0.3213113047934388
 40
0.4572493856342409
 40
0.5929332064651726
 40
0.728499808625183
 40
0.8642687054978339
 40
1.0
 40
1.0
 40
1.0
 40
1.0
 10
34.97694687362741
 20
4.201654264836444
 30
0.0
 10
34.97403541712121
 20
4.200809375617216
 30
0.0
 10
34.9631763265018
 20
4.197658125177649
 30
0.0
 10
34.94781557020777
 20
4.182936360489009
 30
0.0
 10
34.93364144432626
 20
4.159643492715524
 30
0.0
 10
34.92707566680158
 20
4.131541333116384
 30
0.0
 10
34.92852996890065
 20
4.102528229347064
 30
0.0
 10
34.93796876768037
 20
4.07588856967452
 30
0.0
 10
34.95415706530921
 20
4.053821353124889
 30
0.0
 10
34.969032841481
 20
4.045853429220917
 30
0.0
 10
34.9764696994305
 20
4.041870019041704
 30
0.0
  0
LINE
  5
339
330
1F
100
AcDbEntity
  8
0
  6
Continuous
 62
     7
370
    25
100
AcDbLine
 10
37.0345922238
 20
5.8347581597
 30
0.0
 11
34.2595922238
 21
5.8347581597
 31
0.0
  0
DIMENSION
  5
33A
330
1F
100
AcDbEntity
  8
SLD-0
100
AcDbDimension
  2
_D_15
 10
30.8787207723
 20
5.8722581597
 30
0.0
 11
30.8787207723
 21
5.3892227473
 31
0.0
 70
   160
  1
<>
 71
     2
 42
-1.0
  3
SLDDIMSTYLE4
100
AcDbAlignedDimension
 13
34.2595922238
 23
3.8097581597
 33
0.0
 14
34.2970922238
 24
5.8722581597
 34
0.0
 50
90.0
100
AcDbRotatedDimension
  0
MTEXT
  5
34E
330
1F
100
AcDbEntity
  8
SLD-0
100
AcDbMText
 10
34.1888279651
 20
2.7265596937
 30
0.0
 40
0.625
 41
0.0
 71
     1
 72
     1
  1
C CAP
  7
SLDTEXTSTYLE0
 73
     1
 44
1.0
  0
ARC
  5
34F
330
1F
100
AcDbEntity
  8
0
  6
Continuous
 62
     7
370
    25
100
AcDbCircle
 10
43.656933309
 20
6.2722581597
 30
0.0
 40
0.0375000000000014
100
AcDbArc
 50
90.0
 51
180.0
  0
ARC
  5
350
330
1F
100
AcDbEntity
  8
0
  6
Continuous
 62
     7
370
    25
100
AcDbCircle
 10
46.356933309
 20
6.2722581597
 30
0.0
 40
0.0375000000000014
100
AcDbArc
 50
0.0
 51
90.0
  0
LINE
  5
351
330
1F
100
AcDbEntity
  8
0
  6
Continuous
 62
     7
370
    25
100
AcDbLine
 10
46.394433309
 20
4.2071477803
 30
0.0
 11
46.394433309
 21
6.2722581597
 31
0.0
  0
LINE
  5
352
330
1F
100
AcDbEntity
  8
0
  6
Continuous
 62
     7
370
    25
100
AcDbLine
 10
46.394433309
 20
3.8097581597
 30
0.0
 11
46.394433309
 21
4.0383436261
 31
0.0
  0
LINE
  5
353
330
1F
100
AcDbEntity
  8
0
  6
Continuous
 62
     7
370
    25
100
AcDbLine
 10
43.619433309
 20
6.2722581597
 30
0.0
 11
43.619433309
 21
3.8097581597
 31
0.0
  0
LINE
  5
354
330
1F
100
AcDbEntity
  8
0
  6
Continuous
 62
     7
370
    25
100
AcDbLine
 10
46.356933309
 20
6.3097581597
 30
0.0
 11
43.656933309
 21
6.3097581597
 31
0.0
  0
LINE
  5
355
330
1F
100
AcDbEntity
  8
0
  6
Continuous
 62
     7
370
    25
100
AcDbLine
 10
43.619433309
 20
3.8097581597
 30
0.0
 11
46.394433309
 21
3.8097581597
 31
0.0
  0
SPLINE
  5
356
330
1F
100
AcDbEntity
  8
0
  6
Continuous
 62
     7
370
    25
100
AcDbSpline
210
0.0
220
0.0
230
1.0
 70
     8
 71
     3
 72
    17
 73
    13
 74
     0
 42
0.00000001
 43
0.00000001
 40
0.0
 40
0.0
 40
0.0
 40
0.0
 40
0.0367829129271058
 40
0.1439469936103513
 40
0.2511849014537928
 40
0.3585983106853391
 40
0.4660155695098214
 40
0.5732581291689364
 40
0.6804203613538151
 40
0.7877217257819782
 40
0.8951646959146732
 40
1.0
 40
1.0
 40
1.0
 40
1.0
 10
46.39436742307188
 20
4.038343626110278
 30
0.0
 10
46.39438546549129
 20
4.038045973818378
 30
0.0
 10
46.39445607305944
 20
4.03688113533359
 30
0.0
 10
46.39397515610085
 20
4.044744463579973
 30
0.0
 10
46.39312780448871
 20
4.061110664691464
 30
0.0
 10
46.39224328600278
 20
4.085024325252593
 30
0.0
 10
46.39175739751371
 20
4.112976451739683
 30
0.0
 10
46.39187018031233
 20
4.141987402592977
 30
0.0
 10
46.39253782476788
 20
4.168799009317934
 30
0.0
 10
46.39345293878882
 20
4.190195683552672
 30
0.0
 10
46.39426407146004
 20
4.204569780915675
 30
0.0
 10
46.39437295247482
 20
4.206295513553816
 30
0.0
 10
46.39442672422484
 20
4.207147780261542
 30
0.0
  0
SPLINE
  5
357
330
1F
100
AcDbEntity
  8
0
  6
Continuous
 62
     7
370
    25
100
AcDbSpline
210
0.0
220
0.0
230
1.0
 70
    11
 71
     3
 72
    56
 73
    52
 74
     0
 42
0.00000001
 43
0.00000001
 40
0.0
 40
0.0
 40
0.0
 40
0.0
 40
0.0312500000000001
 40
0.0312500000000001
 40
0.0625000000000001
 40
0.0625000000000001
 40
0.0937500000000002
 40
0.0937500000000002
 40
0.1250000000000002
 40
0.1250000000000002
 40
0.1875000000000006
 40
0.1875000000000006
 40
0.2500000000000008
 40
0.2500000000000008
 40
0.2812500000000007
 40
0.2812500000000007
 40
0.3125000000000006
 40
0.3125000000000006
 40
0.3437500000000005
 40
0.3437500000000005
 40
0.3750000000000004
 40
0.3750000000000004
 40
0.4062500000000003
 40
0.4062500000000003
 40
0.4375000000000002
 40
0.4375000000000002
 40
0.4687500000000001
 40
0.4687500000000001
 40
0.5
 40
0.5
 40
0.5624999999999998
 40
0.5624999999999998
 40
0.6249999999999996
 40
0.6249999999999996
 40
0.6562499999999998
 40
0.6562499999999998
 40
0.6874999999999998
 40
0.6874999999999998
 40
0.7187499999999999
 40
0.7187499999999999
 40
0.7499999999999999
 40
0.7499999999999999
 40
0.8124999999999997
 40
0.8124999999999997
 40
0.8437499999999997
 40
0.8437499999999997
 40
0.8749999999999998
 40
0.8749999999999998
 40
0.9374999999999999
 40
0.9374999999999999
 40
1.0
 40
1.0
 40
1.0
 40
1.0
 10
44.38809849385539
 20
4.122258159661528
 30
0.0
 10
44.38809849385539
 20
4.116641239964058
 30
0.0
 10
44.38760399381039
 20
4.111118446193955
 30
0.0
 10
44.38566855184082
 20
4.100253330898729
 30
0.0
 10
44.38420407081722
 20
4.094854636845738
 30
0.0
 10
44.38038790911232
 20
4.084561597693484
 30
0.0
 10
44.37805516535053
 20
4.07967994766904
 30
0.0
 10
44.37255598445362
 20
4.070441216331377
 30
0.0
 10
44.36936118719083
 20
4.066067960938245
 30
0.0
 10
44.35892108391419
 20
4.054309364912642
 30
0.0
 10
44.35054015809258
 20
4.047976908176196
 30
0.0
 10
44.33258591949985
 20
4.039497740422197
 30
0.0
 10
44.32282681168136
 20
4.03726412469539
 30
0.0
 10
44.30842083012043
 20
4.037255195514017
 30
0.0
 10
44.30356034928638
 20
4.037807065073185
 30
0.0
 10
44.2941836822191
 20
4.039975674278058
 30
0.0
 10
44.28964220918596
 20
4.041580239376651
 30
0.0
 10
44.28084913668442
 20
4.045836015970772
 30
0.0
 10
44.27661216774482
 20
4.04849679865522
 30
0.0
 10
44.26879238752384
 20
4.054648025735209
 30
0.0
 10
44.26515878763537
 20
4.058159706496684
 30
0.0
 10
44.25845602226397
 20
4.066090345480275
 30
0.0
 10
44.25549088075271
 20
4.070388069197984
 30
0.0
 10
44.25031519846866
 20
4.079590815383732
 30
0.0
 10
44.24808281271433
 20
4.084557698044923
 30
0.0
 10
44.24450664225097
 20
4.094855554727753
 30
0.0
 10
44.24316143927246
 20
4.10015377885009
 30
0.0
 10
44.24134174775861
 20
4.111045754749764
 30
0.0
 10
44.24087584235513
 20
4.116679983823659
 30
0.0
 10
44.24087085463426
 20
4.133323026784104
 30
0.0
 10
44.24272606175357
 20
4.144507310869954
 30
0.0
 10
44.24981455945087
 20
4.164971275207753
 30
0.0
 10
44.25512342029535
 20
4.174459710910418
 30
0.0
 10
44.26503890655322
 20
4.186226160742943
 30
0.0
 10
44.26873498487186
 20
4.189817987904486
 30
0.0
 10
44.27657887194012
 20
4.195998421557743
 30
0.0
 10
44.2807325939736
 20
4.198612629498386
 30
0.0
 10
44.2895140731919
 20
4.202885021742073
 30
0.0
 10
44.29414538916662
 20
4.204527465720785
 30
0.0
 10
44.30349026408165
 20
4.206697318312131
 30
0.0
 10
44.30825283910928
 20
4.207252526792884
 30
0.0
 10
44.32282412700176
 20
4.207269298718114
 30
0.0
 10
44.33245181889207
 20
4.205070784734199
 30
0.0
 10
44.34602261167332
 20
4.198678396317139
 30
0.0
 10
44.35032416043097
 20
4.19607073675376
 30
0.0
 10
44.35848167592828
 20
4.189914874841919
 30
0.0
 10
44.36235956699952
 20
4.186328766522087
 30
0.0
 10
44.3728121741749
 20
4.174572364475357
 30
0.0
 10
44.37847082425063
 20
4.165100472387165
 30
0.0
 10
44.38607057987109
 20
4.144652179595388
 30
0.0
 10
44.38809849385539
 20
4.133491999056469
 30
0.0
 10
44.38809849385539
 20
4.122258159661529
 30
0.0
  0
SPLINE
  5
358
330
1F
100
AcDbEntity
  8
0
  6
Continuous
 62
     7
370
    25
100
AcDbSpline
210
0.0
220
0.0
230
1.0
 70
     8
 71
     3
 72
    16
 73
    12
 74
     0
 42
0.00000001
 43
0.00000001
 40
0.0
 40
0.0
 40
0.0
 40
0.0
 40
0.0495715766868947
 40
0.1848910475713751
 40
0.3204652357546626
 40
0.4560453677786874
 40
0.5913719093040536
 40
0.7265815408156291
 40
0.8619929343625481
 40
0.9976101416485808
 40
1.0
 40
1.0
 40
1.0
 40
1.0
 10
44.33678795882449
 20
4.042862054486598
 30
0.0
 10
44.33387650909306
 20
4.043706917712457
 30
0.0
 10
44.32301744374203
 20
4.046858071202499
 30
0.0
 10
44.30765624118732
 20
4.061581548099748
 30
0.0
 10
44.29348403794424
 20
4.084867039113075
 30
0.0
 10
44.28691113791485
 20
4.112996526268359
 30
0.0
 10
44.28839195185709
 20
4.141907909658007
 30
0.0
 10
44.29773188319772
 20
4.168926902950732
 30
0.0
 10
44.31429951932613
 20
4.189589126233652
 30
0.0
 10
44.3283944471328
 20
4.201193569422305
 30
0.0
 10
44.33663408578104
 20
4.202725153422885
 30
0.0
 10
44.33677677100622
 20
4.202751675751998
 30
0.0
  0
LINE
  5
359
330
1F
100
AcDbEntity
  8
0
  6
Continuous
 62
     7
370
    25
100
AcDbLine
 10
46.394433309
 20
6.2722581597
 30
0.0
 11
43.619433309
 21
6.2722581597
 31
0.0
  0
DIMENSION
  5
35A
330
1F
100
AcDbEntity
  8
SLD-0
100
AcDbDimension
  2
_D_16
 10
41.3439989669
 20
3.8097581597
 30
0.0
 11
41.3439989669
 21
5.0597581597
 31
0.0
 70
   160
  1
<>
 71
     2
 42
-1.0
  3
SLDDIMSTYLE6
100
AcDbAlignedDimension
 13
43.894433309
 23
6.3097581597
 33
0.0
 14
43.619433309
 24
3.8097581597
 34
0.0
 50
90.0
100
AcDbRotatedDimension
  0
MTEXT
  5
36F
330
1F
100
AcDbEntity
  8
SLD-0
100
AcDbMText
 10
43.6563834022
 20
2.9419883977
 30
0.0
 40
0.625
 41
0.0
 71
     1
 72
     1
  1
F CAP
  7
SLDTEXTSTYLE0
 73
     1
 44
1.0
  0
ENDSEC
  0
SECTION
  2
OBJECTS
  0
DICTIONARY
  5
C
330
0
100
AcDbDictionary
281
     1
  3
ACAD_GROUP
350
D
  3
ACAD_LAYOUT
350
1A
  3
ACAD_MLINESTYLE
350
17
  3
ACAD_PLOTSETTINGS
350
19
  3
ACAD_PLOTSTYLENAME
350
E
  3
ACAD_SCALELIST
350
47
  3
DWGPROPS
350
370
  0
DICTIONARY
  5
D
102
{ACAD_REACTORS
330
C
102
}
330
C
100
AcDbDictionary
281
     1
  0
DICTIONARY
  5
1A
102
{ACAD_REACTORS
330
C
102
}
330
C
100
AcDbDictionary
281
     1
  3
Layout1
350
1E
  3
Layout2
350
26
  3
Model
350
22
  0
DICTIONARY
  5
17
102
{ACAD_REACTORS
330
C
102
}
330
C
100
AcDbDictionary
281
     1
  3
Standard
350
18
  0
DICTIONARY
  5
19
102
{ACAD_REACTORS
330
C
102
}
330
C
100
AcDbDictionary
281
     1
  0
ACDBDICTIONARYWDFLT
  5
E
102
{ACAD_REACTORS
330
C
102
}
330
C
100
AcDbDictionary
281
     1
  3
Normal
350
F
100
AcDbDictionaryWithDefault
340
F
  0
DICTIONARY
  5
47
102
{ACAD_REACTORS
330
C
102
}
330
C
100
AcDbDictionary
281
     1
  3
A0
350
48
  3
A1
350
49
  3
A2
350
4A
  3
A3
350
4B
  3
A4
350
4C
  3
A5
350
4D
  3
A6
350
4E
  3
A7
350
4F
  3
A8
350
50
  3
A9
350
51
  3
B1
350
52
  3
B2
350
53
  3
B3
350
54
  3
B4
350
55
  3
B5
350
56
  3
B6
350
57
  3
B7
350
58
  0
XRECORD
  5
370
102
{ACAD_REACTORS
330
C
102
}
330
C
100
AcDbXrecord
280
     1
  1
DWGPROPS COOKIE
  2

  3

  4

  6

  7

  8
gurisher.rai
  9

300
=
301
=
302
=
303
=
304
=
305
=
306
=
307
=
308
=
309
=
 40
0.0
 41
2460476.624630961
 42
2460476.624631864
  1

 90
        0
  0
LAYOUT
  5
1E
102
{ACAD_REACTORS
330
1A
102
}
330
1A
100
AcDbPlotSettings
  1

  2
none_device
  4

  6

 40
0.0
 41
0.0
 42
0.0
 43
0.0
 44
0.0
 45
0.0
 46
0.0
 47
0.0
 48
0.0
 49
0.0
140
0.0
141
0.0
142
1.0
143
1.0
 70
   688
 72
     0
 73
     0
 74
     5
  7

 75
    16
147
1.0
148
0.0
149
0.0
100
AcDbLayout
  1
Layout1
 70
     1
 71
     1
 10
0.0
 20
0.0
 11
12.0
 21
9.0
 12
0.0
 22
0.0
 32
0.0
 14
1.0000000000E+20
 24
1.0000000000E+20
 34
1.0000000000E+20
 15
-1.0000000000E+20
 25
-1.0000000000E+20
 35
-1.0000000000E+20
146
0.0
 13
0.0
 23
0.0
 33
0.0
 16
1.0
 26
0.0
 36
0.0
 17
0.0
 27
1.0
 37
0.0
 76
     0
330
1B
  0
LAYOUT
  5
26
102
{ACAD_REACTORS
330
1A
102
}
330
1A
100
AcDbPlotSettings
  1

  2
none_device
  4

  6

 40
0.0
 41
0.0
 42
0.0
 43
0.0
 44
0.0
 45
0.0
 46
0.0
 47
0.0
 48
0.0
 49
0.0
140
0.0
141
0.0
142
1.0
143
1.0
 70
   688
 72
     0
 73
     0
 74
     5
  7

 75
    16
147
1.0
148
0.0
149
0.0
100
AcDbLayout
  1
Layout2
 70
     1
 71
     2
 10
0.0
 20
0.0
 11
0.0
 21
0.0
 12
0.0
 22
0.0
 32
0.0
 14
0.0
 24
0.0
 34
0.0
 15
0.0
 25
0.0
 35
0.0
146
0.0
 13
0.0
 23
0.0
 33
0.0
 16
1.0
 26
0.0
 36
0.0
 17
0.0
 27
1.0
 37
0.0
 76
     0
330
23
  0
LAYOUT
  5
22
102
{ACAD_REACTORS
330
1A
102
}
330
1A
100
AcDbPlotSettings
  1

  2
none_device
  4
Letter_(8.50_x_11.00_Inches)
  6

 40
6.35
 41
6.35
 42
6.35000508
 43
6.35000508
 44
215.9
 45
279.4
 46
0.0
 47
0.0
 48
0.0
 49
0.0
140
0.0
141
0.0
142
1.0
143
1.0
 70
  1712
 72
     0
 73
     0
 74
     0
  7

 75
     0
147
1.0
148
0.0
149
0.0
100
AcDbLayout
  1
Model
 70
     1
 71
     0
 10
0.0
 20
0.0
 11
55.0
 21
42.5
 12
0.0
 22
0.0
 32
0.0
 14
0.0
 24
0.0
 34
0.0
 15
55.0
 25
42.5
 35
0.0
146
0.0
 13
0.0
 23
0.0
 33
0.0
 16
1.0
 26
0.0
 36
0.0
 17
0.0
 27
1.0
 37
0.0
 76
     0
330
1F
331
29
  0
MLINESTYLE
  5
18
102
{ACAD_REACTORS
330
17
102
}
330
17
100
AcDbMlineStyle
  2
Standard
 70
     0
  3

 62
   256
 51
90.0
 52
90.0
 71
     2
 49
0.5
 62
   256
  6
BYLAYER
 49
-0.5
 62
   256
  6
BYLAYER
  0
ACDBPLACEHOLDER
  5
F
102
{ACAD_REACTORS
330
E
102
}
330
E
  0
SCALE
  5
48
102
{ACAD_REACTORS
330
47
102
}
330
47
100
AcDbScale
 70
     0
300
1:1
140
1.0
141
1.0
290
     1
  0
SCALE
  5
49
102
{ACAD_REACTORS
330
47
102
}
330
47
100
AcDbScale
 70
     0
300
1/128" = 1'-0"
140
0.0078125
141
12.0
290
     0
  0
SCALE
  5
4A
102
{ACAD_REACTORS
330
47
102
}
330
47
100
AcDbScale
 70
     0
300
1/64" = 1'-0"
140
0.015625
141
12.0
290
     0
  0
SCALE
  5
4B
102
{ACAD_REACTORS
330
47
102
}
330
47
100
AcDbScale
 70
     0
300
1/32" = 1'-0"
140
0.03125
141
12.0
290
     0
  0
SCALE
  5
4C
102
{ACAD_REACTORS
330
47
102
}
330
47
100
AcDbScale
 70
     0
300
1/16" = 1'-0"
140
0.0625
141
12.0
290
     0
  0
SCALE
  5
4D
102
{ACAD_REACTORS
330
47
102
}
330
47
100
AcDbScale
 70
     0
300
3/32" = 1'-0"
140
0.09375
141
12.0
290
     0
  0
SCALE
  5
4E
102
{ACAD_REACTORS
330
47
102
}
330
47
100
AcDbScale
 70
     0
300
1/8" = 1'-0"
140
0.125
141
12.0
290
     0
  0
SCALE
  5
4F
102
{ACAD_REACTORS
330
47
102
}
330
47
100
AcDbScale
 70
     0
300
3/16" = 1'-0"
140
0.1875
141
12.0
290
     0
  0
SCALE
  5
50
102
{ACAD_REACTORS
330
47
102
}
330
47
100
AcDbScale
 70
     0
300
1/4" = 1'-0"
140
0.25
141
12.0
290
     0
  0
SCALE
  5
51
102
{ACAD_REACTORS
330
47
102
}
330
47
100
AcDbScale
 70
     0
300
3/8" = 1'-0"
140
0.375
141
12.0
290
     0
  0
SCALE
  5
52
102
{ACAD_REACTORS
330
47
102
}
330
47
100
AcDbScale
 70
     0
300
1/2" = 1'-0"
140
0.5
141
12.0
290
     0
  0
SCALE
  5
53
102
{ACAD_REACTORS
330
47
102
}
330
47
100
AcDbScale
 70
     0
300
3/4" = 1'-0"
140
0.75
141
12.0
290
     0
  0
SCALE
  5
54
102
{ACAD_REACTORS
330
47
102
}
330
47
100
AcDbScale
 70
     0
300
1" = 1'-0"
140
1.0
141
12.0
290
     0
  0
SCALE
  5
55
102
{ACAD_REACTORS
330
47
102
}
330
47
100
AcDbScale
 70
     0
300
1-1/2" = 1'-0"
140
1.5
141
12.0
290
     0
  0
SCALE
  5
56
102
{ACAD_REACTORS
330
47
102
}
330
47
100
AcDbScale
 70
     0
300
3" = 1'-0"
140
3.0
141
12.0
290
     0
  0
SCALE
  5
57
102
{ACAD_REACTORS
330
47
102
}
330
47
100
AcDbScale
 70
     0
300
6" = 1'-0"
140
6.0
141
12.0
290
     0
  0
SCALE
  5
58
102
{ACAD_REACTORS
330
47
102
}
330
47
100
AcDbScale
 70
     0
300
1'-0" = 1'-0"
140
12.0
141
12.0
290
     0
  0
ENDSEC
  0
EOF
