  0
SECTION
  2
HEADER
  9
$ACADVER
  1
AC1015
  9
$ACADMAINTVER
 70
     6
  9
$DWGCODEPAGE
  3
ANSI_1252
  9
$INSBASE
 10
0.0
 20
0.0
 30
0.0
  9
$EXTMIN
 10
0.0
 20
0.0
 30
0.0
  9
$EXTMAX
 10
55.0
 20
42.5
 30
0.0
  9
$LIMMIN
 10
0.0
 20
0.0
  9
$LIMMAX
 10
55.0
 20
42.5
  9
$ORTHOMODE
 70
     0
  9
$REGENMODE
 70
     1
  9
$FILLMODE
 70
     1
  9
$QTEXTMODE
 70
     0
  9
$MIRRTEXT
 70
     1
  9
$LTSCALE
 40
5.0
  9
$ATTMODE
 70
     1
  9
$TEXTSIZE
 40
0.625
  9
$TRACEWID
 40
0.05
  9
$TEXTSTYLE
  7
STANDARD
  9
$CLAYER
  8
0
  9
$CELTYPE
  6
ByLayer
  9
$CECOLOR
 62
   256
  9
$CELTSCALE
 40
1.0
  9
$DISPSILH
 70
     0
  9
$DIMSCALE
 40
1.0
  9
$DIMASZ
 40
0.65
  9
$DIMEXO
 40
0.25
  9
$DIMDLI
 40
0.38
  9
$DIMRND
 40
0.0
  9
$DIMDLE
 40
0.0
  9
$DIMEXE
 40
0.625
  9
$DIMTP
 40
0.0
  9
$DIMTM
 40
0.0
  9
$DIMTXT
 40
0.625
  9
$DIMCEN
 40
0.09
  9
$DIMTSZ
 40
0.0
  9
$DIMTOL
 70
     0
  9
$DIMLIM
 70
     0
  9
$DIMTIH
 70
     1
  9
$DIMTOH
 70
     1
  9
$DIMSE1
 70
     0
  9
$DIMSE2
 70
     0
  9
$DIMTAD
 70
     0
  9
$DIMZIN
 70
     1
  9
$DIMBLK
  1

  9
$DIMASO
 70
     1
  9
$DIMSHO
 70
     1
  9
$DIMPOST
  1

  9
$DIMAPOST
  1

  9
$DIMALT
 70
     0
  9
$DIMALTD
 70
     2
  9
$DIMALTF
 40
25.4
  9
$DIMLFAC
 40
1.0
  9
$DIMTOFL
 70
     0
  9
$DIMTVP
 40
0.0
  9
$DIMTIX
 70
     0
  9
$DIMSOXD
 70
     0
  9
$DIMSAH
 70
     0
  9
$DIMBLK1
  1

  9
$DIMBLK2
  1

  9
$DIMSTYLE
  2
Standard
  9
$DIMCLRD
 70
     0
  9
$DIMCLRE
 70
     0
  9
$DIMCLRT
 70
     0
  9
$DIMTFAC
 40
1.0
  9
$DIMGAP
 40
0.3
  9
$DIMJUST
 70
     0
  9
$DIMSD1
 70
     0
  9
$DIMSD2
 70
     0
  9
$DIMTOLJ
 70
     1
  9
$DIMTZIN
 70
     1
  9
$DIMALTZ
 70
     0
  9
$DIMALTTZ
 70
     0
  9
$DIMUPT
 70
     0
  9
$DIMDEC
 70
     0
  9
$DIMTDEC
 70
     0
  9
$DIMALTU
 70
     2
  9
$DIMALTTD
 70
     2
  9
$DIMTXSTY
  7
STANDARD
  9
$DIMAUNIT
 70
     0
  9
$DIMADEC
 70
     0
  9
$DIMALTRND
 40
0.0
  9
$DIMAZIN
 70
     0
  9
$DIMDSEP
 70
    46
  9
$DIMATFIT
 70
     3
  9
$DIMFRAC
 70
     0
  9
$DIMLDRBLK
  1

  9
$DIMLUNIT
 70
     2
  9
$DIMLWD
 70
    -2
  9
$DIMLWE
 70
    -2
  9
$DIMTMOVE
 70
     0
  9
$LUNITS
 70
     2
  9
$LUPREC
 70
     6
  9
$SKETCHINC
 40
0.1
  9
$FILLETRAD
 40
0.0
  9
$AUNITS
 70
     0
  9
$AUPREC
 70
     2
  9
$MENU
  1
.
  9
$ELEVATION
 40
0.0
  9
$PELEVATION
 40
0.0
  9
$THICKNESS
 40
0.0
  9
$LIMCHECK
 70
     0
  9
$CHAMFERA
 40
0.0
  9
$CHAMFERB
 40
0.0
  9
$CHAMFERC
 40
0.0
  9
$CHAMFERD
 40
0.0
  9
$SKPOLY
 70
     0
  9
$TDCREATE
 40
2460476.334168785
  9
$TDUCREATE
 40
2460476.625835452
  9
$TDUPDATE
 40
2460476.33416978
  9
$TDUUPDATE
 40
2460476.625836447
  9
$TDINDWG
 40
0.0000000116
  9
$TDUSRTIMER
 40
0.0000000116
  9
$USRTIMER
 70
     1
  9
$ANGBASE
 50
0.0
  9
$ANGDIR
 70
     0
  9
$PDMODE
 70
     0
  9
$PDSIZE
 40
-1.0
  9
$PLINEWID
 40
0.0
  9
$SPLFRAME
 70
     0
  9
$SPLINETYPE
 70
     6
  9
$SPLINESEGS
 70
     8
  9
$HANDSEED
  5
3C3
  9
$SURFTAB1
 70
     6
  9
$SURFTAB2
 70
     6
  9
$SURFTYPE
 70
     6
  9
$SURFU
 70
     6
  9
$SURFV
 70
     6
  9
$UCSBASE
  2

  9
$UCSNAME
  2

  9
$UCSORG
 10
0.0
 20
0.0
 30
0.0
  9
$UCSXDIR
 10
1.0
 20
0.0
 30
0.0
  9
$UCSYDIR
 10
0.0
 20
1.0
 30
0.0
  9
$UCSORTHOREF
  2

  9
$UCSORTHOVIEW
 70
     0
  9
$UCSORGTOP
 10
0.0
 20
0.0
 30
0.0
  9
$UCSORGBOTTOM
 10
0.0
 20
0.0
 30
0.0
  9
$UCSORGLEFT
 10
0.0
 20
0.0
 30
0.0
  9
$UCSORGRIGHT
 10
0.0
 20
0.0
 30
0.0
  9
$UCSORGFRONT
 10
0.0
 20
0.0
 30
0.0
  9
$UCSORGBACK
 10
0.0
 20
0.0
 30
0.0
  9
$PUCSBASE
  2

  9
$PUCSNAME
  2

  9
$PUCSORG
 10
0.0
 20
0.0
 30
0.0
  9
$PUCSXDIR
 10
1.0
 20
0.0
 30
0.0
  9
$PUCSYDIR
 10
0.0
 20
1.0
 30
0.0
  9
$PUCSORTHOREF
  2

  9
$PUCSORTHOVIEW
 70
     0
  9
$PUCSORGTOP
 10
0.0
 20
0.0
 30
0.0
  9
$PUCSORGBOTTOM
 10
0.0
 20
0.0
 30
0.0
  9
$PUCSORGLEFT
 10
0.0
 20
0.0
 30
0.0
  9
$PUCSORGRIGHT
 10
0.0
 20
0.0
 30
0.0
  9
$PUCSORGFRONT
 10
0.0
 20
0.0
 30
0.0
  9
$PUCSORGBACK
 10
0.0
 20
0.0
 30
0.0
  9
$USERI1
 70
     0
  9
$USERI2
 70
     0
  9
$USERI3
 70
     0
  9
$USERI4
 70
     0
  9
$USERI5
 70
     0
  9
$USERR1
 40
0.0
  9
$USERR2
 40
0.0
  9
$USERR3
 40
0.0
  9
$USERR4
 40
0.0
  9
$USERR5
 40
0.0
  9
$WORLDVIEW
 70
     1
  9
$SHADEDGE
 70
     3
  9
$SHADEDIF
 70
    70
  9
$TILEMODE
 70
     1
  9
$MAXACTVP
 70
    64
  9
$PINSBASE
 10
0.0
 20
0.0
 30
0.0
  9
$PLIMCHECK
 70
     0
  9
$PEXTMIN
 10
1.0000000000E+20
 20
1.0000000000E+20
 30
1.0000000000E+20
  9
$PEXTMAX
 10
-1.0000000000E+20
 20
-1.0000000000E+20
 30
-1.0000000000E+20
  9
$PLIMMIN
 10
0.0
 20
0.0
  9
$PLIMMAX
 10
12.0
 20
9.0
  9
$UNITMODE
 70
     0
  9
$VISRETAIN
 70
     1
  9
$PLINEGEN
 70
     0
  9
$PSLTSCALE
 70
     1
  9
$TREEDEPTH
 70
  3020
  9
$CMLSTYLE
  2
Standard
  9
$CMLJUST
 70
     0
  9
$CMLSCALE
 40
1.0
  9
$PROXYGRAPHICS
 70
     1
  9
$MEASUREMENT
 70
     0
  9
$CELWEIGHT
370
    -1
  9
$ENDCAPS
280
     0
  9
$JOINSTYLE
280
     0
  9
$LWDISPLAY
290
     1
  9
$INSUNITS
 70
     1
  9
$HYPERLINKBASE
  1

  9
$STYLESHEET
  1

  9
$XEDIT
290
     1
  9
$CEPSNTYPE
380
     0
  9
$PSTYLEMODE
290
     1
  9
$FINGERPRINTGUID
  2
{c29c7684-6e97-4b5b-90a5-723497f6314d}
  9
$VERSIONGUID
  2
{FAEB1C32-E019-11D5-929B-00C0DF256EC4}
  9
$EXTNAMES
290
     1
  9
$PSVPSCALE
 40
0.0
  9
$OLESTARTUP
290
     0
  0
ENDSEC
  0
SECTION
  2
CLASSES
  0
CLASS
  1
ACDBDICTIONARYWDFLT
  2
AcDbDictionaryWithDefault
  3
ObjectDBX Classes
 90
        0
280
     0
281
     0
  0
CLASS
  1
VISUALSTYLE
  2
AcDbVisualStyle
  3
ObjectDBX Classes
 90
     4095
280
     0
281
     0
  0
CLASS
  1
MATERIAL
  2
AcDbMaterial
  3
ObjectDBX Classes
 90
     1153
280
     0
281
     0
  0
CLASS
  1
SCALE
  2
AcDbScale
  3
ObjectDBX Classes
 90
     1153
280
     0
281
     0
  0
CLASS
  1
TABLESTYLE
  2
AcDbTableStyle
  3
ObjectDBX Classes
 90
     4095
280
     0
281
     0
  0
CLASS
  1
MLEADERSTYLE
  2
AcDbMLeaderStyle
  3
ACDB_MLEADERSTYLE_CLASS
 90
     4095
280
     0
281
     0
  0
CLASS
  1
SUN
  2
AcDbSun
  3
SCENEOE
 90
     1153
280
     0
281
     0
  0
CLASS
  1
ACDBPLACEHOLDER
  2
AcDbPlaceHolder
  3
ObjectDBX Classes
 90
        0
280
     0
281
     0
  0
CLASS
  1
LAYOUT
  2
AcDbLayout
  3
ObjectDBX Classes
 90
        0
280
     0
281
     0
  0
ENDSEC
  0
SECTION
  2
TABLES
  0
TABLE
  2
VPORT
  5
8
330
0
100
AcDbSymbolTable
 70
     1
  0
VPORT
  5
29
330
8
100
AcDbSymbolTableRecord
100
AcDbViewportTableRecord
  2
*Active
 70
     0
 10
0.0
 20
0.0
 11
1.0
 21
1.0
 12
27.5
 22
21.25
 13
0.0
 23
0.0
 14
0.5
 24
0.5
 15
0.5
 25
0.5
 16
0.0
 26
0.0
 36
1.0
 17
0.0
 27
0.0
 37
0.0
 40
42.5
 41
1.2941176471
 42
50.0
 43
0.0
 44
0.0
 50
0.0
 51
0.0
 71
     0
 72
  2000
 73
     1
 74
     3
 75
     0
 76
     0
 77
     0
 78
     0
281
     0
 65
     1
110
0.0
120
0.0
130
0.0
111
1.0
121
0.0
131
0.0
112
0.0
122
1.0
132
0.0
 79
     0
146
0.0
  0
ENDTAB
  0
TABLE
  2
LTYPE
  5
5
330
0
100
AcDbSymbolTable
 70
     6
  0
LTYPE
  5
14
330
5
100
AcDbSymbolTableRecord
100
AcDbLinetypeTableRecord
  2
ByBlock
 70
     0
  3

 72
    65
 73
     0
 40
0.0
  0
LTYPE
  5
15
330
5
100
AcDbSymbolTableRecord
100
AcDbLinetypeTableRecord
  2
ByLayer
 70
     0
  3

 72
    65
 73
     0
 40
0.0
  0
LTYPE
  5
16
330
5
100
AcDbSymbolTableRecord
100
AcDbLinetypeTableRecord
  2
Continuous
 70
     0
  3
Solid line
 72
    65
 73
     0
 40
0.0
  0
LTYPE
  5
5E
330
5
100
AcDbSymbolTableRecord
100
AcDbLinetypeTableRecord
  2
HIDDEN
 70
     0
  3
Hidden __ __ __ __ __ __ __ __ __ __ __ __ __ __
 72
    65
 73
     2
 40
0.075
 49
0.05
 74
     0
 49
-0.025
 74
     0
  0
LTYPE
  5
5F
330
5
100
AcDbSymbolTableRecord
100
AcDbLinetypeTableRecord
  2
PHANTOM
 70
     0
  3
Phantom ______  __  __  ______  __  __  ______
 72
    65
 73
     6
 40
0.5
 49
0.25
 74
     0
 49
-0.05
 74
     0
 49
0.05
 74
     0
 49
-0.05
 74
     0
 49
0.05
 74
     0
 49
-0.05
 74
     0
  0
LTYPE
  5
60
330
5
100
AcDbSymbolTableRecord
100
AcDbLinetypeTableRecord
  2
CENTER
 70
     0
  3
Center ____ _ ____ _ ____ _ ____ _ ____ _ ____
 72
    65
 73
     4
 40
0.4
 49
0.25
 74
     0
 49
-0.05
 74
     0
 49
0.05
 74
     0
 49
-0.05
 74
     0
  0
LTYPE
  5
61
330
5
100
AcDbSymbolTableRecord
100
AcDbLinetypeTableRecord
  2
CENTERX2
 70
     0
  3
Center (2x) ________  __  ________  __  _____
 72
    65
 73
     4
 40
0.8
 49
0.5
 74
     0
 49
-0.1
 74
     0
 49
0.1
 74
     0
 49
-0.1
 74
     0
  0
LTYPE
  5
62
330
5
100
AcDbSymbolTableRecord
100
AcDbLinetypeTableRecord
  2
DOT2
 70
     0
  3
Dot (.5x) ........................................
 72
    65
 73
     2
 40
0.025
 49
0.0
 74
     0
 49
-0.025
 74
     0
  0
ENDTAB
  0
TABLE
  2
LAYER
  5
2
330
0
100
AcDbSymbolTable
 70
    12
  0
LAYER
  5
10
330
2
100
AcDbSymbolTableRecord
100
AcDbLayerTableRecord
  2
0
 70
     0
 62
     7
  6
Continuous
370
    -3
390
F
  0
LAYER
  5
63
330
2
100
AcDbSymbolTableRecord
100
AcDbLayerTableRecord
  2
SLD-0
 70
     0
 62
     7
  6
Continuous
370
    -3
390
F
  0
LAYER
  5
64
330
2
100
AcDbSymbolTableRecord
100
AcDbLayerTableRecord
  2
DIM
 70
     0
 62
     7
  6
Continuous
370
    -3
390
F
  0
LAYER
  5
65
330
2
100
AcDbSymbolTableRecord
100
AcDbLayerTableRecord
  2
CEN
 70
     0
 62
     1
  6
CENTER
370
    -3
390
F
  0
LAYER
  5
66
330
2
100
AcDbSymbolTableRecord
100
AcDbLayerTableRecord
  2
HAT
 70
     0
 62
     4
  6
Continuous
370
    -3
390
F
  0
LAYER
  5
67
330
2
100
AcDbSymbolTableRecord
100
AcDbLayerTableRecord
  2
OBJ
 70
     0
 62
     5
  6
Continuous
370
    -3
390
F
  0
LAYER
  5
68
330
2
100
AcDbSymbolTableRecord
100
AcDbLayerTableRecord
  2
SLD-DEFPOINTS
 70
     0
 62
     7
  6
Continuous
370
    -3
390
F
  0
LAYER
  5
69
330
2
100
AcDbSymbolTableRecord
100
AcDbLayerTableRecord
  2
HID
 70
     0
 62
     4
  6
HIDDEN
370
    -3
390
F
  0
LAYER
  5
6A
330
2
100
AcDbSymbolTableRecord
100
AcDbLayerTableRecord
  2
NOTE
 70
     0
 62
     7
  6
Continuous
370
    -3
390
F
  0
LAYER
  5
6B
330
2
100
AcDbSymbolTableRecord
100
AcDbLayerTableRecord
  2
VP
 70
     0
 62
    -5
  6
Continuous
290
     0
370
    -3
390
F
  0
LAYER
  5
6C
330
2
100
AcDbSymbolTableRecord
100
AcDbLayerTableRecord
  2
TITLE
 70
     0
 62
     7
  6
Continuous
370
    -3
390
F
  0
LAYER
  5
6D
330
2
100
AcDbSymbolTableRecord
100
AcDbLayerTableRecord
  2
THICK_TITLE
 70
     0
 62
     7
  6
Continuous
370
   100
390
F
  0
ENDTAB
  0
TABLE
  2
STYLE
  5
3
330
0
100
AcDbSymbolTable
 70
     2
  0
STYLE
  5
11
330
3
100
AcDbSymbolTableRecord
100
AcDbTextStyleTableRecord
  2
STANDARD
 70
     0
 40
0.0
 41
1.0
 50
0.0
 71
     0
 42
0.625
  3
GOTHIC.TTF
  4

1001
ACAD
1000
CENTURY GOTHIC
1071
       34
  0
STYLE
  5
11F
330
3
100
AcDbSymbolTableRecord
100
AcDbTextStyleTableRecord
  2
SLDTEXTSTYLE0
 70
     0
 40
0.0
 41
0.913
 50
0.0
 71
     0
 42
0.625
  3
GOTHIC.TTF
  4

1001
ACAD
1000
Century Gothic
1071
      290
  0
ENDTAB
  0
TABLE
  2
VIEW
  5
6
330
0
100
AcDbSymbolTable
 70
     0
  0
ENDTAB
  0
TABLE
  2
UCS
  5
7
330
0
100
AcDbSymbolTable
 70
     0
  0
ENDTAB
  0
TABLE
  2
APPID
  5
9
330
0
100
AcDbSymbolTable
 70
     1
  0
APPID
  5
12
330
9
100
AcDbSymbolTableRecord
100
AcDbRegAppTableRecord
  2
ACAD
 70
     0
  0
ENDTAB
  0
TABLE
  2
DIMSTYLE
  5
A
330
0
100
AcDbSymbolTable
 70
     8
100
AcDbDimStyleTable
  0
DIMSTYLE
105
27
330
A
100
AcDbSymbolTableRecord
100
AcDbDimStyleTableRecord
  2
Standard
 70
     0
178
     0
340
11
  0
DIMSTYLE
105
120
102
{ACAD_REACTORS
330
11E
330
132
330
145
330
17D
330
191
102
}
330
A
100
AcDbSymbolTableRecord
100
AcDbDimStyleTableRecord
  2
SLDDIMSTYLE0
 70
     0
 41
0.65
 44
0.0
 45
0.000000001
 78
    12
 79
     3
140
0.625
147
0.15625
148
0.000000001
170
     1
172
     1
173
     1
178
     0
271
     6
272
     0
276
     2
277
     5
284
    12
289
     0
340
11F
  0
DIMSTYLE
105
15A
102
{ACAD_REACTORS
330
159
330
1CB
102
}
330
A
100
AcDbSymbolTableRecord
100
AcDbDimStyleTableRecord
  2
SLDDIMSTYLE1
 70
     0
 41
0.65
 44
0.0
 45
0.000000001
 78
    12
 79
     3
140
0.625
147
0.15625
148
0.000000001
170
     1
173
     1
178
     0
271
     0
272
     0
276
     2
277
     5
284
    12
340
11F
  0
DIMSTYLE
105
16C
102
{ACAD_REACTORS
330
16B
330
1A6
330
1E3
330
1F7
330
20B
102
}
330
A
100
AcDbSymbolTableRecord
100
AcDbDimStyleTableRecord
  2
SLDDIMSTYLE2
 70
     0
 41
0.65
 44
0.0
 45
0.000000001
 78
    12
 79
     3
140
0.625
147
0.15625
148
0.000000001
170
     1
173
     1
178
     0
271
     6
272
     0
276
     2
277
     5
284
    12
340
11F
  0
DIMSTYLE
105
1BA
102
{ACAD_REACTORS
330
1B9
102
}
330
A
100
AcDbSymbolTableRecord
100
AcDbDimStyleTableRecord
  2
SLDDIMSTYLE3
 70
     0
 41
0.65
 44
0.0
 45
0.000000001
 78
    12
 79
     3
140
0.625
147
0.15625
148
0.000000001
170
     1
172
     1
173
     1
178
     0
271
     0
272
     0
276
     2
277
     5
284
    12
289
     0
340
11F
  0
DIMSTYLE
105
34C
102
{ACAD_REACTORS
330
34B
330
38C
102
}
330
A
100
AcDbSymbolTableRecord
100
AcDbDimStyleTableRecord
  2
SLDDIMSTYLE4
 70
     0
 41
0.65
 44
0.0
 45
0.000000001
 78
    12
 79
     3
140
0.625
144
0.8
147
0.15625
148
0.000000001
170
     1
172
     1
173
     1
178
     0
271
     6
272
     0
276
     2
277
     5
284
    12
289
     0
340
11F
  0
DIMSTYLE
105
36C
102
{ACAD_REACTORS
330
36B
102
}
330
A
100
AcDbSymbolTableRecord
100
AcDbDimStyleTableRecord
  2
SLDDIMSTYLE5
 70
     0
 41
0.65
 44
0.0
 45
0.000000001
 78
    12
 79
     3
140
0.625
144
0.8
147
0.15625
148
0.000000001
170
     1
173
     1
178
     0
271
     6
272
     0
276
     2
277
     5
284
    12
340
11F
  0
DIMSTYLE
105
3AD
102
{ACAD_REACTORS
330
3AC
102
}
330
A
100
AcDbSymbolTableRecord
100
AcDbDimStyleTableRecord
  2
SLDDIMSTYLE6
 70
     0
 41
0.65
 44
0.0
 45
0.000000001
 78
    12
 79
     3
140
0.625
144
0.8
147
0.15625
148
0.000000001
170
     1
172
     1
173
     1
178
     0
271
     0
272
     0
276
     2
277
     5
284
    12
289
     0
340
11F
  0
ENDTAB
  0
TABLE
  2
BLOCK_RECORD
  5
1
330
0
100
AcDbSymbolTable
 70
    20
  0
BLOCK_RECORD
  5
1F
330
1
100
AcDbSymbolTableRecord
100
AcDbBlockTableRecord
  2
*Model_Space
340
22
  0
BLOCK_RECORD
  5
1B
330
1
100
AcDbSymbolTableRecord
100
AcDbBlockTableRecord
  2
*Paper_Space
340
1E
  0
BLOCK_RECORD
  5
23
330
1
100
AcDbSymbolTableRecord
100
AcDbBlockTableRecord
  2
*Paper_Space0
340
26
  0
BLOCK_RECORD
  5
6E
330
1
100
AcDbSymbolTableRecord
100
AcDbBlockTableRecord
  2
SW_BROKEN_VIEW_0
340
0
102
{BLKREFS
331
71
102
}
  0
BLOCK_RECORD
  5
121
330
1
100
AcDbSymbolTableRecord
100
AcDbBlockTableRecord
  2
_D
340
0
  0
BLOCK_RECORD
  5
133
330
1
100
AcDbSymbolTableRecord
100
AcDbBlockTableRecord
  2
_D_1
340
0
  0
BLOCK_RECORD
  5
146
330
1
100
AcDbSymbolTableRecord
100
AcDbBlockTableRecord
  2
_D_2
340
0
  0
BLOCK_RECORD
  5
15B
330
1
100
AcDbSymbolTableRecord
100
AcDbBlockTableRecord
  2
_D_3
340
0
  0
BLOCK_RECORD
  5
16D
330
1
100
AcDbSymbolTableRecord
100
AcDbBlockTableRecord
  2
_D_4
340
0
  0
BLOCK_RECORD
  5
17E
330
1
100
AcDbSymbolTableRecord
100
AcDbBlockTableRecord
  2
_D_5
340
0
  0
BLOCK_RECORD
  5
192
330
1
100
AcDbSymbolTableRecord
100
AcDbBlockTableRecord
  2
_D_6
340
0
  0
BLOCK_RECORD
  5
1A7
330
1
100
AcDbSymbolTableRecord
100
AcDbBlockTableRecord
  2
_D_7
340
0
  0
BLOCK_RECORD
  5
1BB
330
1
100
AcDbSymbolTableRecord
100
AcDbBlockTableRecord
  2
_D_8
340
0
  0
BLOCK_RECORD
  5
1CC
330
1
100
AcDbSymbolTableRecord
100
AcDbBlockTableRecord
  2
_D_9
340
0
  0
BLOCK_RECORD
  5
1E4
330
1
100
AcDbSymbolTableRecord
100
AcDbBlockTableRecord
  2
_D_10
340
0
  0
BLOCK_RECORD
  5
1F8
330
1
100
AcDbSymbolTableRecord
100
AcDbBlockTableRecord
  2
_D_11
340
0
  0
BLOCK_RECORD
  5
20C
330
1
100
AcDbSymbolTableRecord
100
AcDbBlockTableRecord
  2
_D_12
340
0
  0
BLOCK_RECORD
  5
227
330
1
100
AcDbSymbolTableRecord
100
AcDbBlockTableRecord
  2
SW_BROKEN_VIEW_1
340
0
102
{BLKREFS
331
22A
102
}
  0
BLOCK_RECORD
  5
34D
330
1
100
AcDbSymbolTableRecord
100
AcDbBlockTableRecord
  2
_D_13
340
0
  0
BLOCK_RECORD
  5
36D
330
1
100
AcDbSymbolTableRecord
100
AcDbBlockTableRecord
  2
_D_14
340
0
  0
BLOCK_RECORD
  5
38D
330
1
100
AcDbSymbolTableRecord
100
AcDbBlockTableRecord
  2
_D_15
340
0
  0
BLOCK_RECORD
  5
3AE
330
1
100
AcDbSymbolTableRecord
100
AcDbBlockTableRecord
  2
_D_16
340
0
  0
ENDTAB
  0
ENDSEC
  0
SECTION
  2
BLOCKS
  0
BLOCK
  5
20
330
1F
100
AcDbEntity
  8
0
100
AcDbBlockBegin
  2
*Model_Space
 70
     0
 10
0.0
 20
0.0
 30
0.0
  3
*Model_Space
  1

  0
ENDBLK
  5
21
330
1F
100
AcDbEntity
  8
0
100
AcDbBlockEnd
  0
BLOCK
  5
1C
330
1B
100
AcDbEntity
 67
     1
  8
0
100
AcDbBlockBegin
  2
*Paper_Space
 70
     0
 10
0.0
 20
0.0
 30
0.0
  3
*Paper_Space
  1

  0
ENDBLK
  5
1D
330
1B
100
AcDbEntity
 67
     1
  8
0
100
AcDbBlockEnd
  0
BLOCK
  5
24
330
23
100
AcDbEntity
  8
0
100
AcDbBlockBegin
  2
*Paper_Space0
 70
     0
 10
0.0
 20
0.0
 30
0.0
  3
*Paper_Space0
  1

  0
ENDBLK
  5
25
330
23
100
AcDbEntity
  8
0
100
AcDbBlockEnd
  0
BLOCK
  5
6F
330
6E
100
AcDbEntity
  8
0
100
AcDbBlockBegin
  2
SW_BROKEN_VIEW_0
 70
     0
 10
0.0
 20
0.0
 30
0.0
  3
SW_BROKEN_VIEW_0
  1

  0
ENDBLK
  5
70
330
6E
100
AcDbEntity
  8
0
100
AcDbBlockEnd
  0
BLOCK
  5
122
330
121
100
AcDbEntity
  8
0
100
AcDbBlockBegin
  2
_D
 70
     0
 10
0.0
 20
0.0
 30
0.0
  3
_D
  1

  0
SOLID
  5
124
330
121
100
AcDbEntity
  8
SLD-0
100
AcDbTrace
 10
21.5186650051
 20
38.0954596396
 30
0.0
 11
22.1686650051
 21
37.9954596396
 31
0.0
 12
22.1686650051
 22
38.1954596396
 32
0.0
 13
22.1686650051
 23
38.1954596396
 33
0.0
  0
SOLID
  5
125
330
121
100
AcDbEntity
  8
SLD-0
100
AcDbTrace
 10
20.2686650051
 20
38.0954596396
 30
0.0
 11
19.6186650051
 21
38.1954596396
 31
0.0
 12
19.6186650051
 22
37.9954596396
 32
0.0
 13
19.6186650051
 23
37.9954596396
 33
0.0
  0
LINE
  5
126
330
121
100
AcDbEntity
  8
SLD-0
100
AcDbLine
 10
15.7406211409
 20
37.4627994692
 30
0.0
 11
15.5501914553
 21
37.4627994692
 31
0.0
  0
LINE
  5
127
330
121
100
AcDbEntity
  8
SLD-0
100
AcDbLine
 10
15.5501914553
 20
37.4627994692
 30
0.0
 11
15.5501914553
 21
36.4706119393
 31
0.0
  0
LINE
  5
128
330
121
100
AcDbEntity
  8
SLD-0
100
AcDbLine
 10
15.5501914553
 20
36.4706119393
 30
0.0
 11
15.7406211409
 21
36.4706119393
 31
0.0
  0
LINE
  5
129
330
121
100
AcDbEntity
  8
SLD-0
100
AcDbLine
 10
18.2267323044
 20
37.4627994692
 30
0.0
 11
18.41716199
 21
37.4627994692
 31
0.0
  0
LINE
  5
12A
330
121
100
AcDbEntity
  8
SLD-0
100
AcDbLine
 10
18.41716199
 20
37.4627994692
 30
0.0
 11
18.41716199
 21
36.4706119393
 31
0.0
  0
LINE
  5
12B
330
121
100
AcDbEntity
  8
SLD-0
100
AcDbLine
 10
18.41716199
 20
36.4706119393
 30
0.0
 11
18.2267323044
 21
36.4706119393
 31
0.0
  0
LINE
  5
12C
330
121
100
AcDbEntity
  8
SLD-0
100
AcDbLine
 10
21.5186650051
 20
38.0954596396
 30
0.0
 11
22.7686650051
 21
38.0954596396
 31
0.0
  0
LINE
  5
12D
330
121
100
AcDbEntity
  8
SLD-0
100
AcDbLine
 10
20.2686650051
 20
38.0954596396
 30
0.0
 11
18.9652601797
 21
38.0954596396
 31
0.0
  0
MTEXT
  5
12E
330
121
100
AcDbEntity
  8
SLD-0
100
AcDbMText
 10
15.1288589913
 20
38.3976411131
 30
0.0
 40
0.625
 41
0.0
 71
     1
 72
     1
  1
 
  7
SLDTEXTSTYLE0
 73
     1
 44
1.0
  0
MTEXT
  5
12F
330
121
100
AcDbEntity
  8
SLD-0
100
AcDbMText
 10
15.8643190661
 20
38.3880924557
 30
0.0
 40
0.625
 41
0.0
 71
     1
 72
     1
  1
1 1/4"
  7
SLDTEXTSTYLE0
 73
     1
 44
1.0
  0
MTEXT
  5
130
330
121
100
AcDbEntity
  8
SLD-0
100
AcDbMText
 10
15.7406211409
 20
37.2689518518
 30
0.0
 40
0.625
 41
0.0
 71
     1
 72
     1
  1
32mm
  7
SLDTEXTSTYLE0
 73
     1
 44
1.0
  0
MTEXT
  5
131
330
121
100
AcDbEntity
  8
SLD-0
100
AcDbMText
 10
18.6075915381
 20
38.3976411131
 30
0.0
 40
0.625
 41
0.0
 71
     1
 72
     1
  1
 
  7
SLDTEXTSTYLE0
 73
     1
 44
1.0
  0
ENDBLK
  5
123
330
121
100
AcDbEntity
  8
0
100
AcDbBlockEnd
  0
BLOCK
  5
134
330
133
100
AcDbEntity
  8
0
100
AcDbBlockBegin
  2
_D_1
 70
     0
 10
0.0
 20
0.0
 30
0.0
  3
_D_1
  1

  0
SOLID
  5
136
330
133
100
AcDbEntity
  8
SLD-0
100
AcDbTrace
 10
22.0036650051
 20
29.6038778507
 30
0.0
 11
22.6536650051
 21
29.5038778507
 31
0.0
 12
22.6536650051
 22
29.7038778507
 32
0.0
 13
22.6536650051
 23
29.7038778507
 33
0.0
  0
SOLID
  5
137
330
133
100
AcDbEntity
  8
SLD-0
100
AcDbTrace
 10
19.7836650051
 20
29.6038778507
 30
0.0
 11
19.1336650051
 21
29.7038778507
 31
0.0
 12
19.1336650051
 22
29.5038778507
 32
0.0
 13
19.1336650051
 23
29.5038778507
 33
0.0
  0
LINE
  5
138
330
133
100
AcDbEntity
  8
SLD-0
100
AcDbLine
 10
15.740621095
 20
28.9807662116
 30
0.0
 11
15.5501914095
 21
28.9807662116
 31
0.0
  0
LINE
  5
139
330
133
100
AcDbEntity
  8
SLD-0
100
AcDbLine
 10
15.5501914095
 20
28.9807662116
 30
0.0
 11
15.5501914095
 21
27.9885786818
 31
0.0
  0
LINE
  5
13A
330
133
100
AcDbEntity
  8
SLD-0
100
AcDbLine
 10
15.5501914095
 20
27.9885786818
 30
0.0
 11
15.740621095
 21
27.9885786818
 31
0.0
  0
LINE
  5
13B
330
133
100
AcDbEntity
  8
SLD-0
100
AcDbLine
 10
18.2267322586
 20
28.9807662116
 30
0.0
 11
18.4171619442
 21
28.9807662116
 31
0.0
  0
LINE
  5
13C
330
133
100
AcDbEntity
  8
SLD-0
100
AcDbLine
 10
18.4171619442
 20
28.9807662116
 30
0.0
 11
18.4171619442
 21
27.9885786818
 31
0.0
  0
LINE
  5
13D
330
133
100
AcDbEntity
  8
SLD-0
100
AcDbLine
 10
18.4171619442
 20
27.9885786818
 30
0.0
 11
18.2267322586
 21
27.9885786818
 31
0.0
  0
LINE
  5
13E
330
133
100
AcDbEntity
  8
SLD-0
100
AcDbLine
 10
22.0036650051
 20
30.4633070463
 30
0.0
 11
22.0036650051
 21
28.9788778507
 31
0.0
  0
LINE
  5
13F
330
133
100
AcDbEntity
  8
SLD-0
100
AcDbLine
 10
19.7836650051
 20
30.4633070463
 30
0.0
 11
19.7836650051
 21
28.9788778507
 31
0.0
  0
LINE
  5
140
330
133
100
AcDbEntity
  8
SLD-0
100
AcDbLine
 10
22.0036650051
 20
29.6038778507
 30
0.0
 11
23.2536650051
 21
29.6038778507
 31
0.0
  0
LINE
  5
141
330
133
100
AcDbEntity
  8
SLD-0
100
AcDbLine
 10
19.7836650051
 20
29.6038778507
 30
0.0
 11
18.7343574472
 21
29.6038778507
 31
0.0
  0
MTEXT
  5
142
330
133
100
AcDbEntity
  8
SLD-0
100
AcDbMText
 10
15.393029923
 20
29.906059244
 30
0.0
 40
0.625
 41
0.0
 71
     1
 72
     1
  1
%%c
  7
SLDTEXTSTYLE0
 73
     1
 44
1.0
  0
MTEXT
  5
143
330
133
100
AcDbEntity
  8
SLD-0
100
AcDbMText
 10
16.3356080259
 20
29.906059244
 30
0.0
 40
0.625
 41
0.0
 71
     1
 72
     1
  1
2 1/4"
  7
SLDTEXTSTYLE0
 73
     1
 44
1.0
  0
MTEXT
  5
144
330
133
100
AcDbEntity
  8
SLD-0
100
AcDbMText
 10
15.740621095
 20
28.7869185943
 30
0.0
 40
0.625
 41
0.0
 71
     1
 72
     1
  1
56mm
  7
SLDTEXTSTYLE0
 73
     1
 44
1.0
  0
ENDBLK
  5
135
330
133
100
AcDbEntity
  8
0
100
AcDbBlockEnd
  0
BLOCK
  5
147
330
146
100
AcDbEntity
  8
0
100
AcDbBlockBegin
  2
_D_2
 70
     0
 10
0.0
 20
0.0
 30
0.0
  3
_D_2
  1

  0
SOLID
  5
149
330
146
100
AcDbEntity
  8
SLD-0
100
AcDbTrace
 10
26.8255627278
 20
26.0183070463
 30
0.0
 11
26.7255627278
 21
25.3683070463
 31
0.0
 12
26.9255627278
 22
25.3683070463
 32
0.0
 13
26.9255627278
 23
25.3683070463
 33
0.0
  0
SOLID
  5
14A
330
146
100
AcDbEntity
  8
SLD-0
100
AcDbTrace
 10
26.8255627278
 20
30.7433070463
 30
0.0
 11
26.9255627278
 21
31.3933070463
 31
0.0
 12
26.7255627278
 22
31.3933070463
 32
0.0
 13
26.7255627278
 23
31.3933070463
 33
0.0
  0
LINE
  5
14B
330
146
100
AcDbEntity
  8
SLD-0
100
AcDbLine
 10
25.3516045051
 20
28.4787059993
 30
0.0
 11
25.1611748196
 21
28.4787059993
 31
0.0
  0
LINE
  5
14C
330
146
100
AcDbEntity
  8
SLD-0
100
AcDbLine
 10
25.1611748196
 20
28.4787059993
 30
0.0
 11
25.1611748196
 21
27.4865184694
 31
0.0
  0
LINE
  5
14D
330
146
100
AcDbEntity
  8
SLD-0
100
AcDbLine
 10
25.1611748196
 20
27.4865184694
 30
0.0
 11
25.3516045051
 21
27.4865184694
 31
0.0
  0
LINE
  5
14E
330
146
100
AcDbEntity
  8
SLD-0
100
AcDbLine
 10
28.2995211339
 20
28.4787059993
 30
0.0
 11
28.4899508194
 21
28.4787059993
 31
0.0
  0
LINE
  5
14F
330
146
100
AcDbEntity
  8
SLD-0
100
AcDbLine
 10
28.4899508194
 20
28.4787059993
 30
0.0
 11
28.4899508194
 21
27.4865184694
 31
0.0
  0
LINE
  5
150
330
146
100
AcDbEntity
  8
SLD-0
100
AcDbLine
 10
28.4899508194
 20
27.4865184694
 30
0.0
 11
28.2995211339
 21
27.4865184694
 31
0.0
  0
LINE
  5
151
330
146
100
AcDbEntity
  8
SLD-0
100
AcDbLine
 10
22.3311650051
 20
26.0183070463
 30
0.0
 11
27.4505627278
 21
26.0183070463
 31
0.0
  0
LINE
  5
152
330
146
100
AcDbEntity
  8
SLD-0
100
AcDbLine
 10
22.2236650051
 20
30.7433070463
 30
0.0
 11
27.4505627278
 21
30.7433070463
 31
0.0
  0
LINE
  5
153
330
146
100
AcDbEntity
  8
SLD-0
100
AcDbLine
 10
26.8255627278
 20
26.0183070463
 30
0.0
 11
26.8255627278
 21
24.7683070463
 31
0.0
  0
LINE
  5
154
330
146
100
AcDbEntity
  8
SLD-0
100
AcDbLine
 10
26.8255627278
 20
30.7433070463
 30
0.0
 11
26.8255627278
 21
31.9933070463
 31
0.0
  0
MTEXT
  5
155
330
146
100
AcDbEntity
  8
SLD-0
100
AcDbMText
 10
24.7398423556
 20
29.4135476432
 30
0.0
 40
0.625
 41
0.0
 71
     1
 72
     1
  1
 
  7
SLDTEXTSTYLE0
 73
     1
 44
1.0
  0
MTEXT
  5
156
330
146
100
AcDbEntity
  8
SLD-0
100
AcDbMText
 10
25.7062051629
 20
29.4039989858
 30
0.0
 40
0.625
 41
0.0
 71
     1
 72
     1
  1
4 3/4"
  7
SLDTEXTSTYLE0
 73
     1
 44
1.0
  0
MTEXT
  5
157
330
146
100
AcDbEntity
  8
SLD-0
100
AcDbMText
 10
25.3516045051
 20
28.2848583819
 30
0.0
 40
0.625
 41
0.0
 71
     1
 72
     1
  1
120mm
  7
SLDTEXTSTYLE0
 73
     1
 44
1.0
  0
MTEXT
  5
158
330
146
100
AcDbEntity
  8
SLD-0
100
AcDbMText
 10
28.6803803675
 20
29.4135476432
 30
0.0
 40
0.625
 41
0.0
 71
     1
 72
     1
  1
 
  7
SLDTEXTSTYLE0
 73
     1
 44
1.0
  0
ENDBLK
  5
148
330
146
100
AcDbEntity
  8
0
100
AcDbBlockEnd
  0
BLOCK
  5
15C
330
15B
100
AcDbEntity
  8
0
100
AcDbBlockBegin
  2
_D_3
 70
     0
 10
0.0
 20
0.0
 30
0.0
  3
_D_3
  1

  0
SOLID
  5
15E
330
15B
100
AcDbEntity
  8
SLD-0
100
AcDbTrace
 10
10.2610417784
 20
36.2949907654
 30
0.0
 11
10.1610417784
 21
35.6449907654
 31
0.0
 12
10.3610417784
 22
35.6449907654
 32
0.0
 13
10.3610417784
 23
35.6449907654
 33
0.0
  0
SOLID
  5
15F
330
15B
100
AcDbEntity
  8
SLD-0
100
AcDbTrace
 10
10.2610417784
 20
30.7433070463
 30
0.0
 11
10.3610417784
 21
31.3933070463
 31
0.0
 12
10.1610417784
 22
31.3933070463
 32
0.0
 13
10.1610417784
 23
31.3933070463
 33
0.0
  0
LINE
  5
160
330
15B
100
AcDbEntity
  8
SLD-0
100
AcDbLine
 10
20.0186650051
 20
36.2949907654
 30
0.0
 11
9.6360417784
 21
36.2949907654
 31
0.0
  0
LINE
  5
161
330
15B
100
AcDbEntity
  8
SLD-0
100
AcDbLine
 10
19.5636650051
 20
30.7433070463
 30
0.0
 11
9.6360417784
 21
30.7433070463
 31
0.0
  0
LINE
  5
162
330
15B
100
AcDbEntity
  8
SLD-0
100
AcDbLine
 10
10.2610417784
 20
36.2949907654
 30
0.0
 11
10.2610417784
 21
34.5110048175
 31
0.0
  0
LINE
  5
163
330
15B
100
AcDbEntity
  8
SLD-0
100
AcDbLine
 10
10.2610417784
 20
30.7433070463
 30
0.0
 11
10.2610417784
 21
31.7272418669
 31
0.0
  0
LINE
  5
164
330
15B
100
AcDbEntity
  8
SLD-0
100
AcDbLine
 10
10.2610417784
 20
31.7272418669
 30
0.0
 11
9.9485417784
 21
31.8834918669
 31
0.0
  0
LINE
  5
165
330
15B
100
AcDbEntity
  8
SLD-0
100
AcDbLine
 10
9.9485417784
 20
31.8834918669
 30
0.0
 11
10.5735417784
 21
32.1959918669
 31
0.0
  0
LINE
  5
166
330
15B
100
AcDbEntity
  8
SLD-0
100
AcDbLine
 10
10.5735417784
 20
32.1959918669
 30
0.0
 11
10.2610417784
 21
32.3522418669
 31
0.0
  0
LINE
  5
167
330
15B
100
AcDbEntity
  8
SLD-0
100
AcDbLine
 10
10.2610417784
 20
32.3522418669
 30
0.0
 11
10.2610417784
 21
31.5344421364
 31
0.0
  0
MTEXT
  5
168
330
15B
100
AcDbEntity
  8
SLD-0
100
AcDbMText
 10
6.9220659172
 20
34.3171572002
 30
0.0
 40
0.625
 41
0.0
 71
     1
 72
     1
  1
SPECIFY LENGTH:
  7
SLDTEXTSTYLE0
 73
     1
 44
1.0
  0
MTEXT
  5
169
330
15B
100
AcDbEntity
  8
SLD-0
100
AcDbMText
 10
7.8808335415
 20
33.3249696704
 30
0.0
 40
0.625
 41
0.0
 71
     1
 72
     1
  1
6" - 48" MAX
  7
SLDTEXTSTYLE0
 73
     1
 44
1.0
  0
MTEXT
  5
16A
330
15B
100
AcDbEntity
  8
SLD-0
100
AcDbMText
 10
6.42033018
 20
32.3327821405
 30
0.0
 40
0.625
 41
0.0
 71
     1
 72
     1
  1
[152mm - 1219mm]
  7
SLDTEXTSTYLE0
 73
     1
 44
1.0
  0
ENDBLK
  5
15D
330
15B
100
AcDbEntity
  8
0
100
AcDbBlockEnd
  0
BLOCK
  5
16E
330
16D
100
AcDbEntity
  8
0
100
AcDbBlockBegin
  2
_D_4
 70
     0
 10
0.0
 20
0.0
 30
0.0
  3
_D_4
  1

  0
SOLID
  5
170
330
16D
100
AcDbEntity
  8
SLD-0
100
AcDbTrace
 10
19.7061650051
 20
23.9985331369
 30
0.0
 11
20.3561650051
 21
23.8985331369
 31
0.0
 12
20.3561650051
 22
24.0985331369
 32
0.0
 13
20.3561650051
 23
24.0985331369
 33
0.0
  0
SOLID
  5
171
330
16D
100
AcDbEntity
  8
SLD-0
100
AcDbTrace
 10
22.0811650051
 20
23.9985331369
 30
0.0
 11
21.4311650051
 21
24.0985331369
 31
0.0
 12
21.4311650051
 22
23.8985331369
 32
0.0
 13
21.4311650051
 23
23.8985331369
 33
0.0
  0
LINE
  5
172
330
16D
100
AcDbEntity
  8
SLD-0
100
AcDbLine
 10
25.5825071919
 20
23.3754214978
 30
0.0
 11
25.3920775063
 21
23.3754214978
 31
0.0
  0
LINE
  5
173
330
16D
100
AcDbEntity
  8
SLD-0
100
AcDbLine
 10
25.3920775063
 20
23.3754214978
 30
0.0
 11
25.3920775063
 21
22.383233968
 31
0.0
  0
LINE
  5
174
330
16D
100
AcDbEntity
  8
SLD-0
100
AcDbLine
 10
25.3920775063
 20
22.383233968
 30
0.0
 11
25.5825071919
 21
22.383233968
 31
0.0
  0
LINE
  5
175
330
16D
100
AcDbEntity
  8
SLD-0
100
AcDbLine
 10
28.0686183554
 20
23.3754214978
 30
0.0
 11
28.259048041
 21
23.3754214978
 31
0.0
  0
LINE
  5
176
330
16D
100
AcDbEntity
  8
SLD-0
100
AcDbLine
 10
28.259048041
 20
23.3754214978
 30
0.0
 11
28.259048041
 21
22.383233968
 31
0.0
  0
LINE
  5
177
330
16D
100
AcDbEntity
  8
SLD-0
100
AcDbLine
 10
28.259048041
 20
22.383233968
 30
0.0
 11
28.0686183554
 21
22.383233968
 31
0.0
  0
LINE
  5
178
330
16D
100
AcDbEntity
  8
SLD-0
100
AcDbLine
 10
19.7061650051
 20
23.9985331369
 30
0.0
 11
22.0811650051
 21
23.9985331369
 31
0.0
  0
LINE
  5
179
330
16D
100
AcDbEntity
  8
SLD-0
100
AcDbLine
 10
22.0811650051
 20
23.9985331369
 30
0.0
 11
25.0748819117
 21
23.9985331369
 31
0.0
  0
MTEXT
  5
17A
330
16D
100
AcDbEntity
  8
SLD-0
100
AcDbMText
 10
25.2349160198
 20
24.3007145302
 30
0.0
 40
0.625
 41
0.0
 71
     1
 72
     1
  1
%%c
  7
SLDTEXTSTYLE0
 73
     1
 44
1.0
  0
MTEXT
  5
17B
330
16D
100
AcDbEntity
  8
SLD-0
100
AcDbMText
 10
26.1774941227
 20
24.3007145302
 30
0.0
 40
0.625
 41
0.0
 71
     1
 72
     1
  1
2 3/8"
  7
SLDTEXTSTYLE0
 73
     1
 44
1.0
  0
MTEXT
  5
17C
330
16D
100
AcDbEntity
  8
SLD-0
100
AcDbMText
 10
25.5825071919
 20
23.1815738805
 30
0.0
 40
0.625
 41
0.0
 71
     1
 72
     1
  1
60mm
  7
SLDTEXTSTYLE0
 73
     1
 44
1.0
  0
ENDBLK
  5
16F
330
16D
100
AcDbEntity
  8
0
100
AcDbBlockEnd
  0
BLOCK
  5
17F
330
17E
100
AcDbEntity
  8
0
100
AcDbBlockBegin
  2
_D_5
 70
     0
 10
0.0
 20
0.0
 30
0.0
  3
_D_5
  1

  0
SOLID
  5
181
330
17E
100
AcDbEntity
  8
SLD-0
100
AcDbTrace
 10
10.2610417784
 20
38.7949907654
 30
0.0
 11
10.3610417784
 21
39.4449907654
 31
0.0
 12
10.1610417784
 22
39.4449907654
 32
0.0
 13
10.1610417784
 23
39.4449907654
 33
0.0
  0
SOLID
  5
182
330
17E
100
AcDbEntity
  8
SLD-0
100
AcDbTrace
 10
10.2610417784
 20
36.2949907654
 30
0.0
 11
10.1610417784
 21
35.6449907654
 31
0.0
 12
10.3610417784
 22
35.6449907654
 32
0.0
 13
10.3610417784
 23
35.6449907654
 33
0.0
  0
LINE
  5
183
330
17E
100
AcDbEntity
  8
SLD-0
100
AcDbLine
 10
9.0179862883
 20
37.5402163623
 30
0.0
 11
8.8275566028
 21
37.5402163623
 31
0.0
  0
LINE
  5
184
330
17E
100
AcDbEntity
  8
SLD-0
100
AcDbLine
 10
8.8275566028
 20
37.5402163623
 30
0.0
 11
8.8275566028
 21
36.5480288324
 31
0.0
  0
LINE
  5
185
330
17E
100
AcDbEntity
  8
SLD-0
100
AcDbLine
 10
8.8275566028
 20
36.5480288324
 30
0.0
 11
9.0179862883
 21
36.5480288324
 31
0.0
  0
LINE
  5
186
330
17E
100
AcDbEntity
  8
SLD-0
100
AcDbLine
 10
11.5040974519
 20
37.5402163623
 30
0.0
 11
11.6945271374
 21
37.5402163623
 31
0.0
  0
LINE
  5
187
330
17E
100
AcDbEntity
  8
SLD-0
100
AcDbLine
 10
11.6945271374
 20
37.5402163623
 30
0.0
 11
11.6945271374
 21
36.5480288324
 31
0.0
  0
LINE
  5
188
330
17E
100
AcDbEntity
  8
SLD-0
100
AcDbLine
 10
11.6945271374
 20
36.5480288324
 30
0.0
 11
11.5040974519
 21
36.5480288324
 31
0.0
  0
LINE
  5
189
330
17E
100
AcDbEntity
  8
SLD-0
100
AcDbLine
 10
20.2597815286
 20
38.7949907654
 30
0.0
 11
9.6360417784
 21
38.7949907654
 31
0.0
  0
LINE
  5
18A
330
17E
100
AcDbEntity
  8
SLD-0
100
AcDbLine
 10
20.0186650051
 20
36.2949907654
 30
0.0
 11
9.6360417784
 21
36.2949907654
 31
0.0
  0
LINE
  5
18B
330
17E
100
AcDbEntity
  8
SLD-0
100
AcDbLine
 10
10.2610417784
 20
38.7949907654
 30
0.0
 11
10.2610417784
 21
40.0449907654
 31
0.0
  0
LINE
  5
18C
330
17E
100
AcDbEntity
  8
SLD-0
100
AcDbLine
 10
10.2610417784
 20
36.2949907654
 30
0.0
 11
10.2610417784
 21
35.0449907654
 31
0.0
  0
MTEXT
  5
18D
330
17E
100
AcDbEntity
  8
SLD-0
100
AcDbMText
 10
8.4062241388
 20
38.4750580062
 30
0.0
 40
0.625
 41
0.0
 71
     1
 72
     1
  1
 
  7
SLDTEXTSTYLE0
 73
     1
 44
1.0
  0
MTEXT
  5
18E
330
17E
100
AcDbEntity
  8
SLD-0
100
AcDbMText
 10
9.1416842135
 20
38.4655093488
 30
0.0
 40
0.625
 41
0.0
 71
     1
 72
     1
  1
2 1/2"
  7
SLDTEXTSTYLE0
 73
     1
 44
1.0
  0
MTEXT
  5
18F
330
17E
100
AcDbEntity
  8
SLD-0
100
AcDbMText
 10
9.0179862883
 20
37.3463687449
 30
0.0
 40
0.625
 41
0.0
 71
     1
 72
     1
  1
64mm
  7
SLDTEXTSTYLE0
 73
     1
 44
1.0
  0
MTEXT
  5
190
330
17E
100
AcDbEntity
  8
SLD-0
100
AcDbMText
 10
11.8849566855
 20
38.4750580062
 30
0.0
 40
0.625
 41
0.0
 71
     1
 72
     1
  1
 
  7
SLDTEXTSTYLE0
 73
     1
 44
1.0
  0
ENDBLK
  5
180
330
17E
100
AcDbEntity
  8
0
100
AcDbBlockEnd
  0
BLOCK
  5
193
330
192
100
AcDbEntity
  8
0
100
AcDbBlockBegin
  2
_D_6
 70
     0
 10
0.0
 20
0.0
 30
0.0
  3
_D_6
  1

  0
SOLID
  5
195
330
192
100
AcDbEntity
  8
SLD-0
100
AcDbTrace
 10
16.983676631
 20
22.9676908741
 30
0.0
 11
17.083676631
 21
23.6176908741
 31
0.0
 12
16.883676631
 22
23.6176908741
 32
0.0
 13
16.883676631
 23
23.6176908741
 33
0.0
  0
SOLID
  5
196
330
192
100
AcDbEntity
  8
SLD-0
100
AcDbTrace
 10
16.983676631
 20
22.0926908741
 30
0.0
 11
16.883676631
 21
21.4426908741
 31
0.0
 12
17.083676631
 22
21.4426908741
 32
0.0
 13
17.083676631
 23
21.4426908741
 33
0.0
  0
LINE
  5
197
330
192
100
AcDbEntity
  8
SLD-0
100
AcDbLine
 10
13.0678788854
 20
24.5886022516
 30
0.0
 11
12.8774491998
 21
24.5886022516
 31
0.0
  0
LINE
  5
198
330
192
100
AcDbEntity
  8
SLD-0
100
AcDbLine
 10
12.8774491998
 20
24.5886022516
 30
0.0
 11
12.8774491998
 21
23.5964147217
 31
0.0
  0
LINE
  5
199
330
192
100
AcDbEntity
  8
SLD-0
100
AcDbLine
 10
12.8774491998
 20
23.5964147217
 30
0.0
 11
13.0678788854
 21
23.5964147217
 31
0.0
  0
LINE
  5
19A
330
192
100
AcDbEntity
  8
SLD-0
100
AcDbLine
 10
15.553990049
 20
24.5886022516
 30
0.0
 11
15.7444197345
 21
24.5886022516
 31
0.0
  0
LINE
  5
19B
330
192
100
AcDbEntity
  8
SLD-0
100
AcDbLine
 10
15.7444197345
 20
24.5886022516
 30
0.0
 11
15.7444197345
 21
23.5964147217
 31
0.0
  0
LINE
  5
19C
330
192
100
AcDbEntity
  8
SLD-0
100
AcDbLine
 10
15.7444197345
 20
23.5964147217
 30
0.0
 11
15.553990049
 21
23.5964147217
 31
0.0
  0
LINE
  5
19D
330
192
100
AcDbEntity
  8
SLD-0
100
AcDbLine
 10
17.6811650051
 20
22.9676908741
 30
0.0
 11
16.358676631
 21
22.9676908741
 31
0.0
  0
LINE
  5
19E
330
192
100
AcDbEntity
  8
SLD-0
100
AcDbLine
 10
17.7117206784
 20
22.0926908741
 30
0.0
 11
16.358676631
 21
22.0926908741
 31
0.0
  0
LINE
  5
19F
330
192
100
AcDbEntity
  8
SLD-0
100
AcDbLine
 10
16.5460497424
 20
24.5933766547
 30
0.0
 11
16.983676631
 21
24.5933766547
 31
0.0
  0
LINE
  5
1A0
330
192
100
AcDbEntity
  8
SLD-0
100
AcDbLine
 10
16.983676631
 20
24.5933766547
 30
0.0
 11
16.983676631
 21
22.9676908741
 31
0.0
  0
LINE
  5
1A1
330
192
100
AcDbEntity
  8
SLD-0
100
AcDbLine
 10
16.983676631
 20
22.0926908741
 30
0.0
 11
16.983676631
 21
20.8426908741
 31
0.0
  0
MTEXT
  5
1A2
330
192
100
AcDbEntity
  8
SLD-0
100
AcDbMText
 10
12.4561167358
 20
25.5234438955
 30
0.0
 40
0.625
 41
0.0
 71
     1
 72
     1
  1
 
  7
SLDTEXTSTYLE0
 73
     1
 44
1.0
  0
MTEXT
  5
1A3
330
192
100
AcDbEntity
  8
SLD-0
100
AcDbMText
 10
13.5379309095
 20
25.5138952381
 30
0.0
 40
0.625
 41
0.0
 71
     1
 72
     1
  1
7/8"
  7
SLDTEXTSTYLE0
 73
     1
 44
1.0
  0
MTEXT
  5
1A4
330
192
100
AcDbEntity
  8
SLD-0
100
AcDbMText
 10
13.0678788854
 20
24.3947546342
 30
0.0
 40
0.625
 41
0.0
 71
     1
 72
     1
  1
22mm
  7
SLDTEXTSTYLE0
 73
     1
 44
1.0
  0
MTEXT
  5
1A5
330
192
100
AcDbEntity
  8
SLD-0
100
AcDbMText
 10
15.9348492826
 20
25.5234438955
 30
0.0
 40
0.625
 41
0.0
 71
     1
 72
     1
  1
 
  7
SLDTEXTSTYLE0
 73
     1
 44
1.0
  0
ENDBLK
  5
194
330
192
100
AcDbEntity
  8
0
100
AcDbBlockEnd
  0
BLOCK
  5
1A8
330
1A7
100
AcDbEntity
  8
0
100
AcDbBlockBegin
  2
_D_7
 70
     0
 10
0.0
 20
0.0
 30
0.0
  3
_D_7
  1

  0
SOLID
  5
1AA
330
1A7
100
AcDbEntity
  8
SLD-0
100
AcDbTrace
 10
23.8561650051
 20
18.7735419839
 30
0.0
 11
23.2061650051
 21
18.8735419839
 31
0.0
 12
23.2061650051
 22
18.6735419839
 32
0.0
 13
23.2061650051
 23
18.6735419839
 33
0.0
  0
SOLID
  5
1AB
330
1A7
100
AcDbEntity
  8
SLD-0
100
AcDbTrace
 10
17.9311650051
 20
18.7735419839
 30
0.0
 11
18.5811650051
 21
18.6735419839
 31
0.0
 12
18.5811650051
 22
18.8735419839
 32
0.0
 13
18.5811650051
 23
18.8735419839
 33
0.0
  0
LINE
  5
1AC
330
1A7
100
AcDbEntity
  8
SLD-0
100
AcDbLine
 10
25.3516044593
 20
18.7735418922
 30
0.0
 11
25.1611747737
 21
18.7735418922
 31
0.0
  0
LINE
  5
1AD
330
1A7
100
AcDbEntity
  8
SLD-0
100
AcDbLine
 10
25.1611747737
 20
18.7735418922
 30
0.0
 11
25.1611747737
 21
17.7813543624
 31
0.0
  0
LINE
  5
1AE
330
1A7
100
AcDbEntity
  8
SLD-0
100
AcDbLine
 10
25.1611747737
 20
17.7813543624
 30
0.0
 11
25.3516044593
 21
17.7813543624
 31
0.0
  0
LINE
  5
1AF
330
1A7
100
AcDbEntity
  8
SLD-0
100
AcDbLine
 10
28.299521088
 20
18.7735418922
 30
0.0
 11
28.4899507736
 21
18.7735418922
 31
0.0
  0
LINE
  5
1B0
330
1A7
100
AcDbEntity
  8
SLD-0
100
AcDbLine
 10
28.4899507736
 20
18.7735418922
 30
0.0
 11
28.4899507736
 21
17.7813543624
 31
0.0
  0
LINE
  5
1B1
330
1A7
100
AcDbEntity
  8
SLD-0
100
AcDbLine
 10
28.4899507736
 20
17.7813543624
 30
0.0
 11
28.299521088
 21
17.7813543624
 31
0.0
  0
LINE
  5
1B2
330
1A7
100
AcDbEntity
  8
SLD-0
100
AcDbLine
 10
23.8561650051
 20
22.7176908741
 30
0.0
 11
23.8561650051
 21
18.1485419839
 31
0.0
  0
LINE
  5
1B3
330
1A7
100
AcDbEntity
  8
SLD-0
100
AcDbLine
 10
17.9311650051
 20
22.7176908741
 30
0.0
 11
17.9311650051
 21
18.1485419839
 31
0.0
  0
LINE
  5
1B4
330
1A7
100
AcDbEntity
  8
SLD-0
100
AcDbLine
 10
23.8561650051
 20
18.7735419839
 30
0.0
 11
24.6463446455
 21
18.7735419839
 31
0.0
  0
LINE
  5
1B5
330
1A7
100
AcDbEntity
  8
SLD-0
100
AcDbLine
 10
17.9311650051
 20
18.7735419839
 30
0.0
 11
23.8561650051
 21
18.7735419839
 31
0.0
  0
MTEXT
  5
1B6
330
1A7
100
AcDbEntity
  8
SLD-0
100
AcDbMText
 10
24.7731105546
 20
19.6988349246
 30
0.0
 40
0.625
 41
0.0
 71
     1
 72
     1
  1
%%c
  7
SLDTEXTSTYLE0
 73
     1
 44
1.0
  0
MTEXT
  5
1B7
330
1A7
100
AcDbEntity
  8
SLD-0
100
AcDbMText
 10
25.7156886575
 20
19.6988349246
 30
0.0
 40
0.625
 41
0.0
 71
     1
 72
     1
  1
5 15/16"
  7
SLDTEXTSTYLE0
 73
     1
 44
1.0
  0
MTEXT
  5
1B8
330
1A7
100
AcDbEntity
  8
SLD-0
100
AcDbMText
 10
25.3516044593
 20
18.5796942749
 30
0.0
 40
0.625
 41
0.0
 71
     1
 72
     1
  1
150mm
  7
SLDTEXTSTYLE0
 73
     1
 44
1.0
  0
ENDBLK
  5
1A9
330
1A7
100
AcDbEntity
  8
0
100
AcDbBlockEnd
  0
BLOCK
  5
1BC
330
1BB
100
AcDbEntity
  8
0
100
AcDbBlockBegin
  2
_D_8
 70
     0
 10
0.0
 20
0.0
 30
0.0
  3
_D_8
  1

  0
SOLID
  5
1BE
330
1BB
100
AcDbEntity
  8
SLD-0
100
AcDbTrace
 10
21.3936650051
 20
34.0149757266
 30
0.0
 11
22.0436650051
 21
33.9149757266
 31
0.0
 12
22.0436650051
 22
34.1149757266
 32
0.0
 13
22.0436650051
 23
34.1149757266
 33
0.0
  0
SOLID
  5
1BF
330
1BB
100
AcDbEntity
  8
SLD-0
100
AcDbTrace
 10
20.3936650051
 20
34.0149757266
 30
0.0
 11
19.7436650051
 21
34.1149757266
 31
0.0
 12
19.7436650051
 22
33.9149757266
 32
0.0
 13
19.7436650051
 23
33.9149757266
 33
0.0
  0
LINE
  5
1C0
330
1BB
100
AcDbEntity
  8
SLD-0
100
AcDbLine
 10
15.740621095
 20
34.014975635
 30
0.0
 11
15.5501914095
 21
34.014975635
 31
0.0
  0
LINE
  5
1C1
330
1BB
100
AcDbEntity
  8
SLD-0
100
AcDbLine
 10
15.5501914095
 20
34.014975635
 30
0.0
 11
15.5501914095
 21
33.0227881051
 31
0.0
  0
LINE
  5
1C2
330
1BB
100
AcDbEntity
  8
SLD-0
100
AcDbLine
 10
15.5501914095
 20
33.0227881051
 30
0.0
 11
15.740621095
 21
33.0227881051
 31
0.0
  0
LINE
  5
1C3
330
1BB
100
AcDbEntity
  8
SLD-0
100
AcDbLine
 10
18.2267322586
 20
34.014975635
 30
0.0
 11
18.4171619442
 21
34.014975635
 31
0.0
  0
LINE
  5
1C4
330
1BB
100
AcDbEntity
  8
SLD-0
100
AcDbLine
 10
18.4171619442
 20
34.014975635
 30
0.0
 11
18.4171619442
 21
33.0227881051
 31
0.0
  0
LINE
  5
1C5
330
1BB
100
AcDbEntity
  8
SLD-0
100
AcDbLine
 10
18.4171619442
 20
33.0227881051
 30
0.0
 11
18.2267322586
 21
33.0227881051
 31
0.0
  0
LINE
  5
1C6
330
1BB
100
AcDbEntity
  8
SLD-0
100
AcDbLine
 10
21.3936650051
 20
34.0149757266
 30
0.0
 11
22.6436650051
 21
34.0149757266
 31
0.0
  0
LINE
  5
1C7
330
1BB
100
AcDbEntity
  8
SLD-0
100
AcDbLine
 10
20.3936650051
 20
34.0149757266
 30
0.0
 11
18.7343574472
 21
34.0149757266
 31
0.0
  0
MTEXT
  5
1C8
330
1BB
100
AcDbEntity
  8
SLD-0
100
AcDbMText
 10
16.1525785736
 20
34.9402686673
 30
0.0
 40
0.625
 41
0.0
 71
     1
 72
     1
  1
%%c
  7
SLDTEXTSTYLE0
 73
     1
 44
1.0
  0
MTEXT
  5
1C9
330
1BB
100
AcDbEntity
  8
SLD-0
100
AcDbMText
 10
17.0951566765
 20
34.9402686673
 30
0.0
 40
0.625
 41
0.0
 71
     1
 72
     1
  1
1"
  7
SLDTEXTSTYLE0
 73
     1
 44
1.0
  0
MTEXT
  5
1CA
330
1BB
100
AcDbEntity
  8
SLD-0
100
AcDbMText
 10
15.740621095
 20
33.8211280176
 30
0.0
 40
0.625
 41
0.0
 71
     1
 72
     1
  1
25mm
  7
SLDTEXTSTYLE0
 73
     1
 44
1.0
  0
ENDBLK
  5
1BD
330
1BB
100
AcDbEntity
  8
0
100
AcDbBlockEnd
  0
BLOCK
  5
1CD
330
1CC
100
AcDbEntity
  8
0
100
AcDbBlockBegin
  2
_D_9
 70
     0
 10
0.0
 20
0.0
 30
0.0
  3
_D_9
  1

  0
SOLID
  5
1CF
330
1CC
100
AcDbEntity
  8
SLD-0
100
AcDbTrace
 10
10.2610417784
 20
13.9676908741
 30
0.0
 11
10.3610417784
 21
14.6176908741
 31
0.0
 12
10.1610417784
 22
14.6176908741
 32
0.0
 13
10.1610417784
 23
14.6176908741
 33
0.0
  0
SOLID
  5
1D0
330
1CC
100
AcDbEntity
  8
SLD-0
100
AcDbTrace
 10
10.2610417784
 20
26.0183070463
 30
0.0
 11
10.1610417784
 21
25.3683070463
 31
0.0
 12
10.3610417784
 22
25.3683070463
 32
0.0
 13
10.3610417784
 23
25.3683070463
 33
0.0
  0
LINE
  5
1D1
330
1CC
100
AcDbEntity
  8
SLD-0
100
AcDbLine
 10
8.7870835557
 20
19.988224557
 30
0.0
 11
8.5966538702
 21
19.988224557
 31
0.0
  0
LINE
  5
1D2
330
1CC
100
AcDbEntity
  8
SLD-0
100
AcDbLine
 10
8.5966538702
 20
19.988224557
 30
0.0
 11
8.5966538702
 21
18.9960370272
 31
0.0
  0
LINE
  5
1D3
330
1CC
100
AcDbEntity
  8
SLD-0
100
AcDbLine
 10
8.5966538702
 20
18.9960370272
 30
0.0
 11
8.7870835557
 21
18.9960370272
 31
0.0
  0
LINE
  5
1D4
330
1CC
100
AcDbEntity
  8
SLD-0
100
AcDbLine
 10
11.7350001845
 20
19.988224557
 30
0.0
 11
11.92542987
 21
19.988224557
 31
0.0
  0
LINE
  5
1D5
330
1CC
100
AcDbEntity
  8
SLD-0
100
AcDbLine
 10
11.92542987
 20
19.988224557
 30
0.0
 11
11.92542987
 21
18.9960370272
 31
0.0
  0
LINE
  5
1D6
330
1CC
100
AcDbEntity
  8
SLD-0
100
AcDbLine
 10
11.92542987
 20
18.9960370272
 30
0.0
 11
11.7350001845
 21
18.9960370272
 31
0.0
  0
LINE
  5
1D7
330
1CC
100
AcDbEntity
  8
SLD-0
100
AcDbLine
 10
21.8311650051
 20
13.9676908741
 30
0.0
 11
9.6360417784
 21
13.9676908741
 31
0.0
  0
LINE
  5
1D8
330
1CC
100
AcDbEntity
  8
SLD-0
100
AcDbLine
 10
19.4561650051
 20
26.0183070463
 30
0.0
 11
9.6360417784
 21
26.0183070463
 31
0.0
  0
LINE
  5
1D9
330
1CC
100
AcDbEntity
  8
SLD-0
100
AcDbLine
 10
10.2610417784
 20
13.9676908741
 30
0.0
 11
10.2610417784
 21
16.6652550588
 31
0.0
  0
LINE
  5
1DA
330
1CC
100
AcDbEntity
  8
SLD-0
100
AcDbLine
 10
10.2610417784
 20
26.0183070463
 30
0.0
 11
10.2610417784
 21
21.1169138183
 31
0.0
  0
LINE
  5
1DB
330
1CC
100
AcDbEntity
  8
SLD-0
100
AcDbLine
 10
10.2610417784
 20
16.6652550588
 30
0.0
 11
10.5735417784
 21
16.8215050588
 31
0.0
  0
LINE
  5
1DC
330
1CC
100
AcDbEntity
  8
SLD-0
100
AcDbLine
 10
10.5735417784
 20
16.8215050588
 30
0.0
 11
9.9485417784
 21
17.1340050588
 31
0.0
  0
LINE
  5
1DD
330
1CC
100
AcDbEntity
  8
SLD-0
100
AcDbLine
 10
9.9485417784
 20
17.1340050588
 30
0.0
 11
10.2610417784
 21
17.2902550588
 31
0.0
  0
LINE
  5
1DE
330
1CC
100
AcDbEntity
  8
SLD-0
100
AcDbLine
 10
10.2610417784
 20
17.2902550588
 30
0.0
 11
10.2610417784
 21
18.8690841021
 31
0.0
  0
MTEXT
  5
1DF
330
1CC
100
AcDbEntity
  8
SLD-0
100
AcDbMText
 10
8.1753214062
 20
20.9230662009
 30
0.0
 40
0.625
 41
0.0
 71
     1
 72
     1
  1
 
  7
SLDTEXTSTYLE0
 73
     1
 44
1.0
  0
MTEXT
  5
1E0
330
1CC
100
AcDbEntity
  8
SLD-0
100
AcDbMText
 10
9.6703300399
 20
20.9135175435
 30
0.0
 40
0.625
 41
0.0
 71
     1
 72
     1
  1
18"
  7
SLDTEXTSTYLE0
 73
     1
 44
1.0
  0
MTEXT
  5
1E1
330
1CC
100
AcDbEntity
  8
SLD-0
100
AcDbMText
 10
8.7870835557
 20
19.7943769397
 30
0.0
 40
0.625
 41
0.0
 71
     1
 72
     1
  1
457mm
  7
SLDTEXTSTYLE0
 73
     1
 44
1.0
  0
MTEXT
  5
1E2
330
1CC
100
AcDbEntity
  8
SLD-0
100
AcDbMText
 10
12.1158594181
 20
20.9230662009
 30
0.0
 40
0.625
 41
0.0
 71
     1
 72
     1
  1
 
  7
SLDTEXTSTYLE0
 73
     1
 44
1.0
  0
ENDBLK
  5
1CE
330
1CC
100
AcDbEntity
  8
0
100
AcDbBlockEnd
  0
BLOCK
  5
1E5
330
1E4
100
AcDbEntity
  8
0
100
AcDbBlockBegin
  2
_D_10
 70
     0
 10
0.0
 20
0.0
 30
0.0
  3
_D_10
  1

  0
SOLID
  5
1E7
330
1E4
100
AcDbEntity
  8
SLD-0
100
AcDbTrace
 10
28.1025984931
 20
31.3962802232
 30
0.0
 11
28.632928579
 21
31.7851889528
 31
0.0
 12
28.4915072227
 22
31.9266103091
 32
0.0
 13
28.4915072227
 23
31.9266103091
 33
0.0
  0
SOLID
  5
1E8
330
1E4
100
AcDbEntity
  8
SLD-0
100
AcDbTrace
 10
29.6723755473
 20
32.9660572774
 30
0.0
 11
29.1420454614
 21
32.5771485478
 31
0.0
 12
29.2834668177
 22
32.4357271915
 32
0.0
 13
29.2834668177
 23
32.4357271915
 33
0.0
  0
LINE
  5
1E9
330
1E4
100
AcDbEntity
  8
SLD-0
100
AcDbLine
 10
32.7960597834
 20
34.4588820507
 30
0.0
 11
32.6056300978
 21
34.4588820507
 31
0.0
  0
LINE
  5
1EA
330
1E4
100
AcDbEntity
  8
SLD-0
100
AcDbLine
 10
32.6056300978
 20
34.4588820507
 30
0.0
 11
32.6056300978
 21
33.4666945208
 31
0.0
  0
LINE
  5
1EB
330
1E4
100
AcDbEntity
  8
SLD-0
100
AcDbLine
 10
32.6056300978
 20
33.4666945208
 30
0.0
 11
32.7960597834
 21
33.4666945208
 31
0.0
  0
LINE
  5
1EC
330
1E4
100
AcDbEntity
  8
SLD-0
100
AcDbLine
 10
35.2821709469
 20
34.4588820507
 30
0.0
 11
35.4726006325
 21
34.4588820507
 31
0.0
  0
LINE
  5
1ED
330
1E4
100
AcDbEntity
  8
SLD-0
100
AcDbLine
 10
35.4726006325
 20
34.4588820507
 30
0.0
 11
35.4726006325
 21
33.4666945208
 31
0.0
  0
LINE
  5
1EE
330
1E4
100
AcDbEntity
  8
SLD-0
100
AcDbLine
 10
35.4726006325
 20
33.4666945208
 30
0.0
 11
35.2821709469
 21
33.4666945208
 31
0.0
  0
LINE
  5
1EF
330
1E4
100
AcDbEntity
  8
SLD-0
100
AcDbLine
 10
26.0371962062
 20
33.4616825101
 30
0.0
 11
28.5445402313
 21
30.9543384849
 31
0.0
  0
LINE
  5
1F0
330
1E4
100
AcDbEntity
  8
SLD-0
100
AcDbLine
 10
29.1767503147
 20
33.4616825101
 30
0.0
 11
30.1143172856
 21
32.5241155392
 31
0.0
  0
LINE
  5
1F1
330
1E4
100
AcDbEntity
  8
SLD-0
100
AcDbLine
 10
28.1025984931
 20
31.3962802232
 30
0.0
 11
29.6723755473
 21
32.9660572774
 31
0.0
  0
LINE
  5
1F2
330
1E4
100
AcDbEntity
  8
SLD-0
100
AcDbLine
 10
29.6723755473
 20
32.9660572774
 30
0.0
 11
31.1652004122
 21
34.4588821423
 31
0.0
  0
LINE
  5
1F3
330
1E4
100
AcDbEntity
  8
SLD-0
100
AcDbLine
 10
31.1652004122
 20
34.4588821423
 30
0.0
 11
32.4152004122
 21
34.4588821423
 31
0.0
  0
MTEXT
  5
1F4
330
1E4
100
AcDbEntity
  8
SLD-0
100
AcDbMText
 10
32.4484686113
 20
35.3841750831
 30
0.0
 40
0.625
 41
0.0
 71
     1
 72
     1
  1
%%c
  7
SLDTEXTSTYLE0
 73
     1
 44
1.0
  0
MTEXT
  5
1F5
330
1E4
100
AcDbEntity
  8
SLD-0
100
AcDbMText
 10
33.3910467142
 20
35.3841750831
 30
0.0
 40
0.625
 41
0.0
 71
     1
 72
     1
  1
2 1/4"
  7
SLDTEXTSTYLE0
 73
     1
 44
1.0
  0
MTEXT
  5
1F6
330
1E4
100
AcDbEntity
  8
SLD-0
100
AcDbMText
 10
32.7960597834
 20
34.2650344333
 30
0.0
 40
0.625
 41
0.0
 71
     1
 72
     1
  1
56mm
  7
SLDTEXTSTYLE0
 73
     1
 44
1.0
  0
ENDBLK
  5
1E6
330
1E4
100
AcDbEntity
  8
0
100
AcDbBlockEnd
  0
BLOCK
  5
1F9
330
1F8
100
AcDbEntity
  8
0
100
AcDbBlockBegin
  2
_D_11
 70
     0
 10
0.0
 20
0.0
 30
0.0
  3
_D_11
  1

  0
SOLID
  5
1FB
330
1F8
100
AcDbEntity
  8
SLD-0
100
AcDbTrace
 10
30.9843804385
 20
35.6228660245
 30
0.0
 11
30.5954717089
 21
36.1531961104
 31
0.0
 12
30.4540503526
 22
36.0117747541
 32
0.0
 13
30.4540503526
 23
36.0117747541
 33
0.0
  0
SOLID
  5
1FC
330
1F8
100
AcDbEntity
  8
SLD-0
100
AcDbTrace
 10
25.9179603513
 20
40.6892861117
 30
0.0
 11
26.306869081
 21
40.1589560258
 31
0.0
 12
26.4482904372
 22
40.300377382
 32
0.0
 13
26.4482904372
 23
40.300377382
 33
0.0
  0
LINE
  5
1FD
330
1F8
100
AcDbEntity
  8
SLD-0
100
AcDbLine
 10
26.9772121722
 20
38.1513016649
 30
0.0
 11
26.7867824866
 21
38.1513016649
 31
0.0
  0
LINE
  5
1FE
330
1F8
100
AcDbEntity
  8
SLD-0
100
AcDbLine
 10
26.7867824866
 20
38.1513016649
 30
0.0
 11
26.7867824866
 21
37.1591141351
 31
0.0
  0
LINE
  5
1FF
330
1F8
100
AcDbEntity
  8
SLD-0
100
AcDbLine
 10
26.7867824866
 20
37.1591141351
 30
0.0
 11
26.9772121722
 21
37.1591141351
 31
0.0
  0
LINE
  5
200
330
1F8
100
AcDbEntity
  8
SLD-0
100
AcDbLine
 10
29.925128801
 20
38.1513016649
 30
0.0
 11
30.1155584865
 21
38.1513016649
 31
0.0
  0
LINE
  5
201
330
1F8
100
AcDbEntity
  8
SLD-0
100
AcDbLine
 10
30.1155584865
 20
38.1513016649
 30
0.0
 11
30.1155584865
 21
37.1591141351
 31
0.0
  0
LINE
  5
202
330
1F8
100
AcDbEntity
  8
SLD-0
100
AcDbLine
 10
30.1155584865
 20
37.1591141351
 30
0.0
 11
29.925128801
 21
37.1591141351
 31
0.0
  0
LINE
  5
203
330
1F8
100
AcDbEntity
  8
SLD-0
100
AcDbLine
 10
29.1767503147
 20
33.8152359007
 30
0.0
 11
31.4263221768
 21
36.0648077627
 31
0.0
  0
LINE
  5
204
330
1F8
100
AcDbEntity
  8
SLD-0
100
AcDbLine
 10
23.6754595571
 20
38.4467853174
 30
0.0
 11
26.3599020896
 21
41.1312278499
 31
0.0
  0
LINE
  5
205
330
1F8
100
AcDbEntity
  8
SLD-0
100
AcDbLine
 10
30.9843804385
 20
35.6228660245
 30
0.0
 11
29.575085253
 21
37.03216121
 31
0.0
  0
LINE
  5
206
330
1F8
100
AcDbEntity
  8
SLD-0
100
AcDbLine
 10
25.9179603513
 20
40.6892861117
 30
0.0
 11
27.3272555368
 21
39.2799909262
 31
0.0
  0
MTEXT
  5
207
330
1F8
100
AcDbEntity
  8
SLD-0
100
AcDbMText
 10
26.3654500227
 20
39.0861433089
 30
0.0
 40
0.625
 41
0.0
 71
     1
 72
     1
  1
 
  7
SLDTEXTSTYLE0
 73
     1
 44
1.0
  0
MTEXT
  5
208
330
1F8
100
AcDbEntity
  8
SLD-0
100
AcDbMText
 10
27.1009100057
 20
39.0765946514
 30
0.0
 40
0.625
 41
0.0
 71
     1
 72
     1
  1
7 3/16"
  7
SLDTEXTSTYLE0
 73
     1
 44
1.0
  0
MTEXT
  5
209
330
1F8
100
AcDbEntity
  8
SLD-0
100
AcDbMText
 10
26.9772121722
 20
37.9574540476
 30
0.0
 40
0.625
 41
0.0
 71
     1
 72
     1
  1
182mm
  7
SLDTEXTSTYLE0
 73
     1
 44
1.0
  0
MTEXT
  5
20A
330
1F8
100
AcDbEntity
  8
SLD-0
100
AcDbMText
 10
30.3059880346
 20
39.0861433089
 30
0.0
 40
0.625
 41
0.0
 71
     1
 72
     1
  1
 
  7
SLDTEXTSTYLE0
 73
     1
 44
1.0
  0
ENDBLK
  5
1FA
330
1F8
100
AcDbEntity
  8
0
100
AcDbBlockEnd
  0
BLOCK
  5
20D
330
20C
100
AcDbEntity
  8
0
100
AcDbBlockBegin
  2
_D_12
 70
     0
 10
0.0
 20
0.0
 30
0.0
  3
_D_12
  1

  0
SOLID
  5
20F
330
20C
100
AcDbEntity
  8
SLD-0
100
AcDbTrace
 10
23.1486650051
 20
41.0502066006
 30
0.0
 11
22.4986650051
 21
41.1502066006
 31
0.0
 12
22.4986650051
 22
40.9502066006
 32
0.0
 13
22.4986650051
 23
40.9502066006
 33
0.0
  0
SOLID
  5
210
330
20C
100
AcDbEntity
  8
SLD-0
100
AcDbTrace
 10
20.2686650051
 20
41.0502066006
 30
0.0
 11
20.9186650051
 21
40.9502066006
 31
0.0
 12
20.9186650051
 22
41.1502066006
 32
0.0
 13
20.9186650051
 23
41.1502066006
 33
0.0
  0
LINE
  5
211
330
20C
100
AcDbEntity
  8
SLD-0
100
AcDbLine
 10
9.0179862883
 20
41.0454321974
 30
0.0
 11
8.8275566028
 21
41.0454321974
 31
0.0
  0
LINE
  5
212
330
20C
100
AcDbEntity
  8
SLD-0
100
AcDbLine
 10
8.8275566028
 20
41.0454321974
 30
0.0
 11
8.8275566028
 21
40.0532446676
 31
0.0
  0
LINE
  5
213
330
20C
100
AcDbEntity
  8
SLD-0
100
AcDbLine
 10
8.8275566028
 20
40.0532446676
 30
0.0
 11
9.0179862883
 21
40.0532446676
 31
0.0
  0
LINE
  5
214
330
20C
100
AcDbEntity
  8
SLD-0
100
AcDbLine
 10
11.5040974519
 20
41.0454321974
 30
0.0
 11
11.6945271374
 21
41.0454321974
 31
0.0
  0
LINE
  5
215
330
20C
100
AcDbEntity
  8
SLD-0
100
AcDbLine
 10
11.6945271374
 20
41.0454321974
 30
0.0
 11
11.6945271374
 21
40.0532446676
 31
0.0
  0
LINE
  5
216
330
20C
100
AcDbEntity
  8
SLD-0
100
AcDbLine
 10
11.6945271374
 20
40.0532446676
 30
0.0
 11
11.5040974519
 21
40.0532446676
 31
0.0
  0
LINE
  5
217
330
20C
100
AcDbEntity
  8
SLD-0
100
AcDbLine
 10
23.1486650051
 20
38.1699907654
 30
0.0
 11
23.1486650051
 21
41.6752066006
 31
0.0
  0
LINE
  5
218
330
20C
100
AcDbEntity
  8
SLD-0
100
AcDbLine
 10
20.2686650051
 20
38.9830122513
 30
0.0
 11
20.2686650051
 21
41.6752066006
 31
0.0
  0
LINE
  5
219
330
20C
100
AcDbEntity
  8
SLD-0
100
AcDbLine
 10
23.1486650051
 20
41.0502066006
 30
0.0
 11
20.2686650051
 21
41.0502066006
 31
0.0
  0
LINE
  5
21A
330
20C
100
AcDbEntity
  8
SLD-0
100
AcDbLine
 10
20.2686650051
 20
41.0502066006
 30
0.0
 11
12.2426253272
 21
41.0502066006
 31
0.0
  0
MTEXT
  5
21B
330
20C
100
AcDbEntity
  8
SLD-0
100
AcDbMText
 10
8.4062241388
 20
41.9802738414
 30
0.0
 40
0.625
 41
0.0
 71
     1
 72
     1
  1
 
  7
SLDTEXTSTYLE0
 73
     1
 44
1.0
  0
MTEXT
  5
21C
330
20C
100
AcDbEntity
  8
SLD-0
100
AcDbMText
 10
9.1416842135
 20
41.970725184
 30
0.0
 40
0.625
 41
0.0
 71
     1
 72
     1
  1
2 7/8"
  7
SLDTEXTSTYLE0
 73
     1
 44
1.0
  0
MTEXT
  5
21D
330
20C
100
AcDbEntity
  8
SLD-0
100
AcDbMText
 10
9.0179862883
 20
40.8515845801
 30
0.0
 40
0.625
 41
0.0
 71
     1
 72
     1
  1
73mm
  7
SLDTEXTSTYLE0
 73
     1
 44
1.0
  0
MTEXT
  5
21E
330
20C
100
AcDbEntity
  8
SLD-0
100
AcDbMText
 10
11.8849566855
 20
41.9802738414
 30
0.0
 40
0.625
 41
0.0
 71
     1
 72
     1
  1
 
  7
SLDTEXTSTYLE0
 73
     1
 44
1.0
  0
ENDBLK
  5
20E
330
20C
100
AcDbEntity
  8
0
100
AcDbBlockEnd
  0
BLOCK
  5
228
330
227
100
AcDbEntity
  8
0
100
AcDbBlockBegin
  2
SW_BROKEN_VIEW_1
 70
     0
 10
0.0
 20
0.0
 30
0.0
  3
SW_BROKEN_VIEW_1
  1

  0
ENDBLK
  5
229
330
227
100
AcDbEntity
  8
0
100
AcDbBlockEnd
  0
BLOCK
  5
34E
330
34D
100
AcDbEntity
  8
0
100
AcDbBlockBegin
  2
_D_13
 70
     0
 10
0.0
 20
0.0
 30
0.0
  3
_D_13
  1

  0
SOLID
  5
350
330
34D
100
AcDbEntity
  8
SLD-0
100
AcDbTrace
 10
17.832872595
 20
6.1049935449
 30
0.0
 11
17.932872595
 21
6.7549935449
 31
0.0
 12
17.732872595
 22
6.7549935449
 32
0.0
 13
17.732872595
 23
6.7549935449
 33
0.0
  0
SOLID
  5
351
330
34D
100
AcDbEntity
  8
SLD-0
100
AcDbTrace
 10
17.832872595
 20
2.9174935449
 30
0.0
 11
17.732872595
 21
2.2674935449
 31
0.0
 12
17.932872595
 22
2.2674935449
 32
0.0
 13
17.932872595
 23
2.2674935449
 33
0.0
  0
LINE
  5
352
330
34D
100
AcDbEntity
  8
SLD-0
100
AcDbLine
 10
16.5898171048
 20
4.2638830316
 30
0.0
 11
16.3993874193
 21
4.2638830316
 31
0.0
  0
LINE
  5
353
330
34D
100
AcDbEntity
  8
SLD-0
100
AcDbLine
 10
16.3993874193
 20
4.2638830316
 30
0.0
 11
16.3993874193
 21
3.2716955017
 31
0.0
  0
LINE
  5
354
330
34D
100
AcDbEntity
  8
SLD-0
100
AcDbLine
 10
16.3993874193
 20
3.2716955017
 30
0.0
 11
16.5898171048
 21
3.2716955017
 31
0.0
  0
LINE
  5
355
330
34D
100
AcDbEntity
  8
SLD-0
100
AcDbLine
 10
19.0759282684
 20
4.2638830316
 30
0.0
 11
19.266357954
 21
4.2638830316
 31
0.0
  0
LINE
  5
356
330
34D
100
AcDbEntity
  8
SLD-0
100
AcDbLine
 10
19.266357954
 20
4.2638830316
 30
0.0
 11
19.266357954
 21
3.2716955017
 31
0.0
  0
LINE
  5
357
330
34D
100
AcDbEntity
  8
SLD-0
100
AcDbLine
 10
19.266357954
 20
3.2716955017
 30
0.0
 11
19.0759282684
 21
3.2716955017
 31
0.0
  0
LINE
  5
358
330
34D
100
AcDbEntity
  8
SLD-0
100
AcDbLine
 10
21.0970892307
 20
6.1049935449
 30
0.0
 11
17.207872595
 21
6.1049935449
 31
0.0
  0
LINE
  5
359
330
34D
100
AcDbEntity
  8
SLD-0
100
AcDbLine
 10
20.9658392307
 20
2.9174935449
 30
0.0
 11
17.207872595
 21
2.9174935449
 31
0.0
  0
LINE
  5
35A
330
34D
100
AcDbEntity
  8
SLD-0
100
AcDbLine
 10
17.832872595
 20
6.1049935449
 30
0.0
 11
17.832872595
 21
7.3549935449
 31
0.0
  0
LINE
  5
35B
330
34D
100
AcDbEntity
  8
SLD-0
100
AcDbLine
 10
17.832872595
 20
2.9174935449
 30
0.0
 11
17.832872595
 21
1.6674935449
 31
0.0
  0
MTEXT
  5
35C
330
34D
100
AcDbEntity
  8
SLD-0
100
AcDbMText
 10
15.9780549553
 20
5.1987246755
 30
0.0
 40
0.625
 41
0.0
 71
     1
 72
     1
  1
 
  7
SLDTEXTSTYLE0
 73
     1
 44
1.0
  0
MTEXT
  5
35D
330
34D
100
AcDbEntity
  8
SLD-0
100
AcDbMText
 10
16.4826122058
 20
5.1891760181
 30
0.0
 40
0.625
 41
0.0
 71
     1
 72
     1
  1
2 9/16"
  7
SLDTEXTSTYLE0
 73
     1
 44
1.0
  0
MTEXT
  5
35E
330
34D
100
AcDbEntity
  8
SLD-0
100
AcDbMText
 10
16.5898171048
 20
4.0700354142
 30
0.0
 40
0.625
 41
0.0
 71
     1
 72
     1
  1
65mm
  7
SLDTEXTSTYLE0
 73
     1
 44
1.0
  0
MTEXT
  5
35F
330
34D
100
AcDbEntity
  8
SLD-0
100
AcDbMText
 10
19.456787502
 20
5.1987246755
 30
0.0
 40
0.625
 41
0.0
 71
     1
 72
     1
  1
 
  7
SLDTEXTSTYLE0
 73
     1
 44
1.0
  0
ENDBLK
  5
34F
330
34D
100
AcDbEntity
  8
0
100
AcDbBlockEnd
  0
BLOCK
  5
36E
330
36D
100
AcDbEntity
  8
0
100
AcDbBlockBegin
  2
_D_14
 70
     0
 10
0.0
 20
0.0
 30
0.0
  3
_D_14
  1

  0
SOLID
  5
370
330
36D
100
AcDbEntity
  8
SLD-0
100
AcDbTrace
 10
7.8469653522
 20
8.8487435449
 30
0.0
 11
7.7469653522
 21
8.1987435449
 31
0.0
 12
7.9469653522
 22
8.1987435449
 32
0.0
 13
7.9469653522
 23
8.1987435449
 33
0.0
  0
SOLID
  5
371
330
36D
100
AcDbEntity
  8
SLD-0
100
AcDbTrace
 10
7.8469653522
 20
2.9174935449
 30
0.0
 11
7.9469653522
 21
3.5674935449
 31
0.0
 12
7.7469653522
 22
3.5674935449
 32
0.0
 13
7.7469653522
 23
3.5674935449
 33
0.0
  0
LINE
  5
372
330
36D
100
AcDbEntity
  8
SLD-0
100
AcDbLine
 10
6.3730071295
 20
5.6300980837
 30
0.0
 11
6.1825774439
 21
5.6300980837
 31
0.0
  0
LINE
  5
373
330
36D
100
AcDbEntity
  8
SLD-0
100
AcDbLine
 10
6.1825774439
 20
5.6300980837
 30
0.0
 11
6.1825774439
 21
4.6379105539
 31
0.0
  0
LINE
  5
374
330
36D
100
AcDbEntity
  8
SLD-0
100
AcDbLine
 10
6.1825774439
 20
4.6379105539
 30
0.0
 11
6.3730071295
 21
4.6379105539
 31
0.0
  0
LINE
  5
375
330
36D
100
AcDbEntity
  8
SLD-0
100
AcDbLine
 10
9.3209237582
 20
5.6300980837
 30
0.0
 11
9.5113534438
 21
5.6300980837
 31
0.0
  0
LINE
  5
376
330
36D
100
AcDbEntity
  8
SLD-0
100
AcDbLine
 10
9.5113534438
 20
5.6300980837
 30
0.0
 11
9.5113534438
 21
4.6379105539
 31
0.0
  0
LINE
  5
377
330
36D
100
AcDbEntity
  8
SLD-0
100
AcDbLine
 10
9.5113534438
 20
4.6379105539
 30
0.0
 11
9.3209237582
 21
4.6379105539
 31
0.0
  0
LINE
  5
378
330
36D
100
AcDbEntity
  8
SLD-0
100
AcDbLine
 10
11.476165581
 20
8.8487435449
 30
0.0
 11
7.2219653522
 21
8.8487435449
 31
0.0
  0
LINE
  5
379
330
36D
100
AcDbEntity
  8
SLD-0
100
AcDbLine
 10
11.476165581
 20
2.9174935449
 30
0.0
 11
7.2219653522
 21
2.9174935449
 31
0.0
  0
LINE
  5
37A
330
36D
100
AcDbEntity
  8
SLD-0
100
AcDbLine
 10
7.8469653522
 20
8.8487435449
 30
0.0
 11
7.8469653522
 21
6.758787345
 31
0.0
  0
LINE
  5
37B
330
36D
100
AcDbEntity
  8
SLD-0
100
AcDbLine
 10
7.8469653522
 20
2.9174935449
 30
0.0
 11
7.8469653522
 21
4.5109576288
 31
0.0
  0
MTEXT
  5
37C
330
36D
100
AcDbEntity
  8
SLD-0
100
AcDbMText
 10
5.7612449799
 20
6.5649397277
 30
0.0
 40
0.625
 41
0.0
 71
     1
 72
     1
  1
 
  7
SLDTEXTSTYLE0
 73
     1
 44
1.0
  0
MTEXT
  5
37D
330
36D
100
AcDbEntity
  8
SLD-0
100
AcDbMText
 10
6.7276077873
 20
6.5553910703
 30
0.0
 40
0.625
 41
0.0
 71
     1
 72
     1
  1
4 3/4"
  7
SLDTEXTSTYLE0
 73
     1
 44
1.0
  0
MTEXT
  5
37E
330
36D
100
AcDbEntity
  8
SLD-0
100
AcDbMText
 10
6.3730071295
 20
5.4362504664
 30
0.0
 40
0.625
 41
0.0
 71
     1
 72
     1
  1
121mm
  7
SLDTEXTSTYLE0
 73
     1
 44
1.0
  0
MTEXT
  5
37F
330
36D
100
AcDbEntity
  8
SLD-0
100
AcDbMText
 10
9.7017829918
 20
6.5649397277
 30
0.0
 40
0.625
 41
0.0
 71
     1
 72
     1
  1
 
  7
SLDTEXTSTYLE0
 73
     1
 44
1.0
  0
ENDBLK
  5
36F
330
36D
100
AcDbEntity
  8
0
100
AcDbBlockEnd
  0
BLOCK
  5
38E
330
38D
100
AcDbEntity
  8
0
100
AcDbBlockBegin
  2
_D_15
 70
     0
 10
0.0
 20
0.0
 30
0.0
  3
_D_15
  1

  0
SOLID
  5
390
330
38D
100
AcDbEntity
  8
SLD-0
100
AcDbTrace
 10
29.2014869061
 20
2.9174935449
 30
0.0
 11
29.1014869061
 21
2.2674935449
 31
0.0
 12
29.3014869061
 22
2.2674935449
 32
0.0
 13
29.3014869061
 23
2.2674935449
 33
0.0
  0
SOLID
  5
391
330
38D
100
AcDbEntity
  8
SLD-0
100
AcDbTrace
 10
29.2014869061
 20
4.9799935449
 30
0.0
 11
29.3014869061
 21
5.6299935449
 31
0.0
 12
29.1014869061
 22
5.6299935449
 32
0.0
 13
29.1014869061
 23
5.6299935449
 33
0.0
  0
LINE
  5
392
330
38D
100
AcDbEntity
  8
SLD-0
100
AcDbLine
 10
27.958431416
 20
3.9420916608
 30
0.0
 11
27.7680017304
 21
3.9420916608
 31
0.0
  0
LINE
  5
393
330
38D
100
AcDbEntity
  8
SLD-0
100
AcDbLine
 10
27.7680017304
 20
3.9420916608
 30
0.0
 11
27.7680017304
 21
2.949904131
 31
0.0
  0
LINE
  5
394
330
38D
100
AcDbEntity
  8
SLD-0
100
AcDbLine
 10
27.7680017304
 20
2.949904131
 30
0.0
 11
27.958431416
 21
2.949904131
 31
0.0
  0
LINE
  5
395
330
38D
100
AcDbEntity
  8
SLD-0
100
AcDbLine
 10
30.4445425796
 20
3.9420916608
 30
0.0
 11
30.6349722651
 21
3.9420916608
 31
0.0
  0
LINE
  5
396
330
38D
100
AcDbEntity
  8
SLD-0
100
AcDbLine
 10
30.6349722651
 20
3.9420916608
 30
0.0
 11
30.6349722651
 21
2.949904131
 31
0.0
  0
LINE
  5
397
330
38D
100
AcDbEntity
  8
SLD-0
100
AcDbLine
 10
30.6349722651
 20
2.949904131
 30
0.0
 11
30.4445425796
 21
2.949904131
 31
0.0
  0
LINE
  5
398
330
38D
100
AcDbEntity
  8
SLD-0
100
AcDbLine
 10
32.3323583576
 20
2.9174935449
 30
0.0
 11
28.5764869061
 21
2.9174935449
 31
0.0
  0
LINE
  5
399
330
38D
100
AcDbEntity
  8
SLD-0
100
AcDbLine
 10
32.3698583576
 20
4.9799935449
 30
0.0
 11
28.5764869061
 21
4.9799935449
 31
0.0
  0
LINE
  5
39A
330
38D
100
AcDbEntity
  8
SLD-0
100
AcDbLine
 10
29.2014869061
 20
2.9174935449
 30
0.0
 11
29.2014869061
 21
1.6674935449
 31
0.0
  0
LINE
  5
39B
330
38D
100
AcDbEntity
  8
SLD-0
100
AcDbLine
 10
29.2014869061
 20
4.9799935449
 30
0.0
 11
29.2014869061
 21
6.2299935449
 31
0.0
  0
MTEXT
  5
39C
330
38D
100
AcDbEntity
  8
SLD-0
100
AcDbMText
 10
27.3466692665
 20
4.8769333048
 30
0.0
 40
0.625
 41
0.0
 71
     1
 72
     1
  1
 
  7
SLDTEXTSTYLE0
 73
     1
 44
1.0
  0
MTEXT
  5
39D
330
38D
100
AcDbEntity
  8
SLD-0
100
AcDbMText
 10
28.0821293412
 20
4.8673846474
 30
0.0
 40
0.625
 41
0.0
 71
     1
 72
     1
  1
1 5/8"
  7
SLDTEXTSTYLE0
 73
     1
 44
1.0
  0
MTEXT
  5
39E
330
38D
100
AcDbEntity
  8
SLD-0
100
AcDbMText
 10
27.958431416
 20
3.7482440435
 30
0.0
 40
0.625
 41
0.0
 71
     1
 72
     1
  1
42mm
  7
SLDTEXTSTYLE0
 73
     1
 44
1.0
  0
MTEXT
  5
39F
330
38D
100
AcDbEntity
  8
SLD-0
100
AcDbMText
 10
30.8254018132
 20
4.8769333048
 30
0.0
 40
0.625
 41
0.0
 71
     1
 72
     1
  1
 
  7
SLDTEXTSTYLE0
 73
     1
 44
1.0
  0
ENDBLK
  5
38F
330
38D
100
AcDbEntity
  8
0
100
AcDbBlockEnd
  0
BLOCK
  5
3AF
330
3AE
100
AcDbEntity
  8
0
100
AcDbBlockBegin
  2
_D_16
 70
     0
 10
0.0
 20
0.0
 30
0.0
  3
_D_16
  1

  0
SOLID
  5
3B1
330
3AE
100
AcDbEntity
  8
SLD-0
100
AcDbTrace
 10
41.5249112052
 20
5.4174935449
 30
0.0
 11
41.6249112052
 21
6.0674935449
 31
0.0
 12
41.4249112052
 22
6.0674935449
 32
0.0
 13
41.4249112052
 23
6.0674935449
 33
0.0
  0
SOLID
  5
3B2
330
3AE
100
AcDbEntity
  8
SLD-0
100
AcDbTrace
 10
41.5249112052
 20
2.9174935449
 30
0.0
 11
41.4249112052
 21
2.2674935449
 31
0.0
 12
41.6249112052
 22
2.2674935449
 32
0.0
 13
41.6249112052
 23
2.2674935449
 33
0.0
  0
LINE
  5
3B3
330
3AE
100
AcDbEntity
  8
SLD-0
100
AcDbLine
 10
40.2818557151
 20
4.1627191417
 30
0.0
 11
40.0914260295
 21
4.1627191417
 31
0.0
  0
LINE
  5
3B4
330
3AE
100
AcDbEntity
  8
SLD-0
100
AcDbLine
 10
40.0914260295
 20
4.1627191417
 30
0.0
 11
40.0914260295
 21
3.1705316119
 31
0.0
  0
LINE
  5
3B5
330
3AE
100
AcDbEntity
  8
SLD-0
100
AcDbLine
 10
40.0914260295
 20
3.1705316119
 30
0.0
 11
40.2818557151
 21
3.1705316119
 31
0.0
  0
LINE
  5
3B6
330
3AE
100
AcDbEntity
  8
SLD-0
100
AcDbLine
 10
42.7679668786
 20
4.1627191417
 30
0.0
 11
42.9583965642
 21
4.1627191417
 31
0.0
  0
LINE
  5
3B7
330
3AE
100
AcDbEntity
  8
SLD-0
100
AcDbLine
 10
42.9583965642
 20
4.1627191417
 30
0.0
 11
42.9583965642
 21
3.1705316119
 31
0.0
  0
LINE
  5
3B8
330
3AE
100
AcDbEntity
  8
SLD-0
100
AcDbLine
 10
42.9583965642
 20
3.1705316119
 30
0.0
 11
42.7679668786
 21
3.1705316119
 31
0.0
  0
LINE
  5
3B9
330
3AE
100
AcDbEntity
  8
SLD-0
100
AcDbLine
 10
43.8253455473
 20
5.4174935449
 30
0.0
 11
40.8999112052
 21
5.4174935449
 31
0.0
  0
LINE
  5
3BA
330
3AE
100
AcDbEntity
  8
SLD-0
100
AcDbLine
 10
43.5503455473
 20
2.9174935449
 30
0.0
 11
40.8999112052
 21
2.9174935449
 31
0.0
  0
LINE
  5
3BB
330
3AE
100
AcDbEntity
  8
SLD-0
100
AcDbLine
 10
41.5249112052
 20
5.4174935449
 30
0.0
 11
41.5249112052
 21
6.6674935449
 31
0.0
  0
LINE
  5
3BC
330
3AE
100
AcDbEntity
  8
SLD-0
100
AcDbLine
 10
41.5249112052
 20
2.9174935449
 30
0.0
 11
41.5249112052
 21
1.6674935449
 31
0.0
  0
MTEXT
  5
3BD
330
3AE
100
AcDbEntity
  8
SLD-0
100
AcDbMText
 10
39.6700935655
 20
5.0975607857
 30
0.0
 40
0.625
 41
0.0
 71
     1
 72
     1
  1
 
  7
SLDTEXTSTYLE0
 73
     1
 44
1.0
  0
MTEXT
  5
3BE
330
3AE
100
AcDbEntity
  8
SLD-0
100
AcDbMText
 10
41.1651022222
 20
5.0880121283
 30
0.0
 40
0.625
 41
0.0
 71
     1
 72
     1
  1
2"
  7
SLDTEXTSTYLE0
 73
     1
 44
1.0
  0
MTEXT
  5
3BF
330
3AE
100
AcDbEntity
  8
SLD-0
100
AcDbMText
 10
40.2818557151
 20
3.9688715244
 30
0.0
 40
0.625
 41
0.0
 71
     1
 72
     1
  1
51mm
  7
SLDTEXTSTYLE0
 73
     1
 44
1.0
  0
MTEXT
  5
3C0
330
3AE
100
AcDbEntity
  8
SLD-0
100
AcDbMText
 10
43.1488261123
 20
5.0975607857
 30
0.0
 40
0.625
 41
0.0
 71
     1
 72
     1
  1
 
  7
SLDTEXTSTYLE0
 73
     1
 44
1.0
  0
ENDBLK
  5
3B0
330
3AE
100
AcDbEntity
  8
0
100
AcDbBlockEnd
  0
ENDSEC
  0
SECTION
  2
ENTITIES
  0
INSERT
  5
71
330
1F
100
AcDbEntity
  8
0
  6
Continuous
 62
     7
100
AcDbBlockReference
  2
SW_BROKEN_VIEW_0
 10
0.0
 20
0.0
 30
0.0
  0
LINE
  5
72
330
1F
100
AcDbEntity
  8
0
  6
Continuous
 62
     7
370
    25
100
AcDbLine
 10
25.6447518175
 20
36.9936800165
 30
0.0
 11
28.9999735377
 21
33.6384594696
 31
0.0
  0
LINE
  5
73
330
1F
100
AcDbEntity
  8
0
  6
Continuous
 62
     7
370
    25
100
AcDbLine
 10
24.2042823779
 20
35.2945956445
 30
0.0
 11
24.0749749117
 21
35.4239048707
 31
0.0
  0
LINE
  5
74
330
1F
100
AcDbEntity
  8
0
  6
Continuous
 62
     7
370
    25
100
AcDbLine
 10
25.2423151598
 20
34.2565631559
 30
0.0
 11
24.2997724215
 21
35.1991061876
 31
0.0
  0
LINE
  5
75
330
1F
100
AcDbEntity
  8
0
  6
Continuous
 62
     7
370
    25
100
AcDbLine
 10
25.8604194328
 20
33.6384594696
 30
0.0
 11
25.3378052034
 21
34.161073699
 31
0.0
  0
LINE
  5
76
330
1F
100
AcDbEntity
  8
0
  6
Continuous
 62
     7
370
    25
100
AcDbLine
 10
21.5186650158
 20
38.4149903174
 30
0.0
 11
23.1486650067
 21
38.4149903174
 31
0.0
  0
LINE
  5
77
330
1F
100
AcDbEntity
  8
0
  6
Continuous
 62
     7
370
    25
100
AcDbLine
 10
23.1486650067
 20
37.4249900206
 30
0.0
 11
21.5186650158
 21
37.4249900206
 31
0.0
  0
ARC
  5
78
330
1F
100
AcDbEntity
  8
0
  6
Continuous
 62
     7
370
    25
100
AcDbCircle
 10
23.1486648692
 20
37.919990169
 30
0.0
 40
0.4950001483827342
100
AcDbArc
 50
270.0000159153
 51
89.9999840847
  0
LINE
  5
79
330
1F
100
AcDbEntity
  8
0
  6
Continuous
 62
     7
370
    25
100
AcDbLine
 10
24.0679038267
 20
35.4309752957
 30
0.0
 11
22.7632918011
 21
36.7355872113
 31
0.0
  0
LINE
  5
7A
330
1F
100
AcDbEntity
  8
0
  6
Continuous
 62
     7
370
    25
100
AcDbLine
 10
24.3330688902
 20
38.3053647038
 30
0.0
 11
25.6376808059
 21
37.0007527881
 31
0.0
  0
LINE
  5
7B
330
1F
100
AcDbEntity
  8
0
  6
Continuous
 62
     7
370
    25
100
AcDbLine
 10
22.7632918011
 20
36.7355872113
 30
0.0
 11
22.7632918011
 21
36.7780144545
 31
0.0
  0
LINE
  5
7C
330
1F
100
AcDbEntity
  8
0
  6
Continuous
 62
     7
370
    25
100
AcDbLine
 10
24.2906424536
 20
38.3053647038
 30
0.0
 11
24.3330688902
 21
38.3053647038
 31
0.0
  0
ARC
  5
7D
330
1F
100
AcDbEntity
  8
0
  6
Continuous
 62
     7
370
    25
100
AcDbCircle
 10
24.0749748751
 20
35.4380474296
 30
0.0
 40
0.0100007401110182
100
AcDbArc
 50
225.0043980124
 51
314.9956019876
  0
ARC
  5
7E
330
1F
100
AcDbEntity
  8
0
  6
Continuous
 62
     7
370
    25
100
AcDbCircle
 10
25.6306083459
 20
36.9936811898
 30
0.0
 40
0.010001359548801
100
AcDbArc
 50
315.0034905286
 51
44.9965094714
  0
LINE
  5
7F
330
1F
100
AcDbEntity
  8
0
  6
Continuous
 62
     7
370
    25
100
AcDbLine
 10
23.1769492733
 20
37.1916706893
 30
0.0
 11
22.9436292911
 21
37.4249900206
 31
0.0
  0
LINE
  5
80
330
1F
100
AcDbEntity
  8
0
  6
Continuous
 62
     7
370
    25
100
AcDbLine
 10
23.4986828791
 20
38.2700078856
 30
0.0
 11
23.8769849723
 21
37.8917061224
 31
0.0
  0
LINE
  5
81
330
1F
100
AcDbEntity
  8
0
  6
Continuous
 62
     7
370
    25
100
AcDbLine
 10
21.3936649531
 20
36.2949915545
 30
0.0
 11
21.3936649531
 21
32.4608805398
 31
0.0
  0
LINE
  5
82
330
1F
100
AcDbEntity
  8
0
  6
Continuous
 62
     7
370
    25
100
AcDbLine
 10
20.3936650385
 20
32.6832082114
 30
0.0
 11
20.3936650385
 21
36.2949915545
 31
0.0
  0
ARC
  5
83
330
1F
100
AcDbEntity
  8
0
  6
Continuous
 62
     7
370
    25
100
AcDbCircle
 10
20.5097910509
 20
38.2949558047
 30
0.0
 40
0.5000352429746876
100
AcDbArc
 50
90.0010992909
 51
118.8216077494
  0
ARC
  5
84
330
1F
100
AcDbEntity
  8
0
  6
Continuous
 62
     7
370
    25
100
AcDbCircle
 10
21.2775469
 20
38.2949807684
 30
0.0
 40
0.5000102792265082
100
AcDbArc
 50
61.1659461857
 51
89.9998127005
  0
LINE
  5
85
330
1F
100
AcDbEntity
  8
0
  6
Continuous
 62
     7
370
    25
100
AcDbLine
 10
25.8604194328
 20
33.6384594696
 30
0.0
 11
28.9999735377
 21
33.6384594696
 31
0.0
  0
LWPOLYLINE
  5
86
330
1F
100
AcDbEntity
  8
0
  6
Continuous
 62
     7
370
    25
100
AcDbPolyline
 90
       29
 70
   128
 43
0.0
 10
24.0749749117
 20
35.4239048707
 10
24.0799101147
 20
35.4288398537
 10
24.0946536844
 20
35.44358379
 10
24.1190202362
 20
35.4679489485
 10
24.1527033138
 20
35.5016326128
 10
24.1952792753
 20
35.5442076943
 10
24.2462128669
 20
35.5951415059
 10
24.3048633827
 20
35.653793415
 10
24.3704933912
 20
35.7194218835
 10
24.4422775353
 20
35.7912055876
 10
24.5193130187
 20
35.868241071
 10
24.6006311193
 20
35.9495591716
 10
24.6852092889
 20
36.0341391012
 10
24.7719837665
 20
36.1209131388
 10
24.8598633646
 20
36.2087924436
 10
24.9477431094
 20
36.2966717484
 10
25.034517587
 20
36.383445786
 10
25.1190956099
 20
36.4680257156
 10
25.2004138572
 20
36.5493438162
 10
25.2774493406
 20
36.6263792996
 10
25.349233338
 20
36.6981630037
 10
25.4148634199
 20
36.7637914722
 10
25.473514009
 20
36.8224433813
 10
25.5244475273
 20
36.8733771929
 10
25.5670234888
 20
36.9159522744
 10
25.6007065663
 20
36.9496359386
 10
25.6250731915
 20
36.9740010972
 10
25.6398168345
 20
36.9887450335
 10
25.6447518175
 20
36.9936800165
  0
SPLINE
  5
87
330
1F
100
AcDbEntity
  8
0
  6
Continuous
 62
     7
370
    25
100
AcDbSpline
210
0.0
220
0.0
230
1.0
 70
     8
 71
     3
 72
    12
 73
     8
 74
     0
 42
0.00000001
 43
0.00000001
 40
0.0
 40
0.0
 40
0.0
 40
0.0
 40
0.3347516127882603
 40
0.6318628751665621
 40
0.8582522882709473
 40
0.9880437698148523
 40
1.0
 40
1.0
 40
1.0
 40
1.0
 10
25.29125858110773
 20
34.21056902056169
 30
0.0
 10
25.28592782241912
 20
34.21583832496114
 30
0.0
 10
25.27586570954757
 20
34.22578443933602
 30
0.0
 10
25.26186947858409
 20
34.23895452980344
 30
0.0
 10
25.25107205406407
 20
34.24882304155258
 30
0.0
 10
25.24492825054236
 20
34.25431837916317
 30
0.0
 10
25.24255278047081
 20
34.25642316616073
 30
0.0
 10
25.24235241274263
 20
34.25660070213311
 30
0.0
  0
SPLINE
  5
88
330
1F
100
AcDbEntity
  8
0
  6
Continuous
 62
     7
370
    25
100
AcDbSpline
210
0.0
220
0.0
230
1.0
 70
     8
 71
     3
 72
    13
 73
     9
 74
     0
 42
0.00000001
 43
0.00000001
 40
0.0
 40
0.0
 40
0.0
 40
0.0
 40
0.0012672152182756
 40
0.0600396960979667
 40
0.2244589935513909
 40
0.476375044735566
 40
0.7874693426319245
 40
1.0
 40
1.0
 40
1.0
 40
1.0
 10
25.33780887002149
 20
34.16107721896186
 30
0.0
 10
25.33782841885763
 20
34.16105521968978
 30
0.0
 10
25.33875462788982
 20
34.1600129108607
 30
0.0
 10
25.33130320529686
 20
34.1684126880951
 30
0.0
 10
25.32773895924853
 20
34.17231213528989
 30
0.0
 10
25.31465761427025
 20
34.18655996537779
 30
0.0
 10
25.30312617001137
 20
34.19859670191934
 30
0.0
 10
25.29468479484268
 20
34.20711257099094
 30
0.0
 10
25.29125858110773
 20
34.21056902056169
 30
0.0
  0
SPLINE
  5
89
330
1F
100
AcDbEntity
  8
0
  6
Continuous
 62
     7
370
    25
100
AcDbSpline
210
0.0
220
0.0
230
1.0
 70
     8
 71
     3
 72
    12
 73
     8
 74
     0
 42
0.00000001
 43
0.00000001
 40
0.0
 40
0.0
 40
0.0
 40
0.0
 40
0.334739353473948
 40
0.6318745555060784
 40
0.8582639455967892
 40
0.9880437710302622
 40
1.0
 40
1.0
 40
1.0
 40
1.0
 10
24.25322579921767
 20
35.2486015091218
 30
0.0
 10
24.24789484075276
 20
35.25387021415712
 30
0.0
 10
24.2378317962512
 20
35.26381574526287
 30
0.0
 10
24.22383723293606
 20
35.27698796533286
 30
0.0
 10
24.21303987975195
 20
35.28685699469882
 30
0.0
 10
24.20689526137074
 20
35.29235102696758
 30
0.0
 10
24.20451999763443
 20
35.2944556536598
 30
0.0
 10
24.20431963085257
 20
35.29463319069322
 30
0.0
  0
SPLINE
  5
8A
330
1F
100
AcDbEntity
  8
0
  6
Continuous
 62
     7
370
    25
100
AcDbSpline
210
0.0
220
0.0
230
1.0
 70
     8
 71
     3
 72
    13
 73
     9
 74
     0
 42
0.00000001
 43
0.00000001
 40
0.0
 40
0.0
 40
0.0
 40
0.0
 40
0.001279416660526
 40
0.0600511561785152
 40
0.2244683796312538
 40
0.4763939073760711
 40
0.7874842810993131
 40
1.0
 40
1.0
 40
1.0
 40
1.0
 10
24.29977616146391
 20
35.19911088084176
 30
0.0
 10
24.29979569176725
 20
35.19908847900434
 30
0.0
 10
24.30071237304231
 20
35.1980370183823
 30
0.0
 10
24.29328346848067
 20
35.20645563802771
 30
0.0
 10
24.28969838568706
 20
35.21033858555494
 30
0.0
 10
24.27662825348673
 20
35.22459604585229
 30
0.0
 10
24.2650932423998
 20
35.23662994252803
 30
0.0
 10
24.25665188737303
 20
35.24514536091208
 30
0.0
 10
24.25322579921767
 20
35.2486015091218
 30
0.0
  0
SPLINE
  5
8B
330
1F
100
AcDbEntity
  8
0
  6
Continuous
 62
     7
370
    25
100
AcDbSpline
210
0.0
220
0.0
230
1.0
 70
    11
 71
     3
 72
    26
 73
    22
 74
     0
 42
0.00000001
 43
0.00000001
 40
0.0
 40
0.0
 40
0.0
 40
0.0
 40
0.0365867271392474
 40
0.0937473423858151
 40
0.1491143859170956
 40
0.2018151192998704
 40
0.2522543822496907
 40
0.3019310198265724
 40
0.352695146053274
 40
0.4057461207580593
 40
0.4612219225920006
 40
0.5182956557267829
 40
0.5756840421446635
 40
0.6321628040419424
 40
0.6867902104979018
 40
0.7390653053739027
 40
0.7893225704166514
 40
0.8389729819412012
 40
0.8899892788397554
 40
0.9437030931952005
 40
1.0
 40
1.0
 40
1.0
 40
1.0
 10
25.4793047821153
 20
36.45420635520507
 30
0.0
 10
25.47632898776257
 20
36.45804447399954
 30
0.0
 10
25.46870401461334
 20
36.46787900867584
 30
0.0
 10
25.45251569871531
 20
36.47980315424209
 30
0.0
 10
25.43177339646165
 20
36.48763476939716
 30
0.0
 10
25.41036331009992
 20
36.4884068407902
 30
0.0
 10
25.39073949002065
 20
36.48170780798657
 30
0.0
 10
25.3753822480014
 20
36.46810965678828
 30
0.0
 10
25.36621164307106
 20
36.44943041471812
 30
0.0
 10
25.36411176003668
 20
36.42802203033817
 30
0.0
 10
25.36921151938897
 20
36.40631029153039
 30
0.0
 10
25.38095206676016
 20
36.38670182324077
 30
0.0
 10
25.3980641714047
 20
36.37136128706596
 30
0.0
 10
25.41867776634399
 20
36.36193389768227
 30
0.0
 10
25.44055248844289
 20
36.359406185873
 30
0.0
 10
25.46127951097215
 20
36.36411921243872
 30
0.0
 10
25.47837926695865
 20
36.37570509503733
 30
0.0
 10
25.48963110167401
 20
36.39288193946725
 30
0.0
 10
25.49355028933745
 20
36.41336818525218
 30
0.0
 10
25.49041499839463
 20
36.4350005628478
 30
0.0
 10
25.48306570888764
 20
36.44770498953905
 30
0.0
 10
25.4793047821153
 20
36.45420635520507
 30
0.0
  0
LWPOLYLINE
  5
8C
330
1F
100
AcDbEntity
  8
0
  6
Continuous
 62
     7
370
    25
100
AcDbPolyline
 90
        4
 70
   128
 43
0.0
 10
23.0929676543
 20
37.9757322451
 10
23.0966338982
 20
37.9785435193
 10
23.1197356067
 20
37.9962559546
 10
23.1369255023
 20
38.0094346824
  0
LWPOLYLINE
  5
8D
330
1F
100
AcDbEntity
  8
0
  6
Continuous
 62
     7
370
    25
100
AcDbPolyline
 90
        4
 70
   128
 43
0.0
 10
23.2243860145
 20
37.9434119784
 10
23.225388387
 20
37.9357760133
 10
23.2291766058
 20
37.9069123468
 10
23.2319954149
 20
37.8854359015
  0
LWPOLYLINE
  5
8E
330
1F
100
AcDbEntity
  8
0
  6
Continuous
 62
     7
370
    25
100
AcDbPolyline
 90
        4
 70
   128
 43
0.0
 10
23.0725428181
 20
37.8996260309
 10
23.0719416263
 20
37.9042066713
 10
23.0681534007
 20
37.9330703379
 10
23.0653345951
 20
37.9545467831
  0
LWPOLYLINE
  5
8F
330
1F
100
AcDbEntity
  8
0
  6
Continuous
 62
     7
370
    25
100
AcDbPolyline
 90
        4
 70
   128
 43
0.0
 10
23.2043623591
 20
37.8642504396
 10
23.2006961106
 20
37.8614391654
 10
23.1775944067
 20
37.84372673
 10
23.1604045019
 20
37.8305480023
  0
LWPOLYLINE
  5
90
330
1F
100
AcDbEntity
  8
0
  6
Continuous
 62
     7
370
    25
100
AcDbPolyline
 90
        4
 70
   128
 43
0.0
 10
23.1282401676
 20
37.8438839549
 10
23.1193680139
 20
37.8475634857
 10
23.0914599613
 20
37.859137112
 10
23.0770740964
 20
37.8651022697
  0
LWPOLYLINE
  5
91
330
1F
100
AcDbEntity
  8
0
  6
Continuous
 62
     7
370
    25
100
AcDbPolyline
 90
        4
 70
   128
 43
0.0
 10
23.1690898457
 20
37.9960963832
 10
23.1792194271
 20
37.9918958984
 10
23.2062833678
 20
37.980674268
 10
23.2202559105
 20
37.9748804149
  0
LWPOLYLINE
  5
92
330
1F
100
AcDbEntity
  8
0
  6
Continuous
 62
     7
370
    25
100
AcDbPolyline
 90
        4
 70
   128
 43
0.0
 10
23.1141757439
 20
38.0033474994
 10
23.1532762176
 20
37.9981848924
 10
23.1821359059
 20
37.9943739497
 10
23.2036102886
 20
37.9915392091
  0
ARC
  5
93
330
1F
100
AcDbEntity
  8
0
  6
Continuous
 62
     7
370
    25
100
AcDbCircle
 10
23.1486667562
 20
37.919990913
 30
0.0
 40
0.0902105893907802
100
AcDbArc
 50
52.4785376177
 51
112.4786314234
  0
LWPOLYLINE
  5
94
330
1F
100
AcDbEntity
  8
0
  6
Continuous
 62
     7
370
    25
100
AcDbPolyline
 90
        4
 70
   128
 43
0.0
 10
23.238099556
 20
37.9081795321
 10
23.2140776577
 20
37.8769011734
 10
23.1963473384
 20
37.8538125868
 10
23.1831542649
 20
37.8366328386
  0
ARC
  5
95
330
1F
100
AcDbEntity
  8
0
  6
Continuous
 62
     7
370
    25
100
AcDbCircle
 10
23.1486623916
 20
37.9199927105
 30
0.0
 40
0.0902139543733792
100
AcDbArc
 50
292.4783388838
 51
352.4757245154
  0
LWPOLYLINE
  5
96
330
1F
100
AcDbEntity
  8
0
  6
Continuous
 62
     7
370
    25
100
AcDbPolyline
 90
        4
 70
   128
 43
0.0
 10
23.0592304596
 20
37.9318008059
 10
23.0832523511
 20
37.9630815112
 10
23.1009826727
 20
37.9861700978
 10
23.1141757439
 20
38.0033474994
  0
ARC
  5
97
330
1F
100
AcDbEntity
  8
0
  6
Continuous
 62
     7
370
    25
100
AcDbCircle
 10
23.148659159
 20
37.9199941317
 30
0.0
 40
0.0902047106851332
100
AcDbArc
 50
112.474954172
 51
172.4791161534
  0
ARC
  5
98
330
1F
100
AcDbEntity
  8
0
  6
Continuous
 62
     7
370
    25
100
AcDbCircle
 10
23.1486664631
 20
37.9199995105
 30
0.0
 40
0.090218681266929
100
AcDbArc
 50
232.4799149691
 51
292.4742984931
  0
LWPOLYLINE
  5
99
330
1F
100
AcDbEntity
  8
0
  6
Continuous
 62
     7
370
    25
100
AcDbPolyline
 90
        4
 70
   128
 43
0.0
 10
23.1831542649
 20
37.8366328386
 10
23.1440537866
 20
37.8417954457
 10
23.1151941075
 20
37.8456063883
 10
23.0937197225
 20
37.8484434755
  0
ARC
  5
9A
330
1F
100
AcDbEntity
  8
0
  6
Continuous
 62
     7
370
    25
100
AcDbCircle
 10
23.1486647167
 20
37.9199907433
 30
0.0
 40
0.0902106640725307
100
AcDbArc
 50
172.4774445931
 51
232.4774034014
  0
LWPOLYLINE
  5
9B
330
1F
100
AcDbEntity
  8
0
  6
Continuous
 62
     7
370
    25
100
AcDbPolyline
 90
        5
 70
   128
 43
0.0
 10
23.0937197225
 20
37.8484434755
 10
23.0879366871
 20
37.8624200607
 10
23.0767353068
 20
37.8894932413
 10
23.0651845637
 20
37.9174112121
 10
23.0592304596
 20
37.9318008059
  0
ARC
  5
9C
330
1F
100
AcDbEntity
  8
0
  6
Continuous
 62
     7
370
    25
100
AcDbCircle
 10
23.1486642946
 20
37.9199911903
 30
0.0
 40
0.0902118686794399
100
AcDbArc
 50
352.4765234314
 51
52.4771903301
  0
LWPOLYLINE
  5
9D
330
1F
100
AcDbEntity
  8
0
  6
Continuous
 62
     7
370
    25
100
AcDbPolyline
 90
        5
 70
   128
 43
0.0
 10
23.2036102886
 20
37.9915392091
 10
23.2095643915
 20
37.9771472687
 10
23.2211151381
 20
37.9492292979
 10
23.2323165195
 20
37.922158464
 10
23.238099556
 20
37.9081795321
  0
CIRCLE
  5
9E
330
1F
100
AcDbEntity
  8
0
  6
Continuous
 62
     7
370
    25
100
AcDbCircle
 10
23.1486649806
 20
37.9199902022
 30
0.0
 40
0.1502266348599818
  0
CIRCLE
  5
9F
330
1F
100
AcDbEntity
  8
0
  6
Continuous
 62
     7
370
    25
100
AcDbCircle
 10
23.148665051
 20
37.9199899641
 30
0.0
 40
0.1560000984450762
  0
SPLINE
  5
A0
330
1F
100
AcDbEntity
  8
0
  6
Continuous
 62
     7
370
    25
100
AcDbSpline
210
0.0
220
0.0
230
1.0
 70
     8
 71
     3
 72
    17
 73
    13
 74
     0
 42
0.00000001
 43
0.00000001
 40
0.0
 40
0.0
 40
0.0
 40
0.0
 40
0.1038634917358379
 40
0.2067198835135236
 40
0.3127796502435208
 40
0.4222188896669843
 40
0.5286136218721873
 40
0.6306249182557491
 40
0.733170160146166
 40
0.8402637747194448
 40
0.9496449311921153
 40
1.0
 40
1.0
 40
1.0
 40
1.0
 10
23.1486650066982
 20
38.08398976780801
 30
0.0
 10
23.13082746988018
 20
38.08229572901258
 30
0.0
 10
23.09532535579212
 20
38.0789240774668
 30
0.0
 10
23.04725974134539
 20
38.05242539883476
 30
0.0
 10
23.00926519332298
 20
38.012313190706
 30
0.0
 10
22.98657163101663
 20
37.96088580425252
 30
0.0
 10
22.98232273461508
 20
37.90569598108253
 30
0.0
 10
22.99572787596049
 20
37.85331116659583
 30
0.0
 10
23.02506174453348
 20
37.80767078814991
 30
0.0
 10
23.06861384100543
 20
37.77333969808512
 30
0.0
 10
23.11272791568514
 20
37.757707059255
 30
0.0
 10
23.14005153845065
 20
37.75640198147439
 30
0.0
 10
23.1486650066982
 20
37.75599057021607
 30
0.0
  0
ARC
  5
A1
330
1F
100
AcDbEntity
  8
0
  6
Continuous
 62
     7
370
    25
100
AcDbCircle
 10
23.1486654009
 20
37.919990169
 30
0.0
 40
0.1639995987964487
100
AcDbArc
 50
269.9998622936
 51
90.0001377064
  0
LWPOLYLINE
  5
A2
330
1F
100
AcDbEntity
  8
0
  6
Continuous
 62
     7
370
    25
100
AcDbPolyline
 90
       29
 70
   128
 43
0.0
 10
22.7632918011
 20
36.7355872113
 10
22.7682270224
 20
36.7405221943
 10
22.7829706104
 20
36.7552661307
 10
22.8073371439
 20
36.7796312892
 10
22.8410202031
 20
36.8133149534
 10
22.8835962196
 20
36.8558923816
 10
22.9345297746
 20
36.9068238465
 10
22.9931803362
 20
36.9654757556
 10
23.0588103447
 20
37.0311065708
 10
23.1305944613
 20
37.1028902749
 10
23.207629963
 20
37.1799257583
 10
23.288948082
 20
37.2612438589
 10
23.3735262149
 20
37.3458214419
 10
23.4603006925
 20
37.4325954794
 10
23.5481803273
 20
37.5204747842
 10
23.6360599621
 20
37.6083540891
 10
23.7228344397
 20
37.6951304733
 10
23.8074126093
 20
37.7797080562
 10
23.8887307099
 20
37.8610261568
 10
23.9657661933
 20
37.9380616402
 10
24.0375503374
 20
38.0098453443
 10
24.1031803459
 20
38.0754761595
 10
24.1618308617
 20
38.134125722
 10
24.2127644533
 20
38.1850595336
 10
24.2553404881
 20
38.2276346151
 10
24.2890235657
 20
38.2613182793
 10
24.3133901175
 20
38.2856857845
 10
24.3281336139
 20
38.3004297208
 10
24.3330688902
 20
38.3053647038
  0
LWPOLYLINE
  5
A3
330
1F
100
AcDbEntity
  8
0
  6
Continuous
 62
     7
370
    25
100
AcDbPolyline
 90
       29
 70
   128
 43
0.0
 10
24.2906424536
 20
38.3053647038
 10
24.2856646445
 20
38.3003851347
 10
24.2707959696
 20
38.2855168264
 10
24.2462304667
 20
38.2609522035
 10
24.2122881588
 20
38.227010409
 10
24.1694116808
 20
38.1841326109
 10
24.1181599728
 20
38.132882003
 10
24.0592011673
 20
38.0739226841
 10
23.9933038619
 20
38.008024352
 10
23.9213271467
 20
37.9360482235
 10
23.8442093109
 20
37.8589306077
 10
23.7629558162
 20
37.777678213
 10
23.678625767
 20
37.6933470272
 10
23.5923186374
 20
37.6070399709
 10
23.5051595676
 20
37.5198810844
 10
23.4182848079
 20
37.4330061414
 10
23.3328268684
 20
37.3475485686
 10
23.2498998347
 20
37.2646206732
 10
23.170584811
 20
37.1853066028
 10
23.0959157761
 20
37.1106365321
 10
23.02686615
 20
37.0415866631
 10
22.9643361027
 20
36.9790581054
 10
22.9091408212
 20
36.9238627964
 10
22.8619998391
 20
36.8767211543
 10
22.8235277285
 20
36.8382503454
 10
22.7942260287
 20
36.8089478572
 10
22.7744767285
 20
36.7891985387
 10
22.76453728
 20
36.7792581735
 10
22.7632918011
 20
36.7780144545
  0
LINE
  5
A4
330
1F
100
AcDbEntity
  8
0
  6
Continuous
 62
     7
370
    25
100
AcDbLine
 10
23.5593514316
 20
38.1963257501
 30
0.0
 11
23.8634073158
 21
37.8922716626
 31
0.0
  0
LWPOLYLINE
  5
A5
330
1F
100
AcDbEntity
  8
0
  6
Continuous
 62
     7
370
    25
100
AcDbPolyline
 90
       17
 70
   128
 43
0.0
 10
23.8634073158
 20
37.8922716626
 10
23.8468151808
 20
37.8756785742
 10
23.8205517375
 20
37.8494149843
 10
23.785394017
 20
37.8142576304
 10
23.7423820205
 20
37.771246074
 10
23.6927882134
 20
37.7216521936
 10
23.6380797954
 20
37.6669426389
 10
23.5798751045
 20
37.6087389379
 10
23.5198960607
 20
37.5487588308
 10
23.4599170169
 20
37.4887810704
 10
23.401712326
 20
37.4305750228
 10
23.3470038896
 20
37.3758678148
 10
23.2974101192
 20
37.3262739343
 10
23.2543981411
 20
37.2832623779
 10
23.2192404022
 20
37.248105024
 10
23.1929769681
 20
37.2218414341
 10
23.1763847873
 20
37.2052483458
  0
LINE
  5
A6
330
1F
100
AcDbEntity
  8
0
  6
Continuous
 62
     7
370
    25
100
AcDbLine
 10
23.1763847873
 20
37.2052483458
 30
0.0
 11
22.9566424433
 21
37.4249900206
 31
0.0
  0
SPLINE
  5
A7
330
1F
100
AcDbEntity
  8
0
  6
Continuous
 62
     7
370
    25
100
AcDbSpline
210
0.0
220
0.0
230
1.0
 70
    24
 71
     3
 72
    17
 73
    13
 74
     0
 42
0.00000001
 43
0.00000001
 40
0.0
 40
0.0
 40
0.0
 40
0.0
 40
0.0000053573341893
 40
0.0290849673202566
 40
0.1312975463409378
 40
0.2106718097074859
 40
0.3158416372013244
 40
0.4434211936140555
 40
0.59980177863495
 40
0.7470802528661723
 40
0.9101307189542478
 40
1.0
 40
1.0
 40
1.0
 40
1.0
 10
20.26866512253596
 20
38.73300925694616
 30
0.0
 10
20.26866512253596
 20
38.73301003931305
 30
0.0
 10
20.26866512253614
 20
38.73725750913344
 30
0.0
 10
20.26866512253564
 20
38.69508082834069
 30
0.0
 10
20.26866512253605
 20
38.68303633016312
 30
0.0
 10
20.26866512253593
 20
38.63559995203282
 30
0.0
 10
20.26866512253597
 20
38.59189883714983
 30
0.0
 10
20.26866512253595
 20
38.53439717273567
 30
0.0
 10
20.26866512253596
 20
38.471665042273
 30
0.0
 10
20.26866512253596
 20
38.40345754224658
 30
0.0
 10
20.26866512253596
 20
38.34504203091154
 30
0.0
 10
20.26866512253596
 20
38.30811233722612
 30
0.0
 10
20.26866512253596
 20
38.2949902103129
 30
0.0
  0
SPLINE
  5
A8
330
1F
100
AcDbEntity
  8
0
  6
Continuous
 62
     7
370
    25
100
AcDbSpline
210
0.0
220
0.0
230
1.0
 70
     8
 71
     3
 72
    24
 73
    20
 74
     0
 42
0.00000001
 43
0.00000001
 40
0.0
 40
0.0
 40
0.0
 40
0.0
 40
0.0182964169714968
 40
0.0886704203841731
 40
0.160187387630292
 40
0.2384191752318069
 40
0.298873902820772
 40
0.3594390821309709
 40
0.4295910528610634
 40
0.4998041938245513
 40
0.600041650830298
 40
0.6999084538211411
 40
0.7477923378610758
 40
0.7956224470121047
 40
0.8439728128786641
 40
0.8922611131308757
 40
0.9345255014448012
 40
0.9767680082244128
 40
1.0
 40
1.0
 40
1.0
 40
1.0
 10
20.26866512253596
 20
38.2949902103129
 30
0.0
 10
20.26894791759224
 20
38.30533909241635
 30
0.0
 10
20.2703184349215
 20
38.35549315963343
 30
0.0
 10
20.29462152360406
 20
38.44497797863556
 30
0.0
 10
20.36393650175771
 20
38.55054182288416
 30
0.0
 10
20.45717967215642
 20
38.62713174022714
 30
0.0
 10
20.55853373196177
 20
38.67759277274428
 30
0.0
 10
20.66207935794836
 20
38.71004121943793
 30
0.0
 10
20.77448149644312
 20
38.72905804082092
 30
0.0
 10
20.91064220320693
 20
38.73579422030812
 30
0.0
 10
21.06374999253102
 20
38.72521177339731
 30
0.0
 10
21.20082610996891
 20
38.68976282532243
 30
0.0
 10
21.3009752689226
 20
38.64201711254017
 30
0.0
 10
21.368926797166
 20
38.59636371214224
 30
0.0
 10
21.42802054398542
 20
38.53928030434095
 30
0.0
 10
21.47362236878512
 20
38.47455106165722
 30
0.0
 10
21.50337190931321
 20
38.40515240257369
 30
0.0
 10
21.51699906641998
 20
38.34519069936953
 30
0.0
 10
21.51822870810124
 20
38.30813758368485
 30
0.0
 10
21.51866501576385
 20
38.2949902103129
 30
0.0
  0
LINE
  5
A9
330
1F
100
AcDbEntity
  8
0
  6
Continuous
 62
     7
370
    25
100
AcDbLine
 10
21.5186650158
 20
38.2949902103
 30
0.0
 11
21.5186650158
 21
38.7330116036
 31
0.0
  0
LINE
  5
AA
330
1F
100
AcDbEntity
  8
0
  6
Continuous
 62
     7
370
    25
100
AcDbLine
 10
20.5097814571
 20
38.7949910476
 30
0.0
 11
21.2775483878
 21
38.7949910476
 31
0.0
  0
LINE
  5
AB
330
1F
100
AcDbEntity
  8
0
  6
Continuous
 62
     7
370
    25
100
AcDbLine
 10
21.5186650158
 20
36.2949915545
 30
0.0
 11
20.2686651225
 21
36.2949915545
 31
0.0
  0
LINE
  5
AC
330
1F
100
AcDbEntity
  8
0
  6
Continuous
 62
     7
370
    25
100
AcDbLine
 10
20.2686651225
 20
38.2949902103
 30
0.0
 11
20.2686651225
 21
36.2949915545
 31
0.0
  0
LINE
  5
AD
330
1F
100
AcDbEntity
  8
0
  6
Continuous
 62
     7
370
    25
100
AcDbLine
 10
21.5186650158
 20
38.2949902103
 30
0.0
 11
21.5186650158
 21
36.2949915545
 31
0.0
  0
LWPOLYLINE
  5
AE
330
1F
100
AcDbEntity
  8
0
  6
Continuous
 62
     7
370
    25
100
AcDbPolyline
 90
       17
 70
   128
 43
0.0
 10
25.3701967492
 20
36.439826148
 10
25.377367933
 20
36.4605774816
 10
25.3924123859
 20
36.4758282921
 10
25.4130399343
 20
36.4832600996
 10
25.4361100411
 20
36.4817394771
 10
25.458110667
 20
36.4714987421
 10
25.4756921305
 20
36.4540984098
 10
25.4861780894
 20
36.432183143
 10
25.4879719487
 20
36.4090945563
 10
25.4808007648
 20
36.3883432227
 10
25.465756312
 20
36.3730924122
 10
25.4451287636
 20
36.3656606048
 10
25.4220586568
 20
36.3671788806
 10
25.4000581776
 20
36.3774196156
 10
25.3824765673
 20
36.3948222945
 10
25.3719906085
 20
36.4167352147
 10
25.3701967492
 20
36.439826148
  0
LINE
  5
AF
330
1F
100
AcDbEntity
  8
0
  6
Continuous
 62
     7
370
    25
100
AcDbLine
 10
25.4653067838
 20
36.4405700327
 30
0.0
 11
25.4658187912
 21
36.3988068885
 31
0.0
  0
LINE
  5
B0
330
1F
100
AcDbEntity
  8
0
  6
Continuous
 62
     7
370
    25
100
AcDbLine
 10
25.4295963564
 20
36.382697208
 30
0.0
 11
25.4658187912
 21
36.3988068885
 31
0.0
  0
LINE
  5
B1
330
1F
100
AcDbEntity
  8
0
  6
Continuous
 62
     7
370
    25
100
AcDbLine
 10
25.392861914
 20
36.4083506716
 30
0.0
 11
25.4295963564
 21
36.382697208
 31
0.0
  0
LINE
  5
B2
330
1F
100
AcDbEntity
  8
0
  6
Continuous
 62
     7
370
    25
100
AcDbLine
 10
25.392861914
 20
36.4083506716
 30
0.0
 11
25.3923499066
 21
36.4501138158
 31
0.0
  0
LINE
  5
B3
330
1F
100
AcDbEntity
  8
0
  6
Continuous
 62
     7
370
    25
100
AcDbLine
 10
25.4285723415
 20
36.4662234964
 30
0.0
 11
25.3923499066
 21
36.4501138158
 31
0.0
  0
LINE
  5
B4
330
1F
100
AcDbEntity
  8
0
  6
Continuous
 62
     7
370
    25
100
AcDbLine
 10
25.4285723415
 20
36.4662234964
 30
0.0
 11
25.4653067838
 21
36.4405700327
 31
0.0
  0
LINE
  5
B5
330
1F
100
AcDbEntity
  8
0
  6
Continuous
 62
     7
370
    25
100
AcDbLine
 10
25.3967526424
 20
36.434403064
 30
0.0
 11
25.3925653575
 21
36.4325398322
 31
0.0
  0
LINE
  5
B6
330
1F
100
AcDbEntity
  8
0
  6
Continuous
 62
     7
370
    25
100
AcDbLine
 10
25.3967526424
 20
36.434403064
 30
0.0
 11
25.4285723415
 21
36.4662234964
 31
0.0
  0
LINE
  5
B7
330
1F
100
AcDbEntity
  8
0
  6
Continuous
 62
     7
370
    25
100
AcDbLine
 10
25.4334870847
 20
36.4087496003
 30
0.0
 11
25.4653067838
 21
36.4405700327
 31
0.0
  0
LINE
  5
B8
330
1F
100
AcDbEntity
  8
0
  6
Continuous
 62
     7
370
    25
100
AcDbLine
 10
25.4334870847
 20
36.4087496003
 30
0.0
 11
25.4337836413
 21
36.3845604398
 31
0.0
  0
LINE
  5
B9
330
1F
100
AcDbEntity
  8
0
  6
Continuous
 62
     7
370
    25
100
AcDbLine
 10
25.3967526424
 20
36.434403064
 30
0.0
 11
25.4334870847
 21
36.4087496003
 31
0.0
  0
LWPOLYLINE
  5
BA
330
1F
100
AcDbEntity
  8
0
  6
Continuous
 62
     7
370
    25
100
AcDbPolyline
 90
       10
 70
   128
 43
0.0
 10
24.2069210275
 20
35.2919580216
 10
24.2094849512
 20
35.2893931446
 10
24.2184208813
 20
35.2804571411
 10
24.2324311994
 20
35.266447703
 10
24.2493828103
 20
35.2494955788
 10
24.2666951436
 20
35.2321844188
 10
24.2817323366
 20
35.2171471525
 10
24.2922053156
 20
35.2066741001
 10
24.2965195391
 20
35.20235863
 10
24.296582165
 20
35.2022976174
  0
LINE
  5
BB
330
1F
100
AcDbEntity
  8
0
  6
Continuous
 62
     7
370
    25
100
AcDbLine
 10
23.1486650067
 20
37.7559905702
 30
0.0
 11
23.1486650067
 21
37.4249900206
 31
0.0
  0
LINE
  5
BC
330
1F
100
AcDbEntity
  8
0
  6
Continuous
 62
     7
370
    25
100
AcDbLine
 10
23.1486650067
 20
38.4149903174
 30
0.0
 11
23.1486650067
 21
38.0839897678
 31
0.0
  0
LWPOLYLINE
  5
BD
330
1F
100
AcDbEntity
  8
0
  6
Continuous
 62
     7
370
    25
100
AcDbPolyline
 90
       29
 70
   128
 43
0.0
 10
25.6376808059
 20
37.0007527881
 10
25.6327455296
 20
36.9958178051
 10
25.6180021799
 20
36.9810738688
 10
25.5936355547
 20
36.9567063636
 10
25.5599524771
 20
36.9230226994
 10
25.5173765156
 20
36.8804476179
 10
25.4664428507
 20
36.8295138063
 10
25.4077924082
 20
36.7708642438
 10
25.3421623264
 20
36.7052334287
 10
25.2703781823
 20
36.6334497246
 10
25.1933426989
 20
36.5564142412
 10
25.1120245983
 20
36.4750961406
 10
25.0274464287
 20
36.3905185576
 10
24.9406719511
 20
36.3037421734
 10
24.852792353
 20
36.2158628686
 10
24.7649127548
 20
36.1279835638
 10
24.6781382773
 20
36.0412095262
 10
24.5935601076
 20
35.9566319432
 10
24.512242007
 20
35.8753138426
 10
24.4352065236
 20
35.7982783592
 10
24.3634223796
 20
35.7264923085
 10
24.297792371
 20
35.66086384
 10
24.2391417819
 20
35.6022119309
 10
24.1882082636
 20
35.5512804659
 10
24.1456322288
 20
35.5087030377
 10
24.1119491513
 20
35.4750193735
 10
24.0875825994
 20
35.450654215
 10
24.0728390297
 20
35.4359102786
 10
24.0679038267
 20
35.4309752957
  0
LINE
  5
BE
330
1F
100
AcDbEntity
  8
0
  6
Continuous
 62
     7
370
    25
100
AcDbLine
 10
22.0021714703
 20
29.1978071204
 30
0.0
 11
22.003665033
 21
29.1978071204
 31
0.0
  0
LINE
  5
BF
330
1F
100
AcDbEntity
  8
0
  6
Continuous
 62
     7
370
    25
100
AcDbLine
 10
22.003665033
 20
26.1072839957
 30
0.0
 11
22.003665033
 21
26.0183070502
 31
0.0
  0
LINE
  5
C0
330
1F
100
AcDbEntity
  8
0
  6
Continuous
 62
     7
370
    25
100
AcDbLine
 10
22.003665033
 20
28.8283070155
 30
0.0
 11
22.003665033
 21
26.4293297687
 31
0.0
  0
LINE
  5
C1
330
1F
100
AcDbEntity
  8
0
  6
Continuous
 62
     7
370
    25
100
AcDbLine
 10
22.003665033
 20
29.3783071152
 30
0.0
 11
22.003665033
 21
29.2083071591
 31
0.0
  0
LINE
  5
C2
330
1F
100
AcDbEntity
  8
0
  6
Continuous
 62
     7
370
    25
100
AcDbLine
 10
19.7836648853
 20
26.0183070502
 30
0.0
 11
19.7836648853
 21
29.3783071152
 31
0.0
  0
LINE
  5
C3
330
1F
100
AcDbEntity
  8
0
  6
Continuous
 62
     7
370
    25
100
AcDbLine
 10
19.7061650606
 20
23.8288348499
 30
0.0
 11
19.7061650606
 21
26.0183070502
 31
0.0
  0
LINE
  5
C4
330
1F
100
AcDbEntity
  8
0
  6
Continuous
 62
     7
370
    25
100
AcDbLine
 10
22.0811650044
 20
26.0183070502
 30
0.0
 11
22.0811650044
 21
23.5000260616
 31
0.0
  0
LINE
  5
C5
330
1F
100
AcDbEntity
  8
0
  6
Continuous
 62
     7
370
    25
100
AcDbLine
 10
22.003665033
 20
26.4293297687
 30
0.0
 11
22.0808138151
 21
26.4293297687
 31
0.0
  0
LINE
  5
C6
330
1F
100
AcDbEntity
  8
0
  6
Continuous
 62
     7
370
    25
100
AcDbLine
 10
22.0808138151
 20
26.1072839957
 30
0.0
 11
22.003665033
 21
26.1072839957
 31
0.0
  0
ARC
  5
C7
330
1F
100
AcDbEntity
  8
0
  6
Continuous
 62
     7
370
    25
100
AcDbCircle
 10
22.0428940429
 20
26.3637299627
 30
0.0
 40
0.0757709949244893
100
AcDbArc
 50
0.0000633891
 51
59.9700685001
  0
ARC
  5
C8
330
1F
100
AcDbEntity
  8
0
  6
Continuous
 62
     7
370
    25
100
AcDbCircle
 10
22.0428940429
 20
26.1728838017
 30
0.0
 40
0.0757709949305468
100
AcDbArc
 50
300.0299315011
 51
0.0003802223
  0
LINE
  5
C9
330
1F
100
AcDbEntity
  8
0
  6
Continuous
 62
     7
370
    25
100
AcDbLine
 10
20.3386650872
 20
26.1072839957
 30
0.0
 11
20.3000907328
 21
26.1072839957
 31
0.0
  0
LINE
  5
CA
330
1F
100
AcDbEntity
  8
0
  6
Continuous
 62
     7
370
    25
100
AcDbLine
 10
20.3000907328
 20
26.4293297687
 30
0.0
 11
20.3386650872
 21
26.4293297687
 31
0.0
  0
LINE
  5
CB
330
1F
100
AcDbEntity
  8
0
  6
Continuous
 62
     7
370
    25
100
AcDbLine
 10
19.7836648853
 20
30.7133069865
 30
0.0
 11
19.8136649121
 21
30.7433070133
 31
0.0
  0
LINE
  5
CC
330
1F
100
AcDbEntity
  8
0
  6
Continuous
 62
     7
370
    25
100
AcDbLine
 10
21.9736650062
 20
30.7433070133
 30
0.0
 11
22.003665033
 21
30.7133069865
 31
0.0
  0
LINE
  5
CD
330
1F
100
AcDbEntity
  8
0
  6
Continuous
 62
     7
370
    25
100
AcDbLine
 10
19.7836648853
 20
29.3783071152
 30
0.0
 11
19.7836648853
 21
30.7133069865
 31
0.0
  0
LINE
  5
CE
330
1F
100
AcDbEntity
  8
0
  6
Continuous
 62
     7
370
    25
100
AcDbLine
 10
22.003665033
 20
29.5603954917
 30
0.0
 11
22.003665033
 21
29.3783071152
 31
0.0
  0
LINE
  5
CF
330
1F
100
AcDbEntity
  8
0
  6
Continuous
 62
     7
370
    25
100
AcDbLine
 10
22.003665033
 20
30.7133069865
 30
0.0
 11
22.003665033
 21
29.6954387317
 31
0.0
  0
LINE
  5
D0
330
1F
100
AcDbEntity
  8
0
  6
Continuous
 62
     7
370
    25
100
AcDbLine
 10
21.3936649531
 20
32.1608805015
 30
0.0
 11
21.3936649531
 21
30.7433070133
 31
0.0
  0
LINE
  5
D1
330
1F
100
AcDbEntity
  8
0
  6
Continuous
 62
     7
370
    25
100
AcDbLine
 10
20.3936650385
 20
30.7433070133
 30
0.0
 11
20.3936650385
 21
32.3832083382
 31
0.0
  0
LINE
  5
D2
330
1F
100
AcDbEntity
  8
0
  6
Continuous
 62
     7
370
    25
100
AcDbLine
 10
21.9986650041
 20
28.8624893407
 30
0.0
 11
21.9986650041
 21
29.172619758
 31
0.0
  0
LINE
  5
D3
330
1F
100
AcDbEntity
  8
0
  6
Continuous
 62
     7
370
    25
100
AcDbLine
 10
22.003665033
 20
28.8388070542
 30
0.0
 11
22.003665033
 21
29.1978071204
 31
0.0
  0
SPLINE
  5
D4
330
1F
100
AcDbEntity
  8
0
  6
Continuous
 62
     7
370
    25
100
AcDbSpline
210
0.0
220
0.0
230
1.0
 70
     8
 71
     3
 72
    17
 73
    13
 74
     0
 42
0.00000001
 43
0.00000001
 40
0.0
 40
0.0
 40
0.0
 40
0.0
 40
0.0057254669125685
 40
0.0523405154380595
 40
0.1420706070697351
 40
0.271698202607483
 40
0.4326009441406864
 40
0.6066765363712792
 40
0.7705978582354618
 40
0.9011671610208867
 40
0.9793770559195061
 40
1.0
 40
1.0
 40
1.0
 40
1.0
 10
22.00366503300227
 20
29.20830715906648
 30
0.0
 10
22.00355813133409
 20
29.20758716194124
 30
0.0
 10
22.00258086808219
 20
29.2010051623901
 30
0.0
 10
22.00006630944511
 20
29.18311880348783
 30
0.0
 10
21.99599873140399
 20
29.14954701184516
 30
0.0
 10
21.99172040214436
 20
29.1013815326702
 30
0.0
 10
21.98905550750342
 20
29.0423517342975
 30
0.0
 10
21.98943779558305
 20
28.97889654393997
 30
0.0
 10
21.99285645095834
 20
28.91940012302467
 30
0.0
 10
21.99765245215004
 20
28.87225004741411
 30
0.0
 10
22.00145401097186
 20
28.84333187699181
 30
0.0
 10
22.00328332035073
 20
28.83090091989807
 30
0.0
 10
22.00366503300227
 20
28.82830701552723
 30
0.0
  0
LINE
  5
D5
330
1F
100
AcDbEntity
  8
0
  6
Continuous
 62
     7
370
    25
100
AcDbLine
 10
22.003665033
 20
29.3783071152
 30
0.0
 11
19.7836648853
 21
29.3783071152
 31
0.0
  0
LINE
  5
D6
330
1F
100
AcDbEntity
  8
0
  6
Continuous
 62
     7
370
    25
100
AcDbLine
 10
20.8936649958
 20
26.0183070502
 30
0.0
 11
19.7061650606
 21
26.0183070502
 31
0.0
  0
LINE
  5
D7
330
1F
100
AcDbEntity
  8
0
  6
Continuous
 62
     7
370
    25
100
AcDbLine
 10
22.0811650044
 20
26.0183070502
 30
0.0
 11
20.8936649958
 21
26.0183070502
 31
0.0
  0
LINE
  5
D8
330
1F
100
AcDbEntity
  8
0
  6
Continuous
 62
     7
370
    25
100
AcDbLine
 10
22.0808138151
 20
26.2548817573
 30
0.0
 11
22.0808138151
 21
26.1072839957
 31
0.0
  0
LINE
  5
D9
330
1F
100
AcDbEntity
  8
0
  6
Continuous
 62
     7
370
    25
100
AcDbLine
 10
22.0808138151
 20
26.4293297687
 30
0.0
 11
22.0808138151
 21
26.2548817573
 31
0.0
  0
LINE
  5
DA
330
1F
100
AcDbEntity
  8
0
  6
Continuous
 62
     7
370
    25
100
AcDbLine
 10
22.003665033
 20
26.4293297687
 30
0.0
 11
22.003665033
 21
26.1072839957
 31
0.0
  0
LINE
  5
DB
330
1F
100
AcDbEntity
  8
0
  6
Continuous
 62
     7
370
    25
100
AcDbLine
 10
22.1186650378
 20
26.3637300465
 30
0.0
 11
22.1186650378
 21
26.1728843045
 31
0.0
  0
LWPOLYLINE
  5
DC
330
1F
100
AcDbEntity
  8
0
  6
Continuous
 62
     7
370
    25
100
AcDbPolyline
 90
       17
 70
   128
 43
0.0
 10
20.3063137276
 20
26.3592039655
 10
20.2742747644
 20
26.363397997
 10
20.2432850424
 20
26.3531150225
 10
20.2180618938
 20
26.3299208371
 10
20.2024458875
 20
26.2973465467
 10
20.1988138761
 20
26.2603511874
 10
20.2077193733
 20
26.2245666942
 10
20.2278060212
 20
26.1954419639
 10
20.256016442
 20
26.1774097989
 10
20.2880551119
 20
26.173216354
 10
20.3190451272
 20
26.1834993286
 10
20.3442679825
 20
26.206693514
 10
20.3598842821
 20
26.2392678043
 10
20.3635160001
 20
26.2762631636
 10
20.3546107964
 20
26.3120470702
 10
20.3345238551
 20
26.3411723871
 10
20.3063137276
 20
26.3592039655
  0
LWPOLYLINE
  5
DD
330
1F
100
AcDbEntity
  8
0
  6
Continuous
 62
     7
370
    25
100
AcDbPolyline
 90
       22
 70
   128
 43
0.0
 10
20.1638729998
 20
26.3027749107
 10
20.1611262582
 20
26.2548817573
 10
20.1707269473
 20
26.2081806968
 10
20.1918223569
 20
26.1668229346
 10
20.2225378154
 20
26.1344821348
 10
20.2601444743
 20
26.1140317577
 10
20.3013001322
 20
26.1072898623
 10
20.3423484313
 20
26.1148554282
 10
20.3796421072
 20
26.1360555566
 10
20.409867118
 20
26.1690064827
 10
20.4303380282
 20
26.2107813601
 10
20.4392358988
 20
26.2576672184
 10
20.4357699121
 20
26.3054981859
 10
20.4202486514
 20
26.3500250849
 10
20.3940504741
 20
26.3872908944
 10
20.3595035398
 20
26.413984506
 10
20.3196778399
 20
26.4277334672
 10
20.2781115201
 20
26.4273175253
 10
20.2384978977
 20
26.4127724667
 10
20.2043575188
 20
26.385390703
 10
20.1787231216
 20
26.3476056995
 10
20.1638729998
 20
26.3027749107
  0
LWPOLYLINE
  5
DE
330
1F
100
AcDbEntity
  8
0
  6
Continuous
 62
     7
370
    25
100
AcDbPolyline
 90
       12
 70
   128
 43
0.0
 10
20.3386650872
 20
26.1072839957
 10
20.3708735951
 20
26.1116381854
 10
20.4094347497
 20
26.129560645
 10
20.4417080835
 20
26.1598117622
 10
20.4648251231
 20
26.1997028747
 10
20.4767325589
 20
26.2456899701
 10
20.4763720564
 20
26.2936863757
 10
20.4637755886
 20
26.3394282473
 10
20.4400625025
 20
26.3788500319
 10
20.4073397872
 20
26.4084499566
 10
20.3685152224
 20
26.4255980252
 10
20.3386650872
 20
26.4293297687
  0
LINE
  5
DF
330
1F
100
AcDbEntity
  8
0
  6
Continuous
 62
     7
370
    25
100
AcDbLine
 10
20.3580597698
 20
26.2524130925
 30
0.0
 11
20.302901127
 21
26.247083874
 31
0.0
  0
LINE
  5
E0
330
1F
100
AcDbEntity
  8
0
  6
Continuous
 62
     7
370
    25
100
AcDbLine
 10
20.302901127
 20
26.247083874
 30
0.0
 11
20.3075160871
 21
26.1833919698
 31
0.0
  0
LINE
  5
E1
330
1F
100
AcDbEntity
  8
0
  6
Continuous
 62
     7
370
    25
100
AcDbLine
 10
20.3075160871
 20
26.1833919698
 30
0.0
 11
20.2674005771
 21
26.1795164946
 31
0.0
  0
LINE
  5
E2
330
1F
100
AcDbEntity
  8
0
  6
Continuous
 62
     7
370
    25
100
AcDbLine
 10
20.2674005771
 20
26.1795164946
 30
0.0
 11
20.2627853238
 21
26.2432083988
 31
0.0
  0
LINE
  5
E3
330
1F
100
AcDbEntity
  8
0
  6
Continuous
 62
     7
370
    25
100
AcDbLine
 10
20.2627853238
 20
26.2432083988
 30
0.0
 11
20.2076263877
 21
26.237879767
 31
0.0
  0
LINE
  5
E4
330
1F
100
AcDbEntity
  8
0
  6
Continuous
 62
     7
370
    25
100
AcDbLine
 10
20.2076263877
 20
26.237879767
 30
0.0
 11
20.2042701064
 21
26.2842012586
 31
0.0
  0
LINE
  5
E5
330
1F
100
AcDbEntity
  8
0
  6
Continuous
 62
     7
370
    25
100
AcDbLine
 10
20.2042701064
 20
26.2842012586
 30
0.0
 11
20.2594290426
 21
26.2895298904
 31
0.0
  0
LINE
  5
E6
330
1F
100
AcDbEntity
  8
0
  6
Continuous
 62
     7
370
    25
100
AcDbLine
 10
20.2594290426
 20
26.2895298904
 30
0.0
 11
20.2548140825
 21
26.3532217946
 31
0.0
  0
LINE
  5
E7
330
1F
100
AcDbEntity
  8
0
  6
Continuous
 62
     7
370
    25
100
AcDbLine
 10
20.2548140825
 20
26.3532217946
 30
0.0
 11
20.2949295925
 21
26.3570978565
 31
0.0
  0
LINE
  5
E8
330
1F
100
AcDbEntity
  8
0
  6
Continuous
 62
     7
370
    25
100
AcDbLine
 10
20.2949295925
 20
26.3570978565
 30
0.0
 11
20.2995445525
 21
26.2934053656
 31
0.0
  0
LINE
  5
E9
330
1F
100
AcDbEntity
  8
0
  6
Continuous
 62
     7
370
    25
100
AcDbLine
 10
20.3547034886
 20
26.298734584
 30
0.0
 11
20.2995445525
 21
26.2934053656
 31
0.0
  0
LINE
  5
EA
330
1F
100
AcDbEntity
  8
0
  6
Continuous
 62
     7
370
    25
100
AcDbLine
 10
20.3547034886
 20
26.298734584
 30
0.0
 11
20.3580597698
 21
26.2524130925
 31
0.0
  0
LINE
  5
EB
330
1F
100
AcDbEntity
  8
0
  6
Continuous
 62
     7
370
    25
100
AcDbLine
 10
20.3547034886
 20
26.298734584
 30
0.0
 11
20.33150197
 21
26.2934053656
 31
0.0
  0
LINE
  5
EC
330
1F
100
AcDbEntity
  8
0
  6
Continuous
 62
     7
370
    25
100
AcDbLine
 10
20.3346362004
 20
26.2501503453
 30
0.0
 11
20.33150197
 21
26.2934053656
 31
0.0
  0
LINE
  5
ED
330
1F
100
AcDbEntity
  8
0
  6
Continuous
 62
     7
370
    25
100
AcDbLine
 10
20.2995445525
 20
26.2934053656
 30
0.0
 11
20.33150197
 21
26.2934053656
 31
0.0
  0
LINE
  5
EE
330
1F
100
AcDbEntity
  8
0
  6
Continuous
 62
     7
370
    25
100
AcDbLine
 10
20.2947427413
 20
26.2432083988
 30
0.0
 11
20.3031231778
 21
26.2440179895
 31
0.0
  0
LINE
  5
EF
330
1F
100
AcDbEntity
  8
0
  6
Continuous
 62
     7
370
    25
100
AcDbLine
 10
20.2674005771
 20
26.1795164946
 30
0.0
 11
20.2947427413
 21
26.2432083988
 31
0.0
  0
LINE
  5
F0
330
1F
100
AcDbEntity
  8
0
  6
Continuous
 62
     7
370
    25
100
AcDbLine
 10
20.2548140825
 20
26.3532217946
 30
0.0
 11
20.2913861667
 21
26.2895298904
 31
0.0
  0
LINE
  5
F1
330
1F
100
AcDbEntity
  8
0
  6
Continuous
 62
     7
370
    25
100
AcDbLine
 10
20.33150197
 20
26.2934053656
 30
0.0
 11
20.2913861667
 21
26.2895298904
 31
0.0
  0
LINE
  5
F2
330
1F
100
AcDbEntity
  8
0
  6
Continuous
 62
     7
370
    25
100
AcDbLine
 10
20.2627853238
 20
26.2432083988
 30
0.0
 11
20.2947427413
 21
26.2432083988
 31
0.0
  0
LINE
  5
F3
330
1F
100
AcDbEntity
  8
0
  6
Continuous
 62
     7
370
    25
100
AcDbLine
 10
20.2913861667
 20
26.2895298904
 30
0.0
 11
20.2947427413
 21
26.2432083988
 31
0.0
  0
LINE
  5
F4
330
1F
100
AcDbEntity
  8
0
  6
Continuous
 62
     7
370
    25
100
AcDbLine
 10
20.2042701064
 20
26.2842012586
 30
0.0
 11
20.2913861667
 21
26.2895298904
 31
0.0
  0
LINE
  5
F5
330
1F
100
AcDbEntity
  8
0
  6
Continuous
 62
     7
370
    25
100
AcDbLine
 10
20.2594290426
 20
26.2895298904
 30
0.0
 11
20.2913861667
 21
26.2895298904
 31
0.0
  0
LINE
  5
F6
330
1F
100
AcDbEntity
  8
0
  6
Continuous
 62
     7
370
    25
100
AcDbLine
 10
20.3334514408
 20
26.2500353599
 30
0.0
 11
20.3247430614
 21
26.2683068822
 31
0.0
  0
LINE
  5
F7
330
1F
100
AcDbEntity
  8
0
  6
Continuous
 62
     7
370
    25
100
AcDbLine
 10
20.3332607763
 20
26.269129966
 30
0.0
 11
20.3247430614
 21
26.2683068822
 31
0.0
  0
LINE
  5
F8
330
1F
100
AcDbEntity
  8
0
  6
Continuous
 62
     7
370
    25
100
AcDbLine
 10
20.3261184855
 20
26.2493272615
 30
0.0
 11
20.3247430614
 21
26.2683068822
 31
0.0
  0
LINE
  5
F9
330
1F
100
AcDbEntity
  8
0
  6
Continuous
 62
     7
370
    25
100
AcDbLine
 10
20.3247430614
 20
26.2683068822
 30
0.0
 11
20.33150197
 21
26.2934053656
 31
0.0
  0
LINE
  5
FA
330
1F
100
AcDbEntity
  8
0
  6
Continuous
 62
     7
370
    25
100
AcDbLine
 10
20.3230649208
 20
26.291467628
 30
0.0
 11
20.33150197
 21
26.2934053656
 31
0.0
  0
LINE
  5
FB
330
1F
100
AcDbEntity
  8
0
  6
Continuous
 62
     7
370
    25
100
AcDbLine
 10
20.3247430614
 20
26.2683068822
 30
0.0
 11
20.3230649208
 21
26.291467628
 31
0.0
  0
LINE
  5
FC
330
1F
100
AcDbEntity
  8
0
  6
Continuous
 62
     7
370
    25
100
AcDbLine
 10
20.3230649208
 20
26.291467628
 30
0.0
 11
20.2913861667
 21
26.2895298904
 31
0.0
  0
LINE
  5
FD
330
1F
100
AcDbEntity
  8
0
  6
Continuous
 62
     7
370
    25
100
AcDbLine
 10
20.2947427413
 20
26.2432083988
 30
0.0
 11
20.3247430614
 21
26.2683068822
 31
0.0
  0
LINE
  5
FE
330
1F
100
AcDbEntity
  8
0
  6
Continuous
 62
     7
370
    25
100
AcDbLine
 10
20.3247430614
 20
26.2683068822
 30
0.0
 11
20.3046854531
 21
26.2663691446
 31
0.0
  0
LINE
  5
FF
330
1F
100
AcDbEntity
  8
0
  6
Continuous
 62
     7
370
    25
100
AcDbLine
 10
20.2947427413
 20
26.2432083988
 30
0.0
 11
20.3046854531
 21
26.2663691446
 31
0.0
  0
LINE
  5
100
330
1F
100
AcDbEntity
  8
0
  6
Continuous
 62
     7
370
    25
100
AcDbLine
 10
20.3247430614
 20
26.2683068822
 30
0.0
 11
20.2913861667
 21
26.2895298904
 31
0.0
  0
LINE
  5
101
330
1F
100
AcDbEntity
  8
0
  6
Continuous
 62
     7
370
    25
100
AcDbLine
 10
20.3046854531
 20
26.2663691446
 30
0.0
 11
20.2913861667
 21
26.2895298904
 31
0.0
  0
LINE
  5
102
330
1F
100
AcDbEntity
  8
0
  6
Continuous
 62
     7
370
    25
100
AcDbLine
 10
20.8936649958
 20
30.7433070133
 30
0.0
 11
19.8136649121
 21
30.7433070133
 31
0.0
  0
LINE
  5
103
330
1F
100
AcDbEntity
  8
0
  6
Continuous
 62
     7
370
    25
100
AcDbLine
 10
21.9736650062
 20
30.7433070133
 30
0.0
 11
20.8936649958
 21
30.7433070133
 31
0.0
  0
LINE
  5
104
330
1F
100
AcDbEntity
  8
0
  6
Continuous
 62
     7
370
    25
100
AcDbLine
 10
20.8936649958
 20
30.7133069865
 30
0.0
 11
22.003665033
 21
30.7133069865
 31
0.0
  0
LINE
  5
105
330
1F
100
AcDbEntity
  8
0
  6
Continuous
 62
     7
370
    25
100
AcDbLine
 10
19.7836648853
 20
30.7133069865
 30
0.0
 11
20.8936649958
 21
30.7133069865
 31
0.0
  0
SPLINE
  5
106
330
1F
100
AcDbEntity
  8
0
  6
Continuous
 62
     7
370
    25
100
AcDbSpline
210
0.0
220
0.0
230
1.0
 70
    11
 71
     3
 72
    26
 73
    22
 74
     0
 42
0.00000001
 43
0.00000001
 40
0.0
 40
0.0
 40
0.0
 40
0.0
 40
0.0365875138770851
 40
0.0937499878833535
 40
0.1491158260255889
 40
0.2018170368449801
 40
0.2522558195976138
 40
0.3019349378183296
 40
0.3526952104832771
 40
0.4057508473184482
 40
0.4612266073447612
 40
0.5182972403726733
 40
0.5756858012748558
 40
0.6321655243257344
 40
0.6867928428084262
 40
0.7390681514413427
 40
0.7893241542781121
 40
0.8389767250540402
 40
0.8899913235298859
 40
0.9437057530153043
 40
1.0
 40
1.0
 40
1.0
 40
1.0
 10
20.28212075376202
 20
29.61382906110952
 30
0.0
 10
20.28151092418142
 20
29.61864728969836
 30
0.0
 10
20.27994832782725
 20
29.63099327399617
 30
0.0
 10
20.2829613779706
 20
29.65087269717448
 30
0.0
 10
20.29209422460956
 20
29.67107576758655
 30
0.0
 10
20.30668419159764
 20
29.686763421146
 30
0.0
 10
20.32529865739669
 20
29.69590204244017
 30
0.0
 10
20.34577270478927
 20
29.69714394235785
 30
0.0
 10
20.36546647317877
 20
29.69042212357816
 30
0.0
 10
20.38208894939413
 20
29.67676799407092
 30
0.0
 10
20.39383618005204
 20
29.65780972477895
 30
0.0
 10
20.39939803426919
 20
29.63564246049181
 30
0.0
 10
20.39814525359519
 20
29.61269560760589
 30
0.0
 10
20.39023754593317
 20
29.59145237009291
 30
0.0
 10
20.37655578855663
 20
29.57419766578215
 30
0.0
 10
20.35856659484421
 20
29.56287560762865
 30
0.0
 10
20.3382830201916
 20
29.55897482864513
 30
0.0
 10
20.31818096835786
 20
29.56316537198294
 30
0.0
 10
20.3009236335691
 20
29.57487978894646
 30
0.0
 10
20.28784425814605
 20
29.59239277687946
 30
0.0
 10
20.28405818434183
 20
29.60657278771509
 30
0.0
 10
20.28212075376202
 20
29.61382906110952
 30
0.0
  0
SPLINE
  5
107
330
1F
100
AcDbEntity
  8
0
  6
Continuous
 62
     7
370
    25
100
AcDbSpline
210
0.0
220
0.0
230
1.0
 70
     8
 71
     3
 72
    12
 73
     8
 74
     0
 42
0.00000001
 43
0.00000001
 40
0.0
 40
0.0
 40
0.0
 40
0.0
 40
0.3347494411543842
 40
0.63186189786784
 40
0.8582554519479665
 40
0.9880437320243757
 40
1.0
 40
1.0
 40
1.0
 40
1.0
 10
22.00158019041988
 20
29.62830694719308
 30
0.0
 10
22.00162370375907
 20
29.63580233805754
 30
0.0
 10
22.00170583808912
 20
29.64995038825457
 30
0.0
 10
22.00228972157067
 20
29.66916011491577
 30
0.0
 10
22.00294594076264
 20
29.68377334209777
 30
0.0
 10
22.00340477673024
 20
29.69200353317758
 30
0.0
 10
22.00359616332932
 20
29.69517151023793
 30
0.0
 10
22.0036123069447
 20
29.69543873168098
 30
0.0
  0
SPLINE
  5
108
330
1F
100
AcDbEntity
  8
0
  6
Continuous
 62
     7
370
    25
100
AcDbSpline
210
0.0
220
0.0
230
1.0
 70
     8
 71
     3
 72
    13
 73
     9
 74
     0
 42
0.00000001
 43
0.00000001
 40
0.0
 40
0.0
 40
0.0
 40
0.0
 40
0.0012681153899558
 40
0.0600368735773805
 40
0.224462025631469
 40
0.4763776298164882
 40
0.7874791927222726
 40
1.0
 40
1.0
 40
1.0
 40
1.0
 10
22.00365975306326
 20
29.56039549171201
 30
0.0
 10
22.00366150321672
 20
29.56036609254983
 30
0.0
 10
22.00374436140344
 20
29.55897423673208
 30
0.0
 10
22.0030721262157
 20
29.57018251746996
 30
0.0
 10
22.00283628184766
 20
29.57546014338243
 30
0.0
 10
22.00201106911071
 20
29.59478493803928
 30
0.0
 10
22.00165338657968
 20
29.61144997944803
 30
0.0
 10
22.00160132178053
 20
29.62344042597395
 30
0.0
 10
22.00158019041988
 20
29.62830694719308
 30
0.0
  0
LWPOLYLINE
  5
109
330
1F
100
AcDbEntity
  8
0
  6
Continuous
 62
     7
370
    25
100
AcDbPolyline
 90
       17
 70
   128
 43
0.0
 10
20.2879383666
 20
29.6040450408
 10
20.2837590015
 20
29.6283069472
 10
20.2879383666
 20
29.6525691469
 10
20.2998405224
 20
29.673137736
 10
20.3176532766
 20
29.6868811239
 10
20.3386650872
 20
29.6917069881
 10
20.3596766045
 20
29.6868811239
 10
20.3774893587
 20
29.673137736
 10
20.3893915146
 20
29.6525691469
 10
20.3935708796
 20
29.6283069472
 10
20.3893915146
 20
29.6040450408
 10
20.3774893587
 20
29.5834764517
 10
20.3596766045
 20
29.5697330638
 10
20.3386650872
 20
29.5649069063
 10
20.3176532766
 20
29.5697330638
 10
20.2998405224
 20
29.5834764517
 10
20.2879383666
 20
29.6040450408
  0
LINE
  5
10A
330
1F
100
AcDbEntity
  8
0
  6
Continuous
 62
     7
370
    25
100
AcDbLine
 10
20.3581650753
 20
29.6673069233
 30
0.0
 11
20.3776650634
 21
29.6283069472
 31
0.0
  0
LINE
  5
10B
330
1F
100
AcDbEntity
  8
0
  6
Continuous
 62
     7
370
    25
100
AcDbLine
 10
20.3581650753
 20
29.5893069711
 30
0.0
 11
20.3776650634
 21
29.6283069472
 31
0.0
  0
LINE
  5
10C
330
1F
100
AcDbEntity
  8
0
  6
Continuous
 62
     7
370
    25
100
AcDbLine
 10
20.3191650992
 20
29.5893069711
 30
0.0
 11
20.3581650753
 21
29.5893069711
 31
0.0
  0
LINE
  5
10D
330
1F
100
AcDbEntity
  8
0
  6
Continuous
 62
     7
370
    25
100
AcDbLine
 10
20.3191650992
 20
29.5893069711
 30
0.0
 11
20.2996651111
 21
29.6283069472
 31
0.0
  0
LINE
  5
10E
330
1F
100
AcDbEntity
  8
0
  6
Continuous
 62
     7
370
    25
100
AcDbLine
 10
20.3191650992
 20
29.6673069233
 30
0.0
 11
20.2996651111
 21
29.6283069472
 31
0.0
  0
LINE
  5
10F
330
1F
100
AcDbEntity
  8
0
  6
Continuous
 62
     7
370
    25
100
AcDbLine
 10
20.3191650992
 20
29.6673069233
 30
0.0
 11
20.3581650753
 21
29.6673069233
 31
0.0
  0
LINE
  5
110
330
1F
100
AcDbEntity
  8
0
  6
Continuous
 62
     7
370
    25
100
AcDbLine
 10
20.3446651512
 20
29.6283069472
 30
0.0
 11
20.2996651111
 21
29.6283069472
 31
0.0
  0
LINE
  5
111
330
1F
100
AcDbEntity
  8
0
  6
Continuous
 62
     7
370
    25
100
AcDbLine
 10
20.3611649606
 20
29.6613071526
 30
0.0
 11
20.3446651512
 21
29.6283069472
 31
0.0
  0
LINE
  5
112
330
1F
100
AcDbEntity
  8
0
  6
Continuous
 62
     7
370
    25
100
AcDbLine
 10
20.3611649606
 20
29.5953070351
 30
0.0
 11
20.3446651512
 21
29.6283069472
 31
0.0
  0
LINE
  5
113
330
1F
100
AcDbEntity
  8
0
  6
Continuous
 62
     7
370
    25
100
AcDbLine
 10
22.003665033
 20
29.6283069472
 30
0.0
 11
22.003665033
 21
29.6917069881
 31
0.0
  0
LINE
  5
114
330
1F
100
AcDbEntity
  8
0
  6
Continuous
 62
     7
370
    25
100
AcDbLine
 10
22.003665033
 20
29.5649069063
 30
0.0
 11
22.003665033
 21
29.6283069472
 31
0.0
  0
LINE
  5
115
330
1F
100
AcDbEntity
  8
0
  6
Continuous
 62
     7
370
    25
100
AcDbLine
 10
23.8561649994
 20
22.9676910601
 30
0.0
 11
23.8256093324
 21
22.0926913548
 31
0.0
  0
LINE
  5
116
330
1F
100
AcDbEntity
  8
0
  6
Continuous
 62
     7
370
    25
100
AcDbLine
 10
17.9617207326
 20
22.0926913548
 30
0.0
 11
17.9311651389
 21
22.9676910601
 31
0.0
  0
LINE
  5
117
330
1F
100
AcDbEntity
  8
0
  6
Continuous
 62
     7
370
    25
100
AcDbLine
 10
19.7061650606
 20
18.081311668
 30
0.0
 11
19.7061650606
 21
22.0926913548
 31
0.0
  0
LINE
  5
118
330
1F
100
AcDbEntity
  8
0
  6
Continuous
 62
     7
370
    25
100
AcDbLine
 10
19.7061650606
 20
22.9676910601
 30
0.0
 11
19.7061650606
 21
23.5288347644
 31
0.0
  0
LINE
  5
119
330
1F
100
AcDbEntity
  8
0
  6
Continuous
 62
     7
370
    25
100
AcDbLine
 10
22.0811650044
 20
23.2000259761
 30
0.0
 11
22.0811650044
 21
22.9676910601
 31
0.0
  0
LINE
  5
11A
330
1F
100
AcDbEntity
  8
0
  6
Continuous
 62
     7
370
    25
100
AcDbLine
 10
22.0811650044
 20
22.0926913548
 30
0.0
 11
22.0811650044
 21
13.9676900689
 31
0.0
  0
LINE
  5
11B
330
1F
100
AcDbEntity
  8
0
  6
Continuous
 62
     7
370
    25
100
AcDbLine
 10
23.8256093324
 20
22.0926913548
 30
0.0
 11
17.9617207326
 21
22.0926913548
 31
0.0
  0
LINE
  5
11C
330
1F
100
AcDbEntity
  8
0
  6
Continuous
 62
     7
370
    25
100
AcDbLine
 10
23.8561649994
 20
22.9676910601
 30
0.0
 11
17.9311651389
 21
22.9676910601
 31
0.0
  0
LWPOLYLINE
  5
11D
330
1F
100
AcDbEntity
  8
0
  6
Continuous
 62
     7
370
    25
100
AcDbPolyline
 90
       42
 70
   128
 43
0.0
 10
22.0811650044
 20
13.9676900689
 10
22.0776806113
 20
13.9737256258
 10
22.0672480385
 20
13.9917947504
 10
22.0499282986
 20
14.0217941905
 10
22.0258232504
 20
14.0635456015
 10
21.9950741322
 20
14.1168049329
 10
21.9578616355
 20
14.181257735
 10
21.9144039242
 20
14.2565285455
 10
21.864956122
 20
14.3421761961
 10
21.8098084791
 20
14.4376938127
 10
21.7492843916
 20
14.5425252417
 10
21.6837392288
 20
14.6560533168
 10
21.6135576929
 20
14.7776115926
 10
21.5391514724
 20
14.9064866905
 10
21.4609573357
 20
15.0419229926
 10
21.3794340508
 20
15.1831249881
 10
21.2950600389
 20
15.3292643132
 10
21.2083305874
 20
15.4794844445
 10
21.1197544773
 20
15.6329030455
 10
21.0298516359
 20
15.7886190067
 10
20.9391494704
 20
15.9457194852
 10
20.8481805213
 20
16.1032822517
 10
20.7574785024
 20
16.2603827302
 10
20.6675755143
 20
16.4160986913
 10
20.5789994042
 20
16.5695172923
 10
20.4922699528
 20
16.7197374236
 10
20.4078959408
 20
16.8658767488
 10
20.3263728026
 20
17.0070810909
 10
20.2481786659
 20
17.142517393
 10
20.1737722987
 20
17.2713924909
 10
20.1035907628
 20
17.3929507666
 10
20.0380456
 20
17.5064764952
 10
19.9775216592
 20
17.6113079241
 10
19.9223738696
 20
17.7068278874
 10
19.8729260675
 20
17.7924731913
 10
19.8294683562
 20
17.8677440018
 10
19.7922559327
 20
17.9321968039
 10
19.7615067413
 20
17.9854561353
 10
19.7374017664
 20
18.0272075463
 10
19.7200820998
 20
18.0572069864
 10
19.7096492337
 20
18.075276111
 10
19.7061650606
 20
18.081311668
  0
DIMENSION
  5
11E
330
1F
100
AcDbEntity
  8
SLD-0
100
AcDbDimension
  2
_D
 10
20.2686650051
 20
38.0954596396
 30
0.0
 11
16.983676631
 21
38.0954596396
 31
0.0
 70
   160
  1
<>
 71
     2
 42
-1.0
  3
SLDDIMSTYLE0
100
AcDbAlignedDimension
 13
21.5186650051
 23
38.7330122513
 33
0.0
 14
20.2686650051
 24
38.7330122513
 34
0.0
 50
0.0
100
AcDbRotatedDimension
  0
DIMENSION
  5
132
330
1F
100
AcDbEntity
  8
SLD-0
100
AcDbDimension
  2
_D_1
 10
19.7836650051
 20
29.6038778507
 30
0.0
 11
16.983676631
 21
29.6038778507
 31
0.0
 70
   160
  1
%%c<>
 71
     2
 42
-1.0
  3
SLDDIMSTYLE0
100
AcDbAlignedDimension
 13
22.0036650051
 23
30.7133070463
 33
0.0
 14
19.7836650051
 24
30.7133070463
 34
0.0
100
AcDbRotatedDimension
  0
DIMENSION
  5
145
330
1F
100
AcDbEntity
  8
SLD-0
100
AcDbDimension
  2
_D_2
 10
26.8255627278
 20
30.7433070463
 30
0.0
 11
26.8255627278
 21
29.1113661696
 31
0.0
 70
   160
  1
<>
 71
     2
 42
-1.0
  3
SLDDIMSTYLE0
100
AcDbAlignedDimension
 13
22.0811650051
 23
26.0183070463
 33
0.0
 14
21.9736650051
 24
30.7433070463
 34
0.0
 50
90.0
100
AcDbRotatedDimension
  0
DIMENSION
  5
159
330
1F
100
AcDbEntity
  8
SLD-0
100
AcDbDimension
  2
_D_3
 10
10.2610417784
 20
30.7433070463
 30
0.0
 11
10.2610417784
 21
34.0149757266
 31
0.0
 70
   160
  1
SPECIFY LENGTH:\P6" - 48" MAX\P[152mm - 1219mm]
 71
     2
 42
-1.0
  3
SLDDIMSTYLE1
100
AcDbAlignedDimension
 13
20.2686650051
 23
36.2949907654
 33
0.0
 14
19.8136650051
 24
30.7433070463
 34
0.0
 50
90.0
100
AcDbRotatedDimension
  0
DIMENSION
  5
16B
330
1F
100
AcDbEntity
  8
SLD-0
100
AcDbDimension
  2
_D_4
 10
22.0811650051
 20
23.9985331369
 30
0.0
 11
26.8255627278
 21
23.9985331369
 31
0.0
 70
   160
  1
%%c<>
 71
     2
 42
-1.0
  3
SLDDIMSTYLE2
100
AcDbAlignedDimension
 13
19.7061650051
 23
26.0183070463
 33
0.0
 14
22.0811650051
 24
26.0183070463
 34
0.0
100
AcDbRotatedDimension
  0
DIMENSION
  5
17D
330
1F
100
AcDbEntity
  8
SLD-0
100
AcDbDimension
  2
_D_5
 10
10.2610417784
 20
36.2949907654
 30
0.0
 11
10.2610417784
 21
37.5449907654
 31
0.0
 70
   160
  1
<>
 71
     2
 42
-1.0
  3
SLDDIMSTYLE0
100
AcDbAlignedDimension
 13
20.5097815286
 23
38.7949907654
 33
0.0
 14
20.2686650051
 24
36.2949907654
 34
0.0
 50
90.0
100
AcDbRotatedDimension
  0
DIMENSION
  5
191
330
1F
100
AcDbEntity
  8
SLD-0
100
AcDbDimension
  2
_D_6
 10
16.983676631
 20
22.0926908741
 30
0.0
 11
16.983676631
 21
24.5933766547
 31
0.0
 70
   160
  1
<>
 71
     2
 42
-1.0
  3
SLDDIMSTYLE0
100
AcDbAlignedDimension
 13
17.9311650051
 23
22.9676908741
 33
0.0
 14
17.9617206784
 24
22.0926908741
 34
0.0
 50
90.0
100
AcDbRotatedDimension
  0
DIMENSION
  5
1A6
330
1F
100
AcDbEntity
  8
SLD-0
100
AcDbDimension
  2
_D_7
 10
17.9311650051
 20
18.7735419839
 30
0.0
 11
26.8255627278
 21
18.7735419839
 31
0.0
 70
   160
  1
%%c<>
 71
     2
 42
-1.0
  3
SLDDIMSTYLE2
100
AcDbAlignedDimension
 13
23.8561650051
 23
22.9676908741
 33
0.0
 14
17.9311650051
 24
22.9676908741
 34
0.0
 50
0.0
100
AcDbRotatedDimension
  0
DIMENSION
  5
1B9
330
1F
100
AcDbEntity
  8
SLD-0
100
AcDbDimension
  2
_D_8
 10
20.3936650051
 20
34.0149757266
 30
0.0
 11
16.983676631
 21
34.0149757266
 31
0.0
 70
   160
  1
%%c<>
 71
     2
 42
-1.0
  3
SLDDIMSTYLE3
100
AcDbAlignedDimension
 13
21.3936650051
 23
30.7433070463
 33
0.0
 14
20.3936650051
 24
30.7433070463
 34
0.0
100
AcDbRotatedDimension
  0
DIMENSION
  5
1CB
330
1F
100
AcDbEntity
  8
SLD-0
100
AcDbDimension
  2
_D_9
 10
10.2610417784
 20
26.0183070463
 30
0.0
 11
10.2610417784
 21
19.9929989602
 31
0.0
 70
   160
  1
18"
 71
     2
 42
-1.0
  3
SLDDIMSTYLE1
100
AcDbAlignedDimension
 13
22.0811650051
 23
13.9676908741
 33
0.0
 14
19.7061650051
 24
26.0183070463
 34
0.0
 50
90.0
100
AcDbRotatedDimension
  0
DIMENSION
  5
1E3
330
1F
100
AcDbEntity
  8
SLD-0
100
AcDbDimension
  2
_D_10
 10
29.6723755473
 20
32.9660572774
 30
0.0
 11
31.1652004122
 21
34.4588821423
 31
0.0
 70
   160
  1
%%c<>
 71
     2
 42
-1.0
  3
SLDDIMSTYLE2
100
AcDbAlignedDimension
 13
25.8604195109
 23
33.6384592054
 33
0.0
 14
28.9999736194
 24
33.6384592054
 34
0.0
 50
45.0
100
AcDbRotatedDimension
  0
DIMENSION
  5
1F7
330
1F
100
AcDbEntity
  8
SLD-0
100
AcDbDimension
  2
_D_11
 10
25.9179603513
 20
40.6892861117
 30
0.0
 11
28.4511703949
 21
38.1560760681
 31
0.0
 70
   160
  1
<>
 71
     2
 42
-1.0
  3
SLDDIMSTYLE2
100
AcDbAlignedDimension
 13
28.9999736194
 23
33.6384592054
 33
0.0
 14
23.4986828618
 24
38.2700086221
 34
0.0
 50
-45.0
100
AcDbRotatedDimension
  0
DIMENSION
  5
20B
330
1F
100
AcDbEntity
  8
SLD-0
100
AcDbDimension
  2
_D_12
 10
20.2686650051
 20
41.0502066006
 30
0.0
 11
10.2610417784
 21
41.0502066006
 31
0.0
 70
   160
  1
<>
 71
     2
 42
-1.0
  3
SLDDIMSTYLE2
100
AcDbAlignedDimension
 13
23.1486650051
 23
37.9199907654
 33
0.0
 14
20.2686650051
 24
38.7330122513
 34
0.0
 50
0.0
100
AcDbRotatedDimension
  0
ARC
  5
21F
330
1F
100
AcDbEntity
  8
0
  6
HIDDEN
 62
     7
370
    18
100
AcDbCircle
 10
21.7999150051
 20
25.5394303325
 30
0.0
 40
2.356250000000001
100
AcDbArc
 50
247.380135052
 51
292.619864948
  0
ARC
  5
220
330
1F
100
AcDbEntity
  8
0
  6
HIDDEN
 62
     7
370
    18
100
AcDbCircle
 10
19.9874150051
 20
21.1894303325
 30
0.0
 40
2.356250000000002
100
AcDbArc
 50
67.380135052
 51
112.619864948
  0
ARC
  5
221
330
1F
100
AcDbEntity
  8
0
  6
HIDDEN
 62
     7
370
    18
100
AcDbCircle
 10
21.7999150051
 20
25.8394303325
 30
0.0
 40
2.356250000000001
100
AcDbArc
 50
247.380135052
 51
292.619864948
  0
ARC
  5
222
330
1F
100
AcDbEntity
  8
0
  6
HIDDEN
 62
     7
370
    18
100
AcDbCircle
 10
19.9874150051
 20
21.4894303325
 30
0.0
 40
2.356250000000002
100
AcDbArc
 50
67.380135052
 51
112.619864948
  0
ARC
  5
223
330
1F
100
AcDbEntity
  8
0
  6
HIDDEN
 62
     7
370
    18
100
AcDbCircle
 10
21.4561650051
 20
33.6220444209
 30
0.0
 40
1.462500000000001
100
AcDbArc
 50
247.380135052
 51
292.619864948
  0
ARC
  5
224
330
1F
100
AcDbEntity
  8
0
  6
HIDDEN
 62
     7
370
    18
100
AcDbCircle
 10
20.3311650051
 20
30.9220444209
 30
0.0
 40
1.462500000000009
100
AcDbArc
 50
67.380135052
 51
112.619864948
  0
ARC
  5
225
330
1F
100
AcDbEntity
  8
0
  6
HIDDEN
 62
     7
370
    18
100
AcDbCircle
 10
21.4561650051
 20
33.9220444209
 30
0.0
 40
1.462500000000008
100
AcDbArc
 50
247.380135052
 51
292.619864948
  0
ARC
  5
226
330
1F
100
AcDbEntity
  8
0
  6
HIDDEN
 62
     7
370
    18
100
AcDbCircle
 10
20.3311650051
 20
31.2220444209
 30
0.0
 40
1.462499999999996
100
AcDbArc
 50
67.380135052
 51
112.619864948
  0
INSERT
  5
22A
330
1F
100
AcDbEntity
  8
0
  6
Continuous
 62
     7
100
AcDbBlockReference
  2
SW_BROKEN_VIEW_1
 10
0.0
 20
0.0
 30
0.0
  0
LINE
  5
22B
330
1F
100
AcDbEntity
  8
0
  6
Continuous
 62
     7
370
    25
100
AcDbLine
 10
39.0587331387
 20
37.4761704181
 30
0.0
 11
36.9207467969
 21
33.7730699433
 31
0.0
  0
LINE
  5
22C
330
1F
100
AcDbEntity
  8
0
  6
Continuous
 62
     7
370
    25
100
AcDbLine
 10
39.4842959292
 20
33.773267061
 30
0.0
 11
40.9813095556
 21
36.3661711875
 31
0.0
  0
LINE
  5
22D
330
1F
100
AcDbEntity
  8
0
  6
Continuous
 62
     7
370
    25
100
AcDbLine
 10
41.5913366401
 20
38.6283035619
 30
0.0
 11
41.6222681728
 21
38.6104515014
 31
0.0
  0
LINE
  5
22E
330
1F
100
AcDbEntity
  8
0
  6
Continuous
 62
     7
370
    25
100
AcDbLine
 10
41.7782266262
 20
38.8806752598
 30
0.0
 11
41.756050259
 21
38.8934738319
 31
0.0
  0
LINE
  5
22F
330
1F
100
AcDbEntity
  8
0
  6
Continuous
 62
     7
370
    25
100
AcDbLine
 10
41.6829826681
 20
38.5911128448
 30
0.0
 11
41.6915089813
 21
38.5922767781
 31
0.0
  0
LINE
  5
230
330
1F
100
AcDbEntity
  8
0
  6
Continuous
 62
     7
370
    25
100
AcDbLine
 10
41.8286025242
 20
38.829814194
 30
0.0
 11
41.8253449852
 21
38.8377786887
 31
0.0
  0
LINE
  5
231
330
1F
100
AcDbEntity
  8
0
  6
Continuous
 62
     7
370
    25
100
AcDbLine
 10
41.5913366401
 20
38.6283035619
 30
0.0
 11
41.6443242747
 21
38.5977221551
 31
0.0
  0
LINE
  5
232
330
1F
100
AcDbEntity
  8
0
  6
Continuous
 62
     7
370
    25
100
AcDbLine
 10
41.8002827281
 20
38.8679459135
 30
0.0
 11
41.756050259
 21
38.8934738319
 31
0.0
  0
ARC
  5
233
330
1F
100
AcDbEntity
  8
0
  6
Continuous
 62
     7
370
    25
100
AcDbCircle
 10
41.3643714703
 20
38.9394121627
 30
0.0
 40
0.4949993919934288
100
AcDbArc
 50
226.4128576147
 51
299.9912527231
  0
LINE
  5
234
330
1F
100
AcDbEntity
  8
0
  6
Continuous
 62
     7
370
    25
100
AcDbLine
 10
42.2695216874
 20
40.0333410908
 30
0.0
 11
41.516806497
 21
39.5989159226
 31
0.0
  0
LINE
  5
235
330
1F
100
AcDbEntity
  8
0
  6
Continuous
 62
     7
370
    25
100
AcDbLine
 10
41.611805717
 20
38.5106923339
 30
0.0
 11
42.7643898373
 21
39.175900116
 31
0.0
  0
LINE
  5
236
330
1F
100
AcDbEntity
  8
0
  6
Continuous
 62
     7
370
    25
100
AcDbLine
 10
40.9863095845
 20
36.3748314608
 30
0.0
 11
41.9088095643
 21
37.9726477761
 31
0.0
  0
LINE
  5
237
330
1F
100
AcDbEntity
  8
0
  6
Continuous
 62
     7
370
    25
100
AcDbLine
 10
39.9862331841
 20
39.0826481799
 30
0.0
 11
39.0637332409
 21
37.4848306914
 31
0.0
  0
LINE
  5
238
330
1F
100
AcDbEntity
  8
0
  6
Continuous
 62
     7
370
    25
100
AcDbLine
 10
41.9088095643
 20
37.9726477761
 30
0.0
 11
41.8978288312
 21
38.013628316
 31
0.0
  0
LINE
  5
239
330
1F
100
AcDbEntity
  8
0
  6
Continuous
 62
     7
370
    25
100
AcDbLine
 10
40.0272140174
 20
39.0936281064
 30
0.0
 11
39.9862331841
 21
39.0826481799
 31
0.0
  0
LINE
  5
23A
330
1F
100
AcDbEntity
  8
0
  6
Continuous
 62
     7
370
    25
100
AcDbLine
 10
41.3913083394
 20
38.3063094149
 30
0.0
 11
41.396203952
 21
38.3147889969
 31
0.0
  0
LINE
  5
23B
330
1F
100
AcDbEntity
  8
0
  6
Continuous
 62
     7
370
    25
100
AcDbLine
 10
40.8013388013
 20
39.264451733
 30
0.0
 11
40.5339431836
 21
38.8013095633
 31
0.0
  0
ARC
  5
23C
330
1F
100
AcDbEntity
  8
0
  6
Continuous
 62
     7
370
    25
100
AcDbCircle
 10
41.230021887
 20
39.0169510672
 30
0.0
 40
0.4950007753062402
100
AcDbArc
 50
63.9417524611
 51
149.9999628232
  0
LINE
  5
23D
330
1F
100
AcDbEntity
  8
0
  6
Continuous
 62
     7
370
    25
100
AcDbLine
 10
42.4588974797
 20
38.3110859997
 30
0.0
 11
42.4588974797
 21
32.325010298
 31
0.0
  0
LINE
  5
23E
330
1F
100
AcDbEntity
  8
0
  6
Continuous
 62
     7
370
    25
100
AcDbLine
 10
43.4588974676
 20
32.1026826264
 30
0.0
 11
43.4588974676
 21
38.3110859997
 31
0.0
  0
SPLINE
  5
23F
330
1F
100
AcDbEntity
  8
0
  6
Continuous
 62
     7
370
    25
100
AcDbSpline
210
0.0
220
0.0
230
1.0
 70
     8
 71
     3
 72
    12
 73
     8
 74
     0
 42
0.00000001
 43
0.00000001
 40
0.0
 40
0.0
 40
0.0
 40
0.0
 40
0.1594195680533186
 40
0.3717393617974591
 40
0.5852724549710488
 40
0.7999559500073785
 40
1.0
 40
1.0
 40
1.0
 40
1.0
 10
43.20403187848991
 20
40.86012556633535
 30
0.0
 10
43.17825991436278
 20
40.86562657992396
 30
0.0
 10
43.11816407033388
 20
40.87845400949011
 30
0.0
 10
43.02161952871854
 20
40.8872265354821
 30
0.0
 10
42.91575322829011
 20
40.88820708069488
 30
0.0
 10
42.8120089144022
 20
40.88023906682722
 30
0.0
 10
42.74476831197889
 20
40.86684296623187
 30
0.0
 10
42.71233477195018
 20
40.86038135004717
 30
0.0
  0
LWPOLYLINE
  5
240
330
1F
100
AcDbEntity
  8
0
  6
Continuous
 62
     7
370
    25
100
AcDbPolyline
 90
       35
 70
   128
 43
0.0
 10
39.4842959292
 20
33.773267061
 10
39.4459945183
 20
33.7133995926
 10
39.3890769225
 20
33.6404026759
 10
39.3217317405
 20
33.5685743856
 10
39.2445509121
 20
33.498542448
 10
39.1582127628
 20
33.4309252024
 10
39.0634758439
 20
33.3663151755
 10
38.961172919
 20
33.3052802539
 10
38.8522030445
 20
33.2483578181
 10
38.7375236493
 20
33.1960465291
 10
38.6181424684
 20
33.1488075015
 10
38.4951090364
 20
33.1070560905
 10
38.369504274
 20
33.0711571985
 10
38.242431982
 20
33.0414287953
 10
38.1150088673
 20
33.0181301844
 10
37.9883548638
 20
33.0014666969
 10
37.8635831585
 20
32.9915849977
 10
37.7417899254
 20
32.9885730858
 10
37.6240455256
 20
32.9924544277
 10
37.5113848271
 20
33.0031985169
 10
37.4047981117
 20
33.020707968
 10
37.3052216887
 20
33.0448302493
 10
37.2135305613
 20
33.07535299
 10
37.1305308001
 20
33.1120086732
 10
37.0569519167
 20
33.154474636
 10
36.9934401171
 20
33.2023777626
 10
36.9405539014
 20
33.255295658
 10
36.8987579042
 20
33.3127660341
 10
36.8684193747
 20
33.3742820168
 10
36.8498049497
 20
33.439303879
 10
36.8430783074
 20
33.5072590406
 10
36.8482984071
 20
33.5775514553
 10
36.8654197827
 20
33.6495639567
 10
36.8942913692
 20
33.7226606056
 10
36.9207467969
 20
33.7730699433
  0
LWPOLYLINE
  5
241
330
1F
100
AcDbEntity
  8
0
  6
Continuous
 62
     7
370
    25
100
AcDbPolyline
 90
       30
 70
   128
 43
0.0
 10
40.9813095556
 20
36.3661711875
 10
40.9798832754
 20
36.3670089379
 10
40.9679869861
 20
36.3739092315
 10
40.9441694746
 20
36.3876898723
 10
40.9087302307
 20
36.4081807289
 10
40.8621149692
 20
36.4351224977
 10
40.80490991
 20
36.4681760892
 10
40.7378344082
 20
36.5069261482
 10
40.6617320074
 20
36.5508869204
 10
40.5775597331
 20
36.5995034254
 10
40.4863760664
 20
36.6521643637
 10
40.3893277075
 20
36.7082091563
 10
40.287635129
 20
36.7669314646
 10
40.1825771026
 20
36.8275944438
 10
40.0754748598
 20
36.8894330894
 10
39.9676753718
 20
36.9516706638
 10
39.8605339695
 20
37.0135257359
 10
39.7553983574
 20
37.0742192214
 10
39.6535905735
 20
37.1329872892
 10
39.5563907097
 20
37.1890919211
 10
39.4650213652
 20
37.2418279519
 10
39.3806315134
 20
37.2905312826
 10
39.3042822754
 20
37.3345894403
 10
39.2369338667
 20
37.3734486181
 10
39.1794332777
 20
37.4066195415
 10
39.1325035665
 20
37.4336868555
 10
39.096734913
 20
37.4543079506
 10
39.0725771387
 20
37.4682246965
 10
39.0603339868
 20
37.4752622686
 10
39.0587331387
 20
37.4761704181
  0
SPLINE
  5
242
330
1F
100
AcDbEntity
  8
0
  6
Continuous
 62
     7
370
    25
100
AcDbSpline
210
0.0
220
0.0
230
1.0
 70
    11
 71
     3
 72
    26
 73
    22
 74
     0
 42
0.00000001
 43
0.00000001
 40
0.0
 40
0.0
 40
0.0
 40
0.0
 40
0.0358395875216714
 40
0.0919093914208304
 40
0.1471723525715353
 40
0.2010806062165396
 40
0.2534267344055924
 40
0.3045747990006226
 40
0.355615861660997
 40
0.4078932280671589
 40
0.462127603688682
 40
0.5179318185164803
 40
0.5740862619444614
 40
0.629283716884045
 40
0.6827616436463348
 40
0.7345767915758378
 40
0.7855763549685163
 40
0.8369824068945818
 40
0.8897737619728084
 40
0.9442485470517011
 40
1.0
 40
1.0
 40
1.0
 40
1.0
 10
40.23703446683053
 20
36.49074489512704
 30
0.0
 10
40.23885164301715
 20
36.49525761510914
 30
0.0
 10
40.24351172894351
 20
36.50683033053048
 30
0.0
 10
40.25652173058875
 20
36.52250304769436
 30
0.0
 10
40.27553601962589
 20
36.5348876679927
 30
0.0
 10
40.2971470560632
 20
36.5403498082057
 30
0.0
 10
40.31879633670027
 20
36.53825567172504
 30
0.0
 10
40.33795541444071
 20
36.52870735175867
 30
0.0
 10
40.35225412144143
 20
36.5127910663545
 30
0.0
 10
40.36004898001514
 20
36.49246488167207
 30
0.0
 10
40.36068130114845
 20
36.47012063167332
 30
0.0
 10
40.35432950789195
 20
36.44818751441424
 30
0.0
 10
40.3418082046769
 20
36.4289514422243
 30
0.0
 10
40.32441136377972
 20
36.414431353407
 30
0.0
 10
40.30383704603231
 20
36.40629024076061
 30
0.0
 10
40.28222143805007
 20
36.40569508409754
 30
0.0
 10
40.26212065675411
 20
36.4129320292297
 30
0.0
 10
40.24595111369485
 20
36.42711048248943
 30
0.0
 10
40.23568250919629
 20
36.44638064318437
 30
0.0
 10
40.23182203575212
 20
36.46869721491294
 30
0.0
 10
40.23528362547163
 20
36.4833391395773
 30
0.0
 10
40.23703446683053
 20
36.49074489512704
 30
0.0
  0
ARC
  5
243
330
1F
100
AcDbEntity
  8
0
  6
Continuous
 62
     7
370
    25
100
AcDbCircle
 10
41.7459921114
 20
38.7796037443
 30
0.0
 40
0.1060872997945052
100
AcDbArc
 50
72.3110725176
 51
146.0463796847
  0
LWPOLYLINE
  5
244
330
1F
100
AcDbEntity
  8
0
  6
Continuous
 62
     7
370
    25
100
AcDbPolyline
 90
        8
 70
   128
 43
0.0
 10
41.6222681728
 20
38.6104515014
 10
41.6103092393
 20
38.619894379
 10
41.5954794856
 20
38.6452286997
 10
41.5899588511
 20
38.679477904
 10
41.59423782
 20
38.7195995739
 10
41.6079362001
 20
38.7620279904
 10
41.6298368371
 20
38.8029932772
 10
41.6579937618
 20
38.8388557962
  0
LWPOLYLINE
  5
245
330
1F
100
AcDbEntity
  8
0
  6
Continuous
 62
     7
370
    25
100
AcDbPolyline
 90
        3
 70
   128
 43
0.0
 10
41.7461706498
 20
38.705477497
 10
41.7524417874
 20
38.7154530618
 10
41.7579408805
 20
38.7258744881
  0
ARC
  5
246
330
1F
100
AcDbEntity
  8
0
  6
Continuous
 62
     7
370
    25
100
AcDbCircle
 10
41.6554374469
 20
38.7789833052
 30
0.0
 40
0.1154447935531849
100
AcDbArc
 50
332.6105380897
 51
4.2935792095
  0
SPLINE
  5
247
330
1F
100
AcDbEntity
  8
0
  6
Continuous
 62
     7
370
    25
100
AcDbSpline
210
0.0
220
0.0
230
1.0
 70
     8
 71
     3
 72
     9
 73
     5
 74
     0
 42
0.00000001
 43
0.00000001
 40
0.0
 40
0.0
 40
0.0
 40
0.0
 40
0.5002061849878549
 40
0.9999999999999999
 40
0.9999999999999999
 40
0.9999999999999999
 40
0.9999999999999999
 10
41.66212590071934
 20
38.67728027608374
 30
0.0
 10
41.66836243690128
 20
38.67523835171217
 30
0.0
 10
41.68083036786478
 20
38.67115618633151
 30
0.0
 10
41.69295671249892
 20
38.66614968964822
 30
0.0
 10
41.69901738454578
 20
38.66364747357104
 30
0.0
  0
SPLINE
  5
248
330
1F
100
AcDbEntity
  8
0
  6
Continuous
 62
     7
370
    25
100
AcDbSpline
210
0.0
220
0.0
230
1.0
 70
     8
 71
     3
 72
    10
 73
     6
 74
     0
 42
0.00000001
 43
0.00000001
 40
0.0
 40
0.0
 40
0.0
 40
0.0
 40
0.5563872537749828
 40
0.9016695595869663
 40
1.0
 40
1.0
 40
1.0
 40
1.0
 10
41.75794088052319
 20
38.72587448805259
 30
0.0
 10
41.75538300237712
 20
38.73872889782646
 30
0.0
 10
41.75123775849205
 20
38.7595604857554
 30
0.0
 10
41.75509252798347
 20
38.78358052011703
 30
0.0
 10
41.76025578789181
 20
38.79264330541623
 30
0.0
 10
41.76140026722672
 20
38.79465214686054
 30
0.0
  0
LINE
  5
249
330
1F
100
AcDbEntity
  8
0
  6
Continuous
 62
     7
370
    25
100
AcDbLine
 10
41.7022152309
 20
38.7580363565
 30
0.0
 11
41.7579408805
 21
38.7258744881
 31
0.0
  0
SPLINE
  5
24A
330
1F
100
AcDbEntity
  8
0
  6
Continuous
 62
     7
370
    25
100
AcDbSpline
210
0.0
220
0.0
230
1.0
 70
     8
 71
     3
 72
    11
 73
     7
 74
     0
 42
0.00000001
 43
0.00000001
 40
0.0
 40
0.0
 40
0.0
 40
0.0
 40
0.1600448263241514
 40
0.4677114456855996
 40
0.8081792708547288
 40
1.0
 40
1.0
 40
1.0
 40
1.0
 10
41.69901738454578
 20
38.66364747357104
 30
0.0
 10
41.7006499090903
 20
38.6680654391271
 30
0.0
 10
41.70542076255916
 20
38.68097640354045
 30
0.0
 10
41.71903742039325
 20
38.70101645548078
 30
0.0
 10
41.73897404422834
 20
38.71620496174425
 30
0.0
 10
41.75291645610168
 20
38.7233129747157
 30
0.0
 10
41.75794088052319
 20
38.72587448805259
 30
0.0
  0
LWPOLYLINE
  5
24B
330
1F
100
AcDbEntity
  8
0
  6
Continuous
 62
     7
370
    25
100
AcDbPolyline
 90
       21
 70
   128
 43
0.0
 10
41.6485722606
 20
38.7617557802
 10
41.6312182928
 20
38.7190058741
 10
41.6234725672
 20
38.6772087036
 10
41.6260932503
 20
38.6404579815
 10
41.6388238432
 20
38.6123499328
 10
41.6604181521
 20
38.5956359926
 10
41.6887624047
 20
38.5919529418
 10
41.7210820663
 20
38.6016598163
 10
41.7542134636
 20
38.6238085738
 10
41.7849134123
 20
38.6562297459
 10
41.8101768938
 20
38.6957495027
 10
41.8275308433
 20
38.7385005822
 10
41.8352765871
 20
38.7802965794
 10
41.8326558674
 20
38.8170473015
 10
41.8199253111
 20
38.8451565234
 10
41.7983309839
 20
38.8618692904
 10
41.7699867314
 20
38.8655535145
 10
41.7376670881
 20
38.8558454666
 10
41.7045356908
 20
38.8336978825
 10
41.6738357054
 20
38.8012767103
 10
41.6485722606
 20
38.7617557802
  0
LWPOLYLINE
  5
24C
330
1F
100
AcDbEntity
  8
0
  6
Continuous
 62
     7
370
    25
100
AcDbPolyline
 90
        9
 70
   128
 43
0.0
 10
41.620374893
 20
38.7227123912
 10
41.6373340021
 20
38.7650340357
 10
41.6618430023
 20
38.8044951265
 10
41.6917241938
 20
38.8375886109
 10
41.7243225189
 20
38.8613741494
 10
41.7567414177
 20
38.8737385932
 10
41.7861003352
 20
38.8735825417
 10
41.8097906516
 20
38.8609200747
 10
41.8253449852
 20
38.8377786887
  0
LWPOLYLINE
  5
24D
330
1F
100
AcDbEntity
  8
0
  6
Continuous
 62
     7
370
    25
100
AcDbPolyline
 90
        7
 70
   128
 43
0.0
 10
41.6829826681
 20
38.5911128448
 10
41.6726313294
 20
38.5904170662
 10
41.6458070942
 20
38.5968984847
 10
41.6257799006
 20
38.6154580569
 10
41.6143292529
 20
38.6444472687
 10
41.6124726027
 20
38.6812895098
 10
41.620374893
 20
38.7227123912
  0
ARC
  5
24E
330
1F
100
AcDbEntity
  8
0
  6
Continuous
 62
     7
370
    25
100
AcDbCircle
 10
41.6837246861
 20
38.7421498503
 30
0.0
 40
0.0978832314861054
100
AcDbArc
 50
282.545860803
 51
329.6885381314
  0
ARC
  5
24F
330
1F
100
AcDbEntity
  8
0
  6
Continuous
 62
     7
370
    25
100
AcDbCircle
 10
41.6655267718
 20
38.7679310859
 30
0.0
 40
0.1272782762681621
100
AcDbArc
 50
323.7934930912
 51
3.1368076917
  0
ARC
  5
250
330
1F
100
AcDbEntity
  8
0
  6
Continuous
 62
     7
370
    25
100
AcDbCircle
 10
41.7568032394
 20
38.7752182415
 30
0.0
 40
0.0358125622858019
100
AcDbArc
 50
359.4841070418
 51
94.8712015984
  0
ARC
  5
251
330
1F
100
AcDbEntity
  8
0
  6
Continuous
 62
     7
370
    25
100
AcDbCircle
 10
41.7750240812
 20
38.7153546732
 30
0.0
 40
0.0978838886734071
100
AcDbArc
 50
102.5455431308
 51
149.6874525778
  0
ARC
  5
252
330
1F
100
AcDbEntity
  8
0
  6
Continuous
 62
     7
370
    25
100
AcDbCircle
 10
41.7932233468
 20
38.6895749792
 30
0.0
 40
0.1272793001334828
100
AcDbArc
 50
143.7936122698
 51
183.1371350522
  0
ARC
  5
253
330
1F
100
AcDbEntity
  8
0
  6
Continuous
 62
     7
370
    25
100
AcDbCircle
 10
41.7019464298
 20
38.6822876152
 30
0.0
 40
0.0358130901998852
100
AcDbArc
 50
179.4850325106
 51
274.8703030875
  0
LINE
  5
254
330
1F
100
AcDbEntity
  8
0
  6
Continuous
 62
     7
370
    25
100
AcDbLine
 10
41.7537621755
 20
38.8109014525
 30
0.0
 11
41.7218535424
 21
38.7973367025
 31
0.0
  0
LINE
  5
255
330
1F
100
AcDbEntity
  8
0
  6
Continuous
 62
     7
370
    25
100
AcDbLine
 10
41.6656875129
 20
38.6965051207
 30
0.0
 11
41.6661347861
 21
38.6826094945
 31
0.0
  0
SPLINE
  5
256
330
1F
100
AcDbEntity
  8
0
  6
Continuous
 62
     7
370
    25
100
AcDbSpline
210
0.0
220
0.0
230
1.0
 70
     8
 71
     3
 72
    10
 73
     6
 74
     0
 42
0.00000001
 43
0.00000001
 40
0.0
 40
0.0
 40
0.0
 40
0.0
 40
0.2606538379247769
 40
0.6304751891415022
 40
1.0
 40
1.0
 40
1.0
 40
1.0
 10
41.66613478607502
 20
38.68260949452015
 30
0.0
 10
41.66886605896742
 20
38.67885651568586
 30
0.0
 10
41.67547252142023
 20
38.66977872861303
 30
0.0
 10
41.689581647171
 20
38.65877529375931
 30
0.0
 10
41.699853241595
 20
38.65065989990704
 30
0.0
 10
41.70498697891784
 20
38.64660383046066
 30
0.0
  0
SPLINE
  5
257
330
1F
100
AcDbEntity
  8
0
  6
Continuous
 62
     7
370
    25
100
AcDbSpline
210
0.0
220
0.0
230
1.0
 70
     8
 71
     3
 72
    10
 73
     6
 74
     0
 42
0.00000001
 43
0.00000001
 40
0.0
 40
0.0
 40
0.0
 40
0.0
 40
0.6137308207216887
 40
0.8865025364517553
 40
1.0
 40
1.0
 40
1.0
 40
1.0
 10
41.7926143499723
 20
38.77489578842101
 30
0.0
 10
41.78411198401596
 20
38.78163899717628
 30
0.0
 10
41.77183075463714
 20
38.79137921465199
 30
0.0
 10
41.75825972644709
 20
38.80321600089233
 30
0.0
 10
41.75478357342153
 20
38.80915607936687
 30
0.0
 10
41.7537621754626
 20
38.81090145248051
 30
0.0
  0
LINE
  5
258
330
1F
100
AcDbEntity
  8
0
  6
Continuous
 62
     7
370
    25
100
AcDbLine
 10
41.7705582481
 20
38.787626308
 30
0.0
 11
41.79261435
 21
38.7748957884
 31
0.0
  0
LINE
  5
259
330
1F
100
AcDbEntity
  8
0
  6
Continuous
 62
     7
370
    25
100
AcDbLine
 10
41.7461706498
 20
38.705477497
 30
0.0
 11
41.7682267517
 21
38.6927481507
 31
0.0
  0
SPLINE
  5
25A
330
1F
100
AcDbEntity
  8
0
  6
Continuous
 62
     7
370
    25
100
AcDbSpline
210
0.0
220
0.0
230
1.0
 70
     8
 71
     3
 72
    10
 73
     6
 74
     0
 42
0.00000001
 43
0.00000001
 40
0.0
 40
0.0
 40
0.0
 40
0.0
 40
0.3916304029790853
 40
0.7196733304273072
 40
1.0
 40
1.0
 40
1.0
 40
1.0
 10
41.70498697891784
 20
38.64660383046066
 30
0.0
 10
41.71071360627808
 20
38.65564996677567
 30
0.0
 10
41.72123705122287
 20
38.67227345412445
 30
0.0
 10
41.7455600381653
 20
38.68544237869513
 30
0.0
 10
41.76107685746252
 20
38.69044364825862
 30
0.0
 10
41.76822675169993
 20
38.69274815073086
 30
0.0
  0
LINE
  5
25B
330
1F
100
AcDbEntity
  8
0
  6
Continuous
 62
     7
370
    25
100
AcDbLine
 10
41.7032990301
 20
38.780937212
 30
0.0
 11
41.6938904904
 21
38.7492446714
 31
0.0
  0
SPLINE
  5
25C
330
1F
100
AcDbEntity
  8
0
  6
Continuous
 62
     7
370
    25
100
AcDbSpline
210
0.0
220
0.0
230
1.0
 70
     8
 71
     3
 72
    11
 73
     7
 74
     0
 42
0.00000001
 43
0.00000001
 40
0.0
 40
0.0
 40
0.0
 40
0.0
 40
0.1864839702690528
 40
0.5177783205077812
 40
0.8352856134410456
 40
1.0
 40
1.0
 40
1.0
 40
1.0
 10
41.76822675169993
 20
38.69274815073086
 30
0.0
 10
41.76793635539475
 20
38.6982229194903
 30
0.0
 10
41.76713006136874
 20
38.71342377868124
 30
0.0
 10
41.77008286913492
 20
38.73813347584002
 30
0.0
 10
41.78046523296701
 20
38.76023714648748
 30
0.0
 10
41.78952110094853
 20
38.77116359703368
 30
0.0
 10
41.7926143499723
 20
38.77489578842101
 30
0.0
  0
LWPOLYLINE
  5
25D
330
1F
100
AcDbEntity
  8
0
  6
Continuous
 62
     7
370
    25
100
AcDbPolyline
 90
       14
 70
   128
 43
0.0
 10
41.0230906662
 20
38.5808709365
 10
40.9997070264
 20
38.6081259816
 10
40.9744015254
 20
38.6561957197
 10
40.9589039511
 20
38.714048598
 10
40.9536852447
 20
38.7799269836
 10
40.9589039511
 20
38.851829193
 10
40.9744015254
 20
38.9275705047
 10
40.9997070264
 20
39.0048488653
 10
41.0340515996
 20
39.0813188086
 10
41.0763917238
 20
39.1546536414
 10
41.1254408906
 20
39.2226264029
 10
41.1797087453
 20
39.2831720501
 10
41.2375464255
 20
39.334451991
 10
41.2971965272
 20
39.3749057104
  0
LWPOLYLINE
  5
25E
330
1F
100
AcDbEntity
  8
0
  6
Continuous
 62
     7
370
    25
100
AcDbPolyline
 90
        9
 70
   128
 43
0.0
 10
41.2971965272
 20
39.3749057104
 10
41.3591776029
 20
39.3466028907
 10
41.4213233214
 20
39.3053935534
 10
41.48166375
 20
39.2525836035
 10
41.5382861688
 20
39.1898450216
 10
41.5893957126
 20
39.1191689313
 10
41.6333722879
 20
39.0427952003
 10
41.66882189
 20
38.9631432138
 10
41.6946208087
 20
38.8827403026
  0
LWPOLYLINE
  5
25F
330
1F
100
AcDbEntity
  8
0
  6
Continuous
 62
     7
370
    25
100
AcDbPolyline
 90
       10
 70
   128
 43
0.0
 10
41.6946208087
 20
38.8827403026
 10
41.658785496
 20
38.8555028572
 10
41.6264580061
 20
38.8178216925
 10
41.6008027458
 20
38.7733857259
 10
41.5843310594
 20
38.7265444536
 10
41.5786553083
 20
38.6818820363
 10
41.5843310594
 20
38.6437714365
 10
41.6008027458
 20
38.615942638
 10
41.6264580061
 20
38.6011200892
 10
41.6419465605
 20
38.599093766
  0
LINE
  5
260
330
1F
100
AcDbEntity
  8
0
  6
Continuous
 62
     7
370
    25
100
AcDbLine
 10
41.6970654021
 20
39.6056883244
 30
0.0
 11
41.2971965272
 21
39.3749057104
 31
0.0
  0
ARC
  5
261
330
1F
100
AcDbEntity
  8
0
  6
Continuous
 62
     7
370
    25
100
AcDbCircle
 10
41.6164914795
 20
39.4283686472
 30
0.0
 40
0.1947676177550307
100
AcDbArc
 50
65.5629896473
 51
167.2711090926
  0
SPLINE
  5
262
330
1F
100
AcDbEntity
  8
0
  6
Continuous
 62
     7
370
    25
100
AcDbSpline
210
0.0
220
0.0
230
1.0
 70
     8
 71
     3
 72
    11
 73
     7
 74
     0
 42
0.00000001
 43
0.00000001
 40
0.0
 40
0.0
 40
0.0
 40
0.0
 40
0.2669410108662092
 40
0.5148852219384632
 40
0.7654684260343556
 40
1.0
 40
1.0
 40
1.0
 40
1.0
 10
41.69462080866872
 20
38.88274030259198
 30
0.0
 10
41.70746645956982
 20
38.8884226251448
 30
0.0
 10
41.73224360338034
 20
38.89938288898451
 30
0.0
 10
41.77306674932451
 20
38.89430782379785
 30
0.0
 10
41.8073193692947
 20
38.8738468701496
 30
0.0
 10
41.81813976464664
 20
38.85067852670795
 30
0.0
 10
41.8233709480028
 20
38.83947765569911
 30
0.0
  0
LWPOLYLINE
  5
263
330
1F
100
AcDbEntity
  8
0
  6
Continuous
 62
     7
370
    25
100
AcDbPolyline
 90
       21
 70
   128
 43
0.0
 10
42.2695216874
 20
40.0333410908
 10
42.2747647401
 20
40.0362415372
 10
42.3209545265
 20
40.052656281
 10
42.3727829211
 20
40.0561832802
 10
42.4287589278
 20
40.0467169362
 10
42.4872721652
 20
40.0245341525
 10
42.5466392861
 20
39.9902708683
 10
42.6051525235
 20
39.9449126723
 10
42.6611284568
 20
39.889764296
 10
42.7129569248
 20
39.8264144145
 10
42.7591467112
 20
39.7566828467
 10
42.7983690314
 20
39.6825771428
 10
42.8294957385
 20
39.6062292248
 10
42.8516311495
 20
39.529834374
 10
42.8641385916
 20
39.4555913916
 10
42.8666581492
 20
39.3856357198
 10
42.8591175163
 20
39.3219796018
 10
42.8417334638
 20
39.2664545899
 10
42.8150061192
 20
39.2206575723
 10
42.779704447
 20
39.1859073604
 10
42.7643898373
 20
39.175900116
  0
LINE
  5
264
330
1F
100
AcDbEntity
  8
0
  6
Continuous
 62
     7
370
    25
100
AcDbLine
 10
42.4204575437
 20
40.049478931
 30
0.0
 11
42.4531137465
 21
40.047226157
 31
0.0
  0
LINE
  5
265
330
1F
100
AcDbEntity
  8
0
  6
Continuous
 62
     7
370
    25
100
AcDbLine
 10
42.8682572374
 20
39.3279212932
 30
0.0
 11
42.8538701369
 21
39.2985190728
 31
0.0
  0
LWPOLYLINE
  5
266
330
1F
100
AcDbEntity
  8
0
  6
Continuous
 62
     7
370
    25
100
AcDbPolyline
 90
       30
 70
   128
 43
0.0
 10
40.9726493189
 20
36.3711707031
 10
40.9712358719
 20
36.3720014135
 10
40.9594467581
 20
36.3788395212
 10
40.9358437808
 20
36.3924969634
 10
40.9007238632
 20
36.4128024355
 10
40.8545285402
 20
36.4395013271
 10
40.7978388617
 20
36.4722568954
 10
40.7313676563
 20
36.5106584784
 10
40.6559508408
 20
36.5542226685
 10
40.5725368244
 20
36.6024003519
 10
40.4821746283
 20
36.6545884424
 10
40.3860006126
 20
36.7101275341
 10
40.2852241768
 20
36.7683206752
 10
40.1811126528
 20
36.8284368874
 10
40.074975319
 20
36.8897193795
 10
39.9681468997
 20
36.951396107
 10
39.8619708463
 20
37.0126938522
 10
39.7577823965
 20
37.0728405707
 10
39.6568917087
 20
37.1310794713
 10
39.5605675814
 20
37.1866784023
 10
39.4700213208
 20
37.2389392386
 10
39.3863917802
 20
37.2872037477
 10
39.3107304009
 20
37.33086415
 10
39.2439887452
 20
37.3693736785
 10
39.1870061768
 20
37.4022465787
 10
39.1404993008
 20
37.4290686689
 10
39.1050528702
 20
37.4495055528
 10
39.0811126001
 20
37.4632967535
 10
39.0689797403
 20
37.4702709662
 10
39.067393412
 20
37.4711709025
  0
LWPOLYLINE
  5
267
330
1F
100
AcDbEntity
  8
0
  6
Continuous
 62
     7
370
    25
100
AcDbPolyline
 90
       30
 70
   128
 43
0.0
 10
39.0637332409
 20
37.4848306914
 10
39.0653339424
 20
37.4839225419
 10
39.0775770943
 20
37.4768849698
 10
39.1017348686
 20
37.4629682239
 10
39.137503522
 20
37.4423471288
 10
39.1844332332
 20
37.4152798148
 10
39.2419338223
 20
37.3821088913
 10
39.309282231
 20
37.3432497136
 10
39.385631469
 20
37.2991915559
 10
39.4700213208
 20
37.2504882252
 10
39.5613906653
 20
37.1977521944
 10
39.6585905291
 20
37.1416475625
 10
39.760398313
 20
37.0828794947
 10
39.8655340718
 20
37.0221860092
 10
39.9726753274
 20
36.9603309371
 10
40.0804749621
 20
36.8980933627
 10
40.1875771315
 20
36.8362547171
 10
40.2926350845
 20
36.7755917379
 10
40.3943276631
 20
36.7168694296
 10
40.491376022
 20
36.660824637
 10
40.5825596886
 20
36.6081636987
 10
40.6667319629
 20
36.5595471937
 10
40.7428344371
 20
36.5155864215
 10
40.8099099023
 20
36.4768363625
 10
40.8671149614
 20
36.443782771
 10
40.9137302229
 20
36.4168410022
 10
40.9491694669
 20
36.3963501456
 10
40.9729869784
 20
36.3825695048
 10
40.9848833043
 20
36.3756692112
 10
40.9863095845
 20
36.3748314608
  0
ARC
  5
268
330
1F
100
AcDbEntity
  8
0
  6
Continuous
 62
     7
370
    25
100
AcDbCircle
 10
-129.7713631369
 20
-255.7002886437
 30
0.0
 40
340.1685190475951
100
AcDbArc
 50
59.9845124989
 51
60.063512504
  0
LWPOLYLINE
  5
269
330
1F
100
AcDbEntity
  8
0
  6
Continuous
 62
     7
370
    25
100
AcDbPolyline
 90
       21
 70
   128
 43
0.0
 10
41.9088095643
 20
37.9726477761
 10
41.9073832842
 20
37.9734866997
 10
41.8954869949
 20
37.98038582
 10
41.8716694467
 20
37.9941676341
 10
41.8362302395
 20
38.0146573174
 10
41.789614978
 20
38.0415990862
 10
41.7324099188
 20
38.0746526777
 10
41.665334417
 20
38.11340391
 10
41.5892319978
 20
38.1573635089
 10
41.505059696
 20
38.2059800139
 10
41.4138760335
 20
38.2586421256
 10
41.3168276888
 20
38.3146857448
 10
41.2151351011
 20
38.3734092264
 10
41.1100771114
 20
38.4340710323
 10
41.0029749053
 20
38.495909678
 10
40.8951753073
 20
38.5581484256
 10
40.788034015
 20
38.6200023244
 10
40.6828984028
 20
38.68069581
 10
40.5810905456
 20
38.7394650511
 10
40.4838907551
 20
38.7955696829
 10
40.3925214106
 20
38.8483045404
  0
LWPOLYLINE
  5
26A
330
1F
100
AcDbEntity
  8
0
  6
Continuous
 62
     7
370
    25
100
AcDbPolyline
 90
       21
 70
   128
 43
0.0
 10
40.4225213641
 20
38.8656192204
 10
40.5130936578
 20
38.8133431309
 10
40.6095249238
 20
38.7576820139
 10
40.7105580233
 20
38.699360981
 10
40.8148759049
 20
38.63913917
 10
40.9211185076
 20
38.5778038786
 10
41.0279009107
 20
38.5161517908
 10
41.133830952
 20
38.4549901507
 10
41.2375277257
 20
38.3951132957
 10
41.337639375
 20
38.3373026569
 10
41.4328607822
 20
38.2823126788
 10
41.5219505967
 20
38.2308590865
 10
41.6037473934
 20
38.1836141923
 10
41.6771848368
 20
38.1411928157
 10
41.7413055527
 20
38.1041475903
 10
41.7952736059
 20
38.0729619239
 10
41.8383854812
 20
38.0480429584
 10
41.8700791218
 20
38.0297157035
 10
41.8899413356
 20
38.0182171696
 10
41.8977132225
 20
38.0136998885
 10
41.8978288312
 20
38.013628316
  0
ARC
  5
26B
330
1F
100
AcDbEntity
  8
0
  6
Continuous
 62
     7
370
    25
100
AcDbCircle
 10
-137.7869847069
 20
-269.6460368616
 30
0.0
 40
356.2836931330203
100
AcDbArc
 50
59.987435293
 51
60.0608233562
  0
LINE
  5
26C
330
1F
100
AcDbEntity
  8
0
  6
Continuous
 62
     7
370
    25
100
AcDbLine
 10
41.0542973791
 20
39.1185200855
 30
0.0
 11
40.7917973648
 21
38.6638563245
 31
0.0
  0
LWPOLYLINE
  5
26D
330
1F
100
AcDbEntity
  8
0
  6
Continuous
 62
     7
370
    25
100
AcDbPolyline
 90
       13
 70
   128
 43
0.0
 10
40.7917973648
 20
38.6638563245
 10
40.8614002708
 20
38.6236783353
 10
40.9341425404
 20
38.5816840471
 10
41.0078722687
 20
38.5391160055
 10
41.0804082908
 20
38.4972331827
 10
41.1496048064
 20
38.4572757776
 10
41.2134147026
 20
38.42042415
 10
41.2699503553
 20
38.3877694872
 10
41.3175392339
 20
38.3602774315
 10
41.3547735334
 20
38.3387622667
 10
41.3805517402
 20
38.3238587588
 10
41.3941112606
 20
38.3160092495
 10
41.396203952
 20
38.3147889969
  0
LINE
  5
26E
330
1F
100
AcDbEntity
  8
0
  6
Continuous
 62
     7
370
    25
100
AcDbLine
 10
41.2776700112
 20
38.3833096987
 30
0.0
 11
41.3144070476
 21
38.446941177
 31
0.0
  0
ARC
  5
26F
330
1F
100
AcDbEntity
  8
0
  6
Continuous
 62
     7
370
    25
100
AcDbCircle
 10
41.5997578899
 20
38.8387786089
 30
0.0
 40
0.6130109808464123
100
AcDbArc
 50
111.0590777121
 51
152.8488098254
  0
SPLINE
  5
270
330
1F
100
AcDbEntity
  8
0
  6
Continuous
 62
     7
370
    25
100
AcDbSpline
210
0.0
220
0.0
230
1.0
 70
     8
 71
     3
 72
    17
 73
    13
 74
     0
 42
0.00000001
 43
0.00000001
 40
0.0
 40
0.0
 40
0.0
 40
0.0
 40
0.0259553662082263
 40
0.134936118566947
 40
0.2547708118363947
 40
0.3874478660024565
 40
0.4855964967120417
 40
0.5823378910211858
 40
0.6868649125987568
 40
0.7876249137544492
 40
0.9189796762394178
 40
0.9999999999999999
 40
0.9999999999999999
 40
0.9999999999999999
 40
0.9999999999999999
 10
42.07501401433395
 20
40.16592622578536
 30
0.0
 10
42.07522687890729
 20
40.17456237728692
 30
0.0
 10
42.07633351400836
 20
40.21945978900619
 30
0.0
 10
42.09501110272454
 20
40.30319262520355
 30
0.0
 10
42.14280500506576
 20
40.41404597417582
 30
0.0
 10
42.20696747027748
 20
40.51220359201795
 30
0.0
 10
42.27822560363971
 20
40.59490744230969
 30
0.0
 10
42.35080482087043
 20
40.66333947726851
 30
0.0
 10
42.43027409247533
 20
40.72523439647752
 30
0.0
 10
42.52493557158211
 20
40.78482301941007
 30
0.0
 10
42.61744841940938
 20
40.83516565486793
 30
0.0
 10
42.68652402124264
 20
40.85105362493064
 30
0.0
 10
42.71287611236323
 20
40.85711482778232
 30
0.0
  0
SPLINE
  5
271
330
1F
100
AcDbEntity
  8
0
  6
Continuous
 62
     7
370
    25
100
AcDbSpline
210
0.0
220
0.0
230
1.0
 70
     8
 71
     3
 72
    19
 73
    15
 74
     0
 42
0.00000001
 43
0.00000001
 40
0.0
 40
0.0
 40
0.0
 40
0.0
 40
0.0304841712061846
 40
0.1184585372911863
 40
0.2137459688238549
 40
0.3552105718567202
 40
0.5126778006787871
 40
0.5900273758051273
 40
0.671110371612868
 40
0.7515965739074535
 40
0.8342401701780973
 40
0.9013575119895738
 40
0.9669246310747834
 40
1.0
 40
1.0
 40
1.0
 40
1.0
 10
43.20391293319731
 20
40.85951074677113
 30
0.0
 10
43.21391190424752
 20
40.85762722986482
 30
0.0
 10
43.25276693747158
 20
40.85030806556234
 30
0.0
 10
43.3189134923607
 20
40.8221994646963
 30
0.0
 10
43.41525530391846
 20
40.77303782039185
 30
0.0
 10
43.52485557637906
 20
40.69966760069455
 30
0.0
 10
43.61945453616083
 20
40.61653286497806
 30
0.0
 10
43.68934209838763
 20
40.53759174510771
 30
0.0
 10
43.73668066327872
 20
40.47338032751215
 30
0.0
 10
43.77831204285114
 20
40.40325995936985
 30
0.0
 10
43.81005025945703
 20
40.33312656224903
 30
0.0
 10
43.83142310884698
 20
40.26448380758186
 30
0.0
 10
43.84146352004733
 20
40.20984532379134
 30
0.0
 10
43.84245017532823
 20
40.17695464974553
 30
0.0
 10
43.84278100627215
 20
40.16592622578536
 30
0.0
  0
SPLINE
  5
272
330
1F
100
AcDbEntity
  8
0
  6
Continuous
 62
     7
370
    25
100
AcDbSpline
210
0.0
220
0.0
230
1.0
 70
     8
 71
     3
 72
    24
 73
    20
 74
     0
 42
0.00000001
 43
0.00000001
 40
0.0
 40
0.0
 40
0.0
 40
0.0
 40
0.0181644459202455
 40
0.0802924142975987
 40
0.1338204558666798
 40
0.1904091592711502
 40
0.2371800959022956
 40
0.289645569719767
 40
0.3541035171125443
 40
0.4239195796569462
 40
0.5275692942956643
 40
0.6429451156612959
 40
0.6996171669588345
 40
0.7590258119123268
 40
0.8179973104964777
 40
0.8785494556022014
 40
0.9277264889184375
 40
0.9757668681876315
 40
1.0
 40
1.0
 40
1.0
 40
1.0
 10
43.84278100627215
 20
40.16592622578536
 30
0.0
 10
43.8425875067006
 20
40.17418269659985
 30
0.0
 10
43.84173217933011
 20
40.21067882635703
 30
0.0
 10
43.82782648237831
 20
40.27171428029261
 30
0.0
 10
43.77684250809681
 20
40.33558218322414
 30
0.0
 10
43.70660278513959
 20
40.36070668620997
 30
0.0
 10
43.63516145595545
 20
40.35975450386664
 30
0.0
 10
43.56205771485607
 20
40.34355766969805
 30
0.0
 10
43.48263304508577
 20
40.31270700482533
 30
0.0
 10
43.38647978644688
 20
40.26263608764108
 30
0.0
 10
43.27680161691396
 20
40.18963649838767
 30
0.0
 10
43.18222849556344
 20
40.10638885680955
 30
0.0
 10
43.1123349245534
 20
40.02746529779812
 30
0.0
 10
43.06499815725308
 20
39.9632505224005
 30
0.0
 10
43.02336625405952
 20
39.89313128359954
 30
0.0
 10
42.99162783664619
 20
39.82299727636131
 30
0.0
 10
42.97025547931026
 20
39.75435404118101
 30
0.0
 10
42.96021483242782
 20
39.69971561263153
 30
0.0
 10
42.95922829417172
 20
39.66682532523517
 30
0.0
 10
42.95889751030305
 20
39.65579729217167
 30
0.0
  0
SPLINE
  5
273
330
1F
100
AcDbEntity
  8
0
  6
Continuous
 62
     7
370
    25
100
AcDbSpline
210
0.0
220
0.0
230
1.0
 70
     8
 71
     3
 72
    24
 73
    20
 74
     0
 42
0.00000001
 43
0.00000001
 40
0.0
 40
0.0
 40
0.0
 40
0.0
 40
0.0189676444465911
 40
0.0986085143926727
 40
0.1861812188853612
 40
0.2831388831074389
 40
0.354863828580312
 40
0.4255604689053036
 40
0.501946602535772
 40
0.5755799635089717
 40
0.6715712952757963
 40
0.7608254121912825
 40
0.7983469832155278
 40
0.8342522119655211
 40
0.8682997521111033
 40
0.9046818888448247
 40
0.9381836099117532
 40
0.9770912908939499
 40
1.0
 40
1.0
 40
1.0
 40
1.0
 10
42.95889751030305
 20
39.65579729217168
 30
0.0
 10
42.9586846183103
 20
39.664433441625
 30
0.0
 10
42.95757784075602
 20
39.7093308388776
 30
0.0
 10
42.93890044155393
 20
39.7930639607014
 30
0.0
 10
42.89110621190019
 20
39.90391593618361
 30
0.0
 10
42.82694477480226
 20
40.00207878760951
 30
0.0
 10
42.75568350810908
 20
40.08476748993453
 30
0.0
 10
42.68311556098028
 20
40.15325294518374
 30
0.0
 10
42.60360123072898
 20
40.21493523138277
 30
0.0
 10
42.50912140852891
 20
40.27538050511057
 30
0.0
 10
42.40360720599413
 20
40.32830578192424
 30
0.0
 10
42.30523758140459
 20
40.35800446107065
 30
0.0
 10
42.23078856047736
 20
40.36069239353087
 30
0.0
 10
42.18217638190099
 20
40.35137593911707
 30
0.0
 10
42.13861258597178
 20
40.32844034348059
 30
0.0
 10
42.1059932470765
 20
40.2927975788798
 30
0.0
 10
42.08491547798583
 20
40.24743910508316
 30
0.0
 10
42.07609354074329
 20
40.20450194181623
 30
0.0
 10
42.07530590607228
 20
40.1763566633477
 30
0.0
 10
42.07501401433395
 20
40.16592622578536
 30
0.0
  0
LWPOLYLINE
  5
274
330
1F
100
AcDbEntity
  8
0
  6
Continuous
 62
     7
370
    25
100
AcDbPolyline
 90
       34
 70
   128
 43
0.0
 10
43.1740670513
 20
40.7577276026
 10
43.2303440145
 20
40.7309102057
 10
43.2768102644
 20
40.6984303676
 10
43.3117863404
 20
40.661461408
 10
43.3340079903
 20
40.6213409115
 10
43.3426722236
 20
40.5795191013
 10
43.3374657637
 20
40.5375072133
 10
43.3185769286
 20
40.4968211766
 10
43.2866884436
 20
40.4589346809
 10
43.2429525089
 20
40.4252134705
 10
43.1889503194
 20
40.3968824911
 10
43.1266332526
 20
40.3749601843
 10
43.0582537892
 20
40.3602397144
 10
42.9862833806
 20
40.3532537684
 10
42.9133231301
 20
40.3542581302
 10
42.8420100739
 20
40.3632105601
 10
42.7749217023
 20
40.3797919152
 10
42.7144826805
 20
40.4033991091
 10
42.66287729
 20
40.4331850051
 10
42.6219710358
 20
40.4680654554
 10
42.5932420811
 20
40.5067850082
 10
42.5777288869
 20
40.5479427194
 10
42.5759920803
 20
40.5900531662
 10
42.5880945072
 20
40.6315886864
 10
42.6135987392
 20
40.6710544705
 10
42.6515829138
 20
40.707021415
 10
42.70067432
 20
40.738187135
 10
42.7590984584
 20
40.7634299367
 10
42.8247439401
 20
40.7818346308
 10
42.895238019
 20
40.7927347715
 10
42.9680329781
 20
40.7957408168
 10
43.0404977943
 20
40.7907401279
 10
43.1100133246
 20
40.7779157427
 10
43.1740670513
 20
40.7577276026
  0
LINE
  5
275
330
1F
100
AcDbEntity
  8
0
  6
Continuous
 62
     7
370
    25
100
AcDbLine
 10
42.0750140143
 20
38.5326428003
 30
0.0
 11
42.9588975103
 21
38.0225138667
 31
0.0
  0
LINE
  5
276
330
1F
100
AcDbEntity
  8
0
  6
Continuous
 62
     7
370
    25
100
AcDbLine
 10
42.0750140143
 20
40.1659262258
 30
0.0
 11
42.0750140143
 21
39.9210825476
 31
0.0
  0
LINE
  5
277
330
1F
100
AcDbEntity
  8
0
  6
Continuous
 62
     7
370
    25
100
AcDbLine
 10
42.0750140143
 20
38.7780308989
 30
0.0
 11
42.0750140143
 21
38.5326428003
 31
0.0
  0
LINE
  5
278
330
1F
100
AcDbEntity
  8
0
  6
Continuous
 62
     7
370
    25
100
AcDbLine
 10
42.9588975103
 20
39.6557972922
 30
0.0
 11
42.9588975103
 21
38.0225138667
 31
0.0
  0
LWPOLYLINE
  5
279
330
1F
100
AcDbEntity
  8
0
  6
Continuous
 62
     7
370
    25
100
AcDbPolyline
 90
       17
 70
   128
 43
0.0
 10
42.8740446372
 20
39.3985281575
 10
42.8689082832
 20
39.4711895048
 10
42.8536467662
 20
39.5476899544
 10
42.8286993477
 20
39.6258271851
 10
42.7947836595
 20
39.7033542895
 10
42.752875317
 20
39.7780407867
 10
42.7041800528
 20
39.8477383282
 10
42.6500986642
 20
39.9104428838
 10
42.5921869732
 20
39.9643498877
 10
42.5321110206
 20
40.0079058646
 10
42.4715990329
 20
40.0398624021
 10
42.4123919236
 20
40.0592972709
 10
42.3561929861
 20
40.0656496242
 10
42.3046188353
 20
40.0587411173
 10
42.2591532071
 20
40.0387688681
 10
42.2211041334
 20
40.0063054564
 10
42.2195083451
 20
40.0044774242
  0
LWPOLYLINE
  5
27A
330
1F
100
AcDbEntity
  8
0
  6
Continuous
 62
     7
370
    25
100
AcDbPolyline
 90
        7
 70
   128
 43
0.0
 10
42.714376495
 20
39.1470352761
 10
42.752875317
 20
39.1588811126
 10
42.7947836595
 20
39.1851928086
 10
42.8286993477
 20
39.2235720986
 10
42.8536467662
 20
39.272912542
 10
42.8689082832
 20
39.3317967684
 10
42.8740446372
 20
39.3985281575
  0
LINE
  5
27B
330
1F
100
AcDbEntity
  8
0
  6
Continuous
 62
     7
370
    25
100
AcDbLine
 10
42.9588975103
 20
38.0225138667
 30
0.0
 11
43.8427810063
 21
38.5326428003
 31
0.0
  0
LINE
  5
27C
330
1F
100
AcDbEntity
  8
0
  6
Continuous
 62
     7
370
    25
100
AcDbLine
 10
43.8427810063
 20
40.1659262258
 30
0.0
 11
43.8427810063
 21
38.5326428003
 31
0.0
  0
LWPOLYLINE
  5
27D
330
1F
100
AcDbEntity
  8
0
  6
Continuous
 62
     7
370
    25
100
AcDbPolyline
 90
        3
 70
   128
 43
0.0
 10
42.2904865652
 20
40.0541815967
 10
42.2706015816
 20
40.0348734464
 10
42.2690057933
 20
40.0330430675
  0
LINE
  5
27E
330
1F
100
AcDbEntity
  8
0
  6
Continuous
 62
     7
370
    25
100
AcDbLine
 10
42.7638738699
 20
39.1756020928
 30
0.0
 11
42.7929223343
 21
39.1836276
 31
0.0
  0
LWPOLYLINE
  5
27F
330
1F
100
AcDbEntity
  8
0
  6
Continuous
 62
     7
370
    25
100
AcDbPolyline
 90
       17
 70
   128
 43
0.0
 10
40.351458225
 20
36.5020181516
 10
40.3383271634
 20
36.5206891892
 10
40.3189431873
 20
36.5320527913
 10
40.2962573427
 20
36.5343783111
 10
40.2737233697
 20
36.527311406
 10
40.2547718353
 20
36.5119303571
 10
40.2422880061
 20
36.4905735904
 10
40.2381722937
 20
36.4664947219
 10
40.2430513973
 20
36.4433580292
 10
40.256182459
 20
36.4246869916
 10
40.2755663617
 20
36.4133233895
 10
40.2982522063
 20
36.4109978697
 10
40.3207861793
 20
36.4180647747
 10
40.3397377137
 20
36.4334458237
 10
40.3522216162
 20
36.4548025903
 10
40.3563372553
 20
36.4788814588
 10
40.351458225
 20
36.5020181516
  0
LINE
  5
280
330
1F
100
AcDbEntity
  8
0
  6
Continuous
 62
     7
370
    25
100
AcDbLine
 10
40.2565348216
 20
36.4797802218
 30
0.0
 11
40.2680808748
 21
36.4385931776
 31
0.0
  0
LINE
  5
281
330
1F
100
AcDbEntity
  8
0
  6
Continuous
 62
     7
370
    25
100
AcDbLine
 10
40.3088008644
 20
36.4315016328
 30
0.0
 11
40.2680808748
 21
36.4385931776
 31
0.0
  0
LINE
  5
282
330
1F
100
AcDbEntity
  8
0
  6
Continuous
 62
     7
370
    25
100
AcDbLine
 10
40.3379747274
 20
36.465595959
 30
0.0
 11
40.3088008644
 21
36.4315016328
 31
0.0
  0
LINE
  5
283
330
1F
100
AcDbEntity
  8
0
  6
Continuous
 62
     7
370
    25
100
AcDbLine
 10
40.3379747274
 20
36.465595959
 30
0.0
 11
40.3264286741
 21
36.5067830032
 31
0.0
  0
LINE
  5
284
330
1F
100
AcDbEntity
  8
0
  6
Continuous
 62
     7
370
    25
100
AcDbLine
 10
40.2857086845
 20
36.5138745479
 30
0.0
 11
40.3264286741
 21
36.5067830032
 31
0.0
  0
LINE
  5
285
330
1F
100
AcDbEntity
  8
0
  6
Continuous
 62
     7
370
    25
100
AcDbLine
 10
40.2857086845
 20
36.5138745479
 30
0.0
 11
40.2565348216
 21
36.4797802218
 31
0.0
  0
LINE
  5
286
330
1F
100
AcDbEntity
  8
0
  6
Continuous
 62
     7
370
    25
100
AcDbLine
 10
40.2761873412
 20
36.4503099489
 30
0.0
 11
40.2642114862
 21
36.4523961115
 31
0.0
  0
LINE
  5
287
330
1F
100
AcDbEntity
  8
0
  6
Continuous
 62
     7
370
    25
100
AcDbLine
 10
40.2761873412
 20
36.4503099489
 30
0.0
 11
40.3088008644
 21
36.4315016328
 31
0.0
  0
LINE
  5
288
330
1F
100
AcDbEntity
  8
0
  6
Continuous
 62
     7
370
    25
100
AcDbLine
 10
40.3053612042
 20
36.4844054484
 30
0.0
 11
40.3379747274
 21
36.465595959
 31
0.0
  0
LINE
  5
289
330
1F
100
AcDbEntity
  8
0
  6
Continuous
 62
     7
370
    25
100
AcDbLine
 10
40.3053612042
 20
36.4844054484
 30
0.0
 11
40.2976846129
 21
36.5117895587
 31
0.0
  0
LINE
  5
28A
330
1F
100
AcDbEntity
  8
0
  6
Continuous
 62
     7
370
    25
100
AcDbLine
 10
40.3053612042
 20
36.4844054484
 30
0.0
 11
40.2761873412
 21
36.4503099489
 31
0.0
  0
LWPOLYLINE
  5
28B
330
1F
100
AcDbEntity
  8
0
  6
Continuous
 62
     7
370
    25
100
AcDbPolyline
 90
        3
 70
   128
 43
0.0
 10
38.9324598774
 20
37.2597187319
 10
38.9449783194
 20
37.2805557178
 10
38.952491966
 20
37.2921551572
  0
LWPOLYLINE
  5
28C
330
1F
100
AcDbEntity
  8
0
  6
Continuous
 62
     7
370
    25
100
AcDbPolyline
 90
        3
 70
   128
 43
0.0
 10
38.9149633328
 20
37.2271544147
 10
38.9207524926
 20
37.2385133235
 10
38.9324598774
 20
37.2597187319
  0
ARC
  5
28D
330
1F
100
AcDbEntity
  8
0
  6
Continuous
 62
     7
370
    25
100
AcDbCircle
 10
41.5170546998
 20
38.6693276012
 30
0.0
 40
0.1847779838239512
100
AcDbArc
 50
300.8493854403
 51
335.0313645263
  0
LWPOLYLINE
  5
28E
330
1F
100
AcDbEntity
  8
0
  6
Continuous
 62
     7
370
    25
100
AcDbPolyline
 90
        8
 70
   128
 43
0.0
 10
41.0542973791
 20
39.1185200855
 10
40.9913929558
 20
39.1548272928
 10
40.9352071081
 20
39.1872531582
 10
40.8873217647
 20
39.214884839
 10
40.8490850697
 20
39.2369432508
 10
40.8215736175
 20
39.2528077075
 10
40.8055619825
 20
39.2620311743
 10
40.8013388013
 20
39.264451733
  0
LINE
  5
28F
330
1F
100
AcDbEntity
  8
0
  6
Continuous
 62
     7
370
    25
100
AcDbLine
 10
42.2637350209
 20
27.5106652071
 30
0.0
 11
42.2672705267
 21
27.5127057568
 31
0.0
  0
LINE
  5
290
330
1F
100
AcDbEntity
  8
0
  6
Continuous
 62
     7
370
    25
100
AcDbLine
 10
42.0878183798
 20
27.8236365249
 30
0.0
 11
42.0842828739
 21
27.8215959752
 31
0.0
  0
LINE
  5
291
330
1F
100
AcDbEntity
  8
0
  6
Continuous
 62
     7
370
    25
100
AcDbLine
 10
42.3035037415
 20
27.5774199159
 30
0.0
 11
42.3082508466
 21
27.6188543839
 31
0.0
  0
LINE
  5
292
330
1F
100
AcDbEntity
  8
0
  6
Continuous
 62
     7
370
    25
100
AcDbLine
 10
42.1915415349
 20
27.8097923782
 30
0.0
 11
42.1619787897
 21
27.8226355365
 31
0.0
  0
LINE
  5
293
330
1F
100
AcDbEntity
  8
0
  6
Continuous
 62
     7
370
    25
100
AcDbLine
 10
41.8488974731
 20
28.4131161952
 30
0.0
 11
41.8488974731
 21
25.6692006798
 31
0.0
  0
LINE
  5
294
330
1F
100
AcDbEntity
  8
0
  6
Continuous
 62
     7
370
    25
100
AcDbLine
 10
44.0688974742
 20
25.8646414354
 30
0.0
 11
44.0688974742
 21
28.4131161952
 31
0.0
  0
LINE
  5
295
330
1F
100
AcDbEntity
  8
0
  6
Continuous
 62
     7
370
    25
100
AcDbLine
 10
44.1463975922
 20
23.4996508627
 30
0.0
 11
44.1463975922
 21
25.6143658733
 31
0.0
  0
LINE
  5
296
330
1F
100
AcDbEntity
  8
0
  6
Continuous
 62
     7
370
    25
100
AcDbLine
 10
41.7713974651
 20
25.6692006798
 30
0.0
 11
41.7713974651
 21
23.8284590642
 31
0.0
  0
SPLINE
  5
297
330
1F
100
AcDbEntity
  8
0
  6
Continuous
 62
     7
370
    25
100
AcDbSpline
210
0.0
220
0.0
230
1.0
 70
     8
 71
     3
 72
    16
 73
    12
 74
     0
 42
0.00000001
 43
0.00000001
 40
0.0
 40
0.0
 40
0.0
 40
0.0
 40
0.0651757123870301
 40
0.1784634773250217
 40
0.3059316514923134
 40
0.4453943664889608
 40
0.5883072959702951
 40
0.7319981436608335
 40
0.8624477733277383
 40
0.9805893440376273
 40
1.0
 40
1.0
 40
1.0
 40
1.0
 10
42.01261543850096
 20
25.49300999520962
 30
0.0
 10
42.01009272546663
 20
25.48643024099641
 30
0.0
 10
42.00318505811772
 20
25.46841362447122
 30
0.0
 10
42.00204521847914
 20
25.4348582470244
 30
0.0
 10
42.00819921910226
 20
25.39426481698824
 30
0.0
 10
42.02398849314949
 20
25.35265242435156
 30
0.0
 10
42.04807295159652
 20
25.31339195161892
 30
0.0
 10
42.07874078551631
 20
25.27986985778307
 30
0.0
 10
42.11390499063894
 20
25.25656284839847
 30
0.0
 10
42.1411331124256
 20
25.24430795275064
 30
0.0
 10
42.15595991968667
 20
25.2437284636955
 30
0.0
 10
42.15805220173639
 20
25.24364668920914
 30
0.0
  0
LINE
  5
298
330
1F
100
AcDbEntity
  8
0
  6
Continuous
 62
     7
370
    25
100
AcDbLine
 10
42.0935188806
 20
25.5598287966
 30
0.0
 11
42.0389664774
 21
25.5283439337
 31
0.0
  0
LINE
  5
299
330
1F
100
AcDbEntity
  8
0
  6
Continuous
 62
     7
370
    25
100
AcDbLine
 10
42.1999465378
 20
25.2494194225
 30
0.0
 11
42.2544989409
 21
25.2809039921
 31
0.0
  0
SPLINE
  5
29A
330
1F
100
AcDbEntity
  8
0
  6
Continuous
 62
     7
370
    25
100
AcDbSpline
210
0.0
220
0.0
230
1.0
 70
     8
 71
     3
 72
    20
 73
    16
 74
     0
 42
0.00000001
 43
0.00000001
 40
0.0
 40
0.0
 40
0.0
 40
0.0
 40
0.0045476009107015
 40
0.0701860271530707
 40
0.1309322603371183
 40
0.1932604847387757
 40
0.2767898144109112
 40
0.3806628556776412
 40
0.4980755842094083
 40
0.6119058380451361
 40
0.7193123957517895
 40
0.8272217243063351
 40
0.9073540424971905
 40
0.9777662176687673
 40
0.9999999999999999
 40
0.9999999999999999
 40
0.9999999999999999
 40
0.9999999999999999
 10
44.08546592275528
 20
25.53779883780509
 30
0.0
 10
44.08598351470985
 20
25.53791965689833
 30
0.0
 10
44.09397184167399
 20
25.53978433507162
 30
0.0
 10
44.10670840559546
 20
25.54943282134096
 30
0.0
 10
44.12239970484016
 20
25.56476038145513
 30
0.0
 10
44.13532054283807
 20
25.58542115641163
 30
0.0
 10
44.14661294827788
 20
25.61236444628239
 30
0.0
 10
44.15642622812653
 20
25.6466526174543
 30
0.0
 10
44.16398353315745
 20
25.68507423226351
 30
0.0
 10
44.16871257455814
 20
25.724395413543
 30
0.0
 10
44.17008034595735
 20
25.76277997544654
 30
0.0
 10
44.16720850391104
 20
25.79754994626333
 30
0.0
 10
44.15693975295744
 20
25.82596006848808
 30
0.0
 10
44.14602081830373
 20
25.84379068116752
 30
0.0
 10
44.13706528008898
 20
25.84993646867659
 30
0.0
 10
44.13491607150294
 20
25.8514113749263
 30
0.0
  0
LINE
  5
29B
330
1F
100
AcDbEntity
  8
0
  6
Continuous
 62
     7
370
    25
100
AcDbLine
 10
44.006466302
 20
25.5484220751
 30
0.0
 11
44.0809861878
 21
25.5368977282
 31
0.0
  0
LINE
  5
29C
330
1F
100
AcDbEntity
  8
0
  6
Continuous
 62
     7
370
    25
100
AcDbLine
 10
44.1302040193
 20
25.8551607183
 30
0.0
 11
44.0556841335
 21
25.8666847718
 31
0.0
  0
LINE
  5
29D
330
1F
100
AcDbEntity
  8
0
  6
Continuous
 62
     7
370
    25
100
AcDbLine
 10
43.7442038117
 20
29.956086044
 30
0.0
 11
43.7229793369
 21
29.9683487115
 31
0.0
  0
LINE
  5
29E
330
1F
100
AcDbEntity
  8
0
  6
Continuous
 62
     7
370
    25
100
AcDbLine
 10
42.194815537
 20
29.9683487115
 30
0.0
 11
42.1735910622
 21
29.956086044
 31
0.0
  0
LINE
  5
29F
330
1F
100
AcDbEntity
  8
0
  6
Continuous
 62
     7
370
    25
100
AcDbLine
 10
44.0688974742
 20
28.4131161952
 30
0.0
 11
44.0688974742
 21
29.5033327043
 31
0.0
  0
LINE
  5
2A0
330
1F
100
AcDbEntity
  8
0
  6
Continuous
 62
     7
370
    25
100
AcDbLine
 10
41.8488974731
 20
29.5033327043
 30
0.0
 11
41.8488974731
 21
28.4131161952
 31
0.0
  0
LINE
  5
2A1
330
1F
100
AcDbEntity
  8
0
  6
Continuous
 62
     7
370
    25
100
AcDbLine
 10
44.0241628976
 20
28.3896106401
 30
0.0
 11
44.024478814
 21
28.3898535173
 31
0.0
  0
LINE
  5
2A2
330
1F
100
AcDbEntity
  8
0
  6
Continuous
 62
     7
370
    25
100
AcDbLine
 10
44.0433988887
 20
28.5121989439
 30
0.0
 11
44.0425840181
 21
28.5133683038
 31
0.0
  0
LINE
  5
2A3
330
1F
100
AcDbEntity
  8
0
  6
Continuous
 62
     7
370
    25
100
AcDbLine
 10
44.0398498897
 20
28.5172923251
 30
0.0
 11
44.0395313334
 21
28.5177493332
 31
0.0
  0
LINE
  5
2A4
330
1F
100
AcDbEntity
  8
0
  6
Continuous
 62
     7
370
    25
100
AcDbLine
 10
42.129178342
 20
28.1990849211
 30
0.0
 11
42.129178342
 21
28.1901556642
 31
0.0
  0
LINE
  5
2A5
330
1F
100
AcDbEntity
  8
0
  6
Continuous
 62
     7
370
    25
100
AcDbLine
 10
42.1739850777
 20
28.1125207611
 30
0.0
 11
42.1772359801
 21
28.1106424228
 31
0.0
  0
LINE
  5
2A6
330
1F
100
AcDbEntity
  8
0
  6
Continuous
 62
     7
370
    25
100
AcDbLine
 10
42.4588974797
 20
32.025010417
 30
0.0
 11
42.4588974797
 21
29.5278319513
 31
0.0
  0
LINE
  5
2A7
330
1F
100
AcDbEntity
  8
0
  6
Continuous
 62
     7
370
    25
100
AcDbLine
 10
43.4588974676
 20
29.5278319513
 30
0.0
 11
43.4588974676
 21
31.8026825987
 31
0.0
  0
LWPOLYLINE
  5
2A8
330
1F
100
AcDbEntity
  8
0
  6
Continuous
 62
     7
370
    25
100
AcDbPolyline
 90
       23
 70
   128
 43
0.0
 10
42.0864202226
 20
27.8227722283
 10
42.0640880606
 20
27.8028645116
 10
42.0506611023
 20
27.7718794828
 10
42.0472270153
 20
27.7323273131
 10
42.0540640963
 20
27.687412192
 10
42.0706183184
 20
27.6407731707
 10
42.0955487238
 20
27.5961883391
 10
42.1268354424
 20
27.557269762
 10
42.1619438834
 20
27.5271704431
 10
42.1980297732
 20
27.5083289807
 10
42.2321696389
 20
27.5022715707
 10
42.2615976722
 20
27.5094891007
 10
42.2839297609
 20
27.5293968174
 10
42.2973567925
 20
27.5603818461
 10
42.3007908061
 20
27.5999340158
 10
42.2939537985
 20
27.6448489903
 10
42.277399503
 20
27.6914881582
 10
42.252469171
 20
27.7360729898
 10
42.2211824525
 20
27.7749914202
 10
42.1860740114
 20
27.8050907392
 10
42.1499881216
 20
27.8239323482
 10
42.1158482559
 20
27.8299896116
 10
42.0864202226
 20
27.8227722283
  0
LWPOLYLINE
  5
2A9
330
1F
100
AcDbEntity
  8
0
  6
Continuous
 62
     7
370
    25
100
AcDbPolyline
 90
       13
 70
   128
 43
0.0
 10
42.2672705267
 20
27.5127057568
 10
42.2874653401
 20
27.5314372205
 10
42.3008922983
 20
27.5624222492
 10
42.3043263853
 20
27.6019744189
 10
42.2974893043
 20
27.6468895401
 10
42.2809350822
 20
27.693528708
 10
42.2560046768
 20
27.7381135396
 10
42.2247179583
 20
27.77703197
 10
42.1896095172
 20
27.8071312889
 10
42.1535236274
 20
27.8259727513
 10
42.1193837618
 20
27.8320301613
 10
42.0899557284
 20
27.8248126314
 10
42.0878183798
 20
27.8236365249
  0
LINE
  5
2AA
330
1F
100
AcDbEntity
  8
0
  6
Continuous
 62
     7
370
    25
100
AcDbLine
 10
42.1356335807
 20
27.6882788353
 30
0.0
 11
42.1548212457
 21
27.7155868265
 31
0.0
  0
LINE
  5
2AB
330
1F
100
AcDbEntity
  8
0
  6
Continuous
 62
     7
370
    25
100
AcDbLine
 10
42.1548212457
 20
27.6388225266
 30
0.0
 11
42.1356335807
 21
27.6882788353
 31
0.0
  0
LINE
  5
2AC
330
1F
100
AcDbEntity
  8
0
  6
Continuous
 62
     7
370
    25
100
AcDbLine
 10
42.1931965757
 20
27.6166743558
 30
0.0
 11
42.1548212457
 21
27.6388225266
 31
0.0
  0
LINE
  5
2AD
330
1F
100
AcDbEntity
  8
0
  6
Continuous
 62
     7
370
    25
100
AcDbLine
 10
42.2123842408
 20
27.6439824937
 30
0.0
 11
42.1931965757
 21
27.6166743558
 31
0.0
  0
LINE
  5
2AE
330
1F
100
AcDbEntity
  8
0
  6
Continuous
 62
     7
370
    25
100
AcDbLine
 10
42.1931965757
 20
27.6934386557
 30
0.0
 11
42.2123842408
 21
27.6439824937
 31
0.0
  0
LINE
  5
2AF
330
1F
100
AcDbEntity
  8
0
  6
Continuous
 62
     7
370
    25
100
AcDbLine
 10
42.1548212457
 20
27.7155868265
 30
0.0
 11
42.1931965757
 21
27.6934386557
 31
0.0
  0
LINE
  5
2B0
330
1F
100
AcDbEntity
  8
0
  6
Continuous
 62
     7
370
    25
100
AcDbLine
 10
42.1688853166
 20
27.7074698002
 30
0.0
 11
42.1356335807
 21
27.6882788353
 31
0.0
  0
LINE
  5
2B1
330
1F
100
AcDbEntity
  8
0
  6
Continuous
 62
     7
370
    25
100
AcDbLine
 10
42.2034887168
 20
27.6669107755
 30
0.0
 11
42.1548212457
 21
27.6388225266
 31
0.0
  0
ARC
  5
2B2
330
1F
100
AcDbEntity
  8
0
  6
Continuous
 62
     7
370
    25
100
AcDbCircle
 10
42.3507180625
 20
25.7032564778
 30
0.0
 40
0.50297485154745
100
AcDbArc
 50
183.8823958742
 51
235.516159949
  0
LWPOLYLINE
  5
2B3
330
1F
100
AcDbEntity
  8
0
  6
Continuous
 62
     7
370
    25
100
AcDbPolyline
 90
       22
 70
   128
 43
0.0
 10
42.1142108882
 20
25.2535741479
 10
42.1740089107
 20
25.2162059662
 10
42.2668237852
 20
25.1683351059
 10
42.3683418325
 20
25.1267626261
 10
42.4772864806
 20
25.0920118276
 10
42.5922877321
 20
25.0645194785
 10
42.711899177
 20
25.0446314149
 10
42.8346168393
 20
25.0325975539
 10
42.9588975103
 20
25.0285695471
 10
43.0831780346
 20
25.0325975539
 10
43.205895697
 20
25.0446314149
 10
43.3255072885
 20
25.0645194785
 10
43.4405084667
 20
25.0920118276
 10
43.5494531148
 20
25.1267626261
 10
43.6509710887
 20
25.1683351059
 10
43.7437859632
 20
25.2162059662
 10
43.8267304317
 20
25.2697735874
 10
43.8987614129
 20
25.3283641905
 10
43.9589729573
 20
25.3912412242
 10
44.0066079804
 20
25.4576135774
 10
44.0410675023
 20
25.5266467266
 10
44.0468587154
 20
25.5421756139
  0
LWPOLYLINE
  5
2B4
330
1F
100
AcDbEntity
  8
0
  6
Continuous
 62
     7
370
    25
100
AcDbPolyline
 90
       29
 70
   128
 43
0.0
 10
41.8488974731
 20
28.4131161952
 10
41.8558768925
 20
28.3413882238
 10
41.8767274816
 20
28.2705623887
 10
41.9111869669
 20
28.2015290928
 10
41.9588220266
 20
28.1351567396
 10
42.0190336077
 20
28.0722798526
 10
42.0910645156
 20
28.0136892494
 10
42.1740089107
 20
27.9601216283
 10
42.2668237852
 20
27.9122506213
 10
42.3683418325
 20
27.8706782882
 10
42.4772864806
 20
27.8359274896
 10
42.5922877321
 20
27.8084351406
 10
42.711899177
 20
27.788547077
 10
42.8346168393
 20
27.776513216
 10
42.9588975103
 20
27.7724850625
 10
43.0831780346
 20
27.776513216
 10
43.205895697
 20
27.788547077
 10
43.3255072885
 20
27.8084351406
 10
43.4405084667
 20
27.8359274896
 10
43.5494531148
 20
27.8706782882
 10
43.6509710887
 20
27.9122506213
 10
43.7437859632
 20
27.9601216283
 10
43.8267304317
 20
28.0136892494
 10
43.8987614129
 20
28.0722798526
 10
43.9589729573
 20
28.1351567396
 10
44.0066079804
 20
28.2015290928
 10
44.0410675023
 20
28.2705623887
 10
44.0619179814
 20
28.3413882238
 10
44.0688974742
 20
28.4131161952
  0
SPLINE
  5
2B5
330
1F
100
AcDbEntity
  8
0
  6
Continuous
 62
     7
370
    25
100
AcDbSpline
210
0.0
220
0.0
230
1.0
 70
     8
 71
     3
 72
    17
 73
    13
 74
     0
 42
0.00000001
 43
0.00000001
 40
0.0
 40
0.0
 40
0.0
 40
0.0
 40
0.0483653952696044
 40
0.1582946049587494
 40
0.2776804707089064
 40
0.4028449427946828
 40
0.5263355326001679
 40
0.6395558399549275
 40
0.7389037587557243
 40
0.8285786535560209
 40
0.917722441517791
 40
1.0
 40
1.0
 40
1.0
 40
1.0
 10
42.17400891073646
 20
27.82129252535782
 30
0.0
 10
42.18045176317785
 20
27.81724170249393
 30
0.0
 10
42.2015385086977
 20
27.8039838059871
 30
0.0
 10
42.23375660550015
 20
27.77397944463516
 30
0.0
 10
42.26825642808238
 20
27.72997320492857
 30
0.0
 10
42.29541189896943
 20
27.67844646331943
 30
0.0
 10
42.31077596218372
 20
27.62307178806634
 30
0.0
 10
42.31003667099819
 20
27.56930732292627
 30
0.0
 10
42.29075034414181
 20
27.52396894213359
 30
0.0
 10
42.25383656933603
 20
27.49652786831944
 30
0.0
 10
42.21040823910702
 20
27.49371370928564
 30
0.0
 10
42.1858136438692
 20
27.50537277221044
 30
0.0
 10
42.17400891073646
 20
27.51096880357726
 30
0.0
  0
SPLINE
  5
2B6
330
1F
100
AcDbEntity
  8
0
  6
Continuous
 62
     7
370
    25
100
AcDbSpline
210
0.0
220
0.0
230
1.0
 70
     8
 71
     3
 72
    11
 73
     7
 74
     0
 42
0.00000001
 43
0.00000001
 40
0.0
 40
0.0
 40
0.0
 40
0.0
 40
0.0547806579999277
 40
0.4825541402418466
 40
0.9530973984194818
 40
1.0
 40
1.0
 40
1.0
 40
1.0
 10
42.17400891073646
 20
27.51096880357726
 30
0.0
 10
42.17220669306129
 20
27.5120439275504
 30
0.0
 10
42.15633124299328
 20
27.52151452435322
 30
0.0
 10
42.12952656386875
 20
27.54681890726015
 30
0.0
 10
42.1069974270272
 20
27.57587285194333
 30
0.0
 10
42.09904543993804
 20
27.59402859583536
 30
0.0
 10
42.09832465171414
 20
27.59567427838573
 30
0.0
  0
SPLINE
  5
2B7
330
1F
100
AcDbEntity
  8
0
  6
Continuous
 62
     7
370
    25
100
AcDbSpline
210
0.0
220
0.0
230
1.0
 70
     8
 71
     3
 72
    11
 73
     7
 74
     0
 42
0.00000001
 43
0.00000001
 40
0.0
 40
0.0
 40
0.0
 40
0.0
 40
0.1407566485215196
 40
0.4145785844887502
 40
0.7786816458257996
 40
0.9999999999999999
 40
0.9999999999999999
 40
0.9999999999999999
 40
0.9999999999999999
 10
42.07850720731362
 20
27.81599190659102
 30
0.0
 10
42.08122321265192
 20
27.82028207170041
 30
0.0
 10
42.08922281807336
 20
27.83291813967273
 30
0.0
 10
42.11836489984044
 20
27.8414185140353
 30
0.0
 10
42.14869619525381
 20
27.8346418285287
 30
0.0
 10
42.16706470302437
 20
27.82495472960034
 30
0.0
 10
42.17400891073646
 20
27.82129252535782
 30
0.0
  0
LWPOLYLINE
  5
2B8
330
1F
100
AcDbEntity
  8
0
  6
Continuous
 62
     7
370
    25
100
AcDbPolyline
 90
        8
 70
   128
 43
0.0
 10
43.7985867435
 20
25.1845779582
 10
43.8844507249
 20
25.2398158001
 10
43.9594636983
 20
25.3000877705
 10
44.0227458206
 20
25.3646872376
 10
44.0735552603
 20
25.4328568234
 10
44.1112962644
 20
25.5037972039
 10
44.1355264911
 20
25.576677082
 10
44.1381380076
 20
25.5885070787
  0
LWPOLYLINE
  5
2B9
330
1F
100
AcDbEntity
  8
0
  6
Continuous
 62
     7
370
    25
100
AcDbPolyline
 90
        3
 70
   128
 43
0.0
 10
44.0994979473
 20
25.8599091434
 10
44.0940907031
 20
25.8703692893
 10
44.0688974742
 20
25.9127369865
  0
LWPOLYLINE
  5
2BA
330
1F
100
AcDbEntity
  8
0
  6
Continuous
 62
     7
370
    25
100
AcDbPolyline
 90
       27
 70
   128
 43
0.0
 10
41.8488974731
 20
25.9127369865
 10
41.8442396869
 20
25.9055445362
 10
41.8064986096
 20
25.8346038624
 10
41.7822683095
 20
25.7617242777
 10
41.77183295
 20
25.6877596654
 10
41.7753148132
 20
25.6135776957
 10
41.7926730893
 20
25.5400477985
 10
41.8237042808
 20
25.4680320704
 10
41.8680445853
 20
25.3983747151
 10
41.9251741486
 20
25.3318926565
 10
41.9944231887
 20
25.2693652721
 10
42.0749797681
 20
25.2115255936
 10
42.1658995111
 20
25.1590517998
 10
42.26611642
 20
25.1125590035
 10
42.3744554885
 20
25.0725922119
 10
42.4896466711
 20
25.0396201661
 10
42.6103394035
 20
25.0140291818
 10
42.7351185887
 20
24.996119922
 10
42.8625214636
 20
24.9861015311
 10
42.9910542455
 20
24.9840919276
 10
43.1192099517
 20
24.9901148714
 10
43.2454861463
 20
25.0040990832
 10
43.368402393
 20
25.0258811782
 10
43.4865175619
 20
25.0552056661
 10
43.5984468422
 20
25.0917287642
 10
43.7028780224
 20
25.1350219174
 10
43.7985867435
 20
25.1845779582
  0
LWPOLYLINE
  5
2BB
330
1F
100
AcDbEntity
  8
0
  6
Continuous
 62
     7
370
    25
100
AcDbPolyline
 90
       17
 70
   128
 43
0.0
 10
42.0721578607
 20
25.4595158221
 10
42.0983174651
 20
25.447842757
 10
42.1236205462
 20
25.4248415827
 10
42.1442150216
 20
25.3940140722
 10
42.156965561
 20
25.3600537978
 10
42.15993098
 20
25.3281304066
 10
42.1526597707
 20
25.3031040824
 10
42.1362589602
 20
25.2887851811
 10
42.1132254462
 20
25.2873531443
 10
42.0870658418
 20
25.2990262095
 10
42.0617627607
 20
25.3220273837
 10
42.0411682853
 20
25.3528548943
 10
42.028417746
 20
25.3868151686
 10
42.0254523635
 20
25.4187385599
 10
42.0327235362
 20
25.4437648841
 10
42.0491243467
 20
25.4580837853
 10
42.0721578607
 20
25.4595158221
  0
ARC
  5
2BC
330
1F
100
AcDbEntity
  8
0
  6
Continuous
 62
     7
370
    25
100
AcDbCircle
 10
42.1680135866
 20
25.3072370698
 30
0.0
 40
0.0651145088254573
100
AcDbArc
 50
261.7504915881
 51
4.5764992488
  0
LWPOLYLINE
  5
2BD
330
1F
100
AcDbEntity
  8
0
  6
Continuous
 62
     7
370
    25
100
AcDbPolyline
 90
       11
 70
   128
 43
0.0
 10
42.0120943012
 20
25.4946335765
 10
42.0213479443
 20
25.5122389464
 10
42.0427385538
 20
25.5303259641
 10
42.070945968
 20
25.5358452604
 10
42.1034636457
 20
25.5283063875
 10
42.1374024336
 20
25.5083787243
 10
42.1697466066
 20
25.4778333972
 10
42.197622338
 20
25.4393840014
 10
42.2185526028
 20
25.3964475374
 10
42.2306778361
 20
25.3528387611
 10
42.2329204902
 20
25.3124325613
  0
LWPOLYLINE
  5
2BE
330
1F
100
AcDbEntity
  8
0
  6
Continuous
 62
     7
370
    25
100
AcDbPolyline
 90
        9
 70
   128
 43
0.0
 10
42.1835022411
 20
25.5459275972
 10
42.2165245929
 20
25.517815442
 10
42.2457692218
 20
25.4810444801
 10
42.2686376642
 20
25.4388821138
 10
42.2830978772
 20
25.3950744599
 10
42.2878650755
 20
25.3535143
 10
42.2825156906
 20
25.3178940715
 10
42.2675249904
 20
25.2913788045
 10
42.2544989409
 20
25.2809039921
  0
ARC
  5
2BF
330
1F
100
AcDbEntity
  8
0
  6
Continuous
 62
     7
370
    25
100
AcDbCircle
 10
42.1274014852
 20
25.4809684336
 30
0.0
 40
0.0858311584145058
100
AcDbArc
 50
49.185087876
 51
113.250931519
  0
LINE
  5
2C0
330
1F
100
AcDbEntity
  8
0
  6
Continuous
 62
     7
370
    25
100
AcDbLine
 10
42.0299072387
 20
25.3966904146
 30
0.0
 11
42.0749442751
 21
25.3663457251
 31
0.0
  0
LINE
  5
2C1
330
1F
100
AcDbEntity
  8
0
  6
Continuous
 62
     7
370
    25
100
AcDbLine
 10
42.0749442751
 20
25.3663457251
 30
0.0
 11
42.0711761587
 21
25.3165069142
 31
0.0
  0
LINE
  5
2C2
330
1F
100
AcDbEntity
  8
0
  6
Continuous
 62
     7
370
    25
100
AcDbLine
 10
42.0711761587
 20
25.3165069142
 30
0.0
 11
42.1039303336
 21
25.2944379425
 31
0.0
  0
LINE
  5
2C3
330
1F
100
AcDbEntity
  8
0
  6
Continuous
 62
     7
370
    25
100
AcDbLine
 10
42.1039303336
 20
25.2944379425
 30
0.0
 11
42.1076985234
 21
25.3442767534
 31
0.0
  0
LINE
  5
2C4
330
1F
100
AcDbEntity
  8
0
  6
Continuous
 62
     7
370
    25
100
AcDbLine
 10
42.1076985234
 20
25.3442767534
 30
0.0
 11
42.1527355965
 21
25.3139320639
 31
0.0
  0
LINE
  5
2C5
330
1F
100
AcDbEntity
  8
0
  6
Continuous
 62
     7
370
    25
100
AcDbLine
 10
42.1527355965
 20
25.3139320639
 30
0.0
 11
42.1554761048
 21
25.3501782585
 31
0.0
  0
LINE
  5
2C6
330
1F
100
AcDbEntity
  8
0
  6
Continuous
 62
     7
370
    25
100
AcDbLine
 10
42.1554761048
 20
25.3501782585
 30
0.0
 11
42.1104390318
 21
25.3805232413
 31
0.0
  0
LINE
  5
2C7
330
1F
100
AcDbEntity
  8
0
  6
Continuous
 62
     7
370
    25
100
AcDbLine
 10
42.1104390318
 20
25.3805232413
 30
0.0
 11
42.1142071482
 21
25.4303620523
 31
0.0
  0
LINE
  5
2C8
330
1F
100
AcDbEntity
  8
0
  6
Continuous
 62
     7
370
    25
100
AcDbLine
 10
42.1142071482
 20
25.4303620523
 30
0.0
 11
42.0814529733
 21
25.452431024
 31
0.0
  0
LINE
  5
2C9
330
1F
100
AcDbEntity
  8
0
  6
Continuous
 62
     7
370
    25
100
AcDbLine
 10
42.0814529733
 20
25.452431024
 30
0.0
 11
42.0776847835
 21
25.4025922131
 31
0.0
  0
LINE
  5
2CA
330
1F
100
AcDbEntity
  8
0
  6
Continuous
 62
     7
370
    25
100
AcDbLine
 10
42.0326477104
 20
25.4329369025
 30
0.0
 11
42.0776847835
 21
25.4025922131
 31
0.0
  0
LINE
  5
2CB
330
1F
100
AcDbEntity
  8
0
  6
Continuous
 62
     7
370
    25
100
AcDbLine
 10
42.0326477104
 20
25.4329369025
 30
0.0
 11
42.0299072387
 21
25.3966904146
 31
0.0
  0
LINE
  5
2CC
330
1F
100
AcDbEntity
  8
0
  6
Continuous
 62
     7
370
    25
100
AcDbLine
 10
42.1527355965
 20
25.3139320639
 30
0.0
 11
42.1528416353
 21
25.3519534914
 31
0.0
  0
LINE
  5
2CD
330
1F
100
AcDbEntity
  8
0
  6
Continuous
 62
     7
370
    25
100
AcDbLine
 10
42.0776847835
 20
25.4025922131
 30
0.0
 11
42.113678201
 21
25.4233655464
 31
0.0
  0
LINE
  5
2CE
330
1F
100
AcDbEntity
  8
0
  6
Continuous
 62
     7
370
    25
100
AcDbLine
 10
42.1076985234
 20
25.3442767534
 30
0.0
 11
42.138150425
 21
25.3618519104
 31
0.0
  0
LINE
  5
2CF
330
1F
100
AcDbEntity
  8
0
  6
Continuous
 62
     7
370
    25
100
AcDbLine
 10
42.0299072387
 20
25.3966904146
 30
0.0
 11
42.111370501
 21
25.3928436857
 31
0.0
  0
LINE
  5
2D0
330
1F
100
AcDbEntity
  8
0
  6
Continuous
 62
     7
370
    25
100
AcDbLine
 10
42.0711761587
 20
25.3165069142
 30
0.0
 11
42.1118480422
 21
25.3795737323
 31
0.0
  0
LINE
  5
2D1
330
1F
100
AcDbEntity
  8
0
  6
Continuous
 62
     7
370
    25
100
AcDbLine
 10
42.0749442751
 20
25.3663457251
 30
0.0
 11
42.1109376927
 21
25.3871190585
 31
0.0
  0
LWPOLYLINE
  5
2D2
330
1F
100
AcDbEntity
  8
0
  6
Continuous
 62
     7
370
    25
100
AcDbPolyline
 90
       17
 70
   128
 43
0.0
 10
44.1346406347
 20
25.7484167781
 10
44.1442158041
 20
25.7724654336
 10
44.1534774037
 20
25.7840167668
 10
44.1610153967
 20
25.7813122647
 10
44.1656825694
 20
25.7647631759
 10
44.1667678902
 20
25.7368892046
 10
44.1641065076
 20
25.7019336617
 10
44.158103217
 20
25.6652187258
 10
44.149672621
 20
25.6323337991
 10
44.1400974516
 20
25.6082848502
 10
44.130835852
 20
25.596733517
 10
44.1232978591
 20
25.5994383124
 10
44.1186306863
 20
25.6159874012
 10
44.1175453655
 20
25.6438613726
 10
44.1202067481
 20
25.6788166221
 10
44.1262097454
 20
25.715531558
 10
44.1346406347
 20
25.7484167781
  0
LWPOLYLINE
  5
2D3
330
1F
100
AcDbEntity
  8
0
  6
Continuous
 62
     7
370
    25
100
AcDbPolyline
 90
       14
 70
   128
 43
0.0
 10
44.0854263232
 20
25.5375131344
 10
44.0818204182
 20
25.5368179425
 10
44.0727876159
 20
25.5442708697
 10
44.0666696332
 20
25.5652081745
 10
44.0640103039
 20
25.597769265
 10
44.065046052
 20
25.6390613213
 10
44.0696850651
 20
25.6854153725
 10
44.0775143346
 20
25.7327121861
 10
44.087838962
 20
25.7767498108
 10
44.0997414112
 20
25.8136149316
 10
44.1121639343
 20
25.8400322264
 10
44.1240027309
 20
25.8536541757
 10
44.1342059197
 20
25.8532702068
 10
44.1344452769
 20
25.8530669291
  0
LWPOLYLINE
  5
2D4
330
1F
100
AcDbEntity
  8
0
  6
Continuous
 62
     7
370
    25
100
AcDbPolyline
 90
        3
 70
   128
 43
0.0
 10
44.0345500043
 20
25.8460780499
 10
44.046636958
 20
25.863059507
 10
44.0556841335
 20
25.8666847718
  0
LWPOLYLINE
  5
2D5
330
1F
100
AcDbEntity
  8
0
  6
Continuous
 62
     7
370
    25
100
AcDbPolyline
 90
       10
 70
   128
 43
0.0
 10
44.006466302
 20
25.5484220751
 10
44.0002799735
 20
25.5526205066
 10
43.9933711733
 20
25.5703162222
 10
43.9898124944
 20
25.6002062502
 10
43.9899201465
 20
25.6396341947
 10
43.993684743
 20
25.6850974029
 10
44.0007715945
 20
25.7325558413
 10
44.0105509215
 20
25.7777925987
 10
44.0221541741
 20
25.8167884682
 10
44.0345500043
 20
25.8460780499
  0
LINE
  5
2D6
330
1F
100
AcDbEntity
  8
0
  6
Continuous
 62
     7
370
    25
100
AcDbLine
 10
44.1191759867
 20
25.627896597
 30
0.0
 11
44.1356605429
 21
25.6590517571
 31
0.0
  0
LINE
  5
2D7
330
1F
100
AcDbEntity
  8
0
  6
Continuous
 62
     7
370
    25
100
AcDbLine
 10
44.1356605429
 20
25.6590517571
 30
0.0
 11
44.1342813055
 21
25.6040673523
 31
0.0
  0
LINE
  5
2D8
330
1F
100
AcDbEntity
  8
0
  6
Continuous
 62
     7
370
    25
100
AcDbLine
 10
44.1342813055
 20
25.6040673523
 30
0.0
 11
44.146270287
 21
25.6267256238
 31
0.0
  0
LINE
  5
2D9
330
1F
100
AcDbEntity
  8
0
  6
Continuous
 62
     7
370
    25
100
AcDbLine
 10
44.146270287
 20
25.6267256238
 30
0.0
 11
44.1476495244
 21
25.6817100287
 31
0.0
  0
LINE
  5
2DA
330
1F
100
AcDbEntity
  8
0
  6
Continuous
 62
     7
370
    25
100
AcDbLine
 10
44.1476495244
 20
25.6817100287
 30
0.0
 11
44.1641340806
 21
25.7128651888
 31
0.0
  0
LINE
  5
2DB
330
1F
100
AcDbEntity
  8
0
  6
Continuous
 62
     7
370
    25
100
AcDbLine
 10
44.1641340806
 20
25.7128651888
 30
0.0
 11
44.1651372691
 21
25.7528536868
 31
0.0
  0
LINE
  5
2DC
330
1F
100
AcDbEntity
  8
0
  6
Continuous
 62
     7
370
    25
100
AcDbLine
 10
44.1651372691
 20
25.7528536868
 30
0.0
 11
44.1486527128
 21
25.7216985267
 31
0.0
  0
LINE
  5
2DD
330
1F
100
AcDbEntity
  8
0
  6
Continuous
 62
     7
370
    25
100
AcDbLine
 10
44.1486527128
 20
25.7216985267
 30
0.0
 11
44.1500319502
 21
25.7766829315
 31
0.0
  0
LINE
  5
2DE
330
1F
100
AcDbEntity
  8
0
  6
Continuous
 62
     7
370
    25
100
AcDbLine
 10
44.1500319502
 20
25.7766829315
 30
0.0
 11
44.1380429687
 21
25.7540246599
 31
0.0
  0
LINE
  5
2DF
330
1F
100
AcDbEntity
  8
0
  6
Continuous
 62
     7
370
    25
100
AcDbLine
 10
44.1380429687
 20
25.7540246599
 30
0.0
 11
44.1366637313
 21
25.6990402551
 31
0.0
  0
LINE
  5
2E0
330
1F
100
AcDbEntity
  8
0
  6
Continuous
 62
     7
370
    25
100
AcDbLine
 10
44.1201788817
 20
25.667885095
 30
0.0
 11
44.1366637313
 21
25.6990402551
 31
0.0
  0
LINE
  5
2E1
330
1F
100
AcDbEntity
  8
0
  6
Continuous
 62
     7
370
    25
100
AcDbLine
 10
44.1201788817
 20
25.667885095
 30
0.0
 11
44.1191759867
 21
25.627896597
 31
0.0
  0
LINE
  5
2E2
330
1F
100
AcDbEntity
  8
0
  6
Continuous
 62
     7
370
    25
100
AcDbLine
 10
44.1356605429
 20
25.6590517571
 30
0.0
 11
44.1200181369
 21
25.6614708491
 31
0.0
  0
LINE
  5
2E3
330
1F
100
AcDbEntity
  8
0
  6
Continuous
 62
     7
370
    25
100
AcDbLine
 10
44.1486527128
 20
25.7216985267
 30
0.0
 11
44.1372762042
 21
25.7234579197
 31
0.0
  0
LINE
  5
2E4
330
1F
100
AcDbEntity
  8
0
  6
Continuous
 62
     7
370
    25
100
AcDbLine
 10
44.146270287
 20
25.6267256238
 30
0.0
 11
44.1351480955
 21
25.6386169265
 31
0.0
  0
LINE
  5
2E5
330
1F
100
AcDbEntity
  8
0
  6
Continuous
 62
     7
370
    25
100
AcDbLine
 10
44.1641340806
 20
25.7128651888
 30
0.0
 11
44.1368212495
 21
25.7053201559
 31
0.0
  0
LINE
  5
2E6
330
1F
100
AcDbEntity
  8
0
  6
Continuous
 62
     7
370
    25
100
AcDbLine
 10
44.1476495244
 20
25.6817100287
 30
0.0
 11
44.1290183796
 21
25.6845911154
 31
0.0
  0
LWPOLYLINE
  5
2E7
330
1F
100
AcDbEntity
  8
0
  6
Continuous
 62
     7
370
    25
100
AcDbPolyline
 90
       18
 70
   128
 43
0.0
 10
43.7225727816
 20
29.0870803895
 10
43.8046473801
 20
29.1401952559
 10
43.8756962927
 20
29.198363464
 10
43.9347934767
 20
29.2608269024
 10
43.9811680609
 20
29.3267711039
 10
44.0142160792
 20
29.3953364285
 10
44.0335063363
 20
29.4656290632
 10
44.0387874487
 20
29.5367325718
 10
44.0299904836
 20
29.6077200867
 10
44.0072301332
 20
29.6776661337
 10
43.9708032473
 20
29.7456588416
 10
43.9211844339
 20
29.8108118543
 10
43.8590209253
 20
29.8722757916
 10
43.785122899
 20
29.9292493745
 10
43.7004537971
 20
29.9809898663
 10
43.6061172736
 20
30.0268227527
 10
43.5033434075
 20
30.0661505342
 10
43.4588974676
 20
30.0803260155
  0
LWPOLYLINE
  5
2E8
330
1F
100
AcDbEntity
  8
0
  6
Continuous
 62
     7
370
    25
100
AcDbPolyline
 90
       33
 70
   128
 43
0.0
 10
42.4588974797
 20
30.0803260155
 10
42.4413085362
 20
30.0749040131
 10
42.3366306654
 20
30.0372860885
 10
42.2400649077
 20
29.9930266515
 10
42.1528703083
 20
29.9427026866
 10
42.0761834475
 20
29.8869702489
 10
42.0110041404
 20
29.8265558946
 10
41.9581820907
 20
29.7622472183
 10
41.9184058535
 20
29.6948825848
 10
41.8921940363
 20
29.6253401782
 10
41.8798883318
 20
29.5545266262
 10
41.8816491914
 20
29.4833650383
 10
41.8974535889
 20
29.4127831437
 10
41.9270955331
 20
29.3437011184
 10
41.9701885986
 20
29.2770194853
 10
42.0261710219
 20
29.2136076012
 10
42.0943129247
 20
29.1542921064
 10
42.173725994
 20
29.0998462554
 10
42.2633750317
 20
29.0509799066
 10
42.3620912647
 20
29.0083300259
 10
42.4685877077
 20
28.9724526204
 10
42.581476177
 20
28.9438154045
 10
42.699284816
 20
28.9227917874
 10
42.8204780427
 20
28.9096558125
 10
42.9434756885
 20
28.9045787111
 10
43.0666742653
 20
28.9076266293
 10
43.1884679383
 20
28.918759894
 10
43.3072687659
 20
28.937833307
 10
43.4215281126
 20
28.9645982711
 10
43.5297563024
 20
28.9987058704
 10
43.6305425647
 20
29.0397114167
 10
43.7225727816
 20
29.0870803895
 10
43.7225727816
 20
29.0870803895
  0
LWPOLYLINE
  5
2E9
330
1F
100
AcDbEntity
  8
0
  6
Continuous
 62
     7
370
    25
100
AcDbPolyline
 90
       29
 70
   128
 43
0.0
 10
43.7437859632
 20
29.0503380273
 10
43.6509710887
 20
29.0024670937
 10
43.5494531148
 20
28.9608947606
 10
43.4405084667
 20
28.926143962
 10
43.3255072885
 20
28.8986516129
 10
43.205895697
 20
28.878763476
 10
43.0831780346
 20
28.8667296884
 10
42.9588975103
 20
28.8627015349
 10
42.8346168393
 20
28.8667296884
 10
42.711899177
 20
28.878763476
 10
42.5922877321
 20
28.8986516129
 10
42.4772864806
 20
28.926143962
 10
42.3683418325
 20
28.9608947606
 10
42.2668237852
 20
29.0024670937
 10
42.1740089107
 20
29.0503380273
 10
42.0910645156
 20
29.1039057218
 10
42.0190336077
 20
29.1624963983
 10
41.9588220266
 20
29.2253732853
 10
41.9111869669
 20
29.2917456386
 10
41.8767274816
 20
29.3607788611
 10
41.8558768925
 20
29.4316047696
 10
41.8488974731
 20
29.5033327043
 10
41.8558768925
 20
29.575060639
 10
41.8767274816
 20
29.6458865475
 10
41.9111869669
 20
29.7149197517
 10
41.9588220266
 20
29.7812921416
 10
42.0190336077
 20
29.8441690286
 10
42.0910645156
 20
29.9027596959
 10
42.1735910622
 20
29.956086044
  0
LWPOLYLINE
  5
2EA
330
1F
100
AcDbEntity
  8
0
  6
Continuous
 62
     7
370
    25
100
AcDbPolyline
 90
       15
 70
   128
 43
0.0
 10
43.7442038117
 20
29.956086044
 10
43.8267304317
 20
29.9027596959
 10
43.8987614129
 20
29.8441690286
 10
43.9589729573
 20
29.7812921416
 10
44.0066079804
 20
29.7149197517
 10
44.0410675023
 20
29.6458865475
 10
44.0619179814
 20
29.575060639
 10
44.0688974742
 20
29.5033327043
 10
44.0619179814
 20
29.4316047696
 10
44.0410675023
 20
29.3607788611
 10
44.0066079804
 20
29.2917456386
 10
43.9589729573
 20
29.2253732853
 10
43.8987614129
 20
29.1624963983
 10
43.8267304317
 20
29.1039057218
 10
43.7437859632
 20
29.0503380273
  0
SPLINE
  5
2EB
330
1F
100
AcDbEntity
  8
0
  6
Continuous
 62
     7
370
    25
100
AcDbSpline
210
0.0
220
0.0
230
1.0
 70
     8
 71
     3
 72
    24
 73
    20
 74
     0
 42
0.00000001
 43
0.00000001
 40
0.0
 40
0.0
 40
0.0
 40
0.0
 40
0.0049256466676241
 40
0.0516802885660749
 40
0.0729167178436504
 40
0.1041583715053058
 40
0.1635262520565316
 40
0.2468158934548608
 40
0.3454963421875049
 40
0.4490881436115128
 40
0.5463973335511776
 40
0.6272677597091586
 40
0.6844445754544954
 40
0.7166550100854061
 40
0.7445641583204532
 40
0.7958103789591758
 40
0.871862061676071
 40
0.9662088940370578
 40
1.0
 40
1.0
 40
1.0
 40
1.0
 10
44.04594293932816
 20
28.50479969609132
 30
0.0
 10
44.04592505893591
 20
28.50516098156138
 30
0.0
 10
44.04573745639485
 20
28.50895161832593
 30
0.0
 10
44.04578574934796
 20
28.51443622874029
 30
0.0
 10
44.03904804883506
 20
28.52059952560239
 30
0.0
 10
44.03307122966797
 20
28.51145813675956
 30
0.0
 10
44.0282978430163
 20
28.50119939233782
 30
0.0
 10
44.02237786457333
 20
28.4837514587309
 30
0.0
 10
44.01725467124633
 20
28.46362774972142
 30
0.0
 10
44.01332865032753
 20
28.44184728577427
 30
0.0
 10
44.01121593303397
 20
28.42133634746321
 30
0.0
 10
44.01163379040702
 20
28.40368105212711
 30
0.0
 10
44.01320734802591
 20
28.39196537666395
 30
0.0
 10
44.01863513626012
 20
28.38277425095717
 30
0.0
 10
44.02753705166301
 20
28.3874064319145
 30
0.0
 10
44.03200216684688
 20
28.39786936690398
 30
0.0
 10
44.03756157125217
 20
28.41322132938379
 30
0.0
 10
44.04081374900937
 20
28.42792295786308
 30
0.0
 10
44.04208740024272
 20
28.43725302648168
 30
0.0
 10
44.04242327332098
 20
28.43971344797322
 30
0.0
  0
SPLINE
  5
2EC
330
1F
100
AcDbEntity
  8
0
  6
Continuous
 62
     7
370
    25
100
AcDbSpline
210
0.0
220
0.0
230
1.0
 70
    11
 71
     3
 72
    26
 73
    22
 74
     0
 42
0.00000001
 43
0.00000001
 40
0.0
 40
0.0
 40
0.0
 40
0.0
 40
0.0330485374870472
 40
0.0917157735393322
 40
0.1565460881831308
 40
0.2233801139818149
 40
0.2871774011544417
 40
0.3432561758439381
 40
0.3892151142513589
 40
0.4272942479294696
 40
0.4655409549516941
 40
0.5118497252712052
 40
0.5681286440597522
 40
0.6318875068983876
 40
0.6986947510305883
 40
0.763553414639765
 40
0.8221012045397879
 40
0.872038979414541
 40
0.9145351892690098
 40
0.954916980464985
 40
1.0
 40
1.0
 40
1.0
 40
1.0
 10
42.22239705841912
 20
28.12615605688162
 30
0.0
 10
42.22293310656651
 20
28.12989347398653
 30
0.0
 10
42.22442073882591
 20
28.14026549425974
 30
0.0
 10
42.2211918155052
 20
28.15814637021803
 30
0.0
 10
42.21304261221836
 20
28.17830815590179
 30
0.0
 10
42.20071122060802
 20
28.1970148435863
 30
0.0
 10
42.18583146272447
 20
28.21238431974987
 30
0.0
 10
42.16995357747154
 20
28.22290358945548
 30
0.0
 10
42.15435418423095
 20
28.22769903555622
 30
0.0
 10
42.13985202125295
 20
28.22483324218508
 30
0.0
 10
42.13024907331346
 20
28.21354588779976
 30
0.0
 10
42.12672451362714
 20
28.19753639109137
 30
0.0
 10
42.12800843813894
 20
28.17847818881987
 30
0.0
 10
42.13396766534382
 20
28.15791066781721
 30
0.0
 10
42.14408307151009
 20
28.13795340990653
 30
0.0
 10
42.15750996616824
 20
28.12076221384609
 30
0.0
 10
42.17302937629014
 20
28.1082389614988
 30
0.0
 10
42.18933968365058
 20
28.10171948602074
 30
0.0
 10
42.20506342850089
 20
28.10257418082883
 30
0.0
 10
42.21766645327391
 20
28.11174134550634
 30
0.0
 10
42.22076340457946
 20
28.12117812110743
 30
0.0
 10
42.22239705841912
 20
28.12615605688162
 30
0.0
  0
LWPOLYLINE
  5
2ED
330
1F
100
AcDbEntity
  8
0
  6
Continuous
 62
     7
370
    25
100
AcDbPolyline
 90
       29
 70
   128
 43
0.0
 10
44.0688974742
 20
28.4131161952
 10
44.0619179814
 20
28.3413882238
 10
44.0410675023
 20
28.2705623887
 10
44.0066079804
 20
28.2015290928
 10
43.9589729573
 20
28.1351567396
 10
43.8987614129
 20
28.0722798526
 10
43.8267304317
 20
28.0136892494
 10
43.7437859632
 20
27.9601216283
 10
43.6509710887
 20
27.9122506213
 10
43.5494531148
 20
27.8706782882
 10
43.4405084667
 20
27.8359274896
 10
43.3255072885
 20
27.8084351406
 10
43.205895697
 20
27.788547077
 10
43.0831780346
 20
27.776513216
 10
42.9588975103
 20
27.7724850625
 10
42.8346168393
 20
27.776513216
 10
42.711899177
 20
27.788547077
 10
42.5922877321
 20
27.8084351406
 10
42.4772864806
 20
27.8359274896
 10
42.3683418325
 20
27.8706782882
 10
42.2668237852
 20
27.9122506213
 10
42.1740089107
 20
27.9601216283
 10
42.0910645156
 20
28.0136892494
 10
42.0190336077
 20
28.0722798526
 10
41.9588220266
 20
28.1351567396
 10
41.9111869669
 20
28.2015290928
 10
41.8767274816
 20
28.2705623887
 10
41.8558768925
 20
28.3413882238
 10
41.8488974731
 20
28.4131161952
  0
LWPOLYLINE
  5
2EE
330
1F
100
AcDbEntity
  8
0
  6
Continuous
 62
     7
370
    25
100
AcDbPolyline
 90
       17
 70
   128
 43
0.0
 10
44.046235096
 20
28.4643094572
 10
44.0474843882
 20
28.4868132905
 10
44.046235096
 20
28.5039362794
 10
44.042678177
 20
28.5130717472
 10
44.0373545319
 20
28.5128285767
 10
44.0310752177
 20
28.5032441674
 10
44.0247956103
 20
28.4857773958
 10
44.0194722585
 20
28.4630874446
 10
44.0159150462
 20
28.4386287138
 10
44.0146660473
 20
28.4161248805
 10
44.0159150462
 20
28.3990018916
 10
44.0194722585
 20
28.3898664238
 10
44.0247956103
 20
28.3901094477
 10
44.0310752177
 20
28.3996940036
 10
44.0373545319
 20
28.4171607752
 10
44.042678177
 20
28.4398507264
 10
44.046235096
 20
28.4643094572
  0
LINE
  5
2EF
330
1F
100
AcDbEntity
  8
0
  6
Continuous
 62
     7
370
    25
100
AcDbLine
 10
44.0252473384
 20
28.4707655026
 30
0.0
 11
44.0194197524
 21
28.4263638555
 31
0.0
  0
LINE
  5
2F0
330
1F
100
AcDbEntity
  8
0
  6
Continuous
 62
     7
370
    25
100
AcDbLine
 10
44.0252473384
 20
28.4070674384
 30
0.0
 11
44.0194197524
 21
28.4263638555
 31
0.0
  0
LINE
  5
2F1
330
1F
100
AcDbEntity
  8
0
  6
Continuous
 62
     7
370
    25
100
AcDbLine
 10
44.0369028038
 20
28.4321726684
 30
0.0
 11
44.0252473384
 21
28.4070674384
 31
0.0
  0
LINE
  5
2F2
330
1F
100
AcDbEntity
  8
0
  6
Continuous
 62
     7
370
    25
100
AcDbLine
 10
44.0369028038
 20
28.4321726684
 30
0.0
 11
44.0427306831
 21
28.4765741688
 31
0.0
  0
LINE
  5
2F3
330
1F
100
AcDbEntity
  8
0
  6
Continuous
 62
     7
370
    25
100
AcDbLine
 10
44.0369028038
 20
28.4958707326
 30
0.0
 11
44.0427306831
 21
28.4765741688
 31
0.0
  0
LINE
  5
2F4
330
1F
100
AcDbEntity
  8
0
  6
Continuous
 62
     7
370
    25
100
AcDbLine
 10
44.0369028038
 20
28.4958707326
 30
0.0
 11
44.0252473384
 21
28.4707655026
 31
0.0
  0
LINE
  5
2F5
330
1F
100
AcDbEntity
  8
0
  6
Continuous
 62
     7
370
    25
100
AcDbLine
 10
44.0289347891
 20
28.4787077042
 30
0.0
 11
44.0427306831
 21
28.4765741688
 31
0.0
  0
LINE
  5
2F6
330
1F
100
AcDbEntity
  8
0
  6
Continuous
 62
     7
370
    25
100
AcDbLine
 10
44.0205147531
 20
28.4347070391
 30
0.0
 11
44.0369028038
 21
28.4321726684
 31
0.0
  0
LWPOLYLINE
  5
2F7
330
1F
100
AcDbEntity
  8
0
  6
Continuous
 62
     7
370
    25
100
AcDbPolyline
 90
       17
 70
   128
 43
0.0
 10
42.2154269523
 20
28.1205643081
 10
42.2188394795
 20
28.1384081553
 10
42.2154269523
 20
28.160191277
 10
42.2057089312
 20
28.1825969915
 10
42.1911648259
 20
28.2022144582
 10
42.1740089107
 20
28.2160569917
 10
42.1568529956
 20
28.2220173095
 10
42.1423089636
 20
28.2191879955
 10
42.1325908692
 20
28.2079996581
 10
42.129178342
 20
28.1901556642
 10
42.1325908692
 20
28.1683726892
 10
42.1423089636
 20
28.1459669747
 10
42.1568529956
 20
28.126349508
 10
42.1740089107
 20
28.1125068279
 10
42.1911648259
 20
28.1065466567
 10
42.2057089312
 20
28.1093759707
 10
42.2154269523
 20
28.1205643081
  0
LINE
  5
2F8
330
1F
100
AcDbEntity
  8
0
  6
Continuous
 62
     7
370
    25
100
AcDbLine
 10
42.1580872547
 20
28.205320089
 30
0.0
 11
42.1421655986
 21
28.1826602041
 31
0.0
  0
LINE
  5
2F9
330
1F
100
AcDbEntity
  8
0
  6
Continuous
 62
     7
370
    25
100
AcDbLine
 10
42.1580872547
 20
28.1416220249
 30
0.0
 11
42.1421655986
 21
28.1826602041
 31
0.0
  0
LINE
  5
2FA
330
1F
100
AcDbEntity
  8
0
  6
Continuous
 62
     7
370
    25
100
AcDbLine
 10
42.1899306401
 20
28.1232438772
 30
0.0
 11
42.1580872547
 21
28.1416220249
 31
0.0
  0
LINE
  5
2FB
330
1F
100
AcDbEntity
  8
0
  6
Continuous
 62
     7
370
    25
100
AcDbLine
 10
42.1899306401
 20
28.1232438772
 30
0.0
 11
42.2058522962
 21
28.1459037621
 31
0.0
  0
LINE
  5
2FC
330
1F
100
AcDbEntity
  8
0
  6
Continuous
 62
     7
370
    25
100
AcDbLine
 10
42.1899306401
 20
28.1869419413
 30
0.0
 11
42.2058522962
 21
28.1459037621
 31
0.0
  0
LINE
  5
2FD
330
1F
100
AcDbEntity
  8
0
  6
Continuous
 62
     7
370
    25
100
AcDbLine
 10
42.1899306401
 20
28.1869419413
 30
0.0
 11
42.1580872547
 21
28.205320089
 31
0.0
  0
LINE
  5
2FE
330
1F
100
AcDbEntity
  8
0
  6
Continuous
 62
     7
370
    25
100
AcDbLine
 10
42.1697574598
 20
28.1985847935
 30
0.0
 11
42.1421655986
 21
28.1826602041
 31
0.0
  0
LINE
  5
2FF
330
1F
100
AcDbEntity
  8
0
  6
Continuous
 62
     7
370
    25
100
AcDbLine
 10
42.1984708681
 20
28.164929289
 30
0.0
 11
42.1580872547
 21
28.1416220249
 31
0.0
  0
LWPOLYLINE
  5
300
330
1F
100
AcDbEntity
  8
0
  6
Continuous
 62
     7
370
    25
100
AcDbPolyline
 90
       20
 70
   128
 43
0.0
 10
42.4588974797
 20
29.5278319513
 10
42.4639171617
 20
29.4870442025
 10
42.4829805281
 20
29.4393515034
 10
42.5157352164
 20
29.3942042116
 10
42.5612388308
 20
29.3529011554
 10
42.6181823863
 20
29.3166305411
 10
42.6849276352
 20
29.2864358166
 10
42.7595545865
 20
29.2631855685
 10
42.8399162848
 20
29.2475488091
 10
42.9237007036
 20
29.2399752499
 10
43.008497844
 20
29.2406827618
 10
43.0918679342
 20
29.2496510315
 10
43.1714127086
 20
29.2666220755
 10
43.2448439004
 20
29.2911076826
 10
43.3100489471
 20
29.3224034211
 10
43.3651520039
 20
29.3596089146
 10
43.408567769
 20
29.4016539122
 10
43.4390473902
 20
29.4473287946
 10
43.4557139577
 20
29.4953196269
 10
43.4588974676
 20
29.5278319513
  0
LINE
  5
301
330
1F
100
AcDbEntity
  8
0
  6
Continuous
 62
     7
370
    25
100
AcDbLine
 10
39.9972997896
 20
21.3454875072
 30
0.0
 11
40.0278461434
 21
20.6313616769
 31
0.0
  0
LINE
  5
302
330
1F
100
AcDbEntity
  8
0
  6
Continuous
 62
     7
370
    25
100
AcDbLine
 10
45.8899487305
 20
20.6313616769
 30
0.0
 11
45.920495231
 21
21.3454875072
 31
0.0
  0
LINE
  5
303
330
1F
100
AcDbEntity
  8
0
  6
Continuous
 62
     7
370
    25
100
AcDbLine
 10
42.6677059408
 20
20.6994599835
 30
0.0
 11
42.6686069038
 21
20.715870034
 31
0.0
  0
LINE
  5
304
330
1F
100
AcDbEntity
  8
0
  6
Continuous
 62
     7
370
    25
100
AcDbLine
 10
44.1463975922
 20
16.9052981607
 30
0.0
 11
44.1463975922
 21
19.1259712806
 31
0.0
  0
LINE
  5
305
330
1F
100
AcDbEntity
  8
0
  6
Continuous
 62
     7
370
    25
100
AcDbLine
 10
44.1463975922
 20
21.2190564344
 30
0.0
 11
44.1463975922
 21
23.1452110367
 31
0.0
  0
LINE
  5
306
330
1F
100
AcDbEntity
  8
0
  6
Continuous
 62
     7
370
    25
100
AcDbLine
 10
41.7713974651
 20
23.4740192383
 30
0.0
 11
41.7713974651
 21
21.1619321877
 31
0.0
  0
LINE
  5
307
330
1F
100
AcDbEntity
  8
0
  6
Continuous
 62
     7
370
    25
100
AcDbLine
 10
41.7713974651
 20
19.1259712806
 30
0.0
 11
41.7713974651
 21
14.5298770684
 31
0.0
  0
ARC
  5
308
330
1F
100
AcDbEntity
  8
0
  6
Continuous
 62
     7
370
    25
100
AcDbCircle
 10
43.2902924229
 20
21.8223763348
 30
0.0
 40
1.107136888964627
100
AcDbArc
 50
289.8039286632
 51
314.8061422062
  0
SPLINE
  5
309
330
1F
100
AcDbEntity
  8
0
  6
Continuous
 62
     7
370
    25
100
AcDbSpline
210
0.0
220
0.0
230
1.0
 70
     8
 71
     3
 72
    12
 73
     8
 74
     0
 42
0.00000001
 43
0.00000001
 40
0.0
 40
0.0
 40
0.0
 40
0.0
 40
0.1475186609293168
 40
0.3950492546286354
 40
0.5995264167276771
 40
0.7808175830054106
 40
1.0
 40
1.0
 40
1.0
 40
1.0
 10
44.04700215375869
 20
21.08372807776449
 30
0.0
 10
44.04997283166313
 20
21.08265996752781
 30
0.0
 10
44.0579281919172
 20
21.07979960972492
 30
0.0
 10
44.06894682950502
 20
21.07281533602296
 30
0.0
 10
44.07744267793831
 20
21.06173315411088
 30
0.0
 10
44.07873238387531
 20
21.04782468546777
 30
0.0
 10
44.07341397194807
 20
21.04074357901324
 30
0.0
 10
44.07050316227303
 20
21.03686803242907
 30
0.0
  0
SPLINE
  5
30A
330
1F
100
AcDbEntity
  8
0
  6
Continuous
 62
     7
370
    25
100
AcDbSpline
210
0.0
220
0.0
230
1.0
 70
     8
 71
     3
 72
    10
 73
     6
 74
     0
 42
0.00000001
 43
0.00000001
 40
0.0
 40
0.0
 40
0.0
 40
0.0
 40
0.0306869487185726
 40
0.8385493783604736
 40
1.0
 40
1.0
 40
1.0
 40
1.0
 10
44.02848540766572
 20
21.09309234292104
 30
0.0
 10
44.02863033238446
 20
21.09293606322922
 30
0.0
 10
44.03259053494231
 20
21.08866557548467
 30
0.0
 10
44.03961134510959
 20
21.08627200300701
 30
0.0
 10
44.04594689289438
 20
21.08409129982552
 30
0.0
 10
44.04700215375869
 20
21.08372807776449
 30
0.0
  0
SPLINE
  5
30B
330
1F
100
AcDbEntity
  8
0
  6
Continuous
 62
     7
370
    25
100
AcDbSpline
210
0.0
220
0.0
230
1.0
 70
     8
 71
     3
 72
     9
 73
     5
 74
     0
 42
0.00000001
 43
0.00000001
 40
0.0
 40
0.0
 40
0.0
 40
0.0
 40
0.9228590325493512
 40
1.0
 40
1.0
 40
1.0
 40
1.0
 10
44.13209863738351
 20
21.21948234951956
 30
0.0
 10
44.12533503717645
 20
21.22016841510518
 30
0.0
 10
44.11800607363107
 20
21.22091182830418
 30
0.0
 10
44.11086860057212
 20
21.21949758038959
 30
0.0
 10
44.11031800899519
 20
21.21938848393724
 30
0.0
  0
SPLINE
  5
30C
330
1F
100
AcDbEntity
  8
0
  6
Continuous
 62
     7
370
    25
100
AcDbSpline
210
0.0
220
0.0
230
1.0
 70
     8
 71
     3
 72
    12
 73
     8
 74
     0
 42
0.00000001
 43
0.00000001
 40
0.0
 40
0.0
 40
0.0
 40
0.0
 40
0.1631014596252572
 40
0.3603729467484027
 40
0.5899953504183986
 40
0.8390548322749172
 40
0.9999999999999999
 40
0.9999999999999999
 40
0.9999999999999999
 40
0.9999999999999999
 10
44.20210886861936
 20
21.24681718041193
 30
0.0
 10
44.19998945779128
 20
21.24296149565075
 30
0.0
 10
44.19530661603598
 20
21.23444235374783
 30
0.0
 10
44.18136865131255
 20
21.22605976726057
 30
0.0
 10
44.16432918262205
 20
21.22040957351505
 30
0.0
 10
44.14724729555361
 20
21.21840342430974
 30
0.0
 10
44.13636889591779
 20
21.21917821105836
 30
0.0
 10
44.13209863738351
 20
21.21948234951956
 30
0.0
  0
ARC
  5
30D
330
1F
100
AcDbEntity
  8
0
  6
Continuous
 62
     7
370
    25
100
AcDbCircle
 10
43.7871511311
 20
21.3883393448
 30
0.0
 40
0.4384272424399125
100
AcDbArc
 50
341.1679549771
 51
27.8671518917
  0
SPLINE
  5
30E
330
1F
100
AcDbEntity
  8
0
  6
Continuous
 62
     7
370
    25
100
AcDbSpline
210
0.0
220
0.0
230
1.0
 70
     8
 71
     3
 72
    10
 73
     6
 74
     0
 42
0.00000001
 43
0.00000001
 40
0.0
 40
0.0
 40
0.0
 40
0.0
 40
0.0973900016251586
 40
0.568945646615352
 40
1.0
 40
1.0
 40
1.0
 40
1.0
 10
44.14639759220077
 20
21.61343737185086
 30
0.0
 10
44.14752146238337
 20
21.61317679915374
 30
0.0
 10
44.15408703417798
 20
21.61165455149811
 30
0.0
 10
44.16504171115748
 20
21.60589942993136
 30
0.0
 10
44.17160244089781
 20
21.5973522025442
 30
0.0
 10
44.17473561150422
 20
21.59327035148867
 30
0.0
  0
SPLINE
  5
30F
330
1F
100
AcDbEntity
  8
0
  6
Continuous
 62
     7
370
    25
100
AcDbSpline
210
0.0
220
0.0
230
1.0
 70
     8
 71
     3
 72
    11
 73
     7
 74
     0
 42
0.00000001
 43
0.00000001
 40
0.0
 40
0.0
 40
0.0
 40
0.0
 40
0.1988170997125605
 40
0.4392692735981885
 40
0.7191517616089483
 40
1.0
 40
1.0
 40
1.0
 40
1.0
 10
41.71568593198928
 20
21.52855237911621
 30
0.0
 10
41.71780529155618
 20
21.53241133850235
 30
0.0
 10
41.72248783414827
 20
21.54093737720248
 30
0.0
 10
41.73642655820004
 20
21.54926243420218
 30
0.0
 10
41.7529951013182
 20
21.55501948207765
 30
0.0
 10
41.76525630463556
 20
21.55588141591328
 30
0.0
 10
41.77139746507157
 20
21.55631312508837
 30
0.0
  0
ARC
  5
310
330
1F
100
AcDbEntity
  8
0
  6
Continuous
 62
     7
370
    25
100
AcDbCircle
 10
42.1306404783
 20
21.3870307797
 30
0.0
 40
0.4384240397520827
100
AcDbArc
 50
161.1678902388
 51
207.8672832595
  0
SPLINE
  5
311
330
1F
100
AcDbEntity
  8
0
  6
Continuous
 62
     7
370
    25
100
AcDbSpline
210
0.0
220
0.0
230
1.0
 70
     8
 71
     3
 72
    12
 73
     8
 74
     0
 42
0.00000001
 43
0.00000001
 40
0.0
 40
0.0
 40
0.0
 40
0.0
 40
0.1286258481407398
 40
0.3745603029355761
 40
0.6075394048825703
 40
0.8125778995702724
 40
1.0
 40
1.0
 40
1.0
 40
1.0
 10
41.81708969056442
 20
21.15855537335319
 30
0.0
 10
41.81361135593317
 20
21.15809885231081
 30
0.0
 10
41.80348239591445
 20
21.15676945652916
 30
0.0
 10
41.78675525232589
 20
21.15750602357212
 30
0.0
 10
41.76865054693975
 20
21.16191871653312
 30
0.0
 10
41.75272375310983
 20
21.16931660265204
 30
0.0
 10
41.74618291752347
 20
21.17796857560762
 30
0.0
 10
41.74305929910314
 20
21.18210038135925
 30
0.0
  0
SPLINE
  5
312
330
1F
100
AcDbEntity
  8
0
  6
Continuous
 62
     7
370
    25
100
AcDbSpline
210
0.0
220
0.0
230
1.0
 70
     8
 71
     3
 72
    10
 73
     6
 74
     0
 42
0.00000001
 43
0.00000001
 40
0.0
 40
0.0
 40
0.0
 40
0.0
 40
0.0608709404980898
 40
0.8565204731533169
 40
1.0
 40
1.0
 40
1.0
 40
1.0
 10
41.84229153609721
 20
21.15938256379741
 30
0.0
 10
41.84178655387776
 20
21.15947233474431
 30
0.0
 10
41.83468090369388
 20
21.16073550980415
 30
0.0
 10
41.82609850715354
 20
21.15989653843048
 30
0.0
 10
41.81828364076762
 20
21.15873311970874
 30
0.0
 10
41.81708969056442
 20
21.15855537335319
 30
0.0
  0
SPLINE
  5
313
330
1F
100
AcDbEntity
  8
0
  6
Continuous
 62
     7
370
    25
100
AcDbSpline
210
0.0
220
0.0
230
1.0
 70
     8
 71
     3
 72
     9
 73
     5
 74
     0
 42
0.00000001
 43
0.00000001
 40
0.0
 40
0.0
 40
0.0
 40
0.0
 40
0.9281051606332112
 40
1.0
 40
1.0
 40
1.0
 40
1.0
 10
41.9232404809681
 20
21.02783464345022
 30
0.0
 10
41.92862973222265
 20
21.02983433617369
 30
0.0
 10
41.93443645702405
 20
21.03198893331234
 30
0.0
 10
41.93830980027803
 20
21.03653421053462
 30
0.0
 10
41.93858827366908
 20
21.03686099251039
 30
0.0
  0
SPLINE
  5
314
330
1F
100
AcDbEntity
  8
0
  6
Continuous
 62
     7
370
    25
100
AcDbSpline
210
0.0
220
0.0
230
1.0
 70
     8
 71
     3
 72
    12
 73
     8
 74
     0
 42
0.00000001
 43
0.00000001
 40
0.0
 40
0.0
 40
0.0
 40
0.0
 40
0.2128768259494722
 40
0.3983007609908449
 40
0.5933432147409852
 40
0.8272291792195757
 40
1.0
 40
1.0
 40
1.0
 40
1.0
 10
41.90722646263007
 20
20.97993386347078
 30
0.0
 10
41.90403192297952
 20
20.98320359468302
 30
0.0
 10
41.8980548159452
 20
20.9893213880326
 30
0.0
 10
41.89600678460232
 20
21.00257625584367
 30
0.0
 10
41.90202768991411
 20
21.01467652823637
 30
0.0
 10
41.91208121998343
 20
21.02286973149954
 30
0.0
 10
41.91991306843282
 20
21.02635423087774
 30
0.0
 10
41.9232404809681
 20
21.02783464345022
 30
0.0
  0
ARC
  5
315
330
1F
100
AcDbEntity
  8
0
  6
Continuous
 62
     7
370
    25
100
AcDbCircle
 10
42.7080248068
 20
21.9618957686
 30
0.0
 40
1.267093986711498
100
AcDbArc
 50
230.8024614442
 51
253.6366140725
  0
SPLINE
  5
316
330
1F
100
AcDbEntity
  8
0
  6
Continuous
 62
     7
370
    25
100
AcDbSpline
210
0.0
220
0.0
230
1.0
 70
     8
 71
     3
 72
    12
 73
     8
 74
     0
 42
0.00000001
 43
0.00000001
 40
0.0
 40
0.0
 40
0.0
 40
0.0
 40
0.0914997932600104
 40
0.2896970104313893
 40
0.513415882659514
 40
0.7478931509570431
 40
1.0
 40
1.0
 40
1.0
 40
1.0
 10
42.43224207427159
 20
20.7596900077466
 30
0.0
 10
42.43030230127131
 20
20.75792565417181
 30
0.0
 10
42.42416079625721
 20
20.75233954367093
 30
0.0
 10
42.41054884256974
 20
20.74609114626634
 30
0.0
 10
42.3921986076742
 20
20.74201823486347
 30
0.0
 10
42.37168092444414
 20
20.74127648883149
 30
0.0
 10
42.35809010734206
 20
20.74447120080942
 30
0.0
 10
42.35104849222677
 20
20.74612643110086
 30
0.0
  0
SPLINE
  5
317
330
1F
100
AcDbEntity
  8
0
  6
Continuous
 62
     7
370
    25
100
AcDbSpline
210
0.0
220
0.0
230
1.0
 70
     8
 71
     3
 72
     9
 73
     5
 74
     0
 42
0.00000001
 43
0.00000001
 40
0.0
 40
0.0
 40
0.0
 40
0.0
 40
0.8471167807293252
 40
1.0
 40
1.0
 40
1.0
 40
1.0
 10
42.44646974991227
 20
20.76936872260393
 30
0.0
 10
42.44209991772525
 20
20.7670823455713
 30
0.0
 10
42.43694144101175
 20
20.7643833351342
 30
0.0
 10
42.43286525474968
 20
20.76031238734942
 30
0.0
 10
42.43224207427159
 20
20.7596900077466
 30
0.0
  0
SPLINE
  5
318
330
1F
100
AcDbEntity
  8
0
  6
Continuous
 62
     7
370
    25
100
AcDbSpline
210
0.0
220
0.0
230
1.0
 70
     8
 71
     3
 72
     9
 73
     5
 74
     0
 42
0.00000001
 43
0.00000001
 40
0.0
 40
0.0
 40
0.0
 40
0.0
 40
0.9074717649894168
 40
1.0
 40
1.0
 40
1.0
 40
1.0
 10
42.66745851703117
 20
20.71057718843541
 30
0.0
 10
42.66851561710016
 20
20.71468019828713
 30
0.0
 10
42.66968050190403
 20
20.71920156193723
 30
0.0
 10
42.66745782022755
 20
20.72288262659792
 30
0.0
 10
42.66725215941503
 20
20.72322322901394
 30
0.0
  0
SPLINE
  5
319
330
1F
100
AcDbEntity
  8
0
  6
Continuous
 62
     7
370
    25
100
AcDbSpline
210
0.0
220
0.0
230
1.0
 70
     8
 71
     3
 72
    12
 73
     8
 74
     0
 42
0.00000001
 43
0.00000001
 40
0.0
 40
0.0
 40
0.0
 40
0.0
 40
0.2745226618210876
 40
0.5184539345773087
 40
0.7221896238090062
 40
0.8936304292291494
 40
1.0
 40
1.0
 40
1.0
 40
1.0
 10
42.71482162322186
 20
20.67017157520451
 30
0.0
 10
42.70846081302719
 20
20.67124075506915
 30
0.0
 10
42.69644800850806
 20
20.67325997091063
 30
0.0
 10
42.68093361386146
 20
20.68061532387018
 30
0.0
 10
42.66998357815068
 20
20.69045711835745
 30
0.0
 10
42.66551505998134
 20
20.70167385939948
 30
0.0
 10
42.66692042363552
 20
20.70811208504969
 30
0.0
 10
42.66745851703117
 20
20.71057718843541
 30
0.0
  0
ARC
  5
31A
330
1F
100
AcDbEntity
  8
0
  6
Continuous
 62
     7
370
    25
100
AcDbCircle
 10
42.9585199391
 20
22.8227267072
 30
0.0
 40
2.16630618000341
100
AcDbArc
 50
263.5408464597
 51
279.4743600604
  0
SPLINE
  5
31B
330
1F
100
AcDbEntity
  8
0
  6
Continuous
 62
     7
370
    25
100
AcDbSpline
210
0.0
220
0.0
230
1.0
 70
     8
 71
     3
 72
    12
 73
     8
 74
     0
 42
0.00000001
 43
0.00000001
 40
0.0
 40
0.0
 40
0.0
 40
0.0
 40
0.093318696391046
 40
0.264699687597776
 40
0.4599055350526975
 40
0.6957178037139855
 40
1.0
 40
1.0
 40
1.0
 40
1.0
 10
43.35590213740505
 20
20.7286955924634
 30
0.0
 10
43.35670475368287
 20
20.72671626330322
 30
0.0
 10
43.35898138512133
 20
20.72110187057578
 30
0.0
 10
43.35736976189052
 20
20.70999953049459
 30
0.0
 10
43.34844526599162
 20
20.69911077302616
 30
0.0
 10
43.33390107443761
 20
20.69030932878644
 30
0.0
 10
43.32187996096727
 20
20.68753394253987
 30
0.0
 10
43.31510742200242
 20
20.68597032602932
 30
0.0
  0
SPLINE
  5
31C
330
1F
100
AcDbEntity
  8
0
  6
Continuous
 62
     7
370
    25
100
AcDbSpline
210
0.0
220
0.0
230
1.0
 70
     8
 71
     3
 72
     9
 73
     5
 74
     0
 42
0.00000001
 43
0.00000001
 40
0.0
 40
0.0
 40
0.0
 40
0.0
 40
0.8244161534985119
 40
1.0
 40
1.0
 40
1.0
 40
1.0
 10
43.35410534482842
 20
20.74134632632104
 30
0.0
 10
43.3539379368952
 20
20.73770205816955
 30
0.0
 10
43.35373487448248
 20
20.73328163513925
 30
0.0
 10
43.35557843751631
 20
20.72938055850443
 30
0.0
 10
43.35590213740505
 20
20.7286955924634
 30
0.0
  0
SPLINE
  5
31D
330
1F
100
AcDbEntity
  8
0
  6
Continuous
 62
     7
370
    25
100
AcDbSpline
210
0.0
220
0.0
230
1.0
 70
     8
 71
     3
 72
     9
 73
     5
 74
     0
 42
0.00000001
 43
0.00000001
 40
0.0
 40
0.0
 40
0.0
 40
0.0
 40
0.9031183615926766
 40
1.0
 40
1.0
 40
1.0
 40
1.0
 10
43.58239758757695
 20
20.78996048472613
 30
0.0
 10
43.57799491757387
 20
20.79332733816724
 30
0.0
 10
43.57311995301737
 20
20.79705536938031
 30
0.0
 10
43.56731975433375
 20
20.79866220305871
 30
0.0
 10
43.56675782158219
 20
20.79881787573813
 30
0.0
  0
SPLINE
  5
31E
330
1F
100
AcDbEntity
  8
0
  6
Continuous
 62
     7
370
    25
100
AcDbSpline
210
0.0
220
0.0
230
1.0
 70
     8
 71
     3
 72
    12
 73
     8
 74
     0
 42
0.00000001
 43
0.00000001
 40
0.0
 40
0.0
 40
0.0
 40
0.0
 40
0.2187134203622849
 40
0.4502988532879527
 40
0.6773784679534953
 40
0.8839232472991222
 40
1.0
 40
1.0
 40
1.0
 40
1.0
 10
43.66539309547243
 20
20.78071824482661
 30
0.0
 10
43.65932207138713
 20
20.77886265227529
 30
0.0
 10
43.64682272324761
 20
20.77504225937647
 30
0.0
 10
43.62701521753461
 20
20.77435639203318
 30
0.0
 10
43.60793794038855
 20
20.777100319166
 30
0.0
 10
43.59267265526397
 20
20.78245012317517
 30
0.0
 10
43.58511630459127
 20
20.78797329122491
 30
0.0
 10
43.58239758757695
 20
20.78996048472613
 30
0.0
  0
LWPOLYLINE
  5
31F
330
1F
100
AcDbEntity
  8
0
  6
Continuous
 62
     7
370
    25
100
AcDbPolyline
 90
       82
 70
   128
 43
0.0
 10
41.7713974651
 20
22.9541054043
 10
41.6108449515
 20
22.9102068181
 10
41.433962573
 20
22.8535636325
 10
41.2641901527
 20
22.7900846858
 10
41.102319231
 20
22.7200680013
 10
40.9491045309
 20
22.6438397619
 10
40.8052604393
 20
22.5617543101
 10
40.6714575817
 20
22.4741941483
 10
40.5483197975
 20
22.381568765
 10
40.4364213168
 20
22.2843087686
 10
40.3362836803
 20
22.1828694071
 10
40.2483739425
 20
22.0777223551
 10
40.1731019587
 20
21.9693568869
 10
40.1108184782
 20
21.8582810501
 10
40.061814191
 20
21.7450099319
 10
40.0263174544
 20
21.6300726997
 10
40.0044937065
 20
21.5140055605
 10
39.9964447328
 20
21.3973494148
 10
40.0022082262
 20
21.2806486829
 10
40.0217570537
 20
21.164446612
 10
40.0550001364
 20
21.0492852757
 10
40.1017825959
 20
20.9357020544
 10
40.1618861949
 20
20.8242261156
 10
40.2350308033
 20
20.7153772397
 10
40.3208753516
 20
20.6096634742
 10
40.4190195179
 20
20.5075764402
 10
40.529005854
 20
20.4095925054
 10
40.6503213992
 20
20.3161692647
 10
40.7824006134
 20
20.2277431928
 10
40.9246276137
 20
20.1447237786
 10
41.0763393644
 20
20.067500564
 10
41.2368284455
 20
19.9964314116
 10
41.4053466282
 20
19.9318495444
 10
41.58110817
 20
19.8740565053
 10
41.763293602
 20
19.8233198114
 10
41.951053513
 20
19.7798764733
 10
42.143512423
 20
19.7439294752
 10
42.3397730358
 20
19.7156477753
 10
42.5389203086
 20
19.6951604386
 10
42.7400257054
 20
19.6825648508
 10
42.9421515971
 20
19.6779196778
 10
43.1443555145
 20
19.6812460394
 10
43.345694842
 20
19.6925286824
 10
43.5452306303
 20
19.7117148074
 10
43.7420327301
 20
19.7387152421
 10
43.9351836055
 20
19.7734032681
 10
44.1237824401
 20
19.8156181404
 10
44.3069499775
 20
19.8651627414
 10
44.4838323341
 20
19.9218071004
 10
44.6536046662
 20
19.9852848737
 10
44.8154755696
 20
20.0553015582
 10
44.9686903063
 20
20.1315297976
 10
45.112534618
 20
20.2136164227
 10
45.2463373656
 20
20.3011754112
 10
45.3694752231
 20
20.3938007945
 10
45.4813735571
 20
20.491060791
 10
45.5815111203
 20
20.5925001525
 10
45.6694209314
 20
20.6976483778
 10
45.7446929152
 20
20.8060126726
 10
45.8069762491
 20
20.9170896828
 10
45.8559808296
 20
21.0303608009
 10
45.8914775662
 20
21.1452968599
 10
45.9133013141
 20
21.261363999
 10
45.9213499945
 20
21.3780201447
 10
45.9155866477
 20
21.4947208766
 10
45.8960379669
 20
21.6109229476
 10
45.8627948842
 20
21.7260842839
 10
45.816012278
 20
21.8396675051
 10
45.755908679
 20
21.951143444
 10
45.6827642173
 20
22.0599923199
 10
45.596919449
 20
22.1657072586
 10
45.4987753561
 20
22.2677942927
 10
45.38878924
 20
22.3657770541
 10
45.2674735481
 20
22.4592002949
 10
45.1353944072
 20
22.54762754
 10
44.9931672236
 20
22.630645781
 10
44.8414555095
 20
22.7078701689
 10
44.6809664835
 20
22.7789381479
 10
44.5124484302
 20
22.8435200152
 10
44.3366868873
 20
22.9013142275
 10
44.1545014186
 20
22.9520509214
 10
44.1463975922
 20
22.9541054043
  0
LWPOLYLINE
  5
320
330
1F
100
AcDbEntity
  8
0
  6
Continuous
 62
     7
370
    25
100
AcDbPolyline
 90
       21
 70
   128
 43
0.0
 10
40.7878378506
 20
21.9314762578
 10
40.7453779744
 20
21.9449987683
 10
40.6977564445
 20
21.9502857472
 10
40.6496347871
 20
21.9468209339
 10
40.605723441
 20
21.9349434178
 10
40.5703207167
 20
21.9158159587
 10
40.546892234
 20
21.8913100018
 10
40.5377311732
 20
21.863824986
 10
40.5437343171
 20
21.8360525068
 10
40.5643141261
 20
21.8107087996
 10
40.5974560099
 20
21.790276609
 10
40.6399158127
 20
21.7767552719
 10
40.6875373426
 20
21.7714671196
 10
40.7356590733
 20
21.7749319329
 10
40.7795704194
 20
21.786809449
 10
40.8149730704
 20
21.8059380814
 10
40.8384016265
 20
21.830442865
 10
40.8475626506
 20
21.8579278808
 10
40.8415595066
 20
21.88570036
 10
40.8209796977
 20
21.9110440672
 10
40.7878378506
 20
21.9314762578
  0
LWPOLYLINE
  5
321
330
1F
100
AcDbEntity
  8
0
  6
Continuous
 62
     7
370
    25
100
AcDbPolyline
 90
       21
 70
   128
 43
0.0
 10
40.6465901689
 20
21.3949241628
 10
40.6041302928
 20
21.4084454999
 10
40.5565088362
 20
21.4137324789
 10
40.5083871055
 20
21.4102676656
 10
40.4644757594
 20
21.3983901494
 10
40.4290731084
 20
21.3792626904
 10
40.4056445524
 20
21.3547579068
 10
40.3964834915
 20
21.327272891
 10
40.4024866355
 20
21.2995004118
 10
40.4230664444
 20
21.2741567046
 10
40.4562083282
 20
21.253724514
 10
40.4986682044
 20
21.2402020035
 10
40.546289661
 20
21.2349150246
 10
40.5944113917
 20
21.2383798379
 10
40.6383227378
 20
21.250257354
 10
40.6737253888
 20
21.269384813
 10
40.6971539448
 20
21.2938907699
 10
40.7063150057
 20
21.3213746125
 10
40.7003118617
 20
21.3491482649
 10
40.6797320528
 20
21.3744919722
 10
40.6465901689
 20
21.3949241628
  0
LWPOLYLINE
  5
322
330
1F
100
AcDbEntity
  8
0
  6
Continuous
 62
     7
370
    25
100
AcDbPolyline
 90
       21
 70
   128
 43
0.0
 10
40.8718622866
 20
20.8680179297
 10
40.8294024471
 20
20.8815392668
 10
40.7817809539
 20
20.8868262457
 10
40.7336592231
 20
20.8833614324
 10
40.689747877
 20
20.8714839163
 10
40.654345226
 20
20.8523564573
 10
40.63091667
 20
20.8278516737
 10
40.6217556092
 20
20.8003666578
 10
40.6277587532
 20
20.7725930054
 10
40.6483385621
 20
20.7472504714
 10
40.6814804459
 20
20.7268182808
 10
40.7239403221
 20
20.7132957704
 10
40.7715618519
 20
20.7080087914
 10
40.8196835094
 20
20.7114736047
 10
40.8635948554
 20
20.7233511209
 10
40.8989975431
 20
20.7424785799
 10
40.9224260625
 20
20.7669845368
 10
40.9315871233
 20
20.7944683793
 10
40.9255839426
 20
20.8222420318
 10
40.9050041704
 20
20.8475845657
 10
40.8718622866
 20
20.8680179297
  0
LWPOLYLINE
  5
323
330
1F
100
AcDbEntity
  8
0
  6
Continuous
 62
     7
370
    25
100
AcDbPolyline
 90
       21
 70
   128
 43
0.0
 10
41.429358543
 20
20.4309739118
 10
41.3868987058
 20
20.4444952489
 10
41.3392771828
 20
20.4497834011
 10
41.2911554979
 20
20.4463185878
 10
41.2472441518
 20
20.4344410717
 10
41.2118414641
 20
20.4153136127
 10
41.1884129264
 20
20.3908076558
 10
41.1792518656
 20
20.3633226399
 10
41.1852550462
 20
20.3355501608
 10
41.2058348185
 20
20.3102064536
 10
41.2389767206
 20
20.2897742629
 10
41.281436551
 20
20.2762529258
 10
41.3290580808
 20
20.2709647735
 10
41.3771797566
 20
20.2744295868
 10
41.421091113
 20
20.286307103
 10
41.4564937904
 20
20.3054357353
 10
41.4799223326
 20
20.3299405189
 10
41.4890833889
 20
20.3574255347
 10
41.4830802082
 20
20.3851980139
 10
41.4625004314
 20
20.4105417211
 10
41.429358543
 20
20.4309739118
  0
LWPOLYLINE
  5
324
330
1F
100
AcDbEntity
  8
0
  6
Continuous
 62
     7
370
    25
100
AcDbPolyline
 90
       21
 70
   128
 43
0.0
 10
42.234205202
 20
20.1503287271
 10
42.1917453258
 20
20.1638512376
 10
42.144123796
 20
20.1691382165
 10
42.0960021385
 20
20.1656734032
 10
42.0520907925
 20
20.1537958871
 10
42.0166881048
 20
20.134668428
 10
41.9932595854
 20
20.1101624711
 10
41.9840985246
 20
20.0826786286
 10
41.9901017052
 20
20.0549049762
 10
42.0106814775
 20
20.0295624422
 10
42.0438233613
 20
20.0091290783
 10
42.0862832375
 20
19.9956077412
 10
42.133904694
 20
19.9903207622
 10
42.1820264248
 20
19.9937855755
 10
42.2259377708
 20
20.0056630917
 10
42.2613404219
 20
20.0247905507
 10
42.2847689779
 20
20.0492953343
 10
42.2939300387
 20
20.0767803501
 10
42.2879268947
 20
20.1045540026
 10
42.2673470858
 20
20.1298965365
 10
42.234205202
 20
20.1503287271
  0
LWPOLYLINE
  5
325
330
1F
100
AcDbEntity
  8
0
  6
Continuous
 62
     7
370
    25
100
AcDbPolyline
 90
       21
 70
   128
 43
0.0
 10
43.1638716358
 20
20.0688088155
 10
43.1214118329
 20
20.0823301527
 10
43.0737903031
 20
20.0876183049
 10
43.0256686456
 20
20.0841534916
 10
42.9817571529
 20
20.0722759755
 10
42.9463545752
 20
20.0531473431
 10
42.9229260192
 20
20.0286425595
 10
42.913764885
 20
20.0011575437
 10
42.9197681757
 20
19.9733850645
 10
42.9403479113
 20
19.9480413573
 10
42.9734897951
 20
19.9276091667
 10
43.0159495979
 20
19.9140878295
 10
43.0635711278
 20
19.9087996773
 10
43.1116927852
 20
19.9122644906
 10
43.1556041313
 20
19.9241420067
 10
43.1910068556
 20
19.9432694658
 10
43.2144354116
 20
19.9677754227
 10
43.2235963991
 20
19.9952604385
 10
43.2175932552
 20
20.0230329177
 10
43.1970135196
 20
20.0483766249
 10
43.1638716358
 20
20.0688088155
  0
LWPOLYLINE
  5
326
330
1F
100
AcDbEntity
  8
0
  6
Continuous
 62
     7
370
    25
100
AcDbPolyline
 90
       21
 70
   128
 43
0.0
 10
44.0768244226
 20
20.1988232069
 10
44.0343646197
 20
20.2123457174
 10
43.9867430899
 20
20.2176326963
 10
43.9386214324
 20
20.214167883
 10
43.894710233
 20
20.2022903669
 10
43.8593075087
 20
20.1831629078
 10
43.8358789527
 20
20.1586569509
 10
43.8267178185
 20
20.1311731084
 10
43.8327211092
 20
20.1033994559
 10
43.8533008447
 20
20.0780557487
 10
43.8864427286
 20
20.0576235581
 10
43.9289025314
 20
20.0441022209
 10
43.9765240613
 20
20.038815242
 10
44.0246457187
 20
20.0422800553
 10
44.0685572114
 20
20.0541575715
 10
44.1039597891
 20
20.0732850305
 10
44.1273883451
 20
20.0977898141
 10
44.1365493326
 20
20.1252748299
 10
44.1305463353
 20
20.1530473091
 10
44.1099663064
 20
20.1783910163
 10
44.0768244226
 20
20.1988232069
  0
LWPOLYLINE
  5
327
330
1F
100
AcDbEntity
  8
0
  6
Continuous
 62
     7
370
    25
100
AcDbPolyline
 90
       21
 70
   128
 43
0.0
 10
44.8340750348
 20
20.5205803433
 10
44.7916152319
 20
20.5341016804
 10
44.7439937021
 20
20.5393886594
 10
44.6958720446
 20
20.535923846
 10
44.6519608452
 20
20.5240463299
 10
44.6165579742
 20
20.5049188709
 10
44.5931294182
 20
20.480412914
 10
44.5839684307
 20
20.4529290715
 10
44.5899717213
 20
20.425155419
 10
44.6105514569
 20
20.3998128851
 10
44.6436933407
 20
20.3793795211
 10
44.6861531436
 20
20.365858184
 10
44.7337746734
 20
20.3605712051
 10
44.7818963309
 20
20.3640360184
 10
44.8258078236
 20
20.3759135345
 10
44.8612104013
 20
20.3950409935
 10
44.8846389573
 20
20.4195469504
 10
44.8937999448
 20
20.4470307929
 10
44.8877969475
 20
20.4748044454
 10
44.8672169186
 20
20.5001469793
 10
44.8340750348
 20
20.5205803433
  0
LWPOLYLINE
  5
328
330
1F
100
AcDbEntity
  8
0
  6
Continuous
 62
     7
370
    25
100
AcDbPolyline
 90
       21
 70
   128
 43
0.0
 10
45.3203389374
 20
20.9850929505
 10
45.2778791346
 20
20.998615461
 10
45.2302576047
 20
21.0039024399
 10
45.1821359473
 20
21.0004376266
 10
45.1382244545
 20
20.9885601105
 10
45.1028218768
 20
20.9694326514
 10
45.0793933208
 20
20.9449266945
 10
45.0702323333
 20
20.9174416787
 10
45.0762353306
 20
20.8896691995
 10
45.0968150662
 20
20.8643254923
 10
45.1299572434
 20
20.8438933017
 10
45.1724170462
 20
20.8303719646
 10
45.2200385761
 20
20.8250849856
 10
45.2681602335
 20
20.8285486256
 10
45.3120714329
 20
20.8404261417
 10
45.3474743039
 20
20.8595547741
 10
45.3709028599
 20
20.8840595577
 10
45.3800638474
 20
20.9115445735
 10
45.3740605568
 20
20.9393170527
 10
45.3534808212
 20
20.9646607599
 10
45.3203389374
 20
20.9850929505
  0
LWPOLYLINE
  5
329
330
1F
100
AcDbEntity
  8
0
  6
Continuous
 62
     7
370
    25
100
AcDbPolyline
 90
       21
 70
   128
 43
0.0
 10
45.4615866924
 20
21.5216462189
 10
45.4191268895
 20
21.535167556
 10
45.3715053597
 20
21.540454535
 10
45.3233834089
 20
21.5369897216
 10
45.2794722095
 20
21.5251122055
 10
45.2440696318
 20
21.5059847465
 10
45.2206410758
 20
21.4814787896
 10
45.2114797949
 20
21.4539949471
 10
45.2174830856
 20
21.4262212946
 10
45.2380628212
 20
21.4008787607
 10
45.271204705
 20
21.3804453967
 10
45.3136645078
 20
21.3669240596
 10
45.3612860377
 20
21.3616370807
 10
45.4094076951
 20
21.365101894
 10
45.4533191879
 20
21.3769794101
 10
45.4887217656
 20
21.3961068691
 10
45.5121503216
 20
21.420612826
 10
45.5213113091
 20
21.4480966685
 10
45.5153083118
 20
21.475870321
 10
45.4947285762
 20
21.5012128549
 10
45.4615866924
 20
21.5216462189
  0
LWPOLYLINE
  5
32A
330
1F
100
AcDbEntity
  8
0
  6
Continuous
 62
     7
370
    25
100
AcDbPolyline
 90
       21
 70
   128
 43
0.0
 10
45.2363145747
 20
22.048552452
 10
45.1938547719
 20
22.0620737892
 10
45.146233242
 20
22.0673607681
 10
45.0981112913
 20
22.0638959548
 10
45.0542000919
 20
22.0520184387
 10
45.0187975142
 20
22.0328909796
 10
44.9953689581
 20
22.008386196
 10
44.9862076773
 20
21.9809011802
 10
44.992210968
 20
21.9531275277
 10
45.0127907036
 20
21.9277849938
 10
45.0459325874
 20
21.9073528032
 10
45.0883923902
 20
21.8938302927
 10
45.1360139201
 20
21.8885433138
 10
45.1841355775
 20
21.8920081271
 10
45.2280470702
 20
21.9038856432
 10
45.2634496479
 20
21.9230131023
 10
45.2868782039
 20
21.9475190592
 10
45.2960391914
 20
21.9750029017
 10
45.2900361941
 20
22.0027765542
 10
45.2694564585
 20
22.0281202614
 10
45.2363145747
 20
22.048552452
  0
LWPOLYLINE
  5
32B
330
1F
100
AcDbEntity
  8
0
  6
Continuous
 62
     7
370
    25
100
AcDbPolyline
 90
       21
 70
   128
 43
0.0
 10
44.678818135
 20
22.4855952966
 10
44.6363583321
 20
22.4991178071
 10
44.5887368023
 20
22.504404786
 10
44.5406151448
 20
22.5009399727
 10
44.4967039454
 20
22.4890624566
 10
44.4613010744
 20
22.4699349975
 10
44.4378725184
 20
22.4454290406
 10
44.4287115309
 20
22.4179451981
 10
44.4347148215
 20
22.3901715456
 10
44.4552945571
 20
22.3648278384
 10
44.4884364409
 20
22.3443956478
 10
44.5308962438
 20
22.3308743106
 10
44.5785177736
 20
22.3255873317
 10
44.6266394311
 20
22.329052145
 10
44.6705506305
 20
22.3409296611
 10
44.7059535015
 20
22.3600571202
 10
44.7293820575
 20
22.3845619038
 10
44.738543045
 20
22.4120469196
 10
44.7325397544
 20
22.4398205721
 10
44.7119600188
 20
22.465163106
 10
44.678818135
 20
22.4855952966
  0
LWPOLYLINE
  5
32C
330
1F
100
AcDbEntity
  8
0
  6
Continuous
 62
     7
370
    25
100
AcDbPolyline
 90
       21
 70
   128
 43
0.0
 10
41.2741015882
 20
22.3959900384
 10
41.2316417487
 20
22.4095113755
 10
41.1840202188
 20
22.4147983545
 10
41.1358985431
 20
22.4113347145
 10
41.091987197
 20
22.399456025
 10
41.0565845093
 20
22.380328566
 10
41.0331559533
 20
22.3558237824
 10
41.0239949291
 20
22.3283387666
 10
41.0299980731
 20
22.3005662874
 10
41.050577882
 20
22.2752225802
 10
41.0837197658
 20
22.2547903896
 10
41.126179587
 20
22.2412678791
 10
41.1738011169
 20
22.2359809002
 10
41.2219227926
 20
22.2394457135
 10
41.265834157
 20
22.2513232296
 10
41.3012368356
 20
22.2704506886
 10
41.3246653733
 20
22.2949566455
 10
41.3338264341
 20
22.3224404881
 10
41.3278232534
 20
22.3502141405
 10
41.307243472
 20
22.3755578478
 10
41.2741015882
 20
22.3959900384
  0
LWPOLYLINE
  5
32D
330
1F
100
AcDbEntity
  8
0
  6
Continuous
 62
     7
370
    25
100
AcDbPolyline
 90
       46
 70
   128
 43
0.0
 10
40.0278461434
 20
20.6313616769
 10
40.0373913931
 20
20.5304620425
 10
40.0614060224
 20
20.414474689
 10
40.0992285721
 20
20.299718148
 10
40.1506787911
 20
20.1867427065
 10
40.2155113088
 20
20.0760833982
 10
40.2934173955
 20
19.9682705636
 10
40.3840256954
 20
19.8638157703
 10
40.486904427
 20
19.7632188524
 10
40.6015632891
 20
19.6669573511
 10
40.7274559548
 20
19.5754900344
 10
40.8639824909
 20
19.4892545506
 10
41.0104922184
 20
19.4086603883
 10
41.166287012
 20
19.3340912231
 10
41.3306243894
 20
19.2659037441
 10
41.502721233
 20
19.204422961
 10
41.6817574106
 20
19.1499398571
 10
41.8668797354
 20
19.1027160826
 10
42.0572060267
 20
19.062976915
 10
42.2518293451
 20
19.0309089121
 10
42.4498220712
 20
19.0066681255
 10
42.6502407826
 20
18.9903683671
 10
42.8521305437
 20
18.9820882494
 10
43.0545289389
 20
18.981866492
 10
43.256471646
 20
18.9897042681
 10
43.4569962496
 20
19.0055640316
 10
43.6551472272
 20
19.0293706899
 10
43.8499802031
 20
19.061010431
 10
44.0405667881
 20
19.1003330701
 10
44.2259988326
 20
19.1471497026
 10
44.4053923869
 20
19.2012397444
 10
44.5778926875
 20
19.2623427186
 10
44.7426781173
 20
19.330168815
 10
44.8989625518
 20
19.4043953709
 10
45.0460021066
 20
19.4846680436
 10
45.1830954295
 20
19.5706043308
 10
45.3095892749
 20
19.6617935707
 10
45.4248814364
 20
19.7578028083
 10
45.5284216269
 20
19.8581744488
 10
45.6197170523
 20
19.9624297778
 10
45.6983324108
 20
20.0700713076
 10
45.7638934134
 20
20.1805862976
 10
45.8160870771
 20
20.2934491005
 10
45.8546649515
 20
20.4081211624
 10
45.8794431186
 20
20.5240557165
 10
45.8899487305
 20
20.6313616769
  0
LWPOLYLINE
  5
32E
330
1F
100
AcDbEntity
  8
0
  6
Continuous
 62
     7
370
    25
100
AcDbPolyline
 90
       32
 70
   128
 43
0.0
 10
42.1192081305
 20
13.5532878167
 10
42.1859495661
 20
13.5225409719
 10
42.2572269094
 20
13.504676005
 10
42.3326220184
 20
13.499796168
 10
42.4116922583
 20
13.5079319673
 10
42.4939738011
 20
13.5290341236
 10
42.5789836058
 20
13.5629806114
 10
42.6662230113
 20
13.6095707932
 10
42.7551798637
 20
13.6685312854
 10
42.8453321822
 20
13.739517132
 10
42.9361510931
 20
13.8221106313
 10
43.0271033224
 20
13.915827202
 10
43.1176554497
 20
14.0201177305
 10
43.2072758143
 20
14.134369744
 10
43.2954386226
 20
14.2579121035
 10
43.3816264402
 20
14.3900208707
 10
43.4653335666
 20
14.5299204812
 10
43.5460686739
 20
14.6767896113
 10
43.6233580344
 20
14.8297658707
 10
43.6967481599
 20
14.9879528433
 10
43.7658081488
 20
15.1504224332
 10
43.8301329124
 20
15.3162195578
 10
43.889344935
 20
15.4843715353
 10
43.9430967674
 20
15.653892777
 10
43.9910729332
 20
15.8237883077
 10
44.0329918356
 20
15.9930596323
 10
44.0686076642
 20
16.1607152955
 10
44.0977109813
 20
16.3257697088
 10
44.1201313623
 20
16.4872548833
 10
44.1357373953
 20
16.64422395
 10
44.1444369748
 20
16.7957546795
 10
44.1463975922
 20
16.9052981607
  0
LWPOLYLINE
  5
32F
330
1F
100
AcDbEntity
  8
0
  6
Continuous
 62
     7
370
    25
100
AcDbPolyline
 90
       12
 70
   128
 43
0.0
 10
41.7713974651
 20
14.5298770684
 10
41.7716153359
 20
14.4942163604
 10
41.7768402755
 20
14.3561917148
 10
41.7890019917
 20
14.2261562037
 10
41.8080291319
 20
14.1048724848
 10
41.8338100107
 20
13.9930539365
 10
41.86619338
 20
13.8913552713
 10
41.9049891618
 20
13.8003725357
 10
41.9499696589
 20
13.7206419368
 10
42.0008709842
 20
13.6526304558
 10
42.0573944179
 20
13.5967358481
 10
42.1192081305
 20
13.5532878167
  0
LINE
  5
330
330
1F
100
AcDbEntity
  8
0
  6
Continuous
 62
     7
370
    25
100
AcDbLine
 10
42.6669616161
 20
20.7016247585
 30
0.0
 11
42.667458517
 21
20.7105771884
 31
0.0
  0
LINE
  5
331
330
1F
100
AcDbEntity
  8
0
  6
Continuous
 62
     7
370
    25
100
AcDbLine
 10
43.3559021374
 20
20.7286955925
 30
0.0
 11
43.3568009004
 21
20.7132183313
 31
0.0
  0
LINE
  5
332
330
1F
100
AcDbEntity
  8
0
  6
Continuous
 62
     7
370
    25
100
AcDbLine
 10
41.9197947708
 20
20.9712501238
 30
0.0
 11
41.923240481
 21
21.0278346435
 31
0.0
  0
LINE
  5
333
330
1F
100
AcDbEntity
  8
0
  6
Continuous
 62
     7
370
    25
100
AcDbLine
 10
44.0470021538
 20
21.0837280778
 30
0.0
 11
44.0509090153
 21
21.0176173748
 31
0.0
  0
LINE
  5
334
330
1F
100
AcDbEntity
  8
0
  6
Continuous
 62
     7
370
    25
100
AcDbLine
 10
41.7082005918
 20
21.299196522
 30
0.0
 11
41.715685932
 21
21.5285523791
 31
0.0
  0
SPLINE
  5
335
330
1F
100
AcDbEntity
  8
0
  6
Continuous
 62
     7
370
    25
100
AcDbSpline
210
0.0
220
0.0
230
1.0
 70
     8
 71
     3
 72
     9
 73
     5
 74
     0
 42
0.00000001
 43
0.00000001
 40
0.0
 40
0.0
 40
0.0
 40
0.0
 40
0.9506881605019774
 40
1.0
 40
1.0
 40
1.0
 40
1.0
 10
44.17473561150422
 20
21.59327035148867
 30
0.0
 10
44.17788447549525
 20
21.47777287394547
 30
0.0
 10
44.18119666988439
 20
21.35628458541749
 30
0.0
 10
44.18438499599217
 20
21.23479300198699
 30
0.0
 10
44.18454221821746
 20
21.2288020285245
 30
0.0
  0
ARC
  5
336
330
1F
100
AcDbEntity
  8
0
  6
HIDDEN
 62
     7
370
    18
100
AcDbCircle
 10
43.865147461
 20
25.4846151299
 30
0.0
 40
2.356250000000001
100
AcDbArc
 50
247.380135052
 51
292.619864948
  0
ARC
  5
337
330
1F
100
AcDbEntity
  8
0
  6
HIDDEN
 62
     7
370
    18
100
AcDbCircle
 10
42.052647461
 20
21.1346151299
 30
0.0
 40
2.356250000000003
100
AcDbArc
 50
67.380135052
 51
112.619864948
  0
ARC
  5
338
330
1F
100
AcDbEntity
  8
0
  6
HIDDEN
 62
     7
370
    18
100
AcDbCircle
 10
43.865147461
 20
25.839055024
 30
0.0
 40
2.356250000000001
100
AcDbArc
 50
247.380135052
 51
292.619864948
  0
ARC
  5
339
330
1F
100
AcDbEntity
  8
0
  6
HIDDEN
 62
     7
370
    18
100
AcDbCircle
 10
42.052647461
 20
21.489055024
 30
0.0
 40
2.356250000000003
100
AcDbArc
 50
67.380135052
 51
112.619864948
  0
ARC
  5
33A
330
1F
100
AcDbEntity
  8
0
  6
HIDDEN
 62
     7
370
    18
100
AcDbCircle
 10
43.521397461
 20
33.2638465234
 30
0.0
 40
1.462500000000001
100
AcDbArc
 50
247.380135052
 51
292.619864948
  0
ARC
  5
33B
330
1F
100
AcDbEntity
  8
0
  6
HIDDEN
 62
     7
370
    18
100
AcDbCircle
 10
42.396397461
 20
30.5638465234
 30
0.0
 40
1.462500000000004
100
AcDbArc
 50
67.380135052
 51
112.619864948
  0
ARC
  5
33C
330
1F
100
AcDbEntity
  8
0
  6
HIDDEN
 62
     7
370
    18
100
AcDbCircle
 10
43.521397461
 20
33.5638465234
 30
0.0
 40
1.462500000000001
100
AcDbArc
 50
247.380135052
 51
292.619864948
  0
ARC
  5
33D
330
1F
100
AcDbEntity
  8
0
  6
HIDDEN
 62
     7
370
    18
100
AcDbCircle
 10
42.396397461
 20
30.8638465234
 30
0.0
 40
1.462500000000004
100
AcDbArc
 50
67.380135052
 51
112.619864948
  0
ARC
  5
33E
330
1F
100
AcDbEntity
  8
0
  6
Continuous
 62
     7
370
    25
100
AcDbCircle
 10
21.2533392307
 20
6.0674935449
 30
0.0
 40
0.0375000000000005
100
AcDbArc
 50
90.0
 51
180.0
  0
ARC
  5
33F
330
1F
100
AcDbEntity
  8
0
  6
Continuous
 62
     7
370
    25
100
AcDbCircle
 10
23.9533392307
 20
6.0674935449
 30
0.0
 40
0.0375000000000005
100
AcDbArc
 50
0.0
 51
90.0
  0
LINE
  5
340
330
1F
100
AcDbEntity
  8
0
  6
Continuous
 62
     7
370
    25
100
AcDbLine
 10
23.9908392307
 20
5.1687435449
 30
0.0
 11
23.9908392307
 21
6.0674935449
 31
0.0
  0
LINE
  5
341
330
1F
100
AcDbEntity
  8
0
  6
Continuous
 62
     7
370
    25
100
AcDbLine
 10
23.9908392307
 20
3.3148831655
 30
0.0
 11
23.9908392307
 21
4.9987435449
 31
0.0
  0
LINE
  5
342
330
1F
100
AcDbEntity
  8
0
  6
Continuous
 62
     7
370
    25
100
AcDbLine
 10
23.9908392307
 20
2.9174935449
 30
0.0
 11
23.9908392307
 21
3.1460790114
 31
0.0
  0
LINE
  5
343
330
1F
100
AcDbEntity
  8
0
  6
Continuous
 62
     7
370
    25
100
AcDbLine
 10
21.2158392307
 20
6.0674935449
 30
0.0
 11
21.2158392307
 21
2.9174935449
 31
0.0
  0
LINE
  5
344
330
1F
100
AcDbEntity
  8
0
  6
Continuous
 62
     7
370
    25
100
AcDbLine
 10
21.2533392307
 20
6.1049935449
 30
0.0
 11
23.9533392307
 21
6.1049935449
 31
0.0
  0
LINE
  5
345
330
1F
100
AcDbEntity
  8
0
  6
Continuous
 62
     7
370
    25
100
AcDbLine
 10
21.2158392307
 20
2.9174935449
 30
0.0
 11
23.9908392307
 21
2.9174935449
 31
0.0
  0
SPLINE
  5
346
330
1F
100
AcDbEntity
  8
0
  6
Continuous
 62
     7
370
    25
100
AcDbSpline
210
0.0
220
0.0
230
1.0
 70
     8
 71
     3
 72
    34
 73
    30
 74
     0
 42
0.00000001
 43
0.00000001
 40
0.0
 40
0.0
 40
0.0
 40
0.0
 40
0.0625000000000001
 40
0.0625000000000001
 40
0.1250000000000001
 40
0.1250000000000001
 40
0.1875000000000002
 40
0.1875000000000002
 40
0.2500000000000002
 40
0.2500000000000002
 40
0.3125000000000002
 40
0.3125000000000002
 40
0.3750000000000002
 40
0.3750000000000002
 40
0.4375000000000002
 40
0.4375000000000002
 40
0.5000000000000001
 40
0.5000000000000001
 40
0.6250000000000002
 40
0.6250000000000002
 40
0.7500000000000002
 40
0.7500000000000002
 40
0.8125000000000001
 40
0.8125000000000001
 40
0.8750000000000001
 40
0.8750000000000001
 40
0.9375
 40
0.9375
 40
1.0
 40
1.0
 40
1.0
 40
1.0
 10
23.99083923072531
 20
4.99874354491522
 30
0.0
 10
23.99083923072531
 20
4.998743544915221
 30
0.0
 10
23.99080490939622
 20
4.999298664311842
 30
0.0
 10
23.99067423259844
 20
5.001473648885762
 30
0.0
 10
23.99057860871771
 20
5.003081471187942
 30
0.0
 10
23.99033727404876
 20
5.00734426174895
 30
0.0
 10
23.99019131047488
 20
5.010008235827509
 30
0.0
 10
23.98987755649569
 20
5.016165933750939
 30
0.0
 10
23.98970842534785
 20
5.019680946042286
 30
0.0
 10
23.98936430778864
 20
5.027618799709427
 30
0.0
 10
23.98919489478863
 20
5.031918400840127
 30
0.0
 10
23.98888109756161
 20
5.041126779455489
 30
0.0
 10
23.98873520419906
 20
5.046096912071593
 30
0.0
 10
23.98849355080054
 20
5.056398416093867
 30
0.0
 10
23.98839791545143
 20
5.06169846984096
 30
0.0
 10
23.98826734501824
 20
5.072594241853332
 30
0.0
 10
23.98823304303081
 20
5.078229558012545
 30
0.0
 10
23.98823345440836
 20
5.094874202968424
 30
0.0
 10
23.98837519686673
 20
5.106058816336084
 30
0.0
 10
23.98885587411371
 20
5.126518688860526
 30
0.0
 10
23.98919671330142
 20
5.136002948792694
 30
0.0
 10
23.98970649619163
 20
5.14776133991733
 30
0.0
 10
23.98987894722877
 20
5.151350020346859
 30
0.0
 10
23.99019361459219
 20
5.157522485878067
 30
0.0
 10
23.99033671497667
 20
5.160132692223939
 30
0.0
 10
23.99057807928917
 20
5.164396526705978
 30
0.0
 10
23.9906754467696
 20
5.166033812919786
 30
0.0
 10
23.99080522469114
 20
5.168193508039995
 30
0.0
 10
23.99083923072531
 20
5.16874354491522
 30
0.0
 10
23.99083923072531
 20
5.16874354491522
 30
0.0
  0
SPLINE
  5
347
330
1F
100
AcDbEntity
  8
0
  6
Continuous
 62
     7
370
    25
100
AcDbSpline
210
0.0
220
0.0
230
1.0
 70
     8
 71
     3
 72
    17
 73
    13
 74
     0
 42
0.00000001
 43
0.00000001
 40
0.0
 40
0.0
 40
0.0
 40
0.0
 40
0.0367829129270379
 40
0.143946993610269
 40
0.2511849014537371
 40
0.3585983106854759
 40
0.4660155695098482
 40
0.5732581291688861
 40
0.6804203613538927
 40
0.7877217257820341
 40
0.8951646959146957
 40
1.0
 40
1.0
 40
1.0
 40
1.0
 10
23.99077334475929
 20
3.146079011363935
 30
0.0
 10
23.9907913871787
 20
3.145781359072033
 30
0.0
 10
23.99086199474685
 20
3.144616520587237
 30
0.0
 10
23.99038107778827
 20
3.152479848833637
 30
0.0
 10
23.98953372617617
 20
3.168846049945101
 30
0.0
 10
23.98864920769021
 20
3.192759710506279
 30
0.0
 10
23.98816331920112
 20
3.22071183699335
 30
0.0
 10
23.98827610199978
 20
3.249722787846642
 30
0.0
 10
23.98894374645529
 20
3.276534394571598
 30
0.0
 10
23.98985886047627
 20
3.297931068806343
 30
0.0
 10
23.99066999314745
 20
3.312305166169323
 30
0.0
 10
23.99077887416226
 20
3.314030898807467
 30
0.0
 10
23.99083264591227
 20
3.314883165515194
 30
0.0
  0
SPLINE
  5
348
330
1F
100
AcDbEntity
  8
0
  6
Continuous
 62
     7
370
    25
100
AcDbSpline
210
0.0
220
0.0
230
1.0
 70
    11
 71
     3
 72
    56
 73
    52
 74
     0
 42
0.00000001
 43
0.00000001
 40
0.0
 40
0.0
 40
0.0
 40
0.0
 40
0.0312499999999997
 40
0.0312499999999997
 40
0.0624999999999994
 40
0.0624999999999994
 40
0.0937499999999991
 40
0.0937499999999991
 40
0.1249999999999988
 40
0.1249999999999988
 40
0.1874999999999983
 40
0.1874999999999983
 40
0.2499999999999978
 40
0.2499999999999978
 40
0.2812499999999981
 40
0.2812499999999981
 40
0.3124999999999983
 40
0.3124999999999983
 40
0.3437499999999986
 40
0.3437499999999986
 40
0.3749999999999988
 40
0.3749999999999988
 40
0.4062499999999991
 40
0.4062499999999991
 40
0.4374999999999993
 40
0.4374999999999993
 40
0.4687499999999996
 40
0.4687499999999996
 40
0.4999999999999998
 40
0.4999999999999998
 40
0.5625000000000001
 40
0.5625000000000001
 40
0.6250000000000007
 40
0.6250000000000007
 40
0.6562500000000009
 40
0.6562500000000009
 40
0.687500000000001
 40
0.687500000000001
 40
0.7187500000000011
 40
0.7187500000000011
 40
0.7500000000000012
 40
0.7500000000000012
 40
0.812500000000001
 40
0.812500000000001
 40
0.843750000000001
 40
0.843750000000001
 40
0.875000000000001
 40
0.875000000000001
 40
0.9375000000000006
 40
0.9375000000000006
 40
1.0
 40
1.0
 40
1.0
 40
1.0
 10
21.98450441554282
 20
3.229993544915212
 30
0.0
 10
21.98450441554282
 20
3.224376625217741
 30
0.0
 10
21.98400991549781
 20
3.21885383144764
 30
0.0
 10
21.98207447352823
 20
3.207988716152413
 30
0.0
 10
21.98060999250463
 20
3.202590022099421
 30
0.0
 10
21.97679383079972
 20
3.192296982947171
 30
0.0
 10
21.97446108703795
 20
3.187415332922729
 30
0.0
 10
21.96896190614104
 20
3.178176601585069
 30
0.0
 10
21.96576710887826
 20
3.173803346191937
 30
0.0
 10
21.9553270056016
 20
3.162044750166327
 30
0.0
 10
21.94694607977999
 20
3.15571229342988
 30
0.0
 10
21.92899184118725
 20
3.147233125675884
 30
0.0
 10
21.91923273336877
 20
3.144999509949079
 30
0.0
 10
21.90482675180784
 20
3.144990580767707
 30
0.0
 10
21.89996627097379
 20
3.145542450326876
 30
0.0
 10
21.89058960390651
 20
3.14771105953175
 30
0.0
 10
21.88604813087337
 20
3.149315624630343
 30
0.0
 10
21.87725505837184
 20
3.153571401224464
 30
0.0
 10
21.87301808943224
 20
3.156232183908911
 30
0.0
 10
21.86519830921126
 20
3.1623834109889
 30
0.0
 10
21.86156470932278
 20
3.165895091750376
 30
0.0
 10
21.85486194395138
 20
3.173825730733967
 30
0.0
 10
21.85189680244013
 20
3.178123454451671
 30
0.0
 10
21.84672112015608
 20
3.187326200637413
 30
0.0
 10
21.84448873440175
 20
3.192293083298601
 30
0.0
 10
21.84091256393839
 20
3.202590939981435
 30
0.0
 10
21.83956736095988
 20
3.207889164103774
 30
0.0
 10
21.83774766944602
 20
3.218781140003452
 30
0.0
 10
21.83728176404255
 20
3.224415369077344
 30
0.0
 10
21.83727677632167
 20
3.241058412037781
 30
0.0
 10
21.83913198344099
 20
3.252242696123627
 30
0.0
 10
21.84622048113829
 20
3.272706660461436
 30
0.0
 10
21.85152934198276
 20
3.282195096164102
 30
0.0
 10
21.86144482824064
 20
3.293961545996626
 30
0.0
 10
21.86514090655927
 20
3.29755337315817
 30
0.0
 10
21.87298479362754
 20
3.303733806811431
 30
0.0
 10
21.87713851566102
 20
3.306348014752075
 30
0.0
 10
21.88591999487931
 20
3.310620406995765
 30
0.0
 10
21.89055131085404
 20
3.312262850974475
 30
0.0
 10
21.89989618576906
 20
3.314432703565821
 30
0.0
 10
21.90465876079669
 20
3.314987912046573
 30
0.0
 10
21.91923004868917
 20
3.315004683971806
 30
0.0
 10
21.92885774057949
 20
3.312806169987889
 30
0.0
 10
21.94242853336074
 20
3.30641378157083
 30
0.0
 10
21.94673008211839
 20
3.30380612200745
 30
0.0
 10
21.9548875976157
 20
3.29765026009561
 30
0.0
 10
21.95876548868693
 20
3.294064151775778
 30
0.0
 10
21.96921809586232
 20
3.282307749729048
 30
0.0
 10
21.97487674593805
 20
3.272835857640855
 30
0.0
 10
21.98247650155851
 20
3.252387564849077
 30
0.0
 10
21.98450441554282
 20
3.241227384310154
 30
0.0
 10
21.98450441554282
 20
3.229993544915212
 30
0.0
  0
SPLINE
  5
349
330
1F
100
AcDbEntity
  8
0
  6
Continuous
 62
     7
370
    25
100
AcDbSpline
210
0.0
220
0.0
230
1.0
 70
     8
 71
     3
 72
    15
 73
    11
 74
     0
 42
0.00000001
 43
0.00000001
 40
0.0
 40
0.0
 40
0.0
 40
0.0
 40
0.058423480008881
 40
0.1936311080015173
 40
0.3290932427668682
 40
0.4645613164601162
 40
0.5997760092498143
 40
0.7348738886531551
 40
0.8701733633334043
 40
1.0
 40
1.0
 40
1.0
 40
1.0
 10
21.93473630472574
 20
3.309913682796455
 30
0.0
 10
21.93129535568937
 20
3.308935185392084
 30
0.0
 10
21.91989112618461
 20
3.305692182124288
 30
0.0
 10
21.90404805879419
 20
3.290710727302731
 30
0.0
 10
21.88989223729972
 20
3.267368245340509
 30
0.0
 10
21.88332206255416
 20
3.239280225597169
 30
0.0
 10
21.88477564553667
 20
3.210260204779899
 30
0.0
 10
21.89422170415364
 20
3.183634091347729
 30
0.0
 10
21.91016512341218
 20
3.161815853590099
 30
0.0
 10
21.92472934932959
 20
3.153987019682616
 30
0.0
 10
21.93186114203347
 20
3.150153405671281
 30
0.0
  0
LINE
  5
34A
330
1F
100
AcDbEntity
  8
0
  6
Continuous
 62
     7
370
    25
100
AcDbLine
 10
23.9908392307
 20
6.0674935449
 30
0.0
 11
21.2158392307
 21
6.0674935449
 31
0.0
  0
DIMENSION
  5
34B
330
1F
100
AcDbEntity
  8
SLD-0
100
AcDbDimension
  2
_D_13
 10
17.832872595
 20
2.9174935449
 30
0.0
 11
17.832872595
 21
4.8965432019
 31
0.0
 70
   160
  1
<>
 71
     2
 42
-1.0
  3
SLDDIMSTYLE4
100
AcDbAlignedDimension
 13
21.3470892307
 23
6.1049935449
 33
0.0
 14
21.2158392307
 24
2.9174935449
 34
0.0
 50
90.0
100
AcDbRotatedDimension
  0
MTEXT
  5
360
330
1F
100
AcDbEntity
  8
SLD-0
100
AcDbMText
 10
20.9181895164
 20
1.820003269
 30
0.0
 40
0.625
 41
0.0
 71
     1
 72
     1
  1
B/E CAP
  7
SLDTEXTSTYLE0
 73
     1
 44
1.0
  0
LINE
  5
361
330
1F
100
AcDbEntity
  8
0
  6
Continuous
 62
     7
370
    25
100
AcDbLine
 10
14.501165581
 20
5.1498831655
 30
0.0
 11
14.501165581
 21
6.0737435449
 31
0.0
  0
LINE
  5
362
330
1F
100
AcDbEntity
  8
0
  6
Continuous
 62
     7
370
    25
100
AcDbLine
 10
14.501165581
 20
3.3148831655
 30
0.0
 11
14.501165581
 21
4.9810790114
 31
0.0
  0
LINE
  5
363
330
1F
100
AcDbEntity
  8
0
  6
Continuous
 62
     7
370
    25
100
AcDbLine
 10
14.501165581
 20
2.9174935449
 30
0.0
 11
14.501165581
 21
3.1460790114
 31
0.0
  0
LINE
  5
364
330
1F
100
AcDbEntity
  8
0
  6
Continuous
 62
     7
370
    25
100
AcDbLine
 10
11.726165581
 20
8.8487435449
 30
0.0
 11
11.726165581
 21
2.9174935449
 31
0.0
  0
LINE
  5
365
330
1F
100
AcDbEntity
  8
0
  6
Continuous
 62
     7
370
    25
100
AcDbLine
 10
11.726165581
 20
8.8487435449
 30
0.0
 11
14.501165581
 21
6.0737435449
 31
0.0
  0
LINE
  5
366
330
1F
100
AcDbEntity
  8
0
  6
Continuous
 62
     7
370
    25
100
AcDbLine
 10
11.726165581
 20
2.9174935449
 30
0.0
 11
14.501165581
 21
2.9174935449
 31
0.0
  0
SPLINE
  5
367
330
1F
100
AcDbEntity
  8
0
  6
Continuous
 62
     7
370
    25
100
AcDbSpline
210
0.0
220
0.0
230
1.0
 70
     8
 71
     3
 72
    17
 73
    13
 74
     0
 42
0.00000001
 43
0.00000001
 40
0.0
 40
0.0
 40
0.0
 40
0.0
 40
0.0367829129270427
 40
0.1439469936102608
 40
0.25118490145373
 40
0.3585983106853217
 40
0.4660155695098093
 40
0.5732581291689219
 40
0.6804203613538339
 40
0.7877217257820174
 40
0.8951646959147153
 40
1.0
 40
1.0
 40
1.0
 40
1.0
 10
14.50109969501938
 20
4.981079011363963
 30
0.0
 10
14.50111773743879
 20
4.980781359072065
 30
0.0
 10
14.50118834500696
 20
4.979616520587276
 30
0.0
 10
14.50070742804835
 20
4.98747984883365
 30
0.0
 10
14.49986007643622
 20
5.00384604994514
 30
0.0
 10
14.49897555795028
 20
5.027759710506272
 30
0.0
 10
14.49848966946123
 20
5.055711836993366
 30
0.0
 10
14.49860245225983
 20
5.08472278784666
 30
0.0
 10
14.49927009671539
 20
5.111534394571621
 30
0.0
 10
14.50018521073632
 20
5.13293106880637
 30
0.0
 10
14.50099634340757
 20
5.147305166169369
 30
0.0
 10
14.50110522442234
 20
5.149030898807493
 30
0.0
 10
14.50115899617234
 20
5.14988316551521
 30
0.0
  0
SPLINE
  5
368
330
1F
100
AcDbEntity
  8
0
  6
Continuous
 62
     7
370
    25
100
AcDbSpline
210
0.0
220
0.0
230
1.0
 70
     8
 71
     3
 72
    17
 73
    13
 74
     0
 42
0.00000001
 43
0.00000001
 40
0.0
 40
0.0
 40
0.0
 40
0.0
 40
0.0367829129270425
 40
0.1439469936102684
 40
0.2511849014537419
 40
0.3585983106853595
 40
0.4660155695098462
 40
0.5732581291689587
 40
0.6804203613538317
 40
0.7877217257819996
 40
0.8951646959146996
 40
0.9999999999999999
 40
0.9999999999999999
 40
0.9999999999999999
 40
0.9999999999999999
 10
14.50109969501939
 20
3.14607901136395
 30
0.0
 10
14.5011177374388
 20
3.145781359072051
 30
0.0
 10
14.50118834500696
 20
3.144616520587261
 30
0.0
 10
14.50070742804833
 20
3.152479848833646
 30
0.0
 10
14.49986007643624
 20
3.168846049945136
 30
0.0
 10
14.49897555795028
 20
3.192759710506275
 30
0.0
 10
14.49848966946123
 20
3.22071183699337
 30
0.0
 10
14.49860245225984
 20
3.249722787846662
 30
0.0
 10
14.49927009671538
 20
3.276534394571616
 30
0.0
 10
14.50018521073635
 20
3.297931068806359
 30
0.0
 10
14.50099634340754
 20
3.312305166169355
 30
0.0
 10
14.50110522442234
 20
3.314030898807499
 30
0.0
 10
14.50115899617236
 20
3.314883165515227
 30
0.0
  0
SPLINE
  5
369
330
1F
100
AcDbEntity
  8
0
  6
Continuous
 62
     7
370
    25
100
AcDbSpline
210
0.0
220
0.0
230
1.0
 70
    11
 71
     3
 72
    56
 73
    52
 74
     0
 42
0.00000001
 43
0.00000001
 40
0.0
 40
0.0
 40
0.0
 40
0.0
 40
0.0312500000000001
 40
0.0312500000000001
 40
0.0625000000000002
 40
0.0625000000000002
 40
0.0937500000000002
 40
0.0937500000000002
 40
0.1250000000000003
 40
0.1250000000000003
 40
0.1875000000000006
 40
0.1875000000000006
 40
0.2500000000000009
 40
0.2500000000000009
 40
0.2812500000000011
 40
0.2812500000000011
 40
0.3125000000000012
 40
0.3125000000000012
 40
0.3437500000000013
 40
0.3437500000000013
 40
0.3750000000000015
 40
0.3750000000000015
 40
0.4062500000000016
 40
0.4062500000000016
 40
0.4375000000000017
 40
0.4375000000000017
 40
0.4687500000000019
 40
0.4687500000000019
 40
0.500000000000002
 40
0.500000000000002
 40
0.562500000000002
 40
0.562500000000002
 40
0.6250000000000021
 40
0.6250000000000021
 40
0.656250000000002
 40
0.656250000000002
 40
0.6875000000000021
 40
0.6875000000000021
 40
0.7187500000000022
 40
0.7187500000000022
 40
0.7500000000000023
 40
0.7500000000000023
 40
0.812500000000002
 40
0.812500000000002
 40
0.8437500000000018
 40
0.8437500000000018
 40
0.8750000000000014
 40
0.8750000000000014
 40
0.9375000000000008
 40
0.9375000000000008
 40
1.0
 40
1.0
 40
1.0
 40
1.0
 10
12.49483076580289
 20
3.229993544915262
 30
0.0
 10
12.49483076580289
 20
3.224376625217791
 30
0.0
 10
12.49433626575789
 20
3.218853831447688
 30
0.0
 10
12.49240082378832
 20
3.207988716152459
 30
0.0
 10
12.49093634276472
 20
3.202590022099468
 30
0.0
 10
12.48712018105981
 20
3.192296982947211
 30
0.0
 10
12.48478743729803
 20
3.187415332922765
 30
0.0
 10
12.47928825640113
 20
3.1781766015851
 30
0.0
 10
12.47609345913834
 20
3.173803346191968
 30
0.0
 10
12.4656533558617
 20
3.162044750166365
 30
0.0
 10
12.45727243004009
 20
3.155712293429918
 30
0.0
 10
12.43931819144736
 20
3.147233125675916
 30
0.0
 10
12.42955908362887
 20
3.144999509949105
 30
0.0
 10
12.41515310206792
 20
3.144990580767732
 30
0.0
 10
12.41029262123387
 20
3.1455424503269
 30
0.0
 10
12.40091595416659
 20
3.147711059531773
 30
0.0
 10
12.39637448113345
 20
3.149315624630366
 30
0.0
 10
12.38758140863192
 20
3.153571401224486
 30
0.0
 10
12.38334443969232
 20
3.156232183908934
 30
0.0
 10
12.37552465947134
 20
3.16238341098892
 30
0.0
 10
12.37189105958287
 20
3.165895091750393
 30
0.0
 10
12.36518829421147
 20
3.173825730733981
 30
0.0
 10
12.36222315270021
 20
3.178123454451691
 30
0.0
 10
12.35704747041616
 20
3.187326200637438
 30
0.0
 10
12.35481508466183
 20
3.192293083298631
 30
0.0
 10
12.35123891419847
 20
3.20259093998147
 30
0.0
 10
12.34989371121995
 20
3.207889164103812
 30
0.0
 10
12.3480740197061
 20
3.218781140003493
 30
0.0
 10
12.34760811430263
 20
3.224415369077394
 30
0.0
 10
12.34760312658175
 20
3.241058412037824
 30
0.0
 10
12.34945833370107
 20
3.252242696123676
 30
0.0
 10
12.35654683139837
 20
3.272706660461477
 30
0.0
 10
12.36185569224285
 20
3.282195096164147
 30
0.0
 10
12.37177117850074
 20
3.29396154599667
 30
0.0
 10
12.37546725681936
 20
3.297553373158213
 30
0.0
 10
12.38331114388764
 20
3.30373380681147
 30
0.0
 10
12.38746486592112
 20
3.306348014752113
 30
0.0
 10
12.39624634513941
 20
3.310620406995798
 30
0.0
 10
12.40087766111415
 20
3.312262850974507
 30
0.0
 10
12.41022253602917
 20
3.31443270356585
 30
0.0
 10
12.4149851110568
 20
3.314987912046599
 30
0.0
 10
12.42955639894928
 20
3.315004683971826
 30
0.0
 10
12.43918409083958
 20
3.312806169987911
 30
0.0
 10
12.45275488362083
 20
3.306413781570847
 30
0.0
 10
12.45705643237848
 20
3.303806122007465
 30
0.0
 10
12.4652139478758
 20
3.297650260095619
 30
0.0
 10
12.46909183894702
 20
3.294064151775789
 30
0.0
 10
12.47954444612241
 20
3.282307749729049
 30
0.0
 10
12.48520309619814
 20
3.272835857640857
 30
0.0
 10
12.49280285181859
 20
3.252387564849109
 30
0.0
 10
12.49483076580289
 20
3.241227384310204
 30
0.0
 10
12.49483076580289
 20
3.229993544915262
 30
0.0
  0
SPLINE
  5
36A
330
1F
100
AcDbEntity
  8
0
  6
Continuous
 62
     7
370
    25
100
AcDbSpline
210
0.0
220
0.0
230
1.0
 70
     8
 71
     3
 72
    15
 73
    11
 74
     0
 42
0.00000001
 43
0.00000001
 40
0.0
 40
0.0
 40
0.0
 40
0.0
 40
0.0571283598924517
 40
0.1925219633372611
 40
0.3281704236235699
 40
0.4638248310067204
 40
0.5992255089659191
 40
0.7345092128641463
 40
0.8699947893297477
 40
1.0
 40
1.0
 40
1.0
 40
1.0
 10
12.4448244125416
 20
3.309832740840521
 30
0.0
 10
12.44146533907039
 20
3.308874638613814
 30
0.0
 10
12.43014529731022
 20
3.305645844331764
 30
0.0
 10
12.4143765594417
 20
3.290704973982244
 30
0.0
 10
12.40021801084284
 20
3.267369788335632
 30
0.0
 10
12.3936485670274
 20
3.2392798130029
 30
0.0
 10
12.39510195456001
 20
3.21026031510795
 30
0.0
 10
12.40454806543966
 20
3.183634061848137
 30
0.0
 10
12.42049147104384
 20
3.161815860622421
 30
0.0
 10
12.43505569872569
 20
3.153987021994259
 30
0.0
 10
12.44218749229358
 20
3.150153405671306
 30
0.0
  0
DIMENSION
  5
36B
330
1F
100
AcDbEntity
  8
SLD-0
100
AcDbDimension
  2
_D_14
 10
7.8469653522
 20
2.9174935449
 30
0.0
 11
7.8469653522
 21
6.2627582541
 31
0.0
 70
   160
  1
<>
 71
     2
 42
-1.0
  3
SLDDIMSTYLE5
100
AcDbAlignedDimension
 13
11.726165581
 23
8.8487435449
 33
0.0
 14
11.726165581
 24
2.9174935449
 34
0.0
 50
90.0
100
AcDbRotatedDimension
  0
MTEXT
  5
380
330
1F
100
AcDbEntity
  8
SLD-0
100
AcDbMText
 10
11.2466200909
 20
1.8365128229
 30
0.0
 40
0.625
 41
0.0
 71
     1
 72
     1
  1
A/D CAP
  7
SLDTEXTSTYLE0
 73
     1
 44
1.0
  0
LINE
  5
381
330
1F
100
AcDbEntity
  8
0
  6
Continuous
 62
     7
370
    25
100
AcDbLine
 10
35.3573583576
 20
3.3139080785
 30
0.0
 11
35.3573583576
 21
4.9424935449
 31
0.0
  0
LINE
  5
382
330
1F
100
AcDbEntity
  8
0
  6
Continuous
 62
     7
370
    25
100
AcDbLine
 10
35.3573583576
 20
2.9174935449
 30
0.0
 11
35.3573583576
 21
3.1451039243
 31
0.0
  0
LINE
  5
383
330
1F
100
AcDbEntity
  8
0
  6
Continuous
 62
     7
370
    25
100
AcDbLine
 10
32.5823583576
 20
4.9424935449
 30
0.0
 11
32.5823583576
 21
2.9174935449
 31
0.0
  0
ARC
  5
384
330
1F
100
AcDbEntity
  8
0
  6
Continuous
 62
     7
370
    25
100
AcDbCircle
 10
32.6198583576
 20
4.9424935449
 30
0.0
 40
0.0375000000000014
100
AcDbArc
 50
90.0
 51
180.0
  0
ARC
  5
385
330
1F
100
AcDbEntity
  8
0
  6
Continuous
 62
     7
370
    25
100
AcDbCircle
 10
35.3198583576
 20
4.9424935449
 30
0.0
 40
0.0375000000000014
100
AcDbArc
 50
0.0
 51
90.0
  0
SPLINE
  5
386
330
1F
100
AcDbEntity
  8
0
  6
Continuous
 62
     7
370
    25
100
AcDbSpline
210
0.0
220
0.0
230
1.0
 70
     8
 71
     3
 72
    17
 73
    13
 74
     0
 42
0.00000001
 43
0.00000001
 40
0.0
 40
0.0
 40
0.0
 40
0.0
 40
0.0367829129270449
 40
0.1439469936102854
 40
0.2511849014537199
 40
0.3585983106853021
 40
0.4660155695097958
 40
0.5732581291689363
 40
0.6804203613538337
 40
0.7877217257819839
 40
0.8951646959147045
 40
1.0
 40
1.0
 40
1.0
 40
1.0
 10
35.35729247164952
 20
3.313908078466482
 30
0.0
 10
35.35731051406893
 20
3.314205730758383
 30
0.0
 10
35.35738112163708
 20
3.315370569243177
 30
0.0
 10
35.35690020467851
 20
3.307507240996764
 30
0.0
 10
35.35605285306637
 20
3.291141039885301
 30
0.0
 10
35.35516833458041
 20
3.267227379324166
 30
0.0
 10
35.35468244609137
 20
3.23927525283707
 30
0.0
 10
35.35479522889
 20
3.210264301983773
 30
0.0
 10
35.35546287334554
 20
3.183452695258811
 30
0.0
 10
35.35637798736648
 20
3.162056021024075
 30
0.0
 10
35.3571891200377
 20
3.147681923661057
 30
0.0
 10
35.35729800105247
 20
3.145956191022923
 30
0.0
 10
35.35735177280249
 20
3.1451039243152
 30
0.0
  0
SPLINE
  5
387
330
1F
100
AcDbEntity
  8
0
  6
Continuous
 62
     7
370
    25
100
AcDbSpline
210
0.0
220
0.0
230
1.0
 70
    11
 71
     3
 72
    56
 73
    52
 74
     0
 42
0.00000001
 43
0.00000001
 40
0.0
 40
0.0
 40
0.0
 40
0.0
 40
0.0312499999999999
 40
0.0312499999999999
 40
0.0624999999999998
 40
0.0624999999999998
 40
0.0937499999999996
 40
0.0937499999999996
 40
0.1249999999999995
 40
0.1249999999999995
 40
0.187499999999999
 40
0.187499999999999
 40
0.2499999999999984
 40
0.2499999999999984
 40
0.2812499999999986
 40
0.2812499999999986
 40
0.3124999999999988
 40
0.3124999999999988
 40
0.3437499999999989
 40
0.3437499999999989
 40
0.3749999999999991
 40
0.3749999999999991
 40
0.4062499999999992
 40
0.4062499999999992
 40
0.4374999999999994
 40
0.4374999999999994
 40
0.4687499999999996
 40
0.4687499999999996
 40
0.4999999999999998
 40
0.4999999999999998
 40
0.5625000000000001
 40
0.5625000000000001
 40
0.6250000000000004
 40
0.6250000000000004
 40
0.6562500000000006
 40
0.6562500000000006
 40
0.6875000000000007
 40
0.6875000000000007
 40
0.7187500000000008
 40
0.7187500000000008
 40
0.7500000000000008
 40
0.7500000000000008
 40
0.812500000000001
 40
0.812500000000001
 40
0.8437500000000007
 40
0.8437500000000007
 40
0.8750000000000003
 40
0.8750000000000003
 40
0.9375000000000002
 40
0.9375000000000002
 40
1.0
 40
1.0
 40
1.0
 40
1.0
 10
33.35102354243303
 20
3.22999354491522
 30
0.0
 10
33.35102354243303
 20
3.235610464612692
 30
0.0
 10
33.35052904238803
 20
3.241133258382796
 30
0.0
 10
33.34859360041845
 20
3.251998373678026
 30
0.0
 10
33.34712911939485
 20
3.25739706773102
 30
0.0
 10
33.34331295768994
 20
3.26769010688327
 30
0.0
 10
33.34098021392816
 20
3.272571756907712
 30
0.0
 10
33.33548103303125
 20
3.281810488245372
 30
0.0
 10
33.33228623576847
 20
3.286183743638504
 30
0.0
 10
33.32184613249182
 20
3.29794233966411
 30
0.0
 10
33.31346520667021
 20
3.304274796400555
 30
0.0
 10
33.29551096807747
 20
3.312753964154553
 30
0.0
 10
33.28575186025899
 20
3.314987579881358
 30
0.0
 10
33.27134587869806
 20
3.314996509062731
 30
0.0
 10
33.26648539786401
 20
3.314444639503562
 30
0.0
 10
33.25710873079672
 20
3.312276030298689
 30
0.0
 10
33.25256725776358
 20
3.310671465200095
 30
0.0
 10
33.24377418526205
 20
3.306415688605973
 30
0.0
 10
33.23953721632245
 20
3.303754905921527
 30
0.0
 10
33.23171743610148
 20
3.297603678841539
 30
0.0
 10
33.228083836213
 20
3.294091998080064
 30
0.0
 10
33.2213810708416
 20
3.286161359096474
 30
0.0
 10
33.21841592933035
 20
3.281863635378767
 30
0.0
 10
33.21324024704629
 20
3.272660889193022
 30
0.0
 10
33.21100786129197
 20
3.267694006531833
 30
0.0
 10
33.20743169082861
 20
3.257396149849001
 30
0.0
 10
33.20608648785009
 20
3.252097925726663
 30
0.0
 10
33.20426679633624
 20
3.241205949826989
 30
0.0
 10
33.20380089093277
 20
3.235571720753095
 30
0.0
 10
33.20379590321189
 20
3.218928677792654
 30
0.0
 10
33.2056511103312
 20
3.207744393706806
 30
0.0
 10
33.2127396080285
 20
3.187280429369
 30
0.0
 10
33.21804846887298
 20
3.177791993666334
 30
0.0
 10
33.22796395513085
 20
3.166025543833811
 30
0.0
 10
33.23166003344948
 20
3.162433716672266
 30
0.0
 10
33.23950392051776
 20
3.156253283019007
 30
0.0
 10
33.24365764255123
 20
3.153639075078364
 30
0.0
 10
33.25243912176952
 20
3.149366682834675
 30
0.0
 10
33.25707043774426
 20
3.147724238855963
 30
0.0
 10
33.26641531265928
 20
3.145554386264616
 30
0.0
 10
33.27117788768692
 20
3.144999177783865
 30
0.0
 10
33.28574917557939
 20
3.144982405858633
 30
0.0
 10
33.29537686746971
 20
3.147180919842547
 30
0.0
 10
33.30894766025095
 20
3.153573308259607
 30
0.0
 10
33.3132492090086
 20
3.156180967822988
 30
0.0
 10
33.32140672450591
 20
3.162336829734829
 30
0.0
 10
33.32528461557715
 20
3.165922938054663
 30
0.0
 10
33.33573722275253
 20
3.177679340101391
 30
0.0
 10
33.34139587282827
 20
3.187151232189584
 30
0.0
 10
33.34899562844872
 20
3.207599524981358
 30
0.0
 10
33.35102354243303
 20
3.218759705520275
 30
0.0
 10
33.35102354243303
 20
3.22999354491522
 30
0.0
  0
LINE
  5
388
330
1F
100
AcDbEntity
  8
0
  6
Continuous
 62
     7
370
    25
100
AcDbLine
 10
35.3573583576
 20
2.9174935449
 30
0.0
 11
32.5823583576
 21
2.9174935449
 31
0.0
  0
LINE
  5
389
330
1F
100
AcDbEntity
  8
0
  6
Continuous
 62
     7
370
    25
100
AcDbLine
 10
35.3198583576
 20
4.9799935449
 30
0.0
 11
32.6198583576
 21
4.9799935449
 31
0.0
  0
SPLINE
  5
38A
330
1F
100
AcDbEntity
  8
0
  6
Continuous
 62
     7
370
    25
100
AcDbSpline
210
0.0
220
0.0
230
1.0
 70
     8
 71
     3
 72
    16
 73
    12
 74
     0
 42
0.00000001
 43
0.00000001
 40
0.0
 40
0.0
 40
0.0
 40
0.0
 40
0.0495715766869625
 40
0.1848910475714003
 40
0.3204652357547111
 40
0.4560453677787257
 40
0.5913719093040339
 40
0.7265815408158058
 40
0.8619929343626822
 40
0.9976101416487438
 40
1.0
 40
1.0
 40
1.0
 40
1.0
 10
33.29971300740217
 20
3.309389650090132
 30
0.0
 10
33.29680155767073
 20
3.308544786864269
 30
0.0
 10
33.28594249231971
 20
3.305393633374221
 30
0.0
 10
33.270581289765
 20
3.290670156476972
 30
0.0
 10
33.25640908652191
 20
3.267384665463665
 30
0.0
 10
33.24983618649252
 20
3.239255178308385
 30
0.0
 10
33.25131700043473
 20
3.210343794918731
 30
0.0
 10
33.2606569317754
 20
3.183324801626009
 30
0.0
 10
33.27722456790379
 20
3.162662578343083
 30
0.0
 10
33.29131949571046
 20
3.151058135154428
 30
0.0
 10
33.2995591343587
 20
3.149526551153851
 30
0.0
 10
33.29970181958386
 20
3.149500028824741
 30
0.0
  0
LINE
  5
38B
330
1F
100
AcDbEntity
  8
0
  6
Continuous
 62
     7
370
    25
100
AcDbLine
 10
35.3573583576
 20
4.9424935449
 30
0.0
 11
32.5823583576
 21
4.9424935449
 31
0.0
  0
DIMENSION
  5
38C
330
1F
100
AcDbEntity
  8
SLD-0
100
AcDbDimension
  2
_D_15
 10
29.2014869061
 20
4.9799935449
 30
0.0
 11
29.2014869061
 21
4.5747518312
 31
0.0
 70
   160
  1
<>
 71
     2
 42
-1.0
  3
SLDDIMSTYLE4
100
AcDbAlignedDimension
 13
32.5823583576
 23
2.9174935449
 33
0.0
 14
32.6198583576
 24
4.9799935449
 34
0.0
 50
90.0
100
AcDbRotatedDimension
  0
MTEXT
  5
3A0
330
1F
100
AcDbEntity
  8
SLD-0
100
AcDbMText
 10
32.6237965488
 20
1.9988586723
 30
0.0
 40
0.625
 41
0.0
 71
     1
 72
     1
  1
C CAP
  7
SLDTEXTSTYLE0
 73
     1
 44
1.0
  0
ARC
  5
3A1
330
1F
100
AcDbEntity
  8
0
  6
Continuous
 62
     7
370
    25
100
AcDbCircle
 10
43.8378455473
 20
5.3799935449
 30
0.0
 40
0.0375000000000014
100
AcDbArc
 50
90.0
 51
180.0
  0
ARC
  5
3A2
330
1F
100
AcDbEntity
  8
0
  6
Continuous
 62
     7
370
    25
100
AcDbCircle
 10
46.5378455473
 20
5.3799935449
 30
0.0
 40
0.0375000000000014
100
AcDbArc
 50
0.0
 51
90.0
  0
LINE
  5
3A3
330
1F
100
AcDbEntity
  8
0
  6
Continuous
 62
     7
370
    25
100
AcDbLine
 10
46.5753455473
 20
3.3148831655
 30
0.0
 11
46.5753455473
 21
5.3799935449
 31
0.0
  0
LINE
  5
3A4
330
1F
100
AcDbEntity
  8
0
  6
Continuous
 62
     7
370
    25
100
AcDbLine
 10
46.5753455473
 20
2.9174935449
 30
0.0
 11
46.5753455473
 21
3.1460790114
 31
0.0
  0
LINE
  5
3A5
330
1F
100
AcDbEntity
  8
0
  6
Continuous
 62
     7
370
    25
100
AcDbLine
 10
43.8003455473
 20
5.3799935449
 30
0.0
 11
43.8003455473
 21
2.9174935449
 31
0.0
  0
LINE
  5
3A6
330
1F
100
AcDbEntity
  8
0
  6
Continuous
 62
     7
370
    25
100
AcDbLine
 10
46.5378455473
 20
5.4174935449
 30
0.0
 11
43.8378455473
 21
5.4174935449
 31
0.0
  0
LINE
  5
3A7
330
1F
100
AcDbEntity
  8
0
  6
Continuous
 62
     7
370
    25
100
AcDbLine
 10
43.8003455473
 20
2.9174935449
 30
0.0
 11
46.5753455473
 21
2.9174935449
 31
0.0
  0
SPLINE
  5
3A8
330
1F
100
AcDbEntity
  8
0
  6
Continuous
 62
     7
370
    25
100
AcDbSpline
210
0.0
220
0.0
230
1.0
 70
     8
 71
     3
 72
    17
 73
    13
 74
     0
 42
0.00000001
 43
0.00000001
 40
0.0
 40
0.0
 40
0.0
 40
0.0
 40
0.0367829129271323
 40
0.1439469936103618
 40
0.2511849014538181
 40
0.3585983106853542
 40
0.4660155695098263
 40
0.5732581291689431
 40
0.6804203613538212
 40
0.7877217257819449
 40
0.8951646959146848
 40
1.0
 40
1.0
 40
1.0
 40
1.0
 10
46.57527966134377
 20
3.146079011363963
 30
0.0
 10
46.57529770376318
 20
3.145781359072066
 30
0.0
 10
46.57536831133134
 20
3.144616520587285
 30
0.0
 10
46.57488739437274
 20
3.152479848833657
 30
0.0
 10
46.57404004276061
 20
3.168846049945147
 30
0.0
 10
46.57315552427467
 20
3.192759710506278
 30
0.0
 10
46.5726696357856
 20
3.220711836993369
 30
0.0
 10
46.57278241858423
 20
3.249722787846665
 30
0.0
 10
46.57345006303976
 20
3.276534394571622
 30
0.0
 10
46.57436517706071
 20
3.297931068806363
 30
0.0
 10
46.57517630973193
 20
3.312305166169365
 30
0.0
 10
46.57528519074671
 20
3.314030898807505
 30
0.0
 10
46.57533896249673
 20
3.31488316551523
 30
0.0
  0
SPLINE
  5
3A9
330
1F
100
AcDbEntity
  8
0
  6
Continuous
 62
     7
370
    25
100
AcDbSpline
210
0.0
220
0.0
230
1.0
 70
    11
 71
     3
 72
    56
 73
    52
 74
     0
 42
0.00000001
 43
0.00000001
 40
0.0
 40
0.0
 40
0.0
 40
0.0
 40
0.0312500000000001
 40
0.0312500000000001
 40
0.0625000000000001
 40
0.0625000000000001
 40
0.0937500000000002
 40
0.0937500000000002
 40
0.1250000000000002
 40
0.1250000000000002
 40
0.1875000000000006
 40
0.1875000000000006
 40
0.2500000000000008
 40
0.2500000000000008
 40
0.2812500000000007
 40
0.2812500000000007
 40
0.3125000000000006
 40
0.3125000000000006
 40
0.3437500000000005
 40
0.3437500000000005
 40
0.3750000000000004
 40
0.3750000000000004
 40
0.4062500000000003
 40
0.4062500000000003
 40
0.4375000000000002
 40
0.4375000000000002
 40
0.4687500000000001
 40
0.4687500000000001
 40
0.5
 40
0.5
 40
0.5624999999999998
 40
0.5624999999999998
 40
0.6249999999999996
 40
0.6249999999999996
 40
0.6562499999999998
 40
0.6562499999999998
 40
0.6874999999999998
 40
0.6874999999999998
 40
0.7187499999999999
 40
0.7187499999999999
 40
0.7499999999999999
 40
0.7499999999999999
 40
0.8124999999999997
 40
0.8124999999999997
 40
0.8437499999999997
 40
0.8437499999999997
 40
0.8749999999999998
 40
0.8749999999999998
 40
0.9374999999999999
 40
0.9374999999999999
 40
1.0
 40
1.0
 40
1.0
 40
1.0
 10
44.56901073212728
 20
3.229993544915218
 30
0.0
 10
44.56901073212728
 20
3.224376625217748
 30
0.0
 10
44.56851623208228
 20
3.218853831447646
 30
0.0
 10
44.56658079011271
 20
3.207988716152419
 30
0.0
 10
44.56511630908911
 20
3.202590022099428
 30
0.0
 10
44.56130014738421
 20
3.192296982947175
 30
0.0
 10
44.55896740362243
 20
3.18741533292273
 30
0.0
 10
44.55346822272551
 20
3.178176601585067
 30
0.0
 10
44.55027342546273
 20
3.173803346191935
 30
0.0
 10
44.53983332218608
 20
3.162044750166332
 30
0.0
 10
44.53145239636448
 20
3.155712293429887
 30
0.0
 10
44.51349815777174
 20
3.147233125675888
 30
0.0
 10
44.50373904995325
 20
3.144999509949081
 30
0.0
 10
44.48933306839232
 20
3.144990580767707
 30
0.0
 10
44.48447258755827
 20
3.145542450326875
 30
0.0
 10
44.47509592049099
 20
3.147711059531749
 30
0.0
 10
44.47055444745785
 20
3.149315624630341
 30
0.0
 10
44.46176137495632
 20
3.153571401224462
 30
0.0
 10
44.45752440601671
 20
3.15623218390891
 30
0.0
 10
44.44970462579573
 20
3.162383410988899
 30
0.0
 10
44.44607102590727
 20
3.165895091750375
 30
0.0
 10
44.43936826053586
 20
3.173825730733966
 30
0.0
 10
44.4364031190246
 20
3.178123454451674
 30
0.0
 10
44.43122743674055
 20
3.187326200637422
 30
0.0
 10
44.42899505098622
 20
3.192293083298613
 30
0.0
 10
44.42541888052286
 20
3.202590939981444
 30
0.0
 10
44.42407367754435
 20
3.207889164103781
 30
0.0
 10
44.4222539860305
 20
3.218781140003454
 30
0.0
 10
44.42178808062702
 20
3.22441536907735
 30
0.0
 10
44.42178309290615
 20
3.241058412037794
 30
0.0
 10
44.42363830002547
 20
3.252242696123644
 30
0.0
 10
44.43072679772276
 20
3.272706660461443
 30
0.0
 10
44.43603565856724
 20
3.282195096164109
 30
0.0
 10
44.44595114482512
 20
3.293961545996633
 30
0.0
 10
44.44964722314375
 20
3.297553373158176
 30
0.0
 10
44.45749111021202
 20
3.303733806811433
 30
0.0
 10
44.4616448322455
 20
3.306348014752076
 30
0.0
 10
44.47042631146379
 20
3.310620406995764
 30
0.0
 10
44.47505762743852
 20
3.312262850974475
 30
0.0
 10
44.48440250235354
 20
3.314432703565822
 30
0.0
 10
44.48916507738117
 20
3.314987912046574
 30
0.0
 10
44.50373636527365
 20
3.315004683971805
 30
0.0
 10
44.51336405716397
 20
3.31280616998789
 30
0.0
 10
44.52693484994521
 20
3.30641378157083
 30
0.0
 10
44.53123639870286
 20
3.30380612200745
 30
0.0
 10
44.53939391420018
 20
3.29765026009561
 30
0.0
 10
44.54327180527141
 20
3.294064151775777
 30
0.0
 10
44.55372441244679
 20
3.282307749729048
 30
0.0
 10
44.55938306252253
 20
3.272835857640855
 30
0.0
 10
44.56698281814298
 20
3.252387564849078
 30
0.0
 10
44.56901073212728
 20
3.241227384310159
 30
0.0
 10
44.56901073212728
 20
3.229993544915218
 30
0.0
  0
SPLINE
  5
3AA
330
1F
100
AcDbEntity
  8
0
  6
Continuous
 62
     7
370
    25
100
AcDbSpline
210
0.0
220
0.0
230
1.0
 70
     8
 71
     3
 72
    16
 73
    12
 74
     0
 42
0.00000001
 43
0.00000001
 40
0.0
 40
0.0
 40
0.0
 40
0.0
 40
0.0495715766869307
 40
0.1848910475713679
 40
0.3204652357546111
 40
0.4560453677786677
 40
0.5913719093039655
 40
0.7265815408155625
 40
0.8619929343625206
 40
0.9976101416485401
 40
1.0
 40
1.0
 40
1.0
 40
1.0
 10
44.51770019709639
 20
3.150597439740283
 30
0.0
 10
44.51478874736495
 20
3.151442302966144
 30
0.0
 10
44.50392968201393
 20
3.154593456456192
 30
0.0
 10
44.48856847945922
 20
3.169316933353429
 30
0.0
 10
44.47439627621613
 20
3.192602424366751
 30
0.0
 10
44.46782337618674
 20
3.220731911522031
 30
0.0
 10
44.46930419012899
 20
3.249643294911678
 30
0.0
 10
44.47864412146961
 20
3.276662288204407
 30
0.0
 10
44.49521175759802
 20
3.297324511487336
 30
0.0
 10
44.5093066854047
 20
3.30892895467599
 30
0.0
 10
44.51754632405294
 20
3.310460538676571
 30
0.0
 10
44.51768900927812
 20
3.310487061005684
 30
0.0
  0
LINE
  5
3AB
330
1F
100
AcDbEntity
  8
0
  6
Continuous
 62
     7
370
    25
100
AcDbLine
 10
46.5753455473
 20
5.3799935449
 30
0.0
 11
43.8003455473
 21
5.3799935449
 31
0.0
  0
DIMENSION
  5
3AC
330
1F
100
AcDbEntity
  8
SLD-0
100
AcDbDimension
  2
_D_16
 10
41.5249112052
 20
2.9174935449
 30
0.0
 11
41.5249112052
 21
4.1674935449
 31
0.0
 70
   160
  1
<>
 71
     2
 42
-1.0
  3
SLDDIMSTYLE6
100
AcDbAlignedDimension
 13
44.0753455473
 23
5.4174935449
 33
0.0
 14
43.8003455473
 24
2.9174935449
 34
0.0
 50
90.0
100
AcDbRotatedDimension
  0
MTEXT
  5
3C1
330
1F
100
AcDbEntity
  8
SLD-0
100
AcDbMText
 10
43.9973711358
 20
1.8687038303
 30
0.0
 40
0.625
 41
0.0
 71
     1
 72
     1
  1
F CAP
  7
SLDTEXTSTYLE0
 73
     1
 44
1.0
  0
ENDSEC
  0
SECTION
  2
OBJECTS
  0
DICTIONARY
  5
C
330
0
100
AcDbDictionary
281
     1
  3
ACAD_GROUP
350
D
  3
ACAD_LAYOUT
350
1A
  3
ACAD_MLINESTYLE
350
17
  3
ACAD_PLOTSETTINGS
350
19
  3
ACAD_PLOTSTYLENAME
350
E
  3
ACAD_SCALELIST
350
47
  3
DWGPROPS
350
3C2
  0
DICTIONARY
  5
D
102
{ACAD_REACTORS
330
C
102
}
330
C
100
AcDbDictionary
281
     1
  0
DICTIONARY
  5
1A
102
{ACAD_REACTORS
330
C
102
}
330
C
100
AcDbDictionary
281
     1
  3
Layout1
350
1E
  3
Layout2
350
26
  3
Model
350
22
  0
DICTIONARY
  5
17
102
{ACAD_REACTORS
330
C
102
}
330
C
100
AcDbDictionary
281
     1
  3
Standard
350
18
  0
DICTIONARY
  5
19
102
{ACAD_REACTORS
330
C
102
}
330
C
100
AcDbDictionary
281
     1
  0
ACDBDICTIONARYWDFLT
  5
E
102
{ACAD_REACTORS
330
C
102
}
330
C
100
AcDbDictionary
281
     1
  3
Normal
350
F
100
AcDbDictionaryWithDefault
340
F
  0
DICTIONARY
  5
47
102
{ACAD_REACTORS
330
C
102
}
330
C
100
AcDbDictionary
281
     1
  3
A0
350
48
  3
A1
350
49
  3
A2
350
4A
  3
A3
350
4B
  3
A4
350
4C
  3
A5
350
4D
  3
A6
350
4E
  3
A7
350
4F
  3
A8
350
50
  3
A9
350
51
  3
B1
350
52
  3
B2
350
53
  3
B3
350
54
  3
B4
350
55
  3
B5
350
56
  3
B6
350
57
  3
B7
350
58
  0
XRECORD
  5
3C2
102
{ACAD_REACTORS
330
C
102
}
330
C
100
AcDbXrecord
280
     1
  1
DWGPROPS COOKIE
  2

  3

  4

  6

  7

  8
gurisher.rai
  9

300
=
301
=
302
=
303
=
304
=
305
=
306
=
307
=
308
=
309
=
 40
0.0
 41
2460476.625835452
 42
2460476.625836447
  1

 90
        0
  0
LAYOUT
  5
1E
102
{ACAD_REACTORS
330
1A
102
}
330
1A
100
AcDbPlotSettings
  1

  2
none_device
  4

  6

 40
0.0
 41
0.0
 42
0.0
 43
0.0
 44
0.0
 45
0.0
 46
0.0
 47
0.0
 48
0.0
 49
0.0
140
0.0
141
0.0
142
1.0
143
1.0
 70
   688
 72
     0
 73
     0
 74
     5
  7

 75
    16
147
1.0
148
0.0
149
0.0
100
AcDbLayout
  1
Layout1
 70
     1
 71
     1
 10
0.0
 20
0.0
 11
12.0
 21
9.0
 12
0.0
 22
0.0
 32
0.0
 14
1.0000000000E+20
 24
1.0000000000E+20
 34
1.0000000000E+20
 15
-1.0000000000E+20
 25
-1.0000000000E+20
 35
-1.0000000000E+20
146
0.0
 13
0.0
 23
0.0
 33
0.0
 16
1.0
 26
0.0
 36
0.0
 17
0.0
 27
1.0
 37
0.0
 76
     0
330
1B
  0
LAYOUT
  5
26
102
{ACAD_REACTORS
330
1A
102
}
330
1A
100
AcDbPlotSettings
  1

  2
none_device
  4

  6

 40
0.0
 41
0.0
 42
0.0
 43
0.0
 44
0.0
 45
0.0
 46
0.0
 47
0.0
 48
0.0
 49
0.0
140
0.0
141
0.0
142
1.0
143
1.0
 70
   688
 72
     0
 73
     0
 74
     5
  7

 75
    16
147
1.0
148
0.0
149
0.0
100
AcDbLayout
  1
Layout2
 70
     1
 71
     2
 10
0.0
 20
0.0
 11
0.0
 21
0.0
 12
0.0
 22
0.0
 32
0.0
 14
0.0
 24
0.0
 34
0.0
 15
0.0
 25
0.0
 35
0.0
146
0.0
 13
0.0
 23
0.0
 33
0.0
 16
1.0
 26
0.0
 36
0.0
 17
0.0
 27
1.0
 37
0.0
 76
     0
330
23
  0
LAYOUT
  5
22
102
{ACAD_REACTORS
330
1A
102
}
330
1A
100
AcDbPlotSettings
  1

  2
none_device
  4
Letter_(8.50_x_11.00_Inches)
  6

 40
6.35
 41
6.35
 42
6.35000508
 43
6.35000508
 44
215.9
 45
279.4
 46
0.0
 47
0.0
 48
0.0
 49
0.0
140
0.0
141
0.0
142
1.0
143
1.0
 70
  1712
 72
     0
 73
     0
 74
     0
  7

 75
     0
147
1.0
148
0.0
149
0.0
100
AcDbLayout
  1
Model
 70
     1
 71
     0
 10
0.0
 20
0.0
 11
55.0
 21
42.5
 12
0.0
 22
0.0
 32
0.0
 14
0.0
 24
0.0
 34
0.0
 15
55.0
 25
42.5
 35
0.0
146
0.0
 13
0.0
 23
0.0
 33
0.0
 16
1.0
 26
0.0
 36
0.0
 17
0.0
 27
1.0
 37
0.0
 76
     0
330
1F
331
29
  0
MLINESTYLE
  5
18
102
{ACAD_REACTORS
330
17
102
}
330
17
100
AcDbMlineStyle
  2
Standard
 70
     0
  3

 62
   256
 51
90.0
 52
90.0
 71
     2
 49
0.5
 62
   256
  6
BYLAYER
 49
-0.5
 62
   256
  6
BYLAYER
  0
ACDBPLACEHOLDER
  5
F
102
{ACAD_REACTORS
330
E
102
}
330
E
  0
SCALE
  5
48
102
{ACAD_REACTORS
330
47
102
}
330
47
100
AcDbScale
 70
     0
300
1:1
140
1.0
141
1.0
290
     1
  0
SCALE
  5
49
102
{ACAD_REACTORS
330
47
102
}
330
47
100
AcDbScale
 70
     0
300
1/128" = 1'-0"
140
0.0078125
141
12.0
290
     0
  0
SCALE
  5
4A
102
{ACAD_REACTORS
330
47
102
}
330
47
100
AcDbScale
 70
     0
300
1/64" = 1'-0"
140
0.015625
141
12.0
290
     0
  0
SCALE
  5
4B
102
{ACAD_REACTORS
330
47
102
}
330
47
100
AcDbScale
 70
     0
300
1/32" = 1'-0"
140
0.03125
141
12.0
290
     0
  0
SCALE
  5
4C
102
{ACAD_REACTORS
330
47
102
}
330
47
100
AcDbScale
 70
     0
300
1/16" = 1'-0"
140
0.0625
141
12.0
290
     0
  0
SCALE
  5
4D
102
{ACAD_REACTORS
330
47
102
}
330
47
100
AcDbScale
 70
     0
300
3/32" = 1'-0"
140
0.09375
141
12.0
290
     0
  0
SCALE
  5
4E
102
{ACAD_REACTORS
330
47
102
}
330
47
100
AcDbScale
 70
     0
300
1/8" = 1'-0"
140
0.125
141
12.0
290
     0
  0
SCALE
  5
4F
102
{ACAD_REACTORS
330
47
102
}
330
47
100
AcDbScale
 70
     0
300
3/16" = 1'-0"
140
0.1875
141
12.0
290
     0
  0
SCALE
  5
50
102
{ACAD_REACTORS
330
47
102
}
330
47
100
AcDbScale
 70
     0
300
1/4" = 1'-0"
140
0.25
141
12.0
290
     0
  0
SCALE
  5
51
102
{ACAD_REACTORS
330
47
102
}
330
47
100
AcDbScale
 70
     0
300
3/8" = 1'-0"
140
0.375
141
12.0
290
     0
  0
SCALE
  5
52
102
{ACAD_REACTORS
330
47
102
}
330
47
100
AcDbScale
 70
     0
300
1/2" = 1'-0"
140
0.5
141
12.0
290
     0
  0
SCALE
  5
53
102
{ACAD_REACTORS
330
47
102
}
330
47
100
AcDbScale
 70
     0
300
3/4" = 1'-0"
140
0.75
141
12.0
290
     0
  0
SCALE
  5
54
102
{ACAD_REACTORS
330
47
102
}
330
47
100
AcDbScale
 70
     0
300
1" = 1'-0"
140
1.0
141
12.0
290
     0
  0
SCALE
  5
55
102
{ACAD_REACTORS
330
47
102
}
330
47
100
AcDbScale
 70
     0
300
1-1/2" = 1'-0"
140
1.5
141
12.0
290
     0
  0
SCALE
  5
56
102
{ACAD_REACTORS
330
47
102
}
330
47
100
AcDbScale
 70
     0
300
3" = 1'-0"
140
3.0
141
12.0
290
     0
  0
SCALE
  5
57
102
{ACAD_REACTORS
330
47
102
}
330
47
100
AcDbScale
 70
     0
300
6" = 1'-0"
140
6.0
141
12.0
290
     0
  0
SCALE
  5
58
102
{ACAD_REACTORS
330
47
102
}
330
47
100
AcDbScale
 70
     0
300
1'-0" = 1'-0"
140
12.0
141
12.0
290
     0
  0
ENDSEC
  0
EOF
