  0
SECTION
  2
HEADER
  9
$ACADVER
  1
AC1015
  9
$ACADMAINTVER
 70
     6
  9
$DWGCODEPAGE
  3
ANSI_1252
  9
$INSBASE
 10
0.0
 20
0.0
 30
0.0
  9
$EXTMIN
 10
0.0
 20
0.0
 30
0.0
  9
$EXTMAX
 10
33.0
 20
25.5
 30
0.0
  9
$LIMMIN
 10
0.0
 20
0.0
  9
$LIMMAX
 10
33.0
 20
25.5
  9
$ORTHOMODE
 70
     0
  9
$REGENMODE
 70
     1
  9
$FILLMODE
 70
     1
  9
$QTEXTMODE
 70
     0
  9
$MIRRTEXT
 70
     1
  9
$LTSCALE
 40
3.0
  9
$ATTMODE
 70
     1
  9
$TEXTSIZE
 40
0.375
  9
$TRACEWID
 40
0.05
  9
$TEXTSTYLE
  7
Standard
  9
$CLAYER
  8
0
  9
$CELTYPE
  6
ByLayer
  9
$CECOLOR
 62
   256
  9
$CELTSCALE
 40
1.0
  9
$DISPSILH
 70
     0
  9
$DIMSCALE
 40
1.0
  9
$DIMASZ
 40
0.39
  9
$DIMEXO
 40
0.15
  9
$DIMDLI
 40
0.38
  9
$DIMRND
 40
0.0
  9
$DIMDLE
 40
0.0
  9
$DIMEXE
 40
0.375
  9
$DIMTP
 40
0.0
  9
$DIMTM
 40
0.0
  9
$DIMTXT
 40
0.375
  9
$DIMCEN
 40
0.09
  9
$DIMTSZ
 40
0.0
  9
$DIMTOL
 70
     0
  9
$DIMLIM
 70
     0
  9
$DIMTIH
 70
     1
  9
$DIMTOH
 70
     1
  9
$DIMSE1
 70
     0
  9
$DIMSE2
 70
     0
  9
$DIMTAD
 70
     0
  9
$DIMZIN
 70
     1
  9
$DIMBLK
  1

  9
$DIMASO
 70
     1
  9
$DIMSHO
 70
     1
  9
$DIMPOST
  1

  9
$DIMAPOST
  1

  9
$DIMALT
 70
     0
  9
$DIMALTD
 70
     2
  9
$DIMALTF
 40
25.4
  9
$DIMLFAC
 40
1.0
  9
$DIMTOFL
 70
     0
  9
$DIMTVP
 40
0.0
  9
$DIMTIX
 70
     0
  9
$DIMSOXD
 70
     0
  9
$DIMSAH
 70
     0
  9
$DIMBLK1
  1

  9
$DIMBLK2
  1

  9
$DIMSTYLE
  2
Standard
  9
$DIMCLRD
 70
     0
  9
$DIMCLRE
 70
     0
  9
$DIMCLRT
 70
     0
  9
$DIMTFAC
 40
1.0
  9
$DIMGAP
 40
0.18
  9
$DIMJUST
 70
     0
  9
$DIMSD1
 70
     0
  9
$DIMSD2
 70
     0
  9
$DIMTOLJ
 70
     1
  9
$DIMTZIN
 70
     1
  9
$DIMALTZ
 70
     0
  9
$DIMALTTZ
 70
     0
  9
$DIMUPT
 70
     0
  9
$DIMDEC
 70
     0
  9
$DIMTDEC
 70
     0
  9
$DIMALTU
 70
     2
  9
$DIMALTTD
 70
     2
  9
$DIMTXSTY
  7
Standard
  9
$DIMAUNIT
 70
     0
  9
$DIMADEC
 70
     0
  9
$DIMALTRND
 40
0.0
  9
$DIMAZIN
 70
     0
  9
$DIMDSEP
 70
    46
  9
$DIMATFIT
 70
     3
  9
$DIMFRAC
 70
     0
  9
$DIMLDRBLK
  1

  9
$DIMLUNIT
 70
     2
  9
$DIMLWD
 70
    -2
  9
$DIMLWE
 70
    -2
  9
$DIMTMOVE
 70
     0
  9
$LUNITS
 70
     2
  9
$LUPREC
 70
     6
  9
$SKETCHINC
 40
0.1
  9
$FILLETRAD
 40
0.0
  9
$AUNITS
 70
     0
  9
$AUPREC
 70
     2
  9
$MENU
  1
.
  9
$ELEVATION
 40
0.0
  9
$PELEVATION
 40
0.0
  9
$THICKNESS
 40
0.0
  9
$LIMCHECK
 70
     0
  9
$CHAMFERA
 40
0.0
  9
$CHAMFERB
 40
0.0
  9
$CHAMFERC
 40
0.0
  9
$CHAMFERD
 40
0.0
  9
$SKPOLY
 70
     0
  9
$TDCREATE
 40
2460521.970467767
  9
$TDUCREATE
 40
2460522.262134433
  9
$TDUPDATE
 40
2460521.970469167
  9
$TDUUPDATE
 40
2460522.262135834
  9
$TDINDWG
 40
0.0000000116
  9
$TDUSRTIMER
 40
0.0000000116
  9
$USRTIMER
 70
     1
  9
$ANGBASE
 50
0.0
  9
$ANGDIR
 70
     0
  9
$PDMODE
 70
     0
  9
$PDSIZE
 40
-1.0
  9
$PLINEWID
 40
0.0
  9
$SPLFRAME
 70
     0
  9
$SPLINETYPE
 70
     6
  9
$SPLINESEGS
 70
     8
  9
$HANDSEED
  5
219
  9
$SURFTAB1
 70
     6
  9
$SURFTAB2
 70
     6
  9
$SURFTYPE
 70
     6
  9
$SURFU
 70
     6
  9
$SURFV
 70
     6
  9
$UCSBASE
  2

  9
$UCSNAME
  2

  9
$UCSORG
 10
0.0
 20
0.0
 30
0.0
  9
$UCSXDIR
 10
1.0
 20
0.0
 30
0.0
  9
$UCSYDIR
 10
0.0
 20
1.0
 30
0.0
  9
$UCSORTHOREF
  2

  9
$UCSORTHOVIEW
 70
     0
  9
$UCSORGTOP
 10
0.0
 20
0.0
 30
0.0
  9
$UCSORGBOTTOM
 10
0.0
 20
0.0
 30
0.0
  9
$UCSORGLEFT
 10
0.0
 20
0.0
 30
0.0
  9
$UCSORGRIGHT
 10
0.0
 20
0.0
 30
0.0
  9
$UCSORGFRONT
 10
0.0
 20
0.0
 30
0.0
  9
$UCSORGBACK
 10
0.0
 20
0.0
 30
0.0
  9
$PUCSBASE
  2

  9
$PUCSNAME
  2

  9
$PUCSORG
 10
0.0
 20
0.0
 30
0.0
  9
$PUCSXDIR
 10
1.0
 20
0.0
 30
0.0
  9
$PUCSYDIR
 10
0.0
 20
1.0
 30
0.0
  9
$PUCSORTHOREF
  2

  9
$PUCSORTHOVIEW
 70
     0
  9
$PUCSORGTOP
 10
0.0
 20
0.0
 30
0.0
  9
$PUCSORGBOTTOM
 10
0.0
 20
0.0
 30
0.0
  9
$PUCSORGLEFT
 10
0.0
 20
0.0
 30
0.0
  9
$PUCSORGRIGHT
 10
0.0
 20
0.0
 30
0.0
  9
$PUCSORGFRONT
 10
0.0
 20
0.0
 30
0.0
  9
$PUCSORGBACK
 10
0.0
 20
0.0
 30
0.0
  9
$USERI1
 70
     0
  9
$USERI2
 70
     0
  9
$USERI3
 70
     0
  9
$USERI4
 70
     0
  9
$USERI5
 70
     0
  9
$USERR1
 40
0.0
  9
$USERR2
 40
0.0
  9
$USERR3
 40
0.0
  9
$USERR4
 40
0.0
  9
$USERR5
 40
0.0
  9
$WORLDVIEW
 70
     1
  9
$SHADEDGE
 70
     3
  9
$SHADEDIF
 70
    70
  9
$TILEMODE
 70
     1
  9
$MAXACTVP
 70
    64
  9
$PINSBASE
 10
0.0
 20
0.0
 30
0.0
  9
$PLIMCHECK
 70
     0
  9
$PEXTMIN
 10
1.0000000000E+20
 20
1.0000000000E+20
 30
1.0000000000E+20
  9
$PEXTMAX
 10
-1.0000000000E+20
 20
-1.0000000000E+20
 30
-1.0000000000E+20
  9
$PLIMMIN
 10
0.0
 20
0.0
  9
$PLIMMAX
 10
12.0
 20
9.0
  9
$UNITMODE
 70
     0
  9
$VISRETAIN
 70
     1
  9
$PLINEGEN
 70
     0
  9
$PSLTSCALE
 70
     1
  9
$TREEDEPTH
 70
  3020
  9
$CMLSTYLE
  2
Standard
  9
$CMLJUST
 70
     0
  9
$CMLSCALE
 40
1.0
  9
$PROXYGRAPHICS
 70
     1
  9
$MEASUREMENT
 70
     0
  9
$CELWEIGHT
370
    -1
  9
$ENDCAPS
280
     0
  9
$JOINSTYLE
280
     0
  9
$LWDISPLAY
290
     1
  9
$INSUNITS
 70
     1
  9
$HYPERLINKBASE
  1

  9
$STYLESHEET
  1

  9
$XEDIT
290
     1
  9
$CEPSNTYPE
380
     0
  9
$PSTYLEMODE
290
     1
  9
$FINGERPRINTGUID
  2
{50b84767-0461-42c9-8145-90d4715ae599}
  9
$VERSIONGUID
  2
{FAEB1C32-E019-11D5-929B-00C0DF256EC4}
  9
$EXTNAMES
290
     1
  9
$PSVPSCALE
 40
0.0
  9
$OLESTARTUP
290
     0
  0
ENDSEC
  0
SECTION
  2
CLASSES
  0
CLASS
  1
ACDBDICTIONARYWDFLT
  2
AcDbDictionaryWithDefault
  3
ObjectDBX Classes
 90
        0
280
     0
281
     0
  0
CLASS
  1
VISUALSTYLE
  2
AcDbVisualStyle
  3
ObjectDBX Classes
 90
     4095
280
     0
281
     0
  0
CLASS
  1
MATERIAL
  2
AcDbMaterial
  3
ObjectDBX Classes
 90
     1153
280
     0
281
     0
  0
CLASS
  1
SCALE
  2
AcDbScale
  3
ObjectDBX Classes
 90
     1153
280
     0
281
     0
  0
CLASS
  1
TABLESTYLE
  2
AcDbTableStyle
  3
ObjectDBX Classes
 90
     4095
280
     0
281
     0
  0
CLASS
  1
MLEADERSTYLE
  2
AcDbMLeaderStyle
  3
ACDB_MLEADERSTYLE_CLASS
 90
     4095
280
     0
281
     0
  0
CLASS
  1
SUN
  2
AcDbSun
  3
SCENEOE
 90
     1153
280
     0
281
     0
  0
CLASS
  1
ACDBPLACEHOLDER
  2
AcDbPlaceHolder
  3
ObjectDBX Classes
 90
        0
280
     0
281
     0
  0
CLASS
  1
LAYOUT
  2
AcDbLayout
  3
ObjectDBX Classes
 90
        0
280
     0
281
     0
  0
ENDSEC
  0
SECTION
  2
TABLES
  0
TABLE
  2
VPORT
  5
8
330
0
100
AcDbSymbolTable
 70
     1
  0
VPORT
  5
29
330
8
100
AcDbSymbolTableRecord
100
AcDbViewportTableRecord
  2
*Active
 70
     0
 10
0.0
 20
0.0
 11
1.0
 21
1.0
 12
16.5
 22
12.75
 13
0.0
 23
0.0
 14
0.5
 24
0.5
 15
0.5
 25
0.5
 16
0.0
 26
0.0
 36
1.0
 17
0.0
 27
0.0
 37
0.0
 40
25.5
 41
1.2941176471
 42
50.0
 43
0.0
 44
0.0
 50
0.0
 51
0.0
 71
     0
 72
  2000
 73
     1
 74
     3
 75
     0
 76
     0
 77
     0
 78
     0
281
     0
 65
     1
110
0.0
120
0.0
130
0.0
111
1.0
121
0.0
131
0.0
112
0.0
122
1.0
132
0.0
 79
     0
146
0.0
  0
ENDTAB
  0
TABLE
  2
LTYPE
  5
5
330
0
100
AcDbSymbolTable
 70
     6
  0
LTYPE
  5
14
330
5
100
AcDbSymbolTableRecord
100
AcDbLinetypeTableRecord
  2
ByBlock
 70
     0
  3

 72
    65
 73
     0
 40
0.0
  0
LTYPE
  5
15
330
5
100
AcDbSymbolTableRecord
100
AcDbLinetypeTableRecord
  2
ByLayer
 70
     0
  3

 72
    65
 73
     0
 40
0.0
  0
LTYPE
  5
16
330
5
100
AcDbSymbolTableRecord
100
AcDbLinetypeTableRecord
  2
Continuous
 70
     0
  3
Solid line
 72
    65
 73
     0
 40
0.0
  0
LTYPE
  5
5E
330
5
100
AcDbSymbolTableRecord
100
AcDbLinetypeTableRecord
  2
HIDDEN
 70
     0
  3
Hidden __ __ __ __ __ __ __ __ __ __ __ __ __ __
 72
    65
 73
     2
 40
0.075
 49
0.05
 74
     0
 49
-0.025
 74
     0
  0
LTYPE
  5
5F
330
5
100
AcDbSymbolTableRecord
100
AcDbLinetypeTableRecord
  2
PHANTOM
 70
     0
  3
Phantom ______  __  __  ______  __  __  ______
 72
    65
 73
     6
 40
0.5
 49
0.25
 74
     0
 49
-0.05
 74
     0
 49
0.05
 74
     0
 49
-0.05
 74
     0
 49
0.05
 74
     0
 49
-0.05
 74
     0
  0
LTYPE
  5
60
330
5
100
AcDbSymbolTableRecord
100
AcDbLinetypeTableRecord
  2
CENTER
 70
     0
  3
Center ____ _ ____ _ ____ _ ____ _ ____ _ ____
 72
    65
 73
     4
 40
0.4
 49
0.25
 74
     0
 49
-0.05
 74
     0
 49
0.05
 74
     0
 49
-0.05
 74
     0
  0
LTYPE
  5
61
330
5
100
AcDbSymbolTableRecord
100
AcDbLinetypeTableRecord
  2
CENTERX2
 70
     0
  3
Center (2x) ________  __  ________  __  _____
 72
    65
 73
     4
 40
0.8
 49
0.5
 74
     0
 49
-0.1
 74
     0
 49
0.1
 74
     0
 49
-0.1
 74
     0
  0
LTYPE
  5
62
330
5
100
AcDbSymbolTableRecord
100
AcDbLinetypeTableRecord
  2
DOT2
 70
     0
  3
Dot (.5x) ........................................
 72
    65
 73
     2
 40
0.025
 49
0.0
 74
     0
 49
-0.025
 74
     0
  0
ENDTAB
  0
TABLE
  2
LAYER
  5
2
330
0
100
AcDbSymbolTable
 70
    12
  0
LAYER
  5
10
330
2
100
AcDbSymbolTableRecord
100
AcDbLayerTableRecord
  2
0
 70
     0
 62
     7
  6
Continuous
370
    -3
390
F
  0
LAYER
  5
63
330
2
100
AcDbSymbolTableRecord
100
AcDbLayerTableRecord
  2
SLD-0
 70
     0
 62
     7
  6
Continuous
370
    -3
390
F
  0
LAYER
  5
64
330
2
100
AcDbSymbolTableRecord
100
AcDbLayerTableRecord
  2
DIM
 70
     0
 62
     7
  6
Continuous
370
    -3
390
F
  0
LAYER
  5
65
330
2
100
AcDbSymbolTableRecord
100
AcDbLayerTableRecord
  2
CEN
 70
     0
 62
     1
  6
CENTER
370
    -3
390
F
  0
LAYER
  5
66
330
2
100
AcDbSymbolTableRecord
100
AcDbLayerTableRecord
  2
HAT
 70
     0
 62
     4
  6
Continuous
370
    -3
390
F
  0
LAYER
  5
67
330
2
100
AcDbSymbolTableRecord
100
AcDbLayerTableRecord
  2
OBJ
 70
     0
 62
     5
  6
Continuous
370
    -3
390
F
  0
LAYER
  5
68
330
2
100
AcDbSymbolTableRecord
100
AcDbLayerTableRecord
  2
SLD-DEFPOINTS
 70
     0
 62
     7
  6
Continuous
370
    -3
390
F
  0
LAYER
  5
69
330
2
100
AcDbSymbolTableRecord
100
AcDbLayerTableRecord
  2
HID
 70
     0
 62
     4
  6
HIDDEN
370
    -3
390
F
  0
LAYER
  5
6A
330
2
100
AcDbSymbolTableRecord
100
AcDbLayerTableRecord
  2
NOTE
 70
     0
 62
     7
  6
Continuous
370
    -3
390
F
  0
LAYER
  5
6B
330
2
100
AcDbSymbolTableRecord
100
AcDbLayerTableRecord
  2
VP
 70
     0
 62
    -5
  6
Continuous
290
     0
370
    -3
390
F
  0
LAYER
  5
6C
330
2
100
AcDbSymbolTableRecord
100
AcDbLayerTableRecord
  2
TITLE
 70
     0
 62
     7
  6
Continuous
370
    -3
390
F
  0
LAYER
  5
6D
330
2
100
AcDbSymbolTableRecord
100
AcDbLayerTableRecord
  2
THICK_TITLE
 70
     0
 62
     7
  6
Continuous
370
   100
390
F
  0
ENDTAB
  0
TABLE
  2
STYLE
  5
3
330
0
100
AcDbSymbolTable
 70
     3
  0
STYLE
  5
11
330
3
100
AcDbSymbolTableRecord
100
AcDbTextStyleTableRecord
  2
Standard
 70
     0
 40
0.0
 41
1.0
 50
0.0
 71
     0
 42
0.375
  3
txt
  4

  0
STYLE
  5
74
330
3
100
AcDbSymbolTableRecord
100
AcDbTextStyleTableRecord
  2
SLDTEXTSTYLE0
 70
     0
 40
0.0
 41
0.7
 50
0.0
 71
     0
 42
0.375
  3
TXT
  4

  0
STYLE
  5
A7
330
3
100
AcDbSymbolTableRecord
100
AcDbTextStyleTableRecord
  2
SLDTEXTSTYLE1
 70
     0
 40
0.0
 41
0.75
 50
0.0
 71
     0
 42
0.375
  3
TXT
  4

  0
ENDTAB
  0
TABLE
  2
VIEW
  5
6
330
0
100
AcDbSymbolTable
 70
     0
  0
ENDTAB
  0
TABLE
  2
UCS
  5
7
330
0
100
AcDbSymbolTable
 70
     0
  0
ENDTAB
  0
TABLE
  2
APPID
  5
9
330
0
100
AcDbSymbolTable
 70
     1
  0
APPID
  5
12
330
9
100
AcDbSymbolTableRecord
100
AcDbRegAppTableRecord
  2
ACAD
 70
     0
  0
ENDTAB
  0
TABLE
  2
DIMSTYLE
  5
A
330
0
100
AcDbSymbolTable
 70
     4
100
AcDbDimStyleTable
  0
DIMSTYLE
105
27
330
A
100
AcDbSymbolTableRecord
100
AcDbDimStyleTableRecord
  2
Standard
 70
     0
178
     0
340
11
  0
DIMSTYLE
105
A8
102
{ACAD_REACTORS
330
A6
330
C6
330
12F
102
}
330
A
100
AcDbSymbolTableRecord
100
AcDbDimStyleTableRecord
  2
SLDDIMSTYLE0
 70
     0
 41
0.39
 44
0.0
 45
0.000000001
 78
    12
 79
     3
140
0.375
147
0.09375
148
0.000000001
170
     1
173
     1
178
     0
271
     6
272
     0
276
     2
277
     5
284
    12
340
A7
  0
DIMSTYLE
105
E5
102
{ACAD_REACTORS
330
E4
330
145
330
1D4
102
}
330
A
100
AcDbSymbolTableRecord
100
AcDbDimStyleTableRecord
  2
SLDDIMSTYLE1
 70
     0
 41
0.39
 44
0.0
 45
0.000000001
 78
    12
 79
     3
140
0.375
147
0.09375
148
0.000000001
170
     1
172
     1
173
     1
178
     0
271
     6
272
     0
276
     2
277
     5
284
    12
289
     0
340
A7
  0
DIMSTYLE
105
15A
102
{ACAD_REACTORS
330
159
330
16A
330
1F8
330
208
102
}
330
A
100
AcDbSymbolTableRecord
100
AcDbDimStyleTableRecord
  2
SLDDIMSTYLE2
 70
     0
 41
0.39
 44
0.0
 45
0.000000001
 78
    12
 79
     3
140
0.375
141
0.0
147
0.09375
148
0.000000001
170
     1
173
     1
178
     0
271
     0
272
     0
276
     2
277
     5
284
    12
340
A7
  0
ENDTAB
  0
TABLE
  2
BLOCK_RECORD
  5
1
330
0
100
AcDbSymbolTable
 70
    20
  0
BLOCK_RECORD
  5
1F
330
1
100
AcDbSymbolTableRecord
100
AcDbBlockTableRecord
  2
*Model_Space
340
22
  0
BLOCK_RECORD
  5
1B
330
1
100
AcDbSymbolTableRecord
100
AcDbBlockTableRecord
  2
*Paper_Space
340
1E
  0
BLOCK_RECORD
  5
23
330
1
100
AcDbSymbolTableRecord
100
AcDbBlockTableRecord
  2
*Paper_Space0
340
26
  0
BLOCK_RECORD
  5
6E
330
1
100
AcDbSymbolTableRecord
100
AcDbBlockTableRecord
  2
Block1
340
0
102
{BLKREFS
331
C5
102
}
  0
BLOCK_RECORD
  5
71
330
1
100
AcDbSymbolTableRecord
100
AcDbBlockTableRecord
  2
SW_NOTE_0
340
0
102
{BLKREFS
331
76
102
}
  0
BLOCK_RECORD
  5
77
330
1
100
AcDbSymbolTableRecord
100
AcDbBlockTableRecord
  2
Block3
340
0
102
{BLKREFS
331
E3
102
}
  0
BLOCK_RECORD
  5
7A
330
1
100
AcDbSymbolTableRecord
100
AcDbBlockTableRecord
  2
SW_NOTE_0_1
340
0
102
{BLKREFS
331
7E
102
}
  0
BLOCK_RECORD
  5
A9
330
1
100
AcDbSymbolTableRecord
100
AcDbBlockTableRecord
  2
_D
340
0
  0
BLOCK_RECORD
  5
C7
330
1
100
AcDbSymbolTableRecord
100
AcDbBlockTableRecord
  2
_D_1
340
0
  0
BLOCK_RECORD
  5
E6
330
1
100
AcDbSymbolTableRecord
100
AcDbBlockTableRecord
  2
_D_2
340
0
  0
BLOCK_RECORD
  5
130
330
1
100
AcDbSymbolTableRecord
100
AcDbBlockTableRecord
  2
_D_3
340
0
  0
BLOCK_RECORD
  5
146
330
1
100
AcDbSymbolTableRecord
100
AcDbBlockTableRecord
  2
_D_4
340
0
  0
BLOCK_RECORD
  5
15B
330
1
100
AcDbSymbolTableRecord
100
AcDbBlockTableRecord
  2
_D_5
340
0
  0
BLOCK_RECORD
  5
16B
330
1
100
AcDbSymbolTableRecord
100
AcDbBlockTableRecord
  2
_D_6
340
0
  0
BLOCK_RECORD
  5
17B
330
1
100
AcDbSymbolTableRecord
100
AcDbBlockTableRecord
  2
SW_CENTERMARKSYMBOL_0
340
0
102
{BLKREFS
331
18E
102
}
  0
BLOCK_RECORD
  5
18F
330
1
100
AcDbSymbolTableRecord
100
AcDbBlockTableRecord
  2
SW_CENTERMARKSYMBOL_1
340
0
102
{BLKREFS
331
19A
102
}
  0
BLOCK_RECORD
  5
19B
330
1
100
AcDbSymbolTableRecord
100
AcDbBlockTableRecord
  2
SW_CENTERMARKSYMBOL_2
340
0
102
{BLKREFS
331
1A6
102
}
  0
BLOCK_RECORD
  5
1A7
330
1
100
AcDbSymbolTableRecord
100
AcDbBlockTableRecord
  2
SW_CENTERMARKSYMBOL_3
340
0
102
{BLKREFS
331
1B2
102
}
  0
BLOCK_RECORD
  5
1B3
330
1
100
AcDbSymbolTableRecord
100
AcDbBlockTableRecord
  2
SW_CENTERMARKSYMBOL_4
340
0
102
{BLKREFS
331
1BE
102
}
  0
BLOCK_RECORD
  5
1D5
330
1
100
AcDbSymbolTableRecord
100
AcDbBlockTableRecord
  2
_D_7
340
0
  0
BLOCK_RECORD
  5
1F9
330
1
100
AcDbSymbolTableRecord
100
AcDbBlockTableRecord
  2
_D_8
340
0
  0
BLOCK_RECORD
  5
209
330
1
100
AcDbSymbolTableRecord
100
AcDbBlockTableRecord
  2
_D_9
340
0
  0
ENDTAB
  0
ENDSEC
  0
SECTION
  2
BLOCKS
  0
BLOCK
  5
20
330
1F
100
AcDbEntity
  8
0
100
AcDbBlockBegin
  2
*Model_Space
 70
     0
 10
0.0
 20
0.0
 30
0.0
  3
*Model_Space
  1

  0
ENDBLK
  5
21
330
1F
100
AcDbEntity
  8
0
100
AcDbBlockEnd
  0
BLOCK
  5
1C
330
1B
100
AcDbEntity
 67
     1
  8
0
100
AcDbBlockBegin
  2
*Paper_Space
 70
     0
 10
0.0
 20
0.0
 30
0.0
  3
*Paper_Space
  1

  0
ENDBLK
  5
1D
330
1B
100
AcDbEntity
 67
     1
  8
0
100
AcDbBlockEnd
  0
BLOCK
  5
24
330
23
100
AcDbEntity
  8
0
100
AcDbBlockBegin
  2
*Paper_Space0
 70
     0
 10
0.0
 20
0.0
 30
0.0
  3
*Paper_Space0
  1

  0
ENDBLK
  5
25
330
23
100
AcDbEntity
  8
0
100
AcDbBlockEnd
  0
BLOCK
  5
6F
330
6E
100
AcDbEntity
  8
0
100
AcDbBlockBegin
  2
Block1
 70
     0
 10
0.0
 20
0.0
 30
0.0
  3
Block1
  1

  0
INSERT
  5
76
330
6E
100
AcDbEntity
  8
0
  6
Continuous
 62
     7
370
     0
100
AcDbBlockReference
  2
SW_NOTE_0
 10
0.5780552263
 20
-0.0521462902
 30
0.0
  0
ENDBLK
  5
70
330
6E
100
AcDbEntity
  8
0
100
AcDbBlockEnd
  0
BLOCK
  5
72
330
71
100
AcDbEntity
  8
0
100
AcDbBlockBegin
  2
SW_NOTE_0
 70
     0
 10
0.0
 20
0.0
 30
0.0
  3
SW_NOTE_0
  1

  0
MTEXT
  5
75
330
71
100
AcDbEntity
  8
0
  6
Continuous
 62
     0
370
     0
100
AcDbMText
 10
1.201171875
 20
0.8056673374
 30
0.0
 40
0.625
 41
0.0
 71
     2
 72
     1
  1
E CAP
  7
SLDTEXTSTYLE0
 73
     1
 44
1.0
  0
ENDBLK
  5
73
330
71
100
AcDbEntity
  8
0
100
AcDbBlockEnd
  0
BLOCK
  5
78
330
77
100
AcDbEntity
  8
0
100
AcDbBlockBegin
  2
Block3
 70
     0
 10
0.0
 20
0.0
 30
0.0
  3
Block3
  1

  0
INSERT
  5
7E
330
77
100
AcDbEntity
  8
0
  6
Continuous
 62
     7
370
     0
100
AcDbBlockReference
  2
SW_NOTE_0_1
 10
0.0339401496
 20
-0.0278239893
 30
0.0
  0
ENDBLK
  5
79
330
77
100
AcDbEntity
  8
0
100
AcDbBlockEnd
  0
BLOCK
  5
7B
330
7A
100
AcDbEntity
  8
0
100
AcDbBlockBegin
  2
SW_NOTE_0_1
 70
     0
 10
0.0
 20
0.0
 30
0.0
  3
SW_NOTE_0_1
  1

  0
MTEXT
  5
7D
330
7A
100
AcDbEntity
  8
0
  6
Continuous
 62
     0
370
     0
100
AcDbMText
 10
1.30859375
 20
0.8056673374
 30
0.0
 40
0.625
 41
0.0
 71
     2
 72
     1
  1
C CAP
  7
SLDTEXTSTYLE0
 73
     1
 44
1.0
  0
ENDBLK
  5
7C
330
7A
100
AcDbEntity
  8
0
100
AcDbBlockEnd
  0
BLOCK
  5
AA
330
A9
100
AcDbEntity
  8
0
100
AcDbBlockBegin
  2
_D
 70
     0
 10
0.0
 20
0.0
 30
0.0
  3
_D
  1

  0
SOLID
  5
AC
330
A9
100
AcDbEntity
  8
0
  6
Continuous
 62
     7
370
    18
100
AcDbTrace
 10
5.2545827797
 20
22.2518299506
 30
0.0
 11
5.1945827797
 21
21.8618299506
 31
0.0
 12
5.3145827797
 22
21.8618299506
 32
0.0
 13
5.3145827797
 23
21.8618299506
 33
0.0
  0
SOLID
  5
AD
330
A9
100
AcDbEntity
  8
0
  6
Continuous
 62
     7
370
    18
100
AcDbTrace
 10
5.2545827797
 20
18.4143299506
 30
0.0
 11
5.3145827797
 21
18.8043299506
 31
0.0
 12
5.1945827797
 22
18.8043299506
 32
0.0
 13
5.1945827797
 23
18.8043299506
 33
0.0
  0
LINE
  5
AE
330
A9
100
AcDbEntity
  8
0
  6
Continuous
 62
     7
370
     0
100
AcDbLine
 10
4.5087494856
 20
20.3302153086
 30
0.0
 11
4.3944916743
 21
20.3302153086
 31
0.0
  0
LINE
  5
AF
330
A9
100
AcDbEntity
  8
0
  6
Continuous
 62
     7
370
     0
100
AcDbLine
 10
4.3944916743
 20
20.3302153086
 30
0.0
 11
4.3944916743
 21
19.7349027907
 31
0.0
  0
LINE
  5
B0
330
A9
100
AcDbEntity
  8
0
  6
Continuous
 62
     7
370
     0
100
AcDbLine
 10
4.3944916743
 20
19.7349027907
 30
0.0
 11
4.5087494856
 21
19.7349027907
 31
0.0
  0
LINE
  5
B1
330
A9
100
AcDbEntity
  8
0
  6
Continuous
 62
     7
370
     0
100
AcDbLine
 10
6.0004161838
 20
20.3302153086
 30
0.0
 11
6.1146739951
 21
20.3302153086
 31
0.0
  0
LINE
  5
B2
330
A9
100
AcDbEntity
  8
0
  6
Continuous
 62
     7
370
     0
100
AcDbLine
 10
6.1146739951
 20
20.3302153086
 30
0.0
 11
6.1146739951
 21
19.7349027907
 31
0.0
  0
LINE
  5
B3
330
A9
100
AcDbEntity
  8
0
  6
Continuous
 62
     7
370
     0
100
AcDbLine
 10
6.1146739951
 20
19.7349027907
 30
0.0
 11
6.0004161838
 21
19.7349027907
 31
0.0
  0
LINE
  5
B4
330
A9
100
AcDbEntity
  8
0
  6
Continuous
 62
     7
370
     0
100
AcDbLine
 10
6.7225152716
 20
22.2518299506
 30
0.0
 11
4.8795827797
 21
22.2518299506
 31
0.0
  0
LINE
  5
B5
330
A9
100
AcDbEntity
  8
0
  6
Continuous
 62
     7
370
     0
100
AcDbLine
 10
6.7225152716
 20
18.4143299506
 30
0.0
 11
4.8795827797
 21
18.4143299506
 31
0.0
  0
LINE
  5
B6
330
A9
100
AcDbEntity
  8
0
  6
Continuous
 62
     7
370
     0
100
AcDbLine
 10
5.2545827797
 20
22.2518299506
 30
0.0
 11
5.2545827797
 21
21.0074288654
 31
0.0
  0
LINE
  5
B7
330
A9
100
AcDbEntity
  8
0
  6
Continuous
 62
     7
370
     0
100
AcDbLine
 10
5.2545827797
 20
18.4143299506
 30
0.0
 11
5.2545827797
 21
19.6587310357
 31
0.0
  0
MTEXT
  5
B8
330
A9
100
AcDbEntity
  8
0
  6
Continuous
 62
     7
370
    18
100
AcDbMText
 10
4.2823171959
 20
20.8955167912
 30
0.0
 40
0.375
 41
0.0
 71
     1
 72
     1
  1

  7
SLDTEXTSTYLE1
 73
     1
 44
1.0
  0
MTEXT
  5
B9
330
A9
100
AcDbEntity
  8
0
  6
Continuous
 62
     7
370
    18
100
AcDbMText
 10
4.3058849066
 20
20.8897875967
 30
0.0
 40
0.375
 41
0.0
 71
     1
 72
     1
  1
3 13/16"
  7
SLDTEXTSTYLE1
 73
     1
 44
1.0
  0
MTEXT
  5
BA
330
A9
100
AcDbEntity
  8
0
  6
Continuous
 62
     7
370
    18
100
AcDbMText
 10
4.5087494856
 20
20.2183032344
 30
0.0
 40
0.375
 41
0.0
 71
     1
 72
     1
  1
97mm
  7
SLDTEXTSTYLE1
 73
     1
 44
1.0
  0
MTEXT
  5
BB
330
A9
100
AcDbEntity
  8
0
  6
Continuous
 62
     7
370
    18
100
AcDbMText
 10
6.3695567239
 20
20.8955167912
 30
0.0
 40
0.375
 41
0.0
 71
     1
 72
     1
  1

  7
SLDTEXTSTYLE1
 73
     1
 44
1.0
  0
ENDBLK
  5
AB
330
A9
100
AcDbEntity
  8
0
100
AcDbBlockEnd
  0
BLOCK
  5
C8
330
C7
100
AcDbEntity
  8
0
100
AcDbBlockBegin
  2
_D_1
 70
     0
 10
0.0
 20
0.0
 30
0.0
  3
_D_1
  1

  0
SOLID
  5
CA
330
C7
100
AcDbEntity
  8
0
  6
Continuous
 62
     7
370
    18
100
AcDbTrace
 10
9.9838795452
 20
6.0443734128
 30
0.0
 11
9.9238795452
 21
5.6543734128
 31
0.0
 12
10.0438795452
 22
5.6543734128
 32
0.0
 13
10.0438795452
 23
5.6543734128
 33
0.0
  0
SOLID
  5
CB
330
C7
100
AcDbEntity
  8
0
  6
Continuous
 62
     7
370
    18
100
AcDbTrace
 10
9.9838795452
 20
3.1443734128
 30
0.0
 11
10.0438795452
 21
3.5343734128
 31
0.0
 12
9.9238795452
 22
3.5343734128
 32
0.0
 13
9.9238795452
 23
3.5343734128
 33
0.0
  0
LINE
  5
CC
330
C7
100
AcDbEntity
  8
0
  6
Continuous
 62
     7
370
     0
100
AcDbLine
 10
9.2380462511
 20
4.5915087709
 30
0.0
 11
9.1237884398
 21
4.5915087709
 31
0.0
  0
LINE
  5
CD
330
C7
100
AcDbEntity
  8
0
  6
Continuous
 62
     7
370
     0
100
AcDbLine
 10
9.1237884398
 20
4.5915087709
 30
0.0
 11
9.1237884398
 21
3.996196253
 31
0.0
  0
LINE
  5
CE
330
C7
100
AcDbEntity
  8
0
  6
Continuous
 62
     7
370
     0
100
AcDbLine
 10
9.1237884398
 20
3.996196253
 30
0.0
 11
9.2380462511
 21
3.996196253
 31
0.0
  0
LINE
  5
CF
330
C7
100
AcDbEntity
  8
0
  6
Continuous
 62
     7
370
     0
100
AcDbLine
 10
10.7297129493
 20
4.5915087709
 30
0.0
 11
10.8439707606
 21
4.5915087709
 31
0.0
  0
LINE
  5
D0
330
C7
100
AcDbEntity
  8
0
  6
Continuous
 62
     7
370
     0
100
AcDbLine
 10
10.8439707606
 20
4.5915087709
 30
0.0
 11
10.8439707606
 21
3.996196253
 31
0.0
  0
LINE
  5
D1
330
C7
100
AcDbEntity
  8
0
  6
Continuous
 62
     7
370
     0
100
AcDbLine
 10
10.8439707606
 20
3.996196253
 30
0.0
 11
10.7297129493
 21
3.996196253
 31
0.0
  0
LINE
  5
D2
330
C7
100
AcDbEntity
  8
0
  6
Continuous
 62
     7
370
     0
100
AcDbLine
 10
11.0149819074
 20
6.0443734128
 30
0.0
 11
9.6088795452
 21
6.0443734128
 31
0.0
  0
LINE
  5
D3
330
C7
100
AcDbEntity
  8
0
  6
Continuous
 62
     7
370
     0
100
AcDbLine
 10
11.0149819074
 20
3.1443734128
 30
0.0
 11
9.6088795452
 21
3.1443734128
 31
0.0
  0
LINE
  5
D4
330
C7
100
AcDbEntity
  8
0
  6
Continuous
 62
     7
370
     0
100
AcDbLine
 10
9.9838795452
 20
6.0443734128
 30
0.0
 11
9.9838795452
 21
5.2687223276
 31
0.0
  0
LINE
  5
D5
330
C7
100
AcDbEntity
  8
0
  6
Continuous
 62
     7
370
     0
100
AcDbLine
 10
9.9838795452
 20
3.1443734128
 30
0.0
 11
9.9838795452
 21
3.9200244979
 31
0.0
  0
MTEXT
  5
D6
330
C7
100
AcDbEntity
  8
0
  6
Continuous
 62
     7
370
    18
100
AcDbMText
 10
9.0116139614
 20
5.1568102534
 30
0.0
 40
0.375
 41
0.0
 71
     1
 72
     1
  1

  7
SLDTEXTSTYLE1
 73
     1
 44
1.0
  0
MTEXT
  5
D7
330
C7
100
AcDbEntity
  8
0
  6
Continuous
 62
     7
370
    18
100
AcDbMText
 10
9.3122650063
 20
5.1510810589
 30
0.0
 40
0.375
 41
0.0
 71
     1
 72
     1
  1
2 7/8"
  7
SLDTEXTSTYLE1
 73
     1
 44
1.0
  0
MTEXT
  5
D8
330
C7
100
AcDbEntity
  8
0
  6
Continuous
 62
     7
370
    18
100
AcDbMText
 10
9.2380462511
 20
4.4795966966
 30
0.0
 40
0.375
 41
0.0
 71
     1
 72
     1
  1
74mm
  7
SLDTEXTSTYLE1
 73
     1
 44
1.0
  0
MTEXT
  5
D9
330
C7
100
AcDbEntity
  8
0
  6
Continuous
 62
     7
370
    18
100
AcDbMText
 10
11.0988534894
 20
5.1568102534
 30
0.0
 40
0.375
 41
0.0
 71
     1
 72
     1
  1

  7
SLDTEXTSTYLE1
 73
     1
 44
1.0
  0
ENDBLK
  5
C9
330
C7
100
AcDbEntity
  8
0
100
AcDbBlockEnd
  0
BLOCK
  5
E7
330
E6
100
AcDbEntity
  8
0
100
AcDbBlockBegin
  2
_D_2
 70
     0
 10
0.0
 20
0.0
 30
0.0
  3
_D_2
  1

  0
SOLID
  5
E9
330
E6
100
AcDbEntity
  8
0
  6
Continuous
 62
     7
370
    18
100
AcDbTrace
 10
1.6466948897
 20
5.1277966462
 30
0.0
 11
1.7066948897
 21
5.5177966462
 31
0.0
 12
1.5866948897
 22
5.5177966462
 32
0.0
 13
1.5866948897
 23
5.5177966462
 33
0.0
  0
SOLID
  5
EA
330
E6
100
AcDbEntity
  8
0
  6
Continuous
 62
     7
370
    18
100
AcDbTrace
 10
1.6466948897
 20
3.2277966462
 30
0.0
 11
1.5866948897
 21
2.8377966462
 31
0.0
 12
1.7066948897
 22
2.8377966462
 32
0.0
 13
1.7066948897
 23
2.8377966462
 33
0.0
  0
LINE
  5
EB
330
E6
100
AcDbEntity
  8
0
  6
Continuous
 62
     7
370
     0
100
AcDbLine
 10
0.9008615956
 20
4.1749320043
 30
0.0
 11
0.7866037843
 21
4.1749320043
 31
0.0
  0
LINE
  5
EC
330
E6
100
AcDbEntity
  8
0
  6
Continuous
 62
     7
370
     0
100
AcDbLine
 10
0.7866037843
 20
4.1749320043
 30
0.0
 11
0.7866037843
 21
3.5796194864
 31
0.0
  0
LINE
  5
ED
330
E6
100
AcDbEntity
  8
0
  6
Continuous
 62
     7
370
     0
100
AcDbLine
 10
0.7866037843
 20
3.5796194864
 30
0.0
 11
0.9008615956
 21
3.5796194864
 31
0.0
  0
LINE
  5
EE
330
E6
100
AcDbEntity
  8
0
  6
Continuous
 62
     7
370
     0
100
AcDbLine
 10
2.3925282938
 20
4.1749320043
 30
0.0
 11
2.5067861051
 21
4.1749320043
 31
0.0
  0
LINE
  5
EF
330
E6
100
AcDbEntity
  8
0
  6
Continuous
 62
     7
370
     0
100
AcDbLine
 10
2.5067861051
 20
4.1749320043
 30
0.0
 11
2.5067861051
 21
3.5796194864
 31
0.0
  0
LINE
  5
F0
330
E6
100
AcDbEntity
  8
0
  6
Continuous
 62
     7
370
     0
100
AcDbLine
 10
2.5067861051
 20
3.5796194864
 30
0.0
 11
2.3925282938
 21
3.5796194864
 31
0.0
  0
LINE
  5
F1
330
E6
100
AcDbEntity
  8
0
  6
Continuous
 62
     7
370
     0
100
AcDbLine
 10
2.6777972519
 20
5.1277966462
 30
0.0
 11
1.2716948897
 21
5.1277966462
 31
0.0
  0
LINE
  5
F2
330
E6
100
AcDbEntity
  8
0
  6
Continuous
 62
     7
370
     0
100
AcDbLine
 10
2.6777972519
 20
3.2277966462
 30
0.0
 11
1.2716948897
 21
3.2277966462
 31
0.0
  0
LINE
  5
F3
330
E6
100
AcDbEntity
  8
0
  6
Continuous
 62
     7
370
     0
100
AcDbLine
 10
1.6466948897
 20
5.1277966462
 30
0.0
 11
1.6466948897
 21
5.8777966462
 31
0.0
  0
LINE
  5
F4
330
E6
100
AcDbEntity
  8
0
  6
Continuous
 62
     7
370
     0
100
AcDbLine
 10
1.6466948897
 20
3.2277966462
 30
0.0
 11
1.6466948897
 21
2.4777966462
 31
0.0
  0
MTEXT
  5
F5
330
E6
100
AcDbEntity
  8
0
  6
Continuous
 62
     7
370
    18
100
AcDbMText
 10
0.6744293059
 20
4.7402334868
 30
0.0
 40
0.375
 41
0.0
 71
     1
 72
     1
  1

  7
SLDTEXTSTYLE1
 73
     1
 44
1.0
  0
MTEXT
  5
F6
330
E6
100
AcDbEntity
  8
0
  6
Continuous
 62
     7
370
    18
100
AcDbMText
 10
0.9750803507
 20
4.7345042923
 30
0.0
 40
0.375
 41
0.0
 71
     1
 72
     1
  1
1 7/8"
  7
SLDTEXTSTYLE1
 73
     1
 44
1.0
  0
MTEXT
  5
F7
330
E6
100
AcDbEntity
  8
0
  6
Continuous
 62
     7
370
    18
100
AcDbMText
 10
0.9008615956
 20
4.06301993
 30
0.0
 40
0.375
 41
0.0
 71
     1
 72
     1
  1
48mm
  7
SLDTEXTSTYLE1
 73
     1
 44
1.0
  0
MTEXT
  5
F8
330
E6
100
AcDbEntity
  8
0
  6
Continuous
 62
     7
370
    18
100
AcDbMText
 10
2.7616688339
 20
4.7402334868
 30
0.0
 40
0.375
 41
0.0
 71
     1
 72
     1
  1

  7
SLDTEXTSTYLE1
 73
     1
 44
1.0
  0
ENDBLK
  5
E8
330
E6
100
AcDbEntity
  8
0
100
AcDbBlockEnd
  0
BLOCK
  5
131
330
130
100
AcDbEntity
  8
0
100
AcDbBlockBegin
  2
_D_3
 70
     0
 10
0.0
 20
0.0
 30
0.0
  3
_D_3
  1

  0
SOLID
  5
133
330
130
100
AcDbEntity
  8
0
  6
Continuous
 62
     7
370
    18
100
AcDbTrace
 10
19.804990265
 20
7.9047508857
 30
0.0
 11
19.744990265
 21
7.5147508857
 31
0.0
 12
19.864990265
 22
7.5147508857
 32
0.0
 13
19.864990265
 23
7.5147508857
 33
0.0
  0
SOLID
  5
134
330
130
100
AcDbEntity
  8
0
  6
Continuous
 62
     7
370
    18
100
AcDbTrace
 10
19.804990265
 20
3.6235008857
 30
0.0
 11
19.864990265
 21
4.0135008857
 31
0.0
 12
19.744990265
 22
4.0135008857
 32
0.0
 13
19.744990265
 23
4.0135008857
 33
0.0
  0
LINE
  5
135
330
130
100
AcDbEntity
  8
0
  6
Continuous
 62
     7
370
     0
100
AcDbLine
 10
18.9206153314
 20
5.7612612438
 30
0.0
 11
18.80635752
 21
5.7612612438
 31
0.0
  0
LINE
  5
136
330
130
100
AcDbEntity
  8
0
  6
Continuous
 62
     7
370
     0
100
AcDbLine
 10
18.80635752
 20
5.7612612438
 30
0.0
 11
18.80635752
 21
5.1659487259
 31
0.0
  0
LINE
  5
137
330
130
100
AcDbEntity
  8
0
  6
Continuous
 62
     7
370
     0
100
AcDbLine
 10
18.80635752
 20
5.1659487259
 30
0.0
 11
18.9206153314
 21
5.1659487259
 31
0.0
  0
LINE
  5
138
330
130
100
AcDbEntity
  8
0
  6
Continuous
 62
     7
370
     0
100
AcDbLine
 10
20.6893653086
 20
5.7612612438
 30
0.0
 11
20.8036231199
 21
5.7612612438
 31
0.0
  0
LINE
  5
139
330
130
100
AcDbEntity
  8
0
  6
Continuous
 62
     7
370
     0
100
AcDbLine
 10
20.8036231199
 20
5.7612612438
 30
0.0
 11
20.8036231199
 21
5.1659487259
 31
0.0
  0
LINE
  5
13A
330
130
100
AcDbEntity
  8
0
  6
Continuous
 62
     7
370
     0
100
AcDbLine
 10
20.8036231199
 20
5.1659487259
 30
0.0
 11
20.6893653086
 21
5.1659487259
 31
0.0
  0
LINE
  5
13B
330
130
100
AcDbEntity
  8
0
  6
Continuous
 62
     7
370
     0
100
AcDbLine
 10
24.1939614546
 20
7.9047508857
 30
0.0
 11
22.6839614546
 21
7.9047508857
 31
0.0
  0
LINE
  5
13C
330
130
100
AcDbEntity
  8
0
  6
Continuous
 62
     7
370
     0
100
AcDbLine
 10
22.5039614546
 20
7.9047508857
 30
0.0
 11
19.429990265
 21
7.9047508857
 31
0.0
  0
LINE
  5
13D
330
130
100
AcDbEntity
  8
0
  6
Continuous
 62
     7
370
     0
100
AcDbLine
 10
24.1939614546
 20
3.6235008857
 30
0.0
 11
23.0620901562
 21
3.6235008857
 31
0.0
  0
LINE
  5
13E
330
130
100
AcDbEntity
  8
0
  6
Continuous
 62
     7
370
     0
100
AcDbLine
 10
22.8820901562
 20
3.6235008857
 30
0.0
 11
19.429990265
 21
3.6235008857
 31
0.0
  0
LINE
  5
13F
330
130
100
AcDbEntity
  8
0
  6
Continuous
 62
     7
370
     0
100
AcDbLine
 10
19.804990265
 20
7.9047508857
 30
0.0
 11
19.804990265
 21
6.4384748006
 31
0.0
  0
LINE
  5
140
330
130
100
AcDbEntity
  8
0
  6
Continuous
 62
     7
370
     0
100
AcDbLine
 10
19.804990265
 20
3.6235008857
 30
0.0
 11
19.804990265
 21
5.0897769709
 31
0.0
  0
MTEXT
  5
141
330
130
100
AcDbEntity
  8
0
  6
Continuous
 62
     7
370
    18
100
AcDbMText
 10
18.6941830416
 20
6.3265627264
 30
0.0
 40
0.375
 41
0.0
 71
     1
 72
     1
  1

  7
SLDTEXTSTYLE1
 73
     1
 44
1.0
  0
MTEXT
  5
142
330
130
100
AcDbEntity
  8
0
  6
Continuous
 62
     7
370
    18
100
AcDbMText
 10
18.9948340315
 20
6.3208335319
 30
0.0
 40
0.375
 41
0.0
 71
     1
 72
     1
  1
4 5/16"
  7
SLDTEXTSTYLE1
 73
     1
 44
1.0
  0
MTEXT
  5
143
330
130
100
AcDbEntity
  8
0
  6
Continuous
 62
     7
370
    18
100
AcDbMText
 10
18.9206153314
 20
5.6493491696
 30
0.0
 40
0.375
 41
0.0
 71
     1
 72
     1
  1
109mm
  7
SLDTEXTSTYLE1
 73
     1
 44
1.0
  0
MTEXT
  5
144
330
130
100
AcDbEntity
  8
0
  6
Continuous
 62
     7
370
    18
100
AcDbMText
 10
21.0585058488
 20
6.3265627264
 30
0.0
 40
0.375
 41
0.0
 71
     1
 72
     1
  1

  7
SLDTEXTSTYLE1
 73
     1
 44
1.0
  0
ENDBLK
  5
132
330
130
100
AcDbEntity
  8
0
100
AcDbBlockEnd
  0
BLOCK
  5
147
330
146
100
AcDbEntity
  8
0
100
AcDbBlockBegin
  2
_D_4
 70
     0
 10
0.0
 20
0.0
 30
0.0
  3
_D_4
  1

  0
SOLID
  5
149
330
146
100
AcDbEntity
  8
0
  6
Continuous
 62
     7
370
    18
100
AcDbTrace
 10
22.5939614546
 20
10.1963896653
 30
0.0
 11
22.2039614546
 21
10.2563896653
 31
0.0
 12
22.2039614546
 22
10.1363896653
 32
0.0
 13
22.2039614546
 23
10.1363896653
 33
0.0
  0
SOLID
  5
14A
330
146
100
AcDbEntity
  8
0
  6
Continuous
 62
     7
370
    18
100
AcDbTrace
 10
26.0939614546
 20
10.1963896653
 30
0.0
 11
26.4839614546
 21
10.1363896653
 31
0.0
 12
26.4839614546
 22
10.2563896653
 32
0.0
 13
26.4839614546
 23
10.2563896653
 33
0.0
  0
LINE
  5
14B
330
146
100
AcDbEntity
  8
0
  6
Continuous
 62
     7
370
     0
100
AcDbLine
 10
23.5981281605
 20
10.1935250234
 30
0.0
 11
23.4838703492
 21
10.1935250234
 31
0.0
  0
LINE
  5
14C
330
146
100
AcDbEntity
  8
0
  6
Continuous
 62
     7
370
     0
100
AcDbLine
 10
23.4838703492
 20
10.1935250234
 30
0.0
 11
23.4838703492
 21
9.5982125055
 31
0.0
  0
LINE
  5
14D
330
146
100
AcDbEntity
  8
0
  6
Continuous
 62
     7
370
     0
100
AcDbLine
 10
23.4838703492
 20
9.5982125055
 30
0.0
 11
23.5981281605
 21
9.5982125055
 31
0.0
  0
LINE
  5
14E
330
146
100
AcDbEntity
  8
0
  6
Continuous
 62
     7
370
     0
100
AcDbLine
 10
25.0897948587
 20
10.1935250234
 30
0.0
 11
25.20405267
 21
10.1935250234
 31
0.0
  0
LINE
  5
14F
330
146
100
AcDbEntity
  8
0
  6
Continuous
 62
     7
370
     0
100
AcDbLine
 10
25.20405267
 20
10.1935250234
 30
0.0
 11
25.20405267
 21
9.5982125055
 31
0.0
  0
LINE
  5
150
330
146
100
AcDbEntity
  8
0
  6
Continuous
 62
     7
370
     0
100
AcDbLine
 10
25.20405267
 20
9.5982125055
 30
0.0
 11
25.0897948587
 21
9.5982125055
 31
0.0
  0
LINE
  5
151
330
146
100
AcDbEntity
  8
0
  6
Continuous
 62
     7
370
     0
100
AcDbLine
 10
22.5939614546
 20
6.1156908857
 30
0.0
 11
22.5939614546
 21
10.5713896653
 31
0.0
  0
LINE
  5
152
330
146
100
AcDbEntity
  8
0
  6
Continuous
 62
     7
370
     0
100
AcDbLine
 10
26.0939614546
 20
6.1156908857
 30
0.0
 11
26.0939614546
 21
10.5713896653
 31
0.0
  0
LINE
  5
153
330
146
100
AcDbEntity
  8
0
  6
Continuous
 62
     7
370
     0
100
AcDbLine
 10
22.5939614546
 20
10.1963896653
 30
0.0
 11
21.8439614546
 21
10.1963896653
 31
0.0
  0
LINE
  5
154
330
146
100
AcDbEntity
  8
0
  6
Continuous
 62
     7
370
     0
100
AcDbLine
 10
26.0939614546
 20
10.1963896653
 30
0.0
 11
26.8439614546
 21
10.1963896653
 31
0.0
  0
MTEXT
  5
155
330
146
100
AcDbEntity
  8
0
  6
Continuous
 62
     7
370
    18
100
AcDbMText
 10
23.3716958708
 20
10.7588265059
 30
0.0
 40
0.375
 41
0.0
 71
     1
 72
     1
  1

  7
SLDTEXTSTYLE1
 73
     1
 44
1.0
  0
MTEXT
  5
156
330
146
100
AcDbEntity
  8
0
  6
Continuous
 62
     7
370
    18
100
AcDbMText
 10
23.6723469157
 20
10.7530973115
 30
0.0
 40
0.375
 41
0.0
 71
     1
 72
     1
  1
3 1/2"
  7
SLDTEXTSTYLE1
 73
     1
 44
1.0
  0
MTEXT
  5
157
330
146
100
AcDbEntity
  8
0
  6
Continuous
 62
     7
370
    18
100
AcDbMText
 10
23.5981281605
 20
10.0816129491
 30
0.0
 40
0.375
 41
0.0
 71
     1
 72
     1
  1
89mm
  7
SLDTEXTSTYLE1
 73
     1
 44
1.0
  0
MTEXT
  5
158
330
146
100
AcDbEntity
  8
0
  6
Continuous
 62
     7
370
    18
100
AcDbMText
 10
25.4589353989
 20
10.7588265059
 30
0.0
 40
0.375
 41
0.0
 71
     1
 72
     1
  1

  7
SLDTEXTSTYLE1
 73
     1
 44
1.0
  0
ENDBLK
  5
148
330
146
100
AcDbEntity
  8
0
100
AcDbBlockEnd
  0
BLOCK
  5
15C
330
15B
100
AcDbEntity
  8
0
100
AcDbBlockBegin
  2
_D_5
 70
     0
 10
0.0
 20
0.0
 30
0.0
  3
_D_5
  1

  0
SOLID
  5
15E
330
15B
100
AcDbEntity
  8
0
  6
Continuous
 62
     7
370
    18
100
AcDbTrace
 10
25.2278449311
 20
4.8802424093
 30
0.0
 11
25.4611901689
 21
4.5620443577
 31
0.0
 12
25.5460429826
 22
4.6468971715
 32
0.0
 13
25.5460429826
 23
4.6468971715
 33
0.0
  0
LINE
  5
15F
330
15B
100
AcDbEntity
  8
0
  6
Continuous
 62
     7
370
     0
100
AcDbLine
 10
27.9444213664
 20
3.1421815416
 30
0.0
 11
27.8301635551
 21
3.1421815416
 31
0.0
  0
LINE
  5
160
330
15B
100
AcDbEntity
  8
0
  6
Continuous
 62
     7
370
     0
100
AcDbLine
 10
27.8301635551
 20
3.1421815416
 30
0.0
 11
27.8301635551
 21
2.5468690237
 31
0.0
  0
LINE
  5
161
330
15B
100
AcDbEntity
  8
0
  6
Continuous
 62
     7
370
     0
100
AcDbLine
 10
27.8301635551
 20
2.5468690237
 30
0.0
 11
27.9444213664
 21
2.5468690237
 31
0.0
  0
LINE
  5
162
330
15B
100
AcDbEntity
  8
0
  6
Continuous
 62
     7
370
     0
100
AcDbLine
 10
29.4360880646
 20
3.1421815416
 30
0.0
 11
29.5503458759
 21
3.1421815416
 31
0.0
  0
LINE
  5
163
330
15B
100
AcDbEntity
  8
0
  6
Continuous
 62
     7
370
     0
100
AcDbLine
 10
29.5503458759
 20
3.1421815416
 30
0.0
 11
29.5503458759
 21
2.5468690237
 31
0.0
  0
LINE
  5
164
330
15B
100
AcDbEntity
  8
0
  6
Continuous
 62
     7
370
     0
100
AcDbLine
 10
29.5503458759
 20
2.5468690237
 30
0.0
 11
29.4360880646
 21
2.5468690237
 31
0.0
  0
LINE
  5
165
330
15B
100
AcDbEntity
  8
0
  6
Continuous
 62
     7
370
     0
100
AcDbLine
 10
25.2278449311
 20
4.8802424093
 30
0.0
 11
26.9659057437
 21
3.1421815966
 31
0.0
  0
LINE
  5
166
330
15B
100
AcDbEntity
  8
0
  6
Continuous
 62
     7
370
     0
100
AcDbLine
 10
26.9659057437
 20
3.1421815966
 30
0.0
 11
27.7159057437
 21
3.1421815966
 31
0.0
  0
MTEXT
  5
167
330
15B
100
AcDbEntity
  8
0
  6
Continuous
 62
     7
370
    18
100
AcDbMText
 10
27.7358666632
 20
3.7017538572
 30
0.0
 40
0.375
 41
0.0
 71
     1
 72
     1
  1
%%c
  7
SLDTEXTSTYLE1
 73
     1
 44
1.0
  0
MTEXT
  5
168
330
15B
100
AcDbEntity
  8
0
  6
Continuous
 62
     7
370
    18
100
AcDbMText
 10
28.3014135249
 20
3.7017538572
 30
0.0
 40
0.375
 41
0.0
 71
     1
 72
     1
  1
2 1/2"
  7
SLDTEXTSTYLE1
 73
     1
 44
1.0
  0
MTEXT
  5
169
330
15B
100
AcDbEntity
  8
0
  6
Continuous
 62
     7
370
    18
100
AcDbMText
 10
27.9444213664
 20
3.0302694674
 30
0.0
 40
0.375
 41
0.0
 71
     1
 72
     1
  1
64mm
  7
SLDTEXTSTYLE1
 73
     1
 44
1.0
  0
ENDBLK
  5
15D
330
15B
100
AcDbEntity
  8
0
100
AcDbBlockEnd
  0
BLOCK
  5
16C
330
16B
100
AcDbEntity
  8
0
100
AcDbBlockBegin
  2
_D_6
 70
     0
 10
0.0
 20
0.0
 30
0.0
  3
_D_6
  1

  0
SOLID
  5
16E
330
16B
100
AcDbEntity
  8
0
  6
Continuous
 62
     7
370
    18
100
AcDbTrace
 10
26.1417804458
 20
7.5619448769
 30
0.0
 11
26.4599784973
 21
7.7952901147
 31
0.0
 12
26.3751256836
 22
7.8801429284
 32
0.0
 13
26.3751256836
 23
7.8801429284
 33
0.0
  0
LINE
  5
16F
330
16B
100
AcDbEntity
  8
0
  6
Continuous
 62
     7
370
     0
100
AcDbLine
 10
27.8058797269
 20
8.2475284803
 30
0.0
 11
27.6916219155
 21
8.2475284803
 31
0.0
  0
LINE
  5
170
330
16B
100
AcDbEntity
  8
0
  6
Continuous
 62
     7
370
     0
100
AcDbLine
 10
27.6916219155
 20
8.2475284803
 30
0.0
 11
27.6916219155
 21
7.6522159624
 31
0.0
  0
LINE
  5
171
330
16B
100
AcDbEntity
  8
0
  6
Continuous
 62
     7
370
     0
100
AcDbLine
 10
27.6916219155
 20
7.6522159624
 30
0.0
 11
27.8058797269
 21
7.6522159624
 31
0.0
  0
LINE
  5
172
330
16B
100
AcDbEntity
  8
0
  6
Continuous
 62
     7
370
     0
100
AcDbLine
 10
29.5746297041
 20
8.2475284803
 30
0.0
 11
29.6888875154
 21
8.2475284803
 31
0.0
  0
LINE
  5
173
330
16B
100
AcDbEntity
  8
0
  6
Continuous
 62
     7
370
     0
100
AcDbLine
 10
29.6888875154
 20
8.2475284803
 30
0.0
 11
29.6888875154
 21
7.6522159624
 31
0.0
  0
LINE
  5
174
330
16B
100
AcDbEntity
  8
0
  6
Continuous
 62
     7
370
     0
100
AcDbLine
 10
29.6888875154
 20
7.6522159624
 30
0.0
 11
29.5746297041
 21
7.6522159624
 31
0.0
  0
LINE
  5
175
330
16B
100
AcDbEntity
  8
0
  6
Continuous
 62
     7
370
     0
100
AcDbLine
 10
26.1417804458
 20
7.5619448769
 30
0.0
 11
26.8273641042
 21
8.2475285353
 31
0.0
  0
LINE
  5
176
330
16B
100
AcDbEntity
  8
0
  6
Continuous
 62
     7
370
     0
100
AcDbLine
 10
26.8273641042
 20
8.2475285353
 30
0.0
 11
27.5773641042
 21
8.2475285353
 31
0.0
  0
MTEXT
  5
177
330
16B
100
AcDbEntity
  8
0
  6
Continuous
 62
     7
370
    18
100
AcDbMText
 10
27.5973250236
 20
8.8071007959
 30
0.0
 40
0.375
 41
0.0
 71
     1
 72
     1
  1
%%c
  7
SLDTEXTSTYLE1
 73
     1
 44
1.0
  0
MTEXT
  5
178
330
16B
100
AcDbEntity
  8
0
  6
Continuous
 62
     7
370
    18
100
AcDbMText
 10
28.1628718854
 20
8.8071007959
 30
0.0
 40
0.375
 41
0.0
 71
     1
 72
     1
  1
5 1/16"
  7
SLDTEXTSTYLE1
 73
     1
 44
1.0
  0
MTEXT
  5
179
330
16B
100
AcDbEntity
  8
0
  6
Continuous
 62
     7
370
    18
100
AcDbMText
 10
27.8058797269
 20
8.1356164061
 30
0.0
 40
0.375
 41
0.0
 71
     1
 72
     1
  1
129mm
  7
SLDTEXTSTYLE1
 73
     1
 44
1.0
  0
ENDBLK
  5
16D
330
16B
100
AcDbEntity
  8
0
100
AcDbBlockEnd
  0
BLOCK
  5
17C
330
17B
100
AcDbEntity
  8
0
100
AcDbBlockBegin
  2
SW_CENTERMARKSYMBOL_0
 70
     0
 10
0.0
 20
0.0
 30
0.0
  3
SW_CENTERMARKSYMBOL_0
  1

  0
LINE
  5
17E
330
17B
100
AcDbEntity
  8
0
  6
Continuous
 62
     0
370
    18
100
AcDbLine
 10
0.0
 20
0.0
 30
0.0
 11
0.0
 21
0.1
 31
0.0
  0
LINE
  5
17F
330
17B
100
AcDbEntity
  8
0
  6
Continuous
 62
     0
370
    18
100
AcDbLine
 10
0.0
 20
0.0
 30
0.0
 11
-0.1
 21
0.0
 31
0.0
  0
LINE
  5
180
330
17B
100
AcDbEntity
  8
0
  6
Continuous
 62
     0
370
    18
100
AcDbLine
 10
0.0
 20
0.0
 30
0.0
 11
0.0
 21
-0.1
 31
0.0
  0
LINE
  5
181
330
17B
100
AcDbEntity
  8
0
  6
Continuous
 62
     0
370
    18
100
AcDbLine
 10
0.0
 20
0.0
 30
0.0
 11
0.1
 21
0.0
 31
0.0
  0
LINE
  5
182
330
17B
100
AcDbEntity
  8
0
  6
Continuous
 62
     0
370
    18
100
AcDbLine
 10
0.0
 20
0.2
 30
0.0
 11
0.0
 21
0.2005
 31
0.0
  0
LINE
  5
183
330
17B
100
AcDbEntity
  8
0
  6
Continuous
 62
     0
370
    18
100
AcDbLine
 10
-0.2
 20
0.0
 30
0.0
 11
-0.2005
 21
0.0
 31
0.0
  0
LINE
  5
184
330
17B
100
AcDbEntity
  8
0
  6
Continuous
 62
     0
370
    18
100
AcDbLine
 10
0.0
 20
-0.2
 30
0.0
 11
0.0
 21
-0.2005
 31
0.0
  0
LINE
  5
185
330
17B
100
AcDbEntity
  8
0
  6
Continuous
 62
     0
370
    18
100
AcDbLine
 10
0.2
 20
0.0
 30
0.0
 11
0.2005
 21
0.0
 31
0.0
  0
LINE
  5
186
330
17B
100
AcDbEntity
  8
0
  6
Continuous
 62
     0
370
    18
100
AcDbLine
 10
0.0
 20
4.28125
 30
0.0
 11
0.0
 21
4.38125
 31
0.0
  0
LINE
  5
187
330
17B
100
AcDbEntity
  8
0
  6
Continuous
 62
     0
370
    18
100
AcDbLine
 10
0.0
 20
4.28125
 30
0.0
 11
-0.1
 21
4.28125
 31
0.0
  0
LINE
  5
188
330
17B
100
AcDbEntity
  8
0
  6
Continuous
 62
     0
370
    18
100
AcDbLine
 10
0.0
 20
4.28125
 30
0.0
 11
0.0
 21
4.18125
 31
0.0
  0
LINE
  5
189
330
17B
100
AcDbEntity
  8
0
  6
Continuous
 62
     0
370
    18
100
AcDbLine
 10
0.0
 20
4.28125
 30
0.0
 11
0.1
 21
4.28125
 31
0.0
  0
LINE
  5
18A
330
17B
100
AcDbEntity
  8
0
  6
Continuous
 62
     0
370
    18
100
AcDbLine
 10
0.0
 20
4.48125
 30
0.0
 11
0.0
 21
4.48175
 31
0.0
  0
LINE
  5
18B
330
17B
100
AcDbEntity
  8
0
  6
Continuous
 62
     0
370
    18
100
AcDbLine
 10
-0.2
 20
4.28125
 30
0.0
 11
-0.2005
 21
4.28125
 31
0.0
  0
LINE
  5
18C
330
17B
100
AcDbEntity
  8
0
  6
Continuous
 62
     0
370
    18
100
AcDbLine
 10
0.0
 20
4.08125
 30
0.0
 11
0.0
 21
4.08075
 31
0.0
  0
LINE
  5
18D
330
17B
100
AcDbEntity
  8
0
  6
Continuous
 62
     0
370
    18
100
AcDbLine
 10
0.2
 20
4.28125
 30
0.0
 11
0.2005
 21
4.28125
 31
0.0
  0
ENDBLK
  5
17D
330
17B
100
AcDbEntity
  8
0
100
AcDbBlockEnd
  0
BLOCK
  5
190
330
18F
100
AcDbEntity
  8
0
100
AcDbBlockBegin
  2
SW_CENTERMARKSYMBOL_1
 70
     0
 10
0.0
 20
0.0
 30
0.0
  3
SW_CENTERMARKSYMBOL_1
  1

  0
LINE
  5
192
330
18F
100
AcDbEntity
  8
0
  6
Continuous
 62
     0
370
    18
100
AcDbLine
 10
0.0
 20
0.0
 30
0.0
 11
0.0
 21
0.1
 31
0.0
  0
LINE
  5
193
330
18F
100
AcDbEntity
  8
0
  6
Continuous
 62
     0
370
    18
100
AcDbLine
 10
0.0
 20
0.0
 30
0.0
 11
-0.1
 21
0.0
 31
0.0
  0
LINE
  5
194
330
18F
100
AcDbEntity
  8
0
  6
Continuous
 62
     0
370
    18
100
AcDbLine
 10
0.0
 20
0.0
 30
0.0
 11
0.0
 21
-0.1
 31
0.0
  0
LINE
  5
195
330
18F
100
AcDbEntity
  8
0
  6
Continuous
 62
     0
370
    18
100
AcDbLine
 10
0.0
 20
0.0
 30
0.0
 11
0.1
 21
0.0
 31
0.0
  0
LINE
  5
196
330
18F
100
AcDbEntity
  8
0
  6
Continuous
 62
     0
370
    18
100
AcDbLine
 10
0.0
 20
0.2
 30
0.0
 11
0.0
 21
1.35
 31
0.0
  0
LINE
  5
197
330
18F
100
AcDbEntity
  8
0
  6
Continuous
 62
     0
370
    18
100
AcDbLine
 10
-0.2
 20
0.0
 30
0.0
 11
-1.35
 21
0.0
 31
0.0
  0
LINE
  5
198
330
18F
100
AcDbEntity
  8
0
  6
Continuous
 62
     0
370
    18
100
AcDbLine
 10
0.0
 20
-0.2
 30
0.0
 11
0.0
 21
-1.35
 31
0.0
  0
LINE
  5
199
330
18F
100
AcDbEntity
  8
0
  6
Continuous
 62
     0
370
    18
100
AcDbLine
 10
0.2
 20
0.0
 30
0.0
 11
1.35
 21
0.0
 31
0.0
  0
ENDBLK
  5
191
330
18F
100
AcDbEntity
  8
0
100
AcDbBlockEnd
  0
BLOCK
  5
19C
330
19B
100
AcDbEntity
  8
0
100
AcDbBlockBegin
  2
SW_CENTERMARKSYMBOL_2
 70
     0
 10
0.0
 20
0.0
 30
0.0
  3
SW_CENTERMARKSYMBOL_2
  1

  0
LINE
  5
19E
330
19B
100
AcDbEntity
  8
0
  6
Continuous
 62
     0
370
    18
100
AcDbLine
 10
0.0
 20
0.0
 30
0.0
 11
0.0
 21
0.1
 31
0.0
  0
LINE
  5
19F
330
19B
100
AcDbEntity
  8
0
  6
Continuous
 62
     0
370
    18
100
AcDbLine
 10
0.0
 20
0.0
 30
0.0
 11
-0.1
 21
0.0
 31
0.0
  0
LINE
  5
1A0
330
19B
100
AcDbEntity
  8
0
  6
Continuous
 62
     0
370
    18
100
AcDbLine
 10
0.0
 20
0.0
 30
0.0
 11
0.0
 21
-0.1
 31
0.0
  0
LINE
  5
1A1
330
19B
100
AcDbEntity
  8
0
  6
Continuous
 62
     0
370
    18
100
AcDbLine
 10
0.0
 20
0.0
 30
0.0
 11
0.1
 21
0.0
 31
0.0
  0
LINE
  5
1A2
330
19B
100
AcDbEntity
  8
0
  6
Continuous
 62
     0
370
    18
100
AcDbLine
 10
0.0
 20
0.2
 30
0.0
 11
0.0
 21
0.201565
 31
0.0
  0
LINE
  5
1A3
330
19B
100
AcDbEntity
  8
0
  6
Continuous
 62
     0
370
    18
100
AcDbLine
 10
-0.2
 20
0.0
 30
0.0
 11
-0.201565
 21
0.0
 31
0.0
  0
LINE
  5
1A4
330
19B
100
AcDbEntity
  8
0
  6
Continuous
 62
     0
370
    18
100
AcDbLine
 10
0.0
 20
-0.2
 30
0.0
 11
0.0
 21
-0.201565
 31
0.0
  0
LINE
  5
1A5
330
19B
100
AcDbEntity
  8
0
  6
Continuous
 62
     0
370
    18
100
AcDbLine
 10
0.2
 20
0.0
 30
0.0
 11
0.201565
 21
0.0
 31
0.0
  0
ENDBLK
  5
19D
330
19B
100
AcDbEntity
  8
0
100
AcDbBlockEnd
  0
BLOCK
  5
1A8
330
1A7
100
AcDbEntity
  8
0
100
AcDbBlockBegin
  2
SW_CENTERMARKSYMBOL_3
 70
     0
 10
0.0
 20
0.0
 30
0.0
  3
SW_CENTERMARKSYMBOL_3
  1

  0
LINE
  5
1AA
330
1A7
100
AcDbEntity
  8
0
  6
Continuous
 62
     0
370
    18
100
AcDbLine
 10
0.0
 20
0.0
 30
0.0
 11
0.0
 21
0.1
 31
0.0
  0
LINE
  5
1AB
330
1A7
100
AcDbEntity
  8
0
  6
Continuous
 62
     0
370
    18
100
AcDbLine
 10
0.0
 20
0.0
 30
0.0
 11
-0.1
 21
0.0
 31
0.0
  0
LINE
  5
1AC
330
1A7
100
AcDbEntity
  8
0
  6
Continuous
 62
     0
370
    18
100
AcDbLine
 10
0.0
 20
0.0
 30
0.0
 11
0.0
 21
-0.1
 31
0.0
  0
LINE
  5
1AD
330
1A7
100
AcDbEntity
  8
0
  6
Continuous
 62
     0
370
    18
100
AcDbLine
 10
0.0
 20
0.0
 30
0.0
 11
0.1
 21
0.0
 31
0.0
  0
LINE
  5
1AE
330
1A7
100
AcDbEntity
  8
0
  6
Continuous
 62
     0
370
    18
100
AcDbLine
 10
0.0
 20
0.2
 30
0.0
 11
0.0
 21
0.201565
 31
0.0
  0
LINE
  5
1AF
330
1A7
100
AcDbEntity
  8
0
  6
Continuous
 62
     0
370
    18
100
AcDbLine
 10
-0.2
 20
0.0
 30
0.0
 11
-0.201565
 21
0.0
 31
0.0
  0
LINE
  5
1B0
330
1A7
100
AcDbEntity
  8
0
  6
Continuous
 62
     0
370
    18
100
AcDbLine
 10
0.0
 20
-0.2
 30
0.0
 11
0.0
 21
-0.201565
 31
0.0
  0
LINE
  5
1B1
330
1A7
100
AcDbEntity
  8
0
  6
Continuous
 62
     0
370
    18
100
AcDbLine
 10
0.2
 20
0.0
 30
0.0
 11
0.201565
 21
0.0
 31
0.0
  0
ENDBLK
  5
1A9
330
1A7
100
AcDbEntity
  8
0
100
AcDbBlockEnd
  0
BLOCK
  5
1B4
330
1B3
100
AcDbEntity
  8
0
100
AcDbBlockBegin
  2
SW_CENTERMARKSYMBOL_4
 70
     0
 10
0.0
 20
0.0
 30
0.0
  3
SW_CENTERMARKSYMBOL_4
  1

  0
LINE
  5
1B6
330
1B3
100
AcDbEntity
  8
0
  6
Continuous
 62
     0
370
    18
100
AcDbLine
 10
0.0
 20
0.0
 30
0.0
 11
0.0
 21
0.1
 31
0.0
  0
LINE
  5
1B7
330
1B3
100
AcDbEntity
  8
0
  6
Continuous
 62
     0
370
    18
100
AcDbLine
 10
0.0
 20
0.0
 30
0.0
 11
-0.1
 21
0.0
 31
0.0
  0
LINE
  5
1B8
330
1B3
100
AcDbEntity
  8
0
  6
Continuous
 62
     0
370
    18
100
AcDbLine
 10
0.0
 20
0.0
 30
0.0
 11
0.0
 21
-0.1
 31
0.0
  0
LINE
  5
1B9
330
1B3
100
AcDbEntity
  8
0
  6
Continuous
 62
     0
370
    18
100
AcDbLine
 10
0.0
 20
0.0
 30
0.0
 11
0.1
 21
0.0
 31
0.0
  0
LINE
  5
1BA
330
1B3
100
AcDbEntity
  8
0
  6
Continuous
 62
     0
370
    18
100
AcDbLine
 10
0.0
 20
0.1
 30
0.0
 11
0.0
 21
0.168
 31
0.0
  0
LINE
  5
1BB
330
1B3
100
AcDbEntity
  8
0
  6
Continuous
 62
     0
370
    18
100
AcDbLine
 10
-0.1
 20
0.0
 30
0.0
 11
-0.168
 21
0.0
 31
0.0
  0
LINE
  5
1BC
330
1B3
100
AcDbEntity
  8
0
  6
Continuous
 62
     0
370
    18
100
AcDbLine
 10
0.0
 20
-0.1
 30
0.0
 11
0.0
 21
-0.168
 31
0.0
  0
LINE
  5
1BD
330
1B3
100
AcDbEntity
  8
0
  6
Continuous
 62
     0
370
    18
100
AcDbLine
 10
0.1
 20
0.0
 30
0.0
 11
0.168
 21
0.0
 31
0.0
  0
ENDBLK
  5
1B5
330
1B3
100
AcDbEntity
  8
0
100
AcDbBlockEnd
  0
BLOCK
  5
1D6
330
1D5
100
AcDbEntity
  8
0
100
AcDbBlockBegin
  2
_D_7
 70
     0
 10
0.0
 20
0.0
 30
0.0
  3
_D_7
  1

  0
SOLID
  5
1D8
330
1D5
100
AcDbEntity
  8
0
  6
Continuous
 62
     7
370
    18
100
AcDbTrace
 10
30.7599721288
 20
10.1963896653
 30
0.0
 11
30.3699721288
 21
10.2563896653
 31
0.0
 12
30.3699721288
 22
10.1363896653
 32
0.0
 13
30.3699721288
 23
10.1363896653
 33
0.0
  0
SOLID
  5
1D9
330
1D5
100
AcDbEntity
  8
0
  6
Continuous
 62
     7
370
    18
100
AcDbTrace
 10
31.2599721288
 20
10.1963896653
 30
0.0
 11
31.6499721288
 21
10.1363896653
 31
0.0
 12
31.6499721288
 22
10.2563896653
 32
0.0
 13
31.6499721288
 23
10.2563896653
 33
0.0
  0
LINE
  5
1DA
330
1D5
100
AcDbEntity
  8
0
  6
Continuous
 62
     7
370
     0
100
AcDbLine
 10
27.9444016533
 20
10.1935250234
 30
0.0
 11
27.830143842
 21
10.1935250234
 31
0.0
  0
LINE
  5
1DB
330
1D5
100
AcDbEntity
  8
0
  6
Continuous
 62
     7
370
     0
100
AcDbLine
 10
27.830143842
 20
10.1935250234
 30
0.0
 11
27.830143842
 21
9.5982125055
 31
0.0
  0
LINE
  5
1DC
330
1D5
100
AcDbEntity
  8
0
  6
Continuous
 62
     7
370
     0
100
AcDbLine
 10
27.830143842
 20
9.5982125055
 30
0.0
 11
27.9444016533
 21
9.5982125055
 31
0.0
  0
LINE
  5
1DD
330
1D5
100
AcDbEntity
  8
0
  6
Continuous
 62
     7
370
     0
100
AcDbLine
 10
29.4360683514
 20
10.1935250234
 30
0.0
 11
29.5503261628
 21
10.1935250234
 31
0.0
  0
LINE
  5
1DE
330
1D5
100
AcDbEntity
  8
0
  6
Continuous
 62
     7
370
     0
100
AcDbLine
 10
29.5503261628
 20
10.1935250234
 30
0.0
 11
29.5503261628
 21
9.5982125055
 31
0.0
  0
LINE
  5
1DF
330
1D5
100
AcDbEntity
  8
0
  6
Continuous
 62
     7
370
     0
100
AcDbLine
 10
29.5503261628
 20
9.5982125055
 30
0.0
 11
29.4360683514
 21
9.5982125055
 31
0.0
  0
LINE
  5
1E0
330
1D5
100
AcDbEntity
  8
0
  6
Continuous
 62
     7
370
     0
100
AcDbLine
 10
30.7599721288
 20
8.4566258857
 30
0.0
 11
30.7599721288
 21
10.5713896653
 31
0.0
  0
LINE
  5
1E1
330
1D5
100
AcDbEntity
  8
0
  6
Continuous
 62
     7
370
     0
100
AcDbLine
 10
31.2599721288
 20
8.4566258857
 30
0.0
 11
31.2599721288
 21
10.5713896653
 31
0.0
  0
LINE
  5
1E2
330
1D5
100
AcDbEntity
  8
0
  6
Continuous
 62
     7
370
     0
100
AcDbLine
 10
30.7599721288
 20
10.1963896653
 30
0.0
 11
29.8791850766
 21
10.1963896653
 31
0.0
  0
LINE
  5
1E3
330
1D5
100
AcDbEntity
  8
0
  6
Continuous
 62
     7
370
     0
100
AcDbLine
 10
31.2599721288
 20
10.1963896653
 30
0.0
 11
32.0099721288
 21
10.1963896653
 31
0.0
  0
MTEXT
  5
1E4
330
1D5
100
AcDbEntity
  8
0
  6
Continuous
 62
     7
370
    18
100
AcDbMText
 10
27.7179693636
 20
10.7588265059
 30
0.0
 40
0.375
 41
0.0
 71
     1
 72
     1
  1

  7
SLDTEXTSTYLE1
 73
     1
 44
1.0
  0
MTEXT
  5
1E5
330
1D5
100
AcDbEntity
  8
0
  6
Continuous
 62
     7
370
    18
100
AcDbMText
 10
28.2264328678
 20
10.7530973115
 30
0.0
 40
0.375
 41
0.0
 71
     1
 72
     1
  1
1/2"
  7
SLDTEXTSTYLE1
 73
     1
 44
1.0
  0
MTEXT
  5
1E6
330
1D5
100
AcDbEntity
  8
0
  6
Continuous
 62
     7
370
    18
100
AcDbMText
 10
27.9444016533
 20
10.0816129491
 30
0.0
 40
0.375
 41
0.0
 71
     1
 72
     1
  1
13mm
  7
SLDTEXTSTYLE1
 73
     1
 44
1.0
  0
MTEXT
  5
1E7
330
1D5
100
AcDbEntity
  8
0
  6
Continuous
 62
     7
370
    18
100
AcDbMText
 10
29.8052088916
 20
10.7588265059
 30
0.0
 40
0.375
 41
0.0
 71
     1
 72
     1
  1

  7
SLDTEXTSTYLE1
 73
     1
 44
1.0
  0
ENDBLK
  5
1D7
330
1D5
100
AcDbEntity
  8
0
100
AcDbBlockEnd
  0
BLOCK
  5
1FA
330
1F9
100
AcDbEntity
  8
0
100
AcDbBlockBegin
  2
_D_8
 70
     0
 10
0.0
 20
0.0
 30
0.0
  3
_D_8
  1

  0
SOLID
  5
1FC
330
1F9
100
AcDbEntity
  8
0
  6
Continuous
 62
     7
370
    18
100
AcDbTrace
 10
7.9953118104
 20
12.7585519317
 30
0.0
 11
7.7619665727
 21
13.0767499833
 31
0.0
 12
7.6771137589
 22
12.9918971695
 32
0.0
 13
7.6771137589
 23
12.9918971695
 33
0.0
  0
LINE
  5
1FD
330
1F9
100
AcDbEntity
  8
0
  6
Continuous
 62
     7
370
     0
100
AcDbLine
 10
3.9620576936
 20
14.0445404486
 30
0.0
 11
3.8477998823
 21
14.0445404486
 31
0.0
  0
LINE
  5
1FE
330
1F9
100
AcDbEntity
  8
0
  6
Continuous
 62
     7
370
     0
100
AcDbLine
 10
3.8477998823
 20
14.0445404486
 30
0.0
 11
3.8477998823
 21
13.4492279307
 31
0.0
  0
LINE
  5
1FF
330
1F9
100
AcDbEntity
  8
0
  6
Continuous
 62
     7
370
     0
100
AcDbLine
 10
3.8477998823
 20
13.4492279307
 30
0.0
 11
3.9620576936
 21
13.4492279307
 31
0.0
  0
LINE
  5
200
330
1F9
100
AcDbEntity
  8
0
  6
Continuous
 62
     7
370
     0
100
AcDbLine
 10
5.7308076709
 20
14.0445404486
 30
0.0
 11
5.8450654822
 21
14.0445404486
 31
0.0
  0
LINE
  5
201
330
1F9
100
AcDbEntity
  8
0
  6
Continuous
 62
     7
370
     0
100
AcDbLine
 10
5.8450654822
 20
14.0445404486
 30
0.0
 11
5.8450654822
 21
13.4492279307
 31
0.0
  0
LINE
  5
202
330
1F9
100
AcDbEntity
  8
0
  6
Continuous
 62
     7
370
     0
100
AcDbLine
 10
5.8450654822
 20
13.4492279307
 30
0.0
 11
5.7308076709
 21
13.4492279307
 31
0.0
  0
LINE
  5
203
330
1F9
100
AcDbEntity
  8
0
  6
Continuous
 62
     7
370
     0
100
AcDbLine
 10
7.9953118104
 20
12.7585519317
 30
0.0
 11
6.7093232385
 21
14.0445405036
 31
0.0
  0
LINE
  5
204
330
1F9
100
AcDbEntity
  8
0
  6
Continuous
 62
     7
370
     0
100
AcDbLine
 10
6.7093232385
 20
14.0445405036
 30
0.0
 11
5.9593232385
 21
14.0445405036
 31
0.0
  0
MTEXT
  5
205
330
1F9
100
AcDbEntity
  8
0
  6
Continuous
 62
     7
370
    18
100
AcDbMText
 10
3.7535029904
 20
14.6041127642
 30
0.0
 40
0.375
 41
0.0
 71
     1
 72
     1
  1
%%c
  7
SLDTEXTSTYLE1
 73
     1
 44
1.0
  0
MTEXT
  5
206
330
1F9
100
AcDbEntity
  8
0
  6
Continuous
 62
     7
370
    18
100
AcDbMText
 10
4.3190498521
 20
14.6041127642
 30
0.0
 40
0.375
 41
0.0
 71
     1
 72
     1
  1
4 9/16"
  7
SLDTEXTSTYLE1
 73
     1
 44
1.0
  0
MTEXT
  5
207
330
1F9
100
AcDbEntity
  8
0
  6
Continuous
 62
     7
370
    18
100
AcDbMText
 10
3.9620576936
 20
13.9326283744
 30
0.0
 40
0.375
 41
0.0
 71
     1
 72
     1
  1
116mm
  7
SLDTEXTSTYLE1
 73
     1
 44
1.0
  0
ENDBLK
  5
1FB
330
1F9
100
AcDbEntity
  8
0
100
AcDbBlockEnd
  0
BLOCK
  5
20A
330
209
100
AcDbEntity
  8
0
100
AcDbBlockBegin
  2
_D_9
 70
     0
 10
0.0
 20
0.0
 30
0.0
  3
_D_9
  1

  0
SOLID
  5
20C
330
209
100
AcDbEntity
  8
0
  6
Continuous
 62
     7
370
    18
100
AcDbTrace
 10
11.5414523181
 20
13.0802855172
 30
0.0
 11
11.8596503696
 21
13.313630755
 31
0.0
 12
11.7747975559
 22
13.3984835687
 32
0.0
 13
11.7747975559
 23
13.3984835687
 33
0.0
  0
LINE
  5
20D
330
209
100
AcDbEntity
  8
0
  6
Continuous
 62
     7
370
     0
100
AcDbLine
 10
13.4842229272
 20
14.0445404486
 30
0.0
 11
13.3699651159
 21
14.0445404486
 31
0.0
  0
LINE
  5
20E
330
209
100
AcDbEntity
  8
0
  6
Continuous
 62
     7
370
     0
100
AcDbLine
 10
13.3699651159
 20
14.0445404486
 30
0.0
 11
13.3699651159
 21
13.4492279307
 31
0.0
  0
LINE
  5
20F
330
209
100
AcDbEntity
  8
0
  6
Continuous
 62
     7
370
     0
100
AcDbLine
 10
13.3699651159
 20
13.4492279307
 30
0.0
 11
13.4842229272
 21
13.4492279307
 31
0.0
  0
LINE
  5
210
330
209
100
AcDbEntity
  8
0
  6
Continuous
 62
     7
370
     0
100
AcDbLine
 10
15.2529729045
 20
14.0445404486
 30
0.0
 11
15.3672307158
 21
14.0445404486
 31
0.0
  0
LINE
  5
211
330
209
100
AcDbEntity
  8
0
  6
Continuous
 62
     7
370
     0
100
AcDbLine
 10
15.3672307158
 20
14.0445404486
 30
0.0
 11
15.3672307158
 21
13.4492279307
 31
0.0
  0
LINE
  5
212
330
209
100
AcDbEntity
  8
0
  6
Continuous
 62
     7
370
     0
100
AcDbLine
 10
15.3672307158
 20
13.4492279307
 30
0.0
 11
15.2529729045
 21
13.4492279307
 31
0.0
  0
LINE
  5
213
330
209
100
AcDbEntity
  8
0
  6
Continuous
 62
     7
370
     0
100
AcDbLine
 10
11.5414523181
 20
13.0802855172
 30
0.0
 11
12.5057073046
 21
14.0445405036
 31
0.0
  0
LINE
  5
214
330
209
100
AcDbEntity
  8
0
  6
Continuous
 62
     7
370
     0
100
AcDbLine
 10
12.5057073046
 20
14.0445405036
 30
0.0
 11
13.2557073046
 21
14.0445405036
 31
0.0
  0
MTEXT
  5
215
330
209
100
AcDbEntity
  8
0
  6
Continuous
 62
     7
370
    18
100
AcDbMText
 10
13.4142098635
 20
14.6041127642
 30
0.0
 40
0.375
 41
0.0
 71
     1
 72
     1
  1
%%c
  7
SLDTEXTSTYLE1
 73
     1
 44
1.0
  0
MTEXT
  5
216
330
209
100
AcDbEntity
  8
0
  6
Continuous
 62
     7
370
    18
100
AcDbMText
 10
13.9797567253
 20
14.6041127642
 30
0.0
 40
0.375
 41
0.0
 71
     1
 72
     1
  1
5 1/2"
  7
SLDTEXTSTYLE1
 73
     1
 44
1.0
  0
MTEXT
  5
217
330
209
100
AcDbEntity
  8
0
  6
Continuous
 62
     7
370
    18
100
AcDbMText
 10
13.4842229272
 20
13.9326283744
 30
0.0
 40
0.375
 41
0.0
 71
     1
 72
     1
  1
139mm
  7
SLDTEXTSTYLE1
 73
     1
 44
1.0
  0
ENDBLK
  5
20B
330
209
100
AcDbEntity
  8
0
100
AcDbBlockEnd
  0
ENDSEC
  0
SECTION
  2
ENTITIES
  0
LINE
  5
7F
330
1F
100
AcDbEntity
  8
0
  6
Continuous
 62
     7
370
    25
100
AcDbLine
 10
6.8725152716
 20
22.2518299506
 30
0.0
 11
6.8725152716
 21
18.4143299506
 31
0.0
  0
LINE
  5
80
330
1F
100
AcDbEntity
  8
0
  6
Continuous
 62
     7
370
    25
100
AcDbLine
 10
12.3425152716
 20
18.4143299506
 30
0.0
 11
12.3425152716
 21
22.2518299506
 31
0.0
  0
LINE
  5
81
330
1F
100
AcDbEntity
  8
0
  6
Continuous
 62
     7
370
    25
100
AcDbLine
 10
11.9963597454
 20
18.1614184724
 30
0.0
 11
11.9981495312
 21
18.1639496118
 31
0.0
  0
LINE
  5
82
330
1F
100
AcDbEntity
  8
0
  6
Continuous
 62
     7
370
    25
100
AcDbLine
 10
11.9981495312
 20
18.2887102893
 30
0.0
 11
11.9963597454
 21
18.2912414287
 31
0.0
  0
LINE
  5
83
330
1F
100
AcDbEntity
  8
0
  6
Continuous
 62
     7
370
    25
100
AcDbLine
 10
7.2186707978
 20
18.2912414287
 30
0.0
 11
7.2168810119
 21
18.2887102893
 31
0.0
  0
LINE
  5
84
330
1F
100
AcDbEntity
  8
0
  6
Continuous
 62
     7
370
    25
100
AcDbLine
 10
7.2168810119
 20
18.1639496118
 30
0.0
 11
7.2186707978
 21
18.1614184724
 31
0.0
  0
LINE
  5
85
330
1F
100
AcDbEntity
  8
0
  6
Continuous
 62
     7
370
    25
100
AcDbLine
 10
12.3425152716
 20
16.5143299506
 30
0.0
 11
12.3425152716
 21
18.4143299506
 31
0.0
  0
LINE
  5
86
330
1F
100
AcDbEntity
  8
0
  6
Continuous
 62
     7
370
    25
100
AcDbLine
 10
6.8725152716
 20
18.4143299506
 30
0.0
 11
6.8725152716
 21
16.5143299506
 31
0.0
  0
LINE
  5
87
330
1F
100
AcDbEntity
  8
0
  6
Continuous
 62
     7
370
    25
100
AcDbLine
 10
12.3425152716
 20
18.4143299506
 30
0.0
 11
6.8725152716
 21
18.4143299506
 31
0.0
  0
LINE
  5
88
330
1F
100
AcDbEntity
  8
0
  6
Continuous
 62
     7
370
    25
100
AcDbLine
 10
12.3425152716
 20
22.2518299506
 30
0.0
 11
6.8725152716
 21
22.2518299506
 31
0.0
  0
SPLINE
  5
89
330
1F
100
AcDbEntity
  8
0
  6
Continuous
 62
     7
370
    25
100
AcDbSpline
210
0.0
220
0.0
230
1.0
 70
    11
 71
     3
 72
    44
 73
    40
 74
     0
 42
0.00000001
 43
0.00000001
 40
0.0
 40
0.0
 40
0.0
 40
0.0
 40
0.0268398134211884
 40
0.0536796592044543
 40
0.0805191207327445
 40
0.1073586287945248
 40
0.1342052678690233
 40
0.1610518950553307
 40
0.1879032840187631
 40
0.2147546211639494
 40
0.241598245696014
 40
0.2684418593705829
 40
0.2952773297745757
 40
0.3221128471107128
 40
0.3489524906191788
 40
0.3757921656429413
 40
0.402641800776581
 40
0.4294914027613806
 40
0.4563412595502807
 40
0.4831910701644185
 40
0.5100310211444439
 40
0.5368709850388418
 40
0.5637063683786459
 40
0.5905418034386998
 40
0.6173850832275225
 40
0.6442283728579073
 40
0.6710796896792971
 40
0.6979309590374909
 40
0.724777910866913
 40
0.7516248320028001
 40
0.7784618350362904
 40
0.8052988719742864
 40
0.8321358653683943
 40
0.8589729043172403
 40
0.8858198382622006
 40
0.9126667583410818
 40
0.9395180802863637
 40
0.9663693504292704
 40
1.0
 40
1.0
 40
1.0
 40
1.0
 10
9.528015271554324
 20
21.87682995055178
 30
0.0
 10
9.528237876958759
 20
21.88129813219827
 30
0.0
 10
9.528683088036034
 20
21.89023450087877
 30
0.0
 10
9.53215846518591
 20
21.90326619512166
 30
0.0
 10
9.537650349034681
 20
21.91553189453711
 30
0.0
 10
9.545128123329551
 20
21.92672282053017
 30
0.0
 10
9.55440130038514
 20
21.93646972032039
 30
0.0
 10
9.5651556514436
 20
21.94456017640645
 30
0.0
 10
9.577137451104932
 20
21.95068895785988
 30
0.0
 10
9.58996422183176
 20
21.95476387479347
 30
0.0
 10
9.603298536622402
 20
21.9565805165537
 30
0.0
 10
9.616747549464822
 20
21.95618022637227
 30
0.0
 10
9.629927591107908
 20
21.95348231996304
 30
0.0
 10
9.642483934710777
 20
21.94865526066912
 30
0.0
 10
9.65402817304701
 20
21.94174883101754
 30
0.0
 10
9.664281706960205
 20
21.93303743406643
 30
0.0
 10
9.672892415140707
 20
21.92269695146964
 30
0.0
 10
9.679686609290842
 20
21.91107959078514
 30
0.0
 10
9.684389810885943
 20
21.89846933490642
 30
0.0
 10
9.68695509915954
 20
21.88525848431291
 30
0.0
 10
9.687218895678235
 20
21.87180495288377
 30
0.0
 10
9.685267877088139
 20
21.85849358400642
 30
0.0
 10
9.681066000449903
 20
21.84571425993456
 30
0.0
 10
9.67482089981799
 20
21.8337992650336
 30
0.0
 10
9.666626689055265
 20
21.82312924434495
 30
0.0
 10
9.65678799918817
 20
21.81394973848959
 30
0.0
 10
9.645520711204998
 20
21.80659073444487
 30
0.0
 10
9.633195679346114
 20
21.8011843464251
 30
0.0
 10
9.620126774295457
 20
21.79796996782137
 30
0.0
 10
9.606709288749752
 20
21.79694838924937
 30
0.0
 10
9.593316898839575
 20
21.79824043976493
 30
0.0
 10
9.580320883046825
 20
21.80171569817962
 30
0.0
 10
9.568112837268641
 20
21.80736530295131
 30
0.0
 10
9.5569975033832
 20
21.81494530216712
 30
0.0
 10
9.547347099280293
 20
21.82431824249019
 30
0.0
 10
9.539355220240074
 20
21.83515257421196
 30
0.0
 10
9.533383634227462
 20
21.84719614464941
 30
0.0
 10
9.528957445594022
 20
21.86114504333198
 30
0.0
 10
9.528351952671464
 20
21.87122502846465
 30
0.0
 10
9.528015271554324
 20
21.87682995055178
 30
0.0
  0
LWPOLYLINE
  5
8A
330
1F
100
AcDbEntity
  8
0
  6
Continuous
 62
     7
370
    25
100
AcDbPolyline
 90
       52
 70
   128
 43
0.0
 10
11.9391516615
 20
18.2457668376
 10
11.9382373884
 20
18.2365397697
 10
11.9378969943
 20
18.2271579313
 10
11.9381356392
 20
18.2177635416
 10
11.9389497056
 20
18.2084990099
 10
11.940326853
 20
18.1995047771
 10
11.9422462053
 20
18.1909171866
 10
11.9446786671
 20
18.1828664175
 10
11.9475873646
 20
18.1754745112
 10
11.9509282051
 20
18.1688535216
 10
11.9546505447
 20
18.163103816
 10
11.9586979567
 20
18.1583125542
 10
11.9630090863
 20
18.1545523668
 10
11.9675185812
 20
18.1518802544
 10
11.9721580822
 20
18.1503367235
 10
11.976857259
 20
18.1499451725
 10
11.981544877
 20
18.1507115368
 10
11.9861498766
 20
18.1526241992
 10
11.9906024508
 20
18.1556541656
 10
11.994835103
 20
18.1597555049
 10
11.9987836706
 20
18.164866045
 10
12.0023882973
 20
18.1709083152
 10
12.0055943407
 20
18.1777907209
 10
12.0083532003
 20
18.1854089318
 10
12.0106230547
 20
18.1936474637
 10
12.0123694952
 20
18.2023814288
 10
12.0135660476
 20
18.211478429
 10
12.0141945733
 20
18.2208005632
 10
12.0142455446
 20
18.2302065172
 10
12.0137181887
 20
18.2395537064
 10
12.0126204998
 20
18.248700437
 10
12.0109691178
 20
18.2575080538
 10
12.008789076
 20
18.2658430424
 10
12.0061134215
 20
18.2735790527
 10
12.0029827146
 20
18.2805988149
 10
11.9994444135
 20
18.2867959163
 10
11.9955521554
 20
18.2920764154
 10
11.9913649429
 20
18.2963602651
 10
11.9869462498
 20
18.2995825265
 10
11.982363059
 20
18.3016943536
 10
11.9776848471
 20
18.3026637332
 10
11.9729825309
 20
18.3024759705
 10
11.9683273929
 20
18.3011339117
 10
11.96379
 20
18.2986579011
 10
11.9594391347
 20
18.2950854724
 10
11.9553407515
 20
18.2904707802
 10
11.9515569777
 20
18.2848837784
 10
11.9481451717
 20
18.2784091602
 10
11.9451570527
 20
18.2711450743
 10
11.9426379177
 20
18.2632016368
 10
11.9406259542
 20
18.2546992621
 10
11.9391516615
 20
18.2457668376
  0
LINE
  5
8B
330
1F
100
AcDbEntity
  8
0
  6
Continuous
 62
     7
370
    25
100
AcDbLine
 10
11.9832146381
 20
18.1741399883
 30
0.0
 11
12.0022536111
 21
18.2125669757
 31
0.0
  0
LINE
  5
8C
330
1F
100
AcDbEntity
  8
0
  6
Continuous
 62
     7
370
    25
100
AcDbLine
 10
11.9951337239
 20
18.264756938
 30
0.0
 11
12.0022536111
 21
18.2125669757
 31
0.0
  0
LINE
  5
8D
330
1F
100
AcDbEntity
  8
0
  6
Continuous
 62
     7
370
    25
100
AcDbLine
 10
11.9689748638
 20
18.2785199128
 30
0.0
 11
11.9951337239
 21
18.264756938
 31
0.0
  0
LINE
  5
8E
330
1F
100
AcDbEntity
  8
0
  6
Continuous
 62
     7
370
    25
100
AcDbLine
 10
11.9689748638
 20
18.2785199128
 30
0.0
 11
11.9499358908
 21
18.2400929254
 31
0.0
  0
LINE
  5
8F
330
1F
100
AcDbEntity
  8
0
  6
Continuous
 62
     7
370
    25
100
AcDbLine
 10
11.9570557779
 20
18.1879029631
 30
0.0
 11
11.9499358908
 21
18.2400929254
 31
0.0
  0
LINE
  5
90
330
1F
100
AcDbEntity
  8
0
  6
Continuous
 62
     7
370
    25
100
AcDbLine
 10
11.9570557779
 20
18.1879029631
 30
0.0
 11
11.9832146381
 21
18.1741399883
 31
0.0
  0
LINE
  5
91
330
1F
100
AcDbEntity
  8
0
  6
Continuous
 62
     7
370
    25
100
AcDbLine
 10
11.9621558825
 20
18.264756938
 30
0.0
 11
11.9951337239
 21
18.264756938
 31
0.0
  0
LINE
  5
92
330
1F
100
AcDbEntity
  8
0
  6
Continuous
 62
     7
370
    25
100
AcDbLine
 10
11.9536910507
 20
18.2125669757
 30
0.0
 11
12.0022536111
 21
18.2125669757
 31
0.0
  0
LWPOLYLINE
  5
93
330
1F
100
AcDbEntity
  8
0
  6
Continuous
 62
     7
370
    25
100
AcDbPolyline
 90
       52
 70
   128
 43
0.0
 10
7.2435592479
 20
18.1504916052
 10
7.2481840268
 20
18.1522027583
 10
7.2526686119
 20
18.1550376041
 10
7.2569450214
 20
18.1589531693
 10
7.2609484294
 20
18.1638900977
 10
7.2646181482
 20
18.1697735507
 10
7.2678985487
 20
18.176514341
 10
7.2707399033
 20
18.1840102852
 10
7.27309914
 20
18.1921477524
 10
7.2749404952
 20
18.2008033869
 10
7.2762360558
 20
18.209845978
 10
7.2769661824
 20
18.2191384494
 10
7.2771198071
 20
18.2285399366
 10
7.276694601
 20
18.2379079227
 10
7.2756970099
 20
18.2471003985
 10
7.2741421561
 20
18.2559780155
 10
7.2720536098
 20
18.264406198
 10
7.2694630312
 20
18.2722571835
 10
7.2664096907
 20
18.2794119589
 10
7.2629398739
 20
18.2857620651
 10
7.2591061797
 20
18.2912112411
 10
7.254966723
 20
18.2956768829
 10
7.2505842537
 20
18.2990912959
 10
7.2460252057
 20
18.301402721
 10
7.2413586893
 20
18.3025761195
 10
7.2366554443
 20
18.3025937038
 10
7.231986767
 20
18.3014552073
 10
7.2274234299
 20
18.2991778885
 10
7.2230346085
 20
18.2957962692
 10
7.2188868328
 20
18.2913616113
 10
7.2150429788
 20
18.2859411397
 10
7.2115613156
 20
18.2796170233
 10
7.2084946215
 20
18.2724851292
 10
7.2058893846
 20
18.2646535696
 10
7.2037850975
 20
18.256241063
 10
7.2022136591
 20
18.2473751345
 10
7.2011988908
 20
18.2381901824
 10
7.2007561755
 20
18.2288254412
 10
7.2008922242
 20
18.219422871
 10
7.2016049747
 20
18.2101250051
 10
7.2028836223
 20
18.2010727896
 10
7.204708784
 20
18.192403447
 10
7.2070527923
 20
18.1842483955
 10
7.2098801144
 20
18.1767312575
 10
7.2131478909
 20
18.1699659852
 10
7.2168065858
 20
18.1640551331
 10
7.2208007368
 20
18.1590883038
 10
7.2250697968
 20
18.1551407893
 10
7.2295490511
 20
18.1522724299
 10
7.2341705989
 20
18.150526707
 10
7.2388643822
 20
18.149930084
 10
7.2435592479
 20
18.1504916052
  0
LINE
  5
94
330
1F
100
AcDbEntity
  8
0
  6
Continuous
 62
     7
370
    25
100
AcDbLine
 10
7.2605516827
 20
18.258850351
 30
0.0
 11
7.235661991
 21
18.2800299714
 31
0.0
  0
LINE
  5
95
330
1F
100
AcDbEntity
  8
0
  6
Continuous
 62
     7
370
    25
100
AcDbLine
 10
7.2140461005
 20
18.2475095709
 30
0.0
 11
7.235661991
 21
18.2800299714
 31
0.0
  0
LINE
  5
96
330
1F
100
AcDbEntity
  8
0
  6
Continuous
 62
     7
370
    25
100
AcDbLine
 10
7.2173199017
 20
18.1938095501
 30
0.0
 11
7.2140461005
 21
18.2475095709
 31
0.0
  0
LINE
  5
97
330
1F
100
AcDbEntity
  8
0
  6
Continuous
 62
     7
370
    25
100
AcDbLine
 10
7.2173199017
 20
18.1938095501
 30
0.0
 11
7.2422095934
 21
18.1726299297
 31
0.0
  0
LINE
  5
98
330
1F
100
AcDbEntity
  8
0
  6
Continuous
 62
     7
370
    25
100
AcDbLine
 10
7.2638254839
 20
18.2051503302
 30
0.0
 11
7.2422095934
 21
18.1726299297
 31
0.0
  0
LINE
  5
99
330
1F
100
AcDbEntity
  8
0
  6
Continuous
 62
     7
370
    25
100
AcDbLine
 10
7.2638254839
 20
18.2051503302
 30
0.0
 11
7.2605516827
 21
18.258850351
 31
0.0
  0
LINE
  5
9A
330
1F
100
AcDbEntity
  8
0
  6
Continuous
 62
     7
370
    25
100
AcDbLine
 10
7.2562874137
 20
18.1938095501
 30
0.0
 11
7.2173199017
 21
18.1938095501
 31
0.0
  0
LINE
  5
9B
330
1F
100
AcDbEntity
  8
0
  6
Continuous
 62
     7
370
    25
100
AcDbLine
 10
7.261243069
 20
18.2475095709
 30
0.0
 11
7.2140461005
 21
18.2475095709
 31
0.0
  0
CIRCLE
  5
9C
330
1F
100
AcDbEntity
  8
0
  6
Continuous
 62
     7
370
    25
100
AcDbCircle
 10
9.6075152716
 20
21.8768299506
 30
0.0
 40
0.0701999999999984
  0
LINE
  5
9D
330
1F
100
AcDbEntity
  8
0
  6
Continuous
 62
     7
370
    25
100
AcDbLine
 10
9.6345641317
 20
21.8299799506
 30
0.0
 11
9.5804664114
 21
21.8299799506
 31
0.0
  0
LINE
  5
9E
330
1F
100
AcDbEntity
  8
0
  6
Continuous
 62
     7
370
    25
100
AcDbLine
 10
9.6345641317
 20
21.8299799506
 30
0.0
 11
9.6616129918
 21
21.8768299506
 31
0.0
  0
LINE
  5
9F
330
1F
100
AcDbEntity
  8
0
  6
Continuous
 62
     7
370
    25
100
AcDbLine
 10
9.6616129918
 20
21.8768299506
 30
0.0
 11
9.6345641317
 21
21.9236799506
 31
0.0
  0
LINE
  5
A0
330
1F
100
AcDbEntity
  8
0
  6
Continuous
 62
     7
370
    25
100
AcDbLine
 10
9.5804664114
 20
21.9236799506
 30
0.0
 11
9.6345641317
 21
21.9236799506
 31
0.0
  0
LINE
  5
A1
330
1F
100
AcDbEntity
  8
0
  6
Continuous
 62
     7
370
    25
100
AcDbLine
 10
9.5534175513
 20
21.8768299506
 30
0.0
 11
9.5804664114
 21
21.9236799506
 31
0.0
  0
LINE
  5
A2
330
1F
100
AcDbEntity
  8
0
  6
Continuous
 62
     7
370
    25
100
AcDbLine
 10
9.5534175513
 20
21.8768299506
 30
0.0
 11
9.5804664114
 21
21.8299799506
 31
0.0
  0
SPLINE
  5
A3
330
1F
100
AcDbEntity
  8
0
  6
Continuous
 62
     7
370
    25
100
AcDbSpline
210
0.0
220
0.0
230
1.0
 70
    11
 71
     3
 72
    44
 73
    40
 74
     0
 42
0.00000001
 43
0.00000001
 40
0.0
 40
0.0
 40
0.0
 40
0.0
 40
0.0268398134211876
 40
0.0536796592044535
 40
0.0805191207327437
 40
0.1073586287945235
 40
0.1342052678690225
 40
0.16105189505533
 40
0.1879032840187625
 40
0.2147546211639483
 40
0.2415982456960129
 40
0.2684418593705818
 40
0.2952773297745738
 40
0.3221128471107115
 40
0.3489524906191763
 40
0.375792165642937
 40
0.4026418007765791
 40
0.4294914027613802
 40
0.45634125955028
 40
0.4831910701644161
 40
0.5100310211444434
 40
0.5368709850388422
 40
0.5637063683786455
 40
0.5905418034386993
 40
0.6173850832275218
 40
0.6442283728579069
 40
0.6710796896792973
 40
0.697930959037491
 40
0.7247779108669128
 40
0.7516248320028
 40
0.7784618350362903
 40
0.8052988719742872
 40
0.8321358653683942
 40
0.858972904317238
 40
0.8858198382621985
 40
0.91266675834108
 40
0.9395180802863606
 40
0.9663693504292656
 40
0.9999999999999999
 40
0.9999999999999999
 40
0.9999999999999999
 40
0.9999999999999999
 10
12.01484390013248
 20
18.22632995055178
 30
0.0
 10
12.01473833941715
 20
18.23079813219828
 30
0.0
 10
12.01452721785921
 20
18.23973450087877
 30
0.0
 10
12.01287487865573
 20
18.25276619512166
 30
0.0
 10
12.01025658702211
 20
18.26503189453712
 30
0.0
 10
12.00667579151322
 20
18.27622282053016
 30
0.0
 10
12.00221010490467
 20
18.28596972032039
 30
0.0
 10
11.99699755371107
 20
18.29406017640645
 30
0.0
 10
11.99114513882833
 20
18.30018895785988
 30
0.0
 10
11.98483096255542
 20
18.30426387479347
 30
0.0
 10
11.97820908666584
 20
18.30608051655371
 30
0.0
 10
11.97147492240306
 20
18.30568022637227
 30
0.0
 10
11.96481719733258
 20
18.30298231996304
 30
0.0
 10
11.95842480822093
 20
18.29815526066912
 30
0.0
 10
11.95250168222534
 20
18.29124883101754
 30
0.0
 10
11.94720611307436
 20
18.28253743406643
 30
0.0
 10
11.94273251062747
 20
18.27219695146964
 30
0.0
 10
11.93918593980402
 20
18.26057959078514
 30
0.0
 10
11.93672260713089
 20
18.24796933490642
 30
0.0
 10
11.93537540233129
 20
18.23475848431291
 30
0.0
 10
11.93523731300821
 20
18.22130495288377
 30
0.0
 10
11.93626144342894
 20
18.20799358400642
 30
0.0
 10
11.93846436494399
 20
18.19521425993456
 30
0.0
 10
11.94172735456691
 20
18.1832992650336
 30
0.0
 10
11.94598993499977
 20
18.17262924434495
 30
0.0
 10
11.9510800632022
 20
18.16344973848959
 30
0.0
 10
11.95687022784202
 20
18.15609073444487
 30
0.0
 10
11.9631590320876
 20
18.15068434642509
 30
0.0
 10
11.96977241595618
 20
18.14746996782137
 30
0.0
 10
11.97650758092332
 20
18.14644838924937
 30
0.0
 10
11.98317055564904
 20
18.14774043976492
 30
0.0
 10
11.98958361937331
 20
18.15121569817962
 30
0.0
 10
11.99555689354053
 20
18.15686530295132
 30
0.0
 10
12.00095543287531
 20
18.16444530216712
 30
0.0
 10
12.00560961361017
 20
18.17381824249019
 30
0.0
 10
12.00944165918407
 20
18.18465257421196
 30
0.0
 10
12.01229187826882
 20
18.19669614464941
 30
0.0
 10
12.01439677343624
 20
18.21064504333198
 30
0.0
 10
12.0146841216741
 20
18.22072502846465
 30
0.0
 10
12.01484390013248
 20
18.22632995055178
 30
0.0
  0
SPLINE
  5
A4
330
1F
100
AcDbEntity
  8
0
  6
Continuous
 62
     7
370
    25
100
AcDbSpline
210
0.0
220
0.0
230
1.0
 70
    11
 71
     3
 72
    44
 73
    40
 74
     0
 42
0.00000001
 43
0.00000001
 40
0.0
 40
0.0
 40
0.0
 40
0.0
 40
0.0268398134211882
 40
0.0536796592044533
 40
0.0805191207327438
 40
0.1073586287945238
 40
0.1342052678690231
 40
0.16105189505533
 40
0.1879032840187621
 40
0.2147546211639476
 40
0.2415982456960127
 40
0.268441859370582
 40
0.2952773297745745
 40
0.3221128471107119
 40
0.3489524906191764
 40
0.375792165642937
 40
0.4026418007765785
 40
0.4294914027613803
 40
0.4563412595502797
 40
0.4831910701644164
 40
0.5100310211444432
 40
0.5368709850388427
 40
0.5637063683786463
 40
0.5905418034386998
 40
0.6173850832275217
 40
0.6442283728579069
 40
0.6710796896792971
 40
0.6979309590374912
 40
0.7247779108669139
 40
0.7516248320028008
 40
0.7784618350362907
 40
0.8052988719742871
 40
0.8321358653683938
 40
0.8589729043172378
 40
0.885819838262198
 40
0.9126667583410801
 40
0.9395180802863616
 40
0.9663693504292657
 40
1.0
 40
1.0
 40
1.0
 40
1.0
 10
7.279686642976178
 20
18.22632995055178
 30
0.0
 10
7.279569598287077
 20
18.23079813219828
 30
0.0
 10
7.279335508767748
 20
18.23973450087877
 30
0.0
 10
7.277512470821349
 20
18.25276619512167
 30
0.0
 10
7.274638878606193
 20
18.26503189453712
 30
0.0
 10
7.270741899820213
 20
18.27622282053017
 30
0.0
 10
7.265934409373176
 20
18.28596972032039
 30
0.0
 10
7.260392609508314
 20
18.29406017640645
 30
0.0
 10
7.254263224729724
 20
18.30018895785988
 30
0.0
 10
7.247750630275806
 20
18.30426387479347
 30
0.0
 10
7.241038191374744
 20
18.30608051655371
 30
0.0
 10
7.234323342795107
 20
18.30568022637227
 30
0.0
 10
7.227801026222502
 20
18.30298231996304
 30
0.0
 10
7.221637071731276
 20
18.29815526066912
 30
0.0
 10
7.216015959390635
 20
18.29124883101755
 30
0.0
 10
7.211057994628423
 20
18.28253743406643
 30
0.0
 10
7.206920888894805
 20
18.27219695146964
 30
0.0
 10
7.203673265568127
 20
18.26057959078514
 30
0.0
 10
7.20143339664616
 20
18.24796933490642
 30
0.0
 10
7.200215313172157
 20
18.23475848431291
 30
0.0
 10
7.200089605976544
 20
18.22130495288377
 30
0.0
 10
7.201016494145906
 20
18.20799358400642
 30
0.0
 10
7.203015449269097
 20
18.19521425993456
 30
0.0
 10
7.205997560278083
 20
18.1832992650336
 30
0.0
 10
7.209929190607949
 20
18.17262924434495
 30
0.0
 10
7.214677752272613
 20
18.16344973848959
 30
0.0
 10
7.220154875615973
 20
18.15609073444487
 30
0.0
 10
7.226191103229274
 20
18.15068434642509
 30
0.0
 10
7.232646624411354
 20
18.14746996782137
 30
0.0
 10
7.239328944989915
 20
18.14644838924937
 30
0.0
 10
7.246058360174371
 20
18.14774043976493
 30
0.0
 10
7.25264131224285
 20
18.15121569817962
 30
0.0
 10
7.258876083853814
 20
18.15686530295132
 30
0.0
 10
7.264592878404481
 20
18.16444530216712
 30
0.0
 10
7.26958910177253
 20
18.17381824249019
 30
0.0
 10
7.273748935238842
 20
18.18465257421196
 30
0.0
 10
7.276870302166702
 20
18.19669614464941
 30
0.0
 10
7.279191595632727
 20
18.21064504333198
 30
0.0
 10
7.279509740317425
 20
18.22072502846465
 30
0.0
 10
7.279686642976178
 20
18.22632995055178
 30
0.0
  0
LINE
  5
A5
330
1F
100
AcDbEntity
  8
0
  6
Continuous
 62
     7
370
    25
100
AcDbLine
 10
12.3425152716
 20
16.5143299506
 30
0.0
 11
6.8725152716
 21
16.5143299506
 31
0.0
  0
DIMENSION
  5
A6
330
1F
100
AcDbEntity
  8
0
  6
Continuous
 62
     7
370
    18
100
AcDbDimension
  2
_D
 10
5.2545827797
 20
18.4143299506
 30
0.0
 11
5.2545827797
 21
20.3330799506
 31
0.0
 70
   160
  1
<>
 71
     2
 42
-1.0
  3
SLDDIMSTYLE0
100
AcDbAlignedDimension
 13
6.8725152716
 23
22.2518299506
 33
0.0
 14
6.8725152716
 24
18.4143299506
 34
0.0
 50
90.0
100
AcDbRotatedDimension
  0
LINE
  5
BC
330
1F
100
AcDbEntity
  8
0
  6
Continuous
 62
     7
370
    25
100
AcDbLine
 10
11.1649819074
 20
3.2528734128
 30
0.0
 11
11.1649819074
 21
3.1443734128
 31
0.0
  0
LINE
  5
BD
330
1F
100
AcDbEntity
  8
0
  6
Continuous
 62
     7
370
    25
100
AcDbLine
 10
11.1649819074
 20
6.0443734128
 30
0.0
 11
11.1649819074
 21
3.4116191595
 31
0.0
  0
LINE
  5
BE
330
1F
100
AcDbEntity
  8
0
  6
Continuous
 62
     7
370
    25
100
AcDbLine
 10
16.6349819074
 20
3.1443734128
 30
0.0
 11
16.6349819074
 21
6.0443734128
 31
0.0
  0
SPLINE
  5
BF
330
1F
100
AcDbEntity
  8
0
  6
Continuous
 62
     7
370
    25
100
AcDbSpline
210
0.0
220
0.0
230
1.0
 70
    11
 71
     3
 72
    45
 73
    41
 74
     0
 42
0.00000001
 43
0.00000001
 40
0.0
 40
0.0
 40
0.0
 40
0.0
 40
0.0268385569236459
 40
0.0536771462078559
 40
0.0805153512550791
 40
0.1073536028336129
 40
0.1341989850910289
 40
0.1610443554608108
 40
0.1878944873847951
 40
0.2147445674929596
 40
0.2415869353490672
 40
0.2684292923481871
 40
0.2952635064579545
 40
0.3220977674976696
 40
0.3489361545165486
 40
0.3757745730492481
 40
0.4026229512255463
 40
0.4294712962545556
 40
0.4563198960757364
 40
0.4831684497243175
 40
0.5100071442003612
 40
0.5368458515901727
 40
0.5636799786398283
 40
0.590514157407313
 40
0.6173561805363171
 40
0.644198213506423
 40
0.6710482732917433
 40
0.6978982856160879
 40
0.7247439806137859
 40
0.7515896449193855
 40
0.7784253915869023
 40
0.8052611721573368
 40
0.8320969091859223
 40
0.8589326917671116
 40
0.8857783688811846
 40
0.9126240321298277
 40
0.9394740970388011
 40
0.9663241101478227
 40
0.9831620567680787
 40
0.9999999999999999
 40
0.9999999999999999
 40
0.9999999999999999
 40
0.9999999999999999
 10
15.1980550463462
 20
3.332373412760924
 30
0.0
 10
15.19825114341913
 20
3.32790523111443
 30
0.0
 10
15.19864333780144
 20
3.318968862433935
 30
0.0
 10
15.20170237918356
 20
3.305937168191041
 30
0.0
 10
15.20653218904096
 20
3.293671468775589
 30
0.0
 10
15.21309940579416
 20
3.282480542782543
 30
0.0
 10
15.22122888296717
 20
3.272733642992315
 30
0.0
 10
15.2306374700895
 20
3.264643186906252
 30
0.0
 10
15.24109396730124
 20
3.258514405452826
 30
0.0
 10
15.2522595549943
 20
3.254439488519232
 30
0.0
 10
15.26383355363458
 20
3.252622846759002
 30
0.0
 10
15.27547516445451
 20
3.253023136940431
 30
0.0
 10
15.286850326274
 20
3.255721043349666
 30
0.0
 10
15.29765849541794
 20
3.260548102643579
 30
0.0
 10
15.30756891525197
 20
3.267454532295162
 30
0.0
 10
15.31635127810699
 20
3.276165929246279
 30
0.0
 10
15.32371123190189
 20
3.286506411843064
 30
0.0
 10
15.32950887792528
 20
3.298123772527566
 30
0.0
 10
15.33351746155731
 20
3.310734028406285
 30
0.0
 10
15.33570179225424
 20
3.323944878999798
 30
0.0
 10
15.33592667232852
 20
3.337398410428935
 30
0.0
 10
15.33426511208634
 20
3.350709779306281
 30
0.0
 10
15.3306850601993
 20
3.36348910337816
 30
0.0
 10
15.32535772707599
 20
3.37540409827906
 30
0.0
 10
15.3183568694517
 20
3.386074118967939
 30
0.0
 10
15.30993491587301
 20
3.395253624822448
 30
0.0
 10
15.30026752541188
 20
3.402612628870348
 30
0.0
 10
15.28966664759038
 20
3.408019016878249
 30
0.0
 10
15.27839421381394
 20
3.411233395526258
 30
0.0
 10
15.26678958920023
 20
3.412254973933034
 30
0.0
 10
15.25517224520125
 20
3.410962924033885
 30
0.0
 10
15.24386837661461
 20
3.407487663318892
 30
0.0
 10
15.23322021032578
 20
3.401838067132049
 30
0.0
 10
15.22350292557511
 20
3.39425803587316
 30
0.0
 10
15.21504389446202
 20
3.384885215179174
 30
0.0
 10
15.20803853914415
 20
3.374050436937028
 30
0.0
 10
15.20274975478595
 20
3.362008533193853
 30
0.0
 10
15.19973047867962
 20
3.350736198309246
 30
0.0
 10
15.19828394882291
 20
3.340778369314368
 30
0.0
 10
15.19813134716665
 20
3.335175064757478
 30
0.0
 10
15.1980550463462
 20
3.332373412760924
 30
0.0
  0
SPLINE
  5
C0
330
1F
100
AcDbEntity
  8
0
  6
Continuous
 62
     7
370
    25
100
AcDbSpline
210
0.0
220
0.0
230
1.0
 70
     8
 71
     3
 72
    26
 73
    22
 74
     0
 42
0.00000001
 43
0.00000001
 40
0.0
 40
0.0
 40
0.0
 40
0.0
 40
0.0529118742274235
 40
0.1073585914100094
 40
0.1602703524966124
 40
0.214715788621073
 40
0.2676415289505294
 40
0.3221015502929434
 40
0.3750359423776721
 40
0.4295062670532164
 40
0.4824253471073561
 40
0.5368800170720491
 40
0.5897837214137746
 40
0.6442212132559446
 40
0.6971334775418524
 40
0.7515790815882921
 40
0.8045104777415402
 40
0.8589768175494968
 40
0.9119080615232722
 40
0.9663754028275412
 40
0.9999999999999999
 40
0.9999999999999999
 40
0.9999999999999999
 40
0.9999999999999999
 10
11.16498190740989
 20
3.252873412760924
 30
0.0
 10
11.16498811849831
 20
3.25308564371548
 30
0.0
 10
11.1650007208435
 20
3.253516261921078
 30
0.0
 10
11.165099434349
 20
3.256980915397463
 30
0.0
 10
11.16524635351149
 20
3.262462954387027
 30
0.0
 10
11.16542846022442
 20
3.269912877210081
 30
0.0
 10
11.16562663057056
 20
3.279199877874493
 30
0.0
 10
11.16581577604541
 20
3.28991000030599
 30
0.0
 10
11.16597751268041
 20
3.301928747622215
 30
0.0
 10
11.16609099862404
 20
3.314699793224544
 30
0.0
 10
11.16614526714353
 20
3.328090199445575
 30
0.0
 10
11.16613334188617
 20
3.341478310808792
 30
0.0
 10
11.1660564039614
 20
3.354727154891147
 30
0.0
 10
11.16592438283821
 20
3.367224311309842
 30
0.0
 10
11.16575001881299
 20
3.378841894057708
 30
0.0
 10
11.16555567826866
 20
3.389045801347566
 30
0.0
 10
11.16536034295639
 20
3.397721706764823
 30
0.0
 10
11.16518828554903
 20
3.404498569531624
 30
0.0
 10
11.16505946739241
 20
3.40918844666325
 30
0.0
 10
11.16498785048613
 20
3.411669639795026
 30
0.0
 10
11.16498888682244
 20
3.41163310482349
 30
0.0
 10
11.16498928239088
 20
3.411619159464563
 30
0.0
  0
LINE
  5
C1
330
1F
100
AcDbEntity
  8
0
  6
Continuous
 62
     7
370
    25
100
AcDbLine
 10
11.1649819074
 20
6.0443734128
 30
0.0
 11
16.6349819074
 21
6.0443734128
 31
0.0
  0
LINE
  5
C2
330
1F
100
AcDbEntity
  8
0
  6
Continuous
 62
     7
370
    25
100
AcDbLine
 10
11.1649819074
 20
3.1443734128
 30
0.0
 11
16.6349819074
 21
3.1443734128
 31
0.0
  0
SPLINE
  5
C3
330
1F
100
AcDbEntity
  8
0
  6
Continuous
 62
     7
370
    25
100
AcDbSpline
210
0.0
220
0.0
230
1.0
 70
     8
 71
     3
 72
    18
 73
    14
 74
     0
 42
0.00000001
 43
0.00000001
 40
0.0
 40
0.0
 40
0.0
 40
0.0
 40
0.098093033839781
 40
0.1961860797114386
 40
0.294278080299594
 40
0.3923703674899969
 40
0.4904862020227359
 40
0.5886023425484195
 40
0.6867893212634495
 40
0.7849761850158733
 40
0.8831923564021547
 40
0.9814079795462337
 40
1.0
 40
1.0
 40
1.0
 40
1.0
 10
15.27425957336736
 20
3.372537048074769
 30
0.0
 10
15.27606389022118
 20
3.368568742682788
 30
0.0
 10
15.27967252415013
 20
3.360632131412082
 30
0.0
 10
15.28286581213789
 20
3.347631141901307
 30
0.0
 10
15.28425298125896
 20
3.334273222144565
 30
0.0
 10
15.28372070342709
 20
3.320840341548621
 30
0.0
 10
15.28124616777758
 20
3.307748697692102
 30
0.0
 10
15.27696138462558
 20
3.295332919555039
 30
0.0
 10
15.27090494889369
 20
3.284001348989856
 30
0.0
 10
15.26332686055873
 20
3.27396029408389
 30
0.0
 10
15.25429208178585
 20
3.265800368073349
 30
0.0
 10
15.24707653587019
 20
3.26068088309995
 30
0.0
 10
15.24274189931466
 20
3.259024727779747
 30
0.0
 10
15.24205196457223
 20
3.258761121112928
 30
0.0
  0
SPLINE
  5
C4
330
1F
100
AcDbEntity
  8
0
  6
Continuous
 62
     7
370
    25
100
AcDbSpline
210
0.0
220
0.0
230
1.0
 70
     8
 71
     3
 72
    12
 73
     8
 74
     0
 42
0.00000001
 43
0.00000001
 40
0.0
 40
0.0
 40
0.0
 40
0.0
 40
0.1530326742100359
 40
0.4132080324982891
 40
0.6733832024525684
 40
0.8366916244565432
 40
1.0
 40
1.0
 40
1.0
 40
1.0
 10
15.24110853801131
 20
3.405556552531554
 30
0.0
 10
15.2432210049017
 20
3.404580462255687
 30
0.0
 10
15.24892493899294
 20
3.401944892142875
 30
0.0
 10
15.25725004569885
 20
3.395364726535644
 30
0.0
 10
15.26477058774314
 20
3.387438921188022
 30
0.0
 10
15.27036351728828
 20
3.379662330993471
 30
0.0
 10
15.27296088813082
 20
3.374912142155768
 30
0.0
 10
15.27425957336736
 20
3.372537048074769
 30
0.0
  0
INSERT
  5
C5
330
1F
100
AcDbEntity
  8
0
  6
Continuous
 62
     7
100
AcDbBlockReference
  2
Block1
 10
12.8550641526
 20
2.0960794227
 30
0.0
 41
0.5
 42
0.5
 43
0.5
  0
DIMENSION
  5
C6
330
1F
100
AcDbEntity
  8
0
  6
Continuous
 62
     7
370
    18
100
AcDbDimension
  2
_D_1
 10
9.9838795452
 20
3.1443734128
 30
0.0
 11
9.9838795452
 21
4.5943734128
 31
0.0
 70
   160
  1
<>
 71
     2
 42
-1.0
  3
SLDDIMSTYLE0
100
AcDbAlignedDimension
 13
11.1649819074
 23
6.0443734128
 33
0.0
 14
11.1649819074
 24
3.1443734128
 34
0.0
 50
90.0
100
AcDbRotatedDimension
  0
LINE
  5
DA
330
1F
100
AcDbEntity
  8
0
  6
Continuous
 62
     7
370
    25
100
AcDbLine
 10
2.8277972519
 20
3.3362966462
 30
0.0
 11
2.8277972519
 21
3.2277966462
 31
0.0
  0
LINE
  5
DB
330
1F
100
AcDbEntity
  8
0
  6
Continuous
 62
     7
370
    25
100
AcDbLine
 10
2.8277972519
 20
5.1277966462
 30
0.0
 11
2.8277972519
 21
3.4950423929
 31
0.0
  0
LINE
  5
DC
330
1F
100
AcDbEntity
  8
0
  6
Continuous
 62
     7
370
    25
100
AcDbLine
 10
8.2977972519
 20
3.2277966462
 30
0.0
 11
8.2977972519
 21
5.1277966462
 31
0.0
  0
SPLINE
  5
DD
330
1F
100
AcDbEntity
  8
0
  6
Continuous
 62
     7
370
    25
100
AcDbSpline
210
0.0
220
0.0
230
1.0
 70
    11
 71
     3
 72
    62
 73
    58
 74
     0
 42
0.00000001
 43
0.00000001
 40
0.0
 40
0.0
 40
0.0
 40
0.0
 40
0.0312499999999993
 40
0.0312499999999993
 40
0.0624999999999986
 40
0.0624999999999986
 40
0.093749999999998
 40
0.093749999999998
 40
0.1249999999999973
 40
0.1249999999999973
 40
0.1874999999999969
 40
0.1874999999999969
 40
0.2499999999999966
 40
0.2499999999999966
 40
0.2812499999999968
 40
0.2812499999999968
 40
0.3124999999999969
 40
0.3124999999999969
 40
0.3437499999999971
 40
0.3437499999999971
 40
0.3749999999999972
 40
0.3749999999999972
 40
0.4062499999999974
 40
0.4062499999999974
 40
0.4374999999999975
 40
0.4374999999999975
 40
0.4687499999999977
 40
0.4687499999999977
 40
0.4999999999999978
 40
0.4999999999999978
 40
0.5312499999999979
 40
0.5312499999999979
 40
0.562499999999998
 40
0.562499999999998
 40
0.624999999999998
 40
0.624999999999998
 40
0.6562499999999981
 40
0.6562499999999981
 40
0.6874999999999982
 40
0.6874999999999982
 40
0.7187499999999983
 40
0.7187499999999983
 40
0.7499999999999984
 40
0.7499999999999984
 40
0.7812499999999986
 40
0.7812499999999986
 40
0.8124999999999987
 40
0.8124999999999987
 40
0.8437499999999988
 40
0.8437499999999988
 40
0.8749999999999988
 40
0.8749999999999988
 40
0.9062499999999989
 40
0.9062499999999989
 40
0.937499999999999
 40
0.937499999999999
 40
1.0
 40
1.0
 40
1.0
 40
1.0
 10
6.860870390841801
 20
3.415796646161617
 30
0.0
 10
6.8608703908418
 20
3.410544193292425
 30
0.0
 10
6.861324317504102
 20
3.405379567811829
 30
0.0
 10
6.863102015863802
 20
3.39521877100284
 30
0.0
 10
6.864447356777358
 20
3.390169968208733
 30
0.0
 10
6.86795680442387
 20
3.380542454417425
 30
0.0
 10
6.870103308791171
 20
3.375976290306981
 30
0.0
 10
6.875169288090427
 20
3.367334622147422
 30
0.0
 10
6.878115485111841
 20
3.363243270593287
 30
0.0
 10
6.887756700456944
 20
3.352243126767259
 30
0.0
 10
6.895512932367222
 20
3.346320146360843
 30
0.0
 10
6.912188246893491
 20
3.338390253548306
 30
0.0
 10
6.921279934197975
 20
3.336302177196552
 30
0.0
 10
6.934750939225895
 20
3.336293897537751
 30
0.0
 10
6.939304214601907
 20
3.336809802941695
 30
0.0
 10
6.94810561106086
 20
3.338837649054595
 30
0.0
 10
6.952376305945718
 20
3.340338081025546
 30
0.0
 10
6.960658664749984
 20
3.344317450525673
 30
0.0
 10
6.964658568822846
 20
3.346806430397294
 30
0.0
 10
6.972050666586917
 20
3.352560193213568
 30
0.0
 10
6.975490927399727
 20
3.355844809073379
 30
0.0
 10
6.981844252388345
 20
3.36326155353086
 30
0.0
 10
6.98466154727142
 20
3.367284405417221
 30
0.0
 10
6.989579810183707
 20
3.375892720561261
 30
0.0
 10
6.991703093775443
 20
3.380537245356011
 30
0.0
 10
6.995107761928056
 20
3.390170767750306
 30
0.0
 10
6.996389176298297
 20
3.395126244292865
 30
0.0
 10
6.998122693345059
 20
3.405311327458221
 30
0.0
 10
6.998566858954436
 20
3.410580171340089
 30
0.0
 10
6.998569992617552
 20
3.420956728803441
 30
0.0
 10
6.998143316585005
 20
3.426113267956397
 30
0.0
 10
6.99641500547292
 20
3.436361564062028
 30
0.0
 10
6.995115548054762
 20
3.441388209014664
 30
0.0
 10
6.990055206101369
 20
3.455743068265194
 30
0.0
 10
6.985005058101777
 20
3.464619986875414
 30
0.0
 10
6.975605388075876
 20
3.475625624546039
 30
0.0
 10
6.972106230942852
 20
3.478985013837587
 30
0.0
 10
6.964689641356548
 20
3.484767455780042
 30
0.0
 10
6.960768953790152
 20
3.487212311616499
 30
0.0
 10
6.952498004425835
 20
3.491206988548696
 30
0.0
 10
6.948141340843002
 20
3.492743423973892
 30
0.0
 10
6.939369169733967
 20
3.494772465323451
 30
0.0
 10
6.934907527244689
 20
3.495291280257479
 30
0.0
 10
6.925826828751249
 20
3.495301930057486
 30
0.0
 10
6.921326845823886
 20
3.494790025492589
 30
0.0
 10
6.912499260864881
 20
3.492779893894232
 30
0.0
 10
6.908113560698125
 20
3.491260010447886
 30
0.0
 10
6.899708119343517
 20
3.487273402252946
 30
0.0
 10
6.895719605087518
 20
3.484834207186808
 30
0.0
 10
6.888167902467136
 20
3.479077709427131
 30
0.0
 10
6.884582281424729
 20
3.475723125535959
 30
0.0
 10
6.878145866964501
 20
3.468389816911011
 30
0.0
 10
6.875257045579499
 20
3.464391463070618
 30
0.0
 10
6.870153872347754
 20
3.455719707756603
 30
0.0
 10
6.867972515710156
 20
3.451082209330457
 30
0.0
 10
6.862730639910579
 20
3.436737059561986
 30
0.0
 10
6.860870390841801
 20
3.4263015519
 30
0.0
 10
6.8608703908418
 20
3.415796646161617
 30
0.0
  0
SPLINE
  5
DE
330
1F
100
AcDbEntity
  8
0
  6
Continuous
 62
     7
370
    25
100
AcDbSpline
210
0.0
220
0.0
230
1.0
 70
     8
 71
     3
 72
    26
 73
    22
 74
     0
 42
0.00000001
 43
0.00000001
 40
0.0
 40
0.0
 40
0.0
 40
0.0
 40
0.0529118742274221
 40
0.1073585914100058
 40
0.1602703524966128
 40
0.2147157886210773
 40
0.2676415289505326
 40
0.3221015502929491
 40
0.3750359423776723
 40
0.4295062670532122
 40
0.4824253471073509
 40
0.536880017072043
 40
0.5897837214137751
 40
0.6442212132559495
 40
0.6971334775418558
 40
0.7515790815882955
 40
0.804510477741545
 40
0.8589768175495007
 40
0.9119080615232755
 40
0.9663754028275409
 40
1.0
 40
1.0
 40
1.0
 40
1.0
 10
2.827797251905484
 20
3.336296646161619
 30
0.0
 10
2.827803462993906
 20
3.336508877116174
 30
0.0
 10
2.827816065339106
 20
3.336939495321771
 30
0.0
 10
2.827914778844594
 20
3.340404148798152
 30
0.0
 10
2.828061698007097
 20
3.345886187787721
 30
0.0
 10
2.828243804720018
 20
3.353336110610777
 30
0.0
 10
2.828441975066167
 20
3.362623111275187
 30
0.0
 10
2.828631120541009
 20
3.373333233706684
 30
0.0
 10
2.828792857176008
 20
3.385351981022908
 30
0.0
 10
2.828906343119643
 20
3.398123026625236
 30
0.0
 10
2.828960611639128
 20
3.411513432846266
 30
0.0
 10
2.82894868638177
 20
3.424901544209484
 30
0.0
 10
2.828871748457006
 20
3.438150388291839
 30
0.0
 10
2.82873972733381
 20
3.450647544710536
 30
0.0
 10
2.828565363308594
 20
3.462265127458401
 30
0.0
 10
2.828371022764255
 20
3.472469034748261
 30
0.0
 10
2.828175687451989
 20
3.481144940165516
 30
0.0
 10
2.82800363004463
 20
3.48792180293232
 30
0.0
 10
2.827874811888007
 20
3.49261168006394
 30
0.0
 10
2.827803194981733
 20
3.495092873195719
 30
0.0
 10
2.827804231318042
 20
3.495056338224183
 30
0.0
 10
2.827804626886484
 20
3.495042392865256
 30
0.0
  0
LINE
  5
DF
330
1F
100
AcDbEntity
  8
0
  6
Continuous
 62
     7
370
    25
100
AcDbLine
 10
2.8277972519
 20
3.2277966462
 30
0.0
 11
8.2977972519
 21
3.2277966462
 31
0.0
  0
LINE
  5
E0
330
1F
100
AcDbEntity
  8
0
  6
Continuous
 62
     7
370
    25
100
AcDbLine
 10
2.8277972519
 20
5.1277966462
 30
0.0
 11
8.2977972519
 21
5.1277966462
 31
0.0
  0
SPLINE
  5
E1
330
1F
100
AcDbEntity
  8
0
  6
Continuous
 62
     7
370
    25
100
AcDbSpline
210
0.0
220
0.0
230
1.0
 70
     8
 71
     3
 72
    19
 73
    15
 74
     0
 42
0.00000001
 43
0.00000001
 40
0.0
 40
0.0
 40
0.0
 40
0.0
 40
0.0880221960053307
 40
0.176044341210478
 40
0.2640662592463101
 40
0.3520883514373718
 40
0.4401179468507396
 40
0.5281478913214231
 40
0.616236780396432
 40
0.7043257949258455
 40
0.7924751203809461
 40
0.8806240640978326
 40
0.9687502195601846
 40
1.0
 40
1.0
 40
1.0
 40
1.0
 10
6.929889741315831
 20
3.468184318614965
 30
0.0
 10
6.932306879001832
 20
3.464676933496558
 30
0.0
 10
6.937141152978832
 20
3.457662165283959
 30
0.0
 10
6.942387597633036
 20
3.445570696536977
 30
0.0
 10
6.945918676454868
 20
3.432727031710161
 30
0.0
 10
6.947579711397392
 20
3.419384946777368
 30
0.0
 10
6.947285139554149
 20
3.405948038574433
 30
0.0
 10
6.94511056373902
 20
3.392781650583417
 30
0.0
 10
6.94104057547958
 20
3.380277687898332
 30
0.0
 10
6.935250176193652
 20
3.368766110609201
 30
0.0
 10
6.927844114887769
 20
3.358576717938107
 30
0.0
 10
6.919021059446592
 20
3.350119232781376
 30
0.0
 10
6.911318310147797
 20
3.344561212958959
 30
0.0
 10
6.906411356508621
 20
3.342586402683331
 30
0.0
 10
6.905126832766933
 20
3.342069444327718
 30
0.0
  0
SPLINE
  5
E2
330
1F
100
AcDbEntity
  8
0
  6
Continuous
 62
     7
370
    25
100
AcDbSpline
210
0.0
220
0.0
230
1.0
 70
     8
 71
     3
 72
    11
 73
     7
 74
     0
 42
0.00000001
 43
0.00000001
 40
0.0
 40
0.0
 40
0.0
 40
0.0
 40
0.1782514396549591
 40
0.5425556361677447
 40
0.7712778458313975
 40
1.0
 40
1.0
 40
1.0
 40
1.0
 10
6.904068848825714
 20
3.489107358226106
 30
0.0
 10
6.905839010572103
 20
3.488330320673733
 30
0.0
 10
6.911226968359657
 20
3.485965200345001
 30
0.0
 10
6.918123783892944
 20
3.480707437181542
 30
0.0
 10
6.924906018607468
 20
3.47434919411581
 30
0.0
 10
6.9282285005474
 20
3.470239276949048
 30
0.0
 10
6.929889741315831
 20
3.468184318614965
 30
0.0
  0
INSERT
  5
E3
330
1F
100
AcDbEntity
  8
0
  6
Continuous
 62
     7
100
AcDbBlockReference
  2
Block3
 10
4.5985546968
 20
2.1692577269
 30
0.0
 41
0.5
 42
0.5
 43
0.5
  0
DIMENSION
  5
E4
330
1F
100
AcDbEntity
  8
0
  6
Continuous
 62
     7
370
    18
100
AcDbDimension
  2
_D_2
 10
1.6466948897
 20
3.2277966462
 30
0.0
 11
1.6466948897
 21
4.1777966462
 31
0.0
 70
   160
  1
<>
 71
     2
 42
-1.0
  3
SLDDIMSTYLE1
100
AcDbAlignedDimension
 13
2.8277972519
 23
5.1277966462
 33
0.0
 14
2.8277972519
 24
3.2277966462
 34
0.0
 50
90.0
100
AcDbRotatedDimension
  0
LINE
  5
F9
330
1F
100
AcDbEntity
  8
0
  6
Continuous
 62
     7
370
    25
100
AcDbLine
 10
21.806559271
 20
20.5478827683
 30
0.0
 11
21.806559271
 21
17.4144074027
 31
0.0
  0
LINE
  5
FA
330
1F
100
AcDbEntity
  8
0
  6
Continuous
 62
     7
370
    25
100
AcDbLine
 10
27.276559271
 20
17.4144074027
 30
0.0
 11
27.276559271
 21
20.5478827683
 31
0.0
  0
LINE
  5
FB
330
1F
100
AcDbEntity
  8
0
  6
Continuous
 62
     7
370
    25
100
AcDbLine
 10
22.614189181
 20
21.4192314783
 30
0.0
 11
22.6076141567
 21
21.4154345636
 31
0.0
  0
LINE
  5
FC
330
1F
100
AcDbEntity
  8
0
  6
Continuous
 62
     7
370
    25
100
AcDbLine
 10
22.5579833284
 20
21.329462132
 30
0.0
 11
22.5579833284
 21
21.3218695366
 31
0.0
  0
LINE
  5
FD
330
1F
100
AcDbEntity
  8
0
  6
Continuous
 62
     7
370
    25
100
AcDbLine
 10
27.276559271
 20
15.8629798601
 30
0.0
 11
27.276559271
 21
17.4144074027
 31
0.0
  0
LINE
  5
FE
330
1F
100
AcDbEntity
  8
0
  6
Continuous
 62
     7
370
    25
100
AcDbLine
 10
21.806559271
 20
17.4144074027
 30
0.0
 11
21.806559271
 21
15.8629798601
 31
0.0
  0
LWPOLYLINE
  5
FF
330
1F
100
AcDbEntity
  8
0
  6
Continuous
 62
     7
370
    25
100
AcDbPolyline
 90
      121
 70
   128
 43
0.0
 10
27.276559271
 20
17.4144074027
 10
27.2756220548
 20
17.4557377124
 10
27.2728110485
 20
17.4970396963
 10
27.2681281787
 20
17.5382850482
 10
27.2615766548
 20
17.5794455006
 10
27.2531609668
 20
17.6204928441
 10
27.2428868825
 20
17.6613989469
 10
27.2307614432
 20
17.7021357741
 10
27.216792959
 20
17.7426754066
 10
27.2009910033
 20
17.7829900606
 10
27.1833664059
 20
17.8230521065
 10
27.1639312459
 20
17.8628340877
 10
27.1426988431
 20
17.9023087396
 10
27.1196837491
 20
17.9414490083
 10
27.0949017375
 20
17.9802280691
 10
27.0683697924
 20
18.0186193446
 10
27.0401060976
 20
18.0565965235
 10
27.0101300237
 20
18.094133578
 10
26.9784621146
 20
18.1312047821
 10
26.9451240741
 20
18.1677847291
 10
26.9101387503
 20
18.203848349
 10
26.8735301205
 20
18.2393709254
 10
26.8353232743
 20
18.2743281131
 10
26.7955443969
 20
18.308695954
 10
26.7542207506
 20
18.3424508942
 10
26.7113806567
 20
18.3755697998
 10
26.6670534756
 20
18.4080299727
 10
26.6212695869
 20
18.4398091664
 10
26.5740603687
 20
18.4708856008
 10
26.5254581757
 20
18.5012379779
 10
26.4754963175
 20
18.5308454956
 10
26.4242090355
 20
18.5596878624
 10
26.3716314794
 20
18.5877453112
 10
26.3177996832
 20
18.6149986128
 10
26.2627505405
 20
18.6414290891
 10
26.2065217793
 20
18.6670186261
 10
26.149151936
 20
18.6917496859
 10
26.090680329
 20
18.7156053191
 10
26.0311470318
 20
18.7385691762
 10
25.9705928455
 20
18.7606255191
 10
25.909059271
 20
18.7817592312
 10
25.8465884803
 20
18.8019558287
 10
25.7832232878
 20
18.8212014699
 10
25.7190071208
 20
18.8394829646
 10
25.6539839898
 20
18.8567877838
 10
25.5881984585
 20
18.8731040675
 10
25.521695613
 20
18.8884206333
 10
25.454521031
 20
18.9027269841
 10
25.3867207506
 20
18.9160133151
 10
25.3183412388
 20
18.9282705203
 10
25.2494293593
 20
18.9394901994
 10
25.1800323411
 20
18.9496646629
 10
25.1101977454
 20
18.9587869377
 10
25.0399734332
 20
18.966850772
 10
24.9694075329
 20
18.9738506391
 10
24.8985484067
 20
18.9797817418
 10
24.827444618
 20
18.984640015
 10
24.7561448978
 20
18.9884221293
 10
24.6846981113
 20
18.9911254925
 10
24.6131532246
 20
18.9927482519
 10
24.541559271
 20
18.9932892952
 10
24.4699653174
 20
18.9927482519
 10
24.3984204307
 20
18.9911254925
 10
24.3269736442
 20
18.9884221293
 10
24.255673924
 20
18.984640015
 10
24.1845701353
 20
18.9797817418
 10
24.1137110091
 20
18.9738506391
 10
24.0431451088
 20
18.966850772
 10
23.9729207966
 20
18.9587869377
 10
23.9030862008
 20
18.9496646629
 10
23.8336891826
 20
18.9394901994
 10
23.7647773032
 20
18.9282705203
 10
23.6963977914
 20
18.9160133151
 10
23.628597511
 20
18.9027269841
 10
23.561422929
 20
18.8884206333
 10
23.4949200835
 20
18.8731040675
 10
23.4291345522
 20
18.8567877838
 10
23.3641114212
 20
18.8394829646
 10
23.2998952542
 20
18.8212014699
 10
23.2365300617
 20
18.8019558287
 10
23.174059271
 20
18.7817592312
 10
23.1125256965
 20
18.7606255191
 10
23.0519715102
 20
18.7385691762
 10
22.992438213
 20
18.7156053191
 10
22.933966606
 20
18.6917496859
 10
22.8765967626
 20
18.6670186261
 10
22.8203680015
 20
18.6414290891
 10
22.7653188588
 20
18.6149986128
 10
22.7114870626
 20
18.5877453112
 10
22.6589095065
 20
18.5596878624
 10
22.6076222244
 20
18.5308454956
 10
22.5576603663
 20
18.5012379779
 10
22.5090581733
 20
18.4708856008
 10
22.4618489551
 20
18.4398091664
 10
22.4160650664
 20
18.4080299727
 10
22.3717378853
 20
18.3755697998
 10
22.3288977914
 20
18.3424508942
 10
22.2875741451
 20
18.308695954
 10
22.2477952677
 20
18.2743281131
 10
22.2095884215
 20
18.2393709254
 10
22.1729797916
 20
18.203848349
 10
22.1379944679
 20
18.1677847291
 10
22.1046564273
 20
18.1312047821
 10
22.0729885183
 20
18.094133578
 10
22.0430124443
 20
18.0565965235
 10
22.0147487496
 20
18.0186193446
 10
21.9882168045
 20
17.9802280691
 10
21.9634347929
 20
17.9414490083
 10
21.9404196989
 20
17.9023087396
 10
21.9191872961
 20
17.8628340877
 10
21.8997521361
 20
17.8230521065
 10
21.8821275387
 20
17.7829900606
 10
21.866325583
 20
17.7426754066
 10
21.8523570988
 20
17.7021357741
 10
21.8402316595
 20
17.6613989469
 10
21.8299575751
 20
17.6204928441
 10
21.8215418872
 20
17.5794455006
 10
21.8149903632
 20
17.5382850482
 10
21.8103074934
 20
17.4970396963
 10
21.8074964872
 20
17.4557377124
 10
21.806559271
 20
17.4144074027
  0
LWPOLYLINE
  5
100
330
1F
100
AcDbEntity
  8
0
  6
Continuous
 62
     7
370
    25
100
AcDbPolyline
 90
      121
 70
   128
 43
0.0
 10
27.276559271
 20
20.5478827683
 10
27.2756220548
 20
20.589213078
 10
27.2728110485
 20
20.6305150619
 10
27.2681281787
 20
20.6717604139
 10
27.2615766548
 20
20.7129208662
 10
27.2531609668
 20
20.7539682097
 10
27.2428868825
 20
20.7948743125
 10
27.2307614432
 20
20.8356111397
 10
27.216792959
 20
20.8761507722
 10
27.2009910033
 20
20.9164654262
 10
27.1833664059
 20
20.9565274721
 10
27.1639312459
 20
20.9963094533
 10
27.1426988431
 20
21.0357841052
 10
27.1196837491
 20
21.074924374
 10
27.0949017375
 20
21.1137034347
 10
27.0683697924
 20
21.1520947102
 10
27.0401060976
 20
21.1900718891
 10
27.0101300237
 20
21.2276089436
 10
26.9784621146
 20
21.2646801477
 10
26.9451240741
 20
21.3012600947
 10
26.9101387503
 20
21.3373237146
 10
26.8735301205
 20
21.372846291
 10
26.8353232743
 20
21.4078034787
 10
26.7955443969
 20
21.4421713196
 10
26.7542207506
 20
21.4759262599
 10
26.7113806567
 20
21.5090451654
 10
26.6670534756
 20
21.5415053383
 10
26.6212695869
 20
21.573284532
 10
26.5740603687
 20
21.6043609664
 10
26.5254581757
 20
21.6347133435
 10
26.4754963175
 20
21.6643208612
 10
26.4242090355
 20
21.693163228
 10
26.3716314794
 20
21.7212206768
 10
26.3177996832
 20
21.7484739784
 10
26.2627505405
 20
21.7749044547
 10
26.2065217793
 20
21.8004939917
 10
26.149151936
 20
21.8252250515
 10
26.090680329
 20
21.8490806847
 10
26.0311470318
 20
21.8720445418
 10
25.9705928455
 20
21.8941008847
 10
25.909059271
 20
21.9152345968
 10
25.8465884803
 20
21.9354311944
 10
25.7832232878
 20
21.9546768355
 10
25.7190071208
 20
21.9729583302
 10
25.6539839898
 20
21.9902631494
 10
25.5881984585
 20
22.0065794331
 10
25.521695613
 20
22.0218959989
 10
25.454521031
 20
22.0362023498
 10
25.3867207506
 20
22.0494886807
 10
25.3183412388
 20
22.0617458859
 10
25.2494293593
 20
22.072965565
 10
25.1800323411
 20
22.0831400285
 10
25.1101977454
 20
22.0922623033
 10
25.0399734332
 20
22.1003261376
 10
24.9694075329
 20
22.1073260048
 10
24.8985484067
 20
22.1132571074
 10
24.827444618
 20
22.1181153806
 10
24.7561448978
 20
22.1218974949
 10
24.6846981113
 20
22.1246008581
 10
24.6131532246
 20
22.1262236175
 10
24.541559271
 20
22.1267646609
 10
24.4699653174
 20
22.1262236175
 10
24.3984204307
 20
22.1246008581
 10
24.3269736442
 20
22.1218974949
 10
24.255673924
 20
22.1181153806
 10
24.1845701353
 20
22.1132571074
 10
24.1137110091
 20
22.1073260048
 10
24.0431451088
 20
22.1003261376
 10
23.9729207966
 20
22.0922623033
 10
23.9030862008
 20
22.0831400285
 10
23.8336891826
 20
22.072965565
 10
23.7647773032
 20
22.0617458859
 10
23.6963977914
 20
22.0494886807
 10
23.628597511
 20
22.0362023498
 10
23.561422929
 20
22.0218959989
 10
23.4949200835
 20
22.0065794331
 10
23.4291345522
 20
21.9902631494
 10
23.3641114212
 20
21.9729583302
 10
23.2998952542
 20
21.9546768355
 10
23.2365300617
 20
21.9354311944
 10
23.174059271
 20
21.9152345968
 10
23.1125256965
 20
21.8941008847
 10
23.0519715102
 20
21.8720445418
 10
22.992438213
 20
21.8490806847
 10
22.933966606
 20
21.8252250515
 10
22.8765967626
 20
21.8004939917
 10
22.8203680015
 20
21.7749044547
 10
22.7653188588
 20
21.7484739784
 10
22.7114870626
 20
21.7212206768
 10
22.6589095065
 20
21.693163228
 10
22.6076222244
 20
21.6643208612
 10
22.5576603663
 20
21.6347133435
 10
22.5090581733
 20
21.6043609664
 10
22.4618489551
 20
21.573284532
 10
22.4160650664
 20
21.5415053383
 10
22.3717378853
 20
21.5090451654
 10
22.3288977914
 20
21.4759262599
 10
22.2875741451
 20
21.4421713196
 10
22.2477952677
 20
21.4078034787
 10
22.2095884215
 20
21.372846291
 10
22.1729797916
 20
21.3373237146
 10
22.1379944679
 20
21.3012600947
 10
22.1046564273
 20
21.2646801477
 10
22.0729885183
 20
21.2276089436
 10
22.0430124443
 20
21.1900718891
 10
22.0147487496
 20
21.1520947102
 10
21.9882168045
 20
21.1137034347
 10
21.9634347929
 20
21.074924374
 10
21.9404196989
 20
21.0357841052
 10
21.9191872961
 20
20.9963094533
 10
21.8997521361
 20
20.9565274721
 10
21.8821275387
 20
20.9164654262
 10
21.866325583
 20
20.8761507722
 10
21.8523570988
 20
20.8356111397
 10
21.8402316595
 20
20.7948743125
 10
21.8299575751
 20
20.7539682097
 10
21.8215418872
 20
20.7129208662
 10
21.8149903632
 20
20.6717604139
 10
21.8103074934
 20
20.6305150619
 10
21.8074964872
 20
20.589213078
 10
21.806559271
 20
20.5478827683
  0
SPLINE
  5
101
330
1F
100
AcDbEntity
  8
0
  6
Continuous
 62
     7
370
    25
100
AcDbSpline
210
0.0
220
0.0
230
1.0
 70
    11
 71
     3
 72
    44
 73
    40
 74
     0
 42
0.00000001
 43
0.00000001
 40
0.0
 40
0.0
 40
0.0
 40
0.0
 40
0.0268398134211884
 40
0.0536796592044543
 40
0.0805191207327445
 40
0.1073586287945248
 40
0.1342052678690233
 40
0.1610518950553307
 40
0.1879032840187631
 40
0.2147546211639494
 40
0.241598245696014
 40
0.268441859370583
 40
0.2952773297745758
 40
0.322112847110713
 40
0.348952490619179
 40
0.3757921656429414
 40
0.4026418007765811
 40
0.4294914027613808
 40
0.4563412595502808
 40
0.4831910701644187
 40
0.5100310211444441
 40
0.536870985038842
 40
0.5637063683786461
 40
0.5905418034386999
 40
0.6173850832275226
 40
0.6442283728579076
 40
0.6710796896792973
 40
0.6979309590374911
 40
0.7247779108669131
 40
0.7516248320028002
 40
0.7784618350362905
 40
0.8052988719742865
 40
0.8321358653683945
 40
0.8589729043172404
 40
0.8858198382622007
 40
0.9126667583410819
 40
0.9395180802863639
 40
0.9663693504292705
 40
1.0
 40
1.0
 40
1.0
 40
1.0
 10
22.55222442657228
 20
21.32519407986036
 30
0.0
 10
22.55237714405063
 20
21.32893610746389
 30
0.0
 10
22.55268257919146
 20
21.33642016718289
 30
0.0
 10
22.55507035447134
 20
21.34851997014873
 30
0.0
 10
22.55884947675632
 20
21.36083739197351
 30
0.0
 10
22.56400798038606
 20
21.37310221460414
 30
0.0
 10
22.57042556593247
 20
21.38492685976556
 30
0.0
 10
22.57789562528599
 20
21.39600061331479
 30
0.0
 10
22.58625496459085
 20
21.40596130807453
 30
0.0
 10
22.59524385726932
 20
21.4145713464372
 30
0.0
 10
22.60463566948564
 20
21.42151917354898
 30
0.0
 10
22.61415344326141
 20
21.42667770961265
 30
0.0
 10
22.62352842037133
 20
21.42982299274779
 30
0.0
 10
22.63250035412309
 20
21.4309532154966
 30
0.0
 10
22.6407866598926
 20
21.42995506114485
 30
0.0
 10
22.64817482966832
 20
21.42694781864099
 30
0.0
 10
22.65440089402151
 20
21.42194001414747
 30
0.0
 10
22.65932715958226
 20
21.41515692766495
 30
0.0
 10
22.66274405401785
 20
21.40672733985428
 30
0.0
 10
22.66461070031224
 20
21.39695687137212
 30
0.0
 10
22.66480228760184
 20
21.3860762785259
 30
0.0
 10
22.66338301014367
 20
21.37443350660884
 30
0.0
 10
22.66032856574828
 20
21.36233151400022
 30
0.0
 10
22.65579794452829
 20
21.35011935553355
 30
0.0
 10
22.64986865271772
 20
21.33813993534454
 30
0.0
 10
22.64277220443959
 20
21.32670880035391
 30
0.0
 10
22.63467723012698
 20
21.31617429710917
 30
0.0
 10
22.62585900254288
 20
21.30678815908475
 30
0.0
 10
22.61655344398699
 20
21.29886591228236
 30
0.0
 10
22.60704427533985
 20
21.29256713385814
 30
0.0
 10
22.59760154982176
 20
21.28813965948594
 30
0.0
 10
22.5884813355524
 20
21.2856322847281
 30
0.0
 10
22.57995569948198
 20
21.28520041493357
 30
0.0
 10
22.57222589866425
 20
21.28677746392659
 30
0.0
 10
22.56554167080216
 20
21.29041090664533
 30
0.0
 10
22.5600243777851
 20
21.29591801125125
 30
0.0
 10
22.55591252446456
 20
21.30325054916895
 30
0.0
 10
22.55287108070251
 20
21.31278260603015
 30
0.0
 10
22.55245550514778
 20
21.32075890260174
 30
0.0
 10
22.55222442657228
 20
21.32519407986036
 30
0.0
  0
LWPOLYLINE
  5
102
330
1F
100
AcDbEntity
  8
0
  6
Continuous
 62
     7
370
    25
100
AcDbPolyline
 90
       41
 70
   128
 43
0.0
 10
25.178060791
 20
18.8128910979
 10
25.1760024634
 20
18.803576229
 10
25.1757521496
 20
18.7938280956
 10
25.1773160133
 20
18.7838867289
 10
25.1806555469
 20
18.7739969185
 10
25.18568852
 20
18.7644021843
 10
25.1922910041
 20
18.7553387805
 10
25.2003004241
 20
18.7470298781
 10
25.2095195616
 20
18.7396800701
 10
25.2197214107
 20
18.7334703329
 10
25.2306547681
 20
18.728553571
 10
25.2420504183
 20
18.7250508513
 10
25.2536277625
 20
18.7230484224
 10
25.2651017281
 20
18.7225955908
 10
25.2761897879
 20
18.7237035067
 10
25.2866189172
 20
18.7263448895
 10
25.2961323162
 20
18.7304546996
 10
25.3044957333
 20
18.7359317399
 10
25.3115032336
 20
18.7426411474
 10
25.316982269
 20
18.7504177142
 10
25.3207979277
 20
18.7590699555
 10
25.3228562553
 20
18.7683848244
 10
25.3231065691
 20
18.7781329579
 10
25.3215427054
 20
18.7880743246
 10
25.3182031718
 20
18.797964135
 10
25.3131701987
 20
18.8075588692
 10
25.3065677146
 20
18.816622273
 10
25.2985582946
 20
18.8249311753
 10
25.2893391571
 20
18.8322809834
 10
25.279137308
 20
18.8384907206
 10
25.2682039505
 20
18.8434074825
 10
25.2568083004
 20
18.8469102022
 10
25.2452309562
 20
18.8489126311
 10
25.2337569906
 20
18.8493654627
 10
25.2226689307
 20
18.8482575468
 10
25.2122398015
 20
18.845616164
 10
25.2027264025
 20
18.8415063539
 10
25.1943629854
 20
18.8360293136
 10
25.1873554851
 20
18.8293199061
 10
25.1818764496
 20
18.8215433393
 10
25.178060791
 20
18.8128910979
  0
LINE
  5
103
330
1F
100
AcDbEntity
  8
0
  6
Continuous
 62
     7
370
    25
100
AcDbLine
 10
25.2631839251
 20
18.7412376844
 30
0.0
 11
25.2999643965
 21
18.7669255457
 31
0.0
  0
LINE
  5
104
330
1F
100
AcDbEntity
  8
0
  6
Continuous
 62
     7
370
    25
100
AcDbLine
 10
25.2862098308
 20
18.811668388
 30
0.0
 11
25.2999643965
 21
18.7669255457
 31
0.0
  0
LINE
  5
105
330
1F
100
AcDbEntity
  8
0
  6
Continuous
 62
     7
370
    25
100
AcDbLine
 10
25.2356747936
 20
18.8307233691
 30
0.0
 11
25.2862098308
 21
18.811668388
 31
0.0
  0
LINE
  5
106
330
1F
100
AcDbEntity
  8
0
  6
Continuous
 62
     7
370
    25
100
AcDbLine
 10
25.2356747936
 20
18.8307233691
 30
0.0
 11
25.1988943221
 21
18.8050355078
 31
0.0
  0
LINE
  5
107
330
1F
100
AcDbEntity
  8
0
  6
Continuous
 62
     7
370
    25
100
AcDbLine
 10
25.2126488879
 20
18.7602926654
 30
0.0
 11
25.1988943221
 21
18.8050355078
 31
0.0
  0
LINE
  5
108
330
1F
100
AcDbEntity
  8
0
  6
Continuous
 62
     7
370
    25
100
AcDbLine
 10
25.2126488879
 20
18.7602926654
 30
0.0
 11
25.2631839251
 21
18.7412376844
 31
0.0
  0
LINE
  5
109
330
1F
100
AcDbEntity
  8
0
  6
Continuous
 62
     7
370
    25
100
AcDbLine
 10
25.21496927
 20
18.7861140002
 30
0.0
 11
25.2356747936
 21
18.8307233691
 31
0.0
  0
LINE
  5
10A
330
1F
100
AcDbEntity
  8
0
  6
Continuous
 62
     7
370
    25
100
AcDbLine
 10
25.21496927
 20
18.7861140002
 30
0.0
 11
25.2065242153
 21
18.7802158868
 31
0.0
  0
LINE
  5
10B
330
1F
100
AcDbEntity
  8
0
  6
Continuous
 62
     7
370
    25
100
AcDbLine
 10
25.2655043072
 20
18.7670590192
 30
0.0
 11
25.2716289797
 21
18.7471357978
 31
0.0
  0
LINE
  5
10C
330
1F
100
AcDbEntity
  8
0
  6
Continuous
 62
     7
370
    25
100
AcDbLine
 10
25.2655043072
 20
18.7670590192
 30
0.0
 11
25.2862098308
 21
18.811668388
 31
0.0
  0
LINE
  5
10D
330
1F
100
AcDbEntity
  8
0
  6
Continuous
 62
     7
370
    25
100
AcDbLine
 10
25.21496927
 20
18.7861140002
 30
0.0
 11
25.2655043072
 21
18.7670590192
 31
0.0
  0
LWPOLYLINE
  5
10E
330
1F
100
AcDbEntity
  8
0
  6
Continuous
 62
     7
370
    25
100
AcDbPolyline
 90
       40
 70
   128
 43
0.0
 10
22.5828027764
 20
21.2941485093
 10
22.5900200293
 20
21.2943603055
 10
22.5976931698
 20
21.2962233939
 10
22.6056234676
 20
21.2996895216
 10
22.6136055322
 20
21.3046689176
 10
22.6214326322
 20
21.3110326183
 10
22.6289020499
 20
21.3186158071
 10
22.6358203313
 20
21.3272220834
 10
22.6420082966
 20
21.3366285492
 10
22.6473056807
 20
21.346591582
 10
22.651575284
 20
21.3568531444
 10
22.6547065263
 20
21.3671474673
 10
22.6566183098
 20
21.3772079333
 10
22.6572611205
 20
21.3867739815
 10
22.6566183098
 20
21.3955978563
 10
22.6547065263
 20
21.403451024
 10
22.651575284
 20
21.4101300916
 10
22.6473056807
 20
21.4154620749
 10
22.6420082966
 20
21.4193088782
 10
22.6358203313
 20
21.4215708713
 10
22.6289020499
 20
21.42218947
 10
22.6214326322
 20
21.4211486526
 10
22.6136055322
 20
21.418475376
 10
22.6056234676
 20
21.4142388764
 10
22.5976931698
 20
21.4085488772
 10
22.5900200293
 20
21.4015527461
 10
22.5828027764
 20
21.3934316795
 10
22.5762283342
 20
21.3843960085
 10
22.5704669772
 20
21.3746797524
 10
22.5656679217
 20
21.3645345571
 10
22.5619554605
 20
21.3542231778
 10
22.5594257445
 20
21.3440126738
 10
22.558144292
 20
21.3341674918
 10
22.558144292
 20
21.3249426169
 10
22.5594257445
 20
21.3165769685
 10
22.5619554605
 20
21.3092872124
 10
22.5656679217
 20
21.3032621495
 10
22.5704669772
 20
21.2986578258
 10
22.5762283342
 20
21.2955934909
 10
22.5828027764
 20
21.2941485093
  0
LINE
  5
10F
330
1F
100
AcDbEntity
  8
0
  6
Continuous
 62
     7
370
    25
100
AcDbLine
 10
22.6458750893
 20
21.3802009656
 30
0.0
 11
22.6267486569
 21
21.4074144482
 31
0.0
  0
LINE
  5
110
330
1F
100
AcDbEntity
  8
0
  6
Continuous
 62
     7
370
    25
100
AcDbLine
 10
22.588495792
 20
21.3853315394
 30
0.0
 11
22.6267486569
 21
21.4074144482
 31
0.0
  0
LINE
  5
111
330
1F
100
AcDbEntity
  8
0
  6
Continuous
 62
     7
370
    25
100
AcDbLine
 10
22.5693693596
 20
21.336035148
 30
0.0
 11
22.588495792
 21
21.3853315394
 31
0.0
  0
LINE
  5
112
330
1F
100
AcDbEntity
  8
0
  6
Continuous
 62
     7
370
    25
100
AcDbLine
 10
22.5693693596
 20
21.336035148
 30
0.0
 11
22.588495792
 21
21.3088216653
 31
0.0
  0
LINE
  5
113
330
1F
100
AcDbEntity
  8
0
  6
Continuous
 62
     7
370
    25
100
AcDbLine
 10
22.6267486569
 20
21.3309045741
 30
0.0
 11
22.588495792
 21
21.3088216653
 31
0.0
  0
LINE
  5
114
330
1F
100
AcDbEntity
  8
0
  6
Continuous
 62
     7
370
    25
100
AcDbLine
 10
22.6267486569
 20
21.3309045741
 30
0.0
 11
22.6458750893
 21
21.3802009656
 31
0.0
  0
LINE
  5
115
330
1F
100
AcDbEntity
  8
0
  6
Continuous
 62
     7
370
    25
100
AcDbLine
 10
22.602502697
 20
21.3169076794
 30
0.0
 11
22.5693693596
 21
21.336035148
 31
0.0
  0
LINE
  5
116
330
1F
100
AcDbEntity
  8
0
  6
Continuous
 62
     7
370
    25
100
AcDbLine
 10
22.6370013664
 20
21.3573298673
 30
0.0
 11
22.588495792
 21
21.3853315394
 31
0.0
  0
LWPOLYLINE
  5
117
330
1F
100
AcDbEntity
  8
0
  6
Continuous
 62
     7
370
    25
100
AcDbPolyline
 90
      241
 70
   128
 43
0.0
 10
26.4754963175
 20
14.7465417672
 10
26.5254581757
 20
14.7761492849
 10
26.5740603687
 20
14.806501662
 10
26.6212695869
 20
14.8375780964
 10
26.6670534756
 20
14.8693572901
 10
26.7113806567
 20
14.901817463
 10
26.7542207506
 20
14.9349363686
 10
26.7955443969
 20
14.9686913088
 10
26.8353232743
 20
15.0030591497
 10
26.8735301205
 20
15.0380163374
 10
26.9101387503
 20
15.0735389138
 10
26.9451240741
 20
15.1096025337
 10
26.9784621146
 20
15.1461824807
 10
27.0101300237
 20
15.1832536848
 10
27.0401060976
 20
15.2207907393
 10
27.0683697924
 20
15.2587679182
 10
27.0949017375
 20
15.2971591937
 10
27.1196837491
 20
15.3359382545
 10
27.1426988431
 20
15.3750785232
 10
27.1639312459
 20
15.4145531751
 10
27.1833664059
 20
15.4543351563
 10
27.2009910033
 20
15.4943972022
 10
27.216792959
 20
15.5347118562
 10
27.2307614432
 20
15.5752514887
 10
27.2428868825
 20
15.6159883159
 10
27.2531609668
 20
15.6568944187
 10
27.2615766548
 20
15.6979417622
 10
27.2681281787
 20
15.7391022146
 10
27.2728110485
 20
15.7803475665
 10
27.2756220548
 20
15.8216495504
 10
27.276559271
 20
15.8629798601
 10
27.2756220548
 20
15.9043101698
 10
27.2728110485
 20
15.9456121537
 10
27.2681281787
 20
15.9868575057
 10
27.2615766548
 20
16.028017958
 10
27.2531609668
 20
16.0690653015
 10
27.2428868825
 20
16.1099714043
 10
27.2307614432
 20
16.1507082315
 10
27.216792959
 20
16.191247864
 10
27.2009910033
 20
16.231562518
 10
27.1833664059
 20
16.2716245639
 10
27.1639312459
 20
16.3114065451
 10
27.1426988431
 20
16.350881197
 10
27.1196837491
 20
16.3900214658
 10
27.0949017375
 20
16.4288005265
 10
27.0683697924
 20
16.467191802
 10
27.0401060976
 20
16.5051689809
 10
27.0101300237
 20
16.5427060354
 10
26.9784621146
 20
16.5797772395
 10
26.9451240741
 20
16.6163571866
 10
26.9101387503
 20
16.6524208064
 10
26.8735301205
 20
16.6879433828
 10
26.8353232743
 20
16.7229005705
 10
26.7955443969
 20
16.7572684114
 10
26.7542207506
 20
16.7910233517
 10
26.7113806567
 20
16.8241422573
 10
26.6670534756
 20
16.8566024302
 10
26.6212695869
 20
16.8883816238
 10
26.5740603687
 20
16.9194580582
 10
26.5254581757
 20
16.9498104353
 10
26.4754963175
 20
16.979417953
 10
26.4242090355
 20
17.0082603198
 10
26.3716314794
 20
17.0363177686
 10
26.3177996832
 20
17.0635710702
 10
26.2627505405
 20
17.0900015465
 10
26.2065217793
 20
17.1155910835
 10
26.149151936
 20
17.1403221433
 10
26.090680329
 20
17.1641777765
 10
26.0311470318
 20
17.1871416337
 10
25.9705928455
 20
17.2091979765
 10
25.909059271
 20
17.2303316886
 10
25.8465884803
 20
17.2505282862
 10
25.7832232878
 20
17.2697739273
 10
25.7190071208
 20
17.2880554221
 10
25.6539839898
 20
17.3053602412
 10
25.5881984585
 20
17.3216765249
 10
25.521695613
 20
17.3369930907
 10
25.454521031
 20
17.3512994416
 10
25.3867207506
 20
17.3645857725
 10
25.3183412388
 20
17.3768429777
 10
25.2494293593
 20
17.3880626568
 10
25.1800323411
 20
17.3982371203
 10
25.1101977454
 20
17.4073593952
 10
25.0399734332
 20
17.4154232294
 10
24.9694075329
 20
17.4224230966
 10
24.8985484067
 20
17.4283541992
 10
24.827444618
 20
17.4332124725
 10
24.7561448978
 20
17.4369945867
 10
24.6846981113
 20
17.4396979499
 10
24.6131532246
 20
17.4413207093
 10
24.541559271
 20
17.4418617527
 10
24.4699653174
 20
17.4413207093
 10
24.3984204307
 20
17.4396979499
 10
24.3269736442
 20
17.4369945867
 10
24.255673924
 20
17.4332124725
 10
24.1845701353
 20
17.4283541992
 10
24.1137110091
 20
17.4224230966
 10
24.0431451088
 20
17.4154232294
 10
23.9729207966
 20
17.4073593952
 10
23.9030862008
 20
17.3982371203
 10
23.8336891826
 20
17.3880626568
 10
23.7647773032
 20
17.3768429777
 10
23.6963977914
 20
17.3645857725
 10
23.628597511
 20
17.3512994416
 10
23.561422929
 20
17.3369930907
 10
23.4949200835
 20
17.3216765249
 10
23.4291345522
 20
17.3053602412
 10
23.3641114212
 20
17.2880554221
 10
23.2998952542
 20
17.2697739273
 10
23.2365300617
 20
17.2505282862
 10
23.174059271
 20
17.2303316886
 10
23.1125256965
 20
17.2091979765
 10
23.0519715102
 20
17.1871416337
 10
22.992438213
 20
17.1641777765
 10
22.933966606
 20
17.1403221433
 10
22.8765967626
 20
17.1155910835
 10
22.8203680015
 20
17.0900015465
 10
22.7653188588
 20
17.0635710702
 10
22.7114870626
 20
17.0363177686
 10
22.6589095065
 20
17.0082603198
 10
22.6076222244
 20
16.979417953
 10
22.5576603663
 20
16.9498104353
 10
22.5090581733
 20
16.9194580582
 10
22.4618489551
 20
16.8883816238
 10
22.4160650664
 20
16.8566024302
 10
22.3717378853
 20
16.8241422573
 10
22.3288977914
 20
16.7910233517
 10
22.2875741451
 20
16.7572684114
 10
22.2477952677
 20
16.7229005705
 10
22.2095884215
 20
16.6879433828
 10
22.1729797916
 20
16.6524208064
 10
22.1379944679
 20
16.6163571866
 10
22.1046564273
 20
16.5797772395
 10
22.0729885183
 20
16.5427060354
 10
22.0430124443
 20
16.5051689809
 10
22.0147487496
 20
16.467191802
 10
21.9882168045
 20
16.4288005265
 10
21.9634347929
 20
16.3900214658
 10
21.9404196989
 20
16.350881197
 10
21.9191872961
 20
16.3114065451
 10
21.8997521361
 20
16.2716245639
 10
21.8821275387
 20
16.231562518
 10
21.866325583
 20
16.191247864
 10
21.8523570988
 20
16.1507082315
 10
21.8402316595
 20
16.1099714043
 10
21.8299575751
 20
16.0690653015
 10
21.8215418872
 20
16.028017958
 10
21.8149903632
 20
15.9868575057
 10
21.8103074934
 20
15.9456121537
 10
21.8074964872
 20
15.9043101698
 10
21.806559271
 20
15.8629798601
 10
21.8074964872
 20
15.8216495504
 10
21.8103074934
 20
15.7803475665
 10
21.8149903632
 20
15.7391022146
 10
21.8215418872
 20
15.6979417622
 10
21.8299575751
 20
15.6568944187
 10
21.8402316595
 20
15.6159883159
 10
21.8523570988
 20
15.5752514887
 10
21.866325583
 20
15.5347118562
 10
21.8821275387
 20
15.4943972022
 10
21.8997521361
 20
15.4543351563
 10
21.9191872961
 20
15.4145531751
 10
21.9404196989
 20
15.3750785232
 10
21.9634347929
 20
15.3359382545
 10
21.9882168045
 20
15.2971591937
 10
22.0147487496
 20
15.2587679182
 10
22.0430124443
 20
15.2207907393
 10
22.0729885183
 20
15.1832536848
 10
22.1046564273
 20
15.1461824807
 10
22.1379944679
 20
15.1096025337
 10
22.1729797916
 20
15.0735389138
 10
22.2095884215
 20
15.0380163374
 10
22.2477952677
 20
15.0030591497
 10
22.2875741451
 20
14.9686913088
 10
22.3288977914
 20
14.9349363686
 10
22.3717378853
 20
14.901817463
 10
22.4160650664
 20
14.8693572901
 10
22.4618489551
 20
14.8375780964
 10
22.5090581733
 20
14.806501662
 10
22.5576603663
 20
14.7761492849
 10
22.6076222244
 20
14.7465417672
 10
22.6589095065
 20
14.7176994004
 10
22.7114870626
 20
14.6896419516
 10
22.7653188588
 20
14.66238865
 10
22.8203680015
 20
14.6359581737
 10
22.8765967626
 20
14.6103686367
 10
22.933966606
 20
14.5856375769
 10
22.992438213
 20
14.5617819437
 10
23.0519715102
 20
14.5388180866
 10
23.1125256965
 20
14.5167617437
 10
23.174059271
 20
14.4956280316
 10
23.2365300617
 20
14.4754314341
 10
23.2998952542
 20
14.4561857929
 10
23.3641114212
 20
14.4379042982
 10
23.4291345522
 20
14.420599479
 10
23.4949200835
 20
14.4042831953
 10
23.561422929
 20
14.3889666295
 10
23.628597511
 20
14.3746602787
 10
23.6963977914
 20
14.3613739477
 10
23.7647773032
 20
14.3491167425
 10
23.8336891826
 20
14.3378970634
 10
23.9030862008
 20
14.3277225999
 10
23.9729207966
 20
14.3186003251
 10
24.0431451088
 20
14.3105364908
 10
24.1137110091
 20
14.3035366237
 10
24.1845701353
 20
14.297605521
 10
24.255673924
 20
14.2927472478
 10
24.3269736442
 20
14.2889651335
 10
24.3984204307
 20
14.2862617703
 10
24.4699653174
 20
14.2846390109
 10
24.541559271
 20
14.2840979676
 10
24.6131532246
 20
14.2846390109
 10
24.6846981113
 20
14.2862617703
 10
24.7561448978
 20
14.2889651335
 10
24.827444618
 20
14.2927472478
 10
24.8985484067
 20
14.297605521
 10
24.9694075329
 20
14.3035366237
 10
25.0399734332
 20
14.3105364908
 10
25.1101977454
 20
14.3186003251
 10
25.1800323411
 20
14.3277225999
 10
25.2494293593
 20
14.3378970634
 10
25.3183412388
 20
14.3491167425
 10
25.3867207506
 20
14.3613739477
 10
25.454521031
 20
14.3746602787
 10
25.521695613
 20
14.3889666295
 10
25.5881984585
 20
14.4042831953
 10
25.6539839898
 20
14.420599479
 10
25.7190071208
 20
14.4379042982
 10
25.7832232878
 20
14.4561857929
 10
25.8465884803
 20
14.4754314341
 10
25.909059271
 20
14.4956280316
 10
25.9705928455
 20
14.5167617437
 10
26.0311470318
 20
14.5388180866
 10
26.090680329
 20
14.5617819437
 10
26.149151936
 20
14.5856375769
 10
26.2065217793
 20
14.6103686367
 10
26.2627505405
 20
14.6359581737
 10
26.3177996832
 20
14.66238865
 10
26.3716314794
 20
14.6896419516
 10
26.4242090355
 20
14.7176994004
 10
26.4754963175
 20
14.7465417672
  0
LWPOLYLINE
  5
118
330
1F
100
AcDbEntity
  8
0
  6
Continuous
 62
     7
370
    25
100
AcDbPolyline
 90
      224
 70
   128
 43
0.0
 10
26.1537627321
 20
14.9322746126
 10
26.198541815
 20
14.9588638381
 10
26.2420055543
 20
14.9861707677
 10
26.2841194477
 20
15.0141737247
 10
26.3248500643
 20
15.0428504797
 10
26.3641650716
 20
15.0721782688
 10
26.4020332604
 20
15.1021338109
 10
26.4384245704
 20
15.1326933267
 10
26.4733101133
 20
15.1638325576
 10
26.5066621965
 20
15.1955267846
 10
26.5384543444
 20
15.2277508483
 10
26.5686613198
 20
15.2604791686
 10
26.5972591439
 20
15.2936857652
 10
26.6242251152
 20
15.327344278
 10
26.6495378275
 20
15.3614279883
 10
26.6731771872
 20
15.3959098399
 10
26.6951244289
 20
15.4307624603
 10
26.7153621305
 20
15.4659581829
 10
26.733874227
 20
15.5014690688
 10
26.750646023
 20
15.5372669286
 10
26.7656642048
 20
15.5733233454
 10
26.7789168507
 20
15.609609697
 10
26.7903934405
 20
15.6460971785
 10
26.8000848639
 20
15.6827568255
 10
26.8079834277
 20
15.7195595369
 10
26.8140828617
 20
15.756476098
 10
26.8183783243
 20
15.7934772038
 10
26.8208664054
 20
15.8305334821
 10
26.8215451302
 20
15.867615517
 10
26.8204139597
 20
15.9046938719
 10
26.8174737919
 20
15.9417391136
 10
26.8127269609
 20
15.9787218346
 10
26.8061772346
 20
16.0156126775
 10
26.7978298125
 20
16.0523823577
 10
26.7876913207
 20
16.0890016866
 10
26.7757698076
 20
16.1254415952
 10
26.7620747365
 20
16.1616731567
 10
26.7466169789
 20
16.19766761
 10
26.7294088055
 20
16.2333963819
 10
26.7104638764
 20
16.2688311103
 10
26.6897972304
 20
16.3039436664
 10
26.6674252731
 20
16.3387061772
 10
26.6433657639
 20
16.3730910476
 10
26.6176378015
 20
16.4070709823
 10
26.5902618093
 20
16.4406190073
 10
26.5612595189
 20
16.4737084916
 10
26.5306539529
 20
16.5063131681
 10
26.4984694065
 20
16.5384071547
 10
26.4647314283
 20
16.5699649745
 10
26.4294668004
 20
16.6009615764
 10
26.3927035162
 20
16.6313723546
 10
26.3544707593
 20
16.6611731686
 10
26.3147988796
 20
16.6903403619
 10
26.2737193692
 20
16.718850781
 10
26.2312648379
 20
16.7466817938
 10
26.1874689868
 20
16.7738113076
 10
26.142366582
 20
16.8002177864
 10
26.0959934265
 20
16.8258802684
 10
26.0483863323
 20
16.850778382
 10
25.9995830907
 20
16.8748923628
 10
25.9496224426
 20
16.8982030686
 10
25.8985440478
 20
16.920691995
 10
25.8463884532
 20
16.9423412897
 10
25.7931970609
 20
16.9631337673
 10
25.7390120953
 20
16.9830529222
 10
25.6838765692
 20
17.0020829423
 10
25.6278342505
 20
17.0202087212
 10
25.5709296264
 20
17.0374158702
 10
25.5132078691
 20
17.0536907301
 10
25.4547147989
 20
17.0690203815
 10
25.3954968489
 20
17.0833926555
 10
25.3356010274
 20
17.0967961431
 10
25.2750748807
 20
17.1092202043
 10
25.2139664557
 20
17.1206549768
 10
25.1523242613
 20
17.1310913834
 10
25.0901972303
 20
17.1405211394
 10
25.0276346803
 20
17.1489367594
 10
24.9646862746
 20
17.1563315628
 10
24.9014019828
 20
17.1626996796
 10
24.8378320412
 20
17.1680360546
 10
24.7740269127
 20
17.1723364517
 10
24.710037247
 20
17.1755974572
 10
24.6459138404
 20
17.1778164824
 10
24.5817075953
 20
17.1789917658
 10
24.5174694796
 20
17.1791223744
 10
24.4532504868
 20
17.1782082046
 10
24.3891015952
 20
17.1762499821
 10
24.3250737274
 20
17.1732492613
 10
24.2612177098
 20
17.1692084242
 10
24.1975842326
 20
17.1641306787
 10
24.1342238091
 20
17.1580200553
 10
24.0711867361
 20
17.150881405
 10
24.0085230536
 20
17.1427203944
 10
23.9462825052
 20
17.133543502
 10
23.8845144985
 20
17.1233580125
 10
23.8232680662
 20
17.1121720113
 10
23.7625918269
 20
17.0999943782
 10
23.7025339464
 20
17.0868347799
 10
23.6431420998
 20
17.0727036628
 10
23.5844634335
 20
17.0576122445
 10
23.5265445277
 20
17.0415725047
 10
23.4694313595
 20
17.0245971761
 10
23.4131692664
 20
17.0066997341
 10
23.3578029102
 20
16.9878943859
 10
23.3033762419
 20
16.9681960597
 10
23.2499324664
 20
16.9476203922
 10
23.1975140082
 20
16.9261837169
 10
23.1461624782
 20
16.9039030506
 10
23.0959186402
 20
16.8807960801
 10
23.0468223786
 20
16.8568811482
 10
22.998912667
 20
16.8321772388
 10
22.9522275369
 20
16.8067039626
 10
22.906804048
 20
16.7804815406
 10
22.8626782582
 20
16.7535307887
 10
22.8198851954
 20
16.7258731009
 10
22.7784588295
 20
16.6975304324
 10
22.7384320456
 20
16.668525282
 10
22.6998366177
 20
16.6388806748
 10
22.6627031835
 20
16.608620143
 10
22.6270612202
 20
16.5777677081
 10
22.5929390211
 20
16.5463478613
 10
22.560363673
 20
16.5143855442
 10
22.5293610349
 20
16.4819061292
 10
22.4999557172
 20
16.448935399
 10
22.4721710624
 20
16.4154995264
 10
22.4460291265
 20
16.3816250534
 10
22.4215506614
 20
16.3473388701
 10
22.3987550986
 20
16.3126681937
 10
22.3776605337
 20
16.2776405463
 10
22.3582837119
 20
16.2422837335
 10
22.3406400148
 20
16.2066258223
 10
22.3247434485
 20
16.1706951185
 10
22.3106066318
 20
16.1345201446
 10
22.2982407868
 20
16.098129617
 10
22.2876557298
 20
16.0615524231
 10
22.2788598634
 20
16.0248175986
 10
22.2718601699
 20
15.9879543043
 10
22.2666622058
 20
15.9509918029
 10
22.2632700974
 20
15.9139594361
 10
22.2616865373
 20
15.8768866007
 10
22.2619127826
 20
15.8398027258
 10
22.2639486537
 20
15.8027372495
 10
22.2677925346
 20
15.7657195948
 10
22.2734413738
 20
15.7287791471
 10
22.2808906872
 20
15.6919452305
 10
22.2901345614
 20
15.6552470843
 10
22.3011656585
 20
15.6187138403
 10
22.3139752217
 20
15.5823744992
 10
22.3285530827
 20
15.5462579078
 10
22.3448876691
 20
15.5103927362
 10
22.3629660143
 20
15.4748074549
 10
22.3827737674
 20
15.439530312
 10
22.4042952047
 20
15.4045893113
 10
22.4275132419
 20
15.3700121895
 10
22.4524094483
 20
15.3358263946
 10
22.4789640606
 20
15.302059064
 10
22.5071559994
 20
15.2687370027
 10
22.5369628855
 20
15.2358866625
 10
22.5683610574
 20
15.2035341205
 10
22.6013255908
 20
15.1717050589
 10
22.6358303179
 20
15.140424744
 10
22.671847848
 20
15.1097180068
 10
22.7093495899
 20
15.079609223
 10
22.7483057739
 20
15.0501222933
 10
22.788685476
 20
15.0212806251
 10
22.8304566419
 20
14.9931071134
 10
22.8735861129
 20
14.9656241229
 10
22.9180396521
 20
14.93885347
 10
22.9637819713
 20
14.912816406
 10
23.0107767596
 20
14.8875335993
 10
23.0589867115
 20
14.8630251201
 10
23.1083735571
 20
14.8393104235
 10
23.1588980922
 20
14.8164083348
 10
23.2105202095
 20
14.794337034
 10
23.2631989303
 20
14.7731140418
 10
23.3168924374
 20
14.7527562054
 10
23.3715581079
 20
14.7332796852
 10
23.427152547
 20
14.7146999421
 10
23.483631623
 20
14.6970317249
 10
23.5409505016
 20
14.680289059
 10
23.599063682
 20
14.6644852351
 10
23.6579250331
 20
14.6496327986
 10
23.7174878294
 20
14.6357435395
 10
23.777704789
 20
14.6228284835
 10
23.8385281104
 20
14.6108978827
 10
23.8999095111
 20
14.5999612079
 10
23.9618002654
 20
14.5900271409
 10
24.0241512431
 20
14.5811035674
 10
24.0869129489
 20
14.5731975711
 10
24.1500355615
 20
14.5663154281
 10
24.2134689729
 20
14.5604626014
 10
24.2771628284
 20
14.5556437371
 10
24.3410665668
 20
14.5518626607
 10
24.40512946
 20
14.5491223734
 10
24.4693006537
 20
14.5474250507
 10
24.5335292077
 20
14.5467720399
 10
24.5977641361
 20
14.5471638593
 10
24.661954448
 20
14.548600198
 10
24.726049188
 20
14.5510799157
 10
24.7899974765
 20
14.5546010441
 10
24.85374855
 20
14.5591607879
 10
24.917251802
 20
14.5647555275
 10
24.9804568222
 20
14.5713808218
 10
25.0433134373
 20
14.5790314114
 10
25.1057717507
 20
14.5877012233
 10
25.1677821816
 20
14.597383375
 10
25.2292955052
 20
14.6080701808
 10
25.290262891
 20
14.6197531573
 10
25.3506359419
 20
14.6324230302
 10
25.4103667326
 20
14.6460697421
 10
25.4694078478
 20
14.6606824599
 10
25.5277124196
 20
14.6762495837
 10
25.5852341646
 20
14.6927587562
 10
25.6419274211
 20
14.7101968719
 10
25.6977471848
 20
14.7285500882
 10
25.7526491451
 20
14.747803836
 10
25.8065897196
 20
14.7679428313
 10
25.8595260895
 20
14.7889510873
 10
25.9114162327
 20
14.8108119274
 10
25.962218958
 20
14.833507998
 10
26.0118939372
 20
14.8570212825
 10
26.0604017374
 20
14.8813331157
 10
26.1077038521
 20
14.9064241983
 10
26.1537627321
 20
14.9322746126
  0
SPLINE
  5
119
330
1F
100
AcDbEntity
  8
0
  6
Continuous
 62
     7
370
    25
100
AcDbSpline
210
0.0
220
0.0
230
1.0
 70
    11
 71
     3
 72
    44
 73
    40
 74
     0
 42
0.00000001
 43
0.00000001
 40
0.0
 40
0.0
 40
0.0
 40
0.0
 40
0.0268398134211876
 40
0.0536796592044534
 40
0.080519120732743
 40
0.1073586287945235
 40
0.134205267869022
 40
0.16105189505533
 40
0.1879032840187622
 40
0.2147546211639482
 40
0.2415982456960129
 40
0.2684418593705819
 40
0.2952773297745737
 40
0.3221128471107114
 40
0.3489524906191764
 40
0.3757921656429369
 40
0.4026418007765788
 40
0.42949140276138
 40
0.4563412595502799
 40
0.483191070164416
 40
0.5100310211444428
 40
0.5368709850388421
 40
0.563706368378646
 40
0.5905418034386993
 40
0.6173850832275215
 40
0.6442283728579068
 40
0.6710796896792972
 40
0.6979309590374908
 40
0.7247779108669127
 40
0.7516248320027998
 40
0.7784618350362902
 40
0.805298871974287
 40
0.8321358653683941
 40
0.8589729043172379
 40
0.8858198382621982
 40
0.9126667583410799
 40
0.9395180802863607
 40
0.9663693504292657
 40
1.0
 40
1.0
 40
1.0
 40
1.0
 10
25.32592134978238
 20
18.77345776033691
 30
0.0
 10
25.3257080455147
 20
18.77714317031458
 30
0.0
 10
25.32528143672214
 20
18.78451399471358
 30
0.0
 10
25.32194998756132
 20
18.7957291264457
 30
0.0
 10
25.31668338449006
 20
18.80664732131341
 30
0.0
 10
25.30950765620397
 20
18.81700423837411
 30
0.0
 10
25.30060153048387
 20
18.82645855401061
 30
0.0
 10
25.29026282443201
 20
18.83477758047651
 30
0.0
 10
25.27873068209623
 20
18.84166138574081
 30
0.0
 10
25.26637062246236
 20
18.84696908754073
 30
0.0
 10
25.25350419619267
 20
18.85047392627074
 30
0.0
 10
25.24051056102213
 20
18.8521503125898
 30
0.0
 10
25.22775938441785
 20
18.85187303871447
 30
0.0
 10
25.21559675303514
 20
18.84973408711879
 30
0.0
 10
25.20440074540879
 20
18.84572233496082
 30
0.0
 10
25.19444614422225
 20
18.84003244715381
 30
0.0
 10
25.18607855635814
 20
18.83276724142598
 30
0.0
 10
25.17947119726086
 20
18.82420009032746
 30
0.0
 10
25.1748948613542
 20
18.81453407946299
 30
0.0
 10
25.17239768865662
 20
18.80408859898026
 30
0.0
 10
25.17214103053436
 20
18.79313866984105
 30
0.0
 10
25.17404010061435
 20
18.78200919245211
 30
0.0
 10
25.17812928032211
 20
18.77101220259591
 30
0.0
 10
25.18420355578957
 20
18.76044044959563
 30
0.0
 10
25.19216800921548
 20
18.75061016638611
 30
0.0
 10
25.20172249388493
 20
18.74175466058196
 30
0.0
 10
25.21265263586481
 20
18.73416303416901
 30
0.0
 10
25.2245954447827
 20
18.72798829166965
 30
0.0
 10
25.23724262699457
 20
18.72346177770834
 30
0.0
 10
25.25021081930413
 20
18.72063988235712
 30
0.0
 10
25.26313694644649
 20
18.7196725065849
 30
0.0
 10
25.2756647474525
 20
18.72051372857826
 30
0.0
 10
25.28741773879248
 20
18.72321863344881
 30
0.0
 10
25.29810677022352
 20
18.72764477696825
 30
0.0
 10
25.30737723360808
 20
18.73374615157798
 30
0.0
 10
25.31504781487621
 20
18.74129320637909
 30
0.0
 10
25.32077540661212
 20
18.75014774681437
 30
0.0
 10
25.32501844029073
 20
18.76080659415413
 30
0.0
 10
25.32559869965245
 20
18.76893693023112
 30
0.0
 10
25.32592134978238
 20
18.77345776033691
 30
0.0
  0
LWPOLYLINE
  5
11A
330
1F
100
AcDbEntity
  8
0
  6
Continuous
 62
     7
370
    25
100
AcDbPolyline
 90
      121
 70
   128
 43
0.0
 10
27.276559271
 20
17.4144074027
 10
27.2756220548
 20
17.4557377124
 10
27.2728110485
 20
17.4970396963
 10
27.2681281787
 20
17.5382850482
 10
27.2615766548
 20
17.5794455006
 10
27.2531609668
 20
17.6204928441
 10
27.2428868825
 20
17.6613989469
 10
27.2307614432
 20
17.7021357741
 10
27.216792959
 20
17.7426754066
 10
27.2009910033
 20
17.7829900606
 10
27.1833664059
 20
17.8230521065
 10
27.1639312459
 20
17.8628340877
 10
27.1426988431
 20
17.9023087396
 10
27.1196837491
 20
17.9414490083
 10
27.0949017375
 20
17.9802280691
 10
27.0683697924
 20
18.0186193446
 10
27.0401060976
 20
18.0565965235
 10
27.0101300237
 20
18.094133578
 10
26.9784621146
 20
18.1312047821
 10
26.9451240741
 20
18.1677847291
 10
26.9101387503
 20
18.203848349
 10
26.8735301205
 20
18.2393709254
 10
26.8353232743
 20
18.2743281131
 10
26.7955443969
 20
18.308695954
 10
26.7542207506
 20
18.3424508942
 10
26.7113806567
 20
18.3755697998
 10
26.6670534756
 20
18.4080299727
 10
26.6212695869
 20
18.4398091664
 10
26.5740603687
 20
18.4708856008
 10
26.5254581757
 20
18.5012379779
 10
26.4754963175
 20
18.5308454956
 10
26.4242090355
 20
18.5596878624
 10
26.3716314794
 20
18.5877453112
 10
26.3177996832
 20
18.6149986128
 10
26.2627505405
 20
18.6414290891
 10
26.2065217793
 20
18.6670186261
 10
26.149151936
 20
18.6917496859
 10
26.090680329
 20
18.7156053191
 10
26.0311470318
 20
18.7385691762
 10
25.9705928455
 20
18.7606255191
 10
25.909059271
 20
18.7817592312
 10
25.8465884803
 20
18.8019558287
 10
25.7832232878
 20
18.8212014699
 10
25.7190071208
 20
18.8394829646
 10
25.6539839898
 20
18.8567877838
 10
25.5881984585
 20
18.8731040675
 10
25.521695613
 20
18.8884206333
 10
25.454521031
 20
18.9027269841
 10
25.3867207506
 20
18.9160133151
 10
25.3183412388
 20
18.9282705203
 10
25.2494293593
 20
18.9394901994
 10
25.1800323411
 20
18.9496646629
 10
25.1101977454
 20
18.9587869377
 10
25.0399734332
 20
18.966850772
 10
24.9694075329
 20
18.9738506391
 10
24.8985484067
 20
18.9797817418
 10
24.827444618
 20
18.984640015
 10
24.7561448978
 20
18.9884221293
 10
24.6846981113
 20
18.9911254925
 10
24.6131532246
 20
18.9927482519
 10
24.541559271
 20
18.9932892952
 10
24.4699653174
 20
18.9927482519
 10
24.3984204307
 20
18.9911254925
 10
24.3269736442
 20
18.9884221293
 10
24.255673924
 20
18.984640015
 10
24.1845701353
 20
18.9797817418
 10
24.1137110091
 20
18.9738506391
 10
24.0431451088
 20
18.966850772
 10
23.9729207966
 20
18.9587869377
 10
23.9030862008
 20
18.9496646629
 10
23.8336891826
 20
18.9394901994
 10
23.7647773032
 20
18.9282705203
 10
23.6963977914
 20
18.9160133151
 10
23.628597511
 20
18.9027269841
 10
23.561422929
 20
18.8884206333
 10
23.4949200835
 20
18.8731040675
 10
23.4291345522
 20
18.8567877838
 10
23.3641114212
 20
18.8394829646
 10
23.2998952542
 20
18.8212014699
 10
23.2365300617
 20
18.8019558287
 10
23.174059271
 20
18.7817592312
 10
23.1125256965
 20
18.7606255191
 10
23.0519715102
 20
18.7385691762
 10
22.992438213
 20
18.7156053191
 10
22.933966606
 20
18.6917496859
 10
22.8765967626
 20
18.6670186261
 10
22.8203680015
 20
18.6414290891
 10
22.7653188588
 20
18.6149986128
 10
22.7114870626
 20
18.5877453112
 10
22.6589095065
 20
18.5596878624
 10
22.6076222244
 20
18.5308454956
 10
22.5576603663
 20
18.5012379779
 10
22.5090581733
 20
18.4708856008
 10
22.4618489551
 20
18.4398091664
 10
22.4160650664
 20
18.4080299727
 10
22.3717378853
 20
18.3755697998
 10
22.3288977914
 20
18.3424508942
 10
22.2875741451
 20
18.308695954
 10
22.2477952677
 20
18.2743281131
 10
22.2095884215
 20
18.2393709254
 10
22.1729797916
 20
18.203848349
 10
22.1379944679
 20
18.1677847291
 10
22.1046564273
 20
18.1312047821
 10
22.0729885183
 20
18.094133578
 10
22.0430124443
 20
18.0565965235
 10
22.0147487496
 20
18.0186193446
 10
21.9882168045
 20
17.9802280691
 10
21.9634347929
 20
17.9414490083
 10
21.9404196989
 20
17.9023087396
 10
21.9191872961
 20
17.8628340877
 10
21.8997521361
 20
17.8230521065
 10
21.8821275387
 20
17.7829900606
 10
21.866325583
 20
17.7426754066
 10
21.8523570988
 20
17.7021357741
 10
21.8402316595
 20
17.6613989469
 10
21.8299575751
 20
17.6204928441
 10
21.8215418872
 20
17.5794455006
 10
21.8149903632
 20
17.5382850482
 10
21.8103074934
 20
17.4970396963
 10
21.8074964872
 20
17.4557377124
 10
21.806559271
 20
17.4144074027
  0
LWPOLYLINE
  5
11B
330
1F
100
AcDbEntity
  8
0
  6
Continuous
 62
     7
370
    25
100
AcDbPolyline
 90
       28
 70
   128
 43
0.0
 10
26.1537627321
 20
15.0139286938
 10
26.198541815
 20
15.0405179193
 10
26.2420055543
 20
15.0678248489
 10
26.2841194477
 20
15.0958278058
 10
26.3248500643
 20
15.1245045609
 10
26.3641650716
 20
15.15383235
 10
26.4020332604
 20
15.1837878921
 10
26.4384245704
 20
15.2143474079
 10
26.4733101133
 20
15.2454866388
 10
26.5066621965
 20
15.2771808658
 10
26.5384543444
 20
15.3094049295
 10
26.5686613198
 20
15.3421332498
 10
26.5972591439
 20
15.3753398464
 10
26.6242251152
 20
15.4089983592
 10
26.6495378275
 20
15.4430820695
 10
26.6731771872
 20
15.4775639211
 10
26.6951244289
 20
15.5124165415
 10
26.7153621305
 20
15.5476122641
 10
26.733874227
 20
15.58312315
 10
26.750646023
 20
15.6189210098
 10
26.7656642048
 20
15.6549774266
 10
26.7789168507
 20
15.6912637781
 10
26.7903934405
 20
15.7277512596
 10
26.8000848639
 20
15.7644109067
 10
26.8079834277
 20
15.8012136181
 10
26.8140828617
 20
15.8381301792
 10
26.8183783243
 20
15.875131285
 10
26.8204621593
 20
15.9038069007
  0
LWPOLYLINE
  5
11C
330
1F
100
AcDbEntity
  8
0
  6
Continuous
 62
     7
370
    25
100
AcDbPolyline
 90
       84
 70
   128
 43
0.0
 10
22.2626563827
 20
15.9038069007
 10
22.2639486537
 20
15.8843913306
 10
22.2677925346
 20
15.847373676
 10
22.2734413738
 20
15.8104332283
 10
22.2808906872
 20
15.7735993117
 10
22.2901345614
 20
15.7369011655
 10
22.3011656585
 20
15.7003679215
 10
22.3139752217
 20
15.6640285803
 10
22.3285530827
 20
15.627911989
 10
22.3448876691
 20
15.5920468174
 10
22.3629660143
 20
15.5564615361
 10
22.3827737674
 20
15.5211843932
 10
22.4042952047
 20
15.4862433925
 10
22.4275132419
 20
15.4516662707
 10
22.4524094483
 20
15.4174804758
 10
22.4789640606
 20
15.3837131452
 10
22.5071559994
 20
15.3503910839
 10
22.5369628855
 20
15.3175407437
 10
22.5683610574
 20
15.2851882017
 10
22.6013255908
 20
15.25335914
 10
22.6358303179
 20
15.2220788252
 10
22.671847848
 20
15.191372088
 10
22.7093495899
 20
15.1612633042
 10
22.7483057739
 20
15.1317763745
 10
22.788685476
 20
15.1029347063
 10
22.8304566419
 20
15.0747611946
 10
22.8735861129
 20
15.0472782041
 10
22.9180396521
 20
15.0205075512
 10
22.9637819713
 20
14.9944704871
 10
23.0107767596
 20
14.9691876805
 10
23.0589867115
 20
14.9446792012
 10
23.1083735571
 20
14.9209645047
 10
23.1588980922
 20
14.898062416
 10
23.2105202095
 20
14.8759911152
 10
23.2631989303
 20
14.854768123
 10
23.3168924374
 20
14.8344102866
 10
23.3715581079
 20
14.8149337664
 10
23.427152547
 20
14.7963540233
 10
23.483631623
 20
14.7786858061
 10
23.5409505016
 20
14.7619431402
 10
23.599063682
 20
14.7461393163
 10
23.6579250331
 20
14.7312868798
 10
23.7174878294
 20
14.7173976207
 10
23.777704789
 20
14.7044825647
 10
23.8385281104
 20
14.6925519639
 10
23.8999095111
 20
14.6816152891
 10
23.9618002654
 20
14.6716812221
 10
24.0241512431
 20
14.6627576485
 10
24.0869129489
 20
14.6548516523
 10
24.1500355615
 20
14.6479695093
 10
24.2134689729
 20
14.6421166826
 10
24.2771628284
 20
14.6372978183
 10
24.3410665668
 20
14.6335167418
 10
24.40512946
 20
14.6307764546
 10
24.4693006537
 20
14.6290791319
 10
24.5335292077
 20
14.6284261211
 10
24.5977641361
 20
14.6288179405
 10
24.661954448
 20
14.6302542792
 10
24.726049188
 20
14.6327339969
 10
24.7899974765
 20
14.6362551253
 10
24.85374855
 20
14.6408148691
 10
24.917251802
 20
14.6464096087
 10
24.9804568222
 20
14.653034903
 10
25.0433134373
 20
14.6606854926
 10
25.1057717507
 20
14.6693553044
 10
25.1677821816
 20
14.6790374562
 10
25.2292955052
 20
14.689724262
 10
25.290262891
 20
14.7014072385
 10
25.3506359419
 20
14.7140771114
 10
25.4103667326
 20
14.7277238233
 10
25.4694078478
 20
14.7423365411
 10
25.5277124196
 20
14.7579036649
 10
25.5852341646
 20
14.7744128374
 10
25.6419274211
 20
14.7918509531
 10
25.6977471848
 20
14.8102041694
 10
25.7526491451
 20
14.8294579172
 10
25.8065897196
 20
14.8495969125
 10
25.8595260895
 20
14.8706051685
 10
25.9114162327
 20
14.8924660086
 10
25.962218958
 20
14.9151620792
 10
26.0118939372
 20
14.9386753637
 10
26.0604017374
 20
14.9629871969
 10
26.1077038521
 20
14.9880782795
 10
26.1537627321
 20
15.0139286938
  0
SPLINE
  5
11D
330
1F
100
AcDbEntity
  8
0
  6
Continuous
 62
     7
370
    25
100
AcDbSpline
210
0.0
220
0.0
230
1.0
 70
     8
 71
     3
 72
    11
 73
     7
 74
     0
 42
0.00000001
 43
0.00000001
 40
0.0
 40
0.0
 40
0.0
 40
0.0
 40
0.25
 40
0.5
 40
0.75
 40
1.0
 40
1.0
 40
1.0
 40
1.0
 10
25.80227954403621
 20
3.681431813136255
 30
0.0
 10
25.7980975887728
 20
3.66099120092699
 30
0.0
 10
25.78539915661316
 20
3.620997361233219
 30
0.0
 10
25.75418706577641
 20
3.566338309216531
 30
0.0
 10
25.71220506505934
 20
3.519441420219971
 30
0.0
 10
25.67828022692909
 20
3.494746020838706
 30
0.0
 10
25.66021145461368
 20
3.484314010278478
 30
0.0
  0
SPLINE
  5
11E
330
1F
100
AcDbEntity
  8
0
  6
Continuous
 62
     7
370
    25
100
AcDbSpline
210
0.0
220
0.0
230
1.0
 70
     8
 71
     3
 72
    11
 73
     7
 74
     0
 42
0.00000001
 43
0.00000001
 40
0.0
 40
0.0
 40
0.0
 40
0.0
 40
0.25
 40
0.5
 40
0.75
 40
1.0
 40
1.0
 40
1.0
 40
1.0
 10
25.66021145461368
 20
3.484314010278479
 30
0.0
 10
25.64214268229827
 20
3.473881999718245
 30
0.0
 10
25.60379342001237
 20
3.45684992776879
 30
0.0
 10
25.54218852242435
 20
3.443940893144398
 30
0.0
 10
25.47924634941275
 20
3.444239955582882
 30
0.0
 10
25.43826145216324
 20
3.453239710591295
 30
0.0
 10
25.4184683850894
 20
3.459838337200328
 30
0.0
  0
SPLINE
  5
11F
330
1F
100
AcDbEntity
  8
0
  6
Continuous
 62
     7
370
    25
100
AcDbSpline
210
0.0
220
0.0
230
1.0
 70
     8
 71
     3
 72
    11
 73
     7
 74
     0
 42
0.00000001
 43
0.00000001
 40
0.0
 40
0.0
 40
0.0
 40
0.0
 40
0.25
 40
0.5
 40
0.75
 40
1.0
 40
1.0
 40
1.0
 40
1.0
 10
21.81113643471537
 20
5.542532409805101
 30
0.0
 10
21.79552532290495
 20
5.556374395405344
 30
0.0
 10
21.76723885781508
 20
5.58736848009071
 30
0.0
 10
21.73550877564023
 20
5.641728469668905
 30
0.0
 10
21.71588587876929
 20
5.701534393289864
 30
0.0
 10
21.71146145461363
 20
5.743261864620572
 30
0.0
 10
21.71146145461363
 20
5.764125885741028
 30
0.0
  0
SPLINE
  5
120
330
1F
100
AcDbEntity
  8
0
  6
Continuous
 62
     7
370
    25
100
AcDbSpline
210
0.0
220
0.0
230
1.0
 70
     8
 71
     3
 72
    11
 73
     7
 74
     0
 42
0.00000001
 43
0.00000001
 40
0.0
 40
0.0
 40
0.0
 40
0.0
 40
0.25
 40
0.5
 40
0.75
 40
1.0
 40
1.0
 40
1.0
 40
1.0
 10
21.71146145461364
 20
5.764125885741028
 30
0.0
 10
21.71146145461363
 20
5.784989906861486
 30
0.0
 10
21.71588587876927
 20
5.826717378192192
 30
0.0
 10
21.73550877564022
 20
5.886523301813158
 30
0.0
 10
21.76723885781507
 20
5.940883291391356
 30
0.0
 10
21.79552532290494
 20
5.971877376076714
 30
0.0
 10
21.81113643471537
 20
5.985719361676955
 30
0.0
  0
SPLINE
  5
121
330
1F
100
AcDbEntity
  8
0
  6
Continuous
 62
     7
370
    25
100
AcDbSpline
210
0.0
220
0.0
230
1.0
 70
     8
 71
     3
 72
    11
 73
     7
 74
     0
 42
0.00000001
 43
0.00000001
 40
0.0
 40
0.0
 40
0.0
 40
0.0
 40
0.25
 40
0.5
 40
0.75
 40
1.0
 40
1.0
 40
1.0
 40
1.0
 10
25.41846838508937
 20
8.06841343428174
 30
0.0
 10
25.43826145216321
 20
8.075012060890765
 30
0.0
 10
25.47924634941271
 20
8.08401181589917
 30
0.0
 10
25.54218852242431
 20
8.084310878337662
 30
0.0
 10
25.60379342001233
 20
8.07140184371326
 30
0.0
 10
25.64214268229823
 20
8.05436977176382
 30
0.0
 10
25.66021145461364
 20
8.043937761203592
 30
0.0
  0
CIRCLE
  5
122
330
1F
100
AcDbEntity
  8
0
  6
Continuous
 62
     7
370
    25
100
AcDbCircle
 10
24.3439614546
 20
5.7641258857
 30
0.0
 40
2.400000000000001
  0
ARC
  5
123
330
1F
100
AcDbEntity
  8
0
  6
Continuous
 62
     7
370
    25
100
AcDbCircle
 10
24.3439614546
 20
5.7641258857
 30
0.0
 40
2.542500000000003
100
AcDbArc
 50
185.0
 51
295.0
  0
ARC
  5
124
330
1F
100
AcDbEntity
  8
0
  6
Continuous
 62
     7
370
    25
100
AcDbCircle
 10
24.3439614546
 20
5.7641258857
 30
0.0
 40
2.542500000000004
100
AcDbArc
 50
305.0
 51
55.0
  0
ARC
  5
125
330
1F
100
AcDbEntity
  8
0
  6
Continuous
 62
     7
370
    25
100
AcDbCircle
 10
24.3439614546
 20
5.7641258857
 30
0.0
 40
2.542500000000003
100
AcDbArc
 50
65.0
 51
175.0
  0
SPLINE
  5
126
330
1F
100
AcDbEntity
  8
0
  6
Continuous
 62
     7
370
    25
100
AcDbSpline
210
0.0
220
0.0
230
1.0
 70
     8
 71
     3
 72
    11
 73
     7
 74
     0
 42
0.00000001
 43
0.00000001
 40
0.0
 40
0.0
 40
0.0
 40
0.0
 40
0.25
 40
0.5
 40
0.75
 40
1.0
 40
1.0
 40
1.0
 40
1.0
 10
25.66021145461364
 20
8.043937761203592
 30
0.0
 10
25.67828022692906
 20
8.033505750643368
 30
0.0
 10
25.71220506505933
 20
8.008810351262115
 30
0.0
 10
25.75418706577639
 20
7.961913462265547
 30
0.0
 10
25.78539915661314
 20
7.907254410248863
 30
0.0
 10
25.79809758877278
 20
7.86726057055509
 30
0.0
 10
25.80227954403618
 20
7.846819958345819
 30
0.0
  0
CIRCLE
  5
127
330
1F
100
AcDbEntity
  8
0
  6
Continuous
 62
     7
370
    25
100
AcDbCircle
 10
26.0939614546
 20
5.7641258857
 30
0.0
 40
0.101564999999999
  0
CIRCLE
  5
128
330
1F
100
AcDbEntity
  8
0
  6
Continuous
 62
     7
370
    25
100
AcDbCircle
 10
24.3439614546
 20
3.6235008857
 30
0.0
 40
0.1925000000000003
  0
CIRCLE
  5
129
330
1F
100
AcDbEntity
  8
0
  6
Continuous
 62
     7
370
    25
100
AcDbCircle
 10
24.3439614546
 20
5.7641258857
 30
0.0
 40
1.250000000000001
  0
CIRCLE
  5
12A
330
1F
100
AcDbEntity
  8
0
  6
Continuous
 62
     7
370
    25
100
AcDbCircle
 10
24.3439614546
 20
7.9047508857
 30
0.0
 40
0.1924999999999999
  0
CIRCLE
  5
12B
330
1F
100
AcDbEntity
  8
0
  6
Continuous
 62
     7
370
    25
100
AcDbCircle
 10
22.5939614546
 20
5.7641258857
 30
0.0
 40
0.101564999999999
  0
CIRCLE
  5
12C
330
1F
100
AcDbEntity
  8
0
  6
Continuous
 62
     7
370
    25
100
AcDbCircle
 10
25.3687129763
 20
6.7888774074
 30
0.0
 40
0.0679999999999996
  0
CIRCLE
  5
12D
330
1F
100
AcDbEntity
  8
0
  6
Continuous
 62
     7
370
    25
100
AcDbCircle
 10
24.3439614546
 20
7.9047508857
 30
0.0
 40
0.100500000000002
  0
CIRCLE
  5
12E
330
1F
100
AcDbEntity
  8
0
  6
Continuous
 62
     7
370
    25
100
AcDbCircle
 10
24.3439614546
 20
3.6235008857
 30
0.0
 40
0.1004999999999998
  0
DIMENSION
  5
12F
330
1F
100
AcDbEntity
  8
0
  6
Continuous
 62
     7
370
    18
100
AcDbDimension
  2
_D_3
 10
19.804990265
 20
3.6235008857
 30
0.0
 11
19.804990265
 21
5.7641258857
 31
0.0
 70
   160
  1
<>
 71
     2
 42
-1.0
  3
SLDDIMSTYLE0
100
AcDbAlignedDimension
 13
24.3439614546
 23
7.9047508857
 33
0.0
 14
24.3439614546
 24
3.6235008857
 34
0.0
 50
90.0
100
AcDbRotatedDimension
  0
DIMENSION
  5
145
330
1F
100
AcDbEntity
  8
0
  6
Continuous
 62
     7
370
    18
100
AcDbDimension
  2
_D_4
 10
26.0939614546
 20
10.1963896653
 30
0.0
 11
24.3439614546
 21
10.1963896653
 31
0.0
 70
   160
  1
<>
 71
     2
 42
-1.0
  3
SLDDIMSTYLE1
100
AcDbAlignedDimension
 13
22.5939614546
 23
5.9656908857
 33
0.0
 14
26.0939614546
 24
5.9656908857
 34
0.0
100
AcDbRotatedDimension
  0
DIMENSION
  5
159
330
1F
100
AcDbEntity
  8
0
  6
Continuous
 62
     7
370
    18
100
AcDbDimension
  2
_D_5
 10
23.4600779781
 20
6.6480093622
 30
0.0
 11
28.690254688
 21
3.1421815966
 31
0.0
 70
   163
  1
<>
 71
     1
 42
-1.0
  3
SLDDIMSTYLE2
100
AcDbDiametricDimension
 15
25.2278449311
 25
4.8802424093
 35
0.0
 40
0.0
  0
DIMENSION
  5
16A
330
1F
100
AcDbEntity
  8
0
  6
Continuous
 62
     7
370
    18
100
AcDbDimension
  2
_D_6
 10
22.5461424634
 20
3.9663068946
 30
0.0
 11
28.690254688
 21
8.2475285353
 31
0.0
 70
   163
  1
<>
 71
     1
 42
-1.0
  3
SLDDIMSTYLE2
100
AcDbDiametricDimension
 15
26.1417804458
 25
7.5619448769
 35
0.0
 40
0.0
  0
MTEXT
  5
17A
330
1F
100
AcDbEntity
  8
0
  6
Continuous
 62
     7
370
     0
100
AcDbMText
 10
22.0930919774
 20
2.443720639
 30
0.0
 40
0.375
 41
0.0
 71
     1
 72
     1
  1
SM CANOPY DETAIL
  7
SLDTEXTSTYLE1
 73
     1
 44
1.0
  0
INSERT
  5
18E
330
1F
100
AcDbEntity
  8
0
  6
Continuous
 62
     7
370
     0
100
AcDbBlockReference
  2
SW_CENTERMARKSYMBOL_0
 10
24.3439614546
 20
3.6235008857
 30
0.0
  0
INSERT
  5
19A
330
1F
100
AcDbEntity
  8
0
  6
Continuous
 62
     7
370
     0
100
AcDbBlockReference
  2
SW_CENTERMARKSYMBOL_1
 10
24.3439614546
 20
5.7641258857
 30
0.0
  0
INSERT
  5
1A6
330
1F
100
AcDbEntity
  8
0
  6
Continuous
 62
     7
370
     0
100
AcDbBlockReference
  2
SW_CENTERMARKSYMBOL_2
 10
26.0939614546
 20
5.7641258857
 30
0.0
  0
INSERT
  5
1B2
330
1F
100
AcDbEntity
  8
0
  6
Continuous
 62
     7
370
     0
100
AcDbBlockReference
  2
SW_CENTERMARKSYMBOL_3
 10
22.5939614546
 20
5.7641258857
 30
0.0
  0
INSERT
  5
1BE
330
1F
100
AcDbEntity
  8
0
  6
Continuous
 62
     7
370
     0
100
AcDbBlockReference
  2
SW_CENTERMARKSYMBOL_4
 10
25.3687129763
 20
6.7888774074
 30
0.0
  0
CIRCLE
  5
1BF
330
1F
100
AcDbEntity
  8
0
  6
HIDDEN
 62
     7
370
    18
100
AcDbCircle
 10
25.3687129763
 20
6.7888774074
 30
0.0
 40
0.0819999999999999
  0
LINE
  5
1C0
330
1F
100
AcDbEntity
  8
0
  6
Continuous
 62
     7
370
    25
100
AcDbLine
 10
30.7599721288
 20
3.2216258857
 30
0.0
 11
31.2599721288
 21
3.2216258857
 31
0.0
  0
LINE
  5
1C1
330
1F
100
AcDbEntity
  8
0
  6
Continuous
 62
     7
370
    25
100
AcDbLine
 10
31.2599721288
 20
8.3066258857
 30
0.0
 11
30.7599721288
 21
8.3066258857
 31
0.0
  0
LINE
  5
1C2
330
1F
100
AcDbEntity
  8
0
  6
Continuous
 62
     7
370
    25
100
AcDbLine
 10
30.7599721288
 20
3.4446377505
 30
0.0
 11
30.8849721288
 21
3.4446377505
 31
0.0
  0
LINE
  5
1C3
330
1F
100
AcDbEntity
  8
0
  6
Continuous
 62
     7
370
    25
100
AcDbLine
 10
30.8849721288
 20
8.083614021
 30
0.0
 11
30.7599721288
 21
8.083614021
 31
0.0
  0
LINE
  5
1C4
330
1F
100
AcDbEntity
  8
0
  6
Continuous
 62
     7
370
    25
100
AcDbLine
 10
30.7599721288
 20
3.4436551815
 30
0.0
 11
30.7599721288
 21
3.2216258857
 31
0.0
  0
LINE
  5
1C5
330
1F
100
AcDbEntity
  8
0
  6
Continuous
 62
     7
370
    25
100
AcDbLine
 10
30.7599721288
 20
3.6814318131
 30
0.0
 11
30.8849721288
 21
3.6814318131
 31
0.0
  0
LINE
  5
1C6
330
1F
100
AcDbEntity
  8
0
  6
Continuous
 62
     7
370
    25
100
AcDbLine
 10
30.7599721288
 20
7.8468199583
 30
0.0
 11
30.7599721288
 21
3.6814318131
 31
0.0
  0
LINE
  5
1C7
330
1F
100
AcDbEntity
  8
0
  6
Continuous
 62
     7
370
    25
100
AcDbLine
 10
30.7599721288
 20
7.8468199583
 30
0.0
 11
30.8849721288
 21
7.8468199583
 31
0.0
  0
LINE
  5
1C8
330
1F
100
AcDbEntity
  8
0
  6
Continuous
 62
     7
370
    25
100
AcDbLine
 10
30.7599721288
 20
8.3066258857
 30
0.0
 11
30.7599721288
 21
8.0845439208
 31
0.0
  0
LINE
  5
1C9
330
1F
100
AcDbEntity
  8
0
  6
Continuous
 62
     7
370
    25
100
AcDbLine
 10
31.2599721288
 20
8.3066258857
 30
0.0
 11
31.2599721288
 21
3.2216258857
 31
0.0
  0
LINE
  5
1CA
330
1F
100
AcDbEntity
  8
0
  6
Continuous
 62
     7
370
    25
100
AcDbLine
 10
30.7599721288
 20
3.4843140103
 30
0.0
 11
30.8849721288
 21
3.4843140103
 31
0.0
  0
SPLINE
  5
1CB
330
1F
100
AcDbEntity
  8
0
  6
Continuous
 62
     7
370
    25
100
AcDbSpline
210
0.0
220
0.0
230
1.0
 70
    24
 71
     3
 72
    11
 73
     7
 74
     0
 42
0.00000001
 43
0.00000001
 40
0.0
 40
0.0
 40
0.0
 40
0.0
 40
0.25
 40
0.5
 40
0.75
 40
1.0
 40
1.0
 40
1.0
 40
1.0
 10
30.8849721288208
 20
3.48431401027848
 30
0.0
 10
30.8849721288208
 20
3.494746020838708
 30
0.0
 10
30.8849721288208
 20
3.519441420219972
 30
0.0
 10
30.8849721288208
 20
3.56633830921654
 30
0.0
 10
30.8849721288208
 20
3.620997361233218
 30
0.0
 10
30.8849721288208
 20
3.660991200926992
 30
0.0
 10
30.8849721288208
 20
3.681431813136257
 30
0.0
  0
SPLINE
  5
1CC
330
1F
100
AcDbEntity
  8
0
  6
Continuous
 62
     7
370
    25
100
AcDbSpline
210
0.0
220
0.0
230
1.0
 70
    24
 71
     3
 72
    11
 73
     7
 74
     0
 42
0.00000001
 43
0.00000001
 40
0.0
 40
0.0
 40
0.0
 40
0.0
 40
0.25
 40
0.5
 40
0.75
 40
1.0
 40
1.0
 40
1.0
 40
1.0
 10
30.7599721288208
 20
3.681431813136255
 30
0.0
 10
30.7599721288208
 20
3.66099120092699
 30
0.0
 10
30.7599721288208
 20
3.620997361233219
 30
0.0
 10
30.7599721288208
 20
3.566338309216531
 30
0.0
 10
30.7599721288208
 20
3.519441420219971
 30
0.0
 10
30.7599721288208
 20
3.494746020838706
 30
0.0
 10
30.7599721288208
 20
3.484314010278478
 30
0.0
  0
LINE
  5
1CD
330
1F
100
AcDbEntity
  8
0
  6
Continuous
 62
     7
370
    25
100
AcDbLine
 10
30.7599721288
 20
8.0439377612
 30
0.0
 11
30.8849721288
 21
8.0439377612
 31
0.0
  0
SPLINE
  5
1CE
330
1F
100
AcDbEntity
  8
0
  6
Continuous
 62
     7
370
    25
100
AcDbSpline
210
0.0
220
0.0
230
1.0
 70
    24
 71
     3
 72
    11
 73
     7
 74
     0
 42
0.00000001
 43
0.00000001
 40
0.0
 40
0.0
 40
0.0
 40
0.0
 40
0.25
 40
0.5
 40
0.75
 40
1.0
 40
1.0
 40
1.0
 40
1.0
 10
30.88497212882079
 20
7.846819958345827
 30
0.0
 10
30.88497212882079
 20
7.867260570555096
 30
0.0
 10
30.8849721288208
 20
7.907254410248867
 30
0.0
 10
30.8849721288208
 20
7.961913462265543
 30
0.0
 10
30.8849721288208
 20
8.008810351262113
 30
0.0
 10
30.8849721288208
 20
8.033505750643368
 30
0.0
 10
30.8849721288208
 20
8.043937761203596
 30
0.0
  0
SPLINE
  5
1CF
330
1F
100
AcDbEntity
  8
0
  6
Continuous
 62
     7
370
    25
100
AcDbSpline
210
0.0
220
0.0
230
1.0
 70
    24
 71
     3
 72
    11
 73
     7
 74
     0
 42
0.00000001
 43
0.00000001
 40
0.0
 40
0.0
 40
0.0
 40
0.0
 40
0.25
 40
0.5
 40
0.75
 40
1.0
 40
1.0
 40
1.0
 40
1.0
 10
30.75997212882079
 20
8.043937761203592
 30
0.0
 10
30.75997212882079
 20
8.033505750643368
 30
0.0
 10
30.75997212882079
 20
8.008810351262115
 30
0.0
 10
30.7599721288208
 20
7.961913462265547
 30
0.0
 10
30.75997212882079
 20
7.907254410248863
 30
0.0
 10
30.75997212882079
 20
7.86726057055509
 30
0.0
 10
30.75997212882079
 20
7.846819958345819
 30
0.0
  0
SPLINE
  5
1D0
330
1F
100
AcDbEntity
  8
0
  6
Continuous
 62
     7
370
    25
100
AcDbSpline
210
0.0
220
0.0
230
1.0
 70
    24
 71
     3
 72
    14
 73
    10
 74
     0
 42
0.00000001
 43
0.00000001
 40
0.0
 40
0.0
 40
0.0
 40
0.0
 40
0.0262929865524011
 40
0.1856491007383518
 40
0.3450051566885976
 40
0.508992392535964
 40
0.6729785166025357
 40
0.8358948594241614
 40
1.0
 40
1.0
 40
1.0
 40
1.0
 10
30.8849721288208
 20
3.444783755090034
 30
0.0
 10
30.8849721288208
 20
3.44473963006542
 30
0.0
 10
30.8849721288208
 20
3.444428072794313
 30
0.0
 10
30.8849721288208
 20
3.445863911252418
 30
0.0
 10
30.8849721288208
 20
3.449185260921554
 30
0.0
 10
30.8849721288208
 20
3.454820984888757
 30
0.0
 10
30.8849721288208
 20
3.462557916988319
 30
0.0
 10
30.8849721288208
 20
3.472210261515067
 30
0.0
 10
30.8849721288208
 20
3.480269661437768
 30
0.0
 10
30.8849721288208
 20
3.484314010278496
 30
0.0
  0
SPLINE
  5
1D1
330
1F
100
AcDbEntity
  8
0
  6
Continuous
 62
     7
370
    25
100
AcDbSpline
210
0.0
220
0.0
230
1.0
 70
    24
 71
     3
 72
    14
 73
    10
 74
     0
 42
0.00000001
 43
0.00000001
 40
0.0
 40
0.0
 40
0.0
 40
0.0
 40
0.1593446331933244
 40
0.3186898609474773
 40
0.4826646412270619
 40
0.6466404695050421
 40
0.8059959988646637
 40
0.9653514699887934
 40
1.0
 40
1.0
 40
1.0
 40
1.0
 10
30.7599721288208
 20
3.484314010278495
 30
0.0
 10
30.7599721288208
 20
3.480382573306801
 30
0.0
 10
30.7599721288208
 20
3.472519684694085
 30
0.0
 10
30.7599721288208
 20
3.462948817272737
 30
0.0
 10
30.7599721288208
 20
3.455164315129762
 30
0.0
 10
30.7599721288208
 20
3.449425642024453
 30
0.0
 10
30.7599721288208
 20
3.445983802910676
 30
0.0
 10
30.7599721288208
 20
3.444470020046142
 30
0.0
 10
30.7599721288208
 20
3.444765689094776
 30
0.0
 10
30.7599721288208
 20
3.444818494695923
 30
0.0
  0
SPLINE
  5
1D2
330
1F
100
AcDbEntity
  8
0
  6
Continuous
 62
     7
370
    25
100
AcDbSpline
210
0.0
220
0.0
230
1.0
 70
    24
 71
     3
 72
    14
 73
    10
 74
     0
 42
0.00000001
 43
0.00000001
 40
0.0
 40
0.0
 40
0.0
 40
0.0
 40
0.1593446331933955
 40
0.3186898609476161
 40
0.4826646412272755
 40
0.6466404695053304
 40
0.8059959988650249
 40
0.965351469989226
 40
1.0
 40
1.0
 40
1.0
 40
1.0
 10
30.8849721288208
 20
8.043937761203578
 30
0.0
 10
30.8849721288208
 20
8.047869198175272
 30
0.0
 10
30.8849721288208
 20
8.055732086787991
 30
0.0
 10
30.8849721288208
 20
8.065302954209338
 30
0.0
 10
30.8849721288208
 20
8.073087456352308
 30
0.0
 10
30.8849721288208
 20
8.078826129457616
 30
0.0
 10
30.8849721288208
 20
8.082267968571385
 30
0.0
 10
30.8849721288208
 20
8.083781751435918
 30
0.0
 10
30.8849721288208
 20
8.083486082387283
 30
0.0
 10
30.8849721288208
 20
8.083433276786135
 30
0.0
  0
SPLINE
  5
1D3
330
1F
100
AcDbEntity
  8
0
  6
Continuous
 62
     7
370
    25
100
AcDbSpline
210
0.0
220
0.0
230
1.0
 70
    24
 71
     3
 72
    14
 73
    10
 74
     0
 42
0.00000001
 43
0.00000001
 40
0.0
 40
0.0
 40
0.0
 40
0.0
 40
0.0262929865525163
 40
0.1856491007385246
 40
0.3450051566888279
 40
0.5089923925362627
 40
0.6729785166029012
 40
0.8358948594243435
 40
1.0
 40
1.0
 40
1.0
 40
1.0
 10
30.7599721288208
 20
8.083468016392036
 30
0.0
 10
30.7599721288208
 20
8.08351214141665
 30
0.0
 10
30.7599721288208
 20
8.083823698687757
 30
0.0
 10
30.7599721288208
 20
8.082387860229653
 30
0.0
 10
30.7599721288208
 20
8.079066510560514
 30
0.0
 10
30.7599721288208
 20
8.0734307865933
 30
0.0
 10
30.7599721288208
 20
8.065693854493734
 30
0.0
 10
30.7599721288208
 20
8.056041509966992
 30
0.0
 10
30.7599721288208
 20
8.0479821100443
 30
0.0
 10
30.7599721288208
 20
8.043937761203576
 30
0.0
  0
DIMENSION
  5
1D4
330
1F
100
AcDbEntity
  8
0
  6
Continuous
 62
     7
370
    18
100
AcDbDimension
  2
_D_7
 10
31.2599721288
 20
10.1963896653
 30
0.0
 11
28.6902349474
 21
10.1963896653
 31
0.0
 70
   160
  1
<>
 71
     2
 42
-1.0
  3
SLDDIMSTYLE1
100
AcDbAlignedDimension
 13
30.7599721288
 23
8.3066258857
 33
0.0
 14
31.2599721288
 24
8.3066258857
 34
0.0
100
AcDbRotatedDimension
  0
LINE
  5
1E8
330
1F
100
AcDbEntity
  8
0
  6
Continuous
 62
     7
370
    25
100
AcDbLine
 10
9.5300170672
 20
8.412446675
 30
0.0
 11
9.5311152716
 21
8.4113484706
 31
0.0
  0
LINE
  5
1E9
330
1F
100
AcDbEntity
  8
0
  6
Continuous
 62
     7
370
    25
100
AcDbLine
 10
9.6839152716
 20
8.4113484706
 30
0.0
 11
9.6850134759
 21
8.412446675
 31
0.0
  0
LINE
  5
1EA
330
1F
100
AcDbEntity
  8
0
  6
Continuous
 62
     7
370
    25
100
AcDbLine
 10
12.0138927802
 20
12.4461839547
 30
0.0
 11
12.0142947509
 21
12.4476841298
 31
0.0
  0
LINE
  5
1EB
330
1F
100
AcDbEntity
  8
0
  6
Continuous
 62
     7
370
    25
100
AcDbLine
 10
11.9378947509
 20
12.5800128115
 30
0.0
 11
11.9363945759
 21
12.5804147822
 31
0.0
  0
LINE
  5
1EC
330
1F
100
AcDbEntity
  8
0
  6
Continuous
 62
     7
370
    25
100
AcDbLine
 10
7.2786359672
 20
12.5804147822
 30
0.0
 11
7.2771357922
 21
12.5800128115
 31
0.0
  0
LINE
  5
1ED
330
1F
100
AcDbEntity
  8
0
  6
Continuous
 62
     7
370
    25
100
AcDbLine
 10
7.2007357922
 20
12.4476841298
 30
0.0
 11
7.2011377629
 21
12.4461839547
 31
0.0
  0
LINE
  5
1EE
330
1F
100
AcDbEntity
  8
0
  6
Continuous
 62
     7
370
    25
100
AcDbLine
 10
9.6786402474
 20
13.8804234948
 30
0.0
 11
9.6777152716
 21
13.8813484706
 31
0.0
  0
LINE
  5
1EF
330
1F
100
AcDbEntity
  8
0
  6
Continuous
 62
     7
370
    25
100
AcDbLine
 10
9.5373152716
 20
13.8813484706
 30
0.0
 11
9.5363902957
 21
13.8804234948
 31
0.0
  0
LINE
  5
1F0
330
1F
100
AcDbEntity
  8
0
  6
Continuous
 62
     7
370
    25
100
AcDbLine
 10
9.6839152716
 20
8.4113484706
 30
0.0
 11
9.5311152716
 21
8.4113484706
 31
0.0
  0
LINE
  5
1F1
330
1F
100
AcDbEntity
  8
0
  6
Continuous
 62
     7
370
    25
100
AcDbLine
 10
11.9378947509
 20
12.5800128115
 30
0.0
 11
12.0142947509
 21
12.4476841298
 31
0.0
  0
LINE
  5
1F2
330
1F
100
AcDbEntity
  8
0
  6
Continuous
 62
     7
370
    25
100
AcDbLine
 10
7.2435592479
 20
12.5218565308
 30
0.0
 11
7.2771357922
 21
12.5800128115
 31
0.0
  0
LINE
  5
1F3
330
1F
100
AcDbEntity
  8
0
  6
Continuous
 62
     7
370
    25
100
AcDbLine
 10
7.2007357922
 20
12.4476841298
 30
0.0
 11
7.2435592479
 21
12.5218565308
 31
0.0
  0
LINE
  5
1F4
330
1F
100
AcDbEntity
  8
0
  6
Continuous
 62
     7
370
    25
100
AcDbLine
 10
9.5724152716
 20
13.8813484706
 30
0.0
 11
9.6777152716
 21
13.8813484706
 31
0.0
  0
LINE
  5
1F5
330
1F
100
AcDbEntity
  8
0
  6
Continuous
 62
     7
370
    25
100
AcDbLine
 10
9.5373152716
 20
13.8813484706
 30
0.0
 11
9.5724152716
 21
13.8813484706
 31
0.0
  0
CIRCLE
  5
1F6
330
1F
100
AcDbEntity
  8
0
  6
Continuous
 62
     7
370
    25
100
AcDbCircle
 10
9.6075152716
 20
11.1463484706
 30
0.0
 40
2.734999999999999
  0
CIRCLE
  5
1F7
330
1F
100
AcDbEntity
  8
0
  6
Continuous
 62
     7
370
    25
100
AcDbCircle
 10
9.6075152716
 20
11.1463484706
 30
0.0
 40
2.279999999999999
  0
DIMENSION
  5
1F8
330
1F
100
AcDbEntity
  8
0
  6
Continuous
 62
     7
370
    18
100
AcDbDimension
  2
_D_8
 10
11.2197187327
 20
9.5341450095
 30
0.0
 11
4.8464326547
 21
14.0445405036
 31
0.0
 70
   163
  1
<>
 71
     1
 42
-1.0
  3
SLDDIMSTYLE2
100
AcDbDiametricDimension
 15
7.9953118104
 25
12.7585519317
 35
0.0
 40
0.0
  0
DIMENSION
  5
208
330
1F
100
AcDbEntity
  8
0
  6
Continuous
 62
     7
370
    18
100
AcDbDimension
  2
_D_9
 10
7.673578225
 20
9.2124114241
 30
0.0
 11
14.3685978884
 21
14.0445405036
 31
0.0
 70
   163
  1
<>
 71
     1
 42
-1.0
  3
SLDDIMSTYLE2
100
AcDbDiametricDimension
 15
11.5414523181
 25
13.0802855172
 35
0.0
 40
0.0
  0
ENDSEC
  0
SECTION
  2
OBJECTS
  0
DICTIONARY
  5
C
330
0
100
AcDbDictionary
281
     1
  3
ACAD_GROUP
350
D
  3
ACAD_LAYOUT
350
1A
  3
ACAD_MLINESTYLE
350
17
  3
ACAD_PLOTSETTINGS
350
19
  3
ACAD_PLOTSTYLENAME
350
E
  3
ACAD_SCALELIST
350
47
  3
DWGPROPS
350
218
  0
DICTIONARY
  5
D
102
{ACAD_REACTORS
330
C
102
}
330
C
100
AcDbDictionary
281
     1
  0
DICTIONARY
  5
1A
102
{ACAD_REACTORS
330
C
102
}
330
C
100
AcDbDictionary
281
     1
  3
Layout1
350
1E
  3
Layout2
350
26
  3
Model
350
22
  0
DICTIONARY
  5
17
102
{ACAD_REACTORS
330
C
102
}
330
C
100
AcDbDictionary
281
     1
  3
Standard
350
18
  0
DICTIONARY
  5
19
102
{ACAD_REACTORS
330
C
102
}
330
C
100
AcDbDictionary
281
     1
  0
ACDBDICTIONARYWDFLT
  5
E
102
{ACAD_REACTORS
330
C
102
}
330
C
100
AcDbDictionary
281
     1
  3
Normal
350
F
100
AcDbDictionaryWithDefault
340
F
  0
DICTIONARY
  5
47
102
{ACAD_REACTORS
330
C
102
}
330
C
100
AcDbDictionary
281
     1
  3
A0
350
48
  3
A1
350
49
  3
A2
350
4A
  3
A3
350
4B
  3
A4
350
4C
  3
A5
350
4D
  3
A6
350
4E
  3
A7
350
4F
  3
A8
350
50
  3
A9
350
51
  3
B1
350
52
  3
B2
350
53
  3
B3
350
54
  3
B4
350
55
  3
B5
350
56
  3
B6
350
57
  3
B7
350
58
  0
XRECORD
  5
218
102
{ACAD_REACTORS
330
C
102
}
330
C
100
AcDbXrecord
280
     1
  1
DWGPROPS COOKIE
  2

  3

  4

  6

  7

  8
alekseyb
  9

300
=
301
=
302
=
303
=
304
=
305
=
306
=
307
=
308
=
309
=
 40
0.0
 41
2460522.262134433
 42
2460522.262135834
  1

 90
        0
  0
LAYOUT
  5
1E
102
{ACAD_REACTORS
330
1A
102
}
330
1A
100
AcDbPlotSettings
  1

  2
none_device
  4

  6

 40
0.0
 41
0.0
 42
0.0
 43
0.0
 44
0.0
 45
0.0
 46
0.0
 47
0.0
 48
0.0
 49
0.0
140
0.0
141
0.0
142
1.0
143
1.0
 70
   688
 72
     0
 73
     0
 74
     5
  7

 75
    16
147
1.0
148
0.0
149
0.0
100
AcDbLayout
  1
Layout1
 70
     1
 71
     1
 10
0.0
 20
0.0
 11
12.0
 21
9.0
 12
0.0
 22
0.0
 32
0.0
 14
1.0000000000E+20
 24
1.0000000000E+20
 34
1.0000000000E+20
 15
-1.0000000000E+20
 25
-1.0000000000E+20
 35
-1.0000000000E+20
146
0.0
 13
0.0
 23
0.0
 33
0.0
 16
1.0
 26
0.0
 36
0.0
 17
0.0
 27
1.0
 37
0.0
 76
     0
330
1B
  0
LAYOUT
  5
26
102
{ACAD_REACTORS
330
1A
102
}
330
1A
100
AcDbPlotSettings
  1

  2
none_device
  4

  6

 40
0.0
 41
0.0
 42
0.0
 43
0.0
 44
0.0
 45
0.0
 46
0.0
 47
0.0
 48
0.0
 49
0.0
140
0.0
141
0.0
142
1.0
143
1.0
 70
   688
 72
     0
 73
     0
 74
     5
  7

 75
    16
147
1.0
148
0.0
149
0.0
100
AcDbLayout
  1
Layout2
 70
     1
 71
     2
 10
0.0
 20
0.0
 11
0.0
 21
0.0
 12
0.0
 22
0.0
 32
0.0
 14
0.0
 24
0.0
 34
0.0
 15
0.0
 25
0.0
 35
0.0
146
0.0
 13
0.0
 23
0.0
 33
0.0
 16
1.0
 26
0.0
 36
0.0
 17
0.0
 27
1.0
 37
0.0
 76
     0
330
23
  0
LAYOUT
  5
22
102
{ACAD_REACTORS
330
1A
102
}
330
1A
100
AcDbPlotSettings
  1

  2
none_device
  4
Letter_(8.50_x_11.00_Inches)
  6

 40
6.35
 41
6.35
 42
6.35000508
 43
6.35000508
 44
215.9
 45
279.4
 46
0.0
 47
0.0
 48
0.0
 49
0.0
140
0.0
141
0.0
142
1.0
143
1.0
 70
  1712
 72
     0
 73
     0
 74
     0
  7

 75
     0
147
1.0
148
0.0
149
0.0
100
AcDbLayout
  1
Model
 70
     1
 71
     0
 10
0.0
 20
0.0
 11
33.0
 21
25.5
 12
0.0
 22
0.0
 32
0.0
 14
0.0
 24
0.0
 34
0.0
 15
33.0
 25
25.5
 35
0.0
146
0.0
 13
0.0
 23
0.0
 33
0.0
 16
1.0
 26
0.0
 36
0.0
 17
0.0
 27
1.0
 37
0.0
 76
     0
330
1F
331
29
  0
MLINESTYLE
  5
18
102
{ACAD_REACTORS
330
17
102
}
330
17
100
AcDbMlineStyle
  2
Standard
 70
     0
  3

 62
   256
 51
90.0
 52
90.0
 71
     2
 49
0.5
 62
   256
  6
BYLAYER
 49
-0.5
 62
   256
  6
BYLAYER
  0
ACDBPLACEHOLDER
  5
F
102
{ACAD_REACTORS
330
E
102
}
330
E
  0
SCALE
  5
48
102
{ACAD_REACTORS
330
47
102
}
330
47
100
AcDbScale
 70
     0
300
1:1
140
1.0
141
1.0
290
     1
  0
SCALE
  5
49
102
{ACAD_REACTORS
330
47
102
}
330
47
100
AcDbScale
 70
     0
300
1/128" = 1'-0"
140
0.0078125
141
12.0
290
     0
  0
SCALE
  5
4A
102
{ACAD_REACTORS
330
47
102
}
330
47
100
AcDbScale
 70
     0
300
1/64" = 1'-0"
140
0.015625
141
12.0
290
     0
  0
SCALE
  5
4B
102
{ACAD_REACTORS
330
47
102
}
330
47
100
AcDbScale
 70
     0
300
1/32" = 1'-0"
140
0.03125
141
12.0
290
     0
  0
SCALE
  5
4C
102
{ACAD_REACTORS
330
47
102
}
330
47
100
AcDbScale
 70
     0
300
1/16" = 1'-0"
140
0.0625
141
12.0
290
     0
  0
SCALE
  5
4D
102
{ACAD_REACTORS
330
47
102
}
330
47
100
AcDbScale
 70
     0
300
3/32" = 1'-0"
140
0.09375
141
12.0
290
     0
  0
SCALE
  5
4E
102
{ACAD_REACTORS
330
47
102
}
330
47
100
AcDbScale
 70
     0
300
1/8" = 1'-0"
140
0.125
141
12.0
290
     0
  0
SCALE
  5
4F
102
{ACAD_REACTORS
330
47
102
}
330
47
100
AcDbScale
 70
     0
300
3/16" = 1'-0"
140
0.1875
141
12.0
290
     0
  0
SCALE
  5
50
102
{ACAD_REACTORS
330
47
102
}
330
47
100
AcDbScale
 70
     0
300
1/4" = 1'-0"
140
0.25
141
12.0
290
     0
  0
SCALE
  5
51
102
{ACAD_REACTORS
330
47
102
}
330
47
100
AcDbScale
 70
     0
300
3/8" = 1'-0"
140
0.375
141
12.0
290
     0
  0
SCALE
  5
52
102
{ACAD_REACTORS
330
47
102
}
330
47
100
AcDbScale
 70
     0
300
1/2" = 1'-0"
140
0.5
141
12.0
290
     0
  0
SCALE
  5
53
102
{ACAD_REACTORS
330
47
102
}
330
47
100
AcDbScale
 70
     0
300
3/4" = 1'-0"
140
0.75
141
12.0
290
     0
  0
SCALE
  5
54
102
{ACAD_REACTORS
330
47
102
}
330
47
100
AcDbScale
 70
     0
300
1" = 1'-0"
140
1.0
141
12.0
290
     0
  0
SCALE
  5
55
102
{ACAD_REACTORS
330
47
102
}
330
47
100
AcDbScale
 70
     0
300
1-1/2" = 1'-0"
140
1.5
141
12.0
290
     0
  0
SCALE
  5
56
102
{ACAD_REACTORS
330
47
102
}
330
47
100
AcDbScale
 70
     0
300
3" = 1'-0"
140
3.0
141
12.0
290
     0
  0
SCALE
  5
57
102
{ACAD_REACTORS
330
47
102
}
330
47
100
AcDbScale
 70
     0
300
6" = 1'-0"
140
6.0
141
12.0
290
     0
  0
SCALE
  5
58
102
{ACAD_REACTORS
330
47
102
}
330
47
100
AcDbScale
 70
     0
300
1'-0" = 1'-0"
140
12.0
141
12.0
290
     0
  0
ENDSEC
  0
EOF
