  0
SECTION
  2
HEADER
  9
$ACADVER
  1
AC1015
  9
$ACADMAINTVER
 70
     6
  9
$DWGCODEPAGE
  3
ANSI_1252
  9
$INSBASE
 10
0.0
 20
0.0
 30
0.0
  9
$EXTMIN
 10
0.0
 20
0.0
 30
0.0
  9
$EXTMAX
 10
33.0
 20
25.5
 30
0.0
  9
$LIMMIN
 10
0.0
 20
0.0
  9
$LIMMAX
 10
33.0
 20
25.5
  9
$ORTHOMODE
 70
     0
  9
$REGENMODE
 70
     1
  9
$FILLMODE
 70
     1
  9
$QTEXTMODE
 70
     0
  9
$MIRRTEXT
 70
     1
  9
$LTSCALE
 40
3.0
  9
$ATTMODE
 70
     1
  9
$TEXTSIZE
 40
0.375
  9
$TRACEWID
 40
0.05
  9
$TEXTSTYLE
  7
Standard
  9
$CLAYER
  8
0
  9
$CELTYPE
  6
ByLayer
  9
$CECOLOR
 62
   256
  9
$CELTSCALE
 40
1.0
  9
$DISPSILH
 70
     0
  9
$DIMSCALE
 40
1.0
  9
$DIMASZ
 40
0.39
  9
$DIMEXO
 40
0.15
  9
$DIMDLI
 40
0.38
  9
$DIMRND
 40
0.0
  9
$DIMDLE
 40
0.0
  9
$DIMEXE
 40
0.375
  9
$DIMTP
 40
0.0
  9
$DIMTM
 40
0.0
  9
$DIMTXT
 40
0.375
  9
$DIMCEN
 40
0.09
  9
$DIMTSZ
 40
0.0
  9
$DIMTOL
 70
     0
  9
$DIMLIM
 70
     0
  9
$DIMTIH
 70
     1
  9
$DIMTOH
 70
     1
  9
$DIMSE1
 70
     0
  9
$DIMSE2
 70
     0
  9
$DIMTAD
 70
     0
  9
$DIMZIN
 70
     1
  9
$DIMBLK
  1

  9
$DIMASO
 70
     1
  9
$DIMSHO
 70
     1
  9
$DIMPOST
  1

  9
$DIMAPOST
  1

  9
$DIMALT
 70
     0
  9
$DIMALTD
 70
     2
  9
$DIMALTF
 40
25.4
  9
$DIMLFAC
 40
1.0
  9
$DIMTOFL
 70
     0
  9
$DIMTVP
 40
0.0
  9
$DIMTIX
 70
     0
  9
$DIMSOXD
 70
     0
  9
$DIMSAH
 70
     0
  9
$DIMBLK1
  1

  9
$DIMBLK2
  1

  9
$DIMSTYLE
  2
Standard
  9
$DIMCLRD
 70
     0
  9
$DIMCLRE
 70
     0
  9
$DIMCLRT
 70
     0
  9
$DIMTFAC
 40
1.0
  9
$DIMGAP
 40
0.18
  9
$DIMJUST
 70
     0
  9
$DIMSD1
 70
     0
  9
$DIMSD2
 70
     0
  9
$DIMTOLJ
 70
     1
  9
$DIMTZIN
 70
     1
  9
$DIMALTZ
 70
     0
  9
$DIMALTTZ
 70
     0
  9
$DIMUPT
 70
     0
  9
$DIMDEC
 70
     0
  9
$DIMTDEC
 70
     0
  9
$DIMALTU
 70
     2
  9
$DIMALTTD
 70
     2
  9
$DIMTXSTY
  7
Standard
  9
$DIMAUNIT
 70
     0
  9
$DIMADEC
 70
     0
  9
$DIMALTRND
 40
0.0
  9
$DIMAZIN
 70
     0
  9
$DIMDSEP
 70
    46
  9
$DIMATFIT
 70
     3
  9
$DIMFRAC
 70
     0
  9
$DIMLDRBLK
  1

  9
$DIMLUNIT
 70
     2
  9
$DIMLWD
 70
    -2
  9
$DIMLWE
 70
    -2
  9
$DIMTMOVE
 70
     0
  9
$LUNITS
 70
     2
  9
$LUPREC
 70
     6
  9
$SKETCHINC
 40
0.1
  9
$FILLETRAD
 40
0.0
  9
$AUNITS
 70
     0
  9
$AUPREC
 70
     2
  9
$MENU
  1
.
  9
$ELEVATION
 40
0.0
  9
$PELEVATION
 40
0.0
  9
$THICKNESS
 40
0.0
  9
$LIMCHECK
 70
     0
  9
$CHAMFERA
 40
0.0
  9
$CHAMFERB
 40
0.0
  9
$CHAMFERC
 40
0.0
  9
$CHAMFERD
 40
0.0
  9
$SKPOLY
 70
     0
  9
$TDCREATE
 40
2460538.734907616
  9
$TDUCREATE
 40
2460539.026574283
  9
$TDUPDATE
 40
2460538.734908588
  9
$TDUUPDATE
 40
2460539.026575255
  9
$TDINDWG
 40
0.0000000116
  9
$TDUSRTIMER
 40
0.0000000116
  9
$USRTIMER
 70
     1
  9
$ANGBASE
 50
0.0
  9
$ANGDIR
 70
     0
  9
$PDMODE
 70
     0
  9
$PDSIZE
 40
-1.0
  9
$PLINEWID
 40
0.0
  9
$SPLFRAME
 70
     0
  9
$SPLINETYPE
 70
     6
  9
$SPLINESEGS
 70
     8
  9
$HANDSEED
  5
314
  9
$SURFTAB1
 70
     6
  9
$SURFTAB2
 70
     6
  9
$SURFTYPE
 70
     6
  9
$SURFU
 70
     6
  9
$SURFV
 70
     6
  9
$UCSBASE
  2

  9
$UCSNAME
  2

  9
$UCSORG
 10
0.0
 20
0.0
 30
0.0
  9
$UCSXDIR
 10
1.0
 20
0.0
 30
0.0
  9
$UCSYDIR
 10
0.0
 20
1.0
 30
0.0
  9
$UCSORTHOREF
  2

  9
$UCSORTHOVIEW
 70
     0
  9
$UCSORGTOP
 10
0.0
 20
0.0
 30
0.0
  9
$UCSORGBOTTOM
 10
0.0
 20
0.0
 30
0.0
  9
$UCSORGLEFT
 10
0.0
 20
0.0
 30
0.0
  9
$UCSORGRIGHT
 10
0.0
 20
0.0
 30
0.0
  9
$UCSORGFRONT
 10
0.0
 20
0.0
 30
0.0
  9
$UCSORGBACK
 10
0.0
 20
0.0
 30
0.0
  9
$PUCSBASE
  2

  9
$PUCSNAME
  2

  9
$PUCSORG
 10
0.0
 20
0.0
 30
0.0
  9
$PUCSXDIR
 10
1.0
 20
0.0
 30
0.0
  9
$PUCSYDIR
 10
0.0
 20
1.0
 30
0.0
  9
$PUCSORTHOREF
  2

  9
$PUCSORTHOVIEW
 70
     0
  9
$PUCSORGTOP
 10
0.0
 20
0.0
 30
0.0
  9
$PUCSORGBOTTOM
 10
0.0
 20
0.0
 30
0.0
  9
$PUCSORGLEFT
 10
0.0
 20
0.0
 30
0.0
  9
$PUCSORGRIGHT
 10
0.0
 20
0.0
 30
0.0
  9
$PUCSORGFRONT
 10
0.0
 20
0.0
 30
0.0
  9
$PUCSORGBACK
 10
0.0
 20
0.0
 30
0.0
  9
$USERI1
 70
     0
  9
$USERI2
 70
     0
  9
$USERI3
 70
     0
  9
$USERI4
 70
     0
  9
$USERI5
 70
     0
  9
$USERR1
 40
0.0
  9
$USERR2
 40
0.0
  9
$USERR3
 40
0.0
  9
$USERR4
 40
0.0
  9
$USERR5
 40
0.0
  9
$WORLDVIEW
 70
     1
  9
$SHADEDGE
 70
     3
  9
$SHADEDIF
 70
    70
  9
$TILEMODE
 70
     1
  9
$MAXACTVP
 70
    64
  9
$PINSBASE
 10
0.0
 20
0.0
 30
0.0
  9
$PLIMCHECK
 70
     0
  9
$PEXTMIN
 10
1.0000000000E+20
 20
1.0000000000E+20
 30
1.0000000000E+20
  9
$PEXTMAX
 10
-1.0000000000E+20
 20
-1.0000000000E+20
 30
-1.0000000000E+20
  9
$PLIMMIN
 10
0.0
 20
0.0
  9
$PLIMMAX
 10
12.0
 20
9.0
  9
$UNITMODE
 70
     0
  9
$VISRETAIN
 70
     1
  9
$PLINEGEN
 70
     0
  9
$PSLTSCALE
 70
     1
  9
$TREEDEPTH
 70
  3020
  9
$CMLSTYLE
  2
Standard
  9
$CMLJUST
 70
     0
  9
$CMLSCALE
 40
1.0
  9
$PROXYGRAPHICS
 70
     1
  9
$MEASUREMENT
 70
     0
  9
$CELWEIGHT
370
    -1
  9
$ENDCAPS
280
     0
  9
$JOINSTYLE
280
     0
  9
$LWDISPLAY
290
     1
  9
$INSUNITS
 70
     1
  9
$HYPERLINKBASE
  1

  9
$STYLESHEET
  1

  9
$XEDIT
290
     1
  9
$CEPSNTYPE
380
     0
  9
$PSTYLEMODE
290
     1
  9
$FINGERPRINTGUID
  2
{554c39da-1dd8-4b00-b8ef-719dec79e7a3}
  9
$VERSIONGUID
  2
{FAEB1C32-E019-11D5-929B-00C0DF256EC4}
  9
$EXTNAMES
290
     1
  9
$PSVPSCALE
 40
0.0
  9
$OLESTARTUP
290
     0
  0
ENDSEC
  0
SECTION
  2
CLASSES
  0
CLASS
  1
ACDBDICTIONARYWDFLT
  2
AcDbDictionaryWithDefault
  3
ObjectDBX Classes
 90
        0
280
     0
281
     0
  0
CLASS
  1
VISUALSTYLE
  2
AcDbVisualStyle
  3
ObjectDBX Classes
 90
     4095
280
     0
281
     0
  0
CLASS
  1
MATERIAL
  2
AcDbMaterial
  3
ObjectDBX Classes
 90
     1153
280
     0
281
     0
  0
CLASS
  1
SCALE
  2
AcDbScale
  3
ObjectDBX Classes
 90
     1153
280
     0
281
     0
  0
CLASS
  1
TABLESTYLE
  2
AcDbTableStyle
  3
ObjectDBX Classes
 90
     4095
280
     0
281
     0
  0
CLASS
  1
MLEADERSTYLE
  2
AcDbMLeaderStyle
  3
ACDB_MLEADERSTYLE_CLASS
 90
     4095
280
     0
281
     0
  0
CLASS
  1
SUN
  2
AcDbSun
  3
SCENEOE
 90
     1153
280
     0
281
     0
  0
CLASS
  1
ACDBPLACEHOLDER
  2
AcDbPlaceHolder
  3
ObjectDBX Classes
 90
        0
280
     0
281
     0
  0
CLASS
  1
LAYOUT
  2
AcDbLayout
  3
ObjectDBX Classes
 90
        0
280
     0
281
     0
  0
ENDSEC
  0
SECTION
  2
TABLES
  0
TABLE
  2
VPORT
  5
8
330
0
100
AcDbSymbolTable
 70
     1
  0
VPORT
  5
29
330
8
100
AcDbSymbolTableRecord
100
AcDbViewportTableRecord
  2
*Active
 70
     0
 10
0.0
 20
0.0
 11
1.0
 21
1.0
 12
16.5
 22
12.75
 13
0.0
 23
0.0
 14
0.5
 24
0.5
 15
0.5
 25
0.5
 16
0.0
 26
0.0
 36
1.0
 17
0.0
 27
0.0
 37
0.0
 40
25.5
 41
1.2941176471
 42
50.0
 43
0.0
 44
0.0
 50
0.0
 51
0.0
 71
     0
 72
  2000
 73
     1
 74
     3
 75
     0
 76
     0
 77
     0
 78
     0
281
     0
 65
     1
110
0.0
120
0.0
130
0.0
111
1.0
121
0.0
131
0.0
112
0.0
122
1.0
132
0.0
 79
     0
146
0.0
  0
ENDTAB
  0
TABLE
  2
LTYPE
  5
5
330
0
100
AcDbSymbolTable
 70
     6
  0
LTYPE
  5
14
330
5
100
AcDbSymbolTableRecord
100
AcDbLinetypeTableRecord
  2
ByBlock
 70
     0
  3

 72
    65
 73
     0
 40
0.0
  0
LTYPE
  5
15
330
5
100
AcDbSymbolTableRecord
100
AcDbLinetypeTableRecord
  2
ByLayer
 70
     0
  3

 72
    65
 73
     0
 40
0.0
  0
LTYPE
  5
16
330
5
100
AcDbSymbolTableRecord
100
AcDbLinetypeTableRecord
  2
Continuous
 70
     0
  3
Solid line
 72
    65
 73
     0
 40
0.0
  0
LTYPE
  5
5E
330
5
100
AcDbSymbolTableRecord
100
AcDbLinetypeTableRecord
  2
HIDDEN
 70
     0
  3
Hidden __ __ __ __ __ __ __ __ __ __ __ __ __ __
 72
    65
 73
     2
 40
0.075
 49
0.05
 74
     0
 49
-0.025
 74
     0
  0
LTYPE
  5
5F
330
5
100
AcDbSymbolTableRecord
100
AcDbLinetypeTableRecord
  2
PHANTOM
 70
     0
  3
Phantom ______  __  __  ______  __  __  ______
 72
    65
 73
     6
 40
0.5
 49
0.25
 74
     0
 49
-0.05
 74
     0
 49
0.05
 74
     0
 49
-0.05
 74
     0
 49
0.05
 74
     0
 49
-0.05
 74
     0
  0
LTYPE
  5
60
330
5
100
AcDbSymbolTableRecord
100
AcDbLinetypeTableRecord
  2
CENTER
 70
     0
  3
Center ____ _ ____ _ ____ _ ____ _ ____ _ ____
 72
    65
 73
     4
 40
0.4
 49
0.25
 74
     0
 49
-0.05
 74
     0
 49
0.05
 74
     0
 49
-0.05
 74
     0
  0
LTYPE
  5
61
330
5
100
AcDbSymbolTableRecord
100
AcDbLinetypeTableRecord
  2
CENTERX2
 70
     0
  3
Center (2x) ________  __  ________  __  _____
 72
    65
 73
     4
 40
0.8
 49
0.5
 74
     0
 49
-0.1
 74
     0
 49
0.1
 74
     0
 49
-0.1
 74
     0
  0
LTYPE
  5
62
330
5
100
AcDbSymbolTableRecord
100
AcDbLinetypeTableRecord
  2
DOT2
 70
     0
  3
Dot (.5x) ........................................
 72
    65
 73
     2
 40
0.025
 49
0.0
 74
     0
 49
-0.025
 74
     0
  0
ENDTAB
  0
TABLE
  2
LAYER
  5
2
330
0
100
AcDbSymbolTable
 70
    12
  0
LAYER
  5
10
330
2
100
AcDbSymbolTableRecord
100
AcDbLayerTableRecord
  2
0
 70
     0
 62
     7
  6
Continuous
370
    -3
390
F
  0
LAYER
  5
63
330
2
100
AcDbSymbolTableRecord
100
AcDbLayerTableRecord
  2
SLD-0
 70
     0
 62
     7
  6
Continuous
370
    -3
390
F
  0
LAYER
  5
64
330
2
100
AcDbSymbolTableRecord
100
AcDbLayerTableRecord
  2
DIM
 70
     0
 62
     7
  6
Continuous
370
    -3
390
F
  0
LAYER
  5
65
330
2
100
AcDbSymbolTableRecord
100
AcDbLayerTableRecord
  2
CEN
 70
     0
 62
     1
  6
CENTER
370
    -3
390
F
  0
LAYER
  5
66
330
2
100
AcDbSymbolTableRecord
100
AcDbLayerTableRecord
  2
HAT
 70
     0
 62
     4
  6
Continuous
370
    -3
390
F
  0
LAYER
  5
67
330
2
100
AcDbSymbolTableRecord
100
AcDbLayerTableRecord
  2
OBJ
 70
     0
 62
     5
  6
Continuous
370
    -3
390
F
  0
LAYER
  5
68
330
2
100
AcDbSymbolTableRecord
100
AcDbLayerTableRecord
  2
SLD-DEFPOINTS
 70
     0
 62
     7
  6
Continuous
370
    -3
390
F
  0
LAYER
  5
69
330
2
100
AcDbSymbolTableRecord
100
AcDbLayerTableRecord
  2
HID
 70
     0
 62
     4
  6
HIDDEN
370
    -3
390
F
  0
LAYER
  5
6A
330
2
100
AcDbSymbolTableRecord
100
AcDbLayerTableRecord
  2
NOTE
 70
     0
 62
     7
  6
Continuous
370
    -3
390
F
  0
LAYER
  5
6B
330
2
100
AcDbSymbolTableRecord
100
AcDbLayerTableRecord
  2
VP
 70
     0
 62
    -5
  6
Continuous
290
     0
370
    -3
390
F
  0
LAYER
  5
6C
330
2
100
AcDbSymbolTableRecord
100
AcDbLayerTableRecord
  2
TITLE
 70
     0
 62
     7
  6
Continuous
370
    -3
390
F
  0
LAYER
  5
6D
330
2
100
AcDbSymbolTableRecord
100
AcDbLayerTableRecord
  2
THICK_TITLE
 70
     0
 62
     7
  6
Continuous
370
   100
390
F
  0
ENDTAB
  0
TABLE
  2
STYLE
  5
3
330
0
100
AcDbSymbolTable
 70
     3
  0
STYLE
  5
11
330
3
100
AcDbSymbolTableRecord
100
AcDbTextStyleTableRecord
  2
Standard
 70
     0
 40
0.0
 41
1.0
 50
0.0
 71
     0
 42
0.375
  3
txt
  4

  0
STYLE
  5
74
330
3
100
AcDbSymbolTableRecord
100
AcDbTextStyleTableRecord
  2
SLDTEXTSTYLE0
 70
     0
 40
0.0
 41
0.75
 50
0.0
 71
     0
 42
0.375
  3
TXT
  4

  0
STYLE
  5
85
330
3
100
AcDbSymbolTableRecord
100
AcDbTextStyleTableRecord
  2
SLDTEXTSTYLE1
 70
     0
 40
0.0
 41
0.7
 50
0.0
 71
     0
 42
0.375
  3
TXT
  4

  0
ENDTAB
  0
TABLE
  2
VIEW
  5
6
330
0
100
AcDbSymbolTable
 70
     0
  0
ENDTAB
  0
TABLE
  2
UCS
  5
7
330
0
100
AcDbSymbolTable
 70
     0
  0
ENDTAB
  0
TABLE
  2
APPID
  5
9
330
0
100
AcDbSymbolTable
 70
     1
  0
APPID
  5
12
330
9
100
AcDbSymbolTableRecord
100
AcDbRegAppTableRecord
  2
ACAD
 70
     0
  0
ENDTAB
  0
TABLE
  2
DIMSTYLE
  5
A
330
0
100
AcDbSymbolTable
 70
     5
100
AcDbDimStyleTable
  0
DIMSTYLE
105
27
330
A
100
AcDbSymbolTableRecord
100
AcDbDimStyleTableRecord
  2
Standard
 70
     0
178
     0
340
11
  0
DIMSTYLE
105
152
102
{ACAD_REACTORS
330
151
330
1A2
330
299
330
2B7
330
2D5
102
}
330
A
100
AcDbSymbolTableRecord
100
AcDbDimStyleTableRecord
  2
SLDDIMSTYLE0
 70
     0
 41
0.39
 44
0.0
 45
0.000000001
 78
    12
 79
     3
140
0.375
147
0.09375
148
0.000000001
170
     1
173
     1
178
     0
271
     6
272
     0
276
     2
277
     5
284
    12
340
74
  0
DIMSTYLE
105
167
102
{ACAD_REACTORS
330
166
330
18E
330
1B6
330
2EE
102
}
330
A
100
AcDbSymbolTableRecord
100
AcDbDimStyleTableRecord
  2
SLDDIMSTYLE1
 70
     0
 41
0.39
 44
0.0
 45
0.000000001
 78
    12
 79
     3
140
0.375
147
0.09375
148
0.000000001
170
     1
172
     1
173
     1
178
     0
271
     6
272
     0
276
     2
277
     5
284
    12
289
     0
340
74
  0
DIMSTYLE
105
17D
102
{ACAD_REACTORS
330
17C
330
1CB
102
}
330
A
100
AcDbSymbolTableRecord
100
AcDbDimStyleTableRecord
  2
SLDDIMSTYLE2
 70
     0
 41
0.39
 44
0.0
 45
0.000000001
 78
    12
 79
     3
140
0.375
147
0.09375
148
0.000000001
170
     1
173
     1
178
     0
271
     0
272
     0
276
     2
277
     5
284
    12
340
74
  0
DIMSTYLE
105
302
102
{ACAD_REACTORS
330
301
102
}
330
A
100
AcDbSymbolTableRecord
100
AcDbDimStyleTableRecord
  2
SLDDIMSTYLE3
 70
     0
 41
0.39
 44
0.0
 45
0.000000001
 78
    12
 79
     3
140
0.375
141
0.0
147
0.09375
148
0.000000001
170
     1
173
     1
178
     0
271
     0
272
     0
276
     2
277
     5
284
    12
340
74
  0
ENDTAB
  0
TABLE
  2
BLOCK_RECORD
  5
1
330
0
100
AcDbSymbolTable
 70
    20
  0
BLOCK_RECORD
  5
1F
330
1
100
AcDbSymbolTableRecord
100
AcDbBlockTableRecord
  2
*Model_Space
340
22
  0
BLOCK_RECORD
  5
1B
330
1
100
AcDbSymbolTableRecord
100
AcDbBlockTableRecord
  2
*Paper_Space
340
1E
  0
BLOCK_RECORD
  5
23
330
1
100
AcDbSymbolTableRecord
100
AcDbBlockTableRecord
  2
*Paper_Space0
340
26
  0
BLOCK_RECORD
  5
6E
330
1
100
AcDbSymbolTableRecord
100
AcDbBlockTableRecord
  2
Block1
340
0
102
{BLKREFS
331
298
102
}
  0
BLOCK_RECORD
  5
71
330
1
100
AcDbSymbolTableRecord
100
AcDbBlockTableRecord
  2
SW_NOTE_0
340
0
102
{BLKREFS
331
76
102
}
  0
BLOCK_RECORD
  5
77
330
1
100
AcDbSymbolTableRecord
100
AcDbBlockTableRecord
  2
Block2
340
0
102
{BLKREFS
331
2B6
102
}
  0
BLOCK_RECORD
  5
7A
330
1
100
AcDbSymbolTableRecord
100
AcDbBlockTableRecord
  2
SW_NOTE_0_1
340
0
102
{BLKREFS
331
7E
102
}
  0
BLOCK_RECORD
  5
7F
330
1
100
AcDbSymbolTableRecord
100
AcDbBlockTableRecord
  2
Block3
340
0
102
{BLKREFS
331
2D4
102
}
  0
BLOCK_RECORD
  5
82
330
1
100
AcDbSymbolTableRecord
100
AcDbBlockTableRecord
  2
SW_NOTE_0_2
340
0
102
{BLKREFS
331
87
102
}
  0
BLOCK_RECORD
  5
88
330
1
100
AcDbSymbolTableRecord
100
AcDbBlockTableRecord
  2
SW_BROKEN_VIEW_0
340
0
102
{BLKREFS
331
8B
102
}
  0
BLOCK_RECORD
  5
153
330
1
100
AcDbSymbolTableRecord
100
AcDbBlockTableRecord
  2
_D
340
0
  0
BLOCK_RECORD
  5
168
330
1
100
AcDbSymbolTableRecord
100
AcDbBlockTableRecord
  2
_D_1
340
0
  0
BLOCK_RECORD
  5
17E
330
1
100
AcDbSymbolTableRecord
100
AcDbBlockTableRecord
  2
_D_2
340
0
  0
BLOCK_RECORD
  5
18F
330
1
100
AcDbSymbolTableRecord
100
AcDbBlockTableRecord
  2
_D_3
340
0
  0
BLOCK_RECORD
  5
1A3
330
1
100
AcDbSymbolTableRecord
100
AcDbBlockTableRecord
  2
_D_4
340
0
  0
BLOCK_RECORD
  5
1B7
330
1
100
AcDbSymbolTableRecord
100
AcDbBlockTableRecord
  2
_D_5
340
0
  0
BLOCK_RECORD
  5
1CC
330
1
100
AcDbSymbolTableRecord
100
AcDbBlockTableRecord
  2
_D_6
340
0
  0
BLOCK_RECORD
  5
29A
330
1
100
AcDbSymbolTableRecord
100
AcDbBlockTableRecord
  2
_D_7
340
0
  0
BLOCK_RECORD
  5
2B8
330
1
100
AcDbSymbolTableRecord
100
AcDbBlockTableRecord
  2
_D_8
340
0
  0
BLOCK_RECORD
  5
2D6
330
1
100
AcDbSymbolTableRecord
100
AcDbBlockTableRecord
  2
_D_9
340
0
  0
BLOCK_RECORD
  5
2EF
330
1
100
AcDbSymbolTableRecord
100
AcDbBlockTableRecord
  2
_D_10
340
0
  0
BLOCK_RECORD
  5
303
330
1
100
AcDbSymbolTableRecord
100
AcDbBlockTableRecord
  2
_D_11
340
0
  0
ENDTAB
  0
ENDSEC
  0
SECTION
  2
BLOCKS
  0
BLOCK
  5
20
330
1F
100
AcDbEntity
  8
0
100
AcDbBlockBegin
  2
*Model_Space
 70
     0
 10
0.0
 20
0.0
 30
0.0
  3
*Model_Space
  1

  0
ENDBLK
  5
21
330
1F
100
AcDbEntity
  8
0
100
AcDbBlockEnd
  0
BLOCK
  5
1C
330
1B
100
AcDbEntity
 67
     1
  8
0
100
AcDbBlockBegin
  2
*Paper_Space
 70
     0
 10
0.0
 20
0.0
 30
0.0
  3
*Paper_Space
  1

  0
ENDBLK
  5
1D
330
1B
100
AcDbEntity
 67
     1
  8
0
100
AcDbBlockEnd
  0
BLOCK
  5
24
330
23
100
AcDbEntity
  8
0
100
AcDbBlockBegin
  2
*Paper_Space0
 70
     0
 10
0.0
 20
0.0
 30
0.0
  3
*Paper_Space0
  1

  0
ENDBLK
  5
25
330
23
100
AcDbEntity
  8
0
100
AcDbBlockEnd
  0
BLOCK
  5
6F
330
6E
100
AcDbEntity
  8
0
100
AcDbBlockBegin
  2
Block1
 70
     0
 10
0.0
 20
0.0
 30
0.0
  3
Block1
  1

  0
INSERT
  5
76
330
6E
100
AcDbEntity
  8
0
  6
Continuous
 62
     7
370
     0
100
AcDbBlockReference
  2
SW_NOTE_0
 10
0.0012322298
 20
-0.0521462902
 30
0.0
  0
ENDBLK
  5
70
330
6E
100
AcDbEntity
  8
0
100
AcDbBlockEnd
  0
BLOCK
  5
72
330
71
100
AcDbEntity
  8
0
100
AcDbBlockBegin
  2
SW_NOTE_0
 70
     0
 10
0.0
 20
0.0
 30
0.0
  3
SW_NOTE_0
  1

  0
MTEXT
  5
75
330
71
100
AcDbEntity
  8
0
  6
Continuous
 62
     0
370
     0
100
AcDbMText
 10
1.73828125
 20
0.8056673374
 30
0.0
 40
0.625
 41
0.0
 71
     2
 72
     1
  1
A/D CAP
  7
SLDTEXTSTYLE0
 73
     1
 44
1.0
  0
ENDBLK
  5
73
330
71
100
AcDbEntity
  8
0
100
AcDbBlockEnd
  0
BLOCK
  5
78
330
77
100
AcDbEntity
  8
0
100
AcDbBlockBegin
  2
Block2
 70
     0
 10
0.0
 20
0.0
 30
0.0
  3
Block2
  1

  0
INSERT
  5
7E
330
77
100
AcDbEntity
  8
0
  6
Continuous
 62
     7
370
     0
100
AcDbBlockReference
  2
SW_NOTE_0_1
 10
0.0118243127
 20
0.8525423419
 30
0.0
  0
ENDBLK
  5
79
330
77
100
AcDbEntity
  8
0
100
AcDbBlockEnd
  0
BLOCK
  5
7B
330
7A
100
AcDbEntity
  8
0
100
AcDbBlockBegin
  2
SW_NOTE_0_1
 70
     0
 10
0.0
 20
0.0
 30
0.0
  3
SW_NOTE_0_1
  1

  0
MTEXT
  5
7D
330
7A
100
AcDbEntity
  8
0
  6
Continuous
 62
     0
370
     0
100
AcDbMText
 10
1.611328125
 20
0.8056673374
 30
0.0
 40
0.625
 41
0.0
 71
     2
 72
     1
  1
B/E CAP
  7
SLDTEXTSTYLE0
 73
     1
 44
1.0
  0
ENDBLK
  5
7C
330
7A
100
AcDbEntity
  8
0
100
AcDbBlockEnd
  0
BLOCK
  5
80
330
7F
100
AcDbEntity
  8
0
100
AcDbBlockBegin
  2
Block3
 70
     0
 10
0.0
 20
0.0
 30
0.0
  3
Block3
  1

  0
INSERT
  5
87
330
7F
100
AcDbEntity
  8
0
  6
Continuous
 62
     7
370
     0
100
AcDbBlockReference
  2
SW_NOTE_0_2
 10
0.0339401496
 20
-0.0278239893
 30
0.0
  0
ENDBLK
  5
81
330
7F
100
AcDbEntity
  8
0
100
AcDbBlockEnd
  0
BLOCK
  5
83
330
82
100
AcDbEntity
  8
0
100
AcDbBlockBegin
  2
SW_NOTE_0_2
 70
     0
 10
0.0
 20
0.0
 30
0.0
  3
SW_NOTE_0_2
  1

  0
MTEXT
  5
86
330
82
100
AcDbEntity
  8
0
  6
Continuous
 62
     0
370
     0
100
AcDbMText
 10
1.30859375
 20
0.8056673374
 30
0.0
 40
0.625
 41
0.0
 71
     2
 72
     1
  1
C CAP
  7
SLDTEXTSTYLE1
 73
     1
 44
1.0
  0
ENDBLK
  5
84
330
82
100
AcDbEntity
  8
0
100
AcDbBlockEnd
  0
BLOCK
  5
89
330
88
100
AcDbEntity
  8
0
100
AcDbBlockBegin
  2
SW_BROKEN_VIEW_0
 70
     0
 10
0.0
 20
0.0
 30
0.0
  3
SW_BROKEN_VIEW_0
  1

  0
ENDBLK
  5
8A
330
88
100
AcDbEntity
  8
0
100
AcDbBlockEnd
  0
BLOCK
  5
154
330
153
100
AcDbEntity
  8
0
100
AcDbBlockBegin
  2
_D
 70
     0
 10
0.0
 20
0.0
 30
0.0
  3
_D
  1

  0
SOLID
  5
156
330
153
100
AcDbEntity
  8
0
  6
Continuous
 62
     7
370
    18
100
AcDbTrace
 10
14.3744513053
 20
16.8196341477
 30
0.0
 11
14.6077965431
 21
16.5014360962
 31
0.0
 12
14.6926493568
 22
16.5862889099
 32
0.0
 13
14.6926493568
 23
16.5862889099
 33
0.0
  0
SOLID
  5
157
330
153
100
AcDbEntity
  8
0
  6
Continuous
 62
     7
370
    18
100
AcDbTrace
 10
17.6860607887
 20
13.5080246643
 30
0.0
 11
17.4527155509
 21
13.8262227158
 31
0.0
 12
17.3678627372
 22
13.7413699021
 32
0.0
 13
17.3678627372
 23
13.7413699021
 33
0.0
  0
LINE
  5
158
330
153
100
AcDbEntity
  8
0
  6
Continuous
 62
     7
370
     0
100
AcDbLine
 10
15.1458811134
 20
15.1609647641
 30
0.0
 11
15.0316233021
 21
15.1609647641
 31
0.0
  0
LINE
  5
159
330
153
100
AcDbEntity
  8
0
  6
Continuous
 62
     7
370
     0
100
AcDbLine
 10
15.0316233021
 20
15.1609647641
 30
0.0
 11
15.0316233021
 21
14.5656522462
 31
0.0
  0
LINE
  5
15A
330
153
100
AcDbEntity
  8
0
  6
Continuous
 62
     7
370
     0
100
AcDbLine
 10
15.0316233021
 20
14.5656522462
 30
0.0
 11
15.1458811134
 21
14.5656522462
 31
0.0
  0
LINE
  5
15B
330
153
100
AcDbEntity
  8
0
  6
Continuous
 62
     7
370
     0
100
AcDbLine
 10
16.9146310906
 20
15.1609647641
 30
0.0
 11
17.028888902
 21
15.1609647641
 31
0.0
  0
LINE
  5
15C
330
153
100
AcDbEntity
  8
0
  6
Continuous
 62
     7
370
     0
100
AcDbLine
 10
17.028888902
 20
15.1609647641
 30
0.0
 11
17.028888902
 21
14.5656522462
 31
0.0
  0
LINE
  5
15D
330
153
100
AcDbEntity
  8
0
  6
Continuous
 62
     7
370
     0
100
AcDbLine
 10
17.028888902
 20
14.5656522462
 30
0.0
 11
16.9146310906
 21
14.5656522462
 31
0.0
  0
LINE
  5
15E
330
153
100
AcDbEntity
  8
0
  6
Continuous
 62
     7
370
     0
100
AcDbLine
 10
11.2986322759
 20
13.7438151183
 30
0.0
 11
14.6396163483
 21
17.0847991907
 31
0.0
  0
LINE
  5
15F
330
153
100
AcDbEntity
  8
0
  6
Continuous
 62
     7
370
     0
100
AcDbLine
 10
14.957759616
 20
10.7797234916
 30
0.0
 11
17.9512258317
 21
13.7731897072
 31
0.0
  0
LINE
  5
160
330
153
100
AcDbEntity
  8
0
  6
Continuous
 62
     7
370
     0
100
AcDbLine
 10
14.3744513053
 20
16.8196341477
 30
0.0
 11
15.3559071322
 21
15.8381783209
 31
0.0
  0
LINE
  5
161
330
153
100
AcDbEntity
  8
0
  6
Continuous
 62
     7
370
     0
100
AcDbLine
 10
17.6860607887
 20
13.5080246643
 30
0.0
 11
16.7046049619
 21
14.4894804911
 31
0.0
  0
MTEXT
  5
162
330
153
100
AcDbEntity
  8
0
  6
Continuous
 62
     7
370
    18
100
AcDbMText
 10
14.9194488237
 20
15.7262662466
 30
0.0
 40
0.375
 41
0.0
 71
     1
 72
     1
  1

  7
SLDTEXTSTYLE0
 73
     1
 44
1.0
  0
MTEXT
  5
163
330
153
100
AcDbEntity
  8
0
  6
Continuous
 62
     7
370
    18
100
AcDbMText
 10
15.081558174
 20
15.7205370522
 30
0.0
 40
0.375
 41
0.0
 71
     1
 72
     1
  1
4 11/16"
  7
SLDTEXTSTYLE0
 73
     1
 44
1.0
  0
MTEXT
  5
164
330
153
100
AcDbEntity
  8
0
  6
Continuous
 62
     7
370
    18
100
AcDbMText
 10
15.1458811134
 20
15.0490526899
 30
0.0
 40
0.375
 41
0.0
 71
     1
 72
     1
  1
119mm
  7
SLDTEXTSTYLE0
 73
     1
 44
1.0
  0
MTEXT
  5
165
330
153
100
AcDbEntity
  8
0
  6
Continuous
 62
     7
370
    18
100
AcDbMText
 10
17.2837716308
 20
15.7262662466
 30
0.0
 40
0.375
 41
0.0
 71
     1
 72
     1
  1

  7
SLDTEXTSTYLE0
 73
     1
 44
1.0
  0
ENDBLK
  5
155
330
153
100
AcDbEntity
  8
0
100
AcDbBlockEnd
  0
BLOCK
  5
169
330
168
100
AcDbEntity
  8
0
100
AcDbBlockBegin
  2
_D_1
 70
     0
 10
0.0
 20
0.0
 30
0.0
  3
_D_1
  1

  0
SOLID
  5
16B
330
168
100
AcDbEntity
  8
0
  6
Continuous
 62
     7
370
    18
100
AcDbTrace
 10
4.1458809975
 20
22.5320508653
 30
0.0
 11
4.0858809975
 21
22.1420508653
 31
0.0
 12
4.2058809975
 22
22.1420508653
 32
0.0
 13
4.2058809975
 23
22.1420508653
 33
0.0
  0
SOLID
  5
16C
330
168
100
AcDbEntity
  8
0
  6
Continuous
 62
     7
370
    18
100
AcDbTrace
 10
4.1458809975
 20
22.9070508653
 30
0.0
 11
4.2058809975
 21
23.2970508653
 31
0.0
 12
4.0858809975
 22
23.2970508653
 32
0.0
 13
4.0858809975
 23
23.2970508653
 33
0.0
  0
LINE
  5
16D
330
168
100
AcDbEntity
  8
0
  6
Continuous
 62
     7
370
     0
100
AcDbLine
 10
5.4912648659
 20
23.9576542999
 30
0.0
 11
5.3770070546
 21
23.9576542999
 31
0.0
  0
LINE
  5
16E
330
168
100
AcDbEntity
  8
0
  6
Continuous
 62
     7
370
     0
100
AcDbLine
 10
5.3770070546
 20
23.9576542999
 30
0.0
 11
5.3770070546
 21
23.362341782
 31
0.0
  0
LINE
  5
16F
330
168
100
AcDbEntity
  8
0
  6
Continuous
 62
     7
370
     0
100
AcDbLine
 10
5.3770070546
 20
23.362341782
 30
0.0
 11
5.4912648659
 21
23.362341782
 31
0.0
  0
LINE
  5
170
330
168
100
AcDbEntity
  8
0
  6
Continuous
 62
     7
370
     0
100
AcDbLine
 10
6.982931564
 20
23.9576542999
 30
0.0
 11
7.0971893754
 21
23.9576542999
 31
0.0
  0
LINE
  5
171
330
168
100
AcDbEntity
  8
0
  6
Continuous
 62
     7
370
     0
100
AcDbLine
 10
7.0971893754
 20
23.9576542999
 30
0.0
 11
7.0971893754
 21
23.362341782
 31
0.0
  0
LINE
  5
172
330
168
100
AcDbEntity
  8
0
  6
Continuous
 62
     7
370
     0
100
AcDbLine
 10
7.0971893754
 20
23.362341782
 30
0.0
 11
6.982931564
 21
23.362341782
 31
0.0
  0
LINE
  5
173
330
168
100
AcDbEntity
  8
0
  6
Continuous
 62
     7
370
     0
100
AcDbLine
 10
7.2954662587
 20
22.5320508653
 30
0.0
 11
3.7708809975
 21
22.5320508653
 31
0.0
  0
LINE
  5
174
330
168
100
AcDbEntity
  8
0
  6
Continuous
 62
     7
370
     0
100
AcDbLine
 10
7.2454662587
 20
22.9070508653
 30
0.0
 11
3.7708809975
 21
22.9070508653
 31
0.0
  0
LINE
  5
175
330
168
100
AcDbEntity
  8
0
  6
Continuous
 62
     7
370
     0
100
AcDbLine
 10
4.8958809975
 20
23.9605189418
 30
0.0
 11
4.1458809975
 21
23.9605189418
 31
0.0
  0
LINE
  5
176
330
168
100
AcDbEntity
  8
0
  6
Continuous
 62
     7
370
     0
100
AcDbLine
 10
4.1458809975
 20
23.9605189418
 30
0.0
 11
4.1458809975
 21
22.9070508653
 31
0.0
  0
LINE
  5
177
330
168
100
AcDbEntity
  8
0
  6
Continuous
 62
     7
370
     0
100
AcDbLine
 10
4.1458809975
 20
22.5320508653
 30
0.0
 11
4.1458809975
 21
21.7820508653
 31
0.0
  0
MTEXT
  5
178
330
168
100
AcDbEntity
  8
0
  6
Continuous
 62
     7
370
    18
100
AcDbMText
 10
5.2648325762
 20
24.5229557824
 30
0.0
 40
0.375
 41
0.0
 71
     1
 72
     1
  1

  7
SLDTEXTSTYLE0
 73
     1
 44
1.0
  0
MTEXT
  5
179
330
168
100
AcDbEntity
  8
0
  6
Continuous
 62
     7
370
    18
100
AcDbMText
 10
5.7732960803
 20
24.5172265879
 30
0.0
 40
0.375
 41
0.0
 71
     1
 72
     1
  1
3/8"
  7
SLDTEXTSTYLE0
 73
     1
 44
1.0
  0
MTEXT
  5
17A
330
168
100
AcDbEntity
  8
0
  6
Continuous
 62
     7
370
    18
100
AcDbMText
 10
5.4912648659
 20
23.8457422256
 30
0.0
 40
0.375
 41
0.0
 71
     1
 72
     1
  1
10mm
  7
SLDTEXTSTYLE0
 73
     1
 44
1.0
  0
MTEXT
  5
17B
330
168
100
AcDbEntity
  8
0
  6
Continuous
 62
     7
370
    18
100
AcDbMText
 10
7.3520721042
 20
24.5229557824
 30
0.0
 40
0.375
 41
0.0
 71
     1
 72
     1
  1

  7
SLDTEXTSTYLE0
 73
     1
 44
1.0
  0
ENDBLK
  5
16A
330
168
100
AcDbEntity
  8
0
100
AcDbBlockEnd
  0
BLOCK
  5
17F
330
17E
100
AcDbEntity
  8
0
100
AcDbBlockBegin
  2
_D_2
 70
     0
 10
0.0
 20
0.0
 30
0.0
  3
_D_2
  1

  0
SOLID
  5
181
330
17E
100
AcDbEntity
  8
0
  6
Continuous
 62
     7
370
    18
100
AcDbTrace
 10
4.1458809975
 20
22.5320508653
 30
0.0
 11
4.0858809975
 21
22.1420508653
 31
0.0
 12
4.2058809975
 22
22.1420508653
 32
0.0
 13
4.2058809975
 23
22.1420508653
 33
0.0
  0
SOLID
  5
182
330
17E
100
AcDbEntity
  8
0
  6
Continuous
 62
     7
370
    18
100
AcDbTrace
 10
4.1458809975
 20
16.2678491011
 30
0.0
 11
4.2058809975
 21
16.6578491011
 31
0.0
 12
4.0858809975
 22
16.6578491011
 32
0.0
 13
4.0858809975
 23
16.6578491011
 33
0.0
  0
LINE
  5
183
330
17E
100
AcDbEntity
  8
0
  6
Continuous
 62
     7
370
     0
100
AcDbLine
 10
7.2954662587
 20
22.5320508653
 30
0.0
 11
3.7708809975
 21
22.5320508653
 31
0.0
  0
LINE
  5
184
330
17E
100
AcDbEntity
  8
0
  6
Continuous
 62
     7
370
     0
100
AcDbLine
 10
8.4954662587
 20
16.2678491011
 30
0.0
 11
3.7708809975
 21
16.2678491011
 31
0.0
  0
LINE
  5
185
330
17E
100
AcDbEntity
  8
0
  6
Continuous
 62
     7
370
     0
100
AcDbLine
 10
4.1458809975
 20
22.5320508653
 30
0.0
 11
4.1458809975
 21
20.2929187876
 31
0.0
  0
LINE
  5
186
330
17E
100
AcDbEntity
  8
0
  6
Continuous
 62
     7
370
     0
100
AcDbLine
 10
4.1458809975
 20
16.2678491011
 30
0.0
 11
4.1458809975
 21
17.6463995422
 31
0.0
  0
LINE
  5
187
330
17E
100
AcDbEntity
  8
0
  6
Continuous
 62
     7
370
     0
100
AcDbLine
 10
4.1458809975
 20
17.6463995422
 30
0.0
 11
3.9583809975
 21
17.7401495422
 31
0.0
  0
LINE
  5
188
330
17E
100
AcDbEntity
  8
0
  6
Continuous
 62
     7
370
     0
100
AcDbLine
 10
3.9583809975
 20
17.7401495422
 30
0.0
 11
4.3333809975
 21
17.9276495422
 31
0.0
  0
LINE
  5
189
330
17E
100
AcDbEntity
  8
0
  6
Continuous
 62
     7
370
     0
100
AcDbLine
 10
4.3333809975
 20
17.9276495422
 30
0.0
 11
4.1458809975
 21
18.0213995422
 31
0.0
  0
LINE
  5
18A
330
17E
100
AcDbEntity
  8
0
  6
Continuous
 62
     7
370
     0
100
AcDbLine
 10
4.1458809975
 20
18.0213995422
 30
0.0
 11
4.1458809975
 21
18.5069811789
 31
0.0
  0
MTEXT
  5
18B
330
17E
100
AcDbEntity
  8
0
  6
Continuous
 62
     7
370
    18
100
AcDbMText
 10
0.6026520892
 20
20.1810067134
 30
0.0
 40
0.375
 41
0.0
 71
     1
 72
     1
  1
SPECIFY PROJECTION LENGTH
  7
SLDTEXTSTYLE0
 73
     1
 44
1.0
  0
MTEXT
  5
18C
330
17E
100
AcDbEntity
  8
0
  6
Continuous
 62
     7
370
    18
100
AcDbMText
 10
3.3539539459
 20
19.5856941955
 30
0.0
 40
0.375
 41
0.0
 71
     1
 72
     1
  1
18"-24"
  7
SLDTEXTSTYLE0
 73
     1
 44
1.0
  0
MTEXT
  5
18D
330
17E
100
AcDbEntity
  8
0
  6
Continuous
 62
     7
370
    18
100
AcDbMText
 10
1.8414540384
 20
18.9903816776
 30
0.0
 40
0.375
 41
0.0
 71
     1
 72
     1
  1
[457mm - 1219mm]
  7
SLDTEXTSTYLE0
 73
     1
 44
1.0
  0
ENDBLK
  5
180
330
17E
100
AcDbEntity
  8
0
100
AcDbBlockEnd
  0
BLOCK
  5
190
330
18F
100
AcDbEntity
  8
0
100
AcDbBlockBegin
  2
_D_3
 70
     0
 10
0.0
 20
0.0
 30
0.0
  3
_D_3
  1

  0
SOLID
  5
192
330
18F
100
AcDbEntity
  8
0
  6
Continuous
 62
     7
370
    18
100
AcDbTrace
 10
4.1458809975
 20
16.2678491011
 30
0.0
 11
4.2058809975
 21
16.6578491011
 31
0.0
 12
4.0858809975
 22
16.6578491011
 32
0.0
 13
4.0858809975
 23
16.6578491011
 33
0.0
  0
SOLID
  5
193
330
18F
100
AcDbEntity
  8
0
  6
Continuous
 62
     7
370
    18
100
AcDbTrace
 10
4.1458809975
 20
13.6378491011
 30
0.0
 11
4.0858809975
 21
13.2478491011
 31
0.0
 12
4.2058809975
 22
13.2478491011
 32
0.0
 13
4.2058809975
 23
13.2478491011
 33
0.0
  0
LINE
  5
194
330
18F
100
AcDbEntity
  8
0
  6
Continuous
 62
     7
370
     0
100
AcDbLine
 10
3.4000477034
 20
14.9499844592
 30
0.0
 11
3.2857898921
 21
14.9499844592
 31
0.0
  0
LINE
  5
195
330
18F
100
AcDbEntity
  8
0
  6
Continuous
 62
     7
370
     0
100
AcDbLine
 10
3.2857898921
 20
14.9499844592
 30
0.0
 11
3.2857898921
 21
14.3546719413
 31
0.0
  0
LINE
  5
196
330
18F
100
AcDbEntity
  8
0
  6
Continuous
 62
     7
370
     0
100
AcDbLine
 10
3.2857898921
 20
14.3546719413
 30
0.0
 11
3.4000477034
 21
14.3546719413
 31
0.0
  0
LINE
  5
197
330
18F
100
AcDbEntity
  8
0
  6
Continuous
 62
     7
370
     0
100
AcDbLine
 10
4.8917144016
 20
14.9499844592
 30
0.0
 11
5.0059722129
 21
14.9499844592
 31
0.0
  0
LINE
  5
198
330
18F
100
AcDbEntity
  8
0
  6
Continuous
 62
     7
370
     0
100
AcDbLine
 10
5.0059722129
 20
14.9499844592
 30
0.0
 11
5.0059722129
 21
14.3546719413
 31
0.0
  0
LINE
  5
199
330
18F
100
AcDbEntity
  8
0
  6
Continuous
 62
     7
370
     0
100
AcDbLine
 10
5.0059722129
 20
14.3546719413
 30
0.0
 11
4.8917144016
 21
14.3546719413
 31
0.0
  0
LINE
  5
19A
330
18F
100
AcDbEntity
  8
0
  6
Continuous
 62
     7
370
     0
100
AcDbLine
 10
8.4954662587
 20
16.2678491011
 30
0.0
 11
3.7708809975
 21
16.2678491011
 31
0.0
  0
LINE
  5
19B
330
18F
100
AcDbEntity
  8
0
  6
Continuous
 62
     7
370
     0
100
AcDbLine
 10
6.9534662587
 20
13.6378491011
 30
0.0
 11
3.7708809975
 21
13.6378491011
 31
0.0
  0
LINE
  5
19C
330
18F
100
AcDbEntity
  8
0
  6
Continuous
 62
     7
370
     0
100
AcDbLine
 10
4.1458809975
 20
16.2678491011
 30
0.0
 11
4.1458809975
 21
17.0178491011
 31
0.0
  0
LINE
  5
19D
330
18F
100
AcDbEntity
  8
0
  6
Continuous
 62
     7
370
     0
100
AcDbLine
 10
4.1458809975
 20
13.6378491011
 30
0.0
 11
4.1458809975
 21
12.8878491011
 31
0.0
  0
MTEXT
  5
19E
330
18F
100
AcDbEntity
  8
0
  6
Continuous
 62
     7
370
    18
100
AcDbMText
 10
3.1736154137
 20
15.5152859418
 30
0.0
 40
0.375
 41
0.0
 71
     1
 72
     1
  1

  7
SLDTEXTSTYLE0
 73
     1
 44
1.0
  0
MTEXT
  5
19F
330
18F
100
AcDbEntity
  8
0
  6
Continuous
 62
     7
370
    18
100
AcDbMText
 10
3.4742664586
 20
15.5095567473
 30
0.0
 40
0.375
 41
0.0
 71
     1
 72
     1
  1
2 5/8"
  7
SLDTEXTSTYLE0
 73
     1
 44
1.0
  0
MTEXT
  5
1A0
330
18F
100
AcDbEntity
  8
0
  6
Continuous
 62
     7
370
    18
100
AcDbMText
 10
3.4000477034
 20
14.838072385
 30
0.0
 40
0.375
 41
0.0
 71
     1
 72
     1
  1
67mm
  7
SLDTEXTSTYLE0
 73
     1
 44
1.0
  0
MTEXT
  5
1A1
330
18F
100
AcDbEntity
  8
0
  6
Continuous
 62
     7
370
    18
100
AcDbMText
 10
5.2608549417
 20
15.5152859418
 30
0.0
 40
0.375
 41
0.0
 71
     1
 72
     1
  1

  7
SLDTEXTSTYLE0
 73
     1
 44
1.0
  0
ENDBLK
  5
191
330
18F
100
AcDbEntity
  8
0
100
AcDbBlockEnd
  0
BLOCK
  5
1A4
330
1A3
100
AcDbEntity
  8
0
100
AcDbBlockBegin
  2
_D_4
 70
     0
 10
0.0
 20
0.0
 30
0.0
  3
_D_4
  1

  0
SOLID
  5
1A6
330
1A3
100
AcDbEntity
  8
0
  6
Continuous
 62
     7
370
    18
100
AcDbTrace
 10
7.1035259295
 20
11.1978534163
 30
0.0
 11
7.4935273967
 21
11.1378629539
 31
0.0
 12
7.493524462
 22
11.2578629538
 32
0.0
 13
7.493524462
 23
11.2578629538
 33
0.0
  0
SOLID
  5
1A7
330
1A3
100
AcDbEntity
  8
0
  6
Continuous
 62
     7
370
    18
100
AcDbTrace
 10
11.1926259295
 20
11.1979534163
 30
0.0
 11
10.8026244623
 21
11.2579438787
 31
0.0
 12
10.8026273969
 22
11.1379438788
 32
0.0
 13
10.8026273969
 23
11.1379438788
 33
0.0
  0
LINE
  5
1A8
330
1A3
100
AcDbEntity
  8
0
  6
Continuous
 62
     7
370
     0
100
AcDbLine
 10
8.2637009958
 20
11.1950387744
 30
0.0
 11
8.1494431845
 21
11.1950387744
 31
0.0
  0
LINE
  5
1A9
330
1A3
100
AcDbEntity
  8
0
  6
Continuous
 62
     7
370
     0
100
AcDbLine
 10
8.1494431845
 20
11.1950387744
 30
0.0
 11
8.1494431845
 21
10.5997262565
 31
0.0
  0
LINE
  5
1AA
330
1A3
100
AcDbEntity
  8
0
  6
Continuous
 62
     7
370
     0
100
AcDbLine
 10
8.1494431845
 20
10.5997262565
 30
0.0
 11
8.2637009958
 21
10.5997262565
 31
0.0
  0
LINE
  5
1AB
330
1A3
100
AcDbEntity
  8
0
  6
Continuous
 62
     7
370
     0
100
AcDbLine
 10
10.0324509731
 20
11.1950387744
 30
0.0
 11
10.1467087844
 21
11.1950387744
 31
0.0
  0
LINE
  5
1AC
330
1A3
100
AcDbEntity
  8
0
  6
Continuous
 62
     7
370
     0
100
AcDbLine
 10
10.1467087844
 20
11.1950387744
 30
0.0
 11
10.1467087844
 21
10.5997262565
 31
0.0
  0
LINE
  5
1AD
330
1A3
100
AcDbEntity
  8
0
  6
Continuous
 62
     7
370
     0
100
AcDbLine
 10
10.1467087844
 20
10.5997262565
 30
0.0
 11
10.0324509731
 21
10.5997262565
 31
0.0
  0
LINE
  5
1AE
330
1A3
100
AcDbEntity
  8
0
  6
Continuous
 62
     7
370
     0
100
AcDbLine
 10
7.103469927
 20
13.4878491012
 30
0.0
 11
7.1035351002
 21
10.8228534164
 31
0.0
  0
LINE
  5
1AF
330
1A3
100
AcDbEntity
  8
0
  6
Continuous
 62
     7
370
     0
100
AcDbLine
 10
11.192569927
 20
13.4879491012
 30
0.0
 11
11.1926351002
 21
10.8229534164
 31
0.0
  0
LINE
  5
1B0
330
1A3
100
AcDbEntity
  8
0
  6
Continuous
 62
     7
370
     0
100
AcDbLine
 10
7.1035259295
 20
11.1978534163
 30
0.0
 11
7.8205348466
 21
11.1978709509
 31
0.0
  0
LINE
  5
1B1
330
1A3
100
AcDbEntity
  8
0
  6
Continuous
 62
     7
370
     0
100
AcDbLine
 10
11.1926259295
 20
11.1979534163
 30
0.0
 11
10.4756170124
 21
11.1979358817
 31
0.0
  0
MTEXT
  5
1B2
330
1A3
100
AcDbEntity
  8
0
  6
Continuous
 62
     7
370
    18
100
AcDbMText
 10
8.0372687061
 20
11.7603402569
 30
0.0
 40
0.375
 41
0.0
 71
     1
 72
     1
  1

  7
SLDTEXTSTYLE0
 73
     1
 44
1.0
  0
MTEXT
  5
1B3
330
1A3
100
AcDbEntity
  8
0
  6
Continuous
 62
     7
370
    18
100
AcDbMText
 10
8.3379196959
 20
11.7546110625
 30
0.0
 40
0.375
 41
0.0
 71
     1
 72
     1
  1
4 1/16"
  7
SLDTEXTSTYLE0
 73
     1
 44
1.0
  0
MTEXT
  5
1B4
330
1A3
100
AcDbEntity
  8
0
  6
Continuous
 62
     7
370
    18
100
AcDbMText
 10
8.2637009958
 20
11.0831267002
 30
0.0
 40
0.375
 41
0.0
 71
     1
 72
     1
  1
104mm
  7
SLDTEXTSTYLE0
 73
     1
 44
1.0
  0
MTEXT
  5
1B5
330
1A3
100
AcDbEntity
  8
0
  6
Continuous
 62
     7
370
    18
100
AcDbMText
 10
10.4015915132
 20
11.7603402569
 30
0.0
 40
0.375
 41
0.0
 71
     1
 72
     1
  1

  7
SLDTEXTSTYLE0
 73
     1
 44
1.0
  0
ENDBLK
  5
1A5
330
1A3
100
AcDbEntity
  8
0
100
AcDbBlockEnd
  0
BLOCK
  5
1B8
330
1B7
100
AcDbEntity
  8
0
100
AcDbBlockBegin
  2
_D_5
 70
     0
 10
0.0
 20
0.0
 30
0.0
  3
_D_5
  1

  0
SOLID
  5
1BA
330
1B7
100
AcDbEntity
  8
0
  6
Continuous
 62
     7
370
    18
100
AcDbTrace
 10
12.3389631664
 20
13.8983914645
 30
0.0
 11
12.5723084042
 21
13.5801934129
 31
0.0
 12
12.6571612179
 22
13.6650462267
 32
0.0
 13
12.6571612179
 23
13.6650462267
 33
0.0
  0
SOLID
  5
1BB
330
1B7
100
AcDbEntity
  8
0
  6
Continuous
 62
     7
370
    18
100
AcDbTrace
 10
11.8959858942
 20
14.3413687366
 30
0.0
 11
11.6626406564
 21
14.6595667882
 31
0.0
 12
11.5777878427
 22
14.5747139744
 32
0.0
 13
11.5777878427
 23
14.5747139744
 33
0.0
  0
LINE
  5
1BC
330
1B7
100
AcDbEntity
  8
0
  6
Continuous
 62
     7
370
     0
100
AcDbLine
 10
13.8098246969
 20
13.5417225817
 30
0.0
 11
13.6955668856
 21
13.5417225817
 31
0.0
  0
LINE
  5
1BD
330
1B7
100
AcDbEntity
  8
0
  6
Continuous
 62
     7
370
     0
100
AcDbLine
 10
13.6955668856
 20
13.5417225817
 30
0.0
 11
13.6955668856
 21
12.9464100638
 31
0.0
  0
LINE
  5
1BE
330
1B7
100
AcDbEntity
  8
0
  6
Continuous
 62
     7
370
     0
100
AcDbLine
 10
13.6955668856
 20
12.9464100638
 30
0.0
 11
13.8098246969
 21
12.9464100638
 31
0.0
  0
LINE
  5
1BF
330
1B7
100
AcDbEntity
  8
0
  6
Continuous
 62
     7
370
     0
100
AcDbLine
 10
15.3014913951
 20
13.5417225817
 30
0.0
 11
15.4157492064
 21
13.5417225817
 31
0.0
  0
LINE
  5
1C0
330
1B7
100
AcDbEntity
  8
0
  6
Continuous
 62
     7
370
     0
100
AcDbLine
 10
15.4157492064
 20
13.5417225817
 30
0.0
 11
15.4157492064
 21
12.9464100638
 31
0.0
  0
LINE
  5
1C1
330
1B7
100
AcDbEntity
  8
0
  6
Continuous
 62
     7
370
     0
100
AcDbLine
 10
15.4157492064
 20
12.9464100638
 30
0.0
 11
15.3014913951
 21
12.9464100638
 31
0.0
  0
LINE
  5
1C2
330
1B7
100
AcDbEntity
  8
0
  6
Continuous
 62
     7
370
     0
100
AcDbLine
 10
12.0890274047
 20
13.6484557028
 30
0.0
 11
12.6041282093
 21
14.1635565074
 31
0.0
  0
LINE
  5
1C3
330
1B7
100
AcDbEntity
  8
0
  6
Continuous
 62
     7
370
     0
100
AcDbLine
 10
11.2986322759
 20
13.7440151183
 30
0.0
 11
12.1611509372
 21
14.6065337796
 31
0.0
  0
LINE
  5
1C4
330
1B7
100
AcDbEntity
  8
0
  6
Continuous
 62
     7
370
     0
100
AcDbLine
 10
12.3389631664
 20
13.8983914645
 30
0.0
 11
12.6927674072
 21
13.5445872236
 31
0.0
  0
LINE
  5
1C5
330
1B7
100
AcDbEntity
  8
0
  6
Continuous
 62
     7
370
     0
100
AcDbLine
 10
11.8959858942
 20
14.3413687366
 30
0.0
 11
11.3656558083
 21
14.8716988225
 31
0.0
  0
LINE
  5
1C6
330
1B7
100
AcDbEntity
  8
0
  6
Continuous
 62
     7
370
     0
100
AcDbLine
 10
12.6927674072
 20
13.5445872236
 30
0.0
 11
13.4427674072
 21
13.5445872236
 31
0.0
  0
MTEXT
  5
1C7
330
1B7
100
AcDbEntity
  8
0
  6
Continuous
 62
     7
370
    18
100
AcDbMText
 10
13.5833924072
 20
14.1070240643
 30
0.0
 40
0.375
 41
0.0
 71
     1
 72
     1
  1

  7
SLDTEXTSTYLE0
 73
     1
 44
1.0
  0
MTEXT
  5
1C8
330
1B7
100
AcDbEntity
  8
0
  6
Continuous
 62
     7
370
    18
100
AcDbMText
 10
14.0918559114
 20
14.1012948698
 30
0.0
 40
0.375
 41
0.0
 71
     1
 72
     1
  1
5/8"
  7
SLDTEXTSTYLE0
 73
     1
 44
1.0
  0
MTEXT
  5
1C9
330
1B7
100
AcDbEntity
  8
0
  6
Continuous
 62
     7
370
    18
100
AcDbMText
 10
13.8098246969
 20
13.4298105075
 30
0.0
 40
0.375
 41
0.0
 71
     1
 72
     1
  1
16mm
  7
SLDTEXTSTYLE0
 73
     1
 44
1.0
  0
MTEXT
  5
1CA
330
1B7
100
AcDbEntity
  8
0
  6
Continuous
 62
     7
370
    18
100
AcDbMText
 10
15.6706319352
 20
14.1070240643
 30
0.0
 40
0.375
 41
0.0
 71
     1
 72
     1
  1

  7
SLDTEXTSTYLE0
 73
     1
 44
1.0
  0
ENDBLK
  5
1B9
330
1B7
100
AcDbEntity
  8
0
100
AcDbBlockEnd
  0
BLOCK
  5
1CD
330
1CC
100
AcDbEntity
  8
0
100
AcDbBlockBegin
  2
_D_6
 70
     0
 10
0.0
 20
0.0
 30
0.0
  3
_D_6
  1

  0
SOLID
  5
1CF
330
1CC
100
AcDbEntity
  8
0
  6
Continuous
 62
     7
370
    18
100
AcDbTrace
 10
15.2298810531
 20
10.2954700202
 30
0.0
 11
14.9116830015
 21
10.0621247824
 31
0.0
 12
14.9965358153
 22
9.9772719686
 32
0.0
 13
14.9965358153
 23
9.9772719686
 33
0.0
  0
SOLID
  5
1D0
330
1CC
100
AcDbEntity
  8
0
  6
Continuous
 62
     7
370
    18
100
AcDbTrace
 10
14.5298453397
 20
9.5954343068
 30
0.0
 11
14.8480433912
 21
9.8287795446
 31
0.0
 12
14.7631905775
 22
9.9136323583
 32
0.0
 13
14.7631905775
 23
9.9136323583
 33
0.0
  0
LINE
  5
1D1
330
1CC
100
AcDbEntity
  8
0
  6
Continuous
 62
     7
370
     0
100
AcDbLine
 10
16.8788757114
 20
10.9659490008
 30
0.0
 11
16.7646179
 21
10.9659490008
 31
0.0
  0
LINE
  5
1D2
330
1CC
100
AcDbEntity
  8
0
  6
Continuous
 62
     7
370
     0
100
AcDbLine
 10
16.7646179
 20
10.9659490008
 30
0.0
 11
16.7646179
 21
10.3706364829
 31
0.0
  0
LINE
  5
1D3
330
1CC
100
AcDbEntity
  8
0
  6
Continuous
 62
     7
370
     0
100
AcDbLine
 10
16.7646179
 20
10.3706364829
 30
0.0
 11
16.8788757114
 21
10.3706364829
 31
0.0
  0
LINE
  5
1D4
330
1CC
100
AcDbEntity
  8
0
  6
Continuous
 62
     7
370
     0
100
AcDbLine
 10
18.3705424095
 20
10.9659490008
 30
0.0
 11
18.4848002208
 21
10.9659490008
 31
0.0
  0
LINE
  5
1D5
330
1CC
100
AcDbEntity
  8
0
  6
Continuous
 62
     7
370
     0
100
AcDbLine
 10
18.4848002208
 20
10.9659490008
 30
0.0
 11
18.4848002208
 21
10.3706364829
 31
0.0
  0
LINE
  5
1D6
330
1CC
100
AcDbEntity
  8
0
  6
Continuous
 62
     7
370
     0
100
AcDbLine
 10
18.4848002208
 20
10.3706364829
 30
0.0
 11
18.3705424095
 21
10.3706364829
 31
0.0
  0
LINE
  5
1D7
330
1CC
100
AcDbEntity
  8
0
  6
Continuous
 62
     7
370
     0
100
AcDbLine
 10
14.957759616
 20
10.5675914572
 30
0.0
 11
15.495046096
 21
10.0303049772
 31
0.0
  0
LINE
  5
1D8
330
1CC
100
AcDbEntity
  8
0
  6
Continuous
 62
     7
370
     0
100
AcDbLine
 10
13.5576881893
 20
10.5675914572
 30
0.0
 11
14.7950103826
 21
9.3302692638
 31
0.0
  0
LINE
  5
1D9
330
1CC
100
AcDbEntity
  8
0
  6
Continuous
 62
     7
370
     0
100
AcDbLine
 10
15.2298810531
 20
10.2954700202
 30
0.0
 11
15.9003600887
 21
10.9659490558
 31
0.0
  0
LINE
  5
1DA
330
1CC
100
AcDbEntity
  8
0
  6
Continuous
 62
     7
370
     0
100
AcDbLine
 10
14.5298453397
 20
9.5954343068
 30
0.0
 11
15.2298810531
 21
10.2954700202
 31
0.0
  0
LINE
  5
1DB
330
1CC
100
AcDbEntity
  8
0
  6
Continuous
 62
     7
370
     0
100
AcDbLine
 10
15.9003600887
 20
10.9659490558
 30
0.0
 11
16.6503600887
 21
10.9659490558
 31
0.0
  0
MTEXT
  5
1DC
330
1CC
100
AcDbEntity
  8
0
  6
Continuous
 62
     7
370
    18
100
AcDbMText
 10
17.1260501985
 20
11.5255213164
 30
0.0
 40
0.375
 41
0.0
 71
     1
 72
     1
  1
%%c
  7
SLDTEXTSTYLE0
 73
     1
 44
1.0
  0
MTEXT
  5
1DD
330
1CC
100
AcDbEntity
  8
0
  6
Continuous
 62
     7
370
    18
100
AcDbMText
 10
17.6915970602
 20
11.5255213164
 30
0.0
 40
0.375
 41
0.0
 71
     1
 72
     1
  1
1"
  7
SLDTEXTSTYLE0
 73
     1
 44
1.0
  0
MTEXT
  5
1DE
330
1CC
100
AcDbEntity
  8
0
  6
Continuous
 62
     7
370
    18
100
AcDbMText
 10
16.8788757114
 20
10.8540369265
 30
0.0
 40
0.375
 41
0.0
 71
     1
 72
     1
  1
25mm
  7
SLDTEXTSTYLE0
 73
     1
 44
1.0
  0
ENDBLK
  5
1CE
330
1CC
100
AcDbEntity
  8
0
100
AcDbBlockEnd
  0
BLOCK
  5
29B
330
29A
100
AcDbEntity
  8
0
100
AcDbBlockBegin
  2
_D_7
 70
     0
 10
0.0
 20
0.0
 30
0.0
  3
_D_7
  1

  0
SOLID
  5
29D
330
29A
100
AcDbEntity
  8
0
  6
Continuous
 62
     7
370
    18
100
AcDbTrace
 10
1.8303140403
 20
2.9254499578
 30
0.0
 11
1.8903140403
 21
3.3154499578
 31
0.0
 12
1.7703140403
 22
3.3154499578
 32
0.0
 13
1.7703140403
 23
3.3154499578
 33
0.0
  0
SOLID
  5
29E
330
29A
100
AcDbEntity
  8
0
  6
Continuous
 62
     7
370
    18
100
AcDbTrace
 10
1.8303140403
 20
6.9824499578
 30
0.0
 11
1.7703140403
 21
6.5924499578
 31
0.0
 12
1.8903140403
 22
6.5924499578
 32
0.0
 13
1.8903140403
 23
6.5924499578
 33
0.0
  0
LINE
  5
29F
330
29A
100
AcDbEntity
  8
0
  6
Continuous
 62
     7
370
     0
100
AcDbLine
 10
0.9459391066
 20
4.9510853159
 30
0.0
 11
0.8316812953
 21
4.9510853159
 31
0.0
  0
LINE
  5
2A0
330
29A
100
AcDbEntity
  8
0
  6
Continuous
 62
     7
370
     0
100
AcDbLine
 10
0.8316812953
 20
4.9510853159
 30
0.0
 11
0.8316812953
 21
4.355772798
 31
0.0
  0
LINE
  5
2A1
330
29A
100
AcDbEntity
  8
0
  6
Continuous
 62
     7
370
     0
100
AcDbLine
 10
0.8316812953
 20
4.355772798
 30
0.0
 11
0.9459391066
 21
4.355772798
 31
0.0
  0
LINE
  5
2A2
330
29A
100
AcDbEntity
  8
0
  6
Continuous
 62
     7
370
     0
100
AcDbLine
 10
2.7146890839
 20
4.9510853159
 30
0.0
 11
2.8289468952
 21
4.9510853159
 31
0.0
  0
LINE
  5
2A3
330
29A
100
AcDbEntity
  8
0
  6
Continuous
 62
     7
370
     0
100
AcDbLine
 10
2.8289468952
 20
4.9510853159
 30
0.0
 11
2.8289468952
 21
4.355772798
 31
0.0
  0
LINE
  5
2A4
330
29A
100
AcDbEntity
  8
0
  6
Continuous
 62
     7
370
     0
100
AcDbLine
 10
2.8289468952
 20
4.355772798
 30
0.0
 11
2.7146890839
 21
4.355772798
 31
0.0
  0
LINE
  5
2A5
330
29A
100
AcDbEntity
  8
0
  6
Continuous
 62
     7
370
     0
100
AcDbLine
 10
3.5700778198
 20
2.9254499578
 30
0.0
 11
1.4553140403
 21
2.9254499578
 31
0.0
  0
LINE
  5
2A6
330
29A
100
AcDbEntity
  8
0
  6
Continuous
 62
     7
370
     0
100
AcDbLine
 10
3.5700778198
 20
6.9824499578
 30
0.0
 11
1.4553140403
 21
6.9824499578
 31
0.0
  0
LINE
  5
2A7
330
29A
100
AcDbEntity
  8
0
  6
Continuous
 62
     7
370
     0
100
AcDbLine
 10
1.8303140403
 20
2.9254499578
 30
0.0
 11
1.8303140403
 21
4.279601043
 31
0.0
  0
LINE
  5
2A8
330
29A
100
AcDbEntity
  8
0
  6
Continuous
 62
     7
370
     0
100
AcDbLine
 10
1.8303140403
 20
6.9824499578
 30
0.0
 11
1.8303140403
 21
5.6282988727
 31
0.0
  0
MTEXT
  5
2A9
330
29A
100
AcDbEntity
  8
0
  6
Continuous
 62
     7
370
    18
100
AcDbMText
 10
0.7195068169
 20
5.5163867985
 30
0.0
 40
0.375
 41
0.0
 71
     1
 72
     1
  1

  7
SLDTEXTSTYLE0
 73
     1
 44
1.0
  0
MTEXT
  5
2AA
330
29A
100
AcDbEntity
  8
0
  6
Continuous
 62
     7
370
    18
100
AcDbMText
 10
1.0201578068
 20
5.510657604
 30
0.0
 40
0.375
 41
0.0
 71
     1
 72
     1
  1
4 1/16"
  7
SLDTEXTSTYLE0
 73
     1
 44
1.0
  0
MTEXT
  5
2AB
330
29A
100
AcDbEntity
  8
0
  6
Continuous
 62
     7
370
    18
100
AcDbMText
 10
0.9459391066
 20
4.8391732417
 30
0.0
 40
0.375
 41
0.0
 71
     1
 72
     1
  1
103mm
  7
SLDTEXTSTYLE0
 73
     1
 44
1.0
  0
MTEXT
  5
2AC
330
29A
100
AcDbEntity
  8
0
  6
Continuous
 62
     7
370
    18
100
AcDbMText
 10
3.0838296241
 20
5.5163867985
 30
0.0
 40
0.375
 41
0.0
 71
     1
 72
     1
  1

  7
SLDTEXTSTYLE0
 73
     1
 44
1.0
  0
ENDBLK
  5
29C
330
29A
100
AcDbEntity
  8
0
100
AcDbBlockEnd
  0
BLOCK
  5
2B9
330
2B8
100
AcDbEntity
  8
0
100
AcDbBlockBegin
  2
_D_8
 70
     0
 10
0.0
 20
0.0
 30
0.0
  3
_D_8
  1

  0
SOLID
  5
2BB
330
2B8
100
AcDbEntity
  8
0
  6
Continuous
 62
     7
370
    18
100
AcDbTrace
 10
8.7434126839
 20
2.9254499578
 30
0.0
 11
8.8034126839
 21
3.3154499578
 31
0.0
 12
8.6834126839
 22
3.3154499578
 32
0.0
 13
8.6834126839
 23
3.3154499578
 33
0.0
  0
SOLID
  5
2BC
330
2B8
100
AcDbEntity
  8
0
  6
Continuous
 62
     7
370
    18
100
AcDbTrace
 10
8.7434126839
 20
6.1034499578
 30
0.0
 11
8.6834126839
 21
5.7134499578
 31
0.0
 12
8.8034126839
 22
5.7134499578
 32
0.0
 13
8.8034126839
 23
5.7134499578
 33
0.0
  0
LINE
  5
2BD
330
2B8
100
AcDbEntity
  8
0
  6
Continuous
 62
     7
370
     0
100
AcDbLine
 10
7.9975793899
 20
4.5115853159
 30
0.0
 11
7.8833215785
 21
4.5115853159
 31
0.0
  0
LINE
  5
2BE
330
2B8
100
AcDbEntity
  8
0
  6
Continuous
 62
     7
370
     0
100
AcDbLine
 10
7.8833215785
 20
4.5115853159
 30
0.0
 11
7.8833215785
 21
3.916272798
 31
0.0
  0
LINE
  5
2BF
330
2B8
100
AcDbEntity
  8
0
  6
Continuous
 62
     7
370
     0
100
AcDbLine
 10
7.8833215785
 20
3.916272798
 30
0.0
 11
7.9975793899
 21
3.916272798
 31
0.0
  0
LINE
  5
2C0
330
2B8
100
AcDbEntity
  8
0
  6
Continuous
 62
     7
370
     0
100
AcDbLine
 10
9.489246088
 20
4.5115853159
 30
0.0
 11
9.6035038993
 21
4.5115853159
 31
0.0
  0
LINE
  5
2C1
330
2B8
100
AcDbEntity
  8
0
  6
Continuous
 62
     7
370
     0
100
AcDbLine
 10
9.6035038993
 20
4.5115853159
 30
0.0
 11
9.6035038993
 21
3.916272798
 31
0.0
  0
LINE
  5
2C2
330
2B8
100
AcDbEntity
  8
0
  6
Continuous
 62
     7
370
     0
100
AcDbLine
 10
9.6035038993
 20
3.916272798
 30
0.0
 11
9.489246088
 21
3.916272798
 31
0.0
  0
LINE
  5
2C3
330
2B8
100
AcDbEntity
  8
0
  6
Continuous
 62
     7
370
     0
100
AcDbLine
 10
9.7745150461
 20
2.9254499578
 30
0.0
 11
8.3684126839
 21
2.9254499578
 31
0.0
  0
LINE
  5
2C4
330
2B8
100
AcDbEntity
  8
0
  6
Continuous
 62
     7
370
     0
100
AcDbLine
 10
9.7895150461
 20
6.1034499578
 30
0.0
 11
8.3684126839
 21
6.1034499578
 31
0.0
  0
LINE
  5
2C5
330
2B8
100
AcDbEntity
  8
0
  6
Continuous
 62
     7
370
     0
100
AcDbLine
 10
8.7434126839
 20
2.9254499578
 30
0.0
 11
8.7434126839
 21
3.840101043
 31
0.0
  0
LINE
  5
2C6
330
2B8
100
AcDbEntity
  8
0
  6
Continuous
 62
     7
370
     0
100
AcDbLine
 10
8.7434126839
 20
6.1034499578
 30
0.0
 11
8.7434126839
 21
5.1887988727
 31
0.0
  0
MTEXT
  5
2C7
330
2B8
100
AcDbEntity
  8
0
  6
Continuous
 62
     7
370
    18
100
AcDbMText
 10
7.7711471001
 20
5.0768867985
 30
0.0
 40
0.375
 41
0.0
 71
     1
 72
     1
  1

  7
SLDTEXTSTYLE0
 73
     1
 44
1.0
  0
MTEXT
  5
2C8
330
2B8
100
AcDbEntity
  8
0
  6
Continuous
 62
     7
370
    18
100
AcDbMText
 10
7.9332564504
 20
5.071157604
 30
0.0
 40
0.375
 41
0.0
 71
     1
 72
     1
  1
3 3/16"
  7
SLDTEXTSTYLE0
 73
     1
 44
1.0
  0
MTEXT
  5
2C9
330
2B8
100
AcDbEntity
  8
0
  6
Continuous
 62
     7
370
    18
100
AcDbMText
 10
7.9975793899
 20
4.3996732417
 30
0.0
 40
0.375
 41
0.0
 71
     1
 72
     1
  1
81mm
  7
SLDTEXTSTYLE0
 73
     1
 44
1.0
  0
MTEXT
  5
2CA
330
2B8
100
AcDbEntity
  8
0
  6
Continuous
 62
     7
370
    18
100
AcDbMText
 10
9.8583866282
 20
5.0768867985
 30
0.0
 40
0.375
 41
0.0
 71
     1
 72
     1
  1

  7
SLDTEXTSTYLE0
 73
     1
 44
1.0
  0
ENDBLK
  5
2BA
330
2B8
100
AcDbEntity
  8
0
100
AcDbBlockEnd
  0
BLOCK
  5
2D7
330
2D6
100
AcDbEntity
  8
0
100
AcDbBlockBegin
  2
_D_9
 70
     0
 10
0.0
 20
0.0
 30
0.0
  3
_D_9
  1

  0
SOLID
  5
2D9
330
2D6
100
AcDbEntity
  8
0
  6
Continuous
 62
     7
370
    18
100
AcDbTrace
 10
14.6673769465
 20
2.9254499578
 30
0.0
 11
14.7273769465
 21
3.3154499578
 31
0.0
 12
14.6073769465
 22
3.3154499578
 32
0.0
 13
14.6073769465
 23
3.3154499578
 33
0.0
  0
SOLID
  5
2DA
330
2D6
100
AcDbEntity
  8
0
  6
Continuous
 62
     7
370
    18
100
AcDbTrace
 10
14.6673769465
 20
5.7789499578
 30
0.0
 11
14.6073769465
 21
5.3889499578
 31
0.0
 12
14.7273769465
 22
5.3889499578
 32
0.0
 13
14.7273769465
 23
5.3889499578
 33
0.0
  0
LINE
  5
2DB
330
2D6
100
AcDbEntity
  8
0
  6
Continuous
 62
     7
370
     0
100
AcDbLine
 10
13.9215436525
 20
4.3493353159
 30
0.0
 11
13.8072858411
 21
4.3493353159
 31
0.0
  0
LINE
  5
2DC
330
2D6
100
AcDbEntity
  8
0
  6
Continuous
 62
     7
370
     0
100
AcDbLine
 10
13.8072858411
 20
4.3493353159
 30
0.0
 11
13.8072858411
 21
3.754022798
 31
0.0
  0
LINE
  5
2DD
330
2D6
100
AcDbEntity
  8
0
  6
Continuous
 62
     7
370
     0
100
AcDbLine
 10
13.8072858411
 20
3.754022798
 30
0.0
 11
13.9215436525
 21
3.754022798
 31
0.0
  0
LINE
  5
2DE
330
2D6
100
AcDbEntity
  8
0
  6
Continuous
 62
     7
370
     0
100
AcDbLine
 10
15.4132103506
 20
4.3493353159
 30
0.0
 11
15.5274681619
 21
4.3493353159
 31
0.0
  0
LINE
  5
2DF
330
2D6
100
AcDbEntity
  8
0
  6
Continuous
 62
     7
370
     0
100
AcDbLine
 10
15.5274681619
 20
4.3493353159
 30
0.0
 11
15.5274681619
 21
3.754022798
 31
0.0
  0
LINE
  5
2E0
330
2D6
100
AcDbEntity
  8
0
  6
Continuous
 62
     7
370
     0
100
AcDbLine
 10
15.5274681619
 20
3.754022798
 30
0.0
 11
15.4132103506
 21
3.754022798
 31
0.0
  0
LINE
  5
2E1
330
2D6
100
AcDbEntity
  8
0
  6
Continuous
 62
     7
370
     0
100
AcDbLine
 10
15.6984793087
 20
2.9254499578
 30
0.0
 11
14.2923769465
 21
2.9254499578
 31
0.0
  0
LINE
  5
2E2
330
2D6
100
AcDbEntity
  8
0
  6
Continuous
 62
     7
370
     0
100
AcDbLine
 10
15.7134793087
 20
5.7789499578
 30
0.0
 11
14.2923769465
 21
5.7789499578
 31
0.0
  0
LINE
  5
2E3
330
2D6
100
AcDbEntity
  8
0
  6
Continuous
 62
     7
370
     0
100
AcDbLine
 10
14.6673769465
 20
2.9254499578
 30
0.0
 11
14.6673769465
 21
3.677851043
 31
0.0
  0
LINE
  5
2E4
330
2D6
100
AcDbEntity
  8
0
  6
Continuous
 62
     7
370
     0
100
AcDbLine
 10
14.6673769465
 20
5.7789499578
 30
0.0
 11
14.6673769465
 21
5.0265488727
 31
0.0
  0
MTEXT
  5
2E5
330
2D6
100
AcDbEntity
  8
0
  6
Continuous
 62
     7
370
    18
100
AcDbMText
 10
13.6951113627
 20
4.9146367985
 30
0.0
 40
0.375
 41
0.0
 71
     1
 72
     1
  1

  7
SLDTEXTSTYLE0
 73
     1
 44
1.0
  0
MTEXT
  5
2E6
330
2D6
100
AcDbEntity
  8
0
  6
Continuous
 62
     7
370
    18
100
AcDbMText
 10
13.9957624076
 20
4.908907604
 30
0.0
 40
0.375
 41
0.0
 71
     1
 72
     1
  1
2 7/8"
  7
SLDTEXTSTYLE0
 73
     1
 44
1.0
  0
MTEXT
  5
2E7
330
2D6
100
AcDbEntity
  8
0
  6
Continuous
 62
     7
370
    18
100
AcDbMText
 10
13.9215436525
 20
4.2374232417
 30
0.0
 40
0.375
 41
0.0
 71
     1
 72
     1
  1
72mm
  7
SLDTEXTSTYLE0
 73
     1
 44
1.0
  0
MTEXT
  5
2E8
330
2D6
100
AcDbEntity
  8
0
  6
Continuous
 62
     7
370
    18
100
AcDbMText
 10
15.7823508908
 20
4.9146367985
 30
0.0
 40
0.375
 41
0.0
 71
     1
 72
     1
  1

  7
SLDTEXTSTYLE0
 73
     1
 44
1.0
  0
ENDBLK
  5
2D8
330
2D6
100
AcDbEntity
  8
0
100
AcDbBlockEnd
  0
BLOCK
  5
2F0
330
2EF
100
AcDbEntity
  8
0
100
AcDbBlockBegin
  2
_D_10
 70
     0
 10
0.0
 20
0.0
 30
0.0
  3
_D_10
  1

  0
SOLID
  5
2F2
330
2EF
100
AcDbEntity
  8
0
  6
Continuous
 62
     7
370
    18
100
AcDbTrace
 10
24.9444606573
 20
7.1670058436
 30
0.0
 11
24.5544606573
 21
7.2270058436
 31
0.0
 12
24.5544606573
 22
7.1070058436
 32
0.0
 13
24.5544606573
 23
7.1070058436
 33
0.0
  0
SOLID
  5
2F3
330
2EF
100
AcDbEntity
  8
0
  6
Continuous
 62
     7
370
    18
100
AcDbTrace
 10
27.6944606573
 20
7.1670058436
 30
0.0
 11
28.0844606573
 21
7.1070058436
 31
0.0
 12
28.0844606573
 22
7.2270058436
 32
0.0
 13
28.0844606573
 23
7.2270058436
 33
0.0
  0
LINE
  5
2F4
330
2EF
100
AcDbEntity
  8
0
  6
Continuous
 62
     7
370
     0
100
AcDbLine
 10
25.5736273357
 20
6.9245578368
 30
0.0
 11
25.4593695243
 21
6.9245578368
 31
0.0
  0
LINE
  5
2F5
330
2EF
100
AcDbEntity
  8
0
  6
Continuous
 62
     7
370
     0
100
AcDbLine
 10
25.4593695243
 20
6.9245578368
 30
0.0
 11
25.4593695243
 21
6.3292453189
 31
0.0
  0
LINE
  5
2F6
330
2EF
100
AcDbEntity
  8
0
  6
Continuous
 62
     7
370
     0
100
AcDbLine
 10
25.4593695243
 20
6.3292453189
 30
0.0
 11
25.5736273357
 21
6.3292453189
 31
0.0
  0
LINE
  5
2F7
330
2EF
100
AcDbEntity
  8
0
  6
Continuous
 62
     7
370
     0
100
AcDbLine
 10
27.0652940338
 20
6.9245578368
 30
0.0
 11
27.1795518452
 21
6.9245578368
 31
0.0
  0
LINE
  5
2F8
330
2EF
100
AcDbEntity
  8
0
  6
Continuous
 62
     7
370
     0
100
AcDbLine
 10
27.1795518452
 20
6.9245578368
 30
0.0
 11
27.1795518452
 21
6.3292453189
 31
0.0
  0
LINE
  5
2F9
330
2EF
100
AcDbEntity
  8
0
  6
Continuous
 62
     7
370
     0
100
AcDbLine
 10
27.1795518452
 20
6.3292453189
 30
0.0
 11
27.0652940338
 21
6.3292453189
 31
0.0
  0
LINE
  5
2FA
330
2EF
100
AcDbEntity
  8
0
  6
Continuous
 62
     7
370
     0
100
AcDbLine
 10
24.9444606573
 20
4.3859034814
 30
0.0
 11
24.9444606573
 21
7.5420058436
 31
0.0
  0
LINE
  5
2FB
330
2EF
100
AcDbEntity
  8
0
  6
Continuous
 62
     7
370
     0
100
AcDbLine
 10
27.6944606573
 20
4.3859034814
 30
0.0
 11
27.6944606573
 21
7.5420058436
 31
0.0
  0
LINE
  5
2FC
330
2EF
100
AcDbEntity
  8
0
  6
Continuous
 62
     7
370
     0
100
AcDbLine
 10
24.9444606573
 20
7.1670058436
 30
0.0
 11
24.1944606573
 21
7.1670058436
 31
0.0
  0
LINE
  5
2FD
330
2EF
100
AcDbEntity
  8
0
  6
Continuous
 62
     7
370
     0
100
AcDbLine
 10
27.6944606573
 20
7.1670058436
 30
0.0
 11
28.4444606573
 21
7.1670058436
 31
0.0
  0
MTEXT
  5
2FE
330
2EF
100
AcDbEntity
  8
0
  6
Continuous
 62
     7
370
    18
100
AcDbMText
 10
24.9335230877
 20
7.9690260215
 30
0.0
 40
0.375
 41
0.0
 71
     1
 72
     1
  1
ON CENTER
  7
SLDTEXTSTYLE0
 73
     1
 44
1.0
  0
MTEXT
  5
2FF
330
2EF
100
AcDbEntity
  8
0
  6
Continuous
 62
     7
370
    18
100
AcDbMText
 10
25.6478460908
 20
7.4841301249
 30
0.0
 40
0.375
 41
0.0
 71
     1
 72
     1
  1
2 3/4"
  7
SLDTEXTSTYLE0
 73
     1
 44
1.0
  0
MTEXT
  5
300
330
2EF
100
AcDbEntity
  8
0
  6
Continuous
 62
     7
370
    18
100
AcDbMText
 10
25.5736273357
 20
6.8126457626
 30
0.0
 40
0.375
 41
0.0
 71
     1
 72
     1
  1
70mm
  7
SLDTEXTSTYLE0
 73
     1
 44
1.0
  0
ENDBLK
  5
2F1
330
2EF
100
AcDbEntity
  8
0
100
AcDbBlockEnd
  0
BLOCK
  5
304
330
303
100
AcDbEntity
  8
0
100
AcDbBlockBegin
  2
_D_11
 70
     0
 10
0.0
 20
0.0
 30
0.0
  3
_D_11
  1

  0
SOLID
  5
306
330
303
100
AcDbEntity
  8
0
  6
Continuous
 62
     7
370
    18
100
AcDbTrace
 10
27.8350051139
 20
3.3609034814
 30
0.0
 11
28.1427550214
 21
3.1139419571
 31
0.0
 12
28.2027550214
 22
3.2178650056
 32
0.0
 13
28.2027550214
 23
3.2178650056
 33
0.0
  0
LINE
  5
307
330
303
100
AcDbEntity
  8
0
  6
Continuous
 62
     7
370
     0
100
AcDbLine
 10
29.8937783474
 20
2.7372164039
 30
0.0
 11
29.7795205361
 21
2.7372164039
 31
0.0
  0
LINE
  5
308
330
303
100
AcDbEntity
  8
0
  6
Continuous
 62
     7
370
     0
100
AcDbLine
 10
29.7795205361
 20
2.7372164039
 30
0.0
 11
29.7795205361
 21
2.141903886
 31
0.0
  0
LINE
  5
309
330
303
100
AcDbEntity
  8
0
  6
Continuous
 62
     7
370
     0
100
AcDbLine
 10
29.7795205361
 20
2.141903886
 30
0.0
 11
29.8937783474
 21
2.141903886
 31
0.0
  0
LINE
  5
30A
330
303
100
AcDbEntity
  8
0
  6
Continuous
 62
     7
370
     0
100
AcDbLine
 10
31.3854450455
 20
2.7372164039
 30
0.0
 11
31.4997028569
 21
2.7372164039
 31
0.0
  0
LINE
  5
30B
330
303
100
AcDbEntity
  8
0
  6
Continuous
 62
     7
370
     0
100
AcDbLine
 10
31.4997028569
 20
2.7372164039
 30
0.0
 11
31.4997028569
 21
2.141903886
 31
0.0
  0
LINE
  5
30C
330
303
100
AcDbEntity
  8
0
  6
Continuous
 62
     7
370
     0
100
AcDbLine
 10
31.4997028569
 20
2.141903886
 30
0.0
 11
31.3854450455
 21
2.141903886
 31
0.0
  0
LINE
  5
30D
330
303
100
AcDbEntity
  8
0
  6
Continuous
 62
     7
370
     0
100
AcDbLine
 10
27.8350051139
 20
3.3609034814
 30
0.0
 11
28.9152627247
 21
2.7372164589
 31
0.0
  0
LINE
  5
30E
330
303
100
AcDbEntity
  8
0
  6
Continuous
 62
     7
370
     0
100
AcDbLine
 10
28.9152627247
 20
2.7372164589
 30
0.0
 11
29.6652627247
 21
2.7372164589
 31
0.0
  0
MTEXT
  5
30F
330
303
100
AcDbEntity
  8
0
  6
Continuous
 62
     7
370
    18
100
AcDbMText
 10
29.6852236441
 20
3.2967887195
 30
0.0
 40
0.375
 41
0.0
 71
     1
 72
     1
  1
%%c
  7
SLDTEXTSTYLE0
 73
     1
 44
1.0
  0
MTEXT
  5
310
330
303
100
AcDbEntity
  8
0
  6
Continuous
 62
     7
370
    18
100
AcDbMText
 10
30.2507705059
 20
3.2967887195
 30
0.0
 40
0.375
 41
0.0
 71
     1
 72
     1
  1
3 1/2"
  7
SLDTEXTSTYLE0
 73
     1
 44
1.0
  0
MTEXT
  5
311
330
303
100
AcDbEntity
  8
0
  6
Continuous
 62
     7
370
    18
100
AcDbMText
 10
29.8937783474
 20
2.6253043297
 30
0.0
 40
0.375
 41
0.0
 71
     1
 72
     1
  1
89mm
  7
SLDTEXTSTYLE0
 73
     1
 44
1.0
  0
ENDBLK
  5
305
330
303
100
AcDbEntity
  8
0
100
AcDbBlockEnd
  0
ENDSEC
  0
SECTION
  2
ENTITIES
  0
INSERT
  5
8B
330
1F
100
AcDbEntity
  8
0
  6
Continuous
 62
     7
100
AcDbBlockReference
  2
SW_BROKEN_VIEW_0
 10
0.0
 20
0.0
 30
0.0
  0
LINE
  5
8C
330
1F
100
AcDbEntity
  8
0
  6
Continuous
 62
     7
370
    25
100
AcDbLine
 10
9.533513066
 20
23.2040038861
 30
0.0
 11
9.5004662577
 21
23.2370510243
 31
0.0
  0
LINE
  5
8D
330
1F
100
AcDbEntity
  8
0
  6
Continuous
 62
     7
370
    25
100
AcDbLine
 10
8.7904662597
 20
23.2370510243
 30
0.0
 11
8.7882507753
 21
23.2348352099
 31
0.0
  0
LWPOLYLINE
  5
8E
330
1F
100
AcDbEntity
  8
0
  6
Continuous
 62
     7
370
    25
100
AcDbPolyline
 90
        3
 70
   128
 43
0.0
 10
9.4893866357
 20
23.1781914376
 10
9.5193463663
 20
23.1955178508
 10
9.533189523
 20
23.2035216517
  0
LINE
  5
8F
330
1F
100
AcDbEntity
  8
0
  6
Continuous
 62
     7
370
    25
100
AcDbLine
 10
8.7865203853
 20
23.2230533194
 30
0.0
 11
8.8013052412
 21
23.2144634453
 31
0.0
  0
LINE
  5
90
330
1F
100
AcDbEntity
  8
0
  6
Continuous
 62
     7
370
    25
100
AcDbLine
 10
9.5504662535
 20
23.0720505838
 30
0.0
 11
9.5504662535
 21
23.072321034
 31
0.0
  0
LWPOLYLINE
  5
91
330
1F
100
AcDbEntity
  8
0
  6
Continuous
 62
     7
370
    25
100
AcDbPolyline
 90
        3
 70
   128
 43
0.0
 10
8.7715651781
 20
23.0888847893
 10
8.773471676
 20
23.0877777621
 10
8.7737717159
 20
23.0876035241
  0
LINE
  5
92
330
1F
100
AcDbEntity
  8
0
  6
Continuous
 62
     7
370
    25
100
AcDbLine
 10
8.7880452977
 20
23.0793104999
 30
0.0
 11
8.8005397233
 21
23.0720505838
 31
0.0
  0
LINE
  5
93
330
1F
100
AcDbEntity
  8
0
  6
Continuous
 62
     7
370
    25
100
AcDbLine
 10
9.5504662535
 20
23.1423476917
 30
0.0
 11
9.5504662535
 21
23.1437486355
 31
0.0
  0
LWPOLYLINE
  5
94
330
1F
100
AcDbEntity
  8
0
  6
Continuous
 62
     7
370
    25
100
AcDbPolyline
 90
        3
 70
   128
 43
0.0
 10
9.4893866357
 20
23.1067626628
 10
9.5197273652
 20
23.1243096601
 10
9.5500768946
 20
23.1418560707
  0
SPLINE
  5
95
330
1F
100
AcDbEntity
  8
0
  6
Continuous
 62
     7
370
    25
100
AcDbSpline
210
0.0
220
0.0
230
1.0
 70
     8
 71
     3
 72
     9
 73
     5
 74
     0
 42
0.00000001
 43
0.00000001
 40
0.0
 40
0.0
 40
0.0
 40
0.0
 40
0.486685288867953
 40
1.0
 40
1.0
 40
1.0
 40
1.0
 10
8.771534818414157
 20
23.16033116394612
 30
0.0
 10
8.772180466702565
 20
23.15995633834055
 30
0.0
 10
8.773507090504797
 20
23.15918617821008
 30
0.0
 10
8.774833345992318
 20
23.15841538399253
 30
0.0
 10
8.775514132444782
 20
23.15801972398141
 30
0.0
  0
LINE
  5
96
330
1F
100
AcDbEntity
  8
0
  6
Continuous
 62
     7
370
    25
100
AcDbLine
 10
8.7856435488
 20
23.152134352
 30
0.0
 11
8.8013052412
 21
23.1430346704
 31
0.0
  0
LWPOLYLINE
  5
97
330
1F
100
AcDbEntity
  8
0
  6
Continuous
 62
     7
370
    25
100
AcDbPolyline
 90
        3
 70
   128
 43
0.0
 10
9.5500889578
 20
23.14422911
 10
9.5197404184
 20
23.1617796272
 10
9.4903788609
 20
23.178765191
  0
LINE
  5
98
330
1F
100
AcDbEntity
  8
0
  6
Continuous
 62
     7
370
    25
100
AcDbLine
 10
8.7805001915
 20
23.2013257837
 30
0.0
 11
8.7788515306
 21
23.2003701147
 31
0.0
  0
LWPOLYLINE
  5
99
330
1F
100
AcDbEntity
  8
0
  6
Continuous
 62
     7
370
    25
100
AcDbPolyline
 90
        3
 70
   128
 43
0.0
 10
9.5500889578
 20
23.0728003351
 10
9.5197404184
 20
23.0903508524
 10
9.4903788609
 20
23.1073370028
  0
LINE
  5
9A
330
1F
100
AcDbEntity
  8
0
  6
Continuous
 62
     7
370
    25
100
AcDbLine
 10
8.7805001915
 20
23.1298975955
 30
0.0
 11
8.7788515306
 21
23.1289413399
 31
0.0
  0
LINE
  5
9B
330
1F
100
AcDbEntity
  8
0
  6
Continuous
 62
     7
370
    25
100
AcDbLine
 10
8.6454662648
 20
22.5320506886
 30
0.0
 11
8.6454662648
 21
19.572027123
 31
0.0
  0
LINE
  5
9C
330
1F
100
AcDbEntity
  8
0
  6
Continuous
 62
     7
370
    25
100
AcDbLine
 10
9.6454662527
 20
19.4004637183
 30
0.0
 11
9.6454662527
 21
22.5320506886
 31
0.0
  0
LINE
  5
9D
330
1F
100
AcDbEntity
  8
0
  6
Continuous
 62
     7
370
    25
100
AcDbLine
 10
7.3954662615
 20
22.9070507299
 30
0.0
 11
7.3954662615
 21
22.5820511243
 31
0.0
  0
LINE
  5
9E
330
1F
100
AcDbEntity
  8
0
  6
Continuous
 62
     7
370
    25
100
AcDbLine
 10
10.8954662559
 20
22.5820511243
 30
0.0
 11
10.8954662559
 21
22.9070507299
 31
0.0
  0
LINE
  5
9F
330
1F
100
AcDbEntity
  8
0
  6
Continuous
 62
     7
370
    25
100
AcDbLine
 10
7.3954662615
 20
22.5820511243
 30
0.0
 11
7.4454662573
 21
22.5320506886
 31
0.0
  0
LINE
  5
A0
330
1F
100
AcDbEntity
  8
0
  6
Continuous
 62
     7
370
    25
100
AcDbLine
 10
10.8454662602
 20
22.5320506886
 30
0.0
 11
10.8954662559
 21
22.5820511243
 31
0.0
  0
LINE
  5
A1
330
1F
100
AcDbEntity
  8
0
  6
Continuous
 62
     7
370
    25
100
AcDbLine
 10
8.6454662648
 20
23.0720505838
 30
0.0
 11
8.598877843
 21
23.0451528145
 31
0.0
  0
LINE
  5
A2
330
1F
100
AcDbEntity
  8
0
  6
Continuous
 62
     7
370
    25
100
AcDbLine
 10
9.6920546745
 20
23.0451528145
 30
0.0
 11
9.6454662527
 21
23.0720505838
 31
0.0
  0
SPLINE
  5
A3
330
1F
100
AcDbEntity
  8
0
  6
Continuous
 62
     7
370
    25
100
AcDbSpline
210
0.0
220
0.0
230
1.0
 70
     8
 71
     3
 72
     9
 73
     5
 74
     0
 42
0.00000001
 43
0.00000001
 40
0.0
 40
0.0
 40
0.0
 40
0.0
 40
0.0823103749053376
 40
1.0
 40
1.0
 40
1.0
 40
1.0
 10
8.790516712467031
 20
23.23705102433842
 30
0.0
 10
8.790221377016186
 20
23.23676768474793
 30
0.0
 10
8.786633306239136
 20
23.2333253533187
 30
0.0
 10
8.783316315481914
 20
23.22961565824298
 30
0.0
 10
8.780272347477476
 20
23.22621130955973
 30
0.0
  0
SPLINE
  5
A4
330
1F
100
AcDbEntity
  8
0
  6
Continuous
 62
     7
370
    25
100
AcDbSpline
210
0.0
220
0.0
230
1.0
 70
     8
 71
     3
 72
    34
 73
    30
 74
     0
 42
0.00000001
 43
0.00000001
 40
0.0
 40
0.0
 40
0.0
 40
0.0
 40
0.0501649842657983
 40
0.1034565194910486
 40
0.1454228557367947
 40
0.1884816689732583
 40
0.2333359492901451
 40
0.2788831933066354
 40
0.3239641372215249
 40
0.3692571883695542
 40
0.4154771954294991
 40
0.4614396333889737
 40
0.5135991115415826
 40
0.5647423962425439
 40
0.6159396596945896
 40
0.6652957428970762
 40
0.7109495276704518
 40
0.7542089978577785
 40
0.7959153097149755
 40
0.8344541474963707
 40
0.8683295262003295
 40
0.898761526678876
 40
0.9262340361016594
 40
0.9495890372066084
 40
0.9680614755382574
 40
0.9824036784100781
 40
0.9927393307422161
 40
0.9985461361857901
 40
1.0
 40
1.0
 40
1.0
 40
1.0
 10
8.909488496428164
 20
23.18816465574458
 30
0.0
 10
8.919928556326271
 20
23.1883909286157
 30
0.0
 10
8.94145935666727
 20
23.18885757689724
 30
0.0
 10
8.971724926947147
 20
23.18946760468054
 30
0.0
 10
9.000512024432267
 20
23.19002348786859
 30
0.0
 10
9.027543541471454
 20
23.19052333092604
 30
0.0
 10
9.055320595254088
 20
23.19102308091687
 30
0.0
 10
9.083518511166412
 20
23.19153058560128
 30
0.0
 10
9.11180764901221
 20
23.19204522345995
 30
0.0
 10
9.140236763418281
 20
23.19256486193329
 30
0.0
 10
9.168849304222936
 20
23.19308991476132
 30
0.0
 10
9.198890882375073
 20
23.19364447466303
 30
0.0
 10
9.229957065940678
 20
23.19422151096501
 30
0.0
 10
9.262112696134276
 20
23.19482222384786
 30
0.0
 10
9.293684792759297
 20
23.19541586428644
 30
0.0
 10
9.324113845751851
 20
23.19601619211594
 30
0.0
 10
9.352889975304677
 20
23.19662705693441
 30
0.0
 10
9.380073272673021
 20
23.1972409179427
 30
0.0
 10
9.405774858201804
 20
23.19786238914556
 30
0.0
 10
9.429522684862633
 20
23.19848115698269
 30
0.0
 10
9.450922413854355
 20
23.19908807082064
 30
0.0
 10
9.470020314893809
 20
23.19967098982774
 30
0.0
 10
9.486920182662121
 20
23.20026954811592
 30
0.0
 10
9.501348656190359
 20
23.20084496555749
 30
0.0
 10
9.512984998369584
 20
23.20152230595053
 30
0.0
 10
9.522052158547831
 20
23.20192121557517
 30
0.0
 10
9.528139913573305
 20
23.20292161394574
 30
0.0
 10
9.532149867739777
 20
23.20273855488876
 30
0.0
 10
9.533274581970375
 20
23.20378203494774
 30
0.0
 10
9.533499792796418
 20
23.20399097958421
 30
0.0
  0
LINE
  5
A5
330
1F
100
AcDbEntity
  8
0
  6
Continuous
 62
     7
370
    25
100
AcDbLine
 10
8.9094884964
 20
23.1881646557
 30
0.0
 11
8.9058481435
 21
23.1939332824
 31
0.0
  0
SPLINE
  5
A6
330
1F
100
AcDbEntity
  8
0
  6
Continuous
 62
     7
370
    25
100
AcDbSpline
210
0.0
220
0.0
230
1.0
 70
     8
 71
     3
 72
    22
 73
    18
 74
     0
 42
0.00000001
 43
0.00000001
 40
0.0
 40
0.0
 40
0.0
 40
0.0
 40
0.0436641755883186
 40
0.0942547208569693
 40
0.1508306947152467
 40
0.2129456884165271
 40
0.2799296550650746
 40
0.3504902874034408
 40
0.4245676791027488
 40
0.5008965911814227
 40
0.5781444826413616
 40
0.6585540352472492
 40
0.7384693635479588
 40
0.8164479938892883
 40
0.8801074163134718
 40
0.9415420955857288
 40
1.0
 40
1.0
 40
1.0
 40
1.0
 10
9.43511821264216
 20
23.23705102433842
 30
0.0
 10
9.427458154544626
 20
23.23601298201638
 30
0.0
 10
9.410922937103702
 20
23.23377223458479
 30
0.0
 10
9.384388509129133
 20
23.23077368807061
 30
0.0
 10
9.354577043542779
 20
23.22771313772511
 30
0.0
 10
9.321840511149464
 20
23.22474531403075
 30
0.0
 10
9.286614424569482
 20
23.22183703455654
 30
0.0
 10
9.249261661717945
 20
23.21895785996319
 30
0.0
 10
9.210252580791947
 20
23.21604350846534
 30
0.0
 10
9.170059124581094
 20
23.21309243202723
 30
0.0
 10
9.128743817629955
 20
23.21011237435278
 30
0.0
 10
9.086788696280633
 20
23.20717886823774
 30
0.0
 10
9.044701336326751
 20
23.20428292444621
 30
0.0
 10
9.005574988706869
 20
23.20155029702143
 30
0.0
 10
8.9697205852725
 20
23.19893002823016
 30
0.0
 10
8.937319714570704
 20
23.19646741183354
 30
0.0
 10
8.916163574149117
 20
23.19476389353184
 30
0.0
 10
8.905848143481832
 20
23.19393328243825
 30
0.0
  0
LINE
  5
A7
330
1F
100
AcDbEntity
  8
0
  6
Continuous
 62
     7
370
    25
100
AcDbLine
 10
9.4351182126
 20
23.2370510243
 30
0.0
 11
9.5004662577
 21
23.2370510243
 31
0.0
  0
LINE
  5
A8
330
1F
100
AcDbEntity
  8
0
  6
Continuous
 62
     7
370
    25
100
AcDbLine
 10
8.7904662597
 20
23.2370510243
 30
0.0
 11
8.7905167125
 21
23.2370510243
 31
0.0
  0
SPLINE
  5
A9
330
1F
100
AcDbEntity
  8
0
  6
Continuous
 62
     7
370
    25
100
AcDbSpline
210
0.0
220
0.0
230
1.0
 70
     8
 71
     3
 72
     9
 73
     5
 74
     0
 42
0.00000001
 43
0.00000001
 40
0.0
 40
0.0
 40
0.0
 40
0.0
 40
0.8405108039908135
 40
0.9999999999999999
 40
0.9999999999999999
 40
0.9999999999999999
 40
0.9999999999999999
 10
8.803571581656069
 20
23.21581862961685
 30
0.0
 10
8.79683297782229
 20
23.21830338553619
 30
0.0
 10
8.788815705704213
 20
23.22125963060471
 30
0.0
 10
8.781447497137766
 20
23.22553019989683
 30
0.0
 10
8.780272347477476
 20
23.22621130955973
 30
0.0
  0
SPLINE
  5
AA
330
1F
100
AcDbEntity
  8
0
  6
Continuous
 62
     7
370
    25
100
AcDbSpline
210
0.0
220
0.0
230
1.0
 70
     8
 71
     3
 72
    26
 73
    22
 74
     0
 42
0.00000001
 43
0.00000001
 40
0.0
 40
0.0
 40
0.0
 40
0.0
 40
0.0078723598002765
 40
0.0265365649454135
 40
0.0549795714384919
 40
0.0922172544033318
 40
0.1378622129968708
 40
0.1917721260797027
 40
0.2525861223728693
 40
0.3185356090769464
 40
0.3878913874016484
 40
0.4609285475970606
 40
0.5361754066899401
 40
0.6115002443734884
 40
0.6847784615962925
 40
0.7551588745021661
 40
0.8225135881692182
 40
0.884857193822138
 40
0.9278490555473925
 40
0.9662853563860618
 40
1.0
 40
1.0
 40
1.0
 40
1.0
 10
9.489151201781794
 20
23.17819143762272
 30
0.0
 10
9.48757502137568
 20
23.17767238753968
 30
0.0
 10
9.482261949466661
 20
23.17592274618841
 30
0.0
 10
9.470640989264975
 20
23.17502216335346
 30
0.0
 10
9.453026519860295
 20
23.17328055551227
 30
0.0
 10
9.429624474242654
 20
23.17191702071812
 30
0.0
 10
9.400896521077174
 20
23.17038367640881
 30
0.0
 10
9.367192681069083
 20
23.16883295369001
 30
0.0
 10
9.329218386888048
 20
23.16725470902867
 30
0.0
 10
9.287989823592925
 20
23.16570677295702
 30
0.0
 10
9.244186439070718
 20
23.16422242869111
 30
0.0
 10
9.198428194590864
 20
23.162673274131
 30
0.0
 10
9.151414631366775
 20
23.16109224422048
 30
0.0
 10
9.10435017146849
 20
23.15951561890477
 30
0.0
 10
9.058308369185154
 20
23.15798915267479
 30
0.0
 10
9.013943074051042
 20
23.15649354513198
 30
0.0
 10
8.971881941923256
 20
23.15492865244663
 30
0.0
 10
8.935582981385433
 20
23.15346137218058
 30
0.0
 10
8.905367797158073
 20
23.15211928763134
 30
0.0
 10
8.881172221295936
 20
23.15097649493843
 30
0.0
 10
8.866017013713828
 20
23.15013951132519
 30
0.0
 10
8.85893529875635
 20
23.14974840619904
 30
0.0
  0
SPLINE
  5
AB
330
1F
100
AcDbEntity
  8
0
  6
Continuous
 62
     7
370
    25
100
AcDbSpline
210
0.0
220
0.0
230
1.0
 70
     8
 71
     3
 72
    10
 73
     6
 74
     0
 42
0.00000001
 43
0.00000001
 40
0.0
 40
0.0
 40
0.0
 40
0.0
 40
0.244469373231386
 40
0.6371915660363705
 40
1.0
 40
1.0
 40
1.0
 40
1.0
 10
8.909488496428164
 20
23.18816465574458
 30
0.0
 10
8.905761637447632
 20
23.18454954289178
 30
0.0
 10
8.896047851713195
 20
23.17512701527766
 30
0.0
 10
8.879743322558706
 20
23.16132508137385
 30
0.0
 10
8.865685779710372
 20
23.15350407881941
 30
0.0
 10
8.85893529875635
 20
23.14974840619905
 30
0.0
  0
LINE
  5
AC
330
1F
100
AcDbEntity
  8
0
  6
Continuous
 62
     7
370
    25
100
AcDbLine
 10
8.7523290403
 20
23.1038710162
 30
0.0
 11
8.7523290403
 21
23.1052725467
 31
0.0
  0
SPLINE
  5
AD
330
1F
100
AcDbEntity
  8
0
  6
Continuous
 62
     7
370
    25
100
AcDbSpline
210
0.0
220
0.0
230
1.0
 70
     8
 71
     3
 72
    11
 73
     7
 74
     0
 42
0.00000001
 43
0.00000001
 40
0.0
 40
0.0
 40
0.0
 40
0.0
 40
0.2179184853895273
 40
0.4474990195845773
 40
0.688311642063327
 40
1.0
 40
1.0
 40
1.0
 40
1.0
 10
8.803571581656069
 20
23.07296166657935
 30
0.0
 10
8.799427834446162
 20
23.07439439859404
 30
0.0
 10
8.79091858471214
 20
23.07733653620461
 30
0.0
 10
8.778759140479321
 20
23.08402496232644
 30
0.0
 10
8.765665203199069
 20
23.09273397807553
 30
0.0
 10
8.757139012513479
 20
23.09985345518255
 30
0.0
 10
8.752329040280946
 20
23.10386984285879
 30
0.0
  0
LINE
  5
AE
330
1F
100
AcDbEntity
  8
0
  6
Continuous
 62
     7
370
    25
100
AcDbLine
 10
8.7523290403
 20
23.175299791
 30
0.0
 11
8.7523290403
 21
23.1767013215
 31
0.0
  0
SPLINE
  5
AF
330
1F
100
AcDbEntity
  8
0
  6
Continuous
 62
     7
370
    25
100
AcDbSpline
210
0.0
220
0.0
230
1.0
 70
     8
 71
     3
 72
    27
 73
    23
 74
     0
 42
0.00000001
 43
0.00000001
 40
0.0
 40
0.0
 40
0.0
 40
0.0
 40
0.0050569432543874
 40
0.0185541679346269
 40
0.0395411768346663
 40
0.0676322291055021
 40
0.1021757939349265
 40
0.1428600109654526
 40
0.1899081079851511
 40
0.2426430549285538
 40
0.3001483203490168
 40
0.3613336119982363
 40
0.4250250828936846
 40
0.4914163593917242
 40
0.5602054535401725
 40
0.6301780190264245
 40
0.7000550565289082
 40
0.7685699280126375
 40
0.8347475731516697
 40
0.8991102253551365
 40
0.9508351350430172
 40
1.0
 40
1.0
 40
1.0
 40
1.0
 10
9.549754378355393
 20
23.14185372406575
 30
0.0
 10
9.548739866673838
 20
23.14147773931089
 30
0.0
 10
9.545017574537196
 20
23.14009823316823
 30
0.0
 10
9.536513160952168
 20
23.13944178083214
 30
0.0
 10
9.523280730529683
 20
23.13800240304575
 30
0.0
 10
9.505445030544676
 20
23.13688401174958
 30
0.0
 10
9.48343634637888
 20
23.13565660208009
 30
0.0
 10
9.457362521865981
 20
23.13448008141589
 30
0.0
 10
9.427409875844102
 20
23.13323108238736
 30
0.0
 10
9.393863469453978
 20
23.13196837445327
 30
0.0
 10
9.357298380865982
 20
23.13070357670515
 30
0.0
 10
9.318392804194689
 20
23.12945729289502
 30
0.0
 10
9.277588373044564
 20
23.12826007917769
 30
0.0
 10
9.235160983343365
 20
23.12704313461036
 30
0.0
 10
9.19139362171882
 20
23.12578629206686
 30
0.0
 10
9.146882440915126
 20
23.12451393003302
 30
0.0
 10
9.102429582790785
 20
23.123249530535
 30
0.0
 10
9.058786328489369
 20
23.12200866840093
 30
0.0
 10
9.016319003454521
 20
23.12081920046773
 30
0.0
 10
8.977436003910302
 20
23.11965102808369
 30
0.0
 10
8.942184297224403
 20
23.11852942878484
 30
0.0
 10
8.920664283641585
 20
23.11778976191761
 30
0.0
 10
8.910177308470947
 20
23.1174293128853
 30
0.0
  0
LINE
  5
B0
330
1F
100
AcDbEntity
  8
0
  6
Continuous
 62
     7
370
    25
100
AcDbLine
 10
8.9101778401
 20
23.1188290834
 30
0.0
 11
8.9101778401
 21
23.1174275529
 31
0.0
  0
SPLINE
  5
B1
330
1F
100
AcDbEntity
  8
0
  6
Continuous
 62
     7
370
    25
100
AcDbSpline
210
0.0
220
0.0
230
1.0
 70
     8
 71
     3
 72
    27
 73
    23
 74
     0
 42
0.00000001
 43
0.00000001
 40
0.0
 40
0.0
 40
0.0
 40
0.0
 40
0.000763657199035
 40
0.0074757344389837
 40
0.0217051565539136
 40
0.0433847988170174
 40
0.0720949180523243
 40
0.1071570583484445
 40
0.1484458822595797
 40
0.196040091093922
 40
0.249220861489134
 40
0.3070487900194551
 40
0.3684186940525956
 40
0.4322193009807315
 40
0.4988392896784354
 40
0.5677225542690904
 40
0.63764450798384
 40
0.7073252646032796
 40
0.7850379698682034
 40
0.8598829416523955
 40
0.9321105078445096
 40
1.0
 40
1.0
 40
1.0
 40
1.0
 10
9.54992458305584
 20
23.14374863550891
 30
0.0
 10
9.55002238956892
 20
23.14360412271447
 30
0.0
 10
9.550979855194983
 20
23.14218943131151
 30
0.0
 10
9.542675853087896
 20
23.1421618936117
 30
0.0
 10
9.53642963570065
 20
23.14031151300541
 30
0.0
 10
9.52127395196769
 20
23.13945892435401
 30
0.0
 10
9.503619150523447
 20
23.13810023034168
 30
0.0
 10
9.480987875200722
 20
23.1369682046101
 30
0.0
 10
9.454594890222285
 20
23.13575158042384
 30
0.0
 10
9.424233433013894
 20
23.13450920017594
 30
0.0
 10
9.390365897102114
 20
23.13324198393703
 30
0.0
 10
9.353542406497658
 20
23.13197973797788
 30
0.0
 10
9.314450102667045
 20
23.13073785516148
 30
0.0
 10
9.27347541617976
 20
23.12954701263916
 30
0.0
 10
9.230895531752033
 20
23.12831982742065
 30
0.0
 10
9.18700761120605
 20
23.12706103675622
 30
0.0
 10
9.142465668837945
 20
23.12578796291783
 30
0.0
 10
9.096037184546617
 20
23.12446696971294
 30
0.0
 10
9.048556628224972
 20
23.12312646895792
 30
0.0
 10
9.000532197139743
 20
23.12176164956045
 30
0.0
 10
8.95460967702992
 20
23.12034502248771
 30
0.0
 10
8.924679570174472
 20
23.11932385787701
 30
0.0
 10
8.910177840131473
 20
23.1188290833817
 30
0.0
  0
SPLINE
  5
B2
330
1F
100
AcDbEntity
  8
0
  6
Continuous
 62
     7
370
    25
100
AcDbSpline
210
0.0
220
0.0
230
1.0
 70
     8
 71
     3
 72
    10
 73
     6
 74
     0
 42
0.00000001
 43
0.00000001
 40
0.0
 40
0.0
 40
0.0
 40
0.0
 40
0.3797831313323222
 40
0.6801725643381893
 40
1.0
 40
1.0
 40
1.0
 40
1.0
 10
8.803571581656069
 20
23.14439044142805
 30
0.0
 10
8.796429119151272
 20
23.14712988924052
 30
0.0
 10
8.783637326581301
 20
23.15203610304982
 30
0.0
 10
8.766858508381263
 20
23.16326434165247
 30
0.0
 10
8.757272341892
 20
23.17120424509867
 30
0.0
 10
8.752329040280946
 20
23.17529861770749
 30
0.0
  0
SPLINE
  5
B3
330
1F
100
AcDbEntity
  8
0
  6
Continuous
 62
     7
370
    25
100
AcDbSpline
210
0.0
220
0.0
230
1.0
 70
     8
 71
     3
 72
    26
 73
    22
 74
     0
 42
0.00000001
 43
0.00000001
 40
0.0
 40
0.0
 40
0.0
 40
0.0
 40
0.0005264938866811
 40
0.0119499907344382
 40
0.0334804309537766
 40
0.0645666278603056
 40
0.1041539796941119
 40
0.152281236152808
 40
0.208335731337431
 40
0.270825512122877
 40
0.3378943421896132
 40
0.4082817592244772
 40
0.4821768487943609
 40
0.5576840190702343
 40
0.6326524587215306
 40
0.705026745650761
 40
0.7747489549288284
 40
0.8408489851381867
 40
0.9014062187592832
 40
0.9547631341591077
 40
1.0
 40
1.0
 40
1.0
 40
1.0
 10
9.488864765090735
 20
23.10675855615479
 30
0.0
 10
9.488829078379931
 20
23.10665243927071
 30
0.0
 10
9.488019086328292
 20
23.10424387230782
 30
0.0
 10
9.47838588223606
 20
23.10566647199978
 30
0.0
 10
9.466851897272969
 20
23.10238727506682
 30
0.0
 10
9.44665357011709
 20
23.10174324748167
 30
0.0
 10
9.42204426861768
 20
23.09995877538548
 30
0.0
 10
9.39172516585426
 20
23.09854993424345
 30
0.0
 10
9.356745977021326
 20
23.09694180977384
 30
0.0
 10
9.317726507947155
 20
23.09538282216449
 30
0.0
 10
9.275705357077888
 20
23.09384792125448
 30
0.0
 10
9.231277631277376
 20
23.09236032838338
 30
0.0
 10
9.185078219620245
 20
23.09079319170487
 30
0.0
 10
9.137914824421923
 20
23.08921287843517
 30
0.0
 10
9.09107130542713
 20
23.08764058033306
 30
0.0
 10
9.045442650922906
 20
23.0861425943809
 30
0.0
 10
9.001681036256164
 20
23.08462114352998
 30
0.0
 10
8.960408030308233
 20
23.08305337072116
 30
0.0
 10
8.922580447414848
 20
23.0814707104806
 30
0.0
 10
8.88914145271672
 20
23.07996035612505
 30
0.0
 10
8.86843558094238
 20
23.0788356635592
 30
0.0
 10
8.85893529875635
 20
23.07831963135035
 30
0.0
  0
SPLINE
  5
B4
330
1F
100
AcDbEntity
  8
0
  6
Continuous
 62
     7
370
    25
100
AcDbSpline
210
0.0
220
0.0
230
1.0
 70
     8
 71
     3
 72
    10
 73
     6
 74
     0
 42
0.00000001
 43
0.00000001
 40
0.0
 40
0.0
 40
0.0
 40
0.0
 40
0.2558561532074408
 40
0.6426543732850349
 40
1.0
 40
1.0
 40
1.0
 40
1.0
 10
8.910177840131473
 20
23.11742637958585
 30
0.0
 10
8.90622574767518
 20
23.11357672213363
 30
0.0
 10
8.896298960811446
 20
23.10390722946634
 30
0.0
 10
8.879742580540336
 20
23.08989759069028
 30
0.0
 10
8.86568560489015
 20
23.08207575724707
 30
0.0
 10
8.85893529875635
 20
23.07831963135035
 30
0.0
  0
SPLINE
  5
B5
330
1F
100
AcDbEntity
  8
0
  6
Continuous
 62
     7
370
    25
100
AcDbSpline
210
0.0
220
0.0
230
1.0
 70
     8
 71
     3
 72
    11
 73
     7
 74
     0
 42
0.00000001
 43
0.00000001
 40
0.0
 40
0.0
 40
0.0
 40
0.0
 40
0.2179106192385661
 40
0.4474668880542139
 40
0.6882716943778513
 40
1.0
 40
1.0
 40
1.0
 40
1.0
 10
8.85893529875635
 20
23.14974840619904
 30
0.0
 10
8.863078778247154
 20
23.1483142585622
 30
0.0
 10
8.871587174395744
 20
23.14536931910806
 30
0.0
 10
8.883747300286045
 20
23.13868136030267
 30
0.0
 10
8.896840803352013
 20
23.12996859274833
 30
0.0
 10
8.905367337437761
 20
23.1228469653671
 30
0.0
 10
8.910177840131473
 20
23.1188290833817
 30
0.0
  0
SPLINE
  5
B6
330
1F
100
AcDbEntity
  8
0
  6
Continuous
 62
     7
370
    25
100
AcDbSpline
210
0.0
220
0.0
230
1.0
 70
     8
 71
     3
 72
    10
 73
     6
 74
     0
 42
0.00000001
 43
0.00000001
 40
0.0
 40
0.0
 40
0.0
 40
0.0
 40
0.2558523983598296
 40
0.6426539851553537
 40
1.0
 40
1.0
 40
1.0
 40
1.0
 10
8.752329040280946
 20
23.17670132150333
 30
0.0
 10
8.75628101896478
 20
23.18055175780136
 30
0.0
 10
8.766207659741635
 20
23.19022334285345
 30
0.0
 10
8.78276396507428
 20
23.20423631594509
 30
0.0
 10
8.796821184965031
 20
23.21206110113794
 30
0.0
 10
8.803571581656069
 20
23.21581862961685
 30
0.0
  0
SPLINE
  5
B7
330
1F
100
AcDbEntity
  8
0
  6
Continuous
 62
     7
370
    25
100
AcDbSpline
210
0.0
220
0.0
230
1.0
 70
     8
 71
     3
 72
     9
 73
     5
 74
     0
 42
0.00000001
 43
0.00000001
 40
0.0
 40
0.0
 40
0.0
 40
0.0
 40
0.7901647509798502
 40
1.0
 40
1.0
 40
1.0
 40
1.0
 10
8.85893529875635
 20
23.07831963135035
 30
0.0
 10
8.86312154687093
 20
23.07697494649547
 30
0.0
 10
8.868419490254745
 20
23.07527316866595
 30
0.0
 10
8.873282997610715
 20
23.07260951268664
 30
0.0
 10
8.874303532887865
 20
23.07205058377092
 30
0.0
  0
SPLINE
  5
B8
330
1F
100
AcDbEntity
  8
0
  6
Continuous
 62
     7
370
    25
100
AcDbSpline
210
0.0
220
0.0
230
1.0
 70
     8
 71
     3
 72
    10
 73
     6
 74
     0
 42
0.00000001
 43
0.00000001
 40
0.0
 40
0.0
 40
0.0
 40
0.0
 40
0.2558512080485713
 40
0.6426509953132469
 40
1.0
 40
1.0
 40
1.0
 40
1.0
 10
8.752329040280946
 20
23.10527254665464
 30
0.0
 10
8.756281015363456
 20
23.10912298894952
 30
0.0
 10
8.76620764709445
 20
23.11879458906457
 30
0.0
 10
8.78276412144492
 20
23.13280747416648
 30
0.0
 10
8.79682120483352
 20
23.14063268373223
 30
0.0
 10
8.803571581656069
 20
23.14439044142804
 30
0.0
  0
LINE
  5
B9
330
1F
100
AcDbEntity
  8
0
  6
Continuous
 62
     7
370
    25
100
AcDbLine
 10
8.802045276
 20
23.0720488238
 30
0.0
 11
8.8035715817
 21
23.0729616666
 31
0.0
  0
LINE
  5
BA
330
1F
100
AcDbEntity
  8
0
  6
Continuous
 62
     7
370
    25
100
AcDbLine
 10
9.2849037921
 20
23.2370510243
 30
0.0
 11
9.4351182126
 21
23.2370510243
 31
0.0
  0
SPLINE
  5
BB
330
1F
100
AcDbEntity
  8
0
  6
Continuous
 62
     7
370
    25
100
AcDbSpline
210
0.0
220
0.0
230
1.0
 70
     8
 71
     3
 72
    11
 73
     7
 74
     0
 42
0.00000001
 43
0.00000001
 40
0.0
 40
0.0
 40
0.0
 40
0.0
 40
0.2531037362481904
 40
0.5205359359012792
 40
0.8047458345414044
 40
1.0
 40
1.0
 40
1.0
 40
1.0
 10
8.85893529875635
 20
23.22117659438785
 30
0.0
 10
8.863291446607075
 20
23.21965720730181
 30
0.0
 10
8.87225034832861
 20
23.21653241906064
 30
0.0
 10
8.885065663435979
 20
23.20932570186399
 30
0.0
 10
8.896298644783878
 20
23.20165527547118
 30
0.0
 10
8.90308465004541
 20
23.19616792089809
 30
0.0
 10
8.905848143481832
 20
23.19393328243825
 30
0.0
  0
SPLINE
  5
BC
330
1F
100
AcDbEntity
  8
0
  6
Continuous
 62
     7
370
    25
100
AcDbSpline
210
0.0
220
0.0
230
1.0
 70
     8
 71
     3
 72
    18
 73
    14
 74
     0
 42
0.00000001
 43
0.00000001
 40
0.0
 40
0.0
 40
0.0
 40
0.0
 40
0.0833941327241103
 40
0.17053028284722
 40
0.2813151916539418
 40
0.3931294220205532
 40
0.5027937600628298
 40
0.6080661781993614
 40
0.7093669916987759
 40
0.8040757794900938
 40
0.8894464838391424
 40
0.9632875900212778
 40
0.9999999999999999
 40
0.9999999999999999
 40
0.9999999999999999
 40
0.9999999999999999
 10
9.284903792098632
 20
23.23705102433842
 30
0.0
 10
9.273061370307733
 20
23.2366413518446
 30
0.0
 10
9.248845139841265
 20
23.2358036242496
 30
0.0
 10
9.20889561175341
 20
23.23445784708298
 30
0.0
 10
9.16491025094748
 20
23.23297325752641
 30
0.0
 10
9.117725262927877
 20
23.23139274198586
 30
0.0
 10
9.071322967538793
 20
23.22984300838299
 30
0.0
 10
9.026413096769552
 20
23.22835984737362
 30
0.0
 10
8.983631940748493
 20
23.22680657030613
 30
0.0
 10
8.943681318654269
 20
23.22523377955757
 30
0.0
 10
8.907636012413843
 20
23.22365966328726
 30
0.0
 10
8.879827623091684
 20
23.22234786014981
 30
0.0
 10
8.864143615415292
 20
23.22146858310496
 30
0.0
 10
8.85893529875635
 20
23.22117659438785
 30
0.0
  0
LINE
  5
BD
330
1F
100
AcDbEntity
  8
0
  6
Continuous
 62
     7
370
    25
100
AcDbLine
 10
9.1021769096
 20
23.2370510243
 30
0.0
 11
9.2849037921
 21
23.2370510243
 31
0.0
  0
LINE
  5
BE
330
1F
100
AcDbEntity
  8
0
  6
Continuous
 62
     7
370
    25
100
AcDbLine
 10
8.8771272736
 20
23.2318772708
 30
0.0
 11
8.8589352988
 21
23.2211765944
 31
0.0
  0
SPLINE
  5
BF
330
1F
100
AcDbEntity
  8
0
  6
Continuous
 62
     7
370
    25
100
AcDbSpline
210
0.0
220
0.0
230
1.0
 70
     8
 71
     3
 72
    14
 73
    10
 74
     0
 42
0.00000001
 43
0.00000001
 40
0.0
 40
0.0
 40
0.0
 40
0.0
 40
0.1519579468063221
 40
0.3244549984439792
 40
0.4397162623696134
 40
0.5599825718180265
 40
0.6881145117384545
 40
0.8197387163082206
 40
1.0
 40
1.0
 40
1.0
 40
1.0
 10
8.877127273601104
 20
23.23187727077272
 30
0.0
 10
8.888525220110461
 20
23.23219644675981
 30
0.0
 10
8.912861694738348
 20
23.23287793954497
 30
0.0
 10
8.94584642321416
 20
23.23369580298806
 30
0.0
 10
8.976454762805327
 20
23.2344147412837
 30
0.0
 10
9.003735737822545
 20
23.23502429891893
 30
0.0
 10
9.03224495923378
 20
23.23562743311322
 30
0.0
 10
9.065255576641492
 20
23.23629740702985
 30
0.0
 10
9.088653531532827
 20
23.2367749928145
 30
0.0
 10
9.10217690964184
 20
23.23705102433842
 30
0.0
  0
LINE
  5
C0
330
1F
100
AcDbEntity
  8
0
  6
Continuous
 62
     7
370
    25
100
AcDbLine
 10
8.8771272736
 20
23.2318772708
 30
0.0
 11
8.8719901496
 21
23.2370510243
 31
0.0
  0
LINE
  5
C1
330
1F
100
AcDbEntity
  8
0
  6
Continuous
 62
     7
370
    25
100
AcDbLine
 10
8.8719901496
 20
23.2370510243
 30
0.0
 11
9.1021769096
 21
23.2370510243
 31
0.0
  0
LINE
  5
C2
330
1F
100
AcDbEntity
  8
0
  6
Continuous
 62
     7
370
    25
100
AcDbLine
 10
8.8719901496
 20
23.2370510243
 30
0.0
 11
8.7905167125
 21
23.2370510243
 31
0.0
  0
LINE
  5
C3
330
1F
100
AcDbEntity
  8
0
  6
Continuous
 62
     7
370
    25
100
AcDbLine
 10
7.3954662615
 20
22.5820511243
 30
0.0
 11
10.8954662559
 21
22.5820511243
 31
0.0
  0
LINE
  5
C4
330
1F
100
AcDbEntity
  8
0
  6
Continuous
 62
     7
370
    25
100
AcDbLine
 10
10.8954662559
 20
22.9070507299
 30
0.0
 11
7.3954662615
 21
22.9070507299
 31
0.0
  0
LINE
  5
C5
330
1F
100
AcDbEntity
  8
0
  6
Continuous
 62
     7
370
    25
100
AcDbLine
 10
10.8454662602
 20
22.5320506886
 30
0.0
 11
7.4454662573
 21
22.5320506886
 31
0.0
  0
SPLINE
  5
C6
330
1F
100
AcDbEntity
  8
0
  6
Continuous
 62
     7
370
    25
100
AcDbSpline
210
0.0
220
0.0
230
1.0
 70
     8
 71
     3
 72
    12
 73
     8
 74
     0
 42
0.00000001
 43
0.00000001
 40
0.0
 40
0.0
 40
0.0
 40
0.0
 40
0.0682350815020586
 40
0.2933624843382847
 40
0.5214752775291452
 40
0.7582008850187484
 40
1.0
 40
1.0
 40
1.0
 40
1.0
 10
8.741878757670168
 20
23.07205058377092
 30
0.0
 10
8.737838014521067
 20
23.07200050403923
 30
0.0
 10
8.720465683123502
 20
23.07178519669027
 30
0.0
 10
8.689663374663178
 20
23.0683586992304
 30
0.0
 10
8.64980554349978
 20
23.05907452464197
 30
0.0
 10
8.610162991084012
 20
23.04539608994193
 30
0.0
 10
8.584458707944243
 20
23.03343620422671
 30
0.0
 10
8.571470302909846
 20
23.02739285966076
 30
0.0
  0
SPLINE
  5
C7
330
1F
100
AcDbEntity
  8
0
  6
Continuous
 62
     7
370
    25
100
AcDbSpline
210
0.0
220
0.0
230
1.0
 70
     8
 71
     3
 72
    11
 73
     7
 74
     0
 42
0.00000001
 43
0.00000001
 40
0.0
 40
0.0
 40
0.0
 40
0.0
 40
0.2551742044934344
 40
0.5047002773346682
 40
0.7538910451320333
 40
0.9999999999999999
 40
0.9999999999999999
 40
0.9999999999999999
 40
0.9999999999999999
 10
8.912287194097368
 20
23.02739285966076
 30
0.0
 10
8.898574273944782
 20
23.0337625993923
 30
0.0
 10
8.87145196110043
 20
23.04636108839491
 30
0.0
 10
8.829040312397186
 20
23.06051460839235
 30
0.0
 10
8.785813187233723
 20
23.07015830498467
 30
0.0
 10
8.756462693453845
 20
23.07142244605347
 30
0.0
 10
8.741878757670168
 20
23.07205058377092
 30
0.0
  0
LINE
  5
C8
330
1F
100
AcDbEntity
  8
0
  6
Continuous
 62
     7
370
    25
100
AcDbLine
 10
8.9122871941
 20
23.0273928597
 30
0.0
 11
8.9122871941
 21
22.9070507299
 31
0.0
  0
LINE
  5
C9
330
1F
100
AcDbEntity
  8
0
  6
Continuous
 62
     7
370
    25
100
AcDbLine
 10
8.5714703029
 20
23.0273928597
 30
0.0
 11
8.5714703029
 21
22.9070507299
 31
0.0
  0
SPLINE
  5
CA
330
1F
100
AcDbEntity
  8
0
  6
Continuous
 62
     7
370
    25
100
AcDbSpline
210
0.0
220
0.0
230
1.0
 70
     8
 71
     3
 72
    12
 73
     8
 74
     0
 42
0.00000001
 43
0.00000001
 40
0.0
 40
0.0
 40
0.0
 40
0.0
 40
0.1844285850233918
 40
0.36887523029906
 40
0.5558091681562451
 40
0.7427824397914249
 40
1.0
 40
1.0
 40
1.0
 40
1.0
 10
9.199285176588852
 20
23.07205058377092
 30
0.0
 10
9.18136814633213
 20
23.07171977173439
 30
0.0
 10
9.145532331285425
 20
23.07105811526642
 30
0.0
 10
9.09174131276255
 20
23.06586961234225
 30
0.0
 10
9.03810595232272
 20
23.05771550643188
 30
0.0
 10
8.97799851401814
 20
23.04546432383671
 30
0.0
 10
8.936384575280178
 20
23.03401995163372
 30
0.0
 10
8.912287194097368
 20
23.02739285966076
 30
0.0
  0
LINE
  5
CB
330
1F
100
AcDbEntity
  8
0
  6
Continuous
 62
     7
370
    25
100
AcDbLine
 10
9.1992851766
 20
23.0720505838
 30
0.0
 11
8.7418787577
 21
23.0720505838
 31
0.0
  0
SPLINE
  5
CC
330
1F
100
AcDbEntity
  8
0
  6
Continuous
 62
     7
370
    25
100
AcDbSpline
210
0.0
220
0.0
230
1.0
 70
     8
 71
     3
 72
    13
 73
     9
 74
     0
 42
0.00000001
 43
0.00000001
 40
0.0
 40
0.0
 40
0.0
 40
0.0
 40
0.1821621961311605
 40
0.3642882796938037
 40
0.5479836718510286
 40
0.7316438430083597
 40
0.8656902811491247
 40
0.9999999999999999
 40
0.9999999999999999
 40
0.9999999999999999
 40
0.9999999999999999
 10
9.486283168246894
 20
23.02739285966076
 30
0.0
 10
9.469237880066771
 20
23.03215257994396
 30
0.0
 10
9.435150682833205
 20
23.04167107692422
 30
0.0
 10
9.383190741583917
 20
23.05334326327851
 30
0.0
 10
9.330609771000626
 20
23.06265052526784
 30
0.0
 10
9.282223557872257
 20
23.06843423719762
 30
0.0
 10
9.238403331761704
 20
23.0715321932456
 30
0.0
 10
9.212333087371551
 20
23.07187767394695
 30
0.0
 10
9.199285176588852
 20
23.07205058377092
 30
0.0
  0
LINE
  5
CD
330
1F
100
AcDbEntity
  8
0
  6
Continuous
 62
     7
370
    25
100
AcDbLine
 10
9.4862831682
 20
23.0273928597
 30
0.0
 11
9.4862831682
 21
22.9070507299
 31
0.0
  0
SPLINE
  5
CE
330
1F
100
AcDbEntity
  8
0
  6
Continuous
 62
     7
370
    25
100
AcDbSpline
210
0.0
220
0.0
230
1.0
 70
     8
 71
     3
 72
    12
 73
     8
 74
     0
 42
0.00000001
 43
0.00000001
 40
0.0
 40
0.0
 40
0.0
 40
0.0
 40
0.0654136356157976
 40
0.2825306586211225
 40
0.5073090936989126
 40
0.7474767445564233
 40
1.0
 40
1.0
 40
1.0
 40
1.0
 10
9.602872691394774
 20
23.07205058377092
 30
0.0
 10
9.600107421382274
 20
23.07200057750623
 30
0.0
 10
9.588163832701683
 20
23.07178459344168
 30
0.0
 10
9.566842071135468
 20
23.06828632738691
 30
0.0
 10
9.5394808011686
 20
23.05891067952022
 30
0.0
 10
9.512338531990498
 20
23.0451372106489
 30
0.0
 10
9.49511228826643
 20
23.03340571006979
 30
0.0
 10
9.486283168246894
 20
23.02739285966076
 30
0.0
  0
LINE
  5
CF
330
1F
100
AcDbEntity
  8
0
  6
Continuous
 62
     7
370
    25
100
AcDbLine
 10
9.6028726914
 20
23.0720505838
 30
0.0
 11
9.1992851766
 21
23.0720505838
 31
0.0
  0
SPLINE
  5
D0
330
1F
100
AcDbEntity
  8
0
  6
Continuous
 62
     7
370
    25
100
AcDbSpline
210
0.0
220
0.0
230
1.0
 70
     8
 71
     3
 72
    11
 73
     7
 74
     0
 42
0.00000001
 43
0.00000001
 40
0.0
 40
0.0
 40
0.0
 40
0.0
 40
0.2663144773175197
 40
0.5188588154205184
 40
0.7633927928539365
 40
1.0
 40
1.0
 40
1.0
 40
1.0
 10
9.719462214542654
 20
23.02739285966076
 30
0.0
 10
9.710144424748515
 20
23.03373005740568
 30
0.0
 10
9.691990633698092
 20
23.04607677977741
 30
0.0
 10
9.6629631566158
 20
23.06032878112946
 30
0.0
 10
9.633253405261248
 20
23.07011017154614
 30
0.0
 10
9.612887755088291
 20
23.07141092296149
 30
0.0
 10
9.602872691394774
 20
23.07205058377092
 30
0.0
  0
LINE
  5
D1
330
1F
100
AcDbEntity
  8
0
  6
Continuous
 62
     7
370
    25
100
AcDbLine
 10
9.7194622145
 20
23.0273928597
 30
0.0
 11
9.7194622145
 21
22.9070507299
 31
0.0
  0
LINE
  5
D2
330
1F
100
AcDbEntity
  8
0
  6
Continuous
 62
     7
370
    25
100
AcDbLine
 10
8.5714703029
 20
23.0273928597
 30
0.0
 11
8.598907066
 21
23.0451023617
 31
0.0
  0
LINE
  5
D3
330
1F
100
AcDbEntity
  8
0
  6
Continuous
 62
     7
370
    25
100
AcDbLine
 10
8.7418787577
 20
23.0720505838
 30
0.0
 11
8.6454662648
 21
23.0720505838
 31
0.0
  0
LINE
  5
D4
330
1F
100
AcDbEntity
  8
0
  6
Continuous
 62
     7
370
    25
100
AcDbLine
 10
9.6454662527
 20
23.0720505838
 30
0.0
 11
9.6028726914
 21
23.0720505838
 31
0.0
  0
LINE
  5
D5
330
1F
100
AcDbEntity
  8
0
  6
Continuous
 62
     7
370
    25
100
AcDbLine
 10
8.6454662648
 20
19.272027079
 30
0.0
 11
8.6454662648
 21
16.2678491069
 31
0.0
  0
LINE
  5
D6
330
1F
100
AcDbEntity
  8
0
  6
Continuous
 62
     7
370
    25
100
AcDbLine
 10
9.6454662527
 20
16.2678491069
 30
0.0
 11
9.6454662527
 21
19.1004636743
 31
0.0
  0
ARC
  5
D7
330
1F
100
AcDbEntity
  8
0
  6
Continuous
 62
     7
370
    25
100
AcDbCircle
 10
8.6604662706
 20
16.2578490933
 30
0.0
 40
0.0100000135768572
100
AcDbArc
 50
90.0001667163
 51
179.9999383248
  0
ARC
  5
D8
330
1F
100
AcDbEntity
  8
0
  6
Continuous
 62
     7
370
    25
100
AcDbCircle
 10
9.6304662469
 20
16.2578490933
 30
0.0
 40
0.0100000135768565
100
AcDbArc
 50
0.0000616752
 51
89.9998332837
  0
LINE
  5
D9
330
1F
100
AcDbEntity
  8
0
  6
Continuous
 62
     7
370
    25
100
AcDbLine
 10
9.6404662604
 20
15.5856507377
 30
0.0
 11
9.6404662604
 21
16.257849104
 31
0.0
  0
LINE
  5
DA
330
1F
100
AcDbEntity
  8
0
  6
Continuous
 62
     7
370
    25
100
AcDbLine
 10
9.6404662604
 20
14.3878491281
 30
0.0
 11
9.6404662604
 21
15.4498490931
 31
0.0
  0
LINE
  5
DB
330
1F
100
AcDbEntity
  8
0
  6
Continuous
 62
     7
370
    25
100
AcDbLine
 10
8.650466257
 20
15.4498490931
 30
0.0
 11
8.650466257
 21
14.3878491281
 31
0.0
  0
LINE
  5
DC
330
1F
100
AcDbEntity
  8
0
  6
Continuous
 62
     7
370
    25
100
AcDbLine
 10
8.650466257
 20
16.257849104
 30
0.0
 11
8.650466257
 21
15.5856507377
 31
0.0
  0
LINE
  5
DD
330
1F
100
AcDbEntity
  8
0
  6
Continuous
 62
     7
370
    25
100
AcDbLine
 10
6.307971011
 20
13.5423898016
 30
0.0
 11
6.2290579227
 21
13.4634767132
 31
0.0
  0
LINE
  5
DE
330
1F
100
AcDbEntity
  8
0
  6
Continuous
 62
     7
370
    25
100
AcDbLine
 10
6.1393969318
 20
13.373815429
 30
0.0
 11
3.4392390575
 21
10.6736572614
 31
0.0
  0
LINE
  5
DF
330
1F
100
AcDbEntity
  8
0
  6
Continuous
 62
     7
370
    25
100
AcDbLine
 10
6.9323463849
 20
12.7666934292
 30
0.0
 11
7.0080068842
 21
12.8423540751
 31
0.0
  0
LINE
  5
E0
330
1F
100
AcDbEntity
  8
0
  6
Continuous
 62
     7
370
    25
100
AcDbLine
 10
4.8393102171
 20
10.6736572614
 30
0.0
 11
6.8361799225
 21
12.6705269668
 31
0.0
  0
LINE
  5
E1
330
1F
100
AcDbEntity
  8
0
  6
Continuous
 62
     7
370
    25
100
AcDbLine
 10
11.454752595
 20
12.6705269668
 30
0.0
 11
13.4516223003
 21
10.6736572614
 31
0.0
  0
LINE
  5
E2
330
1F
100
AcDbEntity
  8
0
  6
Continuous
 62
     7
370
    25
100
AcDbLine
 10
11.2829256333
 20
12.8423540751
 30
0.0
 11
11.3585861326
 21
12.7666934292
 31
0.0
  0
LINE
  5
E3
330
1F
100
AcDbEntity
  8
0
  6
Continuous
 62
     7
370
    25
100
AcDbLine
 10
14.8516934599
 20
10.6736572614
 30
0.0
 11
11.9829615064
 21
13.5423898016
 31
0.0
  0
ARC
  5
E4
330
1F
100
AcDbEntity
  8
0
  6
Continuous
 62
     7
370
    25
100
AcDbCircle
 10
7.1034661412
 20
13.6378490586
 30
0.0
 40
0.4950000092533801
100
AcDbArc
 50
315.0000218599
 51
134.9999781401
  0
LINE
  5
E5
330
1F
100
AcDbEntity
  8
0
  6
Continuous
 62
     7
370
    25
100
AcDbLine
 10
7.0150778958
 20
12.8494250868
 30
0.0
 11
7.453484138
 21
13.2878313289
 31
0.0
  0
LINE
  5
E6
330
1F
100
AcDbEntity
  8
0
  6
Continuous
 62
     7
370
    25
100
AcDbLine
 10
6.7534484115
 20
13.9878670554
 30
0.0
 11
6.315042316
 21
13.5494608132
 31
0.0
  0
ARC
  5
E7
330
1F
100
AcDbEntity
  8
0
  6
Continuous
 62
     7
370
    25
100
AcDbCircle
 10
7.0080068108
 20
12.8564963077
 30
0.0
 40
0.0100001203705308
100
AcDbArc
 50
225.0005505451
 51
314.9994494549
  0
ARC
  5
E8
330
1F
100
AcDbEntity
  8
0
  6
Continuous
 62
     7
370
    25
100
AcDbCircle
 10
6.3221127125
 20
13.5423896549
 30
0.0
 40
0.0099995892957031
100
AcDbArc
 50
134.9969133079
 51
225.0030866921
  0
ARC
  5
E9
330
1F
100
AcDbEntity
  8
0
  6
Continuous
 62
     7
370
    25
100
AcDbCircle
 10
11.968819805
 20
13.5423896549
 30
0.0
 40
0.0099995892957012
100
AcDbArc
 50
314.9969133079
 51
45.0030866921
  0
ARC
  5
EA
330
1F
100
AcDbEntity
  8
0
  6
Continuous
 62
     7
370
    25
100
AcDbCircle
 10
11.2829257066
 20
12.8564963077
 30
0.0
 40
0.0100001203705308
100
AcDbArc
 50
225.0005505451
 51
314.9994494549
  0
LINE
  5
EB
330
1F
100
AcDbEntity
  8
0
  6
Continuous
 62
     7
370
    25
100
AcDbLine
 10
11.9758902014
 20
13.5494608132
 30
0.0
 11
11.5819821119
 21
13.9433689028
 31
0.0
  0
LINE
  5
EC
330
1F
100
AcDbEntity
  8
0
  6
Continuous
 62
     7
370
    25
100
AcDbLine
 10
10.982430518
 20
13.1428491905
 30
0.0
 11
11.2758546216
 21
12.8494250868
 31
0.0
  0
LINE
  5
ED
330
1F
100
AcDbEntity
  8
0
  6
Continuous
 62
     7
370
    25
100
AcDbLine
 10
7.7534662192
 20
14.1328490472
 30
0.0
 11
7.0983662937
 21
14.1328490472
 31
0.0
  0
LINE
  5
EE
330
1F
100
AcDbEntity
  8
0
  6
Continuous
 62
     7
370
    25
100
AcDbLine
 10
7.3085019995
 20
13.1428491905
 30
0.0
 11
7.7534662192
 21
13.1428491905
 31
0.0
  0
ARC
  5
EF
330
1F
100
AcDbEntity
  8
0
  6
Continuous
 62
     7
370
    25
100
AcDbCircle
 10
7.0983659208
 20
13.6379497817
 30
0.0
 40
0.4948992655414313
100
AcDbArc
 50
89.9999568316
 51
141.8928615145
  0
LINE
  5
F0
330
1F
100
AcDbEntity
  8
0
  6
Continuous
 62
     7
370
    25
100
AcDbLine
 10
10.5374662982
 20
13.1428491905
 30
0.0
 11
11.1925662238
 21
13.1428491905
 31
0.0
  0
LINE
  5
F1
330
1F
100
AcDbEntity
  8
0
  6
Continuous
 62
     7
370
    25
100
AcDbLine
 10
11.1925662238
 20
14.1328490472
 30
0.0
 11
10.5374662982
 21
14.1328490472
 31
0.0
  0
ARC
  5
F2
330
1F
100
AcDbEntity
  8
0
  6
Continuous
 62
     7
370
    25
100
AcDbCircle
 10
11.1925666159
 20
13.6379494632
 30
0.0
 40
0.4948995840453553
100
AcDbArc
 50
359.9999545985
 51
90.0000454015
  0
ARC
  5
F3
330
1F
100
AcDbEntity
  8
0
  6
Continuous
 62
     7
370
    25
100
AcDbCircle
 10
11.1925663656
 20
13.6377490249
 30
0.0
 40
0.4948998344176559
100
AcDbArc
 50
269.9999835847
 51
359.9999994355
  0
LINE
  5
F4
330
1F
100
AcDbEntity
  8
0
  6
Continuous
 62
     7
370
    25
100
AcDbLine
 10
10.4292624549
 20
14.1354529371
 30
0.0
 11
10.4268662426
 21
14.1378491495
 31
0.0
  0
LINE
  5
F5
330
1F
100
AcDbEntity
  8
0
  6
Continuous
 62
     7
370
    25
100
AcDbLine
 10
10.300066234
 20
14.1378491495
 30
0.0
 11
10.2976739817
 21
14.1354567504
 31
0.0
  0
LINE
  5
F6
330
1F
100
AcDbEntity
  8
0
  6
Continuous
 62
     7
370
    25
100
AcDbLine
 10
7.9932624224
 20
14.1354529371
 30
0.0
 11
7.9908662834
 21
14.1378491495
 31
0.0
  0
LINE
  5
F7
330
1F
100
AcDbEntity
  8
0
  6
Continuous
 62
     7
370
    25
100
AcDbLine
 10
7.8640662749
 20
14.1378491495
 30
0.0
 11
7.8616740225
 21
14.1354567504
 31
0.0
  0
LINE
  5
F8
330
1F
100
AcDbEntity
  8
0
  6
Continuous
 62
     7
370
    25
100
AcDbLine
 10
9.6404662604
 20
14.1378491495
 30
0.0
 11
9.6404662604
 21
14.3878491281
 31
0.0
  0
LINE
  5
F9
330
1F
100
AcDbEntity
  8
0
  6
Continuous
 62
     7
370
    25
100
AcDbLine
 10
8.650466257
 20
14.3878491281
 30
0.0
 11
8.650466257
 21
14.1378491495
 31
0.0
  0
LINE
  5
FA
330
1F
100
AcDbEntity
  8
0
  6
Continuous
 62
     7
370
    25
100
AcDbLine
 10
10.5084662332
 20
13.1378490882
 30
0.0
 11
10.5374662982
 21
13.1668491532
 31
0.0
  0
LINE
  5
FB
330
1F
100
AcDbEntity
  8
0
  6
Continuous
 62
     7
370
    25
100
AcDbLine
 10
10.5374662982
 20
14.1088490845
 30
0.0
 11
10.5084662332
 21
14.1378491495
 31
0.0
  0
LINE
  5
FC
330
1F
100
AcDbEntity
  8
0
  6
Continuous
 62
     7
370
    25
100
AcDbLine
 10
7.7824662842
 20
14.1378491495
 30
0.0
 11
7.7534662192
 21
14.1088490845
 31
0.0
  0
LINE
  5
FD
330
1F
100
AcDbEntity
  8
0
  6
Continuous
 62
     7
370
    25
100
AcDbLine
 10
7.7534662192
 20
13.1668491532
 30
0.0
 11
7.7824662842
 21
13.1378490882
 31
0.0
  0
LINE
  5
FE
330
1F
100
AcDbEntity
  8
0
  6
Continuous
 62
     7
370
    25
100
AcDbLine
 10
7.8454662231
 20
14.1378491495
 30
0.0
 11
7.7824662842
 21
14.1378491495
 31
0.0
  0
LINE
  5
FF
330
1F
100
AcDbEntity
  8
0
  6
Continuous
 62
     7
370
    25
100
AcDbLine
 10
8.650466257
 20
14.1378491495
 30
0.0
 11
8.0092394445
 21
14.1378491495
 31
0.0
  0
LINE
  5
100
330
1F
100
AcDbEntity
  8
0
  6
Continuous
 62
     7
370
    25
100
AcDbLine
 10
10.2814662556
 20
14.1378491495
 30
0.0
 11
9.6404662604
 21
14.1378491495
 31
0.0
  0
LINE
  5
101
330
1F
100
AcDbEntity
  8
0
  6
Continuous
 62
     7
370
    25
100
AcDbLine
 10
10.5084662332
 20
14.1378491495
 30
0.0
 11
10.4452394036
 21
14.1378491495
 31
0.0
  0
LINE
  5
102
330
1F
100
AcDbEntity
  8
0
  6
Continuous
 62
     7
370
    25
100
AcDbLine
 10
7.7824662842
 20
13.1378490882
 30
0.0
 11
10.5084662332
 21
13.1378490882
 31
0.0
  0
LINE
  5
103
330
1F
100
AcDbEntity
  8
0
  6
Continuous
 62
     7
370
    25
100
AcDbLine
 10
9.2553319354
 20
16.2678491069
 30
0.0
 11
9.6454662527
 21
16.2678491069
 31
0.0
  0
LINE
  5
104
330
1F
100
AcDbEntity
  8
0
  6
Continuous
 62
     7
370
    25
100
AcDbLine
 10
8.6454662648
 20
16.2678491069
 30
0.0
 11
9.2553319354
 21
16.2678491069
 31
0.0
  0
LINE
  5
105
330
1F
100
AcDbEntity
  8
0
  6
Continuous
 62
     7
370
    25
100
AcDbLine
 10
9.6404662604
 20
14.3878491281
 30
0.0
 11
8.650466257
 21
14.3878491281
 31
0.0
  0
SPLINE
  5
106
330
1F
100
AcDbEntity
  8
0
  6
Continuous
 62
     7
370
    25
100
AcDbSpline
210
0.0
220
0.0
230
1.0
 70
     8
 71
     3
 72
    26
 73
    22
 74
     0
 42
0.00000001
 43
0.00000001
 40
0.0
 40
0.0
 40
0.0
 40
0.0
 40
0.0068738010736441
 40
0.0280795308866839
 40
0.0617769970823753
 40
0.1088682445858866
 40
0.1657607565054111
 40
0.2338215866648871
 40
0.3076886913102666
 40
0.3892796347139659
 40
0.4711666951472243
 40
0.5562926879276301
 40
0.6369254329942919
 40
0.7160294948192597
 40
0.7872942692362526
 40
0.8525047476700184
 40
0.9066833717178971
 40
0.9507635172190834
 40
0.9809967244654129
 40
0.99817277481228
 40
1.0
 40
1.0
 40
1.0
 40
1.0
 10
9.64046626044399
 20
15.44984909313209
 30
0.0
 10
9.640423951541088
 20
15.4501583462367
 30
0.0
 10
9.640251119343434
 20
15.45142164757604
 30
0.0
 10
9.639882557118513
 20
15.45420259154996
 30
0.0
 10
9.639306393141796
 20
15.45879815754332
 30
0.0
 10
9.638595656507652
 20
15.46500979160033
 30
0.0
 10
9.637815836558941
 20
15.47278348332455
 30
0.0
 10
9.637066762089768
 20
15.48178115674135
 30
0.0
 10
9.636421009104334
 20
15.49191109472021
 30
0.0
 10
9.635965834682949
 20
15.50268005947063
 30
0.0
 10
9.635744659170028
 20
15.51396775947983
 30
0.0
 10
9.635785289890796
 20
15.52521415034539
 30
0.0
 10
9.636081399119494
 20
15.53633014408491
 30
0.0
 10
9.636592375842794
 20
15.54680813403069
 30
0.0
 10
9.637271283638096
 20
15.5565744624901
 30
0.0
 10
9.638032260453134
 20
15.5651988535579
 30
0.0
 10
9.638803989365035
 20
15.57258189464827
 30
0.0
 10
9.639486603092354
 20
15.57837668348283
 30
0.0
 10
9.640013693289399
 20
15.58249761290171
 30
0.0
 10
9.64031067666127
 20
15.58471359863801
 30
0.0
 10
9.640427826435655
 20
15.58556853302188
 30
0.0
 10
9.640439090757857
 20
15.58565073767324
 30
0.0
  0
SPLINE
  5
107
330
1F
100
AcDbEntity
  8
0
  6
Continuous
 62
     7
370
    25
100
AcDbSpline
210
0.0
220
0.0
230
1.0
 70
     8
 71
     3
 72
    26
 73
    22
 74
     0
 42
0.00000001
 43
0.00000001
 40
0.0
 40
0.0
 40
0.0
 40
0.0
 40
0.0008141743297294
 40
0.0124178252874478
 40
0.0371344423831484
 40
0.0756254442587719
 40
0.1249859775292205
 40
0.1863788716565037
 40
0.2551959370825851
 40
0.3330522757720815
 40
0.4131381457862254
 40
0.4980728926272944
 40
0.5799737518941327
 40
0.6619741366069972
 40
0.737214306309119
 40
0.8079257397066502
 40
0.86874869988839
 40
0.9207984294693832
 40
0.9598318953817242
 40
0.9866722940333017
 40
0.9999999999999999
 40
0.9999999999999999
 40
0.9999999999999999
 40
0.9999999999999999
 10
8.650493426694643
 20
15.58565073767324
 30
0.0
 10
8.650488058790435
 20
15.58569004434759
 30
0.0
 10
8.650406187262206
 20
15.5862895515992
 30
0.0
 10
8.65090608223886
 20
15.58262293196354
 30
0.0
 10
8.651139175579507
 20
15.58076890722219
 30
0.0
 10
8.651865263407363
 20
15.57492164043854
 30
0.0
 10
8.652567998707529
 20
15.56848098682394
 30
0.0
 10
8.653357944751448
 20
15.5602388553328
 30
0.0
 10
8.654083643635323
 20
15.55083946601299
 30
0.0
 10
8.65467438195556
 20
15.54053030980502
 30
0.0
 10
8.655063939883345
 20
15.52949278372861
 30
0.0
 10
8.655203119832388
 20
15.51826084479119
 30
0.0
 10
8.655080400581879
 20
15.50694292047787
 30
0.0
 10
8.654714770832353
 20
15.49607111797403
 30
0.0
 10
8.654140890171698
 20
15.48571829351446
 30
0.0
 10
8.653432192500986
 20
15.4763396515005
 30
0.0
 10
8.652653922340644
 20
15.46802562394399
 30
0.0
 10
8.651905442397513
 20
15.46115686394011
 30
0.0
 10
8.651259013230609
 20
15.45583232328635
 30
0.0
 10
8.650794846357368
 20
15.45225996949097
 30
0.0
 10
8.650548120282988
 20
15.45044972803942
 30
0.0
 10
8.65046625700851
 20
15.44984909313209
 30
0.0
  0
LINE
  5
108
330
1F
100
AcDbEntity
  8
0
  6
Continuous
 62
     7
370
    25
100
AcDbLine
 10
3.4392390575
 20
10.6736572614
 30
0.0
 11
4.8393102171
 21
10.6736572614
 31
0.0
  0
LWPOLYLINE
  5
109
330
1F
100
AcDbEntity
  8
0
  6
Continuous
 62
     7
370
    25
100
AcDbPolyline
 90
       55
 70
   128
 43
0.0
 10
6.307971011
 20
13.5423898016
 10
6.3081247159
 20
13.5422360967
 10
6.3093537684
 20
13.5410070442
 10
6.3118071801
 20
13.5385536326
 10
6.3154767377
 20
13.534884075
 10
6.3203492414
 20
13.5300115713
 10
6.3264079714
 20
13.5239528412
 10
6.3336312213
 20
13.5167298847
 10
6.3419937647
 20
13.508367048
 10
6.3514659753
 20
13.4988948374
 10
6.3620152934
 20
13.4883455193
 10
6.3736041728
 20
13.4767566398
 10
6.3861918408
 20
13.4641689719
 10
6.3997342977
 20
13.450626515
 10
6.4141837307
 20
13.4361770819
 10
6.4294896873
 20
13.4208711254
 10
6.4455981945
 20
13.4047626181
 10
6.4624526398
 20
13.3879081728
 10
6.4799940638
 20
13.3703667488
 10
6.498160574
 20
13.3522002387
 10
6.5168885176
 20
13.333472295
 10
6.5361121889
 20
13.3142486238
 10
6.5557638285
 20
13.2945969841
 10
6.5757747974
 20
13.2745860153
 10
6.5960741095
 20
13.2542867031
 10
6.6165913658
 20
13.2337694468
 10
6.6372538205
 20
13.2131069922
 10
6.6579890209
 20
13.1923717917
 10
6.6787242214
 20
13.1716365912
 10
6.699386676
 20
13.1509741366
 10
6.7199037857
 20
13.1304571736
 10
6.7402032445
 20
13.1101575681
 10
6.7602140667
 20
13.0901465993
 10
6.7798657063
 20
13.0704949596
 10
6.7990893776
 20
13.0512712884
 10
6.8178173213
 20
13.0325433447
 10
6.8359839781
 20
13.0143768346
 10
6.8535254021
 20
12.9968354106
 10
6.8703798474
 20
12.9799809653
 10
6.8864883546
 20
12.963872458
 10
6.9017943111
 20
12.9485665015
 10
6.9162437442
 20
12.9341170684
 10
6.9297862011
 20
12.9205746115
 10
6.942373869
 20
12.9079869436
 10
6.9539627485
 20
12.8963980641
 10
6.96451192
 20
12.8858490393
 10
6.9739842772
 20
12.8763765354
 10
6.9823469673
 20
12.868013992
 10
6.9895700705
 20
12.8607907422
 10
6.9956286538
 20
12.8547320121
 10
7.0005013042
 20
12.8498595084
 10
7.0041707152
 20
12.8461902442
 10
7.0066242735
 20
12.8437365392
 10
7.0078531793
 20
12.84250778
 10
7.0080068842
 20
12.8423540751
  0
SPLINE
  5
10A
330
1F
100
AcDbEntity
  8
0
  6
Continuous
 62
     7
370
    25
100
AcDbSpline
210
0.0
220
0.0
230
1.0
 70
     8
 71
     3
 72
    25
 73
    21
 74
     0
 42
0.00000001
 43
0.00000001
 40
0.0
 40
0.0
 40
0.0
 40
0.0
 40
0.0066772007167794
 40
0.0272568479356857
 40
0.0604590814316594
 40
0.1069976772702367
 40
0.1634680859863424
 40
0.2311352648036781
 40
0.3046838898981316
 40
0.3860109832790798
 40
0.4999988527548609
 40
0.5820544958410551
 40
0.6641527966576821
 40
0.7394132702270841
 40
0.8100612756020527
 40
0.8705922670678274
 40
0.9222832670012636
 40
0.9609126913062844
 40
0.98730303567586
 40
0.9999999999999999
 40
0.9999999999999999
 40
0.9999999999999999
 40
0.9999999999999999
 10
6.836179922465733
 20
12.67052696676513
 30
0.0
 10
6.836363508947276
 20
12.67076883454311
 30
0.0
 10
6.837112923113887
 20
12.67175615745348
 30
0.0
 10
6.838784858639491
 20
12.67393883014201
 30
0.0
 10
6.84158319149307
 20
12.67754203385065
 30
0.0
 10
6.845435434518062
 20
12.68239299450251
 30
0.0
 10
6.850345324627629
 20
12.68840469678144
 30
0.0
 10
6.856149333361404
 20
12.69527068035596
 30
0.0
 10
6.862830812027473
 20
12.70287284093659
 30
0.0
 10
6.871097852556636
 20
12.71188247796608
 30
0.0
 10
6.879876019849535
 20
12.72094376626965
 30
0.0
 10
6.888922451088217
 20
12.72978556239329
 30
0.0
 10
6.896880640224127
 20
12.73721708384882
 30
0.0
 10
6.904611846672384
 20
12.74412761620102
 30
0.0
 10
6.911735719903016
 20
12.75024285562486
 30
0.0
 10
6.918141757378668
 20
12.75554636927585
 30
0.0
 10
6.923491519221319
 20
12.75984101995588
 30
0.0
 10
6.927670724383024
 20
12.76311284881425
 30
0.0
 10
6.930471354227913
 20
12.76526865845905
 30
0.0
 10
6.931886646892583
 20
12.76634409023703
 30
0.0
 10
6.932346384875886
 20
12.76669342917529
 30
0.0
  0
LINE
  5
10B
330
1F
100
AcDbEntity
  8
0
  6
Continuous
 62
     7
370
    25
100
AcDbLine
 10
13.4516223003
 20
10.6736572614
 30
0.0
 11
14.8516934599
 21
10.6736572614
 31
0.0
  0
LWPOLYLINE
  5
10C
330
1F
100
AcDbEntity
  8
0
  6
Continuous
 62
     7
370
    25
100
AcDbPolyline
 90
       28
 70
   128
 43
0.0
 10
11.6329434965
 20
13.1923717917
 10
11.653678697
 20
13.2131069922
 10
11.6743411516
 20
13.2337694468
 10
11.6948584079
 20
13.2542867031
 10
11.7151577201
 20
13.2745860153
 10
11.7351686889
 20
13.2945969841
 10
11.7548203286
 20
13.3142486238
 10
11.7740439998
 20
13.333472295
 10
11.7927719435
 20
13.3522002387
 10
11.8109384536
 20
13.3703667488
 10
11.8284798777
 20
13.3879081728
 10
11.845334323
 20
13.4047626181
 10
11.8614428302
 20
13.4208711254
 10
11.8767487867
 20
13.4361770819
 10
11.8911982198
 20
13.450626515
 10
11.9047406767
 20
13.4641689719
 10
11.9173283446
 20
13.4767566398
 10
11.9289172241
 20
13.4883455193
 10
11.9394665422
 20
13.4988948374
 10
11.9489387528
 20
13.508367048
 10
11.9573012962
 20
13.5167298847
 10
11.9645245461
 20
13.5239528412
 10
11.9705832761
 20
13.5300115713
 10
11.9754557798
 20
13.534884075
 10
11.9791253374
 20
13.5385536326
 10
11.981578749
 20
13.5410070442
 10
11.9828078015
 20
13.5422360967
 10
11.9829615064
 20
13.5423898016
  0
LWPOLYLINE
  5
10D
330
1F
100
AcDbEntity
  8
0
  6
Continuous
 62
     7
370
    25
100
AcDbPolyline
 90
       28
 70
   128
 43
0.0
 10
11.2829256333
 20
12.8423540751
 10
11.2830793382
 20
12.84250778
 10
11.284308244
 20
12.8437365392
 10
11.2867618023
 20
12.8461902442
 10
11.2904312132
 20
12.8498595084
 10
11.2953038636
 20
12.8547320121
 10
11.301362447
 20
12.8607907422
 10
11.3085855502
 20
12.868013992
 10
11.3169482402
 20
12.8763765354
 10
11.3264205975
 20
12.8858490393
 10
11.336969769
 20
12.8963980641
 10
11.3485586484
 20
12.9079869436
 10
11.3611463163
 20
12.9205746115
 10
11.3746887732
 20
12.9341170684
 10
11.3891382063
 20
12.9485665015
 10
11.4044441628
 20
12.963872458
 10
11.4205526701
 20
12.9799809653
 10
11.4374071154
 20
12.9968354106
 10
11.4549485394
 20
13.0143768346
 10
11.4731151962
 20
13.0325433447
 10
11.4918431398
 20
13.0512712884
 10
11.5110668111
 20
13.0704949596
 10
11.5307184508
 20
13.0901465993
 10
11.5507292729
 20
13.1101575681
 10
11.5710287318
 20
13.1304571736
 10
11.5915458414
 20
13.1509741366
 10
11.612208296
 20
13.1716365912
 10
11.6329434965
 20
13.1923717917
  0
ARC
  5
10E
330
1F
100
AcDbEntity
  8
0
  6
Continuous
 62
     7
370
    25
100
AcDbCircle
 10
11.0587536147
 20
12.3706944489
 30
0.0
 40
0.4967038667070735
100
AcDbArc
 50
37.1313583887
 51
52.8686416113
  0
LINE
  5
10F
330
1F
100
AcDbEntity
  8
0
  6
Continuous
 62
     7
370
    25
100
AcDbLine
 10
11.6124869595
 20
13.8998507655
 30
0.0
 11
11.9022086526
 21
13.6101293657
 31
0.0
  0
LINE
  5
110
330
1F
100
AcDbEntity
  8
0
  6
Continuous
 62
     7
370
    25
100
AcDbLine
 10
11.2151860691
 20
12.9231066356
 30
0.0
 11
10.995443661
 21
13.1428491905
 31
0.0
  0
LWPOLYLINE
  5
111
330
1F
100
AcDbEntity
  8
0
  6
Continuous
 62
     7
370
    25
100
AcDbPolyline
 90
       47
 70
   128
 43
0.0
 10
11.9022086526
 20
13.6101293657
 10
11.8975711062
 20
13.6054918193
 10
11.8917182938
 20
13.5996390069
 10
11.8846710419
 20
13.592591755
 10
11.8764545768
 20
13.5843752899
 10
11.8670982315
 20
13.5750189447
 10
11.8566357391
 20
13.5645564522
 10
11.8451046456
 20
13.5530253587
 10
11.8325460174
 20
13.5404667305
 10
11.8190053204
 20
13.5269260336
 10
11.8045309543
 20
13.5124516674
 10
11.7891748384
 20
13.4970955515
 10
11.7729921187
 20
13.4809128318
 10
11.7560405811
 20
13.4639612943
 10
11.7383812385
 20
13.4463019516
 10
11.7200774499
 20
13.4279981631
 10
11.7011949214
 20
13.4091156345
 10
11.6818011188
 20
13.3897218319
 10
11.6619658546
 20
13.3698865677
 10
11.6417601147
 20
13.3496808278
 10
11.6212566449
 20
13.329177358
 10
11.600528631
 20
13.3084491974
 10
11.5796505788
 20
13.2875711453
 10
11.5586972875
 20
13.2666180007
 10
11.5377441429
 20
13.2456648561
 10
11.5168660908
 20
13.2247868039
 10
11.4961380769
 20
13.2040586434
 10
11.4756344604
 20
13.1835551736
 10
11.4554287205
 20
13.1633494336
 10
11.4355934563
 20
13.1435141694
 10
11.4161996537
 20
13.1241203668
 10
11.3973171252
 20
13.1052378383
 10
11.3790133366
 20
13.0869340497
 10
11.3613539939
 20
13.0692747071
 10
11.3444026031
 20
13.0523231696
 10
11.3282197367
 20
13.0361404498
 10
11.3128636208
 20
13.0207843339
 10
11.2983892546
 20
13.0063099678
 10
11.2848485577
 20
12.9927692709
 10
11.2722900761
 20
12.9802109359
 10
11.2607589827
 20
12.9686798425
 10
11.2502964902
 20
12.95821735
 10
11.240940145
 20
12.9488610048
 10
11.2327236799
 20
12.9406442463
 10
11.2256762813
 20
12.9335969944
 10
11.2198234689
 20
12.927744182
 10
11.2151860691
 20
12.9231066356
  0
LINE
  5
112
330
1F
100
AcDbEntity
  8
0
  6
Continuous
 62
     7
370
    25
100
AcDbLine
 10
7.6244663094
 20
13.1520506575
 30
0.0
 11
7.3177036132
 21
13.1520506575
 31
0.0
  0
LWPOLYLINE
  5
113
330
1F
100
AcDbEntity
  8
0
  6
Continuous
 62
     7
370
    25
100
AcDbPolyline
 90
       47
 70
   128
 43
0.0
 10
7.6244663094
 20
14.1236474335
 10
7.6295640906
 20
14.1170891626
 10
7.6345835526
 20
14.1088119782
 10
7.639506509
 20
14.0988455067
 10
7.6443156535
 20
14.0872255343
 10
7.6489933861
 20
14.0739937138
 10
7.6535231338
 20
14.0591975647
 10
7.65788847
 20
14.0428900331
 10
7.6620738483
 20
14.0251297849
 10
7.6660643089
 20
14.0059801795
 10
7.6698454786
 20
13.9855104426
 10
7.6734038641
 20
13.9637937602
 10
7.6767265591
 20
13.9409075712
 10
7.6798016835
 20
13.9169345948
 10
7.6826183843
 20
13.8919607767
 10
7.6851662482
 20
13.866075289
 10
7.6874364753
 20
13.8393711175
 10
7.6894205591
 20
13.811944181
 10
7.6911117529
 20
13.7838930384
 10
7.6925037501
 20
13.7553177152
 10
7.6935915642
 20
13.7263211701
 10
7.6943715286
 20
13.6970075354
 10
7.6948405631
 20
13.6674815299
 10
7.6949970547
 20
13.6378490455
 10
7.6948405631
 20
13.6082168545
 10
7.6943715286
 20
13.5786908489
 10
7.6935915642
 20
13.5493769209
 10
7.6925037501
 20
13.5203803759
 10
7.6911117529
 20
13.491805346
 10
7.6894205591
 20
13.46375391
 10
7.6874364753
 20
13.4363269735
 10
7.6851662482
 20
13.409622802
 10
7.6826183843
 20
13.3837376077
 10
7.6798016835
 20
13.3587634962
 10
7.6767265591
 20
13.3347905198
 10
7.6734038641
 20
13.3119046242
 10
7.6698454786
 20
13.2901876484
 10
7.6660643089
 20
13.2697179115
 10
7.6620738483
 20
13.2505684527
 10
7.65788847
 20
13.2328082046
 10
7.6535231338
 20
13.2165008196
 10
7.6489933861
 20
13.2017043772
 10
7.6443156535
 20
13.1884725567
 10
7.639506509
 20
13.1768525843
 10
7.6345835526
 20
13.1668861128
 10
7.6295640906
 20
13.1586089284
 10
7.6244663094
 20
13.1520506575
  0
LINE
  5
114
330
1F
100
AcDbEntity
  8
0
  6
Continuous
 62
     7
370
    25
100
AcDbLine
 10
7.1984663106
 20
14.1236474335
 30
0.0
 11
7.6244663094
 21
14.1236474335
 31
0.0
  0
LINE
  5
115
330
1F
100
AcDbEntity
  8
0
  6
Continuous
 62
     7
370
    25
100
AcDbLine
 10
7.7534662192
 20
14.1328490472
 30
0.0
 11
7.7534662192
 21
13.1428491905
 31
0.0
  0
LINE
  5
116
330
1F
100
AcDbEntity
  8
0
  6
Continuous
 62
     7
370
    25
100
AcDbLine
 10
7.6244663094
 20
13.1520506575
 30
0.0
 11
7.6244663094
 21
14.1236474335
 31
0.0
  0
SPLINE
  5
117
330
1F
100
AcDbEntity
  8
0
  6
Continuous
 62
     7
370
    25
100
AcDbSpline
210
0.0
220
0.0
230
1.0
 70
     8
 71
     3
 72
    27
 73
    23
 74
     0
 42
0.00000001
 43
0.00000001
 40
0.0
 40
0.0
 40
0.0
 40
0.0
 40
0.0508094534059606
 40
0.1015043066751212
 40
0.1518860868119825
 40
0.2020629653308663
 40
0.253790498298896
 40
0.3055272679630128
 40
0.3590610944077312
 40
0.4128253187237225
 40
0.4652074704287049
 40
0.5176844476696709
 40
0.5679094314789951
 40
0.6179792204082291
 40
0.6681891895551246
 40
0.7182202547401846
 40
0.7704660347978526
 40
0.8227718902459252
 40
0.8763384582794789
 40
0.9301475961147264
 40
0.9650557482463707
 40
0.9999999999999999
 40
0.9999999999999999
 40
0.9999999999999999
 40
0.9999999999999999
 10
11.1925662237861
 20
13.8017697385521
 30
0.0
 10
11.18366009182058
 20
13.80161803708839
 30
0.0
 10
11.16586791556758
 20
13.80131497632189
 30
0.0
 10
11.13976482637377
 20
13.79547227858226
 30
0.0
 10
11.115050849486
 20
13.78577124115428
 30
0.0
 10
11.09202565574324
 20
13.7721262324222
 30
0.0
 10
11.07138328762238
 20
13.754724208667
 30
0.0
 10
11.05345280818518
 20
13.73375227566106
 30
0.0
 10
11.03918577081012
 20
13.70970862245486
 30
0.0
 10
11.02910639449416
 20
13.68350614117165
 30
0.0
 10
11.02375013552276
 20
13.65614636119257
 30
0.0
 10
11.02295100714292
 20
13.62889863782107
 30
0.0
 10
11.02666936366029
 20
13.60231620975059
 30
0.0
 10
11.03438658597348
 20
13.57702541199468
 30
0.0
 10
11.04611053909501
 20
13.55336044312305
 30
0.0
 10
11.06162424813001
 20
13.53152030599889
 30
0.0
 10
11.08081656474288
 20
13.51228717934488
 30
0.0
 10
11.10340407380411
 20
13.49610016806511
 30
0.0
 10
11.12869242407924
 20
13.48389917108753
 30
0.0
 10
11.15273436747867
 20
13.47702574810159
 30
0.0
 10
11.17421388718028
 20
13.4739598347951
 30
0.0
 10
11.1864466709558
 20
13.47393885019359
 30
0.0
 10
11.1925662237861
 20
13.47392835247043
 30
0.0
  0
LINE
  5
118
330
1F
100
AcDbEntity
  8
0
  6
Continuous
 62
     7
370
    25
100
AcDbLine
 10
10.5374662982
 20
13.6378490455
 30
0.0
 11
10.5374662982
 21
14.1328490472
 31
0.0
  0
LINE
  5
119
330
1F
100
AcDbEntity
  8
0
  6
Continuous
 62
     7
370
    25
100
AcDbLine
 10
10.5374662982
 20
13.1428491905
 30
0.0
 11
10.5374662982
 21
13.6378490455
 31
0.0
  0
LINE
  5
11A
330
1F
100
AcDbEntity
  8
0
  6
Continuous
 62
     7
370
    25
100
AcDbLine
 10
11.6874662
 20
13.637949071
 30
0.0
 11
11.6874662
 21
13.63774902
 31
0.0
  0
SPLINE
  5
11B
330
1F
100
AcDbEntity
  8
0
  6
Continuous
 62
     7
370
    25
100
AcDbSpline
210
0.0
220
0.0
230
1.0
 70
     8
 71
     3
 72
    26
 73
    22
 74
     0
 42
0.00000001
 43
0.00000001
 40
0.0
 40
0.0
 40
0.0
 40
0.0
 40
0.054772315412299
 40
0.1095446581347303
 40
0.1643253829546933
 40
0.2191065160728513
 40
0.273886548338333
 40
0.3286671080467802
 40
0.3834447947530775
 40
0.4382234168058146
 40
0.4929993298728853
 40
0.5477750747385048
 40
0.6025490537594759
 40
0.6573234845425528
 40
0.7120978367007251
 40
0.7668719584222016
 40
0.8216477128274419
 40
0.8764231850479931
 40
0.931201377293818
 40
0.9859791721988286
 40
1.0
 40
1.0
 40
1.0
 40
1.0
 10
11.1925662237861
 20
13.8017697385521
 30
0.0
 10
11.20176612252512
 20
13.80102395895381
 30
0.0
 10
11.22016592459033
 20
13.79953239938538
 30
0.0
 10
11.24681842960273
 20
13.79152786265075
 30
0.0
 10
11.27176363721062
 20
13.77941171519045
 30
0.0
 10
11.29436291643665
 20
13.76326694851726
 30
0.0
 10
11.31386607138337
 20
13.74351325060646
 30
0.0
 10
11.32985368229027
 20
13.72081508455758
 30
0.0
 10
11.34171636879354
 20
13.695715430373
 30
0.0
 10
11.34928955178519
 20
13.66900692175216
 30
0.0
 10
11.35217491476991
 20
13.6413963368118
 30
0.0
 10
11.35048108823946
 20
13.61368783043597
 30
0.0
 10
11.34406491319248
 20
13.58667957319369
 30
0.0
 10
11.33329573997692
 20
13.56109387650737
 30
0.0
 10
11.31830219866401
 20
13.53773173264406
 30
0.0
 10
11.2996710821244
 20
13.51715207560119
 30
0.0
 10
11.27778984426477
 20
13.50007123194235
 30
0.0
 10
11.25339602243729
 20
13.48681024844628
 30
0.0
 10
11.22709558306233
 20
13.47796194854229
 30
0.0
 10
11.20647815661241
 20
13.47454792989315
 30
0.0
 10
11.19492142915566
 20
13.47403324314889
 30
0.0
 10
11.1925662237861
 20
13.47392835247043
 30
0.0
  0
LWPOLYLINE
  5
11C
330
1F
100
AcDbEntity
  8
0
  6
Continuous
 62
     7
370
    25
100
AcDbPolyline
 90
        6
 70
   128
 43
0.0
 10
11.1041358987
 20
13.603293898
 10
11.1190568596
 20
13.5918540302
 10
11.1354350838
 20
13.5792968686
 10
11.1470914291
 20
13.5703599852
 10
11.1585368702
 20
13.5615847265
 10
11.1757267383
 20
13.5484051188
  0
ARC
  5
11D
330
1F
100
AcDbEntity
  8
0
  6
Continuous
 62
     7
370
    25
100
AcDbCircle
 10
11.1874660345
 20
13.6378485231
 30
0.0
 40
0.0902104963006385
100
AcDbArc
 50
202.5223874841
 51
262.5227645659
  0
ARC
  5
11E
330
1F
100
AcDbEntity
  8
0
  6
Continuous
 62
     7
370
    25
100
AcDbCircle
 10
11.1874665141
 20
13.6378491326
 30
0.0
 40
0.0902111728552943
100
AcDbArc
 50
142.5227248184
 51
202.5226284221
  0
LWPOLYLINE
  5
11F
330
1F
100
AcDbEntity
  8
0
  6
Continuous
 62
     7
370
    25
100
AcDbPolyline
 90
        6
 70
   128
 43
0.0
 10
11.1158754031
 20
13.6927378248
 10
11.1134285913
 20
13.6740958268
 10
11.1107428623
 20
13.6536331298
 10
11.1088315244
 20
13.6390701781
 10
11.1069546528
 20
13.6247706366
 10
11.1041358987
 20
13.603293898
  0
LWPOLYLINE
  5
120
330
1F
100
AcDbEntity
  8
0
  6
Continuous
 62
     7
370
    25
100
AcDbPolyline
 90
        6
 70
   128
 43
0.0
 10
11.259057229
 20
13.5829605596
 10
11.2615038941
 20
13.6016022642
 10
11.2641896231
 20
13.6220649612
 10
11.2661011076
 20
13.6366282063
 10
11.2679778326
 20
13.6509277478
 10
11.2707967334
 20
13.672404193
  0
ARC
  5
121
330
1F
100
AcDbEntity
  8
0
  6
Continuous
 62
     7
370
    25
100
AcDbCircle
 10
11.1874665191
 20
13.6378490858
 30
0.0
 40
0.0902107535226806
100
AcDbArc
 50
322.5226534552
 51
22.5226512966
  0
ARC
  5
122
330
1F
100
AcDbEntity
  8
0
  6
Continuous
 62
     7
370
    25
100
AcDbCircle
 10
11.1874662508
 20
13.6378490843
 30
0.0
 40
0.0902110019095335
100
AcDbArc
 50
22.5225868861
 51
82.5226785196
  0
LWPOLYLINE
  5
123
330
1F
100
AcDbEntity
  8
0
  6
Continuous
 62
     7
370
    25
100
AcDbPolyline
 90
        6
 70
   128
 43
0.0
 10
11.2707967334
 20
13.672404193
 10
11.2558756258
 20
13.6838443542
 10
11.2394974016
 20
13.6964015158
 10
11.2278410563
 20
13.7053383992
 10
11.2163956152
 20
13.7141133645
 10
11.1992057471
 20
13.7272929722
  0
LWPOLYLINE
  5
124
330
1F
100
AcDbEntity
  8
0
  6
Continuous
 62
     7
370
    25
100
AcDbPolyline
 90
        7
 70
   128
 43
0.0
 10
11.1992057471
 20
13.7272929722
 10
11.1852332685
 20
13.7214988258
 10
11.1719028892
 20
13.715971023
 10
11.1581693278
 20
13.7102760222
 10
11.144012638
 20
13.70440561
 10
11.1302611835
 20
13.6987032759
 10
11.1158754031
 20
13.6927378248
  0
ARC
  5
125
330
1F
100
AcDbEntity
  8
0
  6
Continuous
 62
     7
370
    25
100
AcDbCircle
 10
11.1874666635
 20
13.6378481116
 30
0.0
 40
0.0902119126055129
100
AcDbArc
 50
82.523018775
 51
142.52226792
  0
LWPOLYLINE
  5
126
330
1F
100
AcDbEntity
  8
0
  6
Continuous
 62
     7
370
    25
100
AcDbPolyline
 90
        7
 70
   128
 43
0.0
 10
11.1757267383
 20
13.5484051188
 10
11.1901126655
 20
13.5543708632
 10
11.2038641199
 20
13.5600731973
 10
11.2180206631
 20
13.5659436095
 10
11.2317542244
 20
13.5716386104
 10
11.2450846038
 20
13.5771664132
 10
11.259057229
 20
13.5829605596
  0
ARC
  5
127
330
1F
100
AcDbEntity
  8
0
  6
Continuous
 62
     7
370
    25
100
AcDbCircle
 10
11.187466014
 20
13.6378493542
 30
0.0
 40
0.0902113177406719
100
AcDbArc
 50
262.5228461774
 51
322.5227133405
  0
CIRCLE
  5
128
330
1F
100
AcDbEntity
  8
0
  6
Continuous
 62
     7
370
    25
100
AcDbCircle
 10
11.1874663895
 20
13.6378490885
 30
0.0
 40
0.1502265789502758
  0
CIRCLE
  5
129
330
1F
100
AcDbEntity
  8
0
  6
Continuous
 62
     7
370
    25
100
AcDbCircle
 10
11.1874662818
 20
13.6378491588
 30
0.0
 40
0.1559999753320837
  0
LINE
  5
12A
330
1F
100
AcDbEntity
  8
0
  6
Continuous
 62
     7
370
    25
100
AcDbLine
 10
10.4163405375
 20
14.1378491495
 30
0.0
 11
10.4268662426
 21
14.1378491495
 31
0.0
  0
LINE
  5
12B
330
1F
100
AcDbEntity
  8
0
  6
Continuous
 62
     7
370
    25
100
AcDbLine
 10
10.300066234
 20
14.1378491495
 30
0.0
 11
10.4163405375
 21
14.1378491495
 31
0.0
  0
LINE
  5
12C
330
1F
100
AcDbEntity
  8
0
  6
Continuous
 62
     7
370
    25
100
AcDbLine
 10
8.650466257
 20
15.4544490933
 30
0.0
 11
8.650466257
 21
15.5812491019
 31
0.0
  0
CIRCLE
  5
12D
330
1F
100
AcDbEntity
  8
0
  6
Continuous
 62
     7
370
    25
100
AcDbCircle
 10
10.3634663075
 20
13.6378490766
 30
0.0
 40
0.0633999883478758
  0
CIRCLE
  5
12E
330
1F
100
AcDbEntity
  8
0
  6
Continuous
 62
     7
370
    25
100
AcDbCircle
 10
10.3634661876
 20
13.6378489666
 30
0.0
 40
0.0743398067707604
  0
LINE
  5
12F
330
1F
100
AcDbEntity
  8
0
  6
Continuous
 62
     7
370
    25
100
AcDbLine
 10
10.406514131
 20
13.6246248516
 30
0.0
 11
10.396442794
 21
13.6685175712
 31
0.0
  0
LINE
  5
130
330
1F
100
AcDbEntity
  8
0
  6
Continuous
 62
     7
370
    25
100
AcDbLine
 10
10.353394938
 20
13.6817417651
 30
0.0
 11
10.396442794
 21
13.6685175712
 31
0.0
  0
LINE
  5
131
330
1F
100
AcDbEntity
  8
0
  6
Continuous
 62
     7
370
    25
100
AcDbLine
 10
10.3204184189
 20
13.6510735327
 30
0.0
 11
10.353394938
 21
13.6817417651
 31
0.0
  0
LINE
  5
132
330
1F
100
AcDbEntity
  8
0
  6
Continuous
 62
     7
370
    25
100
AcDbLine
 10
10.3204184189
 20
13.6510735327
 30
0.0
 11
10.3304897559
 21
13.6071808131
 31
0.0
  0
LINE
  5
133
330
1F
100
AcDbEntity
  8
0
  6
Continuous
 62
     7
370
    25
100
AcDbLine
 10
10.3735376119
 20
13.5939563259
 30
0.0
 11
10.3304897559
 21
13.6071808131
 31
0.0
  0
LINE
  5
134
330
1F
100
AcDbEntity
  8
0
  6
Continuous
 62
     7
370
    25
100
AcDbLine
 10
10.3735376119
 20
13.5939563259
 30
0.0
 11
10.406514131
 21
13.6246248516
 31
0.0
  0
CIRCLE
  5
135
330
1F
100
AcDbEntity
  8
0
  6
Continuous
 62
     7
370
    25
100
AcDbCircle
 10
7.9274662257
 20
13.6378490844
 30
0.0
 40
0.0634000068586009
  0
CIRCLE
  5
136
330
1F
100
AcDbEntity
  8
0
  6
Continuous
 62
     7
370
    25
100
AcDbCircle
 10
7.927466274
 20
13.6378491509
 30
0.0
 40
0.0743398261256594
  0
LINE
  5
137
330
1F
100
AcDbEntity
  8
0
  6
Continuous
 62
     7
370
    25
100
AcDbLine
 10
7.9605526869
 20
13.6683987726
 30
0.0
 11
7.9175526437
 21
13.6817775514
 31
0.0
  0
LINE
  5
138
330
1F
100
AcDbEntity
  8
0
  6
Continuous
 62
     7
370
    25
100
AcDbLine
 10
7.8844661992
 20
13.6512278243
 30
0.0
 11
7.9175526437
 21
13.6817775514
 31
0.0
  0
LINE
  5
139
330
1F
100
AcDbEntity
  8
0
  6
Continuous
 62
     7
370
    25
100
AcDbLine
 10
7.8943797247
 20
13.6072993184
 30
0.0
 11
7.8844661992
 21
13.6512278243
 31
0.0
  0
LINE
  5
13A
330
1F
100
AcDbEntity
  8
0
  6
Continuous
 62
     7
370
    25
100
AcDbLine
 10
7.8943797247
 20
13.6072993184
 30
0.0
 11
7.9373798413
 21
13.5939205396
 31
0.0
  0
LINE
  5
13B
330
1F
100
AcDbEntity
  8
0
  6
Continuous
 62
     7
370
    25
100
AcDbLine
 10
7.9704663591
 20
13.6244702667
 30
0.0
 11
7.9373798413
 21
13.5939205396
 31
0.0
  0
LINE
  5
13C
330
1F
100
AcDbEntity
  8
0
  6
Continuous
 62
     7
370
    25
100
AcDbLine
 10
7.9704663591
 20
13.6244702667
 30
0.0
 11
7.9605526869
 21
13.6683987726
 31
0.0
  0
LINE
  5
13D
330
1F
100
AcDbEntity
  8
0
  6
Continuous
 62
     7
370
    25
100
AcDbLine
 10
7.986286083
 20
14.1378491495
 30
0.0
 11
7.9908662834
 21
14.1378491495
 31
0.0
  0
LINE
  5
13E
330
1F
100
AcDbEntity
  8
0
  6
Continuous
 62
     7
370
    25
100
AcDbLine
 10
7.8640662749
 20
14.1378491495
 30
0.0
 11
7.986286083
 21
14.1378491495
 31
0.0
  0
LWPOLYLINE
  5
13F
330
1F
100
AcDbEntity
  8
0
  6
Continuous
 62
     7
370
    25
100
AcDbPolyline
 90
       21
 70
   128
 43
0.0
 10
6.1393969318
 20
13.373815429
 10
6.1394485578
 20
13.3738670551
 10
6.1404567329
 20
13.3748752301
 10
6.14272388
 20
13.3771423772
 10
6.1461851733
 20
13.3806036706
 10
6.1507408807
 20
13.3851593779
 10
6.1562598836
 20
13.3906783808
 10
6.1625834906
 20
13.3970019878
 10
6.1695295437
 20
13.4039480409
 10
6.1768985785
 20
13.4113170758
 10
6.1844785176
 20
13.4188970149
 10
6.1920511235
 20
13.4264696207
 10
6.1993987453
 20
13.4338172425
 10
6.2063098921
 20
13.4407283893
 10
6.2125856863
 20
13.4470044768
 10
6.2180457299
 20
13.4524645204
 10
6.2225330914
 20
13.4569515886
 10
6.2259181189
 20
13.4603366162
 10
6.2281040137
 20
13.4625225109
 10
6.2290277097
 20
13.4634462069
 10
6.2290579227
 20
13.4634767132
  0
LINE
  5
140
330
1F
100
AcDbEntity
  8
0
  6
Continuous
 62
     7
370
    25
100
AcDbLine
 10
9.6404662604
 20
15.5812491019
 30
0.0
 11
9.6404662604
 21
15.4544490933
 31
0.0
  0
SPLINE
  5
141
330
1F
100
AcDbEntity
  8
0
  6
Continuous
 62
     7
370
    25
100
AcDbSpline
210
0.0
220
0.0
230
1.0
 70
     8
 71
     3
 72
    26
 73
    22
 74
     0
 42
0.00000001
 43
0.00000001
 40
0.0
 40
0.0
 40
0.0
 40
0.0
 40
0.0011374056267351
 40
0.0081806213402343
 40
0.020675053877155
 40
0.0369535140694808
 40
0.0574774036542321
 40
0.082598965538797
 40
0.111547843950257
 40
0.1562666816606341
 40
0.2065911651995972
 40
0.2634060680242443
 40
0.3246300931088975
 40
0.4123045443561951
 40
0.5054345223554391
 40
0.6056985779888227
 40
0.7096554892477385
 40
0.7804729137118704
 40
0.852380937542783
 40
0.9258064120827809
 40
1.0
 40
1.0
 40
1.0
 40
1.0
 10
9.640297632391997
 20
14.13768209806386
 30
0.0
 10
9.640159853165253
 20
14.13754569934385
 30
0.0
 10
9.63916889650384
 20
14.13656467177246
 30
0.0
 10
9.636664316381884
 20
14.13408541643267
 30
0.0
 10
9.632325294845401
 20
14.12979077059813
 30
0.0
 10
9.626352551535469
 20
14.12388026290189
 30
0.0
 10
9.618848754024699
 20
14.11645698528502
 30
0.0
 10
9.609807921871967
 20
14.10751649159198
 30
0.0
 10
9.597831868979009
 20
14.09567894072292
 30
0.0
 10
9.582795282292885
 20
14.0808267072834
 30
0.0
 10
9.564370331122769
 20
14.06264573705223
 30
0.0
 10
9.543930130825323
 20
14.04250156247351
 30
0.0
 10
9.51893502347713
 20
14.01790932005471
 30
0.0
 10
9.48949369758684
 20
13.98901009013545
 30
0.0
 10
9.455235951562546
 20
13.9555181440896
 30
0.0
 10
9.418903278943723
 20
13.92017852344854
 30
0.0
 10
9.385149604922795
 20
13.88764279224907
 30
0.0
 10
9.354728325325743
 20
13.85861496716647
 30
0.0
 10
9.327888798336994
 20
13.83337420262016
 30
0.0
 10
9.300452456458563
 20
13.80792592112143
 30
0.0
 10
9.281620053918845
 20
13.79123697126279
 30
0.0
 10
9.272154856875419
 20
13.78284907712519
 30
0.0
  0
LINE
  5
142
330
1F
100
AcDbEntity
  8
0
  6
Continuous
 62
     7
370
    25
100
AcDbLine
 10
9.2721548569
 20
13.7828490771
 30
0.0
 11
9.0187776606
 21
13.7828490771
 31
0.0
  0
SPLINE
  5
143
330
1F
100
AcDbEntity
  8
0
  6
Continuous
 62
     7
370
    25
100
AcDbSpline
210
0.0
220
0.0
230
1.0
 70
     8
 71
     3
 72
    25
 73
    21
 74
     0
 42
0.00000001
 43
0.00000001
 40
0.0
 40
0.0
 40
0.0
 40
0.0
 40
0.1181096609041109
 40
0.2340132410310383
 40
0.3495108912897664
 40
0.4609944304093222
 40
0.5417335920495674
 40
0.6189450377631179
 40
0.693576803686615
 40
0.762865681136496
 40
0.8107828957328144
 40
0.854578351219161
 40
0.8946306112230807
 40
0.9291274196400984
 40
0.9527240889403418
 40
0.9718482386200081
 40
0.9865093556484045
 40
0.9958646112747205
 40
0.9996748539204605
 40
1.0
 40
1.0
 40
1.0
 40
1.0
 10
9.018777660577081
 20
13.78284907712519
 30
0.0
 10
9.003744483554112
 20
13.79626122393477
 30
0.0
 10
8.973958922820051
 20
13.82283500223593
 30
0.0
 10
8.930687261760049
 20
13.86384812795669
 30
0.0
 10
8.888433317618244
 20
13.90428173024257
 30
0.0
 10
8.850770491799684
 20
13.94083829879104
 30
0.0
 10
8.817873814233115
 20
13.97292813264657
 30
0.0
 10
8.789535376020272
 20
14.00068901826737
 30
0.0
 10
8.7626280764484
 20
14.02712047072522
 30
0.0
 10
8.7393126887934
 20
14.05007638454926
 30
0.0
 10
8.719756837885802
 20
14.06935937415589
 30
0.0
 10
8.703767642951867
 20
14.08514168187623
 30
0.0
 10
8.68938934168678
 20
14.09934637064829
 30
0.0
 10
8.677537728966414
 20
14.1110627411902
 30
0.0
 10
8.66804629311805
 20
14.12045082637127
 30
0.0
 10
8.661416345753356
 20
14.12701065404982
 30
0.0
 10
8.65537897057047
 20
14.1329857048898
 30
0.0
 10
8.653561285095144
 20
14.13478534432461
 30
0.0
 10
8.650048337502236
 20
14.13826264641813
 30
0.0
 10
8.650592129281797
 20
14.13772441653679
 30
0.0
 10
8.650634885060505
 20
14.13768209806386
 30
0.0
  0
LINE
  5
144
330
1F
100
AcDbEntity
  8
0
  6
Continuous
 62
     7
370
    25
100
AcDbLine
 10
10.5084662332
 20
13.1378490882
 30
0.0
 11
10.5084662332
 21
14.1378491495
 31
0.0
  0
LINE
  5
145
330
1F
100
AcDbEntity
  8
0
  6
Continuous
 62
     7
370
    25
100
AcDbLine
 10
7.7824662842
 20
14.1378491495
 30
0.0
 11
7.7824662842
 21
13.1378490882
 31
0.0
  0
SPLINE
  5
146
330
1F
100
AcDbEntity
  8
0
  6
Continuous
 62
     7
370
    25
100
AcDbSpline
210
0.0
220
0.0
230
1.0
 70
    11
 71
     3
 72
    44
 73
    40
 74
     0
 42
0.00000001
 43
0.00000001
 40
0.0
 40
0.0
 40
0.0
 40
0.0
 40
0.0380476347102733
 40
0.0646941161501134
 40
0.0913237983862389
 40
0.1179123763184741
 40
0.1444767039940702
 40
0.1712457378393393
 40
0.1980205197642061
 40
0.2249785273671519
 40
0.2519648043007382
 40
0.278733796993678
 40
0.3055092668069376
 40
0.3320040442645305
 40
0.3584744980263517
 40
0.3850394798980638
 40
0.4115868091440714
 40
0.4384530628296054
 40
0.4653361839664026
 40
0.4922702055196699
 40
0.5192294318736441
 40
0.5458947048676964
 40
0.5725547174463373
 40
0.5990362106803373
 40
0.6254906805142015
 40
0.6521483697022549
 40
0.6787980305257686
 40
0.7057273302859255
 40
0.7326809319567138
 40
0.7595545791114879
 40
0.7864469236471157
 40
0.8130150825485883
 40
0.8395667577169955
 40
0.8660605754486655
 40
0.8925291570964525
 40
0.9192906184867874
 40
0.9460570303288695
 40
0.9730144845185508
 40
1.0
 40
1.0
 40
1.0
 40
1.0
 10
8.007129082227785
 20
13.6184109500618
 30
0.0
 10
8.008251209437505
 20
13.62487372693096
 30
0.0
 10
8.010159213143744
 20
13.63586267908552
 30
0.0
 10
8.008652165208373
 20
13.65157805587695
 30
0.0
 10
8.005294852180665
 20
13.6649069549544
 30
0.0
 10
7.99967894181616
 20
13.67746285948057
 30
0.0
 10
7.992093748410783
 20
13.68895551202229
 30
0.0
 10
7.982637537140062
 20
13.69901465256327
 30
0.0
 10
7.9716065087016
 20
13.70742749240821
 30
0.0
 10
7.959262153338318
 20
13.71384218426755
 30
0.0
 10
7.946028750145604
 20
13.718130218284
 30
0.0
 10
7.932288139315396
 20
13.72007849300138
 30
0.0
 10
7.91849851463808
 20
13.71975115647108
 30
0.0
 10
7.905017139413175
 20
13.71709430430376
 30
0.0
 10
7.892179823639142
 20
13.71229765415788
 30
0.0
 10
7.880330099400097
 20
13.70539440765619
 30
0.0
 10
7.86971030672392
 20
13.69661044636922
 30
0.0
 10
7.860704655261237
 20
13.68610339798833
 30
0.0
 10
7.85351803054618
 20
13.67419946853806
 30
0.0
 10
7.84847639289738
 20
13.66122329335822
 30
0.0
 10
7.845651632859374
 20
13.64762966660259
 30
0.0
 10
7.845197899746059
 20
13.63380199173673
 30
0.0
 10
7.846996466524336
 20
13.62016724350037
 30
0.0
 10
7.851070093901841
 20
13.60707046484834
 30
0.0
 10
7.85721345164111
 20
13.59480829360636
 30
0.0
 10
7.86536315964061
 20
13.58373969970301
 30
0.0
 10
7.875270321206092
 20
13.57409461541062
 30
0.0
 10
7.886722872226463
 20
13.5662541166215
 30
0.0
 10
7.899347796817008
 20
13.56039545365033
 30
0.0
 10
7.91278459249866
 20
13.55679402958125
 30
0.0
 10
7.926565140090143
 20
13.55545931927809
 30
0.0
 10
7.940314122441348
 20
13.55649240068562
 30
0.0
 10
7.953645329160371
 20
13.55973061372379
 30
0.0
 10
7.96622068421476
 20
13.56517231107564
 30
0.0
 10
7.977773517570504
 20
13.57260208790946
 30
0.0
 10
7.987945132616719
 20
13.58191579937555
 30
0.0
 10
7.996457996896738
 20
13.59284750397536
 30
0.0
 10
8.003158928972443
 20
13.60507644214936
 30
0.0
 10
8.005805238936592
 20
13.61396457288039
 30
0.0
 10
8.007129082227785
 20
13.6184109500618
 30
0.0
  0
SPLINE
  5
147
330
1F
100
AcDbEntity
  8
0
  6
Continuous
 62
     7
370
    25
100
AcDbSpline
210
0.0
220
0.0
230
1.0
 70
    11
 71
     3
 72
    44
 73
    40
 74
     0
 42
0.00000001
 43
0.00000001
 40
0.0
 40
0.0
 40
0.0
 40
0.0
 40
0.0380476511480575
 40
0.0646941321850222
 40
0.0913238493407816
 40
0.1179124268710169
 40
0.1444766754917343
 40
0.1712457089322752
 40
0.1980204904523268
 40
0.2249784976476875
 40
0.251964909798561
 40
0.2787337610094499
 40
0.3055092304178835
 40
0.3320040074748947
 40
0.3584745942793767
 40
0.3850394525309087
 40
0.4115868910921467
 40
0.4384530515078123
 40
0.4653362457549428
 40
0.4922702669009873
 40
0.5192294640198368
 40
0.5458947366107297
 40
0.572554729985191
 40
0.5990362649919707
 40
0.6254907344258626
 40
0.6521483388409118
 40
0.6787979992615021
 40
0.7057272986145076
 40
0.7326808998777774
 40
0.7595546842369875
 40
0.7864470283660222
 40
0.8130150447411555
 40
0.8395668579545675
 40
0.86606067528567
 40
0.892529136744783
 40
0.9192905977305038
 40
0.9460570091678971
 40
0.9730145303928057
 40
1.0
 40
1.0
 40
1.0
 40
1.0
 10
10.44312904134839
 20
13.6184109500618
 30
0.0
 10
10.44425119746431
 20
13.62487372525962
 30
0.0
 10
10.44615924996966
 20
13.63586267254845
 30
0.0
 10
10.44465221736809
 20
13.65157806773323
 30
0.0
 10
10.44129479406545
 20
13.66490694600593
 30
0.0
 10
10.43567889499547
 20
13.67746283691506
 30
0.0
 10
10.42809378916761
 20
13.68895553417079
 30
0.0
 10
10.41863756501097
 20
13.69901464974474
 30
0.0
 10
10.40760654184628
 20
13.70742749137241
 30
0.0
 10
10.39526216691826
 20
13.71384220208863
 30
0.0
 10
10.38202875236912
 20
13.71813019636867
 30
0.0
 10
10.36828814935427
 20
13.72007849877262
 30
0.0
 10
10.35449854486724
 20
13.71975115848188
 30
0.0
 10
10.34101715624415
 20
13.71709428572325
 30
0.0
 10
10.32817980783866
 20
13.71229769829529
 30
0.0
 10
10.31633012315302
 20
13.70539435339746
 30
0.0
 10
10.30571025744672
 20
13.69661050379983
 30
0.0
 10
10.2967047078701
 20
13.68610334574479
 30
0.0
 10
10.2895179765704
 20
13.67419949496553
 30
0.0
 10
10.28447633661853
 20
13.66122329942051
 30
0.0
 10
10.2816516798279
 20
13.6476296561369
 30
0.0
 10
10.28119795847332
 20
13.6338020013475
 30
0.0
 10
10.28299637978082
 20
13.62016722273554
 30
0.0
 10
10.2870701500285
 20
13.60707047678528
 30
0.0
 10
10.2932134857445
 20
13.59480831649598
 30
0.0
 10
10.30136311345237
 20
13.58373967701701
 30
0.0
 10
10.31127028449765
 20
13.57409461842161
 30
0.0
 10
10.32272283056936
 20
13.566254117281
 30
0.0
 10
10.33534777636813
 20
13.56039543800702
 30
0.0
 10
10.34878460321885
 20
13.55679404113353
 30
0.0
 10
10.36256514811416
 20
13.55545931447595
 30
0.0
 10
10.37631412819171
 20
13.55649241595371
 30
0.0
 10
10.38964533843173
 20
13.55973060255761
 30
0.0
 10
10.4022207063241
 20
13.56517229090447
 30
0.0
 10
10.41377348286404
 20
13.57260211384517
 30
0.0
 10
10.42394510053105
 20
13.58191579296341
 30
0.0
 10
10.43245793701284
 20
13.59284752677558
 30
0.0
 10
10.43915899126898
 20
13.60507640771423
 30
0.0
 10
10.44180523430726
 20
13.61396456759891
 30
0.0
 10
10.44312904134839
 20
13.6184109500618
 30
0.0
  0
SPLINE
  5
148
330
1F
100
AcDbEntity
  8
0
  6
Continuous
 62
     7
370
    25
100
AcDbSpline
210
0.0
220
0.0
230
1.0
 70
     8
 71
     3
 72
    26
 73
    22
 74
     0
 42
0.00000001
 43
0.00000001
 40
0.0
 40
0.0
 40
0.0
 40
0.0
 40
0.0068591711523826
 40
0.0280142544925151
 40
0.0616040317602161
 40
0.1085001016546707
 40
0.1652730318320701
 40
0.2331733437834859
 40
0.3070100024711453
 40
0.3886047368913418
 40
0.4702891039978283
 40
0.5552431427868031
 40
0.6354933800916819
 40
0.7142719503061485
 40
0.7854309959854576
 40
0.8506440642175089
 40
0.9051534032464584
 40
0.9496314017839071
 40
0.9802814383677245
 40
0.9978634578078317
 40
1.0
 40
1.0
 40
1.0
 40
1.0
 10
10.28146625555735
 20
14.1378491494674
 30
0.0
 10
10.28183746544452
 20
14.13778852943102
 30
0.0
 10
10.28335356236327
 20
14.13754094483387
 30
0.0
 10
10.28669009388704
 20
14.13701247635989
 30
0.0
 10
10.29220223485162
 20
14.13618677269175
 30
0.0
 10
10.29965961490629
 20
14.13516576113918
 30
0.0
 10
10.3090009642742
 20
14.13404266514433
 30
0.0
 10
10.31983335135948
 20
14.13296051842425
 30
0.0
 10
10.33204523357707
 20
14.13202432007019
 30
0.0
 10
10.3450324066301
 20
14.13136294355663
 30
0.0
 10
10.3586422367259
 20
14.13103926092835
 30
0.0
 10
10.37218226773246
 20
14.13109400568253
 30
0.0
 10
10.38555613041422
 20
14.13151606312526
 30
0.0
 10
10.39815888979959
 20
14.13224711909868
 30
0.0
 10
10.40991766816698
 20
14.13322020000375
 30
0.0
 10
10.42032823056418
 20
14.13431425022515
 30
0.0
 10
10.42926365054273
 20
14.13542728730345
 30
0.0
 10
10.43630357871226
 20
14.13641578563459
 30
0.0
 10
10.44132928781923
 20
14.13718267758501
 30
0.0
 10
10.44405672272791
 20
14.13761834056043
 30
0.0
 10
10.44512378544077
 20
14.13779310696954
 30
0.0
 10
10.44523940363597
 20
14.13781204322939
 30
0.0
  0
SPLINE
  5
149
330
1F
100
AcDbEntity
  8
0
  6
Continuous
 62
     7
370
    25
100
AcDbSpline
210
0.0
220
0.0
230
1.0
 70
     8
 71
     3
 72
    26
 73
    22
 74
     0
 42
0.00000001
 43
0.00000001
 40
0.0
 40
0.0
 40
0.0
 40
0.0
 40
0.0068596080958454
 40
0.0280146820950807
 40
0.0616040036763034
 40
0.108500052864085
 40
0.1652734005606059
 40
0.2331732389660526
 40
0.3070098650515887
 40
0.388605008639197
 40
0.4702888940328898
 40
0.5552428953109302
 40
0.6354930971818094
 40
0.7142720776364817
 40
0.7854306476415908
 40
0.8506441304110245
 40
0.9051534453717098
 40
0.9496314242701713
 40
0.9802814473206545
 40
0.9978630188296299
 40
0.9999999999999999
 40
0.9999999999999999
 40
0.9999999999999999
 40
0.9999999999999999
 10
7.845466223104261
 20
14.1378491494674
 30
0.0
 10
7.845837457513379
 20
14.13778852990674
 30
0.0
 10
7.84735358114739
 20
14.13754095924424
 30
0.0
 10
7.850690110159221
 20
14.13701247582807
 30
0.0
 10
7.856202225985769
 20
14.1361867668192
 30
0.0
 10
7.863659606323689
 20
14.13516575615525
 30
0.0
 10
7.873000957489993
 20
14.13404267615391
 30
0.0
 10
7.883833342722232
 20
14.13296051251277
 30
0.0
 10
7.896045225552978
 20
14.13202431841344
 30
0.0
 10
7.909032398744506
 20
14.131362946963
 30
0.0
 10
7.922642228668435
 20
14.13103926001118
 30
0.0
 10
7.936182235341052
 20
14.13109400518955
 30
0.0
 10
7.949556122166164
 20
14.13151606661658
 30
0.0
 10
7.962158882397785
 20
14.13224711097709
 30
0.0
 10
7.97391768376976
 20
14.13322020929569
 30
0.0
 10
7.984328247234188
 20
14.13431424673899
 30
0.0
 10
7.993263692347321
 20
14.13542728181417
 30
0.0
 10
8.000303617051733
 20
14.13641580122004
 30
0.0
 10
8.00532931006341
 20
14.13718264181375
 30
0.0
 10
8.008056732860338
 20
14.13761837917244
 30
0.0
 10
8.009123801834013
 20
14.13779310722691
 30
0.0
 10
8.009239444515366
 20
14.13781204322939
 30
0.0
  0
LINE
  5
14A
330
1F
100
AcDbEntity
  8
0
  6
Continuous
 62
     7
370
    25
100
AcDbLine
 10
9.6404662604
 20
16.257849104
 30
0.0
 11
8.650466257
 21
16.257849104
 31
0.0
  0
LWPOLYLINE
  5
14B
330
1F
100
AcDbEntity
  8
0
  6
Continuous
 62
     7
370
    25
100
AcDbPolyline
 90
       54
 70
   128
 43
0.0
 10
7.453484138
 20
13.2878313289
 10
7.4531129289
 20
13.2882023913
 10
7.4515251339
 20
13.2897901863
 10
7.44869318
 20
13.2926222869
 10
7.4446273336
 20
13.2966881333
 10
7.4393421147
 20
13.3019733522
 10
7.4328564429
 20
13.3084588773
 10
7.4251933448
 20
13.3161218288
 10
7.4163803933
 20
13.324934927
 10
7.4064491213
 20
13.3348661989
 10
7.3954347286
 20
13.345880445
 10
7.3833769612
 20
13.3579383591
 10
7.3703186454
 20
13.3709968215
 10
7.3563065673
 20
13.3850088997
 10
7.3413907396
 20
13.3999247274
 10
7.3256245484
 20
13.4156909186
 10
7.309064313
 20
13.4322511539
 10
7.2917691395
 20
13.4495461808
 10
7.273801067
 20
13.4675143999
 10
7.2552240416
 20
13.4860912786
 10
7.2361047958
 20
13.5052105244
 10
7.2165112355
 20
13.5248040847
 10
7.1965137599
 20
13.5448015604
 10
7.1761837947
 20
13.5651316722
 10
7.1555937926
 20
13.5857216744
 10
7.1348175259
 20
13.606497941
 10
7.1139290606
 20
13.6273862597
 10
7.0930033423
 20
13.6483118313
 10
7.0721150236
 20
13.6692004433
 10
7.0513387569
 20
13.68997671
 10
7.0307487548
 20
13.7105667121
 10
7.0104187896
 20
13.7308965306
 10
6.9904211673
 20
13.7508940063
 10
6.9708277537
 20
13.7704875666
 10
6.9517083612
 20
13.7896068124
 10
6.9331314825
 20
13.8081839845
 10
6.91516341
 20
13.8261519102
 10
6.8978682365
 20
13.8434472304
 10
6.8813080011
 20
13.8600074658
 10
6.8655418099
 20
13.875773657
 10
6.8506259823
 20
13.8906894847
 10
6.8366139041
 20
13.9047015628
 10
6.8235555883
 20
13.917759732
 10
6.8114976743
 20
13.929817646
 10
6.8004834282
 20
13.9408318921
 10
6.7905520096
 20
13.950763164
 10
6.781739058
 20
13.9595762622
 10
6.7740761066
 20
13.9672392137
 10
6.7675904348
 20
13.9737250321
 10
6.7623052159
 20
13.9790102511
 10
6.7582393695
 20
13.9830760974
 10
6.7554074156
 20
13.9859079047
 10
6.7538196206
 20
13.9874956997
 10
6.7534484115
 20
13.9878670554
  0
LWPOLYLINE
  5
14C
330
1F
100
AcDbEntity
  8
0
  6
Continuous
 62
     7
370
    25
100
AcDbPolyline
 90
       54
 70
   128
 43
0.0
 10
6.315042316
 20
13.5494608132
 10
6.3156568423
 20
13.5488459937
 10
6.3174989543
 20
13.5470038816
 10
6.3205619056
 20
13.5439412237
 10
6.3248345496
 20
13.5396682864
 10
6.3303025131
 20
13.5342003229
 10
6.3369464363
 20
13.5275563996
 10
6.3447428529
 20
13.5197602763
 10
6.3536641899
 20
13.5108386461
 10
6.3636793542
 20
13.5008234818
 10
6.3747531462
 20
13.4897496897
 10
6.3868468465
 20
13.4776562827
 10
6.3999176289
 20
13.4645855004
 10
6.4139197338
 20
13.4505833955
 10
6.4288038818
 20
13.4356989541
 10
6.4445181536
 20
13.4199849756
 10
6.4610068165
 20
13.4034960194
 10
6.4782123777
 20
13.3862907515
 10
6.4960741181
 20
13.3684287179
 10
6.5145295582
 20
13.3499732777
 10
6.5335135789
 20
13.330989257
 10
6.5529598876
 20
13.3115429484
 10
6.5727998451
 20
13.2917029909
 10
6.5929639321
 20
13.2715391972
 10
6.6133811629
 20
13.2511219663
 10
6.633979965
 20
13.2305231643
 10
6.6546878857
 20
13.2098149502
 10
6.6754321794
 20
13.1890706565
 10
6.6961402469
 20
13.1683627357
 10
6.7167390489
 20
13.1477639337
 10
6.7371562797
 20
13.1273467029
 10
6.7573202201
 20
13.1071826158
 10
6.7771601776
 20
13.0873426583
 10
6.7966064863
 20
13.067896643
 10
6.815590507
 20
13.048912329
 10
6.8340459471
 20
13.0304568888
 10
6.8519078341
 20
13.0125951485
 10
6.8691132487
 20
12.9953895873
 10
6.8856020582
 20
12.9789009244
 10
6.9013161833
 20
12.9631866526
 10
6.9162004781
 20
12.9483025045
 10
6.930202583
 20
12.9343003996
 10
6.9432733653
 20
12.9212296173
 10
6.9553669189
 20
12.9091362103
 10
6.966440711
 20
12.8980621249
 10
6.9764558753
 20
12.8880469606
 10
6.9853773589
 20
12.8791256237
 10
6.9931736289
 20
12.8713292071
 10
6.9998174054
 20
12.8646855772
 10
7.0052853689
 20
12.8592176137
 10
7.0095583063
 20
12.8549446764
 10
7.0126211109
 20
12.8518817251
 10
7.0144632229
 20
12.8500399063
 10
7.0150778958
 20
12.8494250868
  0
LWPOLYLINE
  5
14D
330
1F
100
AcDbEntity
  8
0
  6
Continuous
 62
     7
370
    25
100
AcDbPolyline
 90
       54
 70
   128
 43
0.0
 10
11.2758546216
 20
12.8494250868
 10
11.2764692945
 20
12.8500399063
 10
11.2783114066
 20
12.8518817251
 10
11.2813742112
 20
12.8549446764
 10
11.2856471485
 20
12.8592176137
 10
11.291115112
 20
12.8646855772
 10
11.2977588886
 20
12.8713292071
 10
11.3055551585
 20
12.8791256237
 10
11.3144766421
 20
12.8880469606
 10
11.3244918064
 20
12.8980621249
 10
11.3355655985
 20
12.9091362103
 10
11.3476591521
 20
12.9212296173
 10
11.3607299345
 20
12.9343003996
 10
11.3747320394
 20
12.9483025045
 10
11.3896163341
 20
12.9631866526
 10
11.4053304592
 20
12.9789009244
 10
11.4218192688
 20
12.9953895873
 10
11.4390246833
 20
13.0125951485
 10
11.4568865703
 20
13.0304568888
 10
11.4753420105
 20
13.048912329
 10
11.4943260312
 20
13.067896643
 10
11.5137723399
 20
13.0873426583
 10
11.5336122973
 20
13.1071826158
 10
11.5537762377
 20
13.1273467029
 10
11.5741934685
 20
13.1477639337
 10
11.5947922706
 20
13.1683627357
 10
11.615500338
 20
13.1890706565
 10
11.6362446317
 20
13.2098149502
 10
11.6569525525
 20
13.2305231643
 10
11.6775513545
 20
13.2511219663
 10
11.6979685853
 20
13.2715391972
 10
11.7181326724
 20
13.2917029909
 10
11.7379726299
 20
13.3115429484
 10
11.7574189386
 20
13.330989257
 10
11.7764029593
 20
13.3499732777
 10
11.7948583994
 20
13.3684287179
 10
11.8127201397
 20
13.3862907515
 10
11.829925701
 20
13.4034960194
 10
11.8464143638
 20
13.4199849756
 10
11.8621286356
 20
13.4356989541
 10
11.8770127837
 20
13.4505833955
 10
11.8910148886
 20
13.4645855004
 10
11.9040856709
 20
13.4776562827
 10
11.9161793712
 20
13.4897496897
 10
11.9272531633
 20
13.5008234818
 10
11.9372683276
 20
13.5108386461
 10
11.9461896645
 20
13.5197602763
 10
11.9539860811
 20
13.5275563996
 10
11.9606300044
 20
13.5342003229
 10
11.9660979679
 20
13.5396682864
 10
11.9703706119
 20
13.5439412237
 10
11.9734335631
 20
13.5470038816
 10
11.9752756752
 20
13.5488459937
 10
11.9758902014
 20
13.5494608132
  0
LINE
  5
14E
330
1F
100
AcDbEntity
  8
0
  6
Continuous
 62
     7
370
    25
100
AcDbLine
 10
7.0983662937
 20
14.1328490472
 30
0.0
 11
7.0983662937
 21
14.1328227942
 31
0.0
  0
LINE
  5
14F
330
1F
100
AcDbEntity
  8
0
  6
Continuous
 62
     7
370
    25
100
AcDbLine
 10
11.1925662238
 20
13.1428491905
 30
0.0
 11
11.1925662238
 21
13.4739283525
 31
0.0
  0
LINE
  5
150
330
1F
100
AcDbEntity
  8
0
  6
Continuous
 62
     7
370
    25
100
AcDbLine
 10
11.1925662238
 20
13.8017697386
 30
0.0
 11
11.1925662238
 21
14.1328490472
 31
0.0
  0
DIMENSION
  5
151
330
1F
100
AcDbEntity
  8
0
  6
Continuous
 62
     7
370
    18
100
AcDbDimension
  2
_D
 10
17.6860607887
 20
13.5080246643
 30
0.0
 11
16.030256047
 21
15.163829406
 31
0.0
 70
   160
  1
<>
 71
     2
 42
-1.0
  3
SLDDIMSTYLE0
100
AcDbAlignedDimension
 13
11.1925662587
 23
13.6377491011
 33
0.0
 14
14.8516935988
 24
10.6736574744
 34
0.0
 50
-45.0
100
AcDbRotatedDimension
  0
DIMENSION
  5
166
330
1F
100
AcDbEntity
  8
0
  6
Continuous
 62
     7
370
    18
100
AcDbDimension
  2
_D_1
 10
4.1458809975
 20
22.9070508653
 30
0.0
 11
4.1458809975
 21
23.9605189418
 31
0.0
 70
   160
  1
<>
 71
     2
 42
-1.0
  3
SLDDIMSTYLE1
100
AcDbAlignedDimension
 13
7.4454662587
 23
22.5320508653
 33
0.0
 14
7.3954662587
 24
22.9070508653
 34
0.0
 50
90.0
100
AcDbRotatedDimension
  0
DIMENSION
  5
17C
330
1F
100
AcDbEntity
  8
0
  6
Continuous
 62
     7
370
    18
100
AcDbDimension
  2
_D_2
 10
4.1458809975
 20
16.2678491011
 30
0.0
 11
4.1458809975
 21
19.3999499832
 31
0.0
 70
   160
  1
SPECIFY PROJECTION LENGTH\P18"-24"\P[457mm - 1219mm]
 71
     2
 42
-1.0
  3
SLDDIMSTYLE2
100
AcDbAlignedDimension
 13
7.4454662587
 23
22.5320508653
 33
0.0
 14
8.6454662587
 24
16.2678491011
 34
0.0
 50
90.0
100
AcDbRotatedDimension
  0
DIMENSION
  5
18E
330
1F
100
AcDbEntity
  8
0
  6
Continuous
 62
     7
370
    18
100
AcDbDimension
  2
_D_3
 10
4.1458809975
 20
13.6378491011
 30
0.0
 11
4.1458809975
 21
14.9528491011
 31
0.0
 70
   160
  1
<>
 71
     2
 42
-1.0
  3
SLDDIMSTYLE1
100
AcDbAlignedDimension
 13
8.6454662587
 23
16.2678491011
 33
0.0
 14
7.1034662587
 24
13.6378491011
 34
0.0
 50
90.0
100
AcDbRotatedDimension
  0
DIMENSION
  5
1A2
330
1F
100
AcDbEntity
  8
0
  6
Continuous
 62
     7
370
    18
100
AcDbDimension
  2
_D_4
 10
11.1926259295
 20
11.1979534163
 30
0.0
 11
9.1480759295
 21
11.1979034163
 31
0.0
 70
   160
  1
<>
 71
     2
 42
-1.0
  3
SLDDIMSTYLE0
100
AcDbAlignedDimension
 13
7.1034662587
 23
13.6378491011
 33
0.0
 14
11.1925662587
 24
13.6379491011
 34
0.0
 50
0.0014011831
100
AcDbRotatedDimension
  0
DIMENSION
  5
1B6
330
1F
100
AcDbEntity
  8
0
  6
Continuous
 62
     7
370
    18
100
AcDbDimension
  2
_D_5
 10
11.8959858942
 20
14.3413687366
 30
0.0
 11
12.6927674072
 21
13.5445872236
 31
0.0
 70
   160
  1
<>
 71
     2
 42
-1.0
  3
SLDDIMSTYLE1
100
AcDbAlignedDimension
 13
11.9829613876
 23
13.5423896857
 33
0.0
 14
11.1925662587
 24
13.6379491011
 34
0.0
 50
-45.0
100
AcDbRotatedDimension
  0
DIMENSION
  5
1CB
330
1F
100
AcDbEntity
  8
0
  6
Continuous
 62
     7
370
    18
100
AcDbDimension
  2
_D_6
 10
14.5298453397
 20
9.5954343068
 30
0.0
 11
15.9003600887
 21
10.9659490558
 31
0.0
 70
   160
  1
%%c<>
 71
     2
 42
-1.0
  3
SLDDIMSTYLE2
100
AcDbAlignedDimension
 13
14.8516935988
 23
10.6736574744
 33
0.0
 14
13.4516221721
 24
10.6736574744
 34
0.0
 50
45.0
100
AcDbRotatedDimension
  0
ARC
  5
1DF
330
1F
100
AcDbEntity
  8
0
  6
HIDDEN
 62
     7
370
    18
100
AcDbCircle
 10
9.5829662587
 20
20.2362453577
 30
0.0
 40
1.137500000000001
100
AcDbArc
 50
247.380135052
 51
292.619864948
  0
ARC
  5
1E0
330
1F
100
AcDbEntity
  8
0
  6
HIDDEN
 62
     7
370
    18
100
AcDbCircle
 10
8.7079662587
 20
18.1362453577
 30
0.0
 40
1.137500000000001
100
AcDbArc
 50
67.380135052
 51
112.619864948
  0
ARC
  5
1E1
330
1F
100
AcDbEntity
  8
0
  6
HIDDEN
 62
     7
370
    18
100
AcDbCircle
 10
9.5829662587
 20
20.5362453577
 30
0.0
 40
1.137500000000001
100
AcDbArc
 50
247.380135052
 51
292.619864948
  0
ARC
  5
1E2
330
1F
100
AcDbEntity
  8
0
  6
HIDDEN
 62
     7
370
    18
100
AcDbCircle
 10
8.7079662587
 20
18.4362453577
 30
0.0
 40
1.137500000000001
100
AcDbArc
 50
67.380135052
 51
112.619864948
  0
LINE
  5
1E3
330
1F
100
AcDbEntity
  8
0
  6
Continuous
 62
     7
370
    25
100
AcDbLine
 10
25.4403224588
 20
22.6469752529
 30
0.0
 11
25.4403224588
 21
17.7477303816
 31
0.0
  0
LINE
  5
1E4
330
1F
100
AcDbEntity
  8
0
  6
Continuous
 62
     7
370
    25
100
AcDbLine
 10
26.4403224588
 20
17.7477303816
 30
0.0
 11
26.4403224588
 21
22.6469752529
 31
0.0
  0
LINE
  5
1E5
330
1F
100
AcDbEntity
  8
0
  6
Continuous
 62
     7
370
    25
100
AcDbLine
 10
26.4353224588
 20
16.4633200944
 30
0.0
 11
26.4353224588
 21
17.7395649735
 31
0.0
  0
LINE
  5
1E6
330
1F
100
AcDbEntity
  8
0
  6
Continuous
 62
     7
370
    25
100
AcDbLine
 10
25.4453224588
 20
17.7395649735
 30
0.0
 11
25.4453224588
 21
16.2126336553
 31
0.0
  0
SPLINE
  5
1E7
330
1F
100
AcDbEntity
  8
0
  6
Continuous
 62
     7
370
    25
100
AcDbSpline
210
0.0
220
0.0
230
1.0
 70
     8
 71
     3
 72
    17
 73
    13
 74
     0
 42
0.00000001
 43
0.00000001
 40
0.0
 40
0.0
 40
0.0
 40
0.0
 40
0.0928656083989229
 40
0.2005906726156025
 40
0.3086917476648341
 40
0.4171694485610798
 40
0.5259801160924136
 40
0.6350557641425236
 40
0.7443223203366229
 40
0.8537121166578415
 40
0.9631700947507953
 40
0.9999999999999999
 40
0.9999999999999999
 40
0.9999999999999999
 40
0.9999999999999999
 10
26.42758595585343
 20
17.79044920551475
 30
0.0
 10
26.42581799873555
 20
17.79595254167013
 30
0.0
 10
26.42199919311366
 20
17.80783980456615
 30
0.0
 10
26.41351755997816
 20
17.82572312301669
 30
0.0
 10
26.40273082801578
 20
17.84409514797251
 30
0.0
 10
26.38980827007634
 20
17.86199674067208
 30
0.0
 10
26.37487618966673
 20
17.87935458592926
 30
0.0
 10
26.35797977958999
 20
17.89608267710641
 30
0.0
 10
26.33920771760178
 20
17.91210542620182
 30
0.0
 10
26.31862863751617
 20
17.92733522813643
 30
0.0
 10
26.30132716266347
 20
17.93855950513266
 30
0.0
 10
26.29089522047188
 20
17.944666829678
 30
0.0
 10
26.28826884135077
 20
17.94620442923301
 30
0.0
  0
SPLINE
  5
1E8
330
1F
100
AcDbEntity
  8
0
  6
Continuous
 62
     7
370
    25
100
AcDbSpline
210
0.0
220
0.0
230
1.0
 70
     8
 71
     3
 72
    41
 73
    37
 74
     0
 42
0.00000001
 43
0.00000001
 40
0.0
 40
0.0
 40
0.0
 40
0.0
 40
0.0162113118835262
 40
0.046961088831172
 40
0.0777062143817884
 40
0.1084428406335594
 40
0.1391699404825416
 40
0.1698874766004567
 40
0.2005960634008015
 40
0.2312967312068289
 40
0.2619907674027063
 40
0.2926796131188822
 40
0.323364798631304
 40
0.3540479048948434
 40
0.3847305419621753
 40
0.4154141391083614
 40
0.4460999903212984
 40
0.4767897400567696
 40
0.5074850286775594
 40
0.5381874735947665
 40
0.5688986352267921
 40
0.5996199587636322
 40
0.6303526795767278
 40
0.6610976757786706
 40
0.6918552463407044
 40
0.7226247884526364
 40
0.7534043463577951
 40
0.7841900118951926
 40
0.8149725268321703
 40
0.8457402892796749
 40
0.8764776562720169
 40
0.9071648805838647
 40
0.9377795945693187
 40
0.9683001753275007
 40
0.9987110062005241
 40
1.0
 40
1.0
 40
1.0
 40
1.0
 10
26.28826884135077
 20
17.94620442923301
 30
0.0
 10
26.28408136675682
 20
17.94857058309018
 30
0.0
 10
26.27195104887769
 20
17.95542488101951
 30
0.0
 10
26.2507260850944
 20
17.96603240512295
 30
0.0
 10
26.22423192876886
 20
17.97765008280964
 30
0.0
 10
26.19645822882696
 20
17.98818559540516
 30
0.0
 10
26.16755727520396
 20
17.99761090919779
 30
0.0
 10
26.13765069751859
 20
18.00588287445067
 30
0.0
 10
26.1068732958613
 20
18.01296851014348
 30
0.0
 10
26.0753608727086
 20
18.01883828784269
 30
0.0
 10
26.04325289331294
 20
18.02346806031617
 30
0.0
 10
26.01069111467212
 20
18.02683867909492
 30
0.0
 10
25.97781924371431
 20
18.02893621828428
 30
0.0
 10
25.94478228028869
 20
18.02975201159653
 30
0.0
 10
25.9117259873731
 20
18.02928270834316
 30
0.0
 10
25.87879630821191
 20
18.02753030468518
 30
0.0
 10
25.84613860106836
 20
18.02450214300949
 30
0.0
 10
25.81389692873911
 20
18.02021084848152
 30
0.0
 10
25.78221338930117
 20
18.01467421974025
 30
0.0
 10
25.75122763916809
 20
18.00791512212765
 30
0.0
 10
25.72107632129851
 20
17.9999613460928
 30
0.0
 10
25.69189253177857
 20
17.99084544247765
 30
0.0
 10
25.66380533537837
 20
17.98060454347847
 30
0.0
 10
25.63693934289854
 20
17.96928018307988
 30
0.0
 10
25.6114143542157
 20
17.9569181390623
 30
0.0
 10
25.58734509457569
 20
17.943568325439
 30
0.0
 10
25.56484095435677
 20
17.92928478747881
 30
0.0
 10
25.54400661664378
 20
17.91412625420462
 30
0.0
 10
25.52494062452139
 20
17.89815648849514
 30
0.0
 10
25.50773753799846
 20
17.88144458639222
 30
0.0
 10
25.49247658732432
 20
17.86406630110526
 30
0.0
 10
25.47925834068867
 20
17.84610074987934
 30
0.0
 10
25.4680626242852
 20
17.82764579560443
 30
0.0
 10
25.45926750746484
 20
17.80876055846932
 30
0.0
 10
25.45411377974888
 20
17.79574286139777
 30
0.0
 10
25.45252554725406
 20
17.78899130405189
 30
0.0
 10
25.45246096576633
 20
17.78871676891974
 30
0.0
  0
LINE
  5
1E9
330
1F
100
AcDbEntity
  8
0
  6
Continuous
 62
     7
370
    25
100
AcDbLine
 10
23.5963214386
 20
14.5588708539
 30
0.0
 11
21.6724195058
 21
11.2265749674
 31
0.0
  0
LINE
  5
1EA
330
1F
100
AcDbEntity
  8
0
  6
Continuous
 62
     7
370
    25
100
AcDbLine
 10
22.8155885204
 20
11.2266017809
 30
0.0
 11
24.4536865877
 21
14.0638708528
 31
0.0
  0
LINE
  5
1EB
330
1F
100
AcDbEntity
  8
0
  6
Continuous
 62
     7
370
    25
100
AcDbLine
 10
27.7296054283
 20
15.6627591432
 30
0.0
 11
29.1416006853
 21
14.847366648
 31
0.0
  0
LINE
  5
1EC
330
1F
100
AcDbEntity
  8
0
  6
Continuous
 62
     7
370
    25
100
AcDbLine
 10
27.6081006837
 20
15.7329251415
 30
0.0
 11
27.6616022708
 21
15.7020292923
 31
0.0
  0
LINE
  5
1ED
330
1F
100
AcDbEntity
  8
0
  6
Continuous
 62
     7
370
    25
100
AcDbLine
 10
30.1316811237
 20
15.4188350393
 30
0.0
 11
28.1031811253
 21
16.5902438433
 31
0.0
  0
ARC
  5
1EE
330
1F
100
AcDbEntity
  8
0
  6
Continuous
 62
     7
370
    25
100
AcDbCircle
 10
24.3400040131
 20
14.8569668561
 30
0.0
 40
0.4950000000000028
100
AcDbArc
 50
62.0626276029
 51
149.9999999272
  0
LINE
  5
1EF
330
1F
100
AcDbEntity
  8
0
  6
Continuous
 62
     7
370
    25
100
AcDbLine
 10
24.4586865877
 20
14.0725311068
 30
0.0
 11
24.5061865877
 21
14.1548035199
 31
0.0
  0
LINE
  5
1F0
330
1F
100
AcDbEntity
  8
0
  6
Continuous
 62
     7
370
    25
100
AcDbLine
 10
23.9113214386
 20
15.1044668567
 30
0.0
 11
23.6013214386
 21
14.5675311079
 31
0.0
  0
SPLINE
  5
1F1
330
1F
100
AcDbEntity
  8
0
  6
Continuous
 62
     7
370
    25
100
AcDbSpline
210
0.0
220
0.0
230
1.0
 70
     8
 71
     3
 72
    12
 73
     8
 74
     0
 42
0.00000001
 43
0.00000001
 40
0.0
 40
0.0
 40
0.0
 40
0.0
 40
0.1448638386356504
 40
0.4189643997178525
 40
0.6416574927259714
 40
0.8866589439380005
 40
0.9999999999999999
 40
0.9999999999999999
 40
0.9999999999999999
 40
0.9999999999999999
 10
24.44617992392608
 20
14.06831957303751
 30
0.0
 10
24.44683222674549
 20
14.06808621753977
 30
0.0
 10
24.44871876835407
 20
14.06741132415746
 30
0.0
 10
24.45192395044824
 20
14.06749243144966
 30
0.0
 10
24.45523600684428
 20
14.06881078198136
 30
0.0
 10
24.45754907783886
 20
14.07057716684905
 30
0.0
 10
24.458308955538
 20
14.07212865845636
 30
0.0
 10
24.45854929917335
 20
14.07261938365271
 30
0.0
  0
SPLINE
  5
1F2
330
1F
100
AcDbEntity
  8
0
  6
Continuous
 62
     7
370
    25
100
AcDbSpline
210
0.0
220
0.0
230
1.0
 70
     8
 71
     3
 72
    14
 73
    10
 74
     0
 42
0.00000001
 43
0.00000001
 40
0.0
 40
0.0
 40
0.0
 40
0.0
 40
0.0940977772880529
 40
0.3305717182289598
 40
0.5203449776434067
 40
0.6802970278948044
 40
0.8143270306417374
 40
0.9220750371430512
 40
1.0
 40
1.0
 40
1.0
 40
1.0
 10
23.6014710448506
 20
14.5674806623471
 30
0.0
 10
23.601206980262
 20
14.56710783713427
 30
0.0
 10
23.60027930388861
 20
14.5657980774911
 30
0.0
 10
23.59987678754858
 20
14.5632021337794
 30
0.0
 10
23.60010071147248
 20
14.56037402302549
 30
0.0
 10
23.60090739124719
 20
14.55815055029812
 30
0.0
 10
23.60194303404235
 20
14.55650137394402
 30
0.0
 10
23.60297698772323
 20
14.55534041904045
 30
0.0
 10
23.60367038988902
 20
14.5547819738641
 30
0.0
 10
23.60396140337472
 20
14.55454760038596
 30
0.0
  0
LINE
  5
1F3
330
1F
100
AcDbEntity
  8
0
  6
Continuous
 62
     7
370
    25
100
AcDbLine
 10
28.0981811253
 20
16.5931312202
 30
0.0
 11
27.7881811253
 21
16.7721485874
 31
0.0
  0
LINE
  5
1F4
330
1F
100
AcDbEntity
  8
0
  6
Continuous
 62
     7
370
    25
100
AcDbLine
 10
27.2999354291
 20
15.9108829885
 30
0.0
 11
27.6031006837
 21
15.7358125184
 31
0.0
  0
ARC
  5
1F5
330
1F
100
AcDbEntity
  8
0
  6
Continuous
 62
     7
370
    25
100
AcDbCircle
 10
27.5406409045
 20
16.3434892366
 30
0.0
 40
0.4950000000000008
100
AcDbArc
 50
59.9946241226
 51
68.9145722229
  0
LINE
  5
1F6
330
1F
100
AcDbEntity
  8
0
  6
Continuous
 62
     7
370
    25
100
AcDbLine
 10
24.7026845225
 20
21.9735612894
 30
0.0
 11
24.7380456064
 21
21.9531411346
 31
0.0
  0
LINE
  5
1F7
330
1F
100
AcDbEntity
  8
0
  6
Continuous
 62
     7
370
    25
100
AcDbLine
 10
27.1425993113
 20
21.9531411346
 30
0.0
 11
27.1779603952
 21
21.9735612894
 31
0.0
  0
LINE
  5
1F8
330
1F
100
AcDbEntity
  8
0
  6
Continuous
 62
     7
370
    25
100
AcDbLine
 10
24.1903224588
 20
22.9531780574
 30
0.0
 11
24.1903224588
 21
22.6878022935
 31
0.0
  0
LINE
  5
1F9
330
1F
100
AcDbEntity
  8
0
  6
Continuous
 62
     7
370
    25
100
AcDbLine
 10
27.6903224588
 20
22.6878022935
 30
0.0
 11
27.6903224588
 21
22.9531780574
 31
0.0
  0
LINE
  5
1FA
330
1F
100
AcDbEntity
  8
0
  6
Continuous
 62
     7
370
    25
100
AcDbLine
 10
24.693786324
 20
15.4521793373
 30
0.0
 11
24.6491257491
 21
15.4263973362
 31
0.0
  0
LINE
  5
1FB
330
1F
100
AcDbEntity
  8
0
  6
Continuous
 62
     7
370
    25
100
AcDbLine
 10
24.7402840534
 20
14.3358993366
 30
0.0
 11
25.1887460966
 21
14.5947909635
 31
0.0
  0
SPLINE
  5
1FC
330
1F
100
AcDbEntity
  8
0
  6
Continuous
 62
     7
370
    25
100
AcDbSpline
210
0.0
220
0.0
230
1.0
 70
     8
 71
     3
 72
    18
 73
    14
 74
     0
 42
0.00000001
 43
0.00000001
 40
0.0
 40
0.0
 40
0.0
 40
0.0
 40
0.0814789445593948
 40
0.1748284664985926
 40
0.2785755731012172
 40
0.3819585610994672
 40
0.4846645938837533
 40
0.5866957538254491
 40
0.688065384616614
 40
0.7887885418647845
 40
0.8888807858487775
 40
0.9883575552955505
 40
1.0
 40
1.0
 40
1.0
 40
1.0
 10
24.41771092317931
 20
14.27544706415158
 30
0.0
 10
24.42670805427855
 20
14.27416693527531
 30
0.0
 10
24.44601309856296
 20
14.27142017696163
 30
0.0
 10
24.47704906525844
 20
14.26952265075712
 30
0.0
 10
24.51057396625279
 20
14.26950576353156
 30
0.0
 10
24.54506411848336
 20
14.2719653564402
 30
0.0
 10
24.57910754412601
 20
14.27677785352571
 30
0.0
 10
24.61251934836075
 20
14.28388626747327
 30
0.0
 10
24.64514201812724
 20
14.29322514058896
 30
0.0
 10
24.67687973120826
 20
14.30464331946306
 30
0.0
 10
24.70745698752075
 20
14.31829519938095
 30
0.0
 10
24.7285791540138
 20
14.32882105536481
 30
0.0
 10
24.73912781451203
 20
14.33532139414509
 30
0.0
 10
24.74023304367959
 20
14.33600246298982
 30
0.0
  0
SPLINE
  5
1FD
330
1F
100
AcDbEntity
  8
0
  6
Continuous
 62
     7
370
    25
100
AcDbSpline
210
0.0
220
0.0
230
1.0
 70
     8
 71
     3
 72
    28
 73
    24
 74
     0
 42
0.00000001
 43
0.00000001
 40
0.0
 40
0.0
 40
0.0
 40
0.0
 40
0.0264103960041367
 40
0.0754468664044965
 40
0.1244581706147203
 40
0.1734555904828738
 40
0.2224495743611317
 40
0.2714488453536845
 40
0.3204600809229606
 40
0.3694879748635942
 40
0.4185355000062417
 40
0.4676042420419129
 40
0.5166947279232731
 40
0.5658067119293606
 40
0.6203889543908131
 40
0.6747796309320233
 40
0.7288141555299741
 40
0.7824936237381035
 40
0.835825055787224
 40
0.888816372561583
 40
0.9414757604572946
 40
0.9938113419210002
 40
1.0
 40
1.0
 40
1.0
 40
1.0
 10
27.72904558540104
 20
16.79408729141393
 30
0.0
 10
27.72501952070312
 20
16.79797753471281
 30
0.0
 10
27.71351821775589
 20
16.80909083518758
 30
0.0
 10
27.69309206544828
 20
16.82583334621516
 30
0.0
 10
27.66799676980425
 20
16.84432943312863
 30
0.0
 10
27.64173223759319
 20
16.86113206660582
 30
0.0
 10
27.61448188685395
 20
16.87626769464021
 30
0.0
 10
27.58632624095336
 20
16.88965519289527
 30
0.0
 10
27.55737860602023
 20
16.90124879761727
 30
0.0
 10
27.52774864817803
 20
16.91100040208525
 30
0.0
 10
27.49755177282354
 20
16.91887033925962
 30
0.0
 10
27.46690612096097
 20
16.92482515465288
 30
0.0
 10
27.43593242178942
 20
16.92883875136341
 30
0.0
 10
27.40360107965627
 20
16.93096858775499
 30
0.0
 10
27.37006949405869
 20
16.93094053135862
 30
0.0
 10
27.33558118649865
 20
16.9284933388452
 30
0.0
 10
27.30153726998093
 20
16.92367754995299
 30
0.0
 10
27.26812559948889
 20
16.91657000339922
 30
0.0
 10
27.23550288128017
 20
16.90723092222499
 30
0.0
 10
27.20376522894118
 20
16.895812716879
 30
0.0
 10
27.17318777946481
 20
16.88216114599596
 30
0.0
 10
27.15205404858394
 20
16.87162842911983
 30
0.0
 10
27.14149411561874
 20
16.86512072629633
 30
0.0
 10
27.14037745327559
 20
16.86443256788591
 30
0.0
  0
LINE
  5
1FE
330
1F
100
AcDbEntity
  8
0
  6
Continuous
 62
     7
370
    25
100
AcDbLine
 10
27.1720949846
 20
15.7397539053
 30
0.0
 11
27.2315191685
 21
15.7740587565
 31
0.0
  0
LINE
  5
1FF
330
1F
100
AcDbEntity
  8
0
  6
Continuous
 62
     7
370
    25
100
AcDbLine
 10
27.1403608643
 20
16.8645567561
 30
0.0
 11
26.6771352119
 21
16.5971422791
 31
0.0
  0
LINE
  5
200
330
1F
100
AcDbEntity
  8
0
  6
Continuous
 62
     7
370
    25
100
AcDbLine
 10
27.0877072316
 20
16.769393592
 30
0.0
 11
27.0791798922
 21
16.7682307778
 31
0.0
  0
LINE
  5
201
330
1F
100
AcDbEntity
  8
0
  6
Continuous
 62
     7
370
    25
100
AcDbLine
 10
26.9420558635
 20
16.5306992561
 30
0.0
 11
26.9453132541
 21
16.5227332622
 31
0.0
  0
LINE
  5
202
330
1F
100
AcDbEntity
  8
0
  6
Continuous
 62
     7
370
    25
100
AcDbLine
 10
27.1554089216
 20
16.7460073313
 30
0.0
 11
27.1263524461
 21
16.7627812776
 31
0.0
  0
LINE
  5
203
330
1F
100
AcDbEntity
  8
0
  6
Continuous
 62
     7
370
    25
100
AcDbLine
 10
26.9703651238
 20
16.4925740325
 30
0.0
 11
26.9959981971
 21
16.4777763743
 31
0.0
  0
LINE
  5
204
330
1F
100
AcDbEntity
  8
0
  6
Continuous
 62
     7
370
    25
100
AcDbLine
 10
26.4557522199
 20
16.3577535082
 30
0.0
 11
26.4480178415
 21
16.3532870949
 31
0.0
  0
LINE
  5
205
330
1F
100
AcDbEntity
  8
0
  6
Continuous
 62
     7
370
    25
100
AcDbLine
 10
26.4031945578
 20
16.2756424773
 30
0.0
 11
26.4031945578
 21
16.2667111024
 31
0.0
  0
LINE
  5
206
330
1F
100
AcDbEntity
  8
0
  6
Continuous
 62
     7
370
    25
100
AcDbLine
 10
24.7332401009
 20
15.363368428
 30
0.0
 11
24.7255057225
 21
15.3589020147
 31
0.0
  0
LINE
  5
207
330
1F
100
AcDbEntity
  8
0
  6
Continuous
 62
     7
370
    25
100
AcDbLine
 10
24.6806824388
 20
15.2812573971
 30
0.0
 11
24.6806824388
 21
15.2723260222
 31
0.0
  0
LINE
  5
208
330
1F
100
AcDbEntity
  8
0
  6
Continuous
 62
     7
370
    25
100
AcDbLine
 10
26.3351708854
 20
17.3076620471
 30
0.0
 11
26.3351708854
 21
17.3115056432
 31
0.0
  0
LINE
  5
209
330
1F
100
AcDbEntity
  8
0
  6
Continuous
 62
     7
370
    25
100
AcDbLine
 10
26.2903476017
 20
17.3891502609
 30
0.0
 11
26.2870954392
 21
17.3910283048
 31
0.0
  0
LINE
  5
20A
330
1F
100
AcDbEntity
  8
0
  6
Continuous
 62
     7
370
    25
100
AcDbLine
 10
25.4453224588
 20
16.2126336553
 30
0.0
 11
25.4453224588
 21
15.8918052594
 31
0.0
  0
LINE
  5
20B
330
1F
100
AcDbEntity
  8
0
  6
Continuous
 62
     7
370
    25
100
AcDbLine
 10
25.4453475553
 20
15.8918197473
 30
0.0
 11
24.7265562329
 21
15.4768703493
 31
0.0
  0
LINE
  5
20C
330
1F
100
AcDbEntity
  8
0
  6
Continuous
 62
     7
370
    25
100
AcDbLine
 10
26.6541293184
 20
16.5896346057
 30
0.0
 11
25.934053101
 21
16.1739434537
 31
0.0
  0
LINE
  5
20D
330
1F
100
AcDbEntity
  8
0
  6
Continuous
 62
     7
370
    25
100
AcDbLine
 10
25.2265155992
 20
14.610821487
 30
0.0
 11
27.1540886847
 21
15.7235857434
 31
0.0
  0
LINE
  5
20E
330
1F
100
AcDbEntity
  8
0
  6
Continuous
 62
     7
370
    25
100
AcDbLine
 10
24.6229825255
 20
15.2479479461
 30
0.0
 11
24.6229825255
 21
15.2242721109
 31
0.0
  0
LINE
  5
20F
330
1F
100
AcDbEntity
  8
0
  6
Continuous
 62
     7
370
    25
100
AcDbLine
 10
24.9559756898
 20
14.6474485315
 30
0.0
 11
24.9764784537
 21
14.6356086899
 31
0.0
  0
SPLINE
  5
210
330
1F
100
AcDbEntity
  8
0
  6
Continuous
 62
     7
370
    25
100
AcDbSpline
210
0.0
220
0.0
230
1.0
 70
     8
 71
     3
 72
    13
 73
     9
 74
     0
 42
0.00000001
 43
0.00000001
 40
0.0
 40
0.0
 40
0.0
 40
0.0
 40
0.1415086394193066
 40
0.3554897324368797
 40
0.5694668504728987
 40
0.7834781992672071
 40
0.9975635047494634
 40
1.0
 40
1.0
 40
1.0
 40
1.0
 10
24.62400646634845
 20
14.63276142524686
 30
0.0
 10
24.6279422739819
 20
14.63863407429283
 30
0.0
 10
24.63782957986147
 20
14.65338699995599
 30
0.0
 10
24.65246994949251
 20
14.67794393947345
 30
0.0
 10
24.6680048733737
 20
14.70614992826102
 30
0.0
 10
24.68220660759892
 20
14.73492669306353
 30
0.0
 10
24.69108118794871
 20
14.75444302618533
 30
0.0
 10
24.69512066852669
 20
14.76433121871412
 30
0.0
 10
24.6951661243432
 20
14.76444248942243
 30
0.0
  0
LWPOLYLINE
  5
211
330
1F
100
AcDbEntity
  8
0
  6
Continuous
 62
     7
370
    25
100
AcDbPolyline
 90
       34
 70
   128
 43
0.0
 10
25.6730965323
 20
17.9916918574
 10
25.7035719114
 20
18.0019659358
 10
25.7352267698
 20
18.0109734254
 10
25.7679034047
 20
18.0186694514
 10
25.8014390225
 20
18.0250156726
 10
25.8356665507
 20
18.0299804724
 10
25.8704154694
 20
18.0335391164
 10
25.9055126611
 20
18.0356738758
 10
25.9407832736
 20
18.0363741151
 10
25.9760515902
 20
18.0356363458
 10
26.0111419062
 20
18.0334642435
 10
26.0458794032
 20
18.0298686295
 10
26.0800910208
 20
18.024867417
 10
26.1136063185
 20
18.0184855216
 10
26.1462583247
 20
18.0107547378
 10
26.1778843687
 20
18.0017135799
 10
26.2083268913
 20
17.9914070904
 10
26.2374342293
 20
17.9798866159
 10
26.2650613714
 20
17.9672095506
 10
26.2910706806
 20
17.9534390512
 10
26.3153325797
 20
17.9386437216
 10
26.3377261973
 20
17.9228972712
 10
26.3581399695
 20
17.9062781483
 10
26.3764721959
 20
17.8888691483
 10
26.3926315462
 20
17.8707570022
 10
26.4065375153
 20
17.8520319435
 10
26.4181208246
 20
17.8327872598
 10
26.4273237664
 20
17.8131188269
 10
26.4341004921
 20
17.7931246321
 10
26.4384172406
 20
17.7729042855
 10
26.4402525059
 20
17.7525585237
 10
26.4395971449
 20
17.7321887083
 10
26.4364544224
 20
17.7118963208
 10
26.4353224588
 20
17.7070121549
  0
LWPOLYLINE
  5
212
330
1F
100
AcDbEntity
  8
0
  6
Continuous
 62
     7
370
    25
100
AcDbPolyline
 90
       18
 70
   128
 43
0.0
 10
25.4453224588
 20
17.7070121549
 10
25.4440769212
 20
17.7124243109
 10
25.440998997
 20
17.7327200081
 10
25.4404086771
 20
17.7530904862
 10
25.4423089025
 20
17.7734342606
 10
25.4466902065
 20
17.7936499795
 10
25.4535307615
 20
17.8136369292
 10
25.4627964882
 20
17.8332955359
 10
25.4744412253
 20
17.8525278613
 10
25.4884069593
 20
17.8712380909
 10
25.5046241135
 20
17.8893330113
 10
25.523011895
 20
17.9067224745
 10
25.5434786968
 20
17.9233198471
 10
25.5659225542
 20
17.9390424419
 10
25.5902316531
 20
17.9538119296
 10
25.6162848867
 20
17.9675547293
 10
25.6439524593
 20
17.9802023753
 10
25.6730965323
 20
17.9916918574
  0
LWPOLYLINE
  5
213
330
1F
100
AcDbEntity
  8
0
  6
Continuous
 62
     7
370
    25
100
AcDbPolyline
 90
       32
 70
   128
 43
0.0
 10
25.6730965323
 20
22.8909367287
 10
25.7035719114
 20
22.9012108071
 10
25.7352267698
 20
22.9102182967
 10
25.7679034047
 20
22.9179143227
 10
25.8014390225
 20
22.9242605439
 10
25.8356665507
 20
22.9292253437
 10
25.8704154694
 20
22.9327839877
 10
25.9055126611
 20
22.9349187471
 10
25.9407832736
 20
22.9356189864
 10
25.9760515902
 20
22.9348812171
 10
26.0111419062
 20
22.9327091149
 10
26.0458794032
 20
22.9291135009
 10
26.0800910208
 20
22.9241122883
 10
26.1136063185
 20
22.917730393
 10
26.1462583247
 20
22.9099996091
 10
26.1778843687
 20
22.9009584512
 10
26.2083268913
 20
22.8906519618
 10
26.2374342293
 20
22.8791314872
 10
26.2650613714
 20
22.866454422
 10
26.2910706806
 20
22.8526839225
 10
26.3153325797
 20
22.8378885929
 10
26.3377261973
 20
22.8221421426
 10
26.3581399695
 20
22.8055230196
 10
26.3764721959
 20
22.7881140197
 10
26.3926315462
 20
22.7700018735
 10
26.4065375153
 20
22.7512768149
 10
26.4181208246
 20
22.7320321311
 10
26.4273237664
 20
22.7123636982
 10
26.4341004921
 20
22.6923695035
 10
26.4384172406
 20
22.6721491568
 10
26.4402525059
 20
22.651803395
 10
26.4403224588
 20
22.6469752529
  0
LWPOLYLINE
  5
214
330
1F
100
AcDbEntity
  8
0
  6
Continuous
 62
     7
370
    25
100
AcDbPolyline
 90
       16
 70
   128
 43
0.0
 10
25.4403224588
 20
22.6469752529
 10
25.4404086771
 20
22.6523353575
 10
25.4423089025
 20
22.6726791319
 10
25.4466902065
 20
22.6928948508
 10
25.4535307615
 20
22.7128818005
 10
25.4627964882
 20
22.7325404072
 10
25.4744412253
 20
22.7517727326
 10
25.4884069593
 20
22.7704829622
 10
25.5046241135
 20
22.7885778826
 10
25.523011895
 20
22.8059673458
 10
25.5434786968
 20
22.8225647185
 10
25.5659225542
 20
22.8382873132
 10
25.5902316531
 20
22.8530568009
 10
25.6162848867
 20
22.8667996006
 10
25.6439524593
 20
22.8794472466
 10
25.6730965323
 20
22.8909367287
  0
LWPOLYLINE
  5
215
330
1F
100
AcDbEntity
  8
0
  6
Continuous
 62
     7
370
    25
100
AcDbPolyline
 90
       36
 70
   128
 43
0.0
 10
26.3193954268
 20
16.3963968433
 10
26.3024749187
 20
16.4074377628
 10
26.2777696336
 20
16.4216998203
 10
26.2513832036
 20
16.4349203207
 10
26.2234470847
 20
16.4470334001
 10
26.1941004531
 20
16.4579787118
 10
26.1634895123
 20
16.4677017267
 10
26.1317667645
 20
16.4761540054
 10
26.0990902508
 20
16.4832934389
 10
26.0656227639
 20
16.489084459
 10
26.0315310372
 20
16.4934982151
 10
25.9969849139
 20
16.496512718
 10
25.9621565012
 20
16.4981129498
 10
25.9272193123
 20
16.4982909381
 10
25.8923474027
 20
16.4970457962
 10
25.8577145024
 20
16.4943837273
 10
25.8234931507
 20
16.4903179937
 10
25.7898538369
 20
16.4848688507
 10
25.7569641501
 20
16.4780634456
 10
25.7249879451
 20
16.4699356827
 10
25.6940845259
 20
16.460526054
 10
25.6644078517
 20
16.4498814379
 10
25.6361057702
 20
16.4380548652
 10
25.6093192809
 20
16.4251052555
 10
25.5841818328
 20
16.4110971229
 10
25.5608186594
 20
16.3961002552
 10
25.5393461549
 20
16.3801893662
 10
25.5198712941
 20
16.3634437231
 10
25.5024910998
 20
16.3459467518
 10
25.4872921594
 20
16.3277856214
 10
25.4743501931
 20
16.3090508097
 10
25.4637296772
 20
16.2898356525
 10
25.4554835226
 20
16.2702358789
 10
25.4496528112
 20
16.2503491339
 10
25.4462665913
 20
16.2302744923
 10
25.4453224588
 20
16.2126336553
  0
ARC
  5
216
330
1F
100
AcDbEntity
  8
0
  6
Continuous
 62
     7
370
    25
100
AcDbCircle
 10
25.6138223254
 20
17.7393833789
 30
0.0
 40
0.1684999644506275
100
AcDbArc
 50
163.626005875
 51
179.9382515781
  0
ARC
  5
217
330
1F
100
AcDbEntity
  8
0
  6
Continuous
 62
     7
370
    25
100
AcDbCircle
 10
26.2660054823
 20
17.7392794357
 30
0.0
 40
0.1693172173022617
100
AcDbArc
 50
0.0966240565
 51
16.9242273269
  0
SPLINE
  5
218
330
1F
100
AcDbEntity
  8
0
  6
Continuous
 62
     7
370
    25
100
AcDbSpline
210
0.0
220
0.0
230
1.0
 70
     8
 71
     3
 72
    20
 73
    16
 74
     0
 42
0.00000001
 43
0.00000001
 40
0.0
 40
0.0
 40
0.0
 40
0.0
 40
0.0819645731223014
 40
0.1639107983194371
 40
0.2463347863670192
 40
0.3290905352797828
 40
0.4113207821255879
 40
0.4929870169657105
 40
0.5749304610063996
 40
0.657557241265379
 40
0.7402137375571817
 40
0.8222046361089895
 40
0.9038736819825551
 40
0.9860504487331833
 40
1.0
 40
1.0
 40
1.0
 40
1.0
 10
26.29034031549946
 20
17.28186100516463
 30
0.0
 10
26.2848873288627
 20
17.28553112419463
 30
0.0
 10
26.2739825762506
 20
17.29287054069155
 30
0.0
 10
26.2586122347488
 20
17.31001891606851
 30
0.0
 10
26.24648384353437
 20
17.32967109745389
 30
0.0
 10
26.23930958018974
 20
17.35039752376498
 30
0.0
 10
26.23824214030302
 20
17.36978705260065
 30
0.0
 10
26.24336930040887
 20
17.3857032956759
 30
0.0
 10
26.25388563513064
 20
17.3963493738097
 30
0.0
 10
26.26835549365477
 20
17.40033329857066
 30
0.0
 10
26.28476293460238
 20
17.39689946136654
 30
0.0
 10
26.30109704264953
 20
17.38637029989276
 30
0.0
 10
26.3150874706778
 20
17.36998505763325
 30
0.0
 10
26.32393447906479
 20
17.35546416060593
 30
0.0
 10
26.32652810661011
 20
17.34714810899748
 30
0.0
 10
26.32690448574494
 20
17.34594130954191
 30
0.0
  0
SPLINE
  5
219
330
1F
100
AcDbEntity
  8
0
  6
Continuous
 62
     7
370
    25
100
AcDbSpline
210
0.0
220
0.0
230
1.0
 70
     8
 71
     3
 72
    12
 73
     8
 74
     0
 42
0.00000001
 43
0.00000001
 40
0.0
 40
0.0
 40
0.0
 40
0.0
 40
0.1845498258792359
 40
0.4042537807535932
 40
0.625752031829624
 40
0.8481569128889997
 40
1.0
 40
1.0
 40
1.0
 40
1.0
 10
26.33474324008056
 20
17.30528197796839
 30
0.0
 10
26.33435954566015
 20
17.30037980220487
 30
0.0
 10
26.33351906846454
 20
17.28964165559931
 30
0.0
 10
26.32670897840144
 20
17.27905231930375
 30
0.0
 10
26.31585061231582
 20
17.27398474552801
 30
0.0
 10
26.30302368044966
 20
17.27541228467387
 30
0.0
 10
26.29400105306506
 20
17.27999974252311
 30
0.0
 10
26.29034031549946
 20
17.28186100516463
 30
0.0
  0
ELLIPSE
  5
21A
330
1F
100
AcDbEntity
  8
0
  6
Continuous
 62
     7
370
    25
100
AcDbEllipse
 10
22.2440040131
 20
11.2265883741
 30
0.0
 11
0.6005032416355151
 21
0.1608741643496767
 31
0.0
210
0.0
220
0.0
230
1.0
 40
0.5175895156
 41
0.0
 42
6.283185307179586
  0
LWPOLYLINE
  5
21B
330
1F
100
AcDbEntity
  8
0
  6
Continuous
 62
     7
370
    25
100
AcDbPolyline
 90
       51
 70
   128
 43
0.0
 10
23.6026422944
 20
14.5552279931
 10
23.5997087842
 20
14.5569199256
 10
23.5969743168
 20
14.5584960053
 10
23.5963722718
 20
14.5588409198
 10
23.5979056486
 20
14.557952951
 10
23.601566808
 20
14.5558365225
 10
23.6073375102
 20
14.5525021784
 10
23.6151890059
 20
14.5479665301
 10
23.6250821794
 20
14.5422521741
 10
23.6369677433
 20
14.5353875789
 10
23.6507864844
 20
14.5274069437
 10
23.6664695585
 20
14.5183500276
 10
23.6839388331
 20
14.5082619516
 10
23.7031072773
 20
14.4971929741
 10
23.7238793948
 20
14.4851982401
 10
23.7461517001
 20
14.4723375068
 10
23.7698132335
 20
14.4586748458
 10
23.7947461146
 20
14.4442783236
 10
23.820826129
 20
14.4292196632
 10
23.8479233473
 20
14.4135738859
 10
23.8759027725
 20
14.3974189382
 10
23.9046250127
 20
14.3808353033
 10
23.9339469749
 20
14.3639056
 10
23.9637225788
 20
14.3467141712
 10
23.9938034837
 20
14.3293466638
 10
24.024039828
 20
14.3118896018
 10
24.0542809759
 20
14.2944299555
 10
24.0843762674
 20
14.2770547078
 10
24.1141757693
 20
14.2598504215
 10
24.143531022
 20
14.2429028073
 10
24.1722957791
 20
14.2262962976
 10
24.2003267361
 20
14.2101136249
 10
24.2274842441
 20
14.1944354107
 10
24.2536330057
 20
14.179339763
 10
24.2786427492
 20
14.1649018875
 10
24.3023888773
 20
14.1511937131
 10
24.3247530879
 20
14.1382835331
 10
24.3456239638
 20
14.1262356654
 10
24.3648975271
 20
14.115110132
 10
24.3824777581
 20
14.1049623595
 10
24.3982770728
 20
14.0958429038
 10
24.41221676
 20
14.0877971975
 10
24.4242273727
 20
14.0808653239
 10
24.4342490747
 20
14.0750818173
 10
24.4422319384
 20
14.0704754908
 10
24.4481361936
 20
14.0670692928
 10
24.4519324256
 20
14.0648801929
 10
24.4536017216
 20
14.0639190971
 10
24.4531357654
 20
14.0641907935
 10
24.4505368784
 20
14.0656939285
 10
24.4480783139
 20
14.067114907
  0
SPLINE
  5
21C
330
1F
100
AcDbEntity
  8
0
  6
Continuous
 62
     7
370
    25
100
AcDbSpline
210
0.0
220
0.0
230
1.0
 70
     8
 71
     3
 72
    18
 73
    14
 74
     0
 42
0.00000001
 43
0.00000001
 40
0.0
 40
0.0
 40
0.0
 40
0.0
 40
0.0355944504161306
 40
0.1419066884880255
 40
0.2485683721684781
 40
0.3561073256851775
 40
0.463698686844143
 40
0.5704132487147882
 40
0.6766958792371056
 40
0.7836583456014216
 40
0.8913555951098924
 40
0.9987016797717121
 40
1.0
 40
1.0
 40
1.0
 40
1.0
 10
24.21900401312409
 20
14.0757809792804
 30
0.0
 10
24.22074088845556
 20
14.07467814060507
 30
0.0
 10
24.22766540123002
 20
14.07028138261267
 30
0.0
 10
24.23699456435707
 20
14.05898834088548
 30
0.0
 10
24.24295237166293
 20
14.04025229374083
 30
0.0
 10
24.24227753034242
 20
14.01882950457763
 30
0.0
 10
24.23526511615499
 20
13.99708950321281
 30
0.0
 10
24.22289790578492
 20
13.97748734793962
 30
0.0
 10
24.20660315965556
 20
13.9622034866936
 30
0.0
 10
24.18791901423754
 20
13.95295002036713
 30
0.0
 10
24.1686227092886
 20
13.95096245435734
 30
0.0
 10
24.1565254598967
 20
13.95482610461719
 30
0.0
 10
24.15106921621985
 20
13.95796402598523
 30
0.0
 10
24.15100401312409
 20
13.95800152471138
 30
0.0
  0
SPLINE
  5
21D
330
1F
100
AcDbEntity
  8
0
  6
Continuous
 62
     7
370
    25
100
AcDbSpline
210
0.0
220
0.0
230
1.0
 70
     8
 71
     3
 72
    17
 73
    13
 74
     0
 42
0.00000001
 43
0.00000001
 40
0.0
 40
0.0
 40
0.0
 40
0.0
 40
0.1051616269070501
 40
0.2115559451632809
 40
0.3187997045662205
 40
0.4264913421225632
 40
0.5000066286076468
 40
0.6066607860550617
 40
0.7132904524995209
 40
0.8205546495933138
 40
0.9282413136661678
 40
1.0
 40
1.0
 40
1.0
 40
1.0
 10
24.15100401312409
 20
13.95800152471138
 30
0.0
 10
24.14601250936077
 20
13.96171880308544
 30
0.0
 10
24.13597099205551
 20
13.9691969333026
 30
0.0
 10
24.12666687378305
 20
13.98776602336323
 30
0.0
 10
24.12333484866804
 20
14.00935452338376
 30
0.0
 10
24.12667926688624
 20
14.02965696337066
 30
0.0
 10
24.13506032438864
 20
14.04842935006031
 30
0.0
 10
24.14798814952903
 20
14.06460748872901
 30
0.0
 10
24.16673467345444
 20
14.0772117819509
 30
0.0
 10
24.18746176009385
 20
14.08304526736255
 30
0.0
 10
24.2056943518844
 20
14.08208476242063
 30
0.0
 10
24.21520198900656
 20
14.0775817114778
 30
0.0
 10
24.21900401312409
 20
14.0757809792804
 30
0.0
  0
ELLIPSE
  5
21E
330
1F
100
AcDbEntity
  8
0
  6
Continuous
 62
     7
370
    25
100
AcDbEllipse
 10
22.2440040131
 20
11.2265883741
 30
0.0
 11
0.5307478145768415
 21
0.1421867614201684
 31
0.0
210
0.0
220
0.0
230
1.0
 40
0.5175895156
 41
0.0
 42
6.283185307179586
  0
SPLINE
  5
21F
330
1F
100
AcDbEntity
  8
0
  6
Continuous
 62
     7
370
    25
100
AcDbSpline
210
0.0
220
0.0
230
1.0
 70
     8
 71
     3
 72
    14
 73
    10
 74
     0
 42
0.00000001
 43
0.00000001
 40
0.0
 40
0.0
 40
0.0
 40
0.0
 40
0.1404763810502335
 40
0.2927348809300567
 40
0.4451385617438113
 40
0.595748947641551
 40
0.7454425608267801
 40
0.8965057244979162
 40
1.0
 40
1.0
 40
1.0
 40
1.0
 10
24.13378149675996
 20
13.97649800389281
 30
0.0
 10
24.13964275063037
 20
13.97733553657527
 30
0.0
 10
24.15185685695221
 20
13.97908084798095
 30
0.0
 10
24.16954600281642
 20
13.99060853144938
 30
0.0
 10
24.18480133980119
 20
14.00740441616516
 30
0.0
 10
24.19571496949295
 20
14.02791260604174
 30
0.0
 10
24.20081693998863
 20
14.04939101440035
 30
0.0
 10
24.20053733640917
 20
14.06826826546633
 30
0.0
 10
24.19567406054304
 20
14.07765150211123
 30
0.0
 10
24.19369682030223
 20
14.08146640251871
 30
0.0
  0
ELLIPSE
  5
220
330
1F
100
AcDbEntity
  8
0
  6
Continuous
 62
     7
370
    25
100
AcDbEllipse
 10
29.6366409045
 20
15.1331008436
 30
0.0
 11
0.6005032416355114
 21
0.1608741643496785
 31
0.0
210
0.0
220
0.0
230
1.0
 40
0.5175895156
 41
0.0
 42
6.283185307179586
  0
ELLIPSE
  5
221
330
1F
100
AcDbEntity
  8
0
  6
Continuous
 62
     7
370
    25
100
AcDbEllipse
 10
29.6366409045
 20
15.1331008436
 30
0.0
 11
0.5307478145768378
 21
0.1421867614201684
 31
0.0
210
0.0
220
0.0
230
1.0
 40
0.5175895156
 41
0.0
 42
6.283185307179586
  0
LWPOLYLINE
  5
222
330
1F
100
AcDbEntity
  8
0
  6
Continuous
 62
     7
370
    25
100
AcDbPolyline
 90
       24
 70
   128
 43
0.0
 10
27.5056230478
 20
16.3636455001
 10
27.5239533259
 20
16.3933809937
 10
27.5439360547
 20
16.4219616888
 10
27.5654716815
 20
16.4492451978
 10
27.5884529167
 20
16.4750955957
 10
27.6127652691
 20
16.499384097
 10
27.6382876156
 20
16.5219896976
 10
27.6648928053
 20
16.5427997777
 10
27.6924482924
 20
16.5617106624
 10
27.7208167969
 20
16.5786281386
 10
27.7498569884
 20
16.5934679243
 10
27.77942419
 20
16.6061560886
 10
27.8093710994
 20
16.6166294195
 10
27.8395485226
 20
16.6248357394
 10
27.8698061174
 20
16.630734165
 10
27.8999931417
 20
16.6342953105
 10
27.9299592054
 20
16.6355014344
 10
27.9595550191
 20
16.634346528
 10
27.9886331378
 20
16.630836345
 10
28.017048696
 20
16.6249883727
 10
28.0446601287
 20
16.6168317457
 10
28.0713298771
 20
16.6064070998
 10
28.0969250739
 20
16.59376637
 10
28.1031811253
 20
16.5902438433
  0
LWPOLYLINE
  5
223
330
1F
100
AcDbEntity
  8
0
  6
Continuous
 62
     7
370
    25
100
AcDbPolyline
 90
       24
 70
   128
 43
0.0
 10
27.6081006837
 20
15.7329251415
 10
27.6020021684
 20
15.7365347544
 10
27.5782560403
 20
15.7523781652
 10
27.5558918297
 20
15.7702602212
 10
27.5350209539
 20
15.7900918351
 10
27.5157473905
 20
15.8117742068
 10
27.4981671595
 20
15.8351993157
 10
27.4823678448
 20
15.8602504591
 10
27.4684281576
 20
15.8868028335
 10
27.4564175449
 20
15.9147241564
 10
27.4463958429
 20
15.943875325
 10
27.4384129792
 20
15.9741111097
 10
27.432508724
 20
16.0052808774
 10
27.4287124921
 20
16.0372293418
 10
27.427043196
 20
16.0697973374
 10
27.4275091522
 20
16.1028226119
 10
27.4301080392
 20
16.1361406351
 10
27.4348269095
 20
16.1695854184
 10
27.441642254
 20
16.2029903415
 10
27.450520119
 20
16.2361889827
 10
27.4614162753
 20
16.2690159481
 10
27.4742764389
 20
16.3013076954
 10
27.4890365411
 20
16.3329033487
 10
27.5056230478
 20
16.3636455001
  0
SPLINE
  5
224
330
1F
100
AcDbEntity
  8
0
  6
Continuous
 62
     7
370
    25
100
AcDbSpline
210
0.0
220
0.0
230
1.0
 70
     8
 71
     3
 72
    18
 73
    14
 74
     0
 42
0.00000001
 43
0.00000001
 40
0.0
 40
0.0
 40
0.0
 40
0.0
 40
0.0355944504161307
 40
0.1419066884880258
 40
0.2485683721684788
 40
0.3561073256851785
 40
0.4636986868441442
 40
0.5704132487147895
 40
0.6766958792371043
 40
0.7836583456014203
 40
0.8913555951098915
 40
0.9987016797717121
 40
0.9999999999999999
 40
0.9999999999999999
 40
0.9999999999999999
 40
0.9999999999999999
 10
27.66164090450021
 20
15.70200698604989
 30
0.0
 10
27.65990402916873
 20
15.70302333461985
 30
0.0
 10
27.65297951639428
 20
15.70707527693746
 30
0.0
 10
27.64365035326723
 20
15.71327237326328
 30
0.0
 10
27.63769254596137
 20
15.71850672852802
 30
0.0
 10
27.63836738728187
 20
15.71994934113141
 30
0.0
 10
27.64537980146931
 20
15.71694389917224
 30
0.0
 10
27.65774701183938
 20
15.70959533361655
 30
0.0
 10
27.67404175796873
 20
15.69883509060975
 30
0.0
 10
27.69272590338676
 20
15.68613698964651
 30
0.0
 10
27.71202220833571
 20
15.67335183834323
 30
0.0
 10
27.72411945772757
 20
15.66592775541739
 30
0.0
 10
27.72957570140445
 20
15.66277632053953
 30
0.0
 10
27.72964090450021
 20
15.6627386603245
 30
0.0
  0
SPLINE
  5
225
330
1F
100
AcDbEntity
  8
0
  6
Continuous
 62
     7
370
    25
100
AcDbSpline
210
0.0
220
0.0
230
1.0
 70
     8
 71
     3
 72
    10
 73
     6
 74
     0
 42
0.00000001
 43
0.00000001
 40
0.0
 40
0.0
 40
0.0
 40
0.0
 40
0.087123995251979
 40
0.6349485637943033
 40
0.9999999999999999
 40
0.9999999999999999
 40
0.9999999999999999
 40
0.9999999999999999
 10
27.69650936874982
 20
15.68370219026909
 30
0.0
 10
27.69542570523662
 20
15.68423209768818
 30
0.0
 10
27.68752810378535
 20
15.68809399536305
 30
0.0
 10
27.6749317155753
 20
15.69453242608762
 30
0.0
 10
27.66543754389914
 20
15.69987181095169
 30
0.0
 10
27.66164090450021
 20
15.70200698604989
 30
0.0
  0
LWPOLYLINE
  5
226
330
1F
100
AcDbEntity
  8
0
  6
Continuous
 62
     7
370
    25
100
AcDbPolyline
 90
       28
 70
   128
 43
0.0
 10
29.6209552462
 20
15.4215925425
 10
29.6209553933
 20
15.4195731001
 10
29.6198256843
 20
15.3892278916
 10
29.6165808006
 20
15.3586580734
 10
29.6112397846
 20
15.3280430413
 10
29.6038339795
 20
15.2975624564
 10
29.5944068454
 20
15.267395191
 10
29.5830137046
 20
15.2377182786
 10
29.5697214166
 20
15.2087058751
 10
29.5546079856
 20
15.1805282368
 10
29.5377621035
 20
15.1533507212
 10
29.5192826285
 20
15.127332817
 10
29.4992780055
 20
15.1026272074
 10
29.4778656296
 20
15.0793788749
 10
29.4551711571
 20
15.0577242498
 10
29.4313277683
 20
15.0377904101
 10
29.4064753856
 20
15.0196943356
 10
29.3807598526
 20
15.0035422212
 10
29.3543320785
 20
14.9894288539
 10
29.3273471517
 20
14.9774370565
 10
29.2999634307
 20
14.9676372018
 10
29.272341614
 20
14.9600867991
 10
29.2446437973
 20
14.9548301572
 10
29.2170325225
 20
14.9518981241
 10
29.1896698236
 20
14.9513079063
 10
29.1627162757
 20
14.9530629674
 10
29.136330053
 20
14.9571530079
 10
29.1171354603
 20
14.9617035129
  0
ARC
  5
227
330
1F
100
AcDbEntity
  8
0
  6
Continuous
 62
     7
370
    25
100
AcDbCircle
 10
23.9307343797
 20
15.0935594958
 30
0.0
 40
0.8307903223646884
100
AcDbArc
 50
329.980476042
 51
336.7788343553
  0
LINE
  5
228
330
1F
100
AcDbEntity
  8
0
  6
Continuous
 62
     7
370
    25
100
AcDbLine
 10
24.3875783134
 20
14.2232558531
 30
0.0
 11
24.6500783134
 21
14.6779191888
 31
0.0
  0
LWPOLYLINE
  5
229
330
1F
100
AcDbEntity
  8
0
  6
Continuous
 62
     7
370
    25
100
AcDbPolyline
 90
       23
 70
   128
 43
0.0
 10
24.3876009912
 20
14.2232951323
 10
24.399378403
 20
14.2164943034
 10
24.4185623607
 20
14.2054163678
 10
24.4360446501
 20
14.1953207761
 10
24.4517380456
 20
14.186257899
 10
24.4655642469
 20
14.1782729548
 10
24.4774542699
 20
14.1714057831
 10
24.4873487909
 20
14.1656906471
 10
24.4951984423
 20
14.1611560616
 10
24.5009640592
 20
14.1578246513
 10
24.5046168749
 20
14.1557130379
 10
24.5061386641
 20
14.1548317571
 10
24.505521834
 20
14.1551852059
 10
24.5027694621
 20
14.1567716209
 10
24.4978952812
 20
14.1595830867
 10
24.4909236103
 20
14.1636055759
 10
24.4818892338
 20
14.1688190188
 10
24.4708372274
 20
14.1751974037
 10
24.4578227339
 20
14.1827089062
 10
24.4429106874
 20
14.1913160489
 10
24.4261754897
 20
14.2009758872
 10
24.407700639
 20
14.2116402248
 10
24.3875783134
 20
14.2232558531
  0
LWPOLYLINE
  5
22A
330
1F
100
AcDbEntity
  8
0
  6
Continuous
 62
     7
370
    25
100
AcDbPolyline
 90
       46
 70
   128
 43
0.0
 10
24.4450262702
 20
14.0688708704
 10
24.4448718952
 20
14.0689590118
 10
24.4429896308
 20
14.0700430903
 10
24.4389774076
 20
14.0723569198
 10
24.4328556708
 20
14.0758887096
 10
24.4246556154
 20
14.0806204623
 10
24.4144190271
 20
14.0865280662
 10
24.4021980692
 20
14.0935814174
 10
24.3880550168
 20
14.1017445736
 10
24.3720619397
 20
14.1109759373
 10
24.3543003349
 20
14.1212284675
 10
24.3348607116
 20
14.1324499198
 10
24.3138421296
 20
14.1445831121
 10
24.2913516947
 20
14.1575662165
 10
24.2675040131
 20
14.1713330741
 10
24.2424206071
 20
14.1858135321
 10
24.216229296
 20
14.2009338015
 10
24.1890635446
 20
14.2166168327
 10
24.1610617835
 20
14.2327827087
 10
24.1323667032
 20
14.2493490519
 10
24.1031245272
 20
14.266231444
 10
24.073484267
 20
14.2833438561
 10
24.0435969626
 20
14.3005990875
 10
24.0136149127
 20
14.3179092092
 10
23.983690899
 20
14.335186013
 10
23.9539774076
 20
14.3523414602
 10
23.9246258514
 20
14.3692881306
 10
23.8957857993
 20
14.3859396678
 10
23.8676042136
 20
14.4022112194
 10
23.8402247013
 20
14.4180198694
 10
23.8137867819
 20
14.4332850604
 10
23.7884251772
 20
14.4479290045
 10
23.7642691239
 20
14.4618770796
 10
23.7414417159
 20
14.4750582095
 10
23.7200592764
 20
14.4874052261
 10
23.7002307653
 20
14.498855212
 10
23.6820572242
 20
14.5093498205
 10
23.6656312614
 20
14.5188355735
 10
23.6510365798
 20
14.5272641339
 10
23.6383475505
 20
14.5345925517
 10
23.6276288338
 20
14.5407834828
 10
23.61893505
 20
14.5458053798
 10
23.6123105006
 20
14.5496326521
 10
23.6077889427
 20
14.552245797
 10
23.6053934172
 20
14.5536314983
 10
23.6049817453
 20
14.5538708034
  0
LINE
  5
22B
330
1F
100
AcDbEntity
  8
0
  6
Continuous
 62
     7
370
    25
100
AcDbLine
 10
28.0981409045
 20
16.5931544429
 30
0.0
 11
28.1006748812
 21
16.5916765538
 31
0.0
  0
ARC
  5
22C
330
1F
100
AcDbEntity
  8
0
  6
Continuous
 62
     7
370
    25
100
AcDbCircle
 10
27.7737196894
 20
16.0294225065
 30
0.0
 40
0.3395763466503499
100
AcDbArc
 50
214.704324157
 51
240.3259182066
  0
ARC
  5
22D
330
1F
100
AcDbEntity
  8
0
  6
Continuous
 62
     7
370
    25
100
AcDbCircle
 10
27.9288122183
 20
16.2974093009
 30
0.0
 40
0.3407893675203165
100
AcDbArc
 50
60.2067335598
 51
85.2419221598
  0
LINE
  5
22E
330
1F
100
AcDbEntity
  8
0
  6
Continuous
 62
     7
370
    25
100
AcDbLine
 10
27.7248024433
 20
16.7981098359
 30
0.0
 11
27.9788649163
 21
16.6513950132
 31
0.0
  0
LINE
  5
22F
330
1F
100
AcDbEntity
  8
0
  6
Continuous
 62
     7
370
    25
100
AcDbLine
 10
27.4930666043
 20
15.809967657
 30
0.0
 11
27.3091262033
 21
15.9161887096
 31
0.0
  0
LWPOLYLINE
  5
230
330
1F
100
AcDbEntity
  8
0
  6
Continuous
 62
     7
370
    25
100
AcDbPolyline
 90
       40
 70
   128
 43
0.0
 10
27.9788649163
 20
16.6513950132
 10
27.9508244882
 20
16.6584396183
 10
27.9220472111
 20
16.6631564917
 10
27.8926766658
 20
16.6655220992
 10
27.862859393
 20
16.6655246378
 10
27.8327441622
 20
16.6631640949
 10
27.8024812296
 20
16.6584522481
 10
27.7722215884
 20
16.6514126065
 10
27.7421162153
 20
16.6420802937
 10
27.7123153173
 20
16.630501872
 10
27.6829675822
 20
16.6167351106
 10
27.6542194371
 20
16.6008486969
 10
27.626214317
 20
16.5829218942
 10
27.5990919502
 20
16.5630441461
 10
27.5729876602
 20
16.5413146302
 10
27.5480316913
 20
16.5178417632
 10
27.524348558
 20
16.49274266
 10
27.5020564245
 20
16.4661425494
 10
27.4812665146
 20
16.4381741495
 10
27.462082557
 20
16.4089770051
 10
27.4446002675
 20
16.3786967916
 10
27.428906872
 20
16.3474845885
 10
27.4150806707
 20
16.3154961252
 10
27.4031906477
 20
16.2828910041
 10
27.3932961267
 20
16.2498319045
 10
27.3854464754
 20
16.2164837705
 10
27.3796808584
 20
16.1830129886
 10
27.3760280427
 20
16.149586557
 10
27.3745062535
 20
16.1163712529
 10
27.3751230837
 20
16.0835327997
 10
27.3778754555
 20
16.051235041
 10
27.3827496364
 20
16.0196391223
 10
27.3897213073
 20
15.9889026876
 10
27.3987556839
 20
15.9591790925
 10
27.4098076902
 20
15.9306166391
 10
27.4228221837
 20
15.9033578363
 10
27.4377342302
 20
15.8775386885
 10
27.4544694279
 20
15.8532880171
 10
27.4729442786
 20
15.8307268178
 10
27.4930666043
 20
15.809967657
  0
ARC
  5
231
330
1F
100
AcDbEntity
  8
0
  6
Continuous
 62
     7
370
    25
100
AcDbCircle
 10
27.5348723015
 20
16.5974228484
 30
0.0
 40
0.2687666389240377
100
AcDbArc
 50
12.8780234468
 51
21.5438031905
  0
LWPOLYLINE
  5
232
330
1F
100
AcDbEntity
  8
0
  6
Continuous
 62
     7
370
    25
100
AcDbPolyline
 90
        3
 70
   128
 43
0.0
 10
27.3969211235
 20
15.964623964
 10
27.3932594803
 20
15.9635362646
 10
27.3891196355
 20
15.962367935
  0
LWPOLYLINE
  5
233
330
1F
100
AcDbEntity
  8
0
  6
Continuous
 62
     7
370
    25
100
AcDbPolyline
 90
       97
 70
   128
 43
0.0
 10
27.1424039868
 20
23.340922148
 10
27.0957684398
 20
23.3668381196
 10
27.0474576065
 20
23.3917103589
 10
26.9975415331
 20
23.4155028034
 10
26.9460925931
 20
23.4381809565
 10
26.8931853826
 20
23.459711937
 10
26.838896612
 20
23.4800645269
 10
26.7833049947
 20
23.4992092171
 10
26.7264911333
 20
23.5171182495
 10
26.6685374025
 20
23.5337656577
 10
26.6095278297
 20
23.5491273046
 10
26.549547973
 20
23.5631809173
 10
26.4886847976
 20
23.5759061194
 10
26.4270265493
 20
23.5872844605
 10
26.3646626265
 20
23.5972994432
 10
26.3016834511
 20
23.6059365466
 10
26.2381803367
 20
23.6131832478
 10
26.1742453569
 20
23.6190290398
 10
26.1099712113
 20
23.6234654468
 10
26.0454510912
 20
23.6264860363
 10
25.9807785446
 20
23.6280864289
 10
25.9160473406
 20
23.628264304
 10
25.8513513332
 20
23.6270194038
 10
25.7867843254
 20
23.6243535333
 10
25.7224399332
 20
23.6202705577
 10
25.6584114499
 20
23.614776397
 10
25.5947917105
 20
23.6078790171
 10
25.5316729578
 20
23.5995884187
 10
25.4691467077
 20
23.5899166222
 10
25.4073036174
 20
23.5788776509
 10
25.3462333535
 20
23.5664875102
 10
25.286024462
 20
23.5527641646
 10
25.22676424
 20
23.5377275117
 10
25.1685386093
 20
23.5213993532
 10
25.1114319913
 20
23.5038033633
 10
25.0555271853
 20
23.4849650546
 10
25.0009052478
 20
23.4649117408
 10
24.9476453755
 20
23.4436724973
 10
24.89582479
 20
23.4212781189
 10
24.8455186263
 20
23.3977610754
 10
24.7967998235
 20
23.3731554643
 10
24.7497390192
 20
23.3474969612
 10
24.7044044471
 20
23.3208227687
 10
24.6608618379
 20
23.2931715616
 10
24.6191743243
 20
23.2645834317
 10
24.5794023492
 20
23.235099829
 10
24.5416035782
 20
23.2047635019
 10
24.5058328158
 20
23.1736184352
 10
24.4721419263
 20
23.1417097861
 10
24.4405797582
 20
23.1090838193
 10
24.4111920736
 20
23.0757878393
 10
24.3840214818
 20
23.041870122
 10
24.3591073778
 20
23.0073798449
 10
24.3364858844
 20
22.9723670156
 10
24.3161898007
 20
22.9368823993
 10
24.2982485541
 20
22.9009774454
 10
24.2826881577
 20
22.8647042126
 10
24.2695311726
 20
22.8281152936
 10
24.2587966751
 20
22.7912637389
 10
24.2505002292
 20
22.7542029797
 10
24.244653864
 20
22.7169867505
 10
24.2412660561
 20
22.6796690113
 10
24.2403417176
 20
22.6423038693
 10
24.2418821887
 20
22.6049455004
 10
24.2458852358
 20
22.5676480706
 10
24.2523450549
 20
22.5304656576
 10
24.2612522798
 20
22.4934521724
 10
24.272593996
 20
22.456661281
 10
24.286353759
 20
22.4201463267
 10
24.3025116185
 20
22.3839602526
 10
24.3210441471
 20
22.3481555251
 10
24.3419244745
 20
22.3127840577
 10
24.3651223262
 20
22.2778971355
 10
24.3906040674
 20
22.2435453413
 10
24.4183327522
 20
22.209778482
 10
24.4482681765
 20
22.1766455161
 10
24.480366937
 20
22.1441944834
 10
24.5145824933
 20
22.1124724348
 10
24.5508652363
 20
22.0815253641
 10
24.5891625594
 20
22.0513981418
 10
24.6294189352
 20
22.0221344493
 10
24.6715759958
 20
21.9937767162
 10
24.7155726175
 20
21.9663660585
 10
24.7613450094
 20
21.9399422192
 10
24.8088268058
 20
21.9145435101
 10
24.8579491628
 20
21.890206757
 10
24.9086408576
 20
21.8669672459
 10
24.9608283921
 20
21.8448586719
 10
25.0144360993
 20
21.8239130902
 10
25.0693862532
 20
21.80416087
 10
25.1255991814
 20
21.78563065
 10
25.1829933804
 20
21.7683492974
 10
25.2414856342
 20
21.7523418684
 10
25.3009911346
 20
21.7376315723
 10
25.3614236043
 20
21.7242397376
 10
25.422695422
 20
21.7121857811
 10
25.4403224588
 20
21.7089937442
  0
LWPOLYLINE
  5
234
330
1F
100
AcDbEntity
  8
0
  6
Continuous
 62
     7
370
    25
100
AcDbPolyline
 90
       56
 70
   128
 43
0.0
 10
26.4403224588
 20
21.7089937442
 10
26.442510779
 20
21.7093834266
 10
26.5039785974
 20
21.7211001063
 10
26.5646291683
 20
21.7341592165
 10
26.6243745541
 20
21.7485418226
 10
26.6831281298
 20
21.7642270713
 10
26.7408047083
 20
21.7811922205
 10
26.7973206641
 20
21.7994126724
 10
26.8525940544
 20
21.8188620089
 10
26.9065447381
 20
21.8395120305
 10
26.9590944919
 20
21.8613327965
 10
27.0101671236
 20
21.884292669
 10
27.0596885828
 20
21.9083583584
 10
27.1075870682
 20
21.9334949716
 10
27.1537931315
 20
21.959666063
 10
27.1982397783
 20
21.9868336871
 10
27.2408625652
 20
22.0149584533
 10
27.2815996933
 20
22.0439995834
 10
27.3203920977
 20
22.0739149706
 10
27.357183533
 20
22.1046612405
 10
27.3919206552
 20
22.1361938138
 10
27.4245530989
 20
22.1684669714
 10
27.4550335499
 20
22.2014339202
 10
27.4833178147
 20
22.2350468614
 10
27.5093648838
 20
22.2692570593
 10
27.5331369913
 20
22.3040149125
 10
27.55459967
 20
22.3392700255
 10
27.5737218012
 20
22.3749712816
 10
27.5904756594
 20
22.4110669174
 10
27.6048369532
 20
22.4475045978
 10
27.6167848601
 20
22.4842314916
 10
27.6263020569
 20
22.5211943482
 10
27.6333747444
 20
22.5583395752
 10
27.6379926679
 20
22.5956133154
 10
27.6401491319
 20
22.6329615255
 10
27.6398410098
 20
22.6703300542
 10
27.6370687482
 20
22.7076647206
 10
27.6318363668
 20
22.7449113931
 10
27.6241514518
 20
22.7820160676
 10
27.6140251458
 20
22.8189249458
 10
27.601472131
 20
22.8555845134
 10
27.5865106079
 20
22.8919416175
 10
27.5691622693
 20
22.9279435438
 10
27.5494522688
 20
22.9635380929
 10
27.5274091839
 20
22.9986736562
 10
27.5030649749
 20
23.0332992904
 10
27.4764549387
 20
23.0673647917
 10
27.4476176573
 20
23.1008207683
 10
27.4165949419
 20
23.1336187124
 10
27.3834317725
 20
23.1657110699
 10
27.3481762326
 20
23.1970513101
 10
27.3108794393
 20
23.2275939927
 10
27.2715954695
 20
23.2572948335
 10
27.230381281
 20
23.2861107693
 10
27.1872966306
 20
23.3140000197
 10
27.1424039868
 20
23.340922148
  0
LWPOLYLINE
  5
235
330
1F
100
AcDbEntity
  8
0
  6
Continuous
 62
     7
370
    25
100
AcDbPolyline
 90
       43
 70
   128
 43
0.0
 10
27.1777593259
 20
23.4021593914
 10
27.2231632345
 20
23.3749491798
 10
27.2667729743
 20
23.3467779313
 10
27.3085275531
 20
23.3176850457
 10
27.3483685734
 20
23.2877112121
 10
27.3862403139
 20
23.2568983516
 10
27.4220898075
 20
23.2252895589
 10
27.4558669154
 20
23.1929290416
 10
27.4875243974
 20
23.1598620589
 10
27.5170179776
 20
23.1261348579
 10
27.5443064066
 20
23.0917946092
 10
27.5693515189
 20
23.0568893407
 10
27.5921182869
 20
23.0214678706
 10
27.6125748689
 20
22.985579739
 10
27.6306926548
 20
22.9492751387
 10
27.6464463051
 20
22.912604845
 10
27.659813787
 20
22.8756201446
 10
27.6707764047
 20
22.838372764
 10
27.6793188261
 20
22.8009147969
 10
27.6854291039
 20
22.7632986318
 10
27.6890986922
 20
22.7255768783
 10
27.6903224588
 20
22.6878022935
 10
27.6890986922
 20
22.6500277088
 10
27.6854291039
 20
22.6123059552
 10
27.6793188261
 20
22.5746897901
 10
27.6707764047
 20
22.537231823
 10
27.659813787
 20
22.4999844424
 10
27.6464463051
 20
22.462999742
 10
27.6306926548
 20
22.4263294483
 10
27.6125748689
 20
22.3900248481
 10
27.5921182869
 20
22.3541367165
 10
27.5693515189
 20
22.3187152464
 10
27.5443064066
 20
22.2838099779
 10
27.5170179776
 20
22.2494697292
 10
27.4875243974
 20
22.2157425282
 10
27.4558669154
 20
22.1826755454
 10
27.4220898075
 20
22.1503150282
 10
27.3862403139
 20
22.1187062354
 10
27.3483685734
 20
22.087893375
 10
27.3085275531
 20
22.0579195414
 10
27.2667729743
 20
22.0288266558
 10
27.2231632345
 20
22.0006554072
 10
27.1779603952
 20
21.9735612894
  0
LWPOLYLINE
  5
236
330
1F
100
AcDbEntity
  8
0
  6
Continuous
 62
     7
370
    25
100
AcDbPolyline
 90
       85
 70
   128
 43
0.0
 10
24.7026845225
 20
21.9735612894
 10
24.6574816831
 20
22.0006554072
 10
24.6138719433
 20
22.0288266558
 10
24.5721173645
 20
22.0579195414
 10
24.5322763442
 20
22.087893375
 10
24.4944046038
 20
22.1187062354
 10
24.4585551102
 20
22.1503150282
 10
24.4247780022
 20
22.1826755454
 10
24.3931205202
 20
22.2157425282
 10
24.36362694
 20
22.2494697292
 10
24.336338511
 20
22.2838099779
 10
24.3112933987
 20
22.3187152464
 10
24.2885266308
 20
22.3541367165
 10
24.2680700487
 20
22.3900248481
 10
24.2499522628
 20
22.4263294483
 10
24.2341986125
 20
22.462999742
 10
24.2208311307
 20
22.4999844424
 10
24.2098685129
 20
22.537231823
 10
24.2013260915
 20
22.5746897901
 10
24.1952158137
 20
22.6123059552
 10
24.1915462254
 20
22.6500277088
 10
24.1903224588
 20
22.6878022935
 10
24.1915462254
 20
22.7255768783
 10
24.1952158137
 20
22.7632986318
 10
24.2013260915
 20
22.8009147969
 10
24.2098685129
 20
22.838372764
 10
24.2208311307
 20
22.8756201446
 10
24.2341986125
 20
22.912604845
 10
24.2499522628
 20
22.9492751387
 10
24.2680700487
 20
22.985579739
 10
24.2885266308
 20
23.0214678706
 10
24.3112933987
 20
23.0568893407
 10
24.336338511
 20
23.0917946092
 10
24.36362694
 20
23.1261348579
 10
24.3931205202
 20
23.1598620589
 10
24.4247780022
 20
23.1929290416
 10
24.4585551102
 20
23.2252895589
 10
24.4944046038
 20
23.2568983516
 10
24.5322763442
 20
23.2877112121
 10
24.5721173645
 20
23.3176850457
 10
24.6138719433
 20
23.3467779313
 10
24.6574816831
 20
23.3749491798
 10
24.7028855917
 20
23.4021593914
 10
24.7500201677
 20
23.4283705099
 10
24.7988194891
 20
23.4535458768
 10
24.8492153056
 20
23.4776502821
 10
24.9011371341
 20
23.5006500135
 10
24.9545123572
 20
23.5225129039
 10
25.0092663249
 20
23.5432083761
 10
25.0653224588
 20
23.5627074854
 10
25.1226023593
 20
23.5809829608
 10
25.1810259154
 20
23.5980092422
 10
25.2405114163
 20
23.613762517
 10
25.3009756662
 20
23.6282207526
 10
25.3623341004
 20
23.6413637279
 10
25.4245009036
 20
23.6531730614
 10
25.4873891299
 20
23.6636322365
 10
25.5509108244
 20
23.6727266253
 10
25.6149771463
 20
23.6804435083
 10
25.679498493
 20
23.6867720928
 10
25.7443846256
 20
23.6917035277
 10
25.809544795
 20
23.695230916
 10
25.8748878688
 20
23.6973493242
 10
25.9403224588
 20
23.6980557897
 10
26.0057570488
 20
23.6973493242
 10
26.0711001226
 20
23.695230916
 10
26.136260292
 20
23.6917035277
 10
26.2011464246
 20
23.6867720928
 10
26.2656677713
 20
23.6804435083
 10
26.3297340932
 20
23.6727266253
 10
26.3932557877
 20
23.6636322365
 10
26.456144014
 20
23.6531730614
 10
26.5183108172
 20
23.6413637279
 10
26.5796692515
 20
23.6282207526
 10
26.6401335014
 20
23.613762517
 10
26.6996190023
 20
23.5980092422
 10
26.7580425583
 20
23.5809829608
 10
26.8153224588
 20
23.5627074854
 10
26.8713785927
 20
23.5432083761
 10
26.9261325604
 20
23.5225129039
 10
26.9795077836
 20
23.5006500135
 10
27.0314296121
 20
23.4776502821
 10
27.0818254285
 20
23.4535458768
 10
27.1306247499
 20
23.4283705099
 10
27.1777593259
 20
23.4021593914
  0
LWPOLYLINE
  5
237
330
1F
100
AcDbEntity
  8
0
  6
Continuous
 62
     7
370
    25
100
AcDbPolyline
 90
       64
 70
   128
 43
0.0
 10
27.1777593259
 20
23.6675351552
 10
27.1306247499
 20
23.6937462738
 10
27.0818254285
 20
23.7189216407
 10
27.0314296121
 20
23.7430260459
 10
26.9795077836
 20
23.7660257774
 10
26.9261325604
 20
23.7878886678
 10
26.8713785927
 20
23.8085841399
 10
26.8153224588
 20
23.8280832493
 10
26.7580425583
 20
23.8463587247
 10
26.6996190023
 20
23.8633850061
 10
26.6401335014
 20
23.8791382808
 10
26.5796692515
 20
23.8935965164
 10
26.5183108172
 20
23.9067394918
 10
26.456144014
 20
23.9185488253
 10
26.3932557877
 20
23.9290080004
 10
26.3297340932
 20
23.9381023892
 10
26.2656677713
 20
23.9458192722
 10
26.2011464246
 20
23.9521478567
 10
26.136260292
 20
23.9570792916
 10
26.0711001226
 20
23.9606066799
 10
26.0057570488
 20
23.9627250881
 10
25.9403224588
 20
23.9634315535
 10
25.8748878688
 20
23.9627250881
 10
25.809544795
 20
23.9606066799
 10
25.7443846256
 20
23.9570792916
 10
25.679498493
 20
23.9521478567
 10
25.6149771463
 20
23.9458192722
 10
25.5509108244
 20
23.9381023892
 10
25.4873891299
 20
23.9290080004
 10
25.4245009036
 20
23.9185488253
 10
25.3623341004
 20
23.9067394918
 10
25.3009756662
 20
23.8935965164
 10
25.2405114163
 20
23.8791382808
 10
25.1810259154
 20
23.8633850061
 10
25.1226023593
 20
23.8463587247
 10
25.0653224588
 20
23.8280832493
 10
25.0092663249
 20
23.8085841399
 10
24.9545123572
 20
23.7878886678
 10
24.9011371341
 20
23.7660257774
 10
24.8492153056
 20
23.7430260459
 10
24.7988194891
 20
23.7189216407
 10
24.7500201677
 20
23.6937462738
 10
24.7028855917
 20
23.6675351552
 10
24.6574816831
 20
23.6403249437
 10
24.6138719433
 20
23.6121536951
 10
24.5721173645
 20
23.5830608095
 10
24.5322763442
 20
23.5530869759
 10
24.4944046038
 20
23.5222741155
 10
24.4585551102
 20
23.4906653227
 10
24.4247780022
 20
23.4583048055
 10
24.3931205202
 20
23.4252378227
 10
24.36362694
 20
23.3915106217
 10
24.336338511
 20
23.357170373
 10
24.3112933987
 20
23.3222651045
 10
24.2885266308
 20
23.2868436344
 10
24.2680700487
 20
23.2509555028
 10
24.2499522628
 20
23.2146509026
 10
24.2341986125
 20
23.1779806089
 10
24.2208311307
 20
23.1409959085
 10
24.2098685129
 20
23.1037485279
 10
24.2013260915
 20
23.0662905608
 10
24.1952158137
 20
23.0286743957
 10
24.1915462254
 20
22.9909526421
 10
24.1903224588
 20
22.9531780574
  0
LWPOLYLINE
  5
238
330
1F
100
AcDbEntity
  8
0
  6
Continuous
 62
     7
370
    25
100
AcDbPolyline
 90
       22
 70
   128
 43
0.0
 10
27.6903224588
 20
22.9531780574
 10
27.6890986922
 20
22.9909526421
 10
27.6854291039
 20
23.0286743957
 10
27.6793188261
 20
23.0662905608
 10
27.6707764047
 20
23.1037485279
 10
27.659813787
 20
23.1409959085
 10
27.6464463051
 20
23.1779806089
 10
27.6306926548
 20
23.2146509026
 10
27.6125748689
 20
23.2509555028
 10
27.5921182869
 20
23.2868436344
 10
27.5693515189
 20
23.3222651045
 10
27.5443064066
 20
23.357170373
 10
27.5170179776
 20
23.3915106217
 10
27.4875243974
 20
23.4252378227
 10
27.4558669154
 20
23.4583048055
 10
27.4220898075
 20
23.4906653227
 10
27.3862403139
 20
23.5222741155
 10
27.3483685734
 20
23.5530869759
 10
27.3085275531
 20
23.5830608095
 10
27.2667729743
 20
23.6121536951
 10
27.2231632345
 20
23.6403249437
 10
27.1777593259
 20
23.6675351552
  0
LWPOLYLINE
  5
239
330
1F
100
AcDbEntity
  8
0
  6
Continuous
 62
     7
370
    25
100
AcDbPolyline
 90
       41
 70
   128
 43
0.0
 10
26.9843656212
 20
23.2496885415
 10
26.9722544861
 20
23.2556599401
 10
26.9586743187
 20
23.2604640923
 10
26.9439595079
 20
23.2639827037
 10
26.9284723811
 20
23.2661291346
 10
26.9125942829
 20
23.2668505326
 10
26.8967161847
 20
23.2661291346
 10
26.881229058
 20
23.2639827037
 10
26.8665142472
 20
23.2604640923
 10
26.8529340798
 20
23.2556599401
 10
26.8408229447
 20
23.2496885415
 10
26.830479058
 20
23.242696932
 10
26.8221571207
 20
23.2348572682
 10
26.8160620465
 20
23.2263625887
 10
26.8123439164
 20
23.2174220608
 10
26.8110942829
 20
23.2082558298
 10
26.8123439164
 20
23.1990895988
 10
26.8160620465
 20
23.1901490709
 10
26.8221571207
 20
23.1816543914
 10
26.830479058
 20
23.1738147276
 10
26.8408229447
 20
23.1668231181
 10
26.8529340798
 20
23.1608517195
 10
26.8665142472
 20
23.1560475673
 10
26.881229058
 20
23.1525289559
 10
26.8967161847
 20
23.1503825251
 10
26.9125942829
 20
23.149661127
 10
26.9284723811
 20
23.1503825251
 10
26.9439595079
 20
23.1525289559
 10
26.9586743187
 20
23.1560475673
 10
26.9722544861
 20
23.1608517195
 10
26.9843656212
 20
23.1668231181
 10
26.9947095079
 20
23.1738147276
 10
27.0030314451
 20
23.1816543914
 10
27.0091265193
 20
23.1901490709
 10
27.0128446495
 20
23.1990895988
 10
27.0140942829
 20
23.2082558298
 10
27.0128446495
 20
23.2174220608
 10
27.0091265193
 20
23.2263625887
 10
27.0030314451
 20
23.2348572682
 10
26.9947095079
 20
23.242696932
 10
26.9843656212
 20
23.2496885415
  0
LWPOLYLINE
  5
23A
330
1F
100
AcDbEntity
  8
0
  6
Continuous
 62
     7
370
    25
100
AcDbPolyline
 90
       41
 70
   128
 43
0.0
 10
25.039821973
 20
22.1271273877
 10
25.0277108378
 20
22.1330987864
 10
25.0141306704
 20
22.1379029385
 10
24.9994158596
 20
22.1414215499
 10
24.9839287329
 20
22.1435679808
 10
24.9680506347
 20
22.1442893788
 10
24.9521725365
 20
22.1435679808
 10
24.9366854098
 20
22.1414215499
 10
24.921970599
 20
22.1379029385
 10
24.9083904316
 20
22.1330987864
 10
24.8962792964
 20
22.1271273877
 10
24.8859354098
 20
22.1201357782
 10
24.8776134725
 20
22.1122961144
 10
24.8715183983
 20
22.103801435
 10
24.8678002681
 20
22.094860907
 10
24.8665506347
 20
22.085694676
 10
24.8678002681
 20
22.0765284451
 10
24.8715183983
 20
22.0675879171
 10
24.8776134725
 20
22.0590932377
 10
24.8859354098
 20
22.0512535739
 10
24.8962792964
 20
22.0442619644
 10
24.9083904316
 20
22.0382905657
 10
24.921970599
 20
22.0334864136
 10
24.9366854098
 20
22.0299678022
 10
24.9521725365
 20
22.0278213713
 10
24.9680506347
 20
22.0270999733
 10
24.9839287329
 20
22.0278213713
 10
24.9994158596
 20
22.0299678022
 10
25.0141306704
 20
22.0334864136
 10
25.0277108378
 20
22.0382905657
 10
25.039821973
 20
22.0442619644
 10
25.0501658596
 20
22.0512535739
 10
25.0584877969
 20
22.0590932377
 10
25.0645828711
 20
22.0675879171
 10
25.0683010013
 20
22.0765284451
 10
25.0695506347
 20
22.085694676
 10
25.0683010013
 20
22.094860907
 10
25.0645828711
 20
22.103801435
 10
25.0584877969
 20
22.1122961144
 10
25.0501658596
 20
22.1201357782
 10
25.039821973
 20
22.1271273877
  0
LINE
  5
23B
330
1F
100
AcDbEntity
  8
0
  6
Continuous
 62
     7
370
    25
100
AcDbLine
 10
24.7976379004
 20
14.6214549145
 30
0.0
 11
24.527413663
 21
14.4654577827
 31
0.0
  0
ELLIPSE
  5
23C
330
1F
100
AcDbEntity
  8
0
  6
Continuous
 62
     7
370
    25
100
AcDbEllipse
 10
24.8529682543
 20
14.9725118254
 30
0.0
 11
-0.190943819915752
 21
0.4602539947866386
 31
0.0
210
0.0
220
0.0
230
1.0
 40
0.4693136299
 41
0.0614206787299588
 42
2.224579114927162
  0
LWPOLYLINE
  5
23D
330
1F
100
AcDbEntity
  8
0
  6
Continuous
 62
     7
370
    25
100
AcDbPolyline
 90
       44
 70
   128
 43
0.0
 10
24.6892872658
 20
15.4476985294
 10
24.681825471
 20
15.4415121504
 10
24.6671633284
 20
15.4270151382
 10
24.6539403042
 20
15.4105502202
 10
24.6422222747
 20
15.392199424
 10
24.6320676187
 20
15.3720541722
 10
24.623526926
 20
15.3502148275
 10
24.616642746
 20
15.3267901924
 10
24.6114493754
 20
15.3018969672
 10
24.6079726871
 20
15.2756591688
 10
24.606230002
 20
15.2482075125
 10
24.606230002
 20
15.2196787611
 10
24.6079726871
 20
15.1902150434
 10
24.6114493754
 20
15.1599631462
 10
24.616642746
 20
15.1290737829
 10
24.623526926
 20
15.0977008428
 10
24.6320676187
 20
15.0660006242
 10
24.6422222747
 20
15.034131056
 10
24.6539403042
 20
15.002250911
 10
24.6671633284
 20
14.9705190142
 10
24.681825471
 20
14.9390934525
 10
24.6978536858
 20
14.9081307864
 10
24.7151681212
 20
14.8777852703
 10
24.7336825174
 20
14.8482080841
 10
24.7533046367
 20
14.8195465799
 10
24.7739367226
 20
14.7919435477
 10
24.7954759872
 20
14.7655365046
 10
24.8178151229
 20
14.7404570091
 10
24.8408428373
 20
14.716830006
 10
24.8644444074
 20
14.6947732038
 10
24.8885022515
 20
14.6743964883
 10
24.9128965145
 20
14.6558013755
 10
24.9375056654
 20
14.6390805051
 10
24.9622071028
 20
14.6243171797
 10
24.9868777652
 20
14.6115849495
 10
25.0113947447
 20
14.6009472458
 10
25.035635899
 20
14.5924570651
 10
25.0594804597
 20
14.586156705
 10
25.0828096346
 20
14.5820775537
 10
25.1055071988
 20
14.5802399332
 10
25.1274600742
 20
14.5806529985
 10
25.1485588928
 20
14.5833146917
 10
25.1686985411
 20
14.5882117524
 10
25.1826159189
 20
14.5931356441
  0
SPLINE
  5
23E
330
1F
100
AcDbEntity
  8
0
  6
Continuous
 62
     7
370
    25
100
AcDbSpline
210
0.0
220
0.0
230
1.0
 70
     8
 71
     3
 72
    12
 73
     8
 74
     0
 42
0.00000001
 43
0.00000001
 40
0.0
 40
0.0
 40
0.0
 40
0.0
 40
0.1487979097711578
 40
0.3808466554121982
 40
0.6121579108376113
 40
0.8517324765672296
 40
0.9999999999999999
 40
0.9999999999999999
 40
0.9999999999999999
 40
0.9999999999999999
 10
27.72872977844088
 20
16.79375416716408
 30
0.0
 10
27.73372650466014
 20
16.7890231808571
 30
0.0
 10
27.74651557186909
 20
16.77691427210574
 30
0.0
 10
27.76305439188103
 20
16.75195288078897
 30
0.0
 10
27.77851214399401
 20
16.7194349584277
 30
0.0
 10
27.78882343067345
 20
16.68729590719888
 30
0.0
 10
27.79217047811001
 20
16.66462582481361
 30
0.0
 10
27.79345001544776
 20
16.655959315775
 30
0.0
  0
SPLINE
  5
23F
330
1F
100
AcDbEntity
  8
0
  6
Continuous
 62
     7
370
    25
100
AcDbSpline
210
0.0
220
0.0
230
1.0
 70
     8
 71
     3
 72
    26
 73
    22
 74
     0
 42
0.00000001
 43
0.00000001
 40
0.0
 40
0.0
 40
0.0
 40
0.0
 40
0.0252260862402145
 40
0.0817121456626638
 40
0.1382063129760704
 40
0.1947004663758281
 40
0.2511929888356259
 40
0.3076854959915556
 40
0.3641747987153869
 40
0.4206640913169141
 40
0.4771505438095597
 40
0.5336369956422424
 40
0.5901221825985444
 40
0.6466073786317379
 40
0.7030934184857821
 40
0.7595794733179593
 40
0.8160681251291885
 40
0.8725567914057047
 40
0.9290487038278902
 40
0.9855406238830772
 40
1.0
 40
1.0
 40
1.0
 40
1.0
 10
27.06819319497243
 20
16.76519210667292
 30
0.0
 10
27.0710606798553
 20
16.7665693852911
 30
0.0
 10
27.08034901496221
 20
16.77103065566001
 30
0.0
 10
27.09550322958888
 20
16.77429906282277
 30
0.0
 10
27.11296611623242
 20
16.7748208077138
 30
0.0
 10
27.12876865739833
 20
16.77093094520317
 30
0.0
 10
27.14241097198926
 20
16.76285730302154
 30
0.0
 10
27.15359342077731
 20
16.7509180730028
 30
0.0
 10
27.16189071755855
 20
16.73531829059848
 30
0.0
 10
27.16718807751731
 20
16.71663456576708
 30
0.0
 10
27.16920619297499
 20
16.69527992488036
 30
0.0
 10
27.16802146500035
 20
16.67195584616756
 30
0.0
 10
27.16353363075273
 20
16.64725504813224
 30
0.0
 10
27.15600093326418
 20
16.62191964147936
 30
0.0
 10
27.14551358267926
 20
16.5966568947722
 30
0.0
 10
27.13248224026999
 20
16.57216499785341
 30
0.0
 10
27.1171777587476
 20
16.54918885007899
 30
0.0
 10
27.1001161017555
 20
16.52829502948973
 30
0.0
 10
27.08172145667952
 20
16.51021690026866
 30
0.0
 10
27.06730169172212
 20
16.49892167874095
 30
0.0
 10
27.05921909050672
 20
16.49373233565763
 30
0.0
 10
27.05757191311487
 20
16.49267478396387
 30
0.0
  0
LINE
  5
240
330
1F
100
AcDbEntity
  8
0
  6
Continuous
 62
     7
370
    25
100
AcDbLine
 10
27.0830070172
 20
15.7856528819
 30
0.0
 11
27.3963033535
 21
15.9665150071
 31
0.0
  0
ELLIPSE
  5
241
330
1F
100
AcDbEntity
  8
0
  6
Continuous
 62
     7
370
    25
100
AcDbEllipse
 10
27.0276766634
 20
16.2279442673
 30
0.0
 11
-0.1909438199157556
 21
0.4602539947866369
 31
0.0
210
0.0
220
0.0
230
1.0
 40
0.4693136299
 41
2.610813751041495
 42
3.762823727180336
  0
SPLINE
  5
242
330
1F
100
AcDbEntity
  8
0
  6
Continuous
 62
     7
370
    25
100
AcDbSpline
210
0.0
220
0.0
230
1.0
 70
     8
 71
     3
 72
    23
 73
    19
 74
     0
 42
0.00000001
 43
0.00000001
 40
0.0
 40
0.0
 40
0.0
 40
0.0
 40
0.0280170056406663
 40
0.0914459625215179
 40
0.1548742922783454
 40
0.2203063656752693
 40
0.2857215419075063
 40
0.3491883492006658
 40
0.4126484121624917
 40
0.4734451669630937
 40
0.5342519806319608
 40
0.5954999214631709
 40
0.6567591716337121
 40
0.7208408784476396
 40
0.7849182984773772
 40
0.8502834998155957
 40
0.9156291671696279
 40
1.0
 40
1.0
 40
1.0
 40
1.0
 10
26.98882171173283
 20
16.70739008665251
 30
0.0
 10
26.98592883417189
 20
16.70459485412387
 30
0.0
 10
26.97648664122629
 20
16.69547136918293
 30
0.0
 10
26.96198321466529
 20
16.67816591992909
 30
0.0
 10
26.9459670583553
 20
16.65574757950278
 30
0.0
 10
26.9329564459793
 20
16.63198568003603
 30
0.0
 10
26.92356407644213
 20
16.60777617091253
 30
0.0
 10
26.91852712949447
 20
16.58393216265073
 30
0.0
 10
26.91776257216885
 20
16.56143767672989
 30
0.0
 10
26.92127898802422
 20
16.54072104165868
 30
0.0
 10
26.92849406757998
 20
16.52220570082729
 30
0.0
 10
26.9393029034514
 20
16.50622887634742
 30
0.0
 10
26.95330681140948
 20
16.4929877335155
 30
0.0
 10
26.97015925966439
 20
16.48323008633888
 30
0.0
 10
26.98934406879578
 20
16.47734168664522
 30
0.0
 10
27.00991377414917
 20
16.47621183680742
 30
0.0
 10
27.03324111017848
 20
16.4798534487656
 30
0.0
 10
27.04880249325461
 20
16.48805365938295
 30
0.0
 10
27.05757191311487
 20
16.49267478396387
 30
0.0
  0
ARC
  5
243
330
1F
100
AcDbEntity
  8
0
  6
Continuous
 62
     7
370
    25
100
AcDbCircle
 10
26.8190460902
 20
16.3964233454
 30
0.0
 40
0.2458186073430218
100
AcDbArc
 50
125.2608040731
 51
186.0513763203
  0
LWPOLYLINE
  5
244
330
1F
100
AcDbEntity
  8
0
  6
Continuous
 62
     7
370
    25
100
AcDbPolyline
 90
       35
 70
   128
 43
0.0
 10
27.1720949846
 20
15.7397539053
 10
27.1654767964
 20
15.7361323646
 10
27.1469624002
 20
15.7279314453
 10
27.1273402809
 20
15.7219251577
 10
27.106708195
 20
15.718143425
 10
27.0851689304
 20
15.7166050874
 10
27.0628297947
 20
15.717317809
 10
27.0398020803
 20
15.7202780389
 10
27.0162005102
 20
15.7254710296
 10
26.9921426661
 20
15.7328709096
 10
26.9677484031
 20
15.7424408133
 10
26.9431392522
 20
15.7541330638
 10
26.9184378149
 20
15.7678894109
 10
26.8937671524
 20
15.7836413213
 10
26.8692501729
 20
15.8013103196
 10
26.8450090187
 20
15.8208083798
 10
26.8211644579
 20
15.8420383636
 10
26.797835283
 20
15.8648945042
 10
26.7751377188
 20
15.8892629336
 10
26.7531848434
 20
15.9150222493
 10
26.7320860249
 20
15.9420441199
 10
26.7119463765
 20
15.9701939237
 10
26.692866233
 20
15.9993314197
 10
26.6749406507
 20
16.0293114465
 10
26.6582589339
 20
16.0599846451
 10
26.6429041902
 20
16.0911982031
 10
26.628952916
 20
16.1227966162
 10
26.616474616
 20
16.1546224627
 10
26.6055314563
 20
16.1865171877
 10
26.5961779553
 20
16.2183218934
 10
26.5884607116
 20
16.2498781303
 10
26.5824181721
 20
16.2810286869
 10
26.5780804406
 20
16.3116183726
 10
26.5754691272
 20
16.3414947912
 10
26.5745972415
 20
16.3705090999
  0
LWPOLYLINE
  5
245
330
1F
100
AcDbEntity
  8
0
  6
Continuous
 62
     7
370
    25
100
AcDbPolyline
 90
       50
 70
   128
 43
0.0
 10
27.0819775481
 20
16.5419393525
 10
27.0941913158
 20
16.5559290637
 10
27.1055364079
 20
16.5711639117
 10
27.1158265383
 20
16.5873937408
 10
27.1248927433
 20
16.6043520577
 10
27.1325861561
 20
16.6217604072
 10
27.138780451
 20
16.6393329448
 10
27.143373918
 20
16.6567811298
 10
27.1462911323
 20
16.6738184636
 10
27.1474841935
 20
16.6901651935
 10
27.1469335114
 20
16.7055529068
 10
27.1446481284
 20
16.7197289376
 10
27.1406655702
 20
16.7324605159
 10
27.1350512305
 20
16.7435385895
 10
27.1278972964
 20
16.7527812568
 10
27.1193212355
 20
16.7600367533
 10
27.1094638663
 20
16.7651859442
 10
27.0984870467
 20
16.7681442797
 10
27.0865710156
 20
16.7688631841
 10
27.0739114341
 20
16.767330853
 10
27.060716172
 20
16.7635724473
 10
27.0472018952
 20
16.7576496798
 10
27.0335905077
 20
16.7496598023
 10
27.0201055083
 20
16.7397340083
 10
27.0069683201
 20
16.728035279
 10
26.9943946555
 20
16.7147557074
 10
26.9825909736
 20
16.7001133435
 10
26.9717510907
 20
16.6843486146
 10
26.9620529972
 20
16.6677203771
 10
26.9536559357
 20
16.6505016662
 10
26.9466977855
 20
16.6329752127
 10
26.9412927995
 20
16.6154288004
 10
26.9375297272
 20
16.598150541
 10
26.9354703582
 20
16.581424143
 10
26.9351485074
 20
16.5655242533
 10
26.9365694594
 20
16.5507119478
 10
26.9397098824
 20
16.537230444
 10
26.9445182106
 20
16.525301108
 10
26.9509154914
 20
16.515119819
 10
26.9587966816
 20
16.5068537536
 10
26.9680323724
 20
16.5006386403
 10
26.9784709139
 20
16.496576531
 10
26.9899409056
 20
16.4947341257
 10
27.0022540105
 20
16.4951416763
 10
27.0152080478
 20
16.4977924911
 10
27.0285903125
 20
16.5026430437
 10
27.0421810683
 20
16.5096136881
 10
27.0557571552
 20
16.5185899666
 10
27.0690956544
 20
16.529424489
 10
27.0819775481
 20
16.5419393525
  0
LWPOLYLINE
  5
246
330
1F
100
AcDbEntity
  8
0
  6
Continuous
 62
     7
370
    25
100
AcDbPolyline
 90
       14
 70
   128
 43
0.0
 10
27.0906124069
 20
16.5344053378
 10
27.0775083698
 20
16.5216529856
 10
27.0639446263
 20
16.5105727057
 10
27.0501350848
 20
16.5013392409
 10
27.03629753
 20
16.4940982083
 10
27.0226501884
 20
16.4889638034
 10
27.0094082867
 20
16.4860169988
 10
26.9967806576
 20
16.4853042673
 10
26.9849664464
 20
16.4868368493
 10
26.9741519703
 20
16.4905905749
 10
26.9645077799
 20
16.4965062456
 10
26.95618597
 20
16.5044905678
 10
26.9493177804
 20
16.514417624
 10
26.9453132541
 20
16.5227332622
  0
LWPOLYLINE
  5
247
330
1F
100
AcDbEntity
  8
0
  6
Continuous
 62
     7
370
    25
100
AcDbPolyline
 90
       20
 70
   128
 43
0.0
 10
27.0877072316
 20
16.769393592
 10
27.0999369123
 20
16.7700510428
 10
27.1117511235
 20
16.7685184609
 10
27.1225655996
 20
16.7647647353
 10
27.13220979
 20
16.7588490646
 10
27.1405315999
 20
16.7508647423
 10
27.1473997894
 20
16.7409376862
 10
27.1527060432
 20
16.7292244517
 10
27.1563666783
 20
16.7159097635
 10
27.1583239645
 20
16.7012036023
 10
27.1585470341
 20
16.6853378929
 10
27.1570323691
 20
16.6685628472
 10
27.1538038569
 20
16.6511430176
 10
27.1489124128
 20
16.6333531252
 10
27.142435178
 20
16.6154737272
 10
27.1344743023
 20
16.5977867925
 10
27.1251553334
 20
16.5805712545
 10
27.114625237
 20
16.5640986126
 10
27.1030500792
 20
16.5486286502
 10
27.0906124069
 20
16.5344053378
  0
ARC
  5
248
330
1F
100
AcDbEntity
  8
0
  6
Continuous
 62
     7
370
    25
100
AcDbCircle
 10
27.0678024416
 20
16.6787498135
 30
0.0
 40
0.0358138276584149
100
AcDbArc
 50
25.1870221898
 51
120.5682634028
  0
ARC
  5
249
330
1F
100
AcDbEntity
  8
0
  6
Continuous
 62
     7
370
    25
100
AcDbCircle
 10
27.1071986518
 20
16.596027486
 30
0.0
 40
0.127336232917092
100
AcDbArc
 50
116.8992544403
 51
156.2288218208
  0
ARC
  5
24A
330
1F
100
AcDbEntity
  8
0
  6
Continuous
 62
     7
370
    25
100
AcDbCircle
 10
27.0756768252
 20
16.5989313449
 30
0.0
 40
0.0978355320957564
100
AcDbArc
 50
150.3337028126
 51
197.4898690644
  0
ARC
  5
24B
330
1F
100
AcDbEntity
  8
0
  6
Continuous
 62
     7
370
    25
100
AcDbCircle
 10
27.0147729926
 20
16.5847695777
 30
0.0
 40
0.0358138276583347
100
AcDbArc
 50
205.1870221897
 51
300.568263403
  0
ARC
  5
24C
330
1F
100
AcDbEntity
  8
0
  6
Continuous
 62
     7
370
    25
100
AcDbCircle
 10
26.9753767825
 20
16.6674919053
 30
0.0
 40
0.1273362329172289
100
AcDbArc
 50
296.8992544403
 51
336.2288218208
  0
ARC
  5
24D
330
1F
100
AcDbEntity
  8
0
  6
Continuous
 62
     7
370
    25
100
AcDbCircle
 10
27.006898609
 20
16.6645880463
 30
0.0
 40
0.0978355320956537
100
AcDbArc
 50
330.3337028126
 51
17.4898690644
  0
SPLINE
  5
24E
330
1F
100
AcDbEntity
  8
0
  6
Continuous
 62
     7
370
    25
100
AcDbSpline
210
0.0
220
0.0
230
1.0
 70
     8
 71
     3
 72
     9
 73
     5
 74
     0
 42
0.00000001
 43
0.00000001
 40
0.0
 40
0.0
 40
0.0
 40
0.0
 40
0.2195450713574664
 40
0.9999999999999999
 40
0.9999999999999999
 40
0.9999999999999999
 40
0.9999999999999999
 10
27.10465370999696
 20
16.66569853188497
 30
0.0
 10
27.10457645831033
 20
16.66771789736193
 30
0.0
 10
27.10422458665976
 20
16.67691585140602
 30
0.0
 10
27.10197045950915
 20
16.68650632609128
 30
0.0
 10
27.10021121486466
 20
16.69399125932741
 30
0.0
  0
LINE
  5
24F
330
1F
100
AcDbEntity
  8
0
  6
Continuous
 62
     7
370
    25
100
AcDbLine
 10
27.0329866363
 20
16.5539330177
 30
0.0
 11
27.0451672446
 21
16.5604815008
 31
0.0
  0
SPLINE
  5
250
330
1F
100
AcDbEntity
  8
0
  6
Continuous
 62
     7
370
    25
100
AcDbSpline
210
0.0
220
0.0
230
1.0
 70
     8
 71
     3
 72
    12
 73
     8
 74
     0
 42
0.00000001
 43
0.00000001
 40
0.0
 40
0.0
 40
0.0
 40
0.0
 40
0.2161829887042193
 40
0.4397569296963862
 40
0.5934132610755576
 40
0.7522049747056857
 40
1.0
 40
1.0
 40
1.0
 40
1.0
 10
26.98236421937449
 20
16.56952813195153
 30
0.0
 10
26.98783176091439
 20
16.56730492677011
 30
0.0
 10
26.99895377053681
 20
16.56278250856078
 30
0.0
 10
27.01199149547051
 20
16.55804665653852
 30
0.0
 10
27.02121791141148
 20
16.55527179350136
 30
0.0
 10
27.0284709779544
 20
16.55370519767224
 30
0.0
 10
27.03127669000633
 20
16.55384674900209
 30
0.0
 10
27.03298663630392
 20
16.55393301771673
 30
0.0
  0
SPLINE
  5
251
330
1F
100
AcDbEntity
  8
0
  6
Continuous
 62
     7
370
    25
100
AcDbSpline
210
0.0
220
0.0
230
1.0
 70
     8
 71
     3
 72
    12
 73
     8
 74
     0
 42
0.00000001
 43
0.00000001
 40
0.0
 40
0.0
 40
0.0
 40
0.0
 40
0.2161829887036389
 40
0.4397569296952799
 40
0.5934132610746577
 40
0.7522049747051639
 40
1.0
 40
1.0
 40
1.0
 40
1.0
 10
27.10021121486466
 20
16.69399125932741
 30
0.0
 10
27.09874659581223
 20
16.69390362654434
 30
0.0
 10
27.09576728471319
 20
16.69372536495284
 30
0.0
 10
27.08807354315866
 20
16.69537620103718
 30
0.0
 10
27.07834571977161
 20
16.69844052043124
 30
0.0
 10
27.06613138483257
 20
16.70287119554214
 30
0.0
 10
27.05585298646065
 20
16.70704353420098
 30
0.0
 10
27.04958879793524
 20
16.70958637356224
 30
0.0
  0
LINE
  5
252
330
1F
100
AcDbEntity
  8
0
  6
Continuous
 62
     7
370
    25
100
AcDbLine
 10
27.1030410017
 20
16.6787290732
 30
0.0
 11
27.0495887979
 21
16.7095863736
 31
0.0
  0
LINE
  5
253
330
1F
100
AcDbEntity
  8
0
  6
Continuous
 62
     7
370
    25
100
AcDbLine
 10
27.0658324728
 20
16.5779394649
 30
0.0
 11
27.0684470461
 21
16.6024523637
 31
0.0
  0
SPLINE
  5
254
330
1F
100
AcDbEntity
  8
0
  6
Continuous
 62
     7
370
    25
100
AcDbSpline
210
0.0
220
0.0
230
1.0
 70
     8
 71
     3
 72
    12
 73
     8
 74
     0
 42
0.00000001
 43
0.00000001
 40
0.0
 40
0.0
 40
0.0
 40
0.0
 40
0.216182988703971
 40
0.4397569296957791
 40
0.593413261074844
 40
0.752204974704828
 40
1.0
 40
1.0
 40
1.0
 40
1.0
 10
26.99066530019016
 20
16.64735480987427
 30
0.0
 10
26.99209839243062
 20
16.6408706545095
 30
0.0
 10
26.99501357205423
 20
16.62768066082878
 30
0.0
 10
26.99598578734845
 20
16.61020192081952
 30
0.0
 10
26.99418102238134
 20
16.59577656751121
 30
0.0
 10
26.99010425268874
 20
16.5822440590622
 30
0.0
 10
26.98529514113264
 20
16.57434327756274
 30
0.0
 10
26.98236421937449
 20
16.56952813195153
 30
0.0
  0
LINE
  5
255
330
1F
100
AcDbEntity
  8
0
  6
Continuous
 62
     7
370
    25
100
AcDbLine
 10
27.0684470461
 20
16.6024523637
 30
0.0
 11
26.9906653002
 21
16.6473548099
 31
0.0
  0
SPLINE
  5
256
330
1F
100
AcDbEntity
  8
0
  6
Continuous
 62
     7
370
    25
100
AcDbSpline
210
0.0
220
0.0
230
1.0
 70
     8
 71
     3
 72
    13
 73
     9
 74
     0
 42
0.00000001
 43
0.00000001
 40
0.0
 40
0.0
 40
0.0
 40
0.0
 40
0.1749899066921733
 40
0.3340396060993015
 40
0.4928022939196075
 40
0.6562338482292531
 40
0.8199763248354379
 40
1.0
 40
1.0
 40
1.0
 40
1.0
 10
27.04958879793524
 20
16.70958637356224
 30
0.0
 10
27.04797777458865
 20
16.70519881628046
 30
0.0
 10
27.04490247947999
 20
16.69682337375438
 30
0.0
 10
27.03806145051087
 20
16.6847992497734
 30
0.0
 10
27.02940051380769
 20
16.67369205267942
 30
0.0
 10
27.01836342436131
 20
16.66376837406806
 30
0.0
 10
27.00532954699396
 20
16.65481308929396
 30
0.0
 10
26.99570532095304
 20
16.64991817938336
 30
0.0
 10
26.99066530019016
 20
16.64735480987427
 30
0.0
  0
LINE
  5
257
330
1F
100
AcDbEntity
  8
0
  6
Continuous
 62
     7
370
    25
100
AcDbLine
 10
27.0684470461
 20
16.6024523637
 30
0.0
 11
27.0995018244
 21
16.6352506104
 31
0.0
  0
LWPOLYLINE
  5
258
330
1F
100
AcDbEntity
  8
0
  6
Continuous
 62
     7
370
    25
100
AcDbPolyline
 90
       32
 70
   128
 43
0.0
 10
26.4151970808
 20
16.2473161205
 10
26.4220147775
 20
16.2443426219
 10
26.4298973409
 20
16.2437100789
 10
26.4385220581
 20
16.2454443879
 10
26.4475358321
 20
16.2494745461
 10
26.4565696378
 20
16.2556355583
 10
26.4652536304
 20
16.263675192
 10
26.473232286
 20
16.2732643036
 10
26.4801789575
 20
16.2840103138
 10
26.4858092476
 20
16.2954732796
 10
26.4898926513
 20
16.3071839059
 10
26.4922619936
 20
16.3186627583
 10
26.4928202735
 20
16.3294398911
 10
26.4915446349
 20
16.3390740874
 10
26.4884873025
 20
16.3471709219
 10
26.4837734439
 20
16.3533989094
 10
26.4775960451
 20
16.3575030753
 10
26.4702080094
 20
16.3593153945
 10
26.4619118039
 20
16.3587616705
 10
26.4530470763
 20
16.3558645729
 10
26.4439767495
 20
16.350742709
 10
26.4350721638
 20
16.3436057687
 10
26.426697874
 20
16.3347459392
 10
26.4191967244
 20
16.3245259428
 10
26.4128758131
 20
16.3133641874
 10
26.4079939188
 20
16.3017176367
 10
26.4047509069
 20
16.2900631017
 10
26.4032795467
 20
16.2788777205
 10
26.4036400759
 20
16.2686194239
 10
26.4058177343
 20
16.2597081879
 10
26.4097233683
 20
16.2525088393
 10
26.4151970808
 20
16.2473161205
  0
LWPOLYLINE
  5
259
330
1F
100
AcDbEntity
  8
0
  6
Continuous
 62
     7
370
    25
100
AcDbPolyline
 90
        8
 70
   128
 43
0.0
 10
26.4557522199
 20
16.3577535082
 10
26.4649051847
 20
16.3621118692
 10
26.4742612247
 20
16.3645548677
 10
26.4829872536
 20
16.3646993047
 10
26.490786117
 20
16.3625402617
 10
26.4973922341
 20
16.3581512622
 10
26.5025806413
 20
16.3516817685
 10
26.5055241109
 20
16.3453413247
  0
LWPOLYLINE
  5
25A
330
1F
100
AcDbEntity
  8
0
  6
Continuous
 62
     7
370
    25
100
AcDbPolyline
 90
       13
 70
   128
 43
0.0
 10
26.4787833785
 20
16.2557776798
 10
26.4752366296
 20
16.2519186083
 10
26.4659334157
 20
16.2433754506
 10
26.4562837843
 20
16.2366603512
 10
26.4466163421
 20
16.2320019847
 10
26.4372603022
 20
16.2295589863
 10
26.4285342732
 20
16.2294145493
 10
26.4207354098
 20
16.2315735923
 10
26.4141292927
 20
16.2359625917
 10
26.4089408855
 20
16.2424320855
 10
26.405346873
 20
16.2507617627
 10
26.4034696452
 20
16.2606679662
 10
26.4031945578
 20
16.2667111024
  0
LWPOLYLINE
  5
25B
330
1F
100
AcDbEntity
  8
0
  6
Continuous
 62
     7
370
    25
100
AcDbPolyline
 90
        3
 70
   128
 43
0.0
 10
26.4157850358
 20
16.2345624558
 10
26.4169827782
 20
16.231705164
 10
26.4203985813
 20
16.2258289143
  0
LWPOLYLINE
  5
25C
330
1F
100
AcDbEntity
  8
0
  6
Continuous
 62
     7
370
    25
100
AcDbPolyline
 90
        3
 70
   128
 43
0.0
 10
26.4993509584
 20
16.3633382922
 10
26.4967795737
 20
16.3634676332
 10
26.4898885182
 20
16.362927361
  0
LINE
  5
25D
330
1F
100
AcDbEntity
  8
0
  6
Continuous
 62
     7
370
    25
100
AcDbLine
 10
26.4784645561
 20
16.3082967331
 30
0.0
 11
26.4713430452
 21
16.3400257444
 31
0.0
  0
LINE
  5
25E
330
1F
100
AcDbEntity
  8
0
  6
Continuous
 62
     7
370
    25
100
AcDbLine
 10
26.4409036168
 20
16.3332516257
 30
0.0
 11
26.4713430452
 21
16.3400257444
 31
0.0
  0
LINE
  5
25F
330
1F
100
AcDbEntity
  8
0
  6
Continuous
 62
     7
370
    25
100
AcDbLine
 10
26.4175856993
 20
16.2947484958
 30
0.0
 11
26.4409036168
 21
16.3332516257
 31
0.0
  0
LINE
  5
260
330
1F
100
AcDbEntity
  8
0
  6
Continuous
 62
     7
370
    25
100
AcDbLine
 10
26.4175856993
 20
16.2947484958
 30
0.0
 11
26.4247072102
 21
16.2630194844
 31
0.0
  0
LINE
  5
261
330
1F
100
AcDbEntity
  8
0
  6
Continuous
 62
     7
370
    25
100
AcDbLine
 10
26.4551466386
 20
16.2697936031
 30
0.0
 11
26.4247072102
 21
16.2630194844
 31
0.0
  0
LINE
  5
262
330
1F
100
AcDbEntity
  8
0
  6
Continuous
 62
     7
370
    25
100
AcDbLine
 10
26.4551466386
 20
16.2697936031
 30
0.0
 11
26.4784645561
 21
16.3082967331
 31
0.0
  0
LINE
  5
263
330
1F
100
AcDbEntity
  8
0
  6
Continuous
 62
     7
370
    25
100
AcDbLine
 10
26.4776209901
 20
16.3120551373
 30
0.0
 11
26.4409036168
 21
16.3332516257
 31
0.0
  0
LINE
  5
264
330
1F
100
AcDbEntity
  8
0
  6
Continuous
 62
     7
370
    25
100
AcDbLine
 10
26.4566146239
 20
16.2722175772
 30
0.0
 11
26.4175856993
 21
16.2947484958
 31
0.0
  0
LWPOLYLINE
  5
265
330
1F
100
AcDbEntity
  8
0
  6
Continuous
 62
     7
370
    25
100
AcDbPolyline
 90
       32
 70
   128
 43
0.0
 10
24.7353819871
 20
15.2623360552
 10
24.7439829148
 20
15.2706290415
 10
24.7518276823
 20
15.2804166899
 10
24.7585951241
 20
15.2912982927
 10
24.7640081801
 20
15.302828356
 10
24.7678452393
 20
15.3145348375
 10
24.769949212
 20
15.3259384726
 10
24.7702339613
 20
15.336572395
 10
24.7686878295
 20
15.3460012508
 10
24.7653741156
 20
15.3538390214
 10
24.7604284832
 20
15.3597648277
 10
24.7540534072
 20
15.3635360664
 10
24.7465098839
 20
15.3649983425
 10
24.7381067461
 20
15.3640917904
 10
24.7291880192
 20
15.3608535243
 10
24.720118837
 20
15.3554161193
 10
24.7112704928
 20
15.3480021834
 10
24.7030052388
 20
15.3389152439
 10
24.6956614556
 20
15.3285273212
 10
24.6895397985
 20
15.3172636981
 10
24.6848908888
 20
15.3055855087
 10
24.6819050535
 20
15.2939708594
 10
24.680704533
 20
15.2828952554
 10
24.6813384768
 20
15.272812133
 10
24.6837809311
 20
15.2641342966
 10
24.6879319016
 20
15.2572170179
 10
24.693621447
 20
15.2523434909
 10
24.7006166367
 20
15.2497132385
 10
24.7086310867
 20
15.2494339435
 10
24.7173366847
 20
15.2515170403
 10
24.7263770223
 20
15.2558772466
 10
24.7353819871
 20
15.2623360552
  0
LWPOLYLINE
  5
266
330
1F
100
AcDbEntity
  8
0
  6
Continuous
 62
     7
370
    25
100
AcDbPolyline
 90
        3
 70
   128
 43
0.0
 10
24.6819719717
 20
15.2597076539
 10
24.6807187239
 20
15.270091948
 10
24.6806824388
 20
15.2723260222
  0
LWPOLYLINE
  5
267
330
1F
100
AcDbEntity
  8
0
  6
Continuous
 62
     7
370
    25
100
AcDbPolyline
 90
        9
 70
   128
 43
0.0
 10
24.7332401009
 20
15.363368428
 10
24.7361510245
 20
15.3649562724
 10
24.7457458866
 20
15.3688474386
 10
24.7549151701
 20
15.3704850743
 10
24.7633466261
 20
15.369813412
 10
24.7707531314
 20
15.3668553242
 10
24.7768824664
 20
15.361711545
 10
24.7815259039
 20
15.3545572398
 10
24.782848496
 20
15.351408085
  0
LWPOLYLINE
  5
268
330
1F
100
AcDbEntity
  8
0
  6
Continuous
 62
     7
370
    25
100
AcDbPolyline
 90
       11
 70
   128
 43
0.0
 10
24.7558347331
 20
15.2608978836
 10
24.7495023925
 20
15.25432808
 10
24.7400399635
 20
15.2463996088
 10
24.7303462643
 20
15.2403874212
 10
24.7207514022
 20
15.236496255
 10
24.7115821187
 20
15.2348586192
 10
24.7031506628
 20
15.2355302815
 10
24.6957441575
 20
15.2384883693
 10
24.6896148225
 20
15.2436321485
 10
24.684971385
 20
15.2507864538
 10
24.6819719717
 20
15.2597076539
  0
LWPOLYLINE
  5
269
330
1F
100
AcDbEntity
  8
0
  6
Continuous
 62
     7
370
    25
100
AcDbPolyline
 90
        3
 70
   128
 43
0.0
 10
24.6932729168
 20
15.2401773757
 10
24.6943898833
 20
15.2374951322
 10
24.6979225145
 20
15.2313939132
  0
LWPOLYLINE
  5
26A
330
1F
100
AcDbEntity
  8
0
  6
Continuous
 62
     7
370
    25
100
AcDbPolyline
 90
        3
 70
   128
 43
0.0
 10
24.7768327541
 20
15.3689537505
 10
24.7744527284
 20
15.3690796502
 10
24.7673763991
 20
15.3685422807
  0
LINE
  5
26B
330
1F
100
AcDbEntity
  8
0
  6
Continuous
 62
     7
370
    25
100
AcDbLine
 10
24.7489086703
 20
15.345588664
 30
0.0
 11
24.7185030265
 21
15.3389602375
 31
0.0
  0
LINE
  5
26C
330
1F
100
AcDbEntity
  8
0
  6
Continuous
 62
     7
370
    25
100
AcDbLine
 10
24.695107365
 20
15.3005091077
 30
0.0
 11
24.7185030265
 21
15.3389602375
 31
0.0
  0
LINE
  5
26D
330
1F
100
AcDbEntity
  8
0
  6
Continuous
 62
     7
370
    25
100
AcDbLine
 10
24.7021173472
 20
15.2686864044
 30
0.0
 11
24.695107365
 21
15.3005091077
 31
0.0
  0
LINE
  5
26E
330
1F
100
AcDbEntity
  8
0
  6
Continuous
 62
     7
370
    25
100
AcDbLine
 10
24.7021173472
 20
15.2686864044
 30
0.0
 11
24.7325229909
 21
15.2753148309
 31
0.0
  0
LINE
  5
26F
330
1F
100
AcDbEntity
  8
0
  6
Continuous
 62
     7
370
    25
100
AcDbLine
 10
24.7559186525
 20
15.3137659607
 30
0.0
 11
24.7325229909
 21
15.2753148309
 31
0.0
  0
LINE
  5
270
330
1F
100
AcDbEntity
  8
0
  6
Continuous
 62
     7
370
    25
100
AcDbLine
 10
24.7559186525
 20
15.3137659607
 30
0.0
 11
24.7489086703
 21
15.345588664
 31
0.0
  0
LINE
  5
271
330
1F
100
AcDbEntity
  8
0
  6
Continuous
 62
     7
370
    25
100
AcDbLine
 10
24.7550114369
 20
15.3178843808
 30
0.0
 11
24.7185030265
 21
15.3389602375
 31
0.0
  0
LINE
  5
272
330
1F
100
AcDbEntity
  8
0
  6
Continuous
 62
     7
370
    25
100
AcDbLine
 10
24.7341416376
 20
15.2779751017
 30
0.0
 11
24.695107365
 21
15.3005091077
 31
0.0
  0
LWPOLYLINE
  5
273
330
1F
100
AcDbEntity
  8
0
  6
Continuous
 62
     7
370
    25
100
AcDbPolyline
 90
       32
 70
   128
 43
0.0
 10
26.3343520614
 20
17.3021292047
 10
26.3351680416
 20
17.3120903846
 10
26.3341487693
 20
17.323087161
 10
26.3313359739
 20
17.3346693245
 10
26.3268448113
 20
17.3463627
 10
26.3208591504
 20
17.3576885594
 10
26.3136240448
 20
17.3681832207
 10
26.3054357007
 20
17.3774170311
 10
26.2966293496
 20
17.3850119574
 10
26.2875655248
 20
17.3906570624
 10
26.2786153002
 20
17.3941212349
 10
26.2701450991
 20
17.3952626512
 10
26.2625016926
 20
17.3940345816
 10
26.2559980026
 20
17.3904873034
 10
26.2509002908
 20
17.3847660427
 10
26.2474172584
 20
17.3771050284
 10
26.2456915009
 20
17.3678179035
 10
26.2457936711
 20
17.3572848838
 10
26.2477195862
 20
17.3459371926
 10
26.251390399
 20
17.3342394055
 10
26.2566558259
 20
17.3226704313
 10
26.2633002998
 20
17.3117039053
 10
26.2710517951
 20
17.3017887983
 10
26.2795929647
 20
17.2933310359
 10
26.2885741321
 20
17.2866768799
 10
26.2976276072
 20
17.2820987522
 10
26.3063827398
 20
17.279784082
 10
26.3144810937
 20
17.2798276321
 10
26.3215911212
 20
17.2822276195
 10
26.3274217371
 20
17.2868857886
 10
26.3317342352
 20
17.2936114332
 10
26.3343520614
 20
17.3021292047
  0
LINE
  5
274
330
1F
100
AcDbEntity
  8
0
  6
Continuous
 62
     7
370
    25
100
AcDbLine
 10
26.2799560711
 20
17.3781418665
 30
0.0
 11
26.2590785634
 21
17.3624286934
 31
0.0
  0
LINE
  5
275
330
1F
100
AcDbEntity
  8
0
  6
Continuous
 62
     7
370
    25
100
AcDbLine
 10
26.2694628079
 20
17.3216726073
 30
0.0
 11
26.2590785634
 21
17.3624286934
 31
0.0
  0
LINE
  5
276
330
1F
100
AcDbEntity
  8
0
  6
Continuous
 62
     7
370
    25
100
AcDbLine
 10
26.3007245599
 20
17.2966296942
 30
0.0
 11
26.2694628079
 21
17.3216726073
 31
0.0
  0
LINE
  5
277
330
1F
100
AcDbEntity
  8
0
  6
Continuous
 62
     7
370
    25
100
AcDbLine
 10
26.3007245599
 20
17.2966296942
 30
0.0
 11
26.3216020676
 21
17.3123428673
 31
0.0
  0
LINE
  5
278
330
1F
100
AcDbEntity
  8
0
  6
Continuous
 62
     7
370
    25
100
AcDbLine
 10
26.3112178231
 20
17.3530989535
 30
0.0
 11
26.3216020676
 21
17.3123428673
 31
0.0
  0
LINE
  5
279
330
1F
100
AcDbEntity
  8
0
  6
Continuous
 62
     7
370
    25
100
AcDbLine
 10
26.3112178231
 20
17.3530989535
 30
0.0
 11
26.2799560711
 21
17.3781418665
 31
0.0
  0
LINE
  5
27A
330
1F
100
AcDbEntity
  8
0
  6
Continuous
 62
     7
370
    25
100
AcDbLine
 10
26.2980686171
 20
17.2987572955
 30
0.0
 11
26.3216020676
 21
17.3123428673
 31
0.0
  0
LINE
  5
27B
330
1F
100
AcDbEntity
  8
0
  6
Continuous
 62
     7
370
    25
100
AcDbLine
 10
26.2678365205
 20
17.3280554605
 30
0.0
 11
26.3112178231
 21
17.3530989535
 31
0.0
  0
LWPOLYLINE
  5
27C
330
1F
100
AcDbEntity
  8
0
  6
Continuous
 62
     7
370
    25
100
AcDbPolyline
 90
       36
 70
   128
 43
0.0
 10
26.3193954268
 20
16.3963968433
 10
26.2964630848
 20
16.4110971229
 10
26.2713256367
 20
16.4251052555
 10
26.2445391474
 20
16.4380548652
 10
26.2162370659
 20
16.4498814379
 10
26.1865603917
 20
16.460526054
 10
26.1556569725
 20
16.4699356827
 10
26.1236807676
 20
16.4780634456
 10
26.0907910808
 20
16.4848688507
 10
26.0571517669
 20
16.4903179937
 10
26.0229304152
 20
16.4943837273
 10
25.9882975149
 20
16.4970457962
 10
25.9534256053
 20
16.4982909381
 10
25.9184884164
 20
16.4981129498
 10
25.8836600037
 20
16.496512718
 10
25.8491138804
 20
16.4934982151
 10
25.8150221537
 20
16.489084459
 10
25.7815546669
 20
16.4832934389
 10
25.7488781531
 20
16.4761540054
 10
25.7171554053
 20
16.4677017267
 10
25.6865444645
 20
16.4579787118
 10
25.6571978329
 20
16.4470334001
 10
25.629261714
 20
16.4349203207
 10
25.602875284
 20
16.4216998203
 10
25.5781699989
 20
16.4074377628
 10
25.5552689391
 20
16.392205201
 10
25.5342861966
 20
16.3760780228
 10
25.5153263063
 20
16.359136573
 10
25.4984837255
 20
16.341465253
 10
25.4838423631
 20
16.3231521005
 10
25.4714751615
 20
16.3042883506
 10
25.4614437335
 20
16.2849679817
 10
25.4537980553
 20
16.2652872468
 10
25.4485762172
 20
16.2453441943
 10
25.4458042341
 20
16.2252381796
 10
25.4453224588
 20
16.2126336553
  0
SPLINE
  5
27D
330
1F
100
AcDbEntity
  8
0
  6
Continuous
 62
     7
370
    25
100
AcDbSpline
210
0.0
220
0.0
230
1.0
 70
     8
 71
     3
 72
    13
 73
     9
 74
     0
 42
0.00000001
 43
0.00000001
 40
0.0
 40
0.0
 40
0.0
 40
0.0
 40
0.009125100657401
 40
0.1799118026930241
 40
0.3554316476983331
 40
0.5309754641763074
 40
0.7645292077871138
 40
1.0
 40
1.0
 40
1.0
 40
1.0
 10
25.93533085769572
 20
16.17455408388482
 30
0.0
 10
25.93449742324085
 20
16.17411442939379
 30
0.0
 10
25.91806530913807
 20
16.16544613794001
 30
0.0
 10
25.88686387284964
 20
16.14445047407476
 30
0.0
 10
25.84208389068072
 20
16.11186176478668
 30
0.0
 10
25.79402734938826
 20
16.07128927964817
 30
0.0
 10
25.74334677962461
 20
16.02300467013347
 30
0.0
 10
25.70885911897963
 20
15.98483512120803
 30
0.0
 10
25.69154480777972
 20
15.96567234135878
 30
0.0
  0
ARC
  5
27E
330
1F
100
AcDbEntity
  8
0
  6
Continuous
 62
     7
370
    25
100
AcDbCircle
 10
25.827523567
 20
15.523231881
 30
0.0
 40
0.4628647576735131
100
AcDbArc
 50
107.0841816683
 51
132.910441799
  0
SPLINE
  5
27F
330
1F
100
AcDbEntity
  8
0
  6
Continuous
 62
     7
370
    25
100
AcDbSpline
210
0.0
220
0.0
230
1.0
 70
     8
 71
     3
 72
    13
 73
     9
 74
     0
 42
0.00000001
 43
0.00000001
 40
0.0
 40
0.0
 40
0.0
 40
0.0
 40
0.188182079487971
 40
0.3763701601636097
 40
0.568828596165395
 40
0.7612571085223029
 40
0.9063902109690739
 40
1.0
 40
1.0
 40
1.0
 40
1.0
 10
25.51238007910803
 20
15.86224274505747
 30
0.0
 10
25.50485040181292
 20
15.86526576135872
 30
0.0
 10
25.48979080709884
 20
15.8713118903662
 30
0.0
 10
25.47235480575316
 20
15.87955146517334
 30
0.0
 10
25.45852091396495
 20
15.88605203745898
 30
0.0
 10
25.45011247841775
 20
15.89001978786693
 30
0.0
 10
25.44595973136988
 20
15.89182407773822
 30
0.0
 10
25.44577394620515
 20
15.89168340366462
 30
0.0
 10
25.44570110085269
 20
15.89162824612559
 30
0.0
  0
LINE
  5
280
330
1F
100
AcDbEntity
  8
0
  6
Continuous
 62
     7
370
    25
100
AcDbLine
 10
25.6915448078
 20
15.9656723414
 30
0.0
 11
25.5123800791
 21
15.8622427451
 31
0.0
  0
LWPOLYLINE
  5
281
330
1F
100
AcDbEntity
  8
0
  6
Continuous
 62
     7
370
    25
100
AcDbPolyline
 90
       37
 70
   128
 43
0.0
 10
26.9041090016
 20
15.7483397686
 10
26.8791697134
 20
15.7637539045
 10
26.8543546716
 20
15.7811252306
 10
26.8297875033
 20
15.8003672038
 10
26.805590601
 20
15.8213839615
 10
26.7818845124
 20
15.8440707994
 10
26.75878734
 20
15.8683146927
 10
26.7364141529
 20
15.8939948596
 10
26.714876413
 20
15.9209833628
 10
26.6942814204
 20
15.9491457469
 10
26.6747317783
 20
15.9783417084
 10
26.6563248819
 20
16.0084257944
 10
26.6391524336
 20
16.0392481275
 10
26.6232999855
 20
16.0706551525
 10
26.6088465139
 20
16.102490401
 10
26.5958640251
 20
16.1345952715
 10
26.5844171972
 20
16.1668098192
 10
26.5745630579
 20
16.1989735527
 10
26.5663506999
 20
16.2309262341
 10
26.5598210367
 20
16.2625086765
 10
26.5550065989
 20
16.293563538
 10
26.5519313717
 20
16.3239361047
 10
26.5506106757
 20
16.353475062
 10
26.5510510906
 20
16.3820332483
 10
26.5532504222
 20
16.4094683882
 10
26.5571977137
 20
16.4356438013
 10
26.5628732997
 20
16.4604290828
 10
26.5702489048
 20
16.4837007538
 10
26.5792877842
 20
16.505342876
 10
26.5899449065
 20
16.5252476295
 10
26.6021671785
 20
16.5433158496
 10
26.6158937095
 20
16.5594575216
 10
26.6310561146
 20
16.5735922283
 10
26.6475788554
 20
16.5856495514
 10
26.6653796165
 20
16.595569422
 10
26.6843697154
 20
16.6033024196
 10
26.691898821
 20
16.6056651292
  0
LWPOLYLINE
  5
282
330
1F
100
AcDbEntity
  8
0
  6
Continuous
 62
     7
370
    25
100
AcDbPolyline
 90
       15
 70
   128
 43
0.0
 10
27.1868585937
 20
15.7482767554
 10
27.1849180176
 20
15.7464399636
 10
27.1690655696
 20
15.7333357856
 10
27.1518931212
 20
15.7223403393
 10
27.1334862249
 20
15.7135084035
 10
27.1139365827
 20
15.7068839784
 10
27.0933415901
 20
15.7025000666
 10
27.0718038503
 20
15.7003785085
 10
27.0494306631
 20
15.7005298737
 10
27.0263334908
 20
15.7029534079
 10
27.0026274022
 20
15.7076370373
 10
26.9784304999
 20
15.7145574284
 10
26.9538633316
 20
15.7236801039
 10
26.9290482897
 20
15.7349596153
 10
26.9041090016
 20
15.7483397686
  0
SPLINE
  5
283
330
1F
100
AcDbEntity
  8
0
  6
Continuous
 62
     7
370
    25
100
AcDbSpline
210
0.0
220
0.0
230
1.0
 70
    11
 71
     3
 72
    26
 73
    22
 74
     0
 42
0.00000001
 43
0.00000001
 40
0.0
 40
0.0
 40
0.0
 40
0.0
 40
0.0532007753862718
 40
0.1063847263153348
 40
0.1600073343611949
 40
0.213942894105743
 40
0.2673935894686003
 40
0.3203162448468938
 40
0.3734912217377431
 40
0.427301685045345
 40
0.4811480377781143
 40
0.5343807310971372
 40
0.5873085574696535
 40
0.6406942334865288
 40
0.694609971854434
 40
0.7482999487977636
 40
0.8013441886185636
 40
0.854336766092971
 40
0.9079436071600081
 40
0.9618809478017588
 40
1.0
 40
1.0
 40
1.0
 40
1.0
 10
24.78349576479093
 20
15.3406102667919
 30
0.0
 10
24.78296997543726
 20
15.34765698210668
 30
0.0
 10
24.78191856300797
 20
15.36174818425068
 30
0.0
 10
24.77355813733759
 20
15.37513259628441
 30
0.0
 10
24.76066684514833
 20
15.3810371236669
 30
0.0
 10
24.7435718593715
 20
15.37859956996693
 30
0.0
 10
24.72402212549516
 20
15.36842237444736
 30
0.0
 10
24.70420803322817
 20
15.35181900903457
 30
0.0
 10
24.68649818110416
 20
15.33043943268623
 30
0.0
 10
24.67329265158891
 20
15.30617218043108
 30
0.0
 10
24.66673014899407
 20
15.2814827081531
 30
0.0
 10
24.66786891931718
 20
15.25916945118435
 30
0.0
 10
24.67638414392589
 20
15.24169909761694
 30
0.0
 10
24.69099863586055
 20
15.231055873082
 30
0.0
 10
24.7096904395679
 20
15.22881893471632
 30
0.0
 10
24.72980419400394
 20
15.23564669610156
 30
0.0
 10
24.74873440199798
 20
15.25073809286651
 30
0.0
 10
24.76466892189107
 20
15.27224898861857
 30
0.0
 10
24.77630501405228
 20
15.29762495404003
 30
0.0
 10
24.78256157270613
 20
15.32161976184328
 30
0.0
 10
24.78322220692575
 20
15.33504930981423
 30
0.0
 10
24.78349576479093
 20
15.3406102667919
 30
0.0
  0
SPLINE
  5
284
330
1F
100
AcDbEntity
  8
0
  6
Continuous
 62
     7
370
    25
100
AcDbSpline
210
0.0
220
0.0
230
1.0
 70
    11
 71
     3
 72
    26
 73
    22
 74
     0
 42
0.00000001
 43
0.00000001
 40
0.0
 40
0.0
 40
0.0
 40
0.0
 40
0.0532007753862719
 40
0.1063847263153331
 40
0.1600073343611945
 40
0.2139428941057427
 40
0.2673935894686
 40
0.3203162448468931
 40
0.3734912217377442
 40
0.4273016850453444
 40
0.4811480377781136
 40
0.5343807310971367
 40
0.5873085574696527
 40
0.640694233486528
 40
0.6946099718544333
 40
0.7482999487977631
 40
0.8013441886185626
 40
0.8543367660929703
 40
0.9079436071600079
 40
0.9618809478017588
 40
1.0
 40
1.0
 40
1.0
 40
1.0
 10
26.50600788376136
 20
16.33499534699196
 30
0.0
 10
26.5054820944077
 20
16.34204206230675
 30
0.0
 10
26.5044306819784
 20
16.35613326445074
 30
0.0
 10
26.49607025630802
 20
16.36951767648447
 30
0.0
 10
26.48317896411876
 20
16.37542220386696
 30
0.0
 10
26.46608397834193
 20
16.372984650167
 30
0.0
 10
26.44653424446559
 20
16.36280745464743
 30
0.0
 10
26.4267201521986
 20
16.34620408923463
 30
0.0
 10
26.40901030007459
 20
16.32482451288629
 30
0.0
 10
26.39580477055933
 20
16.30055726063115
 30
0.0
 10
26.3892422679645
 20
16.27586778835315
 30
0.0
 10
26.39038103828761
 20
16.25355453138442
 30
0.0
 10
26.39889626289632
 20
16.236084177817
 30
0.0
 10
26.41351075483098
 20
16.22544095328206
 30
0.0
 10
26.43220255853833
 20
16.22320401491638
 30
0.0
 10
26.45231631297437
 20
16.23003177630163
 30
0.0
 10
26.4712465209684
 20
16.24512317306657
 30
0.0
 10
26.4871810408615
 20
16.26663406881864
 30
0.0
 10
26.49881713302272
 20
16.29201003424009
 30
0.0
 10
26.50507369167656
 20
16.31600484204334
 30
0.0
 10
26.50573432589618
 20
16.32943439001428
 30
0.0
 10
26.50600788376136
 20
16.33499534699196
 30
0.0
  0
ARC
  5
285
330
1F
100
AcDbEntity
  8
0
  6
Continuous
 62
     7
370
    25
100
AcDbCircle
 10
25.122628072
 20
14.8363012093
 30
0.0
 40
0.2482614015506001
100
AcDbArc
 50
233.9521270656
 51
294.7374145053
  0
LWPOLYLINE
  5
286
330
1F
100
AcDbEntity
  8
0
  6
Continuous
 62
     7
370
    25
100
AcDbPolyline
 90
       35
 70
   128
 43
0.0
 10
24.7265562329
 20
15.4768703493
 10
24.7200057699
 20
15.472885295
 10
24.7034830291
 20
15.4608279719
 10
24.688320624
 20
15.4466932652
 10
24.674594093
 20
15.4305515932
 10
24.662371821
 20
15.4124833731
 10
24.6517146987
 20
15.3925786196
 10
24.6426758193
 20
15.3709364974
 10
24.6353002142
 20
15.3476648264
 10
24.6296246282
 20
15.3228795449
 10
24.6256773367
 20
15.2967041318
 10
24.6234780051
 20
15.2692689919
 10
24.6230375902
 20
15.2407108056
 10
24.6243582862
 20
15.2111718482
 10
24.6274335134
 20
15.1807992816
 10
24.6322479512
 20
15.1497444201
 10
24.6387776144
 20
15.1181619777
 10
24.6469899724
 20
15.0862092963
 10
24.6568441117
 20
15.0540455628
 10
24.6682909396
 20
15.0218310151
 10
24.6812734283
 20
14.9897261446
 10
24.6957269
 20
14.9578908961
 10
24.711579348
 20
14.9264838711
 10
24.7287517964
 20
14.895661538
 10
24.7471586927
 20
14.865577452
 10
24.7667083349
 20
14.8363814905
 10
24.7873033275
 20
14.8082191064
 10
24.8088410673
 20
14.7812306032
 10
24.8312142545
 20
14.7555504363
 10
24.8543114268
 20
14.731306543
 10
24.8780175154
 20
14.7086197051
 10
24.9022144178
 20
14.6876029474
 10
24.9267815861
 20
14.6683609742
 10
24.9515966279
 20
14.6509896481
 10
24.9765359161
 20
14.6355755122
  0
ARC
  5
287
330
1F
100
AcDbEntity
  8
0
  6
Continuous
 62
     7
370
    25
100
AcDbCircle
 10
25.3435011611
 20
15.2556938513
 30
0.0
 40
0.7212034595690566
100
AcDbArc
 50
182.4970805995
 51
237.5029195461
  0
LWPOLYLINE
  5
288
330
1F
100
AcDbEntity
  8
0
  6
Continuous
 62
     7
370
    25
100
AcDbPolyline
 90
       33
 70
   128
 43
0.0
 10
26.2903403155
 20
17.9416259812
 10
26.2647785346
 20
17.9553758254
 10
26.2376003298
 20
17.9680505109
 10
26.2089411016
 20
17.9795868929
 10
26.1789436288
 20
17.9899274977
 10
26.1477573574
 20
17.9990208091
 10
26.1155376558
 20
18.0068215245
 10
26.0824450408
 20
18.0132907813
 10
26.0486443783
 20
18.0183963498
 10
26.0143040615
 20
18.0221127945
 10
25.979595172
 20
18.0244216001
 10
25.9446906279
 20
18.0253112643
 10
25.9097643217
 20
18.0247773549
 10
25.8749902546
 20
18.0228225318
 10
25.8405416693
 20
18.0194565337
 10
25.8065901869
 20
18.01469613
 10
25.7733049519
 20
18.0085650367
 10
25.7408517898
 20
18.0010937986
 10
25.7093923805
 20
17.992319637
 10
25.6790834532
 20
17.9822862644
 10
25.6500760055
 20
17.9710436666
 10
25.622514551
 20
17.9586478536
 10
25.5965363996
 20
17.9451605806
 10
25.572270973
 20
17.9306490407
 10
25.5498391604
 20
17.9151855296
 10
25.5293527159
 20
17.8988470858
 10
25.510913702
 20
17.8817151064
 10
25.494613981
 20
17.8638749422
 10
25.4805347571
 20
17.845415472
 10
25.4687461725
 20
17.82642866
 10
25.4593069572
 20
17.8070090974
 10
25.452264137
 20
17.7872535317
 10
25.4521563779
 20
17.786884531
  0
ARC
  5
289
330
1F
100
AcDbEntity
  8
0
  6
Continuous
 62
     7
370
    25
100
AcDbCircle
 10
26.1632477494
 20
17.6889025622
 30
0.0
 40
0.2828809764523687
100
AcDbArc
 50
20.6296359671
 51
63.3025462453
  0
LWPOLYLINE
  5
28A
330
1F
100
AcDbEntity
  8
0
  6
Continuous
 62
     7
370
    25
100
AcDbPolyline
 90
       35
 70
   128
 43
0.0
 10
24.6500783134
 20
14.6779191888
 10
24.6284386145
 20
14.690411006
 10
24.6053636186
 20
14.703731632
 10
24.5809681505
 20
14.7178147812
 10
24.5553736059
 20
14.7325903735
 10
24.5287073476
 20
14.7479848833
 10
24.501102071
 20
14.763921705
 10
24.4726951445
 20
14.7803215343
 10
24.4436279255
 20
14.7971027631
 10
24.4140450573
 20
14.8141818853
 10
24.3840937488
 20
14.8314739124
 10
24.3539230427
 20
14.8488927965
 10
24.3236830733
 20
14.8663518585
 10
24.2935243195
 20
14.8837642191
 10
24.2635968562
 20
14.9010432317
 10
24.2340496072
 20
14.9181029132
 10
24.2050296044
 20
14.9348583718
 10
24.176681256
 20
14.9512262297
 10
24.1491456281
 20
14.9671250377
 10
24.1225597422
 20
14.9824756809
 10
24.0970558941
 20
14.9972017719
 10
24.072760995
 20
15.0112300313
 10
24.0497959402
 20
15.0244906523
 10
24.0282750076
 20
15.0369176479
 10
24.0083052889
 20
15.0484491793
 10
23.9899861564
 20
15.0590278638
 10
23.9734087693
 20
15.0686010601
 10
23.9586556192
 20
15.0771211305
 10
23.9458001203
 20
15.0845456778
 10
23.9349062435
 20
15.0908377561
 10
23.9260281985
 20
15.0959660551
 10
23.9192101639
 20
15.0999050555
 10
23.9144860674
 20
15.1026351563
 10
23.9118794168
 20
15.104142772
 10
23.9113214386
 20
15.1044668567
  0
LWPOLYLINE
  5
28B
330
1F
100
AcDbEntity
  8
0
  6
Continuous
 62
     7
370
    25
100
AcDbPolyline
 90
       47
 70
   128
 43
0.0
 10
23.6013214386
 20
14.5675311079
 10
23.6015555369
 20
14.5673946965
 10
23.6036219907
 20
14.5661989584
 10
23.6078126582
 20
14.5637768243
 10
23.6141066619
 20
14.5601403614
 10
23.6224726452
 20
14.5553076863
 10
23.6328689293
 20
14.549302875
 10
23.6452437204
 20
14.5421558434
 10
23.6595353679
 20
14.5339021975
 10
23.6756726716
 20
14.5245830566
 10
23.6935752362
 20
14.5142448481
 10
23.713153872
 20
14.5029390766
 10
23.7343110393
 20
14.4907220668
 10
23.7569413341
 20
14.4776546832
 10
23.7809320135
 20
14.4638020268
 10
23.806163557
 20
14.449233111
 10
23.8325102625
 20
14.4340205173
 10
23.8598408718
 20
14.4182400341
 10
23.8880192254
 20
14.401970279
 10
23.91690494
 20
14.385292307
 10
23.9463541086
 20
14.368289207
 10
23.9762200167
 20
14.3510456876
 10
24.006353874
 20
14.3336476551
 10
24.0366055552
 20
14.3161817857
 10
24.0668243477
 20
14.2987350933
 10
24.0968597032
 20
14.2813944967
 10
24.1265619871
 20
14.2642463857
 10
24.1557832239
 20
14.2473761914
 10
24.1843778351
 20
14.2308679602
 10
24.2122033636
 20
14.2148039353
 10
24.2391211842
 20
14.1992641469
 10
24.2649971935
 20
14.1843260135
 10
24.2897024786
 20
14.1700639559
 10
24.313113959
 20
14.1565490272
 10
24.3351149999
 20
14.143848558
 10
24.3555959932
 20
14.1320258214
 10
24.3744549037
 20
14.1211397177
 10
24.3915977771
 20
14.1112444808
 10
24.4069392086
 20
14.1023894085
 10
24.420402768
 20
14.0946186161
 10
24.4319213803
 20
14.0879708174
 10
24.4414376606
 20
14.0824791314
 10
24.4489041991
 20
14.0781709174
 10
24.4542837979
 20
14.0750676387
 10
24.4575496563
 20
14.0731847557
 10
24.4586855037
 20
14.0725316488
 10
24.4586865877
 20
14.0725311068
  0
LWPOLYLINE
  5
28C
330
1F
100
AcDbEntity
  8
0
  6
Continuous
 62
     7
370
    25
100
AcDbPolyline
 90
       36
 70
   128
 43
0.0
 10
27.4945536098
 20
15.8360875763
 10
27.4890471405
 20
15.844201779
 10
27.473705709
 20
15.8696402336
 10
27.4602421497
 20
15.8965475246
 10
27.4487235373
 20
15.9247896012
 10
27.4392072571
 20
15.9542257627
 10
27.4317407185
 20
15.9847093598
 10
27.4263611197
 20
16.0160885247
 10
27.4230952614
 20
16.0482069279
 10
27.4219594139
 20
16.0809045573
 10
27.4229592361
 20
16.1140185147
 10
27.4260897469
 20
16.1473838283
 10
27.4313353502
 20
16.1808342736
 10
27.4386699126
 20
16.2142032022
 10
27.4480568938
 20
16.2473243719
 10
27.4594495283
 20
16.2800327745
 10
27.4727910586
 20
16.3121654585
 10
27.4880150177
 20
16.3435623405
 10
27.5050455609
 20
16.3740670028
 10
27.5237978426
 20
16.4035274726
 10
27.54417844
 20
16.4317969795
 10
27.566085818
 20
16.4587346861
 10
27.5894108351
 20
16.4842063902
 10
27.6140372873
 20
16.5080851929
 10
27.6398424868
 20
16.5302521314
 10
27.6666978735
 20
16.550596771
 10
27.694469655
 20
16.5690177557
 10
27.7230194739
 20
16.5854233132
 10
27.7522050963
 20
16.5997317118
 10
27.781881121
 20
16.6118716678
 10
27.8118997034
 20
16.6217827004
 10
27.8421112926
 20
16.6294154335
 10
27.8723653758
 20
16.6347318412
 10
27.9025112288
 20
16.6377054373
 10
27.9323986665
 20
16.6383214076
 10
27.9570802558
 20
16.6370242462
  0
ARC
  5
28D
330
1F
100
AcDbEntity
  8
0
  6
Continuous
 62
     7
370
    25
100
AcDbCircle
 10
27.6220829859
 20
16.4842963113
 30
0.0
 40
0.3323364631987715
100
AcDbArc
 50
60.0139525405
 51
72.6428364691
  0
ARC
  5
28E
330
1F
100
AcDbEntity
  8
0
  6
Continuous
 62
     7
370
    25
100
AcDbCircle
 10
24.637197934
 20
14.5769402963
 30
0.0
 40
0.2621592878951732
100
AcDbArc
 50
231.3706821092
 51
293.1549691276
  0
ARC
  5
28F
330
1F
100
AcDbEntity
  8
0
  6
Continuous
 62
     7
370
    25
100
AcDbCircle
 10
27.812817939
 20
16.6841638257
 30
0.0
 40
0.7791435122878259
100
AcDbArc
 50
194.2272625321
 51
236.2448737189
  0
ARC
  5
290
330
1F
100
AcDbEntity
  8
0
  6
Continuous
 62
     7
370
    25
100
AcDbCircle
 10
27.2380781136
 20
16.7021008091
 30
0.0
 40
0.1895803962194204
100
AcDbArc
 50
121.0327250488
 51
161.3511765308
  0
LINE
  5
291
330
1F
100
AcDbEntity
  8
0
  6
Continuous
 62
     7
370
    25
100
AcDbLine
 10
4.7100778198
 20
3.1684499578
 30
0.0
 11
4.7100778198
 21
5.9924499578
 31
0.0
  0
LINE
  5
292
330
1F
100
AcDbEntity
  8
0
  6
Continuous
 62
     7
370
    25
100
AcDbLine
 10
4.7100778198
 20
2.9254499578
 30
0.0
 11
4.7100778198
 21
3.0324499578
 31
0.0
  0
LINE
  5
293
330
1F
100
AcDbEntity
  8
0
  6
Continuous
 62
     7
370
    25
100
AcDbLine
 10
3.7200778198
 20
6.9824499578
 30
0.0
 11
3.7200778198
 21
2.9254499578
 31
0.0
  0
LINE
  5
294
330
1F
100
AcDbEntity
  8
0
  6
Continuous
 62
     7
370
    25
100
AcDbLine
 10
4.2150778198
 20
2.9254499578
 30
0.0
 11
3.7200778198
 21
2.9254499578
 31
0.0
  0
LINE
  5
295
330
1F
100
AcDbEntity
  8
0
  6
Continuous
 62
     7
370
    25
100
AcDbLine
 10
4.7100778198
 20
2.9254499578
 30
0.0
 11
4.2150778198
 21
2.9254499578
 31
0.0
  0
SPLINE
  5
296
330
1F
100
AcDbEntity
  8
0
  6
Continuous
 62
     7
370
    25
100
AcDbSpline
210
0.0
220
0.0
230
1.0
 70
     8
 71
     3
 72
    34
 73
    30
 74
     0
 42
0.00000001
 43
0.00000001
 40
0.0
 40
0.0
 40
0.0
 40
0.0
 40
0.0624999999999998
 40
0.0624999999999998
 40
0.1249999999999995
 40
0.1249999999999995
 40
0.1874999999999993
 40
0.1874999999999993
 40
0.2499999999999992
 40
0.2499999999999992
 40
0.312499999999999
 40
0.312499999999999
 40
0.3749999999999988
 40
0.3749999999999988
 40
0.4374999999999988
 40
0.4374999999999988
 40
0.4999999999999989
 40
0.4999999999999989
 40
0.6249999999999994
 40
0.6249999999999994
 40
0.7499999999999999
 40
0.7499999999999999
 40
0.8125
 40
0.8125
 40
0.875
 40
0.875
 40
0.9375
 40
0.9375
 40
1.0
 40
1.0
 40
1.0
 40
1.0
 10
4.710077819785425
 20
3.032449957828565
 30
0.0
 10
4.710077819785426
 20
3.032449957828565
 30
0.0
 10
4.710016092803629
 20
3.03289524672546
 30
0.0
 10
4.709781330297078
 20
3.034637282707923
 30
0.0
 10
4.70960952813394
 20
3.035924933513051
 30
0.0
 10
4.709175569820497
 20
3.039339772175614
 30
0.0
 10
4.708913590092395
 20
3.041469036106317
 30
0.0
 10
4.708349761162602
 20
3.046392680404192
 30
0.0
 10
4.708045008325305
 20
3.0492092578646
 30
0.0
 10
4.707426180993652
 20
3.055551526449396
 30
0.0
 10
4.70712164540357
 20
3.058981946742578
 30
0.0
 10
4.706555950573989
 20
3.06634390766283
 30
0.0
 10
4.70629235164028
 20
3.070323382385936
 30
0.0
 10
4.705856257238455
 20
3.078555462827439
 30
0.0
 10
4.705683235283649
 20
3.082795057573098
 30
0.0
 10
4.705446766073939
 20
3.091521056946943
 30
0.0
 10
4.705384661720028
 20
3.096032111882614
 30
0.0
 10
4.705385277453824
 20
3.109353637119867
 30
0.0
 10
4.705642001290228
 20
3.118310834514184
 30
0.0
 10
4.706510283220394
 20
3.1346794897895
 30
0.0
 10
4.707124288598194
 20
3.142255097595318
 30
0.0
 10
4.708042107154952
 20
3.151660544445937
 30
0.0
 10
4.708352291720785
 20
3.154530477098794
 30
0.0
 10
4.708917179240413
 20
3.159461065667195
 30
0.0
 10
4.709174386253786
 20
3.161550612080311
 30
0.0
 10
4.709608647862538
 20
3.164968272071906
 30
0.0
 10
4.709783219130585
 20
3.166276755534736
 30
0.0
 10
4.710016471327118
 20
3.168007370041469
 30
0.0
 10
4.710077819785426
 20
3.168449957828564
 30
0.0
 10
4.710077819785425
 20
3.168449957828564
 30
0.0
  0
LINE
  5
297
330
1F
100
AcDbEntity
  8
0
  6
Continuous
 62
     7
370
    25
100
AcDbLine
 10
4.7100778198
 20
5.9924499578
 30
0.0
 11
3.7200778198
 21
6.9824499578
 31
0.0
  0
INSERT
  5
298
330
1F
100
AcDbEntity
  8
0
  6
Continuous
 62
     7
100
AcDbBlockReference
  2
Block1
 10
3.4008156625
 20
2.1477327766
 30
0.0
 41
0.5
 42
0.5
 43
0.5
  0
DIMENSION
  5
299
330
1F
100
AcDbEntity
  8
0
  6
Continuous
 62
     7
370
    18
100
AcDbDimension
  2
_D_7
 10
1.8303140403
 20
6.9824499578
 30
0.0
 11
1.8303140403
 21
4.9539499578
 31
0.0
 70
   160
  1
<>
 71
     2
 42
-1.0
  3
SLDDIMSTYLE0
100
AcDbAlignedDimension
 13
3.7200778198
 23
2.9254499578
 33
0.0
 14
3.7200778198
 24
6.9824499578
 34
0.0
 50
90.0
100
AcDbRotatedDimension
  0
LINE
  5
2AD
330
1F
100
AcDbEntity
  8
0
  6
Continuous
 62
     7
370
    25
100
AcDbLine
 10
10.9145150461
 20
3.1684499578
 30
0.0
 11
10.9145150461
 21
6.0884499578
 31
0.0
  0
LINE
  5
2AE
330
1F
100
AcDbEntity
  8
0
  6
Continuous
 62
     7
370
    25
100
AcDbLine
 10
10.9145150461
 20
2.9254499578
 30
0.0
 11
10.9145150461
 21
3.0324499578
 31
0.0
  0
LINE
  5
2AF
330
1F
100
AcDbEntity
  8
0
  6
Continuous
 62
     7
370
    25
100
AcDbLine
 10
9.9245150461
 20
6.0884499578
 30
0.0
 11
9.9245150461
 21
2.9254499578
 31
0.0
  0
ARC
  5
2B0
330
1F
100
AcDbEntity
  8
0
  6
Continuous
 62
     7
370
    25
100
AcDbCircle
 10
10.8995150461
 20
6.0884499578
 30
0.0
 40
0.0149999999999997
100
AcDbArc
 50
0.0
 51
90.0
  0
ARC
  5
2B1
330
1F
100
AcDbEntity
  8
0
  6
Continuous
 62
     7
370
    25
100
AcDbCircle
 10
9.9395150461
 20
6.0884499578
 30
0.0
 40
0.0149999999999997
100
AcDbArc
 50
90.0
 51
180.0
  0
LINE
  5
2B2
330
1F
100
AcDbEntity
  8
0
  6
Continuous
 62
     7
370
    25
100
AcDbLine
 10
10.9145150461
 20
2.9254499578
 30
0.0
 11
9.9245150461
 21
2.9254499578
 31
0.0
  0
SPLINE
  5
2B3
330
1F
100
AcDbEntity
  8
0
  6
Continuous
 62
     7
370
    25
100
AcDbSpline
210
0.0
220
0.0
230
1.0
 70
     8
 71
     3
 72
    30
 73
    26
 74
     0
 42
0.00000001
 43
0.00000001
 40
0.0
 40
0.0
 40
0.0
 40
0.0
 40
0.1250000000000001
 40
0.1250000000000001
 40
0.2500000000000002
 40
0.2500000000000002
 40
0.3125000000000003
 40
0.3125000000000003
 40
0.3750000000000004
 40
0.3750000000000004
 40
0.4375000000000002
 40
0.4375000000000002
 40
0.5000000000000001
 40
0.5000000000000001
 40
0.5625
 40
0.5625
 40
0.625
 40
0.625
 40
0.6874999999999999
 40
0.6874999999999999
 40
0.7499999999999998
 40
0.7499999999999998
 40
0.8749999999999999
 40
0.8749999999999999
 40
1.0
 40
1.0
 40
1.0
 40
1.0
 10
10.91451504612896
 20
3.032449957828562
 30
0.0
 10
10.91451504612896
 20
3.032449957828562
 30
0.0
 10
10.9142615209776
 20
3.034235329561962
 30
0.0
 10
10.91339996130733
 20
3.041014176837066
 30
0.0
 10
10.91278897303333
 20
3.046071423240689
 30
0.0
 10
10.91187139314159
 20
3.055466772540161
 30
0.0
 10
10.91156061677777
 20
3.058960557736894
 30
0.0
 10
10.91099352014116
 20
3.06633812495175
 30
0.0
 10
10.91073475107554
 20
3.070239055406231
 30
0.0
 10
10.91029717961969
 20
3.078472636538649
 30
0.0
 10
10.91012083858206
 20
3.082788653476424
 30
0.0
 10
10.90988485824848
 20
3.091481640203873
 30
0.0
 10
10.90982252263776
 20
3.095908277424285
 30
0.0
 10
10.90982166736867
 20
3.104898347645586
 30
0.0
 10
10.90988302764282
 20
3.109319257544508
 30
0.0
 10
10.91011749251684
 20
3.118018895908217
 30
0.0
 10
10.91029344624665
 20
3.122343462349226
 30
0.0
 10
10.91072942350144
 20
3.130573902715476
 30
0.0
 10
10.91098771192207
 20
3.134478891209627
 30
0.0
 10
10.91155494893588
 20
3.141872814315132
 30
0.0
 10
10.9118653285123
 20
3.145366835315548
 30
0.0
 10
10.91278218578895
 20
3.154767287929244
 30
0.0
 10
10.91339424085059
 20
3.159838764358483
 30
0.0
 10
10.91425791146119
 20
3.166638130180628
 30
0.0
 10
10.91451504612896
 20
3.16844995782856
 30
0.0
 10
10.91451504612896
 20
3.16844995782856
 30
0.0
  0
LINE
  5
2B4
330
1F
100
AcDbEntity
  8
0
  6
Continuous
 62
     7
370
    25
100
AcDbLine
 10
9.9395150461
 20
6.1034499578
 30
0.0
 11
10.8995150461
 21
6.1034499578
 31
0.0
  0
LINE
  5
2B5
330
1F
100
AcDbEntity
  8
0
  6
Continuous
 62
     7
370
    25
100
AcDbLine
 10
10.9145150461
 20
6.0884499578
 30
0.0
 11
9.9245150461
 21
6.0884499578
 31
0.0
  0
INSERT
  5
2B6
330
1F
100
AcDbEntity
  8
0
  6
Continuous
 62
     7
100
AcDbBlockReference
  2
Block2
 10
9.6132700399
 20
1.6837908347
 30
0.0
 41
0.5
 42
0.5
 43
0.5
  0
DIMENSION
  5
2B7
330
1F
100
AcDbEntity
  8
0
  6
Continuous
 62
     7
370
    18
100
AcDbDimension
  2
_D_8
 10
8.7434126839
 20
6.1034499578
 30
0.0
 11
8.7434126839
 21
4.5144499578
 31
0.0
 70
   160
  1
<>
 71
     2
 42
-1.0
  3
SLDDIMSTYLE0
100
AcDbAlignedDimension
 13
9.9245150461
 23
2.9254499578
 33
0.0
 14
9.9395150461
 24
6.1034499578
 34
0.0
 50
90.0
100
AcDbRotatedDimension
  0
ARC
  5
2CB
330
1F
100
AcDbEntity
  8
0
  6
Continuous
 62
     7
370
    25
100
AcDbCircle
 10
15.8634793087
 20
5.7639499578
 30
0.0
 40
0.0150000000000006
100
AcDbArc
 50
90.0
 51
180.0
  0
ARC
  5
2CC
330
1F
100
AcDbEntity
  8
0
  6
Continuous
 62
     7
370
    25
100
AcDbCircle
 10
16.8234793087
 20
5.7639499578
 30
0.0
 40
0.0150000000000006
100
AcDbArc
 50
0.0
 51
90.0
  0
LINE
  5
2CD
330
1F
100
AcDbEntity
  8
0
  6
Continuous
 62
     7
370
    25
100
AcDbLine
 10
16.8384793087
 20
3.1684499578
 30
0.0
 11
16.8384793087
 21
5.7639499578
 31
0.0
  0
LINE
  5
2CE
330
1F
100
AcDbEntity
  8
0
  6
Continuous
 62
     7
370
    25
100
AcDbLine
 10
16.8384793087
 20
2.9254499578
 30
0.0
 11
16.8384793087
 21
3.0324499578
 31
0.0
  0
LINE
  5
2CF
330
1F
100
AcDbEntity
  8
0
  6
Continuous
 62
     7
370
    25
100
AcDbLine
 10
15.8484793087
 20
5.7639499578
 30
0.0
 11
15.8484793087
 21
2.9254499578
 31
0.0
  0
LINE
  5
2D0
330
1F
100
AcDbEntity
  8
0
  6
Continuous
 62
     7
370
    25
100
AcDbLine
 10
15.8634793087
 20
5.7789499578
 30
0.0
 11
16.8234793087
 21
5.7789499578
 31
0.0
  0
SPLINE
  5
2D1
330
1F
100
AcDbEntity
  8
0
  6
Continuous
 62
     7
370
    25
100
AcDbSpline
210
0.0
220
0.0
230
1.0
 70
     8
 71
     3
 72
    30
 73
    26
 74
     0
 42
0.00000001
 43
0.00000001
 40
0.0
 40
0.0
 40
0.0
 40
0.0
 40
0.1249999999999999
 40
0.1249999999999999
 40
0.2499999999999998
 40
0.2499999999999998
 40
0.3124999999999998
 40
0.3124999999999998
 40
0.3749999999999998
 40
0.3749999999999998
 40
0.4374999999999997
 40
0.4374999999999997
 40
0.4999999999999997
 40
0.4999999999999997
 40
0.5624999999999997
 40
0.5624999999999997
 40
0.6249999999999996
 40
0.6249999999999996
 40
0.6874999999999996
 40
0.6874999999999996
 40
0.7499999999999996
 40
0.7499999999999996
 40
0.8749999999999998
 40
0.8749999999999998
 40
1.0
 40
1.0
 40
1.0
 40
1.0
 10
16.83847930873809
 20
3.032449957828562
 30
0.0
 10
16.83847930873809
 20
3.032449957828562
 30
0.0
 10
16.83822578358673
 20
3.034235329561961
 30
0.0
 10
16.83736422391646
 20
3.041014176837065
 30
0.0
 10
16.83675323564246
 20
3.046071423240688
 30
0.0
 10
16.83583565575072
 20
3.05546677254016
 30
0.0
 10
16.8355248793869
 20
3.058960557736893
 30
0.0
 10
16.83495778275029
 20
3.066338124951749
 30
0.0
 10
16.83469901368467
 20
3.07023905540623
 30
0.0
 10
16.83426144222882
 20
3.078472636538647
 30
0.0
 10
16.8340851011912
 20
3.082788653476422
 30
0.0
 10
16.83384912085761
 20
3.091481640203873
 30
0.0
 10
16.8337867852469
 20
3.095908277424287
 30
0.0
 10
16.8337859299778
 20
3.104898347645586
 30
0.0
 10
16.83384729025196
 20
3.109319257544508
 30
0.0
 10
16.83408175512598
 20
3.118018895908217
 30
0.0
 10
16.83425770885578
 20
3.122343462349225
 30
0.0
 10
16.83469368611058
 20
3.130573902715475
 30
0.0
 10
16.8349519745312
 20
3.134478891209626
 30
0.0
 10
16.83551921154501
 20
3.141872814315132
 30
0.0
 10
16.83582959112143
 20
3.145366835315548
 30
0.0
 10
16.83674644839808
 20
3.154767287929243
 30
0.0
 10
16.83735850345972
 20
3.159838764358483
 30
0.0
 10
16.83822217407032
 20
3.166638130180628
 30
0.0
 10
16.83847930873809
 20
3.168449957828559
 30
0.0
 10
16.83847930873809
 20
3.168449957828559
 30
0.0
  0
LINE
  5
2D2
330
1F
100
AcDbEntity
  8
0
  6
Continuous
 62
     7
370
    25
100
AcDbLine
 10
16.8384793087
 20
2.9254499578
 30
0.0
 11
15.8484793087
 21
2.9254499578
 31
0.0
  0
LINE
  5
2D3
330
1F
100
AcDbEntity
  8
0
  6
Continuous
 62
     7
370
    25
100
AcDbLine
 10
16.8384793087
 20
5.7639499578
 30
0.0
 11
15.8484793087
 21
5.7639499578
 31
0.0
  0
INSERT
  5
2D4
330
1F
100
AcDbEntity
  8
0
  6
Continuous
 62
     7
100
AcDbBlockReference
  2
Block3
 10
15.6682035951
 20
2.1257717456
 30
0.0
 41
0.5
 42
0.5
 43
0.5
  0
DIMENSION
  5
2D5
330
1F
100
AcDbEntity
  8
0
  6
Continuous
 62
     7
370
    18
100
AcDbDimension
  2
_D_9
 10
14.6673769465
 20
5.7789499578
 30
0.0
 11
14.6673769465
 21
4.3521999578
 31
0.0
 70
   160
  1
<>
 71
     2
 42
-1.0
  3
SLDDIMSTYLE0
100
AcDbAlignedDimension
 13
15.8484793087
 23
2.9254499578
 33
0.0
 14
15.8634793087
 24
5.7789499578
 34
0.0
 50
90.0
100
AcDbRotatedDimension
  0
CIRCLE
  5
2E9
330
1F
100
AcDbEntity
  8
0
  6
Continuous
 62
     7
370
    25
100
AcDbCircle
 10
27.6944606573
 20
4.2359034814
 30
0.0
 40
0.1015000000000015
  0
CIRCLE
  5
2EA
330
1F
100
AcDbEntity
  8
0
  6
Continuous
 62
     7
370
    25
100
AcDbCircle
 10
24.9444606573
 20
4.2359034814
 30
0.0
 40
0.1014999999999979
  0
CIRCLE
  5
2EB
330
1F
100
AcDbEntity
  8
0
  6
Continuous
 62
     7
370
    25
100
AcDbCircle
 10
26.3194606573
 20
4.2359034814
 30
0.0
 40
1.699999999999999
  0
CIRCLE
  5
2EC
330
1F
100
AcDbEntity
  8
0
  6
Continuous
 62
     7
370
    25
100
AcDbCircle
 10
26.3194606573
 20
4.2359034814
 30
0.0
 40
0.4140000000000015
  0
CIRCLE
  5
2ED
330
1F
100
AcDbEntity
  8
0
  6
Continuous
 62
     7
370
    25
100
AcDbCircle
 10
26.3194606573
 20
4.2359034814
 30
0.0
 40
1.75
  0
DIMENSION
  5
2EE
330
1F
100
AcDbEntity
  8
0
  6
Continuous
 62
     7
370
    18
100
AcDbDimension
  2
_D_10
 10
27.6944606573
 20
7.1670058436
 30
0.0
 11
26.3194606573
 21
7.1670058436
 31
0.0
 70
   160
  1
ON CENTER\P<>
 71
     2
 42
-1.0
  3
SLDDIMSTYLE1
100
AcDbAlignedDimension
 13
24.9444606573
 23
4.2359034814
 33
0.0
 14
27.6944606573
 24
4.2359034814
 34
0.0
100
AcDbRotatedDimension
  0
DIMENSION
  5
301
330
1F
100
AcDbEntity
  8
0
  6
Continuous
 62
     7
370
    18
100
AcDbDimension
  2
_D_11
 10
24.8039162006
 20
5.1109034814
 30
0.0
 11
30.639611669
 21
2.7372164589
 31
0.0
 70
   163
  1
<>
 71
     1
 42
-1.0
  3
SLDDIMSTYLE3
100
AcDbDiametricDimension
 15
27.8350051139
 25
3.3609034814
 35
0.0
 40
0.0
  0
MTEXT
  5
312
330
1F
100
AcDbEntity
  8
0
  6
Continuous
 62
     7
370
     0
100
AcDbMText
 10
24.3809191714
 20
1.9344013957
 30
0.0
 40
0.375
 41
0.0
 71
     1
 72
     1
  1
CANOPY DETAIL
  7
SLDTEXTSTYLE0
 73
     1
 44
1.0
  0
ENDSEC
  0
SECTION
  2
OBJECTS
  0
DICTIONARY
  5
C
330
0
100
AcDbDictionary
281
     1
  3
ACAD_GROUP
350
D
  3
ACAD_LAYOUT
350
1A
  3
ACAD_MLINESTYLE
350
17
  3
ACAD_PLOTSETTINGS
350
19
  3
ACAD_PLOTSTYLENAME
350
E
  3
ACAD_SCALELIST
350
47
  3
DWGPROPS
350
313
  0
DICTIONARY
  5
D
102
{ACAD_REACTORS
330
C
102
}
330
C
100
AcDbDictionary
281
     1
  0
DICTIONARY
  5
1A
102
{ACAD_REACTORS
330
C
102
}
330
C
100
AcDbDictionary
281
     1
  3
Layout1
350
1E
  3
Layout2
350
26
  3
Model
350
22
  0
DICTIONARY
  5
17
102
{ACAD_REACTORS
330
C
102
}
330
C
100
AcDbDictionary
281
     1
  3
Standard
350
18
  0
DICTIONARY
  5
19
102
{ACAD_REACTORS
330
C
102
}
330
C
100
AcDbDictionary
281
     1
  0
ACDBDICTIONARYWDFLT
  5
E
102
{ACAD_REACTORS
330
C
102
}
330
C
100
AcDbDictionary
281
     1
  3
Normal
350
F
100
AcDbDictionaryWithDefault
340
F
  0
DICTIONARY
  5
47
102
{ACAD_REACTORS
330
C
102
}
330
C
100
AcDbDictionary
281
     1
  3
A0
350
48
  3
A1
350
49
  3
A2
350
4A
  3
A3
350
4B
  3
A4
350
4C
  3
A5
350
4D
  3
A6
350
4E
  3
A7
350
4F
  3
A8
350
50
  3
A9
350
51
  3
B1
350
52
  3
B2
350
53
  3
B3
350
54
  3
B4
350
55
  3
B5
350
56
  3
B6
350
57
  3
B7
350
58
  0
XRECORD
  5
313
102
{ACAD_REACTORS
330
C
102
}
330
C
100
AcDbXrecord
280
     1
  1
DWGPROPS COOKIE
  2

  3

  4

  6

  7

  8
alekseyb
  9

300
=
301
=
302
=
303
=
304
=
305
=
306
=
307
=
308
=
309
=
 40
0.0
 41
2460539.026574283
 42
2460539.026575255
  1

 90
        0
  0
LAYOUT
  5
1E
102
{ACAD_REACTORS
330
1A
102
}
330
1A
100
AcDbPlotSettings
  1

  2
none_device
  4

  6

 40
0.0
 41
0.0
 42
0.0
 43
0.0
 44
0.0
 45
0.0
 46
0.0
 47
0.0
 48
0.0
 49
0.0
140
0.0
141
0.0
142
1.0
143
1.0
 70
   688
 72
     0
 73
     0
 74
     5
  7

 75
    16
147
1.0
148
0.0
149
0.0
100
AcDbLayout
  1
Layout1
 70
     1
 71
     1
 10
0.0
 20
0.0
 11
12.0
 21
9.0
 12
0.0
 22
0.0
 32
0.0
 14
1.0000000000E+20
 24
1.0000000000E+20
 34
1.0000000000E+20
 15
-1.0000000000E+20
 25
-1.0000000000E+20
 35
-1.0000000000E+20
146
0.0
 13
0.0
 23
0.0
 33
0.0
 16
1.0
 26
0.0
 36
0.0
 17
0.0
 27
1.0
 37
0.0
 76
     0
330
1B
  0
LAYOUT
  5
26
102
{ACAD_REACTORS
330
1A
102
}
330
1A
100
AcDbPlotSettings
  1

  2
none_device
  4

  6

 40
0.0
 41
0.0
 42
0.0
 43
0.0
 44
0.0
 45
0.0
 46
0.0
 47
0.0
 48
0.0
 49
0.0
140
0.0
141
0.0
142
1.0
143
1.0
 70
   688
 72
     0
 73
     0
 74
     5
  7

 75
    16
147
1.0
148
0.0
149
0.0
100
AcDbLayout
  1
Layout2
 70
     1
 71
     2
 10
0.0
 20
0.0
 11
0.0
 21
0.0
 12
0.0
 22
0.0
 32
0.0
 14
0.0
 24
0.0
 34
0.0
 15
0.0
 25
0.0
 35
0.0
146
0.0
 13
0.0
 23
0.0
 33
0.0
 16
1.0
 26
0.0
 36
0.0
 17
0.0
 27
1.0
 37
0.0
 76
     0
330
23
  0
LAYOUT
  5
22
102
{ACAD_REACTORS
330
1A
102
}
330
1A
100
AcDbPlotSettings
  1

  2
none_device
  4
Letter_(8.50_x_11.00_Inches)
  6

 40
6.35
 41
6.35
 42
6.35000508
 43
6.35000508
 44
215.9
 45
279.4
 46
0.0
 47
0.0
 48
0.0
 49
0.0
140
0.0
141
0.0
142
1.0
143
1.0
 70
  1712
 72
     0
 73
     0
 74
     0
  7

 75
     0
147
1.0
148
0.0
149
0.0
100
AcDbLayout
  1
Model
 70
     1
 71
     0
 10
0.0
 20
0.0
 11
33.0
 21
25.5
 12
0.0
 22
0.0
 32
0.0
 14
0.0
 24
0.0
 34
0.0
 15
33.0
 25
25.5
 35
0.0
146
0.0
 13
0.0
 23
0.0
 33
0.0
 16
1.0
 26
0.0
 36
0.0
 17
0.0
 27
1.0
 37
0.0
 76
     0
330
1F
331
29
  0
MLINESTYLE
  5
18
102
{ACAD_REACTORS
330
17
102
}
330
17
100
AcDbMlineStyle
  2
Standard
 70
     0
  3

 62
   256
 51
90.0
 52
90.0
 71
     2
 49
0.5
 62
   256
  6
BYLAYER
 49
-0.5
 62
   256
  6
BYLAYER
  0
ACDBPLACEHOLDER
  5
F
102
{ACAD_REACTORS
330
E
102
}
330
E
  0
SCALE
  5
48
102
{ACAD_REACTORS
330
47
102
}
330
47
100
AcDbScale
 70
     0
300
1:1
140
1.0
141
1.0
290
     1
  0
SCALE
  5
49
102
{ACAD_REACTORS
330
47
102
}
330
47
100
AcDbScale
 70
     0
300
1/128" = 1'-0"
140
0.0078125
141
12.0
290
     0
  0
SCALE
  5
4A
102
{ACAD_REACTORS
330
47
102
}
330
47
100
AcDbScale
 70
     0
300
1/64" = 1'-0"
140
0.015625
141
12.0
290
     0
  0
SCALE
  5
4B
102
{ACAD_REACTORS
330
47
102
}
330
47
100
AcDbScale
 70
     0
300
1/32" = 1'-0"
140
0.03125
141
12.0
290
     0
  0
SCALE
  5
4C
102
{ACAD_REACTORS
330
47
102
}
330
47
100
AcDbScale
 70
     0
300
1/16" = 1'-0"
140
0.0625
141
12.0
290
     0
  0
SCALE
  5
4D
102
{ACAD_REACTORS
330
47
102
}
330
47
100
AcDbScale
 70
     0
300
3/32" = 1'-0"
140
0.09375
141
12.0
290
     0
  0
SCALE
  5
4E
102
{ACAD_REACTORS
330
47
102
}
330
47
100
AcDbScale
 70
     0
300
1/8" = 1'-0"
140
0.125
141
12.0
290
     0
  0
SCALE
  5
4F
102
{ACAD_REACTORS
330
47
102
}
330
47
100
AcDbScale
 70
     0
300
3/16" = 1'-0"
140
0.1875
141
12.0
290
     0
  0
SCALE
  5
50
102
{ACAD_REACTORS
330
47
102
}
330
47
100
AcDbScale
 70
     0
300
1/4" = 1'-0"
140
0.25
141
12.0
290
     0
  0
SCALE
  5
51
102
{ACAD_REACTORS
330
47
102
}
330
47
100
AcDbScale
 70
     0
300
3/8" = 1'-0"
140
0.375
141
12.0
290
     0
  0
SCALE
  5
52
102
{ACAD_REACTORS
330
47
102
}
330
47
100
AcDbScale
 70
     0
300
1/2" = 1'-0"
140
0.5
141
12.0
290
     0
  0
SCALE
  5
53
102
{ACAD_REACTORS
330
47
102
}
330
47
100
AcDbScale
 70
     0
300
3/4" = 1'-0"
140
0.75
141
12.0
290
     0
  0
SCALE
  5
54
102
{ACAD_REACTORS
330
47
102
}
330
47
100
AcDbScale
 70
     0
300
1" = 1'-0"
140
1.0
141
12.0
290
     0
  0
SCALE
  5
55
102
{ACAD_REACTORS
330
47
102
}
330
47
100
AcDbScale
 70
     0
300
1-1/2" = 1'-0"
140
1.5
141
12.0
290
     0
  0
SCALE
  5
56
102
{ACAD_REACTORS
330
47
102
}
330
47
100
AcDbScale
 70
     0
300
3" = 1'-0"
140
3.0
141
12.0
290
     0
  0
SCALE
  5
57
102
{ACAD_REACTORS
330
47
102
}
330
47
100
AcDbScale
 70
     0
300
6" = 1'-0"
140
6.0
141
12.0
290
     0
  0
SCALE
  5
58
102
{ACAD_REACTORS
330
47
102
}
330
47
100
AcDbScale
 70
     0
300
1'-0" = 1'-0"
140
12.0
141
12.0
290
     0
  0
ENDSEC
  0
EOF
