  0
SECTION
  2
HEADER
  9
$ACADVER
  1
AC1015
  9
$ACADMAINTVER
 70
     6
  9
$DWGCODEPAGE
  3
ANSI_1252
  9
$INSBASE
 10
0.0
 20
0.0
 30
0.0
  9
$EXTMIN
 10
0.0
 20
0.0
 30
0.0
  9
$EXTMAX
 10
33.0
 20
25.5
 30
0.0
  9
$LIMMIN
 10
0.0
 20
0.0
  9
$LIMMAX
 10
33.0
 20
25.5
  9
$ORTHOMODE
 70
     0
  9
$REGENMODE
 70
     1
  9
$FILLMODE
 70
     1
  9
$QTEXTMODE
 70
     0
  9
$MIRRTEXT
 70
     1
  9
$LTSCALE
 40
3.0
  9
$ATTMODE
 70
     1
  9
$TEXTSIZE
 40
0.375
  9
$TRACEWID
 40
0.05
  9
$TEXTSTYLE
  7
Standard
  9
$CLAYER
  8
0
  9
$CELTYPE
  6
ByLayer
  9
$CECOLOR
 62
   256
  9
$CELTSCALE
 40
1.0
  9
$DISPSILH
 70
     0
  9
$DIMSCALE
 40
1.0
  9
$DIMASZ
 40
0.39
  9
$DIMEXO
 40
0.15
  9
$DIMDLI
 40
0.38
  9
$DIMRND
 40
0.0
  9
$DIMDLE
 40
0.0
  9
$DIMEXE
 40
0.375
  9
$DIMTP
 40
0.0
  9
$DIMTM
 40
0.0
  9
$DIMTXT
 40
0.375
  9
$DIMCEN
 40
0.09
  9
$DIMTSZ
 40
0.0
  9
$DIMTOL
 70
     0
  9
$DIMLIM
 70
     0
  9
$DIMTIH
 70
     1
  9
$DIMTOH
 70
     1
  9
$DIMSE1
 70
     0
  9
$DIMSE2
 70
     0
  9
$DIMTAD
 70
     0
  9
$DIMZIN
 70
     1
  9
$DIMBLK
  1

  9
$DIMASO
 70
     1
  9
$DIMSHO
 70
     1
  9
$DIMPOST
  1

  9
$DIMAPOST
  1

  9
$DIMALT
 70
     0
  9
$DIMALTD
 70
     2
  9
$DIMALTF
 40
25.4
  9
$DIMLFAC
 40
1.0
  9
$DIMTOFL
 70
     0
  9
$DIMTVP
 40
0.0
  9
$DIMTIX
 70
     0
  9
$DIMSOXD
 70
     0
  9
$DIMSAH
 70
     0
  9
$DIMBLK1
  1

  9
$DIMBLK2
  1

  9
$DIMSTYLE
  2
Standard
  9
$DIMCLRD
 70
     0
  9
$DIMCLRE
 70
     0
  9
$DIMCLRT
 70
     0
  9
$DIMTFAC
 40
1.0
  9
$DIMGAP
 40
0.18
  9
$DIMJUST
 70
     0
  9
$DIMSD1
 70
     0
  9
$DIMSD2
 70
     0
  9
$DIMTOLJ
 70
     1
  9
$DIMTZIN
 70
     1
  9
$DIMALTZ
 70
     0
  9
$DIMALTTZ
 70
     0
  9
$DIMUPT
 70
     0
  9
$DIMDEC
 70
     0
  9
$DIMTDEC
 70
     0
  9
$DIMALTU
 70
     2
  9
$DIMALTTD
 70
     2
  9
$DIMTXSTY
  7
Standard
  9
$DIMAUNIT
 70
     0
  9
$DIMADEC
 70
     0
  9
$DIMALTRND
 40
0.0
  9
$DIMAZIN
 70
     0
  9
$DIMDSEP
 70
    46
  9
$DIMATFIT
 70
     3
  9
$DIMFRAC
 70
     0
  9
$DIMLDRBLK
  1

  9
$DIMLUNIT
 70
     2
  9
$DIMLWD
 70
    -2
  9
$DIMLWE
 70
    -2
  9
$DIMTMOVE
 70
     0
  9
$LUNITS
 70
     2
  9
$LUPREC
 70
     6
  9
$SKETCHINC
 40
0.1
  9
$FILLETRAD
 40
0.0
  9
$AUNITS
 70
     0
  9
$AUPREC
 70
     2
  9
$MENU
  1
.
  9
$ELEVATION
 40
0.0
  9
$PELEVATION
 40
0.0
  9
$THICKNESS
 40
0.0
  9
$LIMCHECK
 70
     0
  9
$CHAMFERA
 40
0.0
  9
$CHAMFERB
 40
0.0
  9
$CHAMFERC
 40
0.0
  9
$CHAMFERD
 40
0.0
  9
$SKPOLY
 70
     0
  9
$TDCREATE
 40
2460509.84000772
  9
$TDUCREATE
 40
2460510.131674387
  9
$TDUPDATE
 40
2460509.840008727
  9
$TDUUPDATE
 40
2460510.131675394
  9
$TDINDWG
 40
0.0000000116
  9
$TDUSRTIMER
 40
0.0000000116
  9
$USRTIMER
 70
     1
  9
$ANGBASE
 50
0.0
  9
$ANGDIR
 70
     0
  9
$PDMODE
 70
     0
  9
$PDSIZE
 40
-1.0
  9
$PLINEWID
 40
0.0
  9
$SPLFRAME
 70
     0
  9
$SPLINETYPE
 70
     6
  9
$SPLINESEGS
 70
     8
  9
$HANDSEED
  5
339
  9
$SURFTAB1
 70
     6
  9
$SURFTAB2
 70
     6
  9
$SURFTYPE
 70
     6
  9
$SURFU
 70
     6
  9
$SURFV
 70
     6
  9
$UCSBASE
  2

  9
$UCSNAME
  2

  9
$UCSORG
 10
0.0
 20
0.0
 30
0.0
  9
$UCSXDIR
 10
1.0
 20
0.0
 30
0.0
  9
$UCSYDIR
 10
0.0
 20
1.0
 30
0.0
  9
$UCSORTHOREF
  2

  9
$UCSORTHOVIEW
 70
     0
  9
$UCSORGTOP
 10
0.0
 20
0.0
 30
0.0
  9
$UCSORGBOTTOM
 10
0.0
 20
0.0
 30
0.0
  9
$UCSORGLEFT
 10
0.0
 20
0.0
 30
0.0
  9
$UCSORGRIGHT
 10
0.0
 20
0.0
 30
0.0
  9
$UCSORGFRONT
 10
0.0
 20
0.0
 30
0.0
  9
$UCSORGBACK
 10
0.0
 20
0.0
 30
0.0
  9
$PUCSBASE
  2

  9
$PUCSNAME
  2

  9
$PUCSORG
 10
0.0
 20
0.0
 30
0.0
  9
$PUCSXDIR
 10
1.0
 20
0.0
 30
0.0
  9
$PUCSYDIR
 10
0.0
 20
1.0
 30
0.0
  9
$PUCSORTHOREF
  2

  9
$PUCSORTHOVIEW
 70
     0
  9
$PUCSORGTOP
 10
0.0
 20
0.0
 30
0.0
  9
$PUCSORGBOTTOM
 10
0.0
 20
0.0
 30
0.0
  9
$PUCSORGLEFT
 10
0.0
 20
0.0
 30
0.0
  9
$PUCSORGRIGHT
 10
0.0
 20
0.0
 30
0.0
  9
$PUCSORGFRONT
 10
0.0
 20
0.0
 30
0.0
  9
$PUCSORGBACK
 10
0.0
 20
0.0
 30
0.0
  9
$USERI1
 70
     0
  9
$USERI2
 70
     0
  9
$USERI3
 70
     0
  9
$USERI4
 70
     0
  9
$USERI5
 70
     0
  9
$USERR1
 40
0.0
  9
$USERR2
 40
0.0
  9
$USERR3
 40
0.0
  9
$USERR4
 40
0.0
  9
$USERR5
 40
0.0
  9
$WORLDVIEW
 70
     1
  9
$SHADEDGE
 70
     3
  9
$SHADEDIF
 70
    70
  9
$TILEMODE
 70
     1
  9
$MAXACTVP
 70
    64
  9
$PINSBASE
 10
0.0
 20
0.0
 30
0.0
  9
$PLIMCHECK
 70
     0
  9
$PEXTMIN
 10
1.0000000000E+20
 20
1.0000000000E+20
 30
1.0000000000E+20
  9
$PEXTMAX
 10
-1.0000000000E+20
 20
-1.0000000000E+20
 30
-1.0000000000E+20
  9
$PLIMMIN
 10
0.0
 20
0.0
  9
$PLIMMAX
 10
12.0
 20
9.0
  9
$UNITMODE
 70
     0
  9
$VISRETAIN
 70
     1
  9
$PLINEGEN
 70
     0
  9
$PSLTSCALE
 70
     1
  9
$TREEDEPTH
 70
  3020
  9
$CMLSTYLE
  2
Standard
  9
$CMLJUST
 70
     0
  9
$CMLSCALE
 40
1.0
  9
$PROXYGRAPHICS
 70
     1
  9
$MEASUREMENT
 70
     0
  9
$CELWEIGHT
370
    -1
  9
$ENDCAPS
280
     0
  9
$JOINSTYLE
280
     0
  9
$LWDISPLAY
290
     1
  9
$INSUNITS
 70
     1
  9
$HYPERLINKBASE
  1

  9
$STYLESHEET
  1

  9
$XEDIT
290
     1
  9
$CEPSNTYPE
380
     0
  9
$PSTYLEMODE
290
     1
  9
$FINGERPRINTGUID
  2
{99d4e177-fec7-40eb-a03a-21cabc311ffd}
  9
$VERSIONGUID
  2
{FAEB1C32-E019-11D5-929B-00C0DF256EC4}
  9
$EXTNAMES
290
     1
  9
$PSVPSCALE
 40
0.0
  9
$OLESTARTUP
290
     0
  0
ENDSEC
  0
SECTION
  2
CLASSES
  0
CLASS
  1
ACDBDICTIONARYWDFLT
  2
AcDbDictionaryWithDefault
  3
ObjectDBX Classes
 90
        0
280
     0
281
     0
  0
CLASS
  1
VISUALSTYLE
  2
AcDbVisualStyle
  3
ObjectDBX Classes
 90
     4095
280
     0
281
     0
  0
CLASS
  1
MATERIAL
  2
AcDbMaterial
  3
ObjectDBX Classes
 90
     1153
280
     0
281
     0
  0
CLASS
  1
SCALE
  2
AcDbScale
  3
ObjectDBX Classes
 90
     1153
280
     0
281
     0
  0
CLASS
  1
TABLESTYLE
  2
AcDbTableStyle
  3
ObjectDBX Classes
 90
     4095
280
     0
281
     0
  0
CLASS
  1
MLEADERSTYLE
  2
AcDbMLeaderStyle
  3
ACDB_MLEADERSTYLE_CLASS
 90
     4095
280
     0
281
     0
  0
CLASS
  1
SUN
  2
AcDbSun
  3
SCENEOE
 90
     1153
280
     0
281
     0
  0
CLASS
  1
ACDBPLACEHOLDER
  2
AcDbPlaceHolder
  3
ObjectDBX Classes
 90
        0
280
     0
281
     0
  0
CLASS
  1
LAYOUT
  2
AcDbLayout
  3
ObjectDBX Classes
 90
        0
280
     0
281
     0
  0
ENDSEC
  0
SECTION
  2
TABLES
  0
TABLE
  2
VPORT
  5
8
330
0
100
AcDbSymbolTable
 70
     1
  0
VPORT
  5
29
330
8
100
AcDbSymbolTableRecord
100
AcDbViewportTableRecord
  2
*Active
 70
     0
 10
0.0
 20
0.0
 11
1.0
 21
1.0
 12
16.5
 22
12.75
 13
0.0
 23
0.0
 14
0.5
 24
0.5
 15
0.5
 25
0.5
 16
0.0
 26
0.0
 36
1.0
 17
0.0
 27
0.0
 37
0.0
 40
25.5
 41
1.2941176471
 42
50.0
 43
0.0
 44
0.0
 50
0.0
 51
0.0
 71
     0
 72
  2000
 73
     1
 74
     3
 75
     0
 76
     0
 77
     0
 78
     0
281
     0
 65
     1
110
0.0
120
0.0
130
0.0
111
1.0
121
0.0
131
0.0
112
0.0
122
1.0
132
0.0
 79
     0
146
0.0
  0
ENDTAB
  0
TABLE
  2
LTYPE
  5
5
330
0
100
AcDbSymbolTable
 70
     6
  0
LTYPE
  5
14
330
5
100
AcDbSymbolTableRecord
100
AcDbLinetypeTableRecord
  2
ByBlock
 70
     0
  3

 72
    65
 73
     0
 40
0.0
  0
LTYPE
  5
15
330
5
100
AcDbSymbolTableRecord
100
AcDbLinetypeTableRecord
  2
ByLayer
 70
     0
  3

 72
    65
 73
     0
 40
0.0
  0
LTYPE
  5
16
330
5
100
AcDbSymbolTableRecord
100
AcDbLinetypeTableRecord
  2
Continuous
 70
     0
  3
Solid line
 72
    65
 73
     0
 40
0.0
  0
LTYPE
  5
5E
330
5
100
AcDbSymbolTableRecord
100
AcDbLinetypeTableRecord
  2
HIDDEN
 70
     0
  3
Hidden __ __ __ __ __ __ __ __ __ __ __ __ __ __
 72
    65
 73
     2
 40
0.075
 49
0.05
 74
     0
 49
-0.025
 74
     0
  0
LTYPE
  5
5F
330
5
100
AcDbSymbolTableRecord
100
AcDbLinetypeTableRecord
  2
PHANTOM
 70
     0
  3
Phantom ______  __  __  ______  __  __  ______
 72
    65
 73
     6
 40
0.5
 49
0.25
 74
     0
 49
-0.05
 74
     0
 49
0.05
 74
     0
 49
-0.05
 74
     0
 49
0.05
 74
     0
 49
-0.05
 74
     0
  0
LTYPE
  5
60
330
5
100
AcDbSymbolTableRecord
100
AcDbLinetypeTableRecord
  2
CENTER
 70
     0
  3
Center ____ _ ____ _ ____ _ ____ _ ____ _ ____
 72
    65
 73
     4
 40
0.4
 49
0.25
 74
     0
 49
-0.05
 74
     0
 49
0.05
 74
     0
 49
-0.05
 74
     0
  0
LTYPE
  5
61
330
5
100
AcDbSymbolTableRecord
100
AcDbLinetypeTableRecord
  2
CENTERX2
 70
     0
  3
Center (2x) ________  __  ________  __  _____
 72
    65
 73
     4
 40
0.8
 49
0.5
 74
     0
 49
-0.1
 74
     0
 49
0.1
 74
     0
 49
-0.1
 74
     0
  0
LTYPE
  5
62
330
5
100
AcDbSymbolTableRecord
100
AcDbLinetypeTableRecord
  2
DOT2
 70
     0
  3
Dot (.5x) ........................................
 72
    65
 73
     2
 40
0.025
 49
0.0
 74
     0
 49
-0.025
 74
     0
  0
ENDTAB
  0
TABLE
  2
LAYER
  5
2
330
0
100
AcDbSymbolTable
 70
    12
  0
LAYER
  5
10
330
2
100
AcDbSymbolTableRecord
100
AcDbLayerTableRecord
  2
0
 70
     0
 62
     7
  6
Continuous
370
    -3
390
F
  0
LAYER
  5
63
330
2
100
AcDbSymbolTableRecord
100
AcDbLayerTableRecord
  2
SLD-0
 70
     0
 62
     7
  6
Continuous
370
    -3
390
F
  0
LAYER
  5
64
330
2
100
AcDbSymbolTableRecord
100
AcDbLayerTableRecord
  2
DIM
 70
     0
 62
     7
  6
Continuous
370
    -3
390
F
  0
LAYER
  5
65
330
2
100
AcDbSymbolTableRecord
100
AcDbLayerTableRecord
  2
CEN
 70
     0
 62
     1
  6
CENTER
370
    -3
390
F
  0
LAYER
  5
66
330
2
100
AcDbSymbolTableRecord
100
AcDbLayerTableRecord
  2
HAT
 70
     0
 62
     4
  6
Continuous
370
    -3
390
F
  0
LAYER
  5
67
330
2
100
AcDbSymbolTableRecord
100
AcDbLayerTableRecord
  2
OBJ
 70
     0
 62
     5
  6
Continuous
370
    -3
390
F
  0
LAYER
  5
68
330
2
100
AcDbSymbolTableRecord
100
AcDbLayerTableRecord
  2
SLD-DEFPOINTS
 70
     0
 62
     7
  6
Continuous
370
    -3
390
F
  0
LAYER
  5
69
330
2
100
AcDbSymbolTableRecord
100
AcDbLayerTableRecord
  2
HID
 70
     0
 62
     4
  6
HIDDEN
370
    -3
390
F
  0
LAYER
  5
6A
330
2
100
AcDbSymbolTableRecord
100
AcDbLayerTableRecord
  2
NOTE
 70
     0
 62
     7
  6
Continuous
370
    -3
390
F
  0
LAYER
  5
6B
330
2
100
AcDbSymbolTableRecord
100
AcDbLayerTableRecord
  2
VP
 70
     0
 62
    -5
  6
Continuous
290
     0
370
    -3
390
F
  0
LAYER
  5
6C
330
2
100
AcDbSymbolTableRecord
100
AcDbLayerTableRecord
  2
TITLE
 70
     0
 62
     7
  6
Continuous
370
    -3
390
F
  0
LAYER
  5
6D
330
2
100
AcDbSymbolTableRecord
100
AcDbLayerTableRecord
  2
THICK_TITLE
 70
     0
 62
     7
  6
Continuous
370
   100
390
F
  0
ENDTAB
  0
TABLE
  2
STYLE
  5
3
330
0
100
AcDbSymbolTable
 70
     3
  0
STYLE
  5
11
330
3
100
AcDbSymbolTableRecord
100
AcDbTextStyleTableRecord
  2
Standard
 70
     0
 40
0.0
 41
1.0
 50
0.0
 71
     0
 42
0.375
  3
txt
  4

  0
STYLE
  5
74
330
3
100
AcDbSymbolTableRecord
100
AcDbTextStyleTableRecord
  2
SLDTEXTSTYLE0
 70
     0
 40
0.0
 41
0.7
 50
0.0
 71
     0
 42
0.375
  3
TXT
  4

  0
STYLE
  5
15C
330
3
100
AcDbSymbolTableRecord
100
AcDbTextStyleTableRecord
  2
SLDTEXTSTYLE1
 70
     0
 40
0.0
 41
0.75
 50
0.0
 71
     0
 42
0.375
  3
TXT
  4

  0
ENDTAB
  0
TABLE
  2
VIEW
  5
6
330
0
100
AcDbSymbolTable
 70
     0
  0
ENDTAB
  0
TABLE
  2
UCS
  5
7
330
0
100
AcDbSymbolTable
 70
     0
  0
ENDTAB
  0
TABLE
  2
APPID
  5
9
330
0
100
AcDbSymbolTable
 70
     1
  0
APPID
  5
12
330
9
100
AcDbSymbolTableRecord
100
AcDbRegAppTableRecord
  2
ACAD
 70
     0
  0
ENDTAB
  0
TABLE
  2
DIMSTYLE
  5
A
330
0
100
AcDbSymbolTable
 70
     6
100
AcDbDimStyleTable
  0
DIMSTYLE
105
27
330
A
100
AcDbSymbolTableRecord
100
AcDbDimStyleTableRecord
  2
Standard
 70
     0
178
     0
340
11
  0
DIMSTYLE
105
15D
102
{ACAD_REACTORS
330
15B
330
1AD
330
1F5
102
}
330
A
100
AcDbSymbolTableRecord
100
AcDbDimStyleTableRecord
  2
SLDDIMSTYLE0
 70
     0
 41
0.39
 44
0.0
 45
0.000000001
 78
    12
 79
     3
140
0.375
147
0.09375
148
0.000000001
170
     1
173
     1
178
     0
271
     6
272
     0
276
     2
277
     5
284
    12
340
15C
  0
DIMSTYLE
105
172
102
{ACAD_REACTORS
330
171
102
}
330
A
100
AcDbSymbolTableRecord
100
AcDbDimStyleTableRecord
  2
SLDDIMSTYLE1
 70
     0
 41
0.39
 44
0.0
 45
0.000000001
 78
    12
 79
     3
140
0.375
147
0.09375
148
0.000000001
170
     1
173
     1
178
     0
271
     0
272
     0
276
     2
277
     5
284
    12
340
15C
  0
DIMSTYLE
105
184
102
{ACAD_REACTORS
330
183
330
199
330
1C1
330
1D5
330
215
330
235
330
2F2
102
}
330
A
100
AcDbSymbolTableRecord
100
AcDbDimStyleTableRecord
  2
SLDDIMSTYLE2
 70
     0
 41
0.39
 44
0.0
 45
0.000000001
 78
    12
 79
     3
140
0.375
147
0.09375
148
0.000000001
170
     1
172
     1
173
     1
178
     0
271
     6
272
     0
276
     2
277
     5
284
    12
289
     0
340
15C
  0
DIMSTYLE
105
306
102
{ACAD_REACTORS
330
305
102
}
330
A
100
AcDbSymbolTableRecord
100
AcDbDimStyleTableRecord
  2
SLDDIMSTYLE3
 70
     0
 41
0.39
 44
0.0
 45
0.000000001
 78
    12
 79
     3
140
0.375
141
0.0
147
0.09375
148
0.000000001
170
     1
173
     1
178
     0
271
     0
272
     0
276
     2
277
     5
284
    12
340
15C
  0
DIMSTYLE
105
323
102
{ACAD_REACTORS
330
322
102
}
330
A
100
AcDbSymbolTableRecord
100
AcDbDimStyleTableRecord
  2
SLDDIMSTYLE4
 70
     0
 41
0.39
 44
0.0
 45
0.000000001
 78
    12
 79
     3
140
0.375
147
0.09375
148
0.000000001
170
     1
172
     1
173
     1
178
     0
271
     0
272
     0
276
     2
277
     5
284
    12
289
     0
340
15C
  0
ENDTAB
  0
TABLE
  2
BLOCK_RECORD
  5
1
330
0
100
AcDbSymbolTable
 70
    21
  0
BLOCK_RECORD
  5
1F
330
1
100
AcDbSymbolTableRecord
100
AcDbBlockTableRecord
  2
*Model_Space
340
22
  0
BLOCK_RECORD
  5
1B
330
1
100
AcDbSymbolTableRecord
100
AcDbBlockTableRecord
  2
*Paper_Space
340
1E
  0
BLOCK_RECORD
  5
23
330
1
100
AcDbSymbolTableRecord
100
AcDbBlockTableRecord
  2
*Paper_Space0
340
26
  0
BLOCK_RECORD
  5
6E
330
1
100
AcDbSymbolTableRecord
100
AcDbBlockTableRecord
  2
Block1
340
0
102
{BLKREFS
331
1F4
102
}
  0
BLOCK_RECORD
  5
71
330
1
100
AcDbSymbolTableRecord
100
AcDbBlockTableRecord
  2
SW_NOTE_0
340
0
102
{BLKREFS
331
76
102
}
  0
BLOCK_RECORD
  5
77
330
1
100
AcDbSymbolTableRecord
100
AcDbBlockTableRecord
  2
Block2
340
0
102
{BLKREFS
331
214
102
}
  0
BLOCK_RECORD
  5
7A
330
1
100
AcDbSymbolTableRecord
100
AcDbBlockTableRecord
  2
SW_NOTE_0_1
340
0
102
{BLKREFS
331
7E
102
}
  0
BLOCK_RECORD
  5
7F
330
1
100
AcDbSymbolTableRecord
100
AcDbBlockTableRecord
  2
Block3
340
0
102
{BLKREFS
331
234
102
}
  0
BLOCK_RECORD
  5
82
330
1
100
AcDbSymbolTableRecord
100
AcDbBlockTableRecord
  2
SW_NOTE_0_2
340
0
102
{BLKREFS
331
86
102
}
  0
BLOCK_RECORD
  5
87
330
1
100
AcDbSymbolTableRecord
100
AcDbBlockTableRecord
  2
SW_BROKEN_VIEW_0
340
0
102
{BLKREFS
331
8A
102
}
  0
BLOCK_RECORD
  5
15E
330
1
100
AcDbSymbolTableRecord
100
AcDbBlockTableRecord
  2
_D
340
0
  0
BLOCK_RECORD
  5
173
330
1
100
AcDbSymbolTableRecord
100
AcDbBlockTableRecord
  2
_D_1
340
0
  0
BLOCK_RECORD
  5
185
330
1
100
AcDbSymbolTableRecord
100
AcDbBlockTableRecord
  2
_D_2
340
0
  0
BLOCK_RECORD
  5
19A
330
1
100
AcDbSymbolTableRecord
100
AcDbBlockTableRecord
  2
_D_3
340
0
  0
BLOCK_RECORD
  5
1AE
330
1
100
AcDbSymbolTableRecord
100
AcDbBlockTableRecord
  2
_D_4
340
0
  0
BLOCK_RECORD
  5
1C2
330
1
100
AcDbSymbolTableRecord
100
AcDbBlockTableRecord
  2
_D_5
340
0
  0
BLOCK_RECORD
  5
1D6
330
1
100
AcDbSymbolTableRecord
100
AcDbBlockTableRecord
  2
_D_6
340
0
  0
BLOCK_RECORD
  5
1F6
330
1
100
AcDbSymbolTableRecord
100
AcDbBlockTableRecord
  2
_D_7
340
0
  0
BLOCK_RECORD
  5
216
330
1
100
AcDbSymbolTableRecord
100
AcDbBlockTableRecord
  2
_D_8
340
0
  0
BLOCK_RECORD
  5
236
330
1
100
AcDbSymbolTableRecord
100
AcDbBlockTableRecord
  2
_D_9
340
0
  0
BLOCK_RECORD
  5
2F3
330
1
100
AcDbSymbolTableRecord
100
AcDbBlockTableRecord
  2
_D_10
340
0
  0
BLOCK_RECORD
  5
307
330
1
100
AcDbSymbolTableRecord
100
AcDbBlockTableRecord
  2
_D_11
340
0
  0
BLOCK_RECORD
  5
324
330
1
100
AcDbSymbolTableRecord
100
AcDbBlockTableRecord
  2
_D_12
340
0
  0
ENDTAB
  0
ENDSEC
  0
SECTION
  2
BLOCKS
  0
BLOCK
  5
20
330
1F
100
AcDbEntity
  8
0
100
AcDbBlockBegin
  2
*Model_Space
 70
     0
 10
0.0
 20
0.0
 30
0.0
  3
*Model_Space
  1

  0
ENDBLK
  5
21
330
1F
100
AcDbEntity
  8
0
100
AcDbBlockEnd
  0
BLOCK
  5
1C
330
1B
100
AcDbEntity
 67
     1
  8
0
100
AcDbBlockBegin
  2
*Paper_Space
 70
     0
 10
0.0
 20
0.0
 30
0.0
  3
*Paper_Space
  1

  0
ENDBLK
  5
1D
330
1B
100
AcDbEntity
 67
     1
  8
0
100
AcDbBlockEnd
  0
BLOCK
  5
24
330
23
100
AcDbEntity
  8
0
100
AcDbBlockBegin
  2
*Paper_Space0
 70
     0
 10
0.0
 20
0.0
 30
0.0
  3
*Paper_Space0
  1

  0
ENDBLK
  5
25
330
23
100
AcDbEntity
  8
0
100
AcDbBlockEnd
  0
BLOCK
  5
6F
330
6E
100
AcDbEntity
  8
0
100
AcDbBlockBegin
  2
Block1
 70
     0
 10
0.0
 20
0.0
 30
0.0
  3
Block1
  1

  0
INSERT
  5
76
330
6E
100
AcDbEntity
  8
0
  6
Continuous
 62
     7
370
     0
100
AcDbBlockReference
  2
SW_NOTE_0
 10
0.491683564
 20
-0.0521462902
 30
0.0
  0
ENDBLK
  5
70
330
6E
100
AcDbEntity
  8
0
100
AcDbBlockEnd
  0
BLOCK
  5
72
330
71
100
AcDbEntity
  8
0
100
AcDbBlockBegin
  2
SW_NOTE_0
 70
     0
 10
0.0
 20
0.0
 30
0.0
  3
SW_NOTE_0
  1

  0
MTEXT
  5
75
330
71
100
AcDbEntity
  8
0
  6
Continuous
 62
     0
370
     0
100
AcDbMText
 10
1.279296875
 20
0.8056673374
 30
0.0
 40
0.625
 41
0.0
 71
     2
 72
     1
  1
D CAP
  7
SLDTEXTSTYLE0
 73
     1
 44
1.0
  0
ENDBLK
  5
73
330
71
100
AcDbEntity
  8
0
100
AcDbBlockEnd
  0
BLOCK
  5
78
330
77
100
AcDbEntity
  8
0
100
AcDbBlockBegin
  2
Block2
 70
     0
 10
0.0
 20
0.0
 30
0.0
  3
Block2
  1

  0
INSERT
  5
7E
330
77
100
AcDbEntity
  8
0
  6
Continuous
 62
     7
370
     0
100
AcDbBlockReference
  2
SW_NOTE_0_1
 10
0.4332653042
 20
0.8525423419
 30
0.0
  0
ENDBLK
  5
79
330
77
100
AcDbEntity
  8
0
100
AcDbBlockEnd
  0
BLOCK
  5
7B
330
7A
100
AcDbEntity
  8
0
100
AcDbBlockBegin
  2
SW_NOTE_0_1
 70
     0
 10
0.0
 20
0.0
 30
0.0
  3
SW_NOTE_0_1
  1

  0
MTEXT
  5
7D
330
7A
100
AcDbEntity
  8
0
  6
Continuous
 62
     0
370
     0
100
AcDbMText
 10
1.201171875
 20
0.8056673374
 30
0.0
 40
0.625
 41
0.0
 71
     2
 72
     1
  1
E CAP
  7
SLDTEXTSTYLE0
 73
     1
 44
1.0
  0
ENDBLK
  5
7C
330
7A
100
AcDbEntity
  8
0
100
AcDbBlockEnd
  0
BLOCK
  5
80
330
7F
100
AcDbEntity
  8
0
100
AcDbBlockBegin
  2
Block3
 70
     0
 10
0.0
 20
0.0
 30
0.0
  3
Block3
  1

  0
INSERT
  5
86
330
7F
100
AcDbEntity
  8
0
  6
Continuous
 62
     7
370
     0
100
AcDbBlockReference
  2
SW_NOTE_0_2
 10
0.0339401496
 20
-0.0278239893
 30
0.0
  0
ENDBLK
  5
81
330
7F
100
AcDbEntity
  8
0
100
AcDbBlockEnd
  0
BLOCK
  5
83
330
82
100
AcDbEntity
  8
0
100
AcDbBlockBegin
  2
SW_NOTE_0_2
 70
     0
 10
0.0
 20
0.0
 30
0.0
  3
SW_NOTE_0_2
  1

  0
MTEXT
  5
85
330
82
100
AcDbEntity
  8
0
  6
Continuous
 62
     0
370
     0
100
AcDbMText
 10
1.30859375
 20
0.8056673374
 30
0.0
 40
0.625
 41
0.0
 71
     2
 72
     1
  1
C CAP
  7
SLDTEXTSTYLE0
 73
     1
 44
1.0
  0
ENDBLK
  5
84
330
82
100
AcDbEntity
  8
0
100
AcDbBlockEnd
  0
BLOCK
  5
88
330
87
100
AcDbEntity
  8
0
100
AcDbBlockBegin
  2
SW_BROKEN_VIEW_0
 70
     0
 10
0.0
 20
0.0
 30
0.0
  3
SW_BROKEN_VIEW_0
  1

  0
ENDBLK
  5
89
330
87
100
AcDbEntity
  8
0
100
AcDbBlockEnd
  0
BLOCK
  5
15F
330
15E
100
AcDbEntity
  8
0
100
AcDbBlockBegin
  2
_D
 70
     0
 10
0.0
 20
0.0
 30
0.0
  3
_D
  1

  0
SOLID
  5
161
330
15E
100
AcDbEntity
  8
0
  6
Continuous
 62
     7
370
    18
100
AcDbTrace
 10
14.8921597871
 20
16.7816456663
 30
0.0
 11
15.1255050249
 21
16.4634476147
 31
0.0
 12
15.2103578387
 22
16.5483004285
 32
0.0
 13
15.2103578387
 23
16.5483004285
 33
0.0
  0
SOLID
  5
162
330
15E
100
AcDbEntity
  8
0
  6
Continuous
 62
     7
370
    18
100
AcDbTrace
 10
19.9560798743
 20
11.7177255791
 30
0.0
 11
19.7227346365
 21
12.0359236306
 31
0.0
 12
19.6378818228
 22
11.9510708169
 32
0.0
 13
19.6378818228
 23
11.9510708169
 33
0.0
  0
LINE
  5
163
330
15E
100
AcDbEntity
  8
0
  6
Continuous
 62
     7
370
     0
100
AcDbLine
 10
16.5397448971
 20
14.2468209808
 30
0.0
 11
16.4254870858
 21
14.2468209808
 31
0.0
  0
LINE
  5
164
330
15E
100
AcDbEntity
  8
0
  6
Continuous
 62
     7
370
     0
100
AcDbLine
 10
16.4254870858
 20
14.2468209808
 30
0.0
 11
16.4254870858
 21
13.6515084629
 31
0.0
  0
LINE
  5
165
330
15E
100
AcDbEntity
  8
0
  6
Continuous
 62
     7
370
     0
100
AcDbLine
 10
16.4254870858
 20
13.6515084629
 30
0.0
 11
16.5397448971
 21
13.6515084629
 31
0.0
  0
LINE
  5
166
330
15E
100
AcDbEntity
  8
0
  6
Continuous
 62
     7
370
     0
100
AcDbLine
 10
18.3084948743
 20
14.2468209808
 30
0.0
 11
18.4227526857
 21
14.2468209808
 31
0.0
  0
LINE
  5
167
330
15E
100
AcDbEntity
  8
0
  6
Continuous
 62
     7
370
     0
100
AcDbLine
 10
18.4227526857
 20
14.2468209808
 30
0.0
 11
18.4227526857
 21
13.6515084629
 31
0.0
  0
LINE
  5
168
330
15E
100
AcDbEntity
  8
0
  6
Continuous
 62
     7
370
     0
100
AcDbLine
 10
18.4227526857
 20
13.6515084629
 30
0.0
 11
18.3084948743
 21
13.6515084629
 31
0.0
  0
LINE
  5
169
330
15E
100
AcDbEntity
  8
0
  6
Continuous
 62
     7
370
     0
100
AcDbLine
 10
11.385400149
 20
13.2748860281
 30
0.0
 11
15.1573248301
 21
17.0468107092
 31
0.0
  0
LINE
  5
16A
330
15E
100
AcDbEntity
  8
0
  6
Continuous
 62
     7
370
     0
100
AcDbLine
 10
17.2316087633
 20
8.993254468
 30
0.0
 11
20.2212449173
 21
11.982890622
 31
0.0
  0
LINE
  5
16B
330
15E
100
AcDbEntity
  8
0
  6
Continuous
 62
     7
370
     0
100
AcDbLine
 10
14.8921597871
 20
16.7816456663
 30
0.0
 11
16.7497709159
 21
14.9240345375
 31
0.0
  0
LINE
  5
16C
330
15E
100
AcDbEntity
  8
0
  6
Continuous
 62
     7
370
     0
100
AcDbLine
 10
19.9560798743
 20
11.7177255791
 30
0.0
 11
18.0984687456
 21
13.5753367078
 31
0.0
  0
MTEXT
  5
16D
330
15E
100
AcDbEntity
  8
0
  6
Continuous
 62
     7
370
    18
100
AcDbMText
 10
16.3133126074
 20
14.8121224633
 30
0.0
 40
0.375
 41
0.0
 71
     1
 72
     1
  1

  7
SLDTEXTSTYLE1
 73
     1
 44
1.0
  0
MTEXT
  5
16E
330
15E
100
AcDbEntity
  8
0
  6
Continuous
 62
     7
370
    18
100
AcDbMText
 10
16.6139635972
 20
14.8063932689
 30
0.0
 40
0.375
 41
0.0
 71
     1
 72
     1
  1
7 3/16"
  7
SLDTEXTSTYLE1
 73
     1
 44
1.0
  0
MTEXT
  5
16F
330
15E
100
AcDbEntity
  8
0
  6
Continuous
 62
     7
370
    18
100
AcDbMText
 10
16.5397448971
 20
14.1349089065
 30
0.0
 40
0.375
 41
0.0
 71
     1
 72
     1
  1
182mm
  7
SLDTEXTSTYLE1
 73
     1
 44
1.0
  0
MTEXT
  5
170
330
15E
100
AcDbEntity
  8
0
  6
Continuous
 62
     7
370
    18
100
AcDbMText
 10
18.6776354145
 20
14.8121224633
 30
0.0
 40
0.375
 41
0.0
 71
     1
 72
     1
  1

  7
SLDTEXTSTYLE1
 73
     1
 44
1.0
  0
ENDBLK
  5
160
330
15E
100
AcDbEntity
  8
0
100
AcDbBlockEnd
  0
BLOCK
  5
174
330
173
100
AcDbEntity
  8
0
100
AcDbBlockBegin
  2
_D_1
 70
     0
 10
0.0
 20
0.0
 30
0.0
  3
_D_1
  1

  0
SOLID
  5
176
330
173
100
AcDbEntity
  8
0
  6
Continuous
 62
     7
370
    18
100
AcDbTrace
 10
3.9045894653
 20
22.0727234287
 30
0.0
 11
3.8445894653
 21
21.6827234287
 31
0.0
 12
3.9645894653
 22
21.6827234287
 32
0.0
 13
3.9645894653
 23
21.6827234287
 33
0.0
  0
SOLID
  5
177
330
173
100
AcDbEntity
  8
0
  6
Continuous
 62
     7
370
    18
100
AcDbTrace
 10
3.9045894653
 20
15.7987200109
 30
0.0
 11
3.9645894653
 21
16.1887200109
 31
0.0
 12
3.8445894653
 22
16.1887200109
 32
0.0
 13
3.8445894653
 23
16.1887200109
 33
0.0
  0
LINE
  5
178
330
173
100
AcDbEntity
  8
0
  6
Continuous
 62
     7
370
     0
100
AcDbLine
 10
6.6472341318
 20
22.0727234287
 30
0.0
 11
3.5295894653
 21
22.0727234287
 31
0.0
  0
LINE
  5
179
330
173
100
AcDbEntity
  8
0
  6
Continuous
 62
     7
370
     0
100
AcDbLine
 10
8.5822341318
 20
15.7987200109
 30
0.0
 11
3.5295894653
 21
15.7987200109
 31
0.0
  0
LINE
  5
17A
330
173
100
AcDbEntity
  8
0
  6
Continuous
 62
     7
370
     0
100
AcDbLine
 10
3.9045894653
 20
22.0727234287
 30
0.0
 11
3.9045894653
 21
19.8286905242
 31
0.0
  0
LINE
  5
17B
330
173
100
AcDbEntity
  8
0
  6
Continuous
 62
     7
370
     0
100
AcDbLine
 10
3.9045894653
 20
15.7987200109
 30
0.0
 11
3.9045894653
 21
17.1802085122
 31
0.0
  0
LINE
  5
17C
330
173
100
AcDbEntity
  8
0
  6
Continuous
 62
     7
370
     0
100
AcDbLine
 10
3.9045894653
 20
17.1802085122
 30
0.0
 11
3.7170894653
 21
17.2739585122
 31
0.0
  0
LINE
  5
17D
330
173
100
AcDbEntity
  8
0
  6
Continuous
 62
     7
370
     0
100
AcDbLine
 10
3.7170894653
 20
17.2739585122
 30
0.0
 11
4.0920894653
 21
17.4614585122
 31
0.0
  0
LINE
  5
17E
330
173
100
AcDbEntity
  8
0
  6
Continuous
 62
     7
370
     0
100
AcDbLine
 10
4.0920894653
 20
17.4614585122
 30
0.0
 11
3.9045894653
 21
17.5552085122
 31
0.0
  0
LINE
  5
17F
330
173
100
AcDbEntity
  8
0
  6
Continuous
 62
     7
370
     0
100
AcDbLine
 10
3.9045894653
 20
17.5552085122
 30
0.0
 11
3.9045894653
 21
18.0427529155
 31
0.0
  0
MTEXT
  5
180
330
173
100
AcDbEntity
  8
0
  6
Continuous
 62
     7
370
    18
100
AcDbMText
 10
0.361360557
 20
19.71677845
 30
0.0
 40
0.375
 41
0.0
 71
     1
 72
     1
  1
SPECIFY PROJECTION LENGTH
  7
SLDTEXTSTYLE1
 73
     1
 44
1.0
  0
MTEXT
  5
181
330
173
100
AcDbEntity
  8
0
  6
Continuous
 62
     7
370
    18
100
AcDbMText
 10
3.1126624137
 20
19.1214659321
 30
0.0
 40
0.375
 41
0.0
 71
     1
 72
     1
  1
18"-48"
  7
SLDTEXTSTYLE1
 73
     1
 44
1.0
  0
MTEXT
  5
182
330
173
100
AcDbEntity
  8
0
  6
Continuous
 62
     7
370
    18
100
AcDbMText
 10
1.6001625063
 20
18.5261534142
 30
0.0
 40
0.375
 41
0.0
 71
     1
 72
     1
  1
[457mm - 1219mm]
  7
SLDTEXTSTYLE1
 73
     1
 44
1.0
  0
ENDBLK
  5
175
330
173
100
AcDbEntity
  8
0
100
AcDbBlockEnd
  0
BLOCK
  5
186
330
185
100
AcDbEntity
  8
0
100
AcDbBlockBegin
  2
_D_2
 70
     0
 10
0.0
 20
0.0
 30
0.0
  3
_D_2
  1

  0
SOLID
  5
188
330
185
100
AcDbEntity
  8
0
  6
Continuous
 62
     7
370
    18
100
AcDbTrace
 10
3.9326615642
 20
22.4477234287
 30
0.0
 11
3.9926615642
 21
22.8377234287
 31
0.0
 12
3.8726615642
 22
22.8377234287
 32
0.0
 13
3.8726615642
 23
22.8377234287
 33
0.0
  0
SOLID
  5
189
330
185
100
AcDbEntity
  8
0
  6
Continuous
 62
     7
370
    18
100
AcDbTrace
 10
3.9326615642
 20
22.0727234287
 30
0.0
 11
3.8726615642
 21
21.6827234287
 31
0.0
 12
3.9926615642
 22
21.6827234287
 32
0.0
 13
3.9926615642
 23
21.6827234287
 33
0.0
  0
LINE
  5
18A
330
185
100
AcDbEntity
  8
0
  6
Continuous
 62
     7
370
     0
100
AcDbLine
 10
5.2780195314
 20
24.0183809501
 30
0.0
 11
5.16376172
 21
24.0183809501
 31
0.0
  0
LINE
  5
18B
330
185
100
AcDbEntity
  8
0
  6
Continuous
 62
     7
370
     0
100
AcDbLine
 10
5.16376172
 20
24.0183809501
 30
0.0
 11
5.16376172
 21
23.4230684322
 31
0.0
  0
LINE
  5
18C
330
185
100
AcDbEntity
  8
0
  6
Continuous
 62
     7
370
     0
100
AcDbLine
 10
5.16376172
 20
23.4230684322
 30
0.0
 11
5.2780195314
 21
23.4230684322
 31
0.0
  0
LINE
  5
18D
330
185
100
AcDbEntity
  8
0
  6
Continuous
 62
     7
370
     0
100
AcDbLine
 10
6.7696862295
 20
24.0183809501
 30
0.0
 11
6.8839440408
 21
24.0183809501
 31
0.0
  0
LINE
  5
18E
330
185
100
AcDbEntity
  8
0
  6
Continuous
 62
     7
370
     0
100
AcDbLine
 10
6.8839440408
 20
24.0183809501
 30
0.0
 11
6.8839440408
 21
23.4230684322
 31
0.0
  0
LINE
  5
18F
330
185
100
AcDbEntity
  8
0
  6
Continuous
 62
     7
370
     0
100
AcDbLine
 10
6.8839440408
 20
23.4230684322
 30
0.0
 11
6.7696862295
 21
23.4230684322
 31
0.0
  0
LINE
  5
190
330
185
100
AcDbEntity
  8
0
  6
Continuous
 62
     7
370
     0
100
AcDbLine
 10
6.5972341318
 20
22.4477234287
 30
0.0
 11
3.5576615642
 21
22.4477234287
 31
0.0
  0
LINE
  5
191
330
185
100
AcDbEntity
  8
0
  6
Continuous
 62
     7
370
     0
100
AcDbLine
 10
6.6472341318
 20
22.0727234287
 30
0.0
 11
3.5576615642
 21
22.0727234287
 31
0.0
  0
LINE
  5
192
330
185
100
AcDbEntity
  8
0
  6
Continuous
 62
     7
370
     0
100
AcDbLine
 10
4.6826615642
 20
24.021245592
 30
0.0
 11
3.9326615642
 21
24.021245592
 31
0.0
  0
LINE
  5
193
330
185
100
AcDbEntity
  8
0
  6
Continuous
 62
     7
370
     0
100
AcDbLine
 10
3.9326615642
 20
24.021245592
 30
0.0
 11
3.9326615642
 21
22.4477234287
 31
0.0
  0
LINE
  5
194
330
185
100
AcDbEntity
  8
0
  6
Continuous
 62
     7
370
     0
100
AcDbLine
 10
3.9326615642
 20
22.0727234287
 30
0.0
 11
3.9326615642
 21
21.3227234287
 31
0.0
  0
MTEXT
  5
195
330
185
100
AcDbEntity
  8
0
  6
Continuous
 62
     7
370
    18
100
AcDbMText
 10
5.0515872416
 20
24.5836824327
 30
0.0
 40
0.375
 41
0.0
 71
     1
 72
     1
  1

  7
SLDTEXTSTYLE1
 73
     1
 44
1.0
  0
MTEXT
  5
196
330
185
100
AcDbEntity
  8
0
  6
Continuous
 62
     7
370
    18
100
AcDbMText
 10
5.5600507458
 20
24.5779532382
 30
0.0
 40
0.375
 41
0.0
 71
     1
 72
     1
  1
3/8"
  7
SLDTEXTSTYLE1
 73
     1
 44
1.0
  0
MTEXT
  5
197
330
185
100
AcDbEntity
  8
0
  6
Continuous
 62
     7
370
    18
100
AcDbMText
 10
5.2780195314
 20
23.9064688759
 30
0.0
 40
0.375
 41
0.0
 71
     1
 72
     1
  1
10mm
  7
SLDTEXTSTYLE1
 73
     1
 44
1.0
  0
MTEXT
  5
198
330
185
100
AcDbEntity
  8
0
  6
Continuous
 62
     7
370
    18
100
AcDbMText
 10
7.1388267697
 20
24.5836824327
 30
0.0
 40
0.375
 41
0.0
 71
     1
 72
     1
  1

  7
SLDTEXTSTYLE1
 73
     1
 44
1.0
  0
ENDBLK
  5
187
330
185
100
AcDbEntity
  8
0
100
AcDbBlockEnd
  0
BLOCK
  5
19B
330
19A
100
AcDbEntity
  8
0
100
AcDbBlockBegin
  2
_D_3
 70
     0
 10
0.0
 20
0.0
 30
0.0
  3
_D_3
  1

  0
SOLID
  5
19D
330
19A
100
AcDbEntity
  8
0
  6
Continuous
 62
     7
370
    18
100
AcDbTrace
 10
3.9045894653
 20
15.7987200109
 30
0.0
 11
3.9645894653
 21
16.1887200109
 31
0.0
 12
3.8445894653
 22
16.1887200109
 32
0.0
 13
3.8445894653
 23
16.1887200109
 33
0.0
  0
SOLID
  5
19E
330
19A
100
AcDbEntity
  8
0
  6
Continuous
 62
     7
370
    18
100
AcDbTrace
 10
3.9045894653
 20
13.1687200109
 30
0.0
 11
3.8445894653
 21
12.7787200109
 31
0.0
 12
3.9645894653
 22
12.7787200109
 32
0.0
 13
3.9645894653
 23
12.7787200109
 33
0.0
  0
LINE
  5
19F
330
19A
100
AcDbEntity
  8
0
  6
Continuous
 62
     7
370
     0
100
AcDbLine
 10
3.1587561712
 20
14.480855369
 30
0.0
 11
3.0444983599
 21
14.480855369
 31
0.0
  0
LINE
  5
1A0
330
19A
100
AcDbEntity
  8
0
  6
Continuous
 62
     7
370
     0
100
AcDbLine
 10
3.0444983599
 20
14.480855369
 30
0.0
 11
3.0444983599
 21
13.8855428511
 31
0.0
  0
LINE
  5
1A1
330
19A
100
AcDbEntity
  8
0
  6
Continuous
 62
     7
370
     0
100
AcDbLine
 10
3.0444983599
 20
13.8855428511
 30
0.0
 11
3.1587561712
 21
13.8855428511
 31
0.0
  0
LINE
  5
1A2
330
19A
100
AcDbEntity
  8
0
  6
Continuous
 62
     7
370
     0
100
AcDbLine
 10
4.6504228694
 20
14.480855369
 30
0.0
 11
4.7646806807
 21
14.480855369
 31
0.0
  0
LINE
  5
1A3
330
19A
100
AcDbEntity
  8
0
  6
Continuous
 62
     7
370
     0
100
AcDbLine
 10
4.7646806807
 20
14.480855369
 30
0.0
 11
4.7646806807
 21
13.8855428511
 31
0.0
  0
LINE
  5
1A4
330
19A
100
AcDbEntity
  8
0
  6
Continuous
 62
     7
370
     0
100
AcDbLine
 10
4.7646806807
 20
13.8855428511
 30
0.0
 11
4.6504228694
 21
13.8855428511
 31
0.0
  0
LINE
  5
1A5
330
19A
100
AcDbEntity
  8
0
  6
Continuous
 62
     7
370
     0
100
AcDbLine
 10
8.5822341318
 20
15.7987200109
 30
0.0
 11
3.5295894653
 21
15.7987200109
 31
0.0
  0
LINE
  5
1A6
330
19A
100
AcDbEntity
  8
0
  6
Continuous
 62
     7
370
     0
100
AcDbLine
 10
7.0402341318
 20
13.1687200109
 30
0.0
 11
3.5295894653
 21
13.1687200109
 31
0.0
  0
LINE
  5
1A7
330
19A
100
AcDbEntity
  8
0
  6
Continuous
 62
     7
370
     0
100
AcDbLine
 10
3.9045894653
 20
15.7987200109
 30
0.0
 11
3.9045894653
 21
16.5487200109
 31
0.0
  0
LINE
  5
1A8
330
19A
100
AcDbEntity
  8
0
  6
Continuous
 62
     7
370
     0
100
AcDbLine
 10
3.9045894653
 20
13.1687200109
 30
0.0
 11
3.9045894653
 21
12.4187200109
 31
0.0
  0
MTEXT
  5
1A9
330
19A
100
AcDbEntity
  8
0
  6
Continuous
 62
     7
370
    18
100
AcDbMText
 10
2.9323238815
 20
15.0461568516
 30
0.0
 40
0.375
 41
0.0
 71
     1
 72
     1
  1

  7
SLDTEXTSTYLE1
 73
     1
 44
1.0
  0
MTEXT
  5
1AA
330
19A
100
AcDbEntity
  8
0
  6
Continuous
 62
     7
370
    18
100
AcDbMText
 10
3.2329749264
 20
15.0404276571
 30
0.0
 40
0.375
 41
0.0
 71
     1
 72
     1
  1
2 5/8"
  7
SLDTEXTSTYLE1
 73
     1
 44
1.0
  0
MTEXT
  5
1AB
330
19A
100
AcDbEntity
  8
0
  6
Continuous
 62
     7
370
    18
100
AcDbMText
 10
3.1587561712
 20
14.3689432948
 30
0.0
 40
0.375
 41
0.0
 71
     1
 72
     1
  1
67mm
  7
SLDTEXTSTYLE1
 73
     1
 44
1.0
  0
MTEXT
  5
1AC
330
19A
100
AcDbEntity
  8
0
  6
Continuous
 62
     7
370
    18
100
AcDbMText
 10
5.0195634096
 20
15.0461568516
 30
0.0
 40
0.375
 41
0.0
 71
     1
 72
     1
  1

  7
SLDTEXTSTYLE1
 73
     1
 44
1.0
  0
ENDBLK
  5
19C
330
19A
100
AcDbEntity
  8
0
100
AcDbBlockEnd
  0
BLOCK
  5
1AF
330
1AE
100
AcDbEntity
  8
0
100
AcDbBlockBegin
  2
_D_4
 70
     0
 10
0.0
 20
0.0
 30
0.0
  3
_D_4
  1

  0
SOLID
  5
1B1
330
1AE
100
AcDbEntity
  8
0
  6
Continuous
 62
     7
370
    18
100
AcDbTrace
 10
7.1902973719
 20
10.5827707472
 30
0.0
 11
7.5802988391
 21
10.5227802848
 31
0.0
 12
7.5802959044
 22
10.6427802848
 32
0.0
 13
7.5802959044
 23
10.6427802848
 33
0.0
  0
SOLID
  5
1B2
330
1AE
100
AcDbEntity
  8
0
  6
Continuous
 62
     7
370
    18
100
AcDbTrace
 10
11.2793973719
 20
10.5828707472
 30
0.0
 11
10.8893959047
 21
10.6428612097
 31
0.0
 12
10.8893988393
 22
10.5228612097
 32
0.0
 13
10.8893988393
 23
10.5228612097
 33
0.0
  0
LINE
  5
1B3
330
1AE
100
AcDbEntity
  8
0
  6
Continuous
 62
     7
370
     0
100
AcDbLine
 10
8.3504724382
 20
10.5799561053
 30
0.0
 11
8.2362146269
 21
10.5799561053
 31
0.0
  0
LINE
  5
1B4
330
1AE
100
AcDbEntity
  8
0
  6
Continuous
 62
     7
370
     0
100
AcDbLine
 10
8.2362146269
 20
10.5799561053
 30
0.0
 11
8.2362146269
 21
9.9846435874
 31
0.0
  0
LINE
  5
1B5
330
1AE
100
AcDbEntity
  8
0
  6
Continuous
 62
     7
370
     0
100
AcDbLine
 10
8.2362146269
 20
9.9846435874
 30
0.0
 11
8.3504724382
 21
9.9846435874
 31
0.0
  0
LINE
  5
1B6
330
1AE
100
AcDbEntity
  8
0
  6
Continuous
 62
     7
370
     0
100
AcDbLine
 10
10.1192224155
 20
10.5799561053
 30
0.0
 11
10.2334802268
 21
10.5799561053
 31
0.0
  0
LINE
  5
1B7
330
1AE
100
AcDbEntity
  8
0
  6
Continuous
 62
     7
370
     0
100
AcDbLine
 10
10.2334802268
 20
10.5799561053
 30
0.0
 11
10.2334802268
 21
9.9846435874
 31
0.0
  0
LINE
  5
1B8
330
1AE
100
AcDbEntity
  8
0
  6
Continuous
 62
     7
370
     0
100
AcDbLine
 10
10.2334802268
 20
9.9846435874
 30
0.0
 11
10.1192224155
 21
9.9846435874
 31
0.0
  0
LINE
  5
1B9
330
1AE
100
AcDbEntity
  8
0
  6
Continuous
 62
     7
370
     0
100
AcDbLine
 10
7.1902378001
 20
13.018720011
 30
0.0
 11
7.1903065426
 21
10.2077707473
 31
0.0
  0
LINE
  5
1BA
330
1AE
100
AcDbEntity
  8
0
  6
Continuous
 62
     7
370
     0
100
AcDbLine
 10
11.2793378001
 20
13.018820011
 30
0.0
 11
11.2794065426
 21
10.2078707473
 31
0.0
  0
LINE
  5
1BB
330
1AE
100
AcDbEntity
  8
0
  6
Continuous
 62
     7
370
     0
100
AcDbLine
 10
7.1902973719
 20
10.5827707472
 30
0.0
 11
7.9073149227
 21
10.5827882821
 31
0.0
  0
LINE
  5
1BC
330
1AE
100
AcDbEntity
  8
0
  6
Continuous
 62
     7
370
     0
100
AcDbLine
 10
11.2793973719
 20
10.5828707472
 30
0.0
 11
10.562379821
 21
10.5828532124
 31
0.0
  0
MTEXT
  5
1BD
330
1AE
100
AcDbEntity
  8
0
  6
Continuous
 62
     7
370
    18
100
AcDbMText
 10
8.1240401485
 20
11.1452575879
 30
0.0
 40
0.375
 41
0.0
 71
     1
 72
     1
  1

  7
SLDTEXTSTYLE1
 73
     1
 44
1.0
  0
MTEXT
  5
1BE
330
1AE
100
AcDbEntity
  8
0
  6
Continuous
 62
     7
370
    18
100
AcDbMText
 10
8.4246911384
 20
11.1395283934
 30
0.0
 40
0.375
 41
0.0
 71
     1
 72
     1
  1
4 1/16"
  7
SLDTEXTSTYLE1
 73
     1
 44
1.0
  0
MTEXT
  5
1BF
330
1AE
100
AcDbEntity
  8
0
  6
Continuous
 62
     7
370
    18
100
AcDbMText
 10
8.3504724382
 20
10.4680440311
 30
0.0
 40
0.375
 41
0.0
 71
     1
 72
     1
  1
104mm
  7
SLDTEXTSTYLE1
 73
     1
 44
1.0
  0
MTEXT
  5
1C0
330
1AE
100
AcDbEntity
  8
0
  6
Continuous
 62
     7
370
    18
100
AcDbMText
 10
10.4883629557
 20
11.1452575879
 30
0.0
 40
0.375
 41
0.0
 71
     1
 72
     1
  1

  7
SLDTEXTSTYLE1
 73
     1
 44
1.0
  0
ENDBLK
  5
1B0
330
1AE
100
AcDbEntity
  8
0
100
AcDbBlockEnd
  0
BLOCK
  5
1C3
330
1C2
100
AcDbEntity
  8
0
100
AcDbBlockBegin
  2
_D_5
 70
     0
 10
0.0
 20
0.0
 30
0.0
  3
_D_5
  1

  0
SOLID
  5
1C5
330
1C2
100
AcDbEntity
  8
0
  6
Continuous
 62
     7
370
    18
100
AcDbTrace
 10
15.1154220581
 20
13.5875111163
 30
0.0
 11
15.3487672959
 21
13.2693130647
 31
0.0
 12
15.4336201096
 22
13.3541658785
 32
0.0
 13
15.4336201096
 23
13.3541658785
 33
0.0
  0
SOLID
  5
1C6
330
1C2
100
AcDbEntity
  8
0
  6
Continuous
 62
     7
370
    18
100
AcDbTrace
 10
13.4067236476
 20
15.2962095267
 30
0.0
 11
13.1733784098
 21
15.6144075783
 31
0.0
 12
13.0885255961
 22
15.5295547645
 32
0.0
 13
13.0885255961
 23
15.5295547645
 33
0.0
  0
LINE
  5
1C7
330
1C2
100
AcDbEntity
  8
0
  6
Continuous
 62
     7
370
     0
100
AcDbLine
 10
13.5152395588
 20
14.4389956796
 30
0.0
 11
13.4009817474
 21
14.4389956796
 31
0.0
  0
LINE
  5
1C8
330
1C2
100
AcDbEntity
  8
0
  6
Continuous
 62
     7
370
     0
100
AcDbLine
 10
13.4009817474
 20
14.4389956796
 30
0.0
 11
13.4009817474
 21
13.8436831617
 31
0.0
  0
LINE
  5
1C9
330
1C2
100
AcDbEntity
  8
0
  6
Continuous
 62
     7
370
     0
100
AcDbLine
 10
13.4009817474
 20
13.8436831617
 30
0.0
 11
13.5152395588
 21
13.8436831617
 31
0.0
  0
LINE
  5
1CA
330
1C2
100
AcDbEntity
  8
0
  6
Continuous
 62
     7
370
     0
100
AcDbLine
 10
15.0069062569
 20
14.4389956796
 30
0.0
 11
15.1211640682
 21
14.4389956796
 31
0.0
  0
LINE
  5
1CB
330
1C2
100
AcDbEntity
  8
0
  6
Continuous
 62
     7
370
     0
100
AcDbLine
 10
15.1211640682
 20
14.4389956796
 30
0.0
 11
15.1211640682
 21
13.8436831617
 31
0.0
  0
LINE
  5
1CC
330
1C2
100
AcDbEntity
  8
0
  6
Continuous
 62
     7
370
     0
100
AcDbLine
 10
15.1211640682
 20
13.8436831617
 30
0.0
 11
15.0069062569
 21
13.8436831617
 31
0.0
  0
LINE
  5
1CD
330
1C2
100
AcDbEntity
  8
0
  6
Continuous
 62
     7
370
     0
100
AcDbLine
 10
13.8763870866
 20
12.3484761448
 30
0.0
 11
15.380587101
 21
13.8526761592
 31
0.0
  0
LINE
  5
1CE
330
1C2
100
AcDbEntity
  8
0
  6
Continuous
 62
     7
370
     0
100
AcDbLine
 10
11.385400149
 20
13.2748860281
 30
0.0
 11
13.6718886905
 21
15.5613745697
 31
0.0
  0
LINE
  5
1CF
330
1C2
100
AcDbEntity
  8
0
  6
Continuous
 62
     7
370
     0
100
AcDbLine
 10
15.1154220581
 20
13.5875111163
 30
0.0
 11
15.645752144
 21
13.0571810304
 31
0.0
  0
LINE
  5
1D0
330
1C2
100
AcDbEntity
  8
0
  6
Continuous
 62
     7
370
     0
100
AcDbLine
 10
13.4067236476
 20
15.2962095267
 30
0.0
 11
12.8763935617
 21
15.8265396126
 31
0.0
  0
MTEXT
  5
1D1
330
1C2
100
AcDbEntity
  8
0
  6
Continuous
 62
     7
370
    18
100
AcDbMText
 10
13.288807269
 20
15.0042971621
 30
0.0
 40
0.375
 41
0.0
 71
     1
 72
     1
  1

  7
SLDTEXTSTYLE1
 73
     1
 44
1.0
  0
MTEXT
  5
1D2
330
1C2
100
AcDbEntity
  8
0
  6
Continuous
 62
     7
370
    18
100
AcDbMText
 10
13.4509166193
 20
14.9985679677
 30
0.0
 40
0.375
 41
0.0
 71
     1
 72
     1
  1
2 7/16"
  7
SLDTEXTSTYLE1
 73
     1
 44
1.0
  0
MTEXT
  5
1D3
330
1C2
100
AcDbEntity
  8
0
  6
Continuous
 62
     7
370
    18
100
AcDbMText
 10
13.5152395588
 20
14.3270836054
 30
0.0
 40
0.375
 41
0.0
 71
     1
 72
     1
  1
61mm
  7
SLDTEXTSTYLE1
 73
     1
 44
1.0
  0
MTEXT
  5
1D4
330
1C2
100
AcDbEntity
  8
0
  6
Continuous
 62
     7
370
    18
100
AcDbMText
 10
15.3760467971
 20
15.0042971621
 30
0.0
 40
0.375
 41
0.0
 71
     1
 72
     1
  1

  7
SLDTEXTSTYLE1
 73
     1
 44
1.0
  0
ENDBLK
  5
1C4
330
1C2
100
AcDbEntity
  8
0
100
AcDbBlockEnd
  0
BLOCK
  5
1D7
330
1D6
100
AcDbEntity
  8
0
100
AcDbBlockBegin
  2
_D_6
 70
     0
 10
0.0
 20
0.0
 30
0.0
  3
_D_6
  1

  0
SOLID
  5
1D9
330
1D6
100
AcDbEntity
  8
0
  6
Continuous
 62
     7
370
    18
100
AcDbTrace
 10
16.2400944852
 20
6.6330826033
 30
0.0
 11
15.9218964337
 21
6.3997373655
 31
0.0
 12
16.0067492475
 22
6.3148845517
 32
0.0
 13
16.0067492475
 23
6.3148845517
 33
0.0
  0
SOLID
  5
1DA
330
1D6
100
AcDbEntity
  8
0
  6
Continuous
 62
     7
370
    18
100
AcDbTrace
 10
17.8098715395
 20
8.2028596575
 30
0.0
 11
18.128069591
 21
8.4362048953
 31
0.0
 12
18.0432167773
 22
8.521057709
 32
0.0
 13
18.0432167773
 23
8.521057709
 33
0.0
  0
LINE
  5
1DB
330
1D6
100
AcDbEntity
  8
0
  6
Continuous
 62
     7
370
     0
100
AcDbLine
 10
16.2791496908
 20
7.4179710754
 30
0.0
 11
16.1648918795
 21
7.4179710754
 31
0.0
  0
LINE
  5
1DC
330
1D6
100
AcDbEntity
  8
0
  6
Continuous
 62
     7
370
     0
100
AcDbLine
 10
16.1648918795
 20
7.4179710754
 30
0.0
 11
16.1648918795
 21
6.8226585575
 31
0.0
  0
LINE
  5
1DD
330
1D6
100
AcDbEntity
  8
0
  6
Continuous
 62
     7
370
     0
100
AcDbLine
 10
16.1648918795
 20
6.8226585575
 30
0.0
 11
16.2791496908
 21
6.8226585575
 31
0.0
  0
LINE
  5
1DE
330
1D6
100
AcDbEntity
  8
0
  6
Continuous
 62
     7
370
     0
100
AcDbLine
 10
17.7708163889
 20
7.4179710754
 30
0.0
 11
17.8850742003
 21
7.4179710754
 31
0.0
  0
LINE
  5
1DF
330
1D6
100
AcDbEntity
  8
0
  6
Continuous
 62
     7
370
     0
100
AcDbLine
 10
17.8850742003
 20
7.4179710754
 30
0.0
 11
17.8850742003
 21
6.8226585575
 31
0.0
  0
LINE
  5
1E0
330
1D6
100
AcDbEntity
  8
0
  6
Continuous
 62
     7
370
     0
100
AcDbLine
 10
17.8850742003
 20
6.8226585575
 30
0.0
 11
17.7708163889
 21
6.8226585575
 31
0.0
  0
LINE
  5
1E1
330
1D6
100
AcDbEntity
  8
0
  6
Continuous
 62
     7
370
     0
100
AcDbLine
 10
14.0920546548
 20
8.7811224337
 30
0.0
 11
16.5052595282
 21
6.3679175603
 31
0.0
  0
LINE
  5
1E2
330
1D6
100
AcDbEntity
  8
0
  6
Continuous
 62
     7
370
     0
100
AcDbLine
 10
17.2316087633
 20
8.7811224337
 30
0.0
 11
18.0750365824
 21
7.9376946145
 31
0.0
  0
LINE
  5
1E3
330
1D6
100
AcDbEntity
  8
0
  6
Continuous
 62
     7
370
     0
100
AcDbLine
 10
16.2400944852
 20
6.6330826033
 30
0.0
 11
15.7097643994
 21
6.1027525174
 31
0.0
  0
LINE
  5
1E4
330
1D6
100
AcDbEntity
  8
0
  6
Continuous
 62
     7
370
     0
100
AcDbLine
 10
17.8098715395
 20
8.2028596575
 30
0.0
 11
18.3402016254
 21
8.7331897434
 31
0.0
  0
MTEXT
  5
1E5
330
1D6
100
AcDbEntity
  8
0
  6
Continuous
 62
     7
370
    18
100
AcDbMText
 10
16.0705949875
 20
7.977543391
 30
0.0
 40
0.375
 41
0.0
 71
     1
 72
     1
  1
%%c
  7
SLDTEXTSTYLE1
 73
     1
 44
1.0
  0
MTEXT
  5
1E6
330
1D6
100
AcDbEntity
  8
0
  6
Continuous
 62
     7
370
    18
100
AcDbMText
 10
16.6361418493
 20
7.977543391
 30
0.0
 40
0.375
 41
0.0
 71
     1
 72
     1
  1
2 1/4"
  7
SLDTEXTSTYLE1
 73
     1
 44
1.0
  0
MTEXT
  5
1E7
330
1D6
100
AcDbEntity
  8
0
  6
Continuous
 62
     7
370
    18
100
AcDbMText
 10
16.2791496908
 20
7.3060590011
 30
0.0
 40
0.375
 41
0.0
 71
     1
 72
     1
  1
56mm
  7
SLDTEXTSTYLE1
 73
     1
 44
1.0
  0
ENDBLK
  5
1D8
330
1D6
100
AcDbEntity
  8
0
100
AcDbBlockEnd
  0
BLOCK
  5
1F7
330
1F6
100
AcDbEntity
  8
0
100
AcDbBlockBegin
  2
_D_7
 70
     0
 10
0.0
 20
0.0
 30
0.0
  3
_D_7
  1

  0
SOLID
  5
1F9
330
1F6
100
AcDbEntity
  8
0
  6
Continuous
 62
     7
370
    18
100
AcDbTrace
 10
1.742443459
 20
2.3269413044
 30
0.0
 11
1.802443459
 21
2.7169413044
 31
0.0
 12
1.682443459
 22
2.7169413044
 32
0.0
 13
1.682443459
 23
2.7169413044
 33
0.0
  0
SOLID
  5
1FA
330
1F6
100
AcDbEntity
  8
0
  6
Continuous
 62
     7
370
    18
100
AcDbTrace
 10
1.742443459
 20
7.0719413044
 30
0.0
 11
1.682443459
 21
6.6819413044
 31
0.0
 12
1.802443459
 22
6.6819413044
 32
0.0
 13
1.802443459
 23
6.6819413044
 33
0.0
  0
LINE
  5
1FB
330
1F6
100
AcDbEntity
  8
0
  6
Continuous
 62
     7
370
     0
100
AcDbLine
 10
0.8580685254
 20
4.6965766625
 30
0.0
 11
0.7438107141
 21
4.6965766625
 31
0.0
  0
LINE
  5
1FC
330
1F6
100
AcDbEntity
  8
0
  6
Continuous
 62
     7
370
     0
100
AcDbLine
 10
0.7438107141
 20
4.6965766625
 30
0.0
 11
0.7438107141
 21
4.1012641446
 31
0.0
  0
LINE
  5
1FD
330
1F6
100
AcDbEntity
  8
0
  6
Continuous
 62
     7
370
     0
100
AcDbLine
 10
0.7438107141
 20
4.1012641446
 30
0.0
 11
0.8580685254
 21
4.1012641446
 31
0.0
  0
LINE
  5
1FE
330
1F6
100
AcDbEntity
  8
0
  6
Continuous
 62
     7
370
     0
100
AcDbLine
 10
2.6268185027
 20
4.6965766625
 30
0.0
 11
2.741076314
 21
4.6965766625
 31
0.0
  0
LINE
  5
1FF
330
1F6
100
AcDbEntity
  8
0
  6
Continuous
 62
     7
370
     0
100
AcDbLine
 10
2.741076314
 20
4.6965766625
 30
0.0
 11
2.741076314
 21
4.1012641446
 31
0.0
  0
LINE
  5
200
330
1F6
100
AcDbEntity
  8
0
  6
Continuous
 62
     7
370
     0
100
AcDbLine
 10
2.741076314
 20
4.1012641446
 30
0.0
 11
2.6268185027
 21
4.1012641446
 31
0.0
  0
LINE
  5
201
330
1F6
100
AcDbEntity
  8
0
  6
Continuous
 62
     7
370
     0
100
AcDbLine
 10
2.8424302251
 20
2.3269413044
 30
0.0
 11
1.367443459
 21
2.3269413044
 31
0.0
  0
LINE
  5
202
330
1F6
100
AcDbEntity
  8
0
  6
Continuous
 62
     7
370
     0
100
AcDbLine
 10
2.8424302251
 20
7.0719413044
 30
0.0
 11
1.367443459
 21
7.0719413044
 31
0.0
  0
LINE
  5
203
330
1F6
100
AcDbEntity
  8
0
  6
Continuous
 62
     7
370
     0
100
AcDbLine
 10
1.742443459
 20
2.3269413044
 30
0.0
 11
1.742443459
 21
4.0250923895
 31
0.0
  0
LINE
  5
204
330
1F6
100
AcDbEntity
  8
0
  6
Continuous
 62
     7
370
     0
100
AcDbLine
 10
1.742443459
 20
7.0719413044
 30
0.0
 11
1.742443459
 21
5.3737902192
 31
0.0
  0
MTEXT
  5
205
330
1F6
100
AcDbEntity
  8
0
  6
Continuous
 62
     7
370
    18
100
AcDbMText
 10
0.6316362357
 20
5.261878145
 30
0.0
 40
0.375
 41
0.0
 71
     1
 72
     1
  1

  7
SLDTEXTSTYLE1
 73
     1
 44
1.0
  0
MTEXT
  5
206
330
1F6
100
AcDbEntity
  8
0
  6
Continuous
 62
     7
370
    18
100
AcDbMText
 10
1.0708289201
 20
5.2561489506
 30
0.0
 40
0.375
 41
0.0
 71
     1
 72
     1
  1
4 3/4"
  7
SLDTEXTSTYLE1
 73
     1
 44
1.0
  0
MTEXT
  5
207
330
1F6
100
AcDbEntity
  8
0
  6
Continuous
 62
     7
370
    18
100
AcDbMText
 10
0.8580685254
 20
4.5846645882
 30
0.0
 40
0.375
 41
0.0
 71
     1
 72
     1
  1
121mm
  7
SLDTEXTSTYLE1
 73
     1
 44
1.0
  0
MTEXT
  5
208
330
1F6
100
AcDbEntity
  8
0
  6
Continuous
 62
     7
370
    18
100
AcDbMText
 10
2.9959590428
 20
5.261878145
 30
0.0
 40
0.375
 41
0.0
 71
     1
 72
     1
  1

  7
SLDTEXTSTYLE1
 73
     1
 44
1.0
  0
ENDBLK
  5
1F8
330
1F6
100
AcDbEntity
  8
0
100
AcDbBlockEnd
  0
BLOCK
  5
217
330
216
100
AcDbEntity
  8
0
100
AcDbBlockBegin
  2
_D_8
 70
     0
 10
0.0
 20
0.0
 30
0.0
  3
_D_8
  1

  0
SOLID
  5
219
330
216
100
AcDbEntity
  8
0
  6
Continuous
 62
     7
370
    18
100
AcDbTrace
 10
7.2551880485
 20
2.2485164313
 30
0.0
 11
7.1951880485
 21
1.8585164313
 31
0.0
 12
7.3151880485
 22
1.8585164313
 32
0.0
 13
7.3151880485
 23
1.8585164313
 33
0.0
  0
SOLID
  5
21A
330
216
100
AcDbEntity
  8
0
  6
Continuous
 62
     7
370
    18
100
AcDbTrace
 10
7.2551880485
 20
4.7985164313
 30
0.0
 11
7.3151880485
 21
5.1885164313
 31
0.0
 12
7.1951880485
 22
5.1885164313
 32
0.0
 13
7.1951880485
 23
5.1885164313
 33
0.0
  0
LINE
  5
21B
330
216
100
AcDbEntity
  8
0
  6
Continuous
 62
     7
370
     0
100
AcDbLine
 10
6.5093547544
 20
3.5206517894
 30
0.0
 11
6.3950969431
 21
3.5206517894
 31
0.0
  0
LINE
  5
21C
330
216
100
AcDbEntity
  8
0
  6
Continuous
 62
     7
370
     0
100
AcDbLine
 10
6.3950969431
 20
3.5206517894
 30
0.0
 11
6.3950969431
 21
2.9253392715
 31
0.0
  0
LINE
  5
21D
330
216
100
AcDbEntity
  8
0
  6
Continuous
 62
     7
370
     0
100
AcDbLine
 10
6.3950969431
 20
2.9253392715
 30
0.0
 11
6.5093547544
 21
2.9253392715
 31
0.0
  0
LINE
  5
21E
330
216
100
AcDbEntity
  8
0
  6
Continuous
 62
     7
370
     0
100
AcDbLine
 10
8.0010214525
 20
3.5206517894
 30
0.0
 11
8.1152792639
 21
3.5206517894
 31
0.0
  0
LINE
  5
21F
330
216
100
AcDbEntity
  8
0
  6
Continuous
 62
     7
370
     0
100
AcDbLine
 10
8.1152792639
 20
3.5206517894
 30
0.0
 11
8.1152792639
 21
2.9253392715
 31
0.0
  0
LINE
  5
220
330
216
100
AcDbEntity
  8
0
  6
Continuous
 62
     7
370
     0
100
AcDbLine
 10
8.1152792639
 20
2.9253392715
 30
0.0
 11
8.0010214525
 21
2.9253392715
 31
0.0
  0
LINE
  5
221
330
216
100
AcDbEntity
  8
0
  6
Continuous
 62
     7
370
     0
100
AcDbLine
 10
8.3551748145
 20
2.2485164313
 30
0.0
 11
6.8801880485
 21
2.2485164313
 31
0.0
  0
LINE
  5
222
330
216
100
AcDbEntity
  8
0
  6
Continuous
 62
     7
370
     0
100
AcDbLine
 10
8.3851748145
 20
4.7985164313
 30
0.0
 11
6.8801880485
 21
4.7985164313
 31
0.0
  0
LINE
  5
223
330
216
100
AcDbEntity
  8
0
  6
Continuous
 62
     7
370
     0
100
AcDbLine
 10
7.2551880485
 20
2.2485164313
 30
0.0
 11
7.2551880485
 21
1.4985164313
 31
0.0
  0
LINE
  5
224
330
216
100
AcDbEntity
  8
0
  6
Continuous
 62
     7
370
     0
100
AcDbLine
 10
7.2551880485
 20
4.7985164313
 30
0.0
 11
7.2551880485
 21
5.5485164313
 31
0.0
  0
MTEXT
  5
225
330
216
100
AcDbEntity
  8
0
  6
Continuous
 62
     7
370
    18
100
AcDbMText
 10
6.2829224647
 20
4.0859532719
 30
0.0
 40
0.375
 41
0.0
 71
     1
 72
     1
  1

  7
SLDTEXTSTYLE1
 73
     1
 44
1.0
  0
MTEXT
  5
226
330
216
100
AcDbEntity
  8
0
  6
Continuous
 62
     7
370
    18
100
AcDbMText
 10
6.445031815
 20
4.0802240775
 30
0.0
 40
0.375
 41
0.0
 71
     1
 72
     1
  1
2 9/16"
  7
SLDTEXTSTYLE1
 73
     1
 44
1.0
  0
MTEXT
  5
227
330
216
100
AcDbEntity
  8
0
  6
Continuous
 62
     7
370
    18
100
AcDbMText
 10
6.5093547544
 20
3.4087397151
 30
0.0
 40
0.375
 41
0.0
 71
     1
 72
     1
  1
65mm
  7
SLDTEXTSTYLE1
 73
     1
 44
1.0
  0
MTEXT
  5
228
330
216
100
AcDbEntity
  8
0
  6
Continuous
 62
     7
370
    18
100
AcDbMText
 10
8.3701619927
 20
4.0859532719
 30
0.0
 40
0.375
 41
0.0
 71
     1
 72
     1
  1

  7
SLDTEXTSTYLE1
 73
     1
 44
1.0
  0
ENDBLK
  5
218
330
216
100
AcDbEntity
  8
0
100
AcDbBlockEnd
  0
BLOCK
  5
237
330
236
100
AcDbEntity
  8
0
100
AcDbBlockBegin
  2
_D_9
 70
     0
 10
0.0
 20
0.0
 30
0.0
  3
_D_9
  1

  0
SOLID
  5
239
330
236
100
AcDbEntity
  8
0
  6
Continuous
 62
     7
370
    18
100
AcDbTrace
 10
12.6802057199
 20
2.2740594763
 30
0.0
 11
12.6202057199
 21
1.8840594763
 31
0.0
 12
12.7402057199
 22
1.8840594763
 32
0.0
 13
12.7402057199
 23
1.8840594763
 33
0.0
  0
SOLID
  5
23A
330
236
100
AcDbEntity
  8
0
  6
Continuous
 62
     7
370
    18
100
AcDbTrace
 10
12.6802057199
 20
3.9240594763
 30
0.0
 11
12.7402057199
 21
4.3140594763
 31
0.0
 12
12.6202057199
 22
4.3140594763
 32
0.0
 13
12.6202057199
 23
4.3140594763
 33
0.0
  0
LINE
  5
23B
330
236
100
AcDbEntity
  8
0
  6
Continuous
 62
     7
370
     0
100
AcDbLine
 10
11.9343724258
 20
3.0961948344
 30
0.0
 11
11.8201146145
 21
3.0961948344
 31
0.0
  0
LINE
  5
23C
330
236
100
AcDbEntity
  8
0
  6
Continuous
 62
     7
370
     0
100
AcDbLine
 10
11.8201146145
 20
3.0961948344
 30
0.0
 11
11.8201146145
 21
2.5008823165
 31
0.0
  0
LINE
  5
23D
330
236
100
AcDbEntity
  8
0
  6
Continuous
 62
     7
370
     0
100
AcDbLine
 10
11.8201146145
 20
2.5008823165
 30
0.0
 11
11.9343724258
 21
2.5008823165
 31
0.0
  0
LINE
  5
23E
330
236
100
AcDbEntity
  8
0
  6
Continuous
 62
     7
370
     0
100
AcDbLine
 10
13.4260391239
 20
3.0961948344
 30
0.0
 11
13.5402969353
 21
3.0961948344
 31
0.0
  0
LINE
  5
23F
330
236
100
AcDbEntity
  8
0
  6
Continuous
 62
     7
370
     0
100
AcDbLine
 10
13.5402969353
 20
3.0961948344
 30
0.0
 11
13.5402969353
 21
2.5008823165
 31
0.0
  0
LINE
  5
240
330
236
100
AcDbEntity
  8
0
  6
Continuous
 62
     7
370
     0
100
AcDbLine
 10
13.5402969353
 20
2.5008823165
 30
0.0
 11
13.4260391239
 21
2.5008823165
 31
0.0
  0
LINE
  5
241
330
236
100
AcDbEntity
  8
0
  6
Continuous
 62
     7
370
     0
100
AcDbLine
 10
13.8963202039
 20
2.2740594763
 30
0.0
 11
12.3052057199
 21
2.2740594763
 31
0.0
  0
LINE
  5
242
330
236
100
AcDbEntity
  8
0
  6
Continuous
 62
     7
370
     0
100
AcDbLine
 10
13.9263202039
 20
3.9240594763
 30
0.0
 11
12.3052057199
 21
3.9240594763
 31
0.0
  0
LINE
  5
243
330
236
100
AcDbEntity
  8
0
  6
Continuous
 62
     7
370
     0
100
AcDbLine
 10
12.6802057199
 20
2.2740594763
 30
0.0
 11
12.6802057199
 21
1.5240594763
 31
0.0
  0
LINE
  5
244
330
236
100
AcDbEntity
  8
0
  6
Continuous
 62
     7
370
     0
100
AcDbLine
 10
12.6802057199
 20
3.9240594763
 30
0.0
 11
12.6802057199
 21
4.6740594763
 31
0.0
  0
MTEXT
  5
245
330
236
100
AcDbEntity
  8
0
  6
Continuous
 62
     7
370
    18
100
AcDbMText
 10
11.7079401361
 20
3.661496317
 30
0.0
 40
0.375
 41
0.0
 71
     1
 72
     1
  1

  7
SLDTEXTSTYLE1
 73
     1
 44
1.0
  0
MTEXT
  5
246
330
236
100
AcDbEntity
  8
0
  6
Continuous
 62
     7
370
    18
100
AcDbMText
 10
12.0085911809
 20
3.6557671225
 30
0.0
 40
0.375
 41
0.0
 71
     1
 72
     1
  1
1 5/8"
  7
SLDTEXTSTYLE1
 73
     1
 44
1.0
  0
MTEXT
  5
247
330
236
100
AcDbEntity
  8
0
  6
Continuous
 62
     7
370
    18
100
AcDbMText
 10
11.9343724258
 20
2.9842827602
 30
0.0
 40
0.375
 41
0.0
 71
     1
 72
     1
  1
42mm
  7
SLDTEXTSTYLE1
 73
     1
 44
1.0
  0
MTEXT
  5
248
330
236
100
AcDbEntity
  8
0
  6
Continuous
 62
     7
370
    18
100
AcDbMText
 10
13.7951796641
 20
3.661496317
 30
0.0
 40
0.375
 41
0.0
 71
     1
 72
     1
  1

  7
SLDTEXTSTYLE1
 73
     1
 44
1.0
  0
ENDBLK
  5
238
330
236
100
AcDbEntity
  8
0
100
AcDbBlockEnd
  0
BLOCK
  5
2F4
330
2F3
100
AcDbEntity
  8
0
100
AcDbBlockBegin
  2
_D_10
 70
     0
 10
0.0
 20
0.0
 30
0.0
  3
_D_10
  1

  0
SOLID
  5
2F6
330
2F3
100
AcDbEntity
  8
0
  6
Continuous
 62
     7
370
    18
100
AcDbTrace
 10
24.7590021207
 20
8.3070327307
 30
0.0
 11
24.3690021207
 21
8.3670327307
 31
0.0
 12
24.3690021207
 22
8.2470327307
 32
0.0
 13
24.3690021207
 23
8.2470327307
 33
0.0
  0
SOLID
  5
2F7
330
2F3
100
AcDbEntity
  8
0
  6
Continuous
 62
     7
370
    18
100
AcDbTrace
 10
28.2590021207
 20
8.3070327307
 30
0.0
 11
28.6490021207
 21
8.2470327307
 31
0.0
 12
28.6490021207
 22
8.3670327307
 32
0.0
 13
28.6490021207
 23
8.3670327307
 33
0.0
  0
LINE
  5
2F8
330
2F3
100
AcDbEntity
  8
0
  6
Continuous
 62
     7
370
     0
100
AcDbLine
 10
25.7631687991
 20
8.064584724
 30
0.0
 11
25.6489109878
 21
8.064584724
 31
0.0
  0
LINE
  5
2F9
330
2F3
100
AcDbEntity
  8
0
  6
Continuous
 62
     7
370
     0
100
AcDbLine
 10
25.6489109878
 20
8.064584724
 30
0.0
 11
25.6489109878
 21
7.4692722061
 31
0.0
  0
LINE
  5
2FA
330
2F3
100
AcDbEntity
  8
0
  6
Continuous
 62
     7
370
     0
100
AcDbLine
 10
25.6489109878
 20
7.4692722061
 30
0.0
 11
25.7631687991
 21
7.4692722061
 31
0.0
  0
LINE
  5
2FB
330
2F3
100
AcDbEntity
  8
0
  6
Continuous
 62
     7
370
     0
100
AcDbLine
 10
27.2548354973
 20
8.064584724
 30
0.0
 11
27.3690933086
 21
8.064584724
 31
0.0
  0
LINE
  5
2FC
330
2F3
100
AcDbEntity
  8
0
  6
Continuous
 62
     7
370
     0
100
AcDbLine
 10
27.3690933086
 20
8.064584724
 30
0.0
 11
27.3690933086
 21
7.4692722061
 31
0.0
  0
LINE
  5
2FD
330
2F3
100
AcDbEntity
  8
0
  6
Continuous
 62
     7
370
     0
100
AcDbLine
 10
27.3690933086
 20
7.4692722061
 30
0.0
 11
27.2548354973
 21
7.4692722061
 31
0.0
  0
LINE
  5
2FE
330
2F3
100
AcDbEntity
  8
0
  6
Continuous
 62
     7
370
     0
100
AcDbLine
 10
24.7590021207
 20
4.7909303685
 30
0.0
 11
24.7590021207
 21
8.6820327307
 31
0.0
  0
LINE
  5
2FF
330
2F3
100
AcDbEntity
  8
0
  6
Continuous
 62
     7
370
     0
100
AcDbLine
 10
28.2590021207
 20
4.7909303685
 30
0.0
 11
28.2590021207
 21
8.6820327307
 31
0.0
  0
LINE
  5
300
330
2F3
100
AcDbEntity
  8
0
  6
Continuous
 62
     7
370
     0
100
AcDbLine
 10
24.7590021207
 20
8.3070327307
 30
0.0
 11
24.0090021207
 21
8.3070327307
 31
0.0
  0
LINE
  5
301
330
2F3
100
AcDbEntity
  8
0
  6
Continuous
 62
     7
370
     0
100
AcDbLine
 10
28.2590021207
 20
8.3070327307
 30
0.0
 11
29.0090021207
 21
8.3070327307
 31
0.0
  0
MTEXT
  5
302
330
2F3
100
AcDbEntity
  8
0
  6
Continuous
 62
     7
370
    18
100
AcDbMText
 10
25.1230645512
 20
9.1090529087
 30
0.0
 40
0.375
 41
0.0
 71
     1
 72
     1
  1
ON CENTER
  7
SLDTEXTSTYLE1
 73
     1
 44
1.0
  0
MTEXT
  5
303
330
2F3
100
AcDbEntity
  8
0
  6
Continuous
 62
     7
370
    18
100
AcDbMText
 10
25.8373875543
 20
8.6241570121
 30
0.0
 40
0.375
 41
0.0
 71
     1
 72
     1
  1
3 1/2"
  7
SLDTEXTSTYLE1
 73
     1
 44
1.0
  0
MTEXT
  5
304
330
2F3
100
AcDbEntity
  8
0
  6
Continuous
 62
     7
370
    18
100
AcDbMText
 10
25.7631687991
 20
7.9526726498
 30
0.0
 40
0.375
 41
0.0
 71
     1
 72
     1
  1
89mm
  7
SLDTEXTSTYLE1
 73
     1
 44
1.0
  0
ENDBLK
  5
2F5
330
2F3
100
AcDbEntity
  8
0
100
AcDbBlockEnd
  0
BLOCK
  5
308
330
307
100
AcDbEntity
  8
0
100
AcDbBlockBegin
  2
_D_11
 70
     0
 10
0.0
 20
0.0
 30
0.0
  3
_D_11
  1

  0
SOLID
  5
30A
330
307
100
AcDbEntity
  8
0
  6
Continuous
 62
     7
370
    18
100
AcDbTrace
 10
28.6610752491
 20
5.8834303685
 30
0.0
 11
29.0288251566
 21
6.0264688443
 31
0.0
 12
28.9688251566
 22
6.1303918928
 32
0.0
 13
28.9688251566
 23
6.1303918928
 33
0.0
  0
LINE
  5
30B
330
307
100
AcDbEntity
  8
0
  6
Continuous
 62
     7
370
     0
100
AcDbLine
 10
30.4157953169
 20
6.3315721589
 30
0.0
 11
30.3015375056
 21
6.3315721589
 31
0.0
  0
LINE
  5
30C
330
307
100
AcDbEntity
  8
0
  6
Continuous
 62
     7
370
     0
100
AcDbLine
 10
30.3015375056
 20
6.3315721589
 30
0.0
 11
30.3015375056
 21
5.736259641
 31
0.0
  0
LINE
  5
30D
330
307
100
AcDbEntity
  8
0
  6
Continuous
 62
     7
370
     0
100
AcDbLine
 10
30.3015375056
 20
5.736259641
 30
0.0
 11
30.4157953169
 21
5.736259641
 31
0.0
  0
LINE
  5
30E
330
307
100
AcDbEntity
  8
0
  6
Continuous
 62
     7
370
     0
100
AcDbLine
 10
32.1845452941
 20
6.3315721589
 30
0.0
 11
32.2988031055
 21
6.3315721589
 31
0.0
  0
LINE
  5
30F
330
307
100
AcDbEntity
  8
0
  6
Continuous
 62
     7
370
     0
100
AcDbLine
 10
32.2988031055
 20
6.3315721589
 30
0.0
 11
32.2988031055
 21
5.736259641
 31
0.0
  0
LINE
  5
310
330
307
100
AcDbEntity
  8
0
  6
Continuous
 62
     7
370
     0
100
AcDbLine
 10
32.2988031055
 20
5.736259641
 30
0.0
 11
32.1845452941
 21
5.736259641
 31
0.0
  0
LINE
  5
311
330
307
100
AcDbEntity
  8
0
  6
Continuous
 62
     7
370
     0
100
AcDbLine
 10
28.6610752491
 20
5.8834303685
 30
0.0
 11
29.4372796942
 21
6.3315722139
 31
0.0
  0
LINE
  5
312
330
307
100
AcDbEntity
  8
0
  6
Continuous
 62
     7
370
     0
100
AcDbLine
 10
29.4372796942
 20
6.3315722139
 30
0.0
 11
30.1872796942
 21
6.3315722139
 31
0.0
  0
MTEXT
  5
313
330
307
100
AcDbEntity
  8
0
  6
Continuous
 62
     7
370
    18
100
AcDbMText
 10
30.8015114436
 20
6.8911444745
 30
0.0
 40
0.375
 41
0.0
 71
     1
 72
     1
  1
%%c
  7
SLDTEXTSTYLE1
 73
     1
 44
1.0
  0
MTEXT
  5
314
330
307
100
AcDbEntity
  8
0
  6
Continuous
 62
     7
370
    18
100
AcDbMText
 10
31.3670583053
 20
6.8911444745
 30
0.0
 40
0.375
 41
0.0
 71
     1
 72
     1
  1
5"
  7
SLDTEXTSTYLE1
 73
     1
 44
1.0
  0
MTEXT
  5
315
330
307
100
AcDbEntity
  8
0
  6
Continuous
 62
     7
370
    18
100
AcDbMText
 10
30.4157953169
 20
6.2196600846
 30
0.0
 40
0.375
 41
0.0
 71
     1
 72
     1
  1
126mm
  7
SLDTEXTSTYLE1
 73
     1
 44
1.0
  0
ENDBLK
  5
309
330
307
100
AcDbEntity
  8
0
100
AcDbBlockEnd
  0
BLOCK
  5
325
330
324
100
AcDbEntity
  8
0
100
AcDbBlockBegin
  2
_D_12
 70
     0
 10
0.0
 20
0.0
 30
0.0
  3
_D_12
  1

  0
SOLID
  5
327
330
324
100
AcDbEntity
  8
0
  6
Continuous
 62
     7
370
    18
100
AcDbTrace
 10
18.1367980458
 20
2.2691121382
 30
0.0
 11
18.0767980458
 21
1.8791121382
 31
0.0
 12
18.1967980458
 22
1.8791121382
 32
0.0
 13
18.1967980458
 23
1.8791121382
 33
0.0
  0
SOLID
  5
328
330
324
100
AcDbEntity
  8
0
  6
Continuous
 62
     7
370
    18
100
AcDbTrace
 10
18.1367980458
 20
4.2691121382
 30
0.0
 11
18.1967980458
 21
4.6591121382
 31
0.0
 12
18.0767980458
 22
4.6591121382
 32
0.0
 13
18.0767980458
 23
4.6591121382
 33
0.0
  0
LINE
  5
329
330
324
100
AcDbEntity
  8
0
  6
Continuous
 62
     7
370
     0
100
AcDbLine
 10
17.3909647517
 20
3.2662474963
 30
0.0
 11
17.2767069404
 21
3.2662474963
 31
0.0
  0
LINE
  5
32A
330
324
100
AcDbEntity
  8
0
  6
Continuous
 62
     7
370
     0
100
AcDbLine
 10
17.2767069404
 20
3.2662474963
 30
0.0
 11
17.2767069404
 21
2.6709349784
 31
0.0
  0
LINE
  5
32B
330
324
100
AcDbEntity
  8
0
  6
Continuous
 62
     7
370
     0
100
AcDbLine
 10
17.2767069404
 20
2.6709349784
 30
0.0
 11
17.3909647517
 21
2.6709349784
 31
0.0
  0
LINE
  5
32C
330
324
100
AcDbEntity
  8
0
  6
Continuous
 62
     7
370
     0
100
AcDbLine
 10
18.8826314499
 20
3.2662474963
 30
0.0
 11
18.9968892612
 21
3.2662474963
 31
0.0
  0
LINE
  5
32D
330
324
100
AcDbEntity
  8
0
  6
Continuous
 62
     7
370
     0
100
AcDbLine
 10
18.9968892612
 20
3.2662474963
 30
0.0
 11
18.9968892612
 21
2.6709349784
 31
0.0
  0
LINE
  5
32E
330
324
100
AcDbEntity
  8
0
  6
Continuous
 62
     7
370
     0
100
AcDbLine
 10
18.9968892612
 20
2.6709349784
 30
0.0
 11
18.8826314499
 21
2.6709349784
 31
0.0
  0
LINE
  5
32F
330
324
100
AcDbEntity
  8
0
  6
Continuous
 62
     7
370
     0
100
AcDbLine
 10
19.4134447321
 20
2.2691121382
 30
0.0
 11
17.7617980458
 21
2.2691121382
 31
0.0
  0
LINE
  5
330
330
324
100
AcDbEntity
  8
0
  6
Continuous
 62
     7
370
     0
100
AcDbLine
 10
19.4434447321
 20
4.2691121382
 30
0.0
 11
17.7617980458
 21
4.2691121382
 31
0.0
  0
LINE
  5
331
330
324
100
AcDbEntity
  8
0
  6
Continuous
 62
     7
370
     0
100
AcDbLine
 10
18.1367980458
 20
2.2691121382
 30
0.0
 11
18.1367980458
 21
1.5191121382
 31
0.0
  0
LINE
  5
332
330
324
100
AcDbEntity
  8
0
  6
Continuous
 62
     7
370
     0
100
AcDbLine
 10
18.1367980458
 20
4.2691121382
 30
0.0
 11
18.1367980458
 21
5.0191121382
 31
0.0
  0
MTEXT
  5
333
330
324
100
AcDbEntity
  8
0
  6
Continuous
 62
     7
370
    18
100
AcDbMText
 10
17.164532462
 20
3.8315489788
 30
0.0
 40
0.375
 41
0.0
 71
     1
 72
     1
  1

  7
SLDTEXTSTYLE1
 73
     1
 44
1.0
  0
MTEXT
  5
334
330
324
100
AcDbEntity
  8
0
  6
Continuous
 62
     7
370
    18
100
AcDbMText
 10
17.920912656
 20
3.8258197844
 30
0.0
 40
0.375
 41
0.0
 71
     1
 72
     1
  1
2"
  7
SLDTEXTSTYLE1
 73
     1
 44
1.0
  0
MTEXT
  5
335
330
324
100
AcDbEntity
  8
0
  6
Continuous
 62
     7
370
    18
100
AcDbMText
 10
17.3909647517
 20
3.154335422
 30
0.0
 40
0.375
 41
0.0
 71
     1
 72
     1
  1
51mm
  7
SLDTEXTSTYLE1
 73
     1
 44
1.0
  0
MTEXT
  5
336
330
324
100
AcDbEntity
  8
0
  6
Continuous
 62
     7
370
    18
100
AcDbMText
 10
19.2517719901
 20
3.8315489788
 30
0.0
 40
0.375
 41
0.0
 71
     1
 72
     1
  1

  7
SLDTEXTSTYLE1
 73
     1
 44
1.0
  0
ENDBLK
  5
326
330
324
100
AcDbEntity
  8
0
100
AcDbBlockEnd
  0
ENDSEC
  0
SECTION
  2
ENTITIES
  0
INSERT
  5
8A
330
1F
100
AcDbEntity
  8
0
  6
Continuous
 62
     7
100
AcDbBlockReference
  2
SW_BROKEN_VIEW_0
 10
0.0
 20
0.0
 30
0.0
  0
LINE
  5
8B
330
1F
100
AcDbEntity
  8
0
  6
Continuous
 62
     7
370
    25
100
AcDbLine
 10
6.7472340654
 20
22.4477234276
 30
0.0
 11
6.7472340654
 21
22.1227232354
 31
0.0
  0
LINE
  5
8C
330
1F
100
AcDbEntity
  8
0
  6
Continuous
 62
     7
370
    25
100
AcDbLine
 10
11.7172341982
 20
22.1227232354
 30
0.0
 11
11.7172341982
 21
22.4477234276
 31
0.0
  0
LINE
  5
8D
330
1F
100
AcDbEntity
  8
0
  6
Continuous
 62
     7
370
    25
100
AcDbLine
 10
6.7472340654
 20
22.1227232354
 30
0.0
 11
6.7972340611
 21
22.0727233863
 31
0.0
  0
LINE
  5
8E
330
1F
100
AcDbEntity
  8
0
  6
Continuous
 62
     7
370
    25
100
AcDbLine
 10
11.6672342025
 20
22.0727233863
 30
0.0
 11
11.7172341982
 21
22.1227232354
 31
0.0
  0
LINE
  5
8F
330
1F
100
AcDbEntity
  8
0
  6
Continuous
 62
     7
370
    25
100
AcDbLine
 10
9.620280939
 20
22.7446765838
 30
0.0
 11
9.5872341308
 21
22.7777231354
 31
0.0
  0
LINE
  5
90
330
1F
100
AcDbEntity
  8
0
  6
Continuous
 62
     7
370
    25
100
AcDbLine
 10
8.8772341328
 20
22.7777231354
 30
0.0
 11
8.8750186484
 21
22.7755079077
 31
0.0
  0
LWPOLYLINE
  5
91
330
1F
100
AcDbEntity
  8
0
  6
Continuous
 62
     7
370
    25
100
AcDbPolyline
 90
        3
 70
   128
 43
0.0
 10
9.5761545088
 20
22.7188641354
 10
9.6061142394
 20
22.7361905485
 10
9.6199573961
 20
22.7441937628
  0
LINE
  5
92
330
1F
100
AcDbEntity
  8
0
  6
Continuous
 62
     7
370
    25
100
AcDbLine
 10
8.8732882584
 20
22.7637260171
 30
0.0
 11
8.8880731142
 21
22.7551355563
 31
0.0
  0
LINE
  5
93
330
1F
100
AcDbEntity
  8
0
  6
Continuous
 62
     7
370
    25
100
AcDbLine
 10
9.6372341265
 20
22.6127232815
 30
0.0
 11
9.6372341265
 21
22.6129825852
 31
0.0
  0
LWPOLYLINE
  5
94
330
1F
100
AcDbEntity
  8
0
  6
Continuous
 62
     7
370
    25
100
AcDbPolyline
 90
        3
 70
   128
 43
0.0
 10
8.8583330511
 20
22.629557487
 10
8.8602395491
 20
22.6284504598
 10
8.860539589
 20
22.6282762218
  0
LINE
  5
95
330
1F
100
AcDbEntity
  8
0
  6
Continuous
 62
     7
370
    25
100
AcDbLine
 10
8.8694004999
 20
22.6231276946
 30
0.0
 11
8.8873075964
 21
22.6127232815
 31
0.0
  0
LWPOLYLINE
  5
96
330
1F
100
AcDbEntity
  8
0
  6
Continuous
 62
     7
370
    25
100
AcDbPolyline
 90
        3
 70
   128
 43
0.0
 10
9.5761545088
 20
22.6474353605
 10
9.6064952383
 20
22.6649823578
 10
9.6368447677
 20
22.6825287684
  0
SPLINE
  5
97
330
1F
100
AcDbEntity
  8
0
  6
Continuous
 62
     7
370
    25
100
AcDbSpline
210
0.0
220
0.0
230
1.0
 70
     8
 71
     3
 72
     9
 73
     5
 74
     0
 42
0.00000001
 43
0.00000001
 40
0.0
 40
0.0
 40
0.0
 40
0.0
 40
0.4866852888680837
 40
1.0
 40
1.0
 40
1.0
 40
1.0
 10
8.858302691485852
 20
22.70100386168343
 30
0.0
 10
8.85894833977426
 20
22.70062903607786
 30
0.0
 10
8.860274963576492
 20
22.69985887594738
 30
0.0
 10
8.861601219064013
 20
22.69908808172984
 30
0.0
 10
8.862282005516477
 20
22.69869242171872
 30
0.0
  0
LINE
  5
98
330
1F
100
AcDbEntity
  8
0
  6
Continuous
 62
     7
370
    25
100
AcDbLine
 10
8.8724114218
 20
22.6928070497
 30
0.0
 11
8.8880731142
 21
22.6837073682
 31
0.0
  0
LINE
  5
99
330
1F
100
AcDbEntity
  8
0
  6
Continuous
 62
     7
370
    25
100
AcDbLine
 10
9.6372341265
 20
22.6830110029
 30
0.0
 11
9.6372341265
 21
22.68441136
 31
0.0
  0
LWPOLYLINE
  5
9A
330
1F
100
AcDbEntity
  8
0
  6
Continuous
 62
     7
370
    25
100
AcDbPolyline
 90
        3
 70
   128
 43
0.0
 10
9.6368568309
 20
22.684901221
 10
9.6065082915
 20
22.702452325
 10
9.577146734
 20
22.7194378887
  0
LINE
  5
9B
330
1F
100
AcDbEntity
  8
0
  6
Continuous
 62
     7
370
    25
100
AcDbLine
 10
8.8672680646
 20
22.7419984814
 30
0.0
 11
8.8656194036
 21
22.7410428125
 31
0.0
  0
LWPOLYLINE
  5
9C
330
1F
100
AcDbEntity
  8
0
  6
Continuous
 62
     7
370
    25
100
AcDbPolyline
 90
        3
 70
   128
 43
0.0
 10
9.6368568309
 20
22.6134730328
 10
9.6065082915
 20
22.6310235501
 10
9.577146734
 20
22.6480091139
  0
LINE
  5
9D
330
1F
100
AcDbEntity
  8
0
  6
Continuous
 62
     7
370
    25
100
AcDbLine
 10
8.8672680646
 20
22.6705702933
 30
0.0
 11
8.8656194036
 21
22.6696140376
 31
0.0
  0
LINE
  5
9E
330
1F
100
AcDbEntity
  8
0
  6
Continuous
 62
     7
370
    25
100
AcDbLine
 10
8.7322341378
 20
22.0727233863
 30
0.0
 11
8.7322341378
 21
19.3630223157
 31
0.0
  0
LINE
  5
9F
330
1F
100
AcDbEntity
  8
0
  6
Continuous
 62
     7
370
    25
100
AcDbLine
 10
9.7322341258
 20
19.1914592042
 30
0.0
 11
9.7322341258
 21
22.0727233863
 31
0.0
  0
LINE
  5
A0
330
1F
100
AcDbEntity
  8
0
  6
Continuous
 62
     7
370
    25
100
AcDbLine
 10
8.7322341378
 20
22.6127232815
 30
0.0
 11
8.685645716
 21
22.5858255122
 31
0.0
  0
LINE
  5
A1
330
1F
100
AcDbEntity
  8
0
  6
Continuous
 62
     7
370
    25
100
AcDbLine
 10
9.7788225476
 20
22.5858255122
 30
0.0
 11
9.7322341258
 21
22.6127232815
 31
0.0
  0
LINE
  5
A2
330
1F
100
AcDbEntity
  8
0
  6
Continuous
 62
     7
370
    25
100
AcDbLine
 10
6.7472340654
 20
22.1227232354
 30
0.0
 11
11.7172341982
 21
22.1227232354
 31
0.0
  0
LINE
  5
A3
330
1F
100
AcDbEntity
  8
0
  6
Continuous
 62
     7
370
    25
100
AcDbLine
 10
6.7472340654
 20
22.4477234276
 30
0.0
 11
11.7172341982
 21
22.4477234276
 31
0.0
  0
LINE
  5
A4
330
1F
100
AcDbEntity
  8
0
  6
Continuous
 62
     7
370
    25
100
AcDbLine
 10
11.6672342025
 20
22.0727233863
 30
0.0
 11
6.7972340611
 21
22.0727233863
 31
0.0
  0
SPLINE
  5
A5
330
1F
100
AcDbEntity
  8
0
  6
Continuous
 62
     7
370
    25
100
AcDbSpline
210
0.0
220
0.0
230
1.0
 70
     8
 71
     3
 72
     9
 73
     5
 74
     0
 42
0.00000001
 43
0.00000001
 40
0.0
 40
0.0
 40
0.0
 40
0.0
 40
0.0823127370920563
 40
1.0
 40
1.0
 40
1.0
 40
1.0
 10
8.877284585538726
 20
22.77772313541583
 30
0.0
 10
8.876989250430496
 20
22.77743979550512
 30
0.0
 10
8.873401286785201
 20
22.77399755897249
 30
0.0
 10
8.870084235898403
 20
22.7702881159298
 30
0.0
 10
8.867040220549171
 20
22.76688400729704
 30
0.0
  0
SPLINE
  5
A6
330
1F
100
AcDbEntity
  8
0
  6
Continuous
 62
     7
370
    25
100
AcDbSpline
210
0.0
220
0.0
230
1.0
 70
     8
 71
     3
 72
    30
 73
    26
 74
     0
 42
0.00000001
 43
0.00000001
 40
0.0
 40
0.0
 40
0.0
 40
0.0
 40
0.0501649939524105
 40
0.1034565608385198
 40
0.1884817726080626
 40
0.278883350623428
 40
0.3692573992615565
 40
0.4614398989252527
 40
0.5135994080661578
 40
0.564742705611231
 40
0.615940017277673
 40
0.6652961298029398
 40
0.7109499416995357
 40
0.7542094163404753
 40
0.7959157757546481
 40
0.8344546364322256
 40
0.8683300352617745
 40
0.8987620538201768
 40
0.9262345795645626
 40
0.9495895945448745
 40
0.9680619943325951
 40
0.9824042699344778
 40
0.9927399284070959
 40
0.9985467373005321
 40
1.0
 40
1.0
 40
1.0
 40
1.0
 10
8.996256369499857
 20
22.7288373534819
 30
0.0
 10
9.006696431343713
 20
22.7290633373761
 30
0.0
 10
9.028227240144988
 20
22.7295293897895
 30
0.0
 10
9.067454235726421
 20
22.73032112928257
 30
0.0
 10
9.11505657390876
 20
22.73121671672129
 30
0.0
 10
9.170377773734229
 20
22.73220114579904
 30
0.0
 10
9.227188108319467
 20
22.73324050196646
 30
0.0
 10
9.276039109392604
 20
22.73413819508231
 30
0.0
 10
9.316724929639507
 20
22.73489451464703
 30
0.0
 10
9.34888058493382
 20
22.73549389119556
 30
0.0
 10
9.380452656560168
 20
22.7360888512864
 30
0.0
 10
9.410881722039202
 20
22.73668873842165
 30
0.0
 10
9.439657836935071
 20
22.73730006313722
 30
0.0
 10
9.466841165054296
 20
22.73791259496931
 30
0.0
 10
9.492542720745806
 20
22.73853533313984
 30
0.0
 10
9.516290558823558
 20
22.73915380360084
 30
0.0
 10
9.537690288005383
 20
22.73976076661969
 30
0.0
 10
9.556788183630442
 20
22.74034373101576
 30
0.0
 10
9.573688069517289
 20
22.74094210129298
 30
0.0
 10
9.588116479575804
 20
22.74151807710239
 30
0.0
 10
9.599752967517313
 20
22.74219391660009
 30
0.0
 10
9.608819896707697
 20
22.74259421277693
 30
0.0
 10
9.614908024757503
 20
22.74359401996699
 30
0.0
 10
9.61891727425091
 20
22.7434116347236
 30
0.0
 10
9.620042439370298
 20
22.74445436525598
 30
0.0
 10
9.620267665868113
 20
22.74466309066163
 30
0.0
  0
LINE
  5
A7
330
1F
100
AcDbEntity
  8
0
  6
Continuous
 62
     7
370
    25
100
AcDbLine
 10
8.9962563695
 20
22.7288373535
 30
0.0
 11
8.9926160166
 21
22.7346059802
 31
0.0
  0
SPLINE
  5
A8
330
1F
100
AcDbEntity
  8
0
  6
Continuous
 62
     7
370
    25
100
AcDbSpline
210
0.0
220
0.0
230
1.0
 70
     8
 71
     3
 72
    21
 73
    17
 74
     0
 42
0.00000001
 43
0.00000001
 40
0.0
 40
0.0
 40
0.0
 40
0.0
 40
0.0436640419562204
 40
0.094254599904799
 40
0.1508305879431819
 40
0.2129455972128583
 40
0.2799295806501532
 40
0.3504902306737159
 40
0.4245676409396547
 40
0.5008965721492772
 40
0.5781444829704957
 40
0.6585541329935697
 40
0.7384694051096341
 40
0.8164480549953945
 40
0.9111498966511706
 40
1.0
 40
1.0
 40
1.0
 40
1.0
 10
9.521886085713856
 20
22.77772313541583
 30
0.0
 10
9.51422602129408
 20
22.77668533654305
 30
0.0
 10
9.497690760819232
 20
22.77444511064656
 30
0.0
 10
9.471156389878221
 20
22.77144632764787
 30
0.0
 10
9.441344914226965
 20
22.7683858535811
 30
0.0
 10
9.408608384964701
 20
22.76541800598882
 30
0.0
 10
9.373382297332762
 20
22.76250973523932
 30
0.0
 10
9.33602953524477
 20
22.75963055179923
 30
0.0
 10
9.297020452275895
 20
22.75671622800195
 30
0.0
 10
9.256827003737676
 20
22.75376504584072
 30
0.0
 10
9.215511653690065
 20
22.75078539352082
 30
0.0
 10
9.173556646431633
 20
22.74785031073623
 30
0.0
 10
9.131469104216434
 20
22.74495676656636
 30
0.0
 10
9.086861069185517
 20
22.74183653410978
 30
0.0
 10
9.040686108332197
 20
22.73844875941329
 30
0.0
 10
9.008295166722695
 20
22.73585938973867
 30
0.0
 10
8.992616016553526
 20
22.73460598017556
 30
0.0
  0
LINE
  5
A9
330
1F
100
AcDbEntity
  8
0
  6
Continuous
 62
     7
370
    25
100
AcDbLine
 10
9.5218860857
 20
22.7777231354
 30
0.0
 11
9.5872341308
 21
22.7777231354
 31
0.0
  0
LINE
  5
AA
330
1F
100
AcDbEntity
  8
0
  6
Continuous
 62
     7
370
    25
100
AcDbLine
 10
8.8772341328
 20
22.7777231354
 30
0.0
 11
8.8772845855
 21
22.7777231354
 31
0.0
  0
SPLINE
  5
AB
330
1F
100
AcDbEntity
  8
0
  6
Continuous
 62
     7
370
    25
100
AcDbSpline
210
0.0
220
0.0
230
1.0
 70
     8
 71
     3
 72
     9
 73
     5
 74
     0
 42
0.00000001
 43
0.00000001
 40
0.0
 40
0.0
 40
0.0
 40
0.0
 40
0.8405108039908135
 40
0.9999999999999999
 40
0.9999999999999999
 40
0.9999999999999999
 40
0.9999999999999999
 10
8.890339454727764
 20
22.75649132735416
 30
0.0
 10
8.883600850893984
 20
22.7589760832735
 30
0.0
 10
8.875583578775908
 20
22.76193232834202
 30
0.0
 10
8.86821537020946
 20
22.76620289763414
 30
0.0
 10
8.867040220549171
 20
22.76688400729704
 30
0.0
  0
SPLINE
  5
AC
330
1F
100
AcDbEntity
  8
0
  6
Continuous
 62
     7
370
    25
100
AcDbSpline
210
0.0
220
0.0
230
1.0
 70
     8
 71
     3
 72
    26
 73
    22
 74
     0
 42
0.00000001
 43
0.00000001
 40
0.0
 40
0.0
 40
0.0
 40
0.0
 40
0.0078747237985377
 40
0.0265387589407195
 40
0.0549817807614201
 40
0.0922193763035759
 40
0.1378641784115646
 40
0.1917740082482649
 40
0.252587823041877
 40
0.318537189894208
 40
0.3878927733416768
 40
0.4609297620681871
 40
0.5361764445044683
 40
0.6115011364426697
 40
0.6847791506937841
 40
0.7551593983679857
 40
0.8225139539067816
 40
0.8848574131959934
 40
0.9404258501870341
 40
0.987947715014283
 40
1.0
 40
1.0
 40
1.0
 40
1.0
 10
9.575920468170725
 20
22.71886413536003
 30
0.0
 10
9.574343832567788
 20
22.71834484398547
 30
0.0
 10
9.569030382436175
 20
22.71659477008296
 30
0.0
 10
9.55740874672932
 20
22.71569537289353
 30
0.0
 10
9.539794459971954
 20
22.71395224546933
 30
0.0
 10
9.51639234958383
 20
22.71258908772108
 30
0.0
 10
9.48766435702628
 20
22.711056805559
 30
0.0
 10
9.453960595263014
 20
22.70950450679771
 30
0.0
 10
9.415986221160658
 20
22.7079279865025
 30
0.0
 10
9.374757730651668
 20
22.70637835122402
 30
0.0
 10
9.330954293238431
 20
22.70489546683771
 30
0.0
 10
9.285196073313843
 20
22.70334580915735
 30
0.0
 10
9.238182487854655
 20
22.70176524148327
 30
0.0
 10
9.191118071979778
 20
22.70018729574931
 30
0.0
 10
9.145076227877032
 20
22.69866210003206
 30
0.0
 10
9.100710946562694
 20
22.69716621163891
 30
0.0
 10
9.058649823903334
 20
22.69560124861845
 30
0.0
 10
9.019707237693979
 20
22.69402759120366
 30
0.0
 10
8.984940313279642
 20
22.69246516723643
 30
0.0
 10
8.960746264706632
 20
22.69128592628179
 30
0.0
 10
8.948234411068821
 20
22.69056613608314
 30
0.0
 10
8.945703171828045
 20
22.69042051727646
 30
0.0
  0
SPLINE
  5
AD
330
1F
100
AcDbEntity
  8
0
  6
Continuous
 62
     7
370
    25
100
AcDbSpline
210
0.0
220
0.0
230
1.0
 70
     8
 71
     3
 72
    10
 73
     6
 74
     0
 42
0.00000001
 43
0.00000001
 40
0.0
 40
0.0
 40
0.0
 40
0.0
 40
0.2444682186893669
 40
0.6371885568068713
 40
1.0
 40
1.0
 40
1.0
 40
1.0
 10
8.996256369499857
 20
22.7288373534819
 30
0.0
 10
8.992529513791846
 20
22.7252222351777
 30
0.0
 10
8.982815736586995
 20
22.71579969335496
 30
0.0
 10
8.966511039146853
 20
22.70199784633185
 30
0.0
 10
8.952453632872826
 20
22.69417641919537
 30
0.0
 10
8.945703171828045
 20
22.69042051727646
 30
0.0
  0
LINE
  5
AE
330
1F
100
AcDbEntity
  8
0
  6
Continuous
 62
     7
370
    25
100
AcDbLine
 10
8.8390969134
 20
22.6445437139
 30
0.0
 11
8.8390969134
 21
22.6459452444
 31
0.0
  0
SPLINE
  5
AF
330
1F
100
AcDbEntity
  8
0
  6
Continuous
 62
     7
370
    25
100
AcDbSpline
210
0.0
220
0.0
230
1.0
 70
     8
 71
     3
 72
    10
 73
     6
 74
     0
 42
0.00000001
 43
0.00000001
 40
0.0
 40
0.0
 40
0.0
 40
0.0
 40
0.4469950021710743
 40
0.6880303561128657
 40
1.0
 40
1.0
 40
1.0
 40
1.0
 10
8.890339454727764
 20
22.61363436431666
 30
0.0
 10
8.881964032452336
 20
22.61695434209489
 30
0.0
 10
8.86907228927228
 20
22.62206456811967
 30
0.0
 10
8.852455256249705
 20
22.63346081776879
 30
0.0
 10
8.843914855145998
 20
22.6405457053626
 30
0.0
 10
8.839096913352641
 20
22.6445425405961
 30
0.0
  0
SPLINE
  5
B0
330
1F
100
AcDbEntity
  8
0
  6
Continuous
 62
     7
370
    25
100
AcDbSpline
210
0.0
220
0.0
230
1.0
 70
     8
 71
     3
 72
    28
 73
    24
 74
     0
 42
0.00000001
 43
0.00000001
 40
0.0
 40
0.0
 40
0.0
 40
0.0
 40
0.0005365375290225
 40
0.0089762607843079
 40
0.0243147353765883
 40
0.0464419813270141
 40
0.0751277348245775
 40
0.1100576964355446
 40
0.1508438811141928
 40
0.1970308497701753
 40
0.2481016354494567
 40
0.3034839066749894
 40
0.3625567035938325
 40
0.4246572946772072
 40
0.4890888421667045
 40
0.5551283028268496
 40
0.6220344836826751
 40
0.6890564432938544
 40
0.7554419258370682
 40
0.8204458592223761
 40
0.8833387530297956
 40
0.9434147693719915
 40
1.0
 40
1.0
 40
1.0
 40
1.0
 10
9.636419842610124
 20
22.68250882200638
 30
0.0
 10
9.63636227219061
 20
22.68240853848743
 30
0.0
 10
9.635399120367902
 20
22.68073079747264
 30
0.0
 10
9.628908322002365
 20
22.68144325526658
 30
0.0
 10
9.62009580197439
 20
22.67923624850502
 30
0.0
 10
9.605595789240517
 20
22.67859570303806
 30
0.0
 10
9.58750239768454
 20
22.67722209092819
 30
0.0
 10
9.565190861898088
 20
22.67611334137541
 30
0.0
 10
9.539221605151738
 20
22.67490083760271
 30
0.0
 10
9.509777300343995
 20
22.67371721618984
 30
0.0
 10
9.47722443124703
 20
22.67252066040022
 30
0.0
 10
9.441917106456144
 20
22.67132558932635
 30
0.0
 10
9.40425536804697
 20
22.67012869115108
 30
0.0
 10
9.364661216593303
 20
22.66893000444789
 30
0.0
 10
9.3235796196591
 20
22.66773198693483
 30
0.0
 10
9.2814719818302
 20
22.66653328506765
 30
0.0
 10
9.238811280857375
 20
22.66533448279933
 30
0.0
 10
9.196076699838015
 20
22.66413570472839
 30
0.0
 10
9.153748266211686
 20
22.66293679202326
 30
0.0
 10
9.11230138495819
 20
22.66173914484622
 30
0.0
 10
9.0722017602481
 20
22.66053850270022
 30
0.0
 10
9.033899385090455
 20
22.65934745607096
 30
0.0
 10
9.009015407636687
 20
22.65850839913008
 30
0.0
 10
8.996945713203168
 20
22.65810142396272
 30
0.0
  0
SPLINE
  5
B1
330
1F
100
AcDbEntity
  8
0
  6
Continuous
 62
     7
370
    25
100
AcDbSpline
210
0.0
220
0.0
230
1.0
 70
     8
 71
     3
 72
    10
 73
     6
 74
     0
 42
0.00000001
 43
0.00000001
 40
0.0
 40
0.0
 40
0.0
 40
0.0
 40
0.3797875341591965
 40
0.6801721095798061
 40
1.0
 40
1.0
 40
1.0
 40
1.0
 10
8.890339454727764
 20
22.68506255250546
 30
0.0
 10
8.883197051197076
 20
22.6878023020297
 30
0.0
 10
8.870405521091449
 20
22.69270899602571
 30
0.0
 10
8.85362619352778
 20
22.7039363478495
 30
0.0
 10
8.8440401788165
 20
22.71187629747518
 30
0.0
 10
8.839096913352641
 20
22.71597072878491
 30
0.0
  0
SPLINE
  5
B2
330
1F
100
AcDbEntity
  8
0
  6
Continuous
 62
     7
370
    25
100
AcDbSpline
210
0.0
220
0.0
230
1.0
 70
     8
 71
     3
 72
    26
 73
    22
 74
     0
 42
0.00000001
 43
0.00000001
 40
0.0
 40
0.0
 40
0.0
 40
0.0
 40
0.0005265134366569
 40
0.0119502125256986
 40
0.0334805402632058
 40
0.0645668074302655
 40
0.1041541537380072
 40
0.1522813560475769
 40
0.2083358434074596
 40
0.270825615469853
 40
0.3378944702098279
 40
0.4082818774191949
 40
0.4821769252911969
 40
0.5576841162433747
 40
0.6326525143694296
 40
0.7050267911958126
 40
0.7747489907412406
 40
0.8408851146849358
 40
0.9014710607965922
 40
0.9547911223800496
 40
1.0
 40
1.0
 40
1.0
 40
1.0
 10
9.575632674828674
 20
22.6474312538921
 30
0.0
 10
9.575596975672175
 20
22.64732513727101
 30
0.0
 10
9.574786716185065
 20
22.64491662100848
 30
0.0
 10
9.565154151883945
 20
22.64633789879792
 30
0.0
 10
9.553619524694906
 20
22.64306072625566
 30
0.0
 10
9.533421558694304
 20
22.64241485567063
 30
0.0
 10
9.508812123371026
 20
22.64063090907595
 30
0.0
 10
9.478493028075295
 20
22.63922283240703
 30
0.0
 10
9.44351385182509
 20
22.63761440393567
 30
0.0
 10
9.4044943671046
 20
22.63605571997333
 30
0.0
 10
9.36247324338851
 20
22.63451986685524
 30
0.0
 10
9.318045517672429
 20
22.63303223598176
 30
0.0
 10
9.271846063731324
 20
22.63146635960582
 30
0.0
 10
9.224682726999058
 20
22.62988450085137
 30
0.0
 10
9.177839162242583
 20
22.62831356608545
 30
0.0
 10
9.132210528108871
 20
22.62681517776388
 30
0.0
 10
9.088441313905024
 20
22.62529375063931
 30
0.0
 10
9.047154713283751
 20
22.62372471821448
 30
0.0
 10
9.009321219127871
 20
22.62214255594945
 30
0.0
 10
8.97588985804372
 20
22.62063153112906
 30
0.0
 10
8.955197584871437
 20
22.6195078961536
 30
0.0
 10
8.945703171828045
 20
22.61899232908765
 30
0.0
  0
SPLINE
  5
B3
330
1F
100
AcDbEntity
  8
0
  6
Continuous
 62
     7
370
    25
100
AcDbSpline
210
0.0
220
0.0
230
1.0
 70
     8
 71
     3
 72
    10
 73
     6
 74
     0
 42
0.00000001
 43
0.00000001
 40
0.0
 40
0.0
 40
0.0
 40
0.0
 40
0.2558514920049662
 40
0.6426521349270309
 40
1.0
 40
1.0
 40
1.0
 40
1.0
 10
8.996945713203168
 20
22.65809849066327
 30
0.0
 10
8.992993598207017
 20
22.65424905217867
 30
0.0
 10
8.983066608452724
 20
22.64457996703473
 30
0.0
 10
8.966510485953236
 20
22.63057025452935
 30
0.0
 10
8.95245348845399
 20
22.6227484439871
 30
0.0
 10
8.945703171828045
 20
22.61899232908765
 30
0.0
  0
LINE
  5
B4
330
1F
100
AcDbEntity
  8
0
  6
Continuous
 62
     7
370
    25
100
AcDbLine
 10
8.8390969134
 20
22.7159724888
 30
0.0
 11
8.8390969134
 21
22.7173740192
 31
0.0
  0
LINE
  5
B5
330
1F
100
AcDbEntity
  8
0
  6
Continuous
 62
     7
370
    25
100
AcDbLine
 10
8.9969457132
 20
22.6595017811
 30
0.0
 11
8.9969457132
 21
22.6581002506
 31
0.0
  0
SPLINE
  5
B6
330
1F
100
AcDbEntity
  8
0
  6
Continuous
 62
     7
370
    25
100
AcDbSpline
210
0.0
220
0.0
230
1.0
 70
     8
 71
     3
 72
    28
 73
    24
 74
     0
 42
0.00000001
 43
0.00000001
 40
0.0
 40
0.0
 40
0.0
 40
0.0
 40
0.0014518770095264
 40
0.0098840739370897
 40
0.0252084988022169
 40
0.0473154766505977
 40
0.0759748944839899
 40
0.1108728609687695
 40
0.1516216863413861
 40
0.1977663486843294
 40
0.2487903883342789
 40
0.3041219305388027
 40
0.3631406179910304
 40
0.4251842984471037
 40
0.4895568279647138
 40
0.5555357978375886
 40
0.6223806940082764
 40
0.6893412886082215
 40
0.7556659634152392
 40
0.8206103545349556
 40
0.8834456123318345
 40
0.9434666002790635
 40
1.0
 40
1.0
 40
1.0
 40
1.0
 10
9.636723622434166
 20
22.68441136002809
 30
0.0
 10
9.636574342691391
 20
22.68413075164402
 30
0.0
 10
9.635558077535867
 20
22.68222042866391
 30
0.0
 10
9.628974289542288
 20
22.68275339532582
 30
0.0
 10
9.620063539434007
 20
22.68067990730648
 30
0.0
 10
9.605608940240865
 20
22.67997746658098
 30
0.0
 10
9.587497552992636
 20
22.67862926340141
 30
0.0
 10
9.565192516970582
 20
22.67751137209077
 30
0.0
 10
9.539221066657595
 20
22.67630191329
 30
0.0
 10
9.509777455715264
 20
22.67511752750871
 30
0.0
 10
9.47722439581912
 20
22.67392025547535
 30
0.0
 10
9.441917117731169
 20
22.67272545791213
 30
0.0
 10
9.404255376388154
 20
22.67152824588889
 30
0.0
 10
9.364661205013393
 20
22.67033058628418
 30
0.0
 10
9.323579620846097
 20
22.6691322951912
 30
0.0
 10
9.28147198301755
 20
22.66793360189542
 30
0.0
 10
9.238811269314182
 20
22.66673505421844
 30
0.0
 10
9.196076711785159
 20
22.66553524704545
 30
0.0
 10
9.153748262799724
 20
22.66433667977457
 30
0.0
 10
9.112301397900017
 20
22.66313867805639
 30
0.0
 10
9.07220174822471
 20
22.66193906583936
 30
0.0
 10
9.033899386501144
 20
22.66074776609149
 30
0.0
 10
9.009015408097442
 20
22.65990874089103
 30
0.0
 10
8.996945713203168
 20
22.65950178111901
 30
0.0
  0
SPLINE
  5
B7
330
1F
100
AcDbEntity
  8
0
  6
Continuous
 62
     7
370
    25
100
AcDbSpline
210
0.0
220
0.0
230
1.0
 70
     8
 71
     3
 72
    10
 73
     6
 74
     0
 42
0.00000001
 43
0.00000001
 40
0.0
 40
0.0
 40
0.0
 40
0.0
 40
0.4469718931195212
 40
0.6879950828713285
 40
0.9999999999999999
 40
0.9999999999999999
 40
0.9999999999999999
 40
0.9999999999999999
 10
8.945703171828045
 20
22.69042051727646
 30
0.0
 10
8.954078234599109
 20
22.68709881807557
 30
0.0
 10
8.96696942998282
 20
22.68198594016944
 30
0.0
 10
8.983586632352731
 20
22.67058687024853
 30
0.0
 10
8.99212728570044
 20
22.66350001265379
 30
0.0
 10
8.996945713203168
 20
22.65950178111901
 30
0.0
  0
SPLINE
  5
B8
330
1F
100
AcDbEntity
  8
0
  6
Continuous
 62
     7
370
    25
100
AcDbSpline
210
0.0
220
0.0
230
1.0
 70
     8
 71
     3
 72
    10
 73
     6
 74
     0
 42
0.00000001
 43
0.00000001
 40
0.0
 40
0.0
 40
0.0
 40
0.0
 40
0.2558523983598467
 40
0.6426539851553542
 40
1.0
 40
1.0
 40
1.0
 40
1.0
 10
8.839096913352641
 20
22.71737401924064
 30
0.0
 10
8.843048892036474
 20
22.72122445553867
 30
0.0
 10
8.852975532813328
 20
22.73089604059075
 30
0.0
 10
8.869531838145974
 20
22.74490901368239
 30
0.0
 10
8.883589058036726
 20
22.75273379887524
 30
0.0
 10
8.890339454727764
 20
22.75649132735416
 30
0.0
  0
LINE
  5
B9
330
1F
100
AcDbEntity
  8
0
  6
Continuous
 62
     7
370
    25
100
AcDbLine
 10
8.9457031718
 20
22.6189923291
 30
0.0
 11
8.9595235222
 21
22.6127232815
 31
0.0
  0
SPLINE
  5
BA
330
1F
100
AcDbEntity
  8
0
  6
Continuous
 62
     7
370
    25
100
AcDbSpline
210
0.0
220
0.0
230
1.0
 70
     8
 71
     3
 72
    10
 73
     6
 74
     0
 42
0.00000001
 43
0.00000001
 40
0.0
 40
0.0
 40
0.0
 40
0.0
 40
0.2558523983598467
 40
0.6426539851553542
 40
1.0
 40
1.0
 40
1.0
 40
1.0
 10
8.839096913352641
 20
22.64594524439195
 30
0.0
 10
8.843048892036474
 20
22.64979568068998
 30
0.0
 10
8.852975532813328
 20
22.65946726574206
 30
0.0
 10
8.869531838145974
 20
22.67348023883369
 30
0.0
 10
8.883589058036726
 20
22.68130502402654
 30
0.0
 10
8.890339454727764
 20
22.68506255250546
 30
0.0
  0
LINE
  5
BB
330
1F
100
AcDbEntity
  8
0
  6
Continuous
 62
     7
370
    25
100
AcDbLine
 10
9.3716716652
 20
22.7777231354
 30
0.0
 11
9.5218860857
 21
22.7777231354
 31
0.0
  0
SPLINE
  5
BC
330
1F
100
AcDbEntity
  8
0
  6
Continuous
 62
     7
370
    25
100
AcDbSpline
210
0.0
220
0.0
230
1.0
 70
     8
 71
     3
 72
    11
 73
     7
 74
     0
 42
0.00000001
 43
0.00000001
 40
0.0
 40
0.0
 40
0.0
 40
0.0
 40
0.2531037362481978
 40
0.5205359359012687
 40
0.8047458345414069
 40
0.9999999999999999
 40
0.9999999999999999
 40
0.9999999999999999
 40
0.9999999999999999
 10
8.945703171828045
 20
22.76184929212516
 30
0.0
 10
8.95005931967877
 20
22.76032990503913
 30
0.0
 10
8.959018221400303
 20
22.75720511679795
 30
0.0
 10
8.971833536507676
 20
22.7499983996013
 30
0.0
 10
8.983066517855573
 20
22.74232797320849
 30
0.0
 10
8.989852523117104
 20
22.73684061863539
 30
0.0
 10
8.992616016553526
 20
22.73460598017556
 30
0.0
  0
SPLINE
  5
BD
330
1F
100
AcDbEntity
  8
0
  6
Continuous
 62
     7
370
    25
100
AcDbSpline
210
0.0
220
0.0
230
1.0
 70
     8
 71
     3
 72
    18
 73
    14
 74
     0
 42
0.00000001
 43
0.00000001
 40
0.0
 40
0.0
 40
0.0
 40
0.0
 40
0.0833940896098422
 40
0.1705302441764892
 40
0.2813151586327245
 40
0.3931293947013404
 40
0.5027937383359866
 40
0.6080662081260588
 40
0.7093669768778481
 40
0.8040757694988726
 40
0.889446478201429
 40
0.9632875881491163
 40
1.0
 40
1.0
 40
1.0
 40
1.0
 10
9.371671665170327
 20
22.77772313541583
 30
0.0
 10
9.359829241617629
 20
22.77731370963634
 30
0.0
 10
9.335613000520311
 20
22.77647648629742
 30
0.0
 10
9.295663486983381
 20
22.77513048212229
 30
0.0
 10
9.251678122677127
 20
22.77364599436157
 30
0.0
 10
9.204493138919986
 20
22.77206535444727
 30
0.0
 10
9.158090824085626
 20
22.77051599657918
 30
0.0
 10
9.113180998598052
 20
22.76903152800667
 30
0.0
 10
9.070399797806147
 20
22.76747951742366
 30
0.0
 10
9.03044919380895
 20
22.76590641904237
 30
0.0
 10
8.994403885022988
 20
22.76433237396014
 30
0.0
 10
8.966595496211122
 20
22.76302055655198
 30
0.0
 10
8.950911488498889
 20
22.76214128050943
 30
0.0
 10
8.945703171828045
 20
22.76184929212516
 30
0.0
  0
LINE
  5
BE
330
1F
100
AcDbEntity
  8
0
  6
Continuous
 62
     7
370
    25
100
AcDbLine
 10
9.1889447827
 20
22.7777231354
 30
0.0
 11
9.3716716652
 21
22.7777231354
 31
0.0
  0
LINE
  5
BF
330
1F
100
AcDbEntity
  8
0
  6
Continuous
 62
     7
370
    25
100
AcDbLine
 10
8.9638951467
 20
22.7725499685
 30
0.0
 11
8.9457031718
 21
22.7618492921
 31
0.0
  0
SPLINE
  5
C0
330
1F
100
AcDbEntity
  8
0
  6
Continuous
 62
     7
370
    25
100
AcDbSpline
210
0.0
220
0.0
230
1.0
 70
     8
 71
     3
 72
    14
 73
    10
 74
     0
 42
0.00000001
 43
0.00000001
 40
0.0
 40
0.0
 40
0.0
 40
0.0
 40
0.1519579551696202
 40
0.3244550163009852
 40
0.4397162865702453
 40
0.5599826026377462
 40
0.6881144943512043
 40
0.8197387594935641
 40
1.0
 40
1.0
 40
1.0
 40
1.0
 10
8.9638951466728
 20
22.77254996851003
 30
0.0
 10
8.975293093225277
 20
22.77286914244833
 30
0.0
 10
8.999629567945233
 20
22.77355063085896
 30
0.0
 10
9.032614295746567
 20
22.77436852634875
 30
0.0
 10
9.06322263718629
 20
22.77508737681299
 30
0.0
 10
9.090503601410758
 20
22.77569725019454
 30
0.0
 10
9.119012849630305
 20
22.77629910374493
 30
0.0
 10
9.152023431942586
 20
22.77697058029453
 30
0.0
 10
9.175421400626506
 20
22.77744749299663
 30
0.0
 10
9.188944782713534
 20
22.77772313541583
 30
0.0
  0
LINE
  5
C1
330
1F
100
AcDbEntity
  8
0
  6
Continuous
 62
     7
370
    25
100
AcDbLine
 10
8.9638951467
 20
22.7725499685
 30
0.0
 11
8.9587580227
 21
22.7777231354
 31
0.0
  0
LINE
  5
C2
330
1F
100
AcDbEntity
  8
0
  6
Continuous
 62
     7
370
    25
100
AcDbLine
 10
8.9587580227
 20
22.7777231354
 30
0.0
 11
9.1889447827
 21
22.7777231354
 31
0.0
  0
LINE
  5
C3
330
1F
100
AcDbEntity
  8
0
  6
Continuous
 62
     7
370
    25
100
AcDbLine
 10
8.9587580227
 20
22.7777231354
 30
0.0
 11
8.8772845855
 21
22.7777231354
 31
0.0
  0
SPLINE
  5
C4
330
1F
100
AcDbEntity
  8
0
  6
Continuous
 62
     7
370
    25
100
AcDbSpline
210
0.0
220
0.0
230
1.0
 70
     8
 71
     3
 72
    12
 73
     8
 74
     0
 42
0.00000001
 43
0.00000001
 40
0.0
 40
0.0
 40
0.0
 40
0.0
 40
0.0682349900121336
 40
0.2933620909964568
 40
0.5214745783325856
 40
0.7581998684193618
 40
1.0
 40
1.0
 40
1.0
 40
1.0
 10
8.828646630741863
 20
22.61272328150823
 30
0.0
 10
8.824605887637752
 20
22.61267320167535
 30
0.0
 10
8.807233556433612
 20
22.61245789389138
 30
0.0
 10
8.776431243882444
 20
22.60903140563193
 30
0.0
 10
8.736573430932184
 20
22.5997471900816
 30
0.0
 10
8.696930732733497
 20
22.58606888812655
 30
0.0
 10
8.671226560569075
 20
22.57410855696644
 30
0.0
 10
8.658238175981541
 20
22.56806497073818
 30
0.0
  0
SPLINE
  5
C5
330
1F
100
AcDbEntity
  8
0
  6
Continuous
 62
     7
370
    25
100
AcDbSpline
210
0.0
220
0.0
230
1.0
 70
     8
 71
     3
 72
    11
 73
     7
 74
     0
 42
0.00000001
 43
0.00000001
 40
0.0
 40
0.0
 40
0.0
 40
0.0
 40
0.2551751982548186
 40
0.504700938173409
 40
0.7538913734954943
 40
1.0
 40
1.0
 40
1.0
 40
1.0
 10
8.999055067169063
 20
22.56806497073818
 30
0.0
 10
8.985342167401786
 20
22.5744349523433
 30
0.0
 10
8.958219964989652
 20
22.58703388717018
 30
0.0
 10
8.915808170756835
 20
22.60118727286117
 30
0.0
 10
8.872581063928374
 20
22.61083101091461
 30
0.0
 10
8.843230567728172
 20
22.6120951465103
 30
0.0
 10
8.828646630741863
 20
22.61272328150823
 30
0.0
  0
LINE
  5
C6
330
1F
100
AcDbEntity
  8
0
  6
Continuous
 62
     7
370
    25
100
AcDbLine
 10
8.9990550672
 20
22.5680649707
 30
0.0
 11
8.9990550672
 21
22.4477234276
 31
0.0
  0
LINE
  5
C7
330
1F
100
AcDbEntity
  8
0
  6
Continuous
 62
     7
370
    25
100
AcDbLine
 10
8.658238176
 20
22.5680649707
 30
0.0
 11
8.658238176
 21
22.4477234276
 31
0.0
  0
SPLINE
  5
C8
330
1F
100
AcDbEntity
  8
0
  6
Continuous
 62
     7
370
    25
100
AcDbSpline
210
0.0
220
0.0
230
1.0
 70
     8
 71
     3
 72
    12
 73
     8
 74
     0
 42
0.00000001
 43
0.00000001
 40
0.0
 40
0.0
 40
0.0
 40
0.0
 40
0.1844285125158041
 40
0.3688752707906653
 40
0.5558088342057901
 40
0.7427820323329438
 40
1.0
 40
1.0
 40
1.0
 40
1.0
 10
9.286053049660547
 20
22.61272328150823
 30
0.0
 10
9.268136010902479
 20
22.61239255149622
 30
0.0
 10
9.23230016082977
 20
22.61173105875263
 30
0.0
 10
9.178509281691284
 20
22.60654131874578
 30
0.0
 10
9.124873766396913
 20
22.59838843799523
 30
0.0
 10
9.0647663251087
 20
22.58613701882627
 30
0.0
 10
9.02315243832343
 20
22.57469228033403
 30
0.0
 10
8.999055067169063
 20
22.56806497073818
 30
0.0
  0
LINE
  5
C9
330
1F
100
AcDbEntity
  8
0
  6
Continuous
 62
     7
370
    25
100
AcDbLine
 10
9.2860530497
 20
22.6127232815
 30
0.0
 11
8.8286466307
 21
22.6127232815
 31
0.0
  0
SPLINE
  5
CA
330
1F
100
AcDbEntity
  8
0
  6
Continuous
 62
     7
370
    25
100
AcDbSpline
210
0.0
220
0.0
230
1.0
 70
     8
 71
     3
 72
    12
 73
     8
 74
     0
 42
0.00000001
 43
0.00000001
 40
0.0
 40
0.0
 40
0.0
 40
0.0
 40
0.18217503528734
 40
0.3643134306980887
 40
0.5480208932797119
 40
0.7316937190380739
 40
1.0
 40
1.0
 40
1.0
 40
1.0
 10
9.573051041318589
 20
22.56806497073818
 30
0.0
 10
9.556005739848105
 20
22.57282366598582
 30
0.0
 10
9.52191856513615
 20
22.58234009939053
 30
0.0
 10
9.469958957635642
 20
22.5940312046974
 30
0.0
 10
9.417376476680008
 20
22.60326533957249
 30
0.0
 10
9.356041632652584
 20
22.61090952882947
 30
0.0
 10
9.312123794303604
 20
22.61204765870073
 30
0.0
 10
9.286053049660547
 20
22.61272328150823
 30
0.0
  0
LINE
  5
CB
330
1F
100
AcDbEntity
  8
0
  6
Continuous
 62
     7
370
    25
100
AcDbLine
 10
9.5730510413
 20
22.5680649707
 30
0.0
 11
9.5730510413
 21
22.4477234276
 31
0.0
  0
SPLINE
  5
CC
330
1F
100
AcDbEntity
  8
0
  6
Continuous
 62
     7
370
    25
100
AcDbSpline
210
0.0
220
0.0
230
1.0
 70
     8
 71
     3
 72
    12
 73
     8
 74
     0
 42
0.00000001
 43
0.00000001
 40
0.0
 40
0.0
 40
0.0
 40
0.0
 40
0.0654134708098248
 40
0.282529946801032
 40
0.5073078155622017
 40
0.7474748613308441
 40
1.0
 40
1.0
 40
1.0
 40
1.0
 10
9.689640564466469
 20
22.61272328150823
 30
0.0
 10
9.68687529450186
 20
22.61267327516989
 30
0.0
 10
9.674931706028124
 20
22.61245729078721
 30
0.0
 10
9.653609940020662
 20
22.60895903156274
 30
0.0
 10
9.626248690421301
 20
22.59958335237232
 30
0.0
 10
9.59910624355735
 20
22.58580996181896
 30
0.0
 10
9.581880134999565
 20
22.57407805738339
 30
0.0
 10
9.573051041318589
 20
22.56806497073818
 30
0.0
  0
LINE
  5
CD
330
1F
100
AcDbEntity
  8
0
  6
Continuous
 62
     7
370
    25
100
AcDbLine
 10
9.6896405645
 20
22.6127232815
 30
0.0
 11
9.2860530497
 21
22.6127232815
 31
0.0
  0
SPLINE
  5
CE
330
1F
100
AcDbEntity
  8
0
  6
Continuous
 62
     7
370
    25
100
AcDbSpline
210
0.0
220
0.0
230
1.0
 70
     8
 71
     3
 72
    11
 73
     7
 74
     0
 42
0.00000001
 43
0.00000001
 40
0.0
 40
0.0
 40
0.0
 40
0.0
 40
0.2663163184189889
 40
0.5188600227903246
 40
0.7633933865931666
 40
0.9999999999999999
 40
0.9999999999999999
 40
0.9999999999999999
 40
0.9999999999999999
 10
9.806230087614349
 20
22.56806497073818
 30
0.0
 10
9.79691232419227
 20
22.57440240515631
 30
0.0
 10
9.778758667780096
 20
22.58674953200961
 30
0.0
 10
9.749731013177096
 20
22.60100145335737
 30
0.0
 10
9.720021282251155
 20
22.61078287533728
 30
0.0
 10
9.699655629451632
 20
22.61208362269446
 30
0.0
 10
9.689640564466469
 20
22.61272328150823
 30
0.0
  0
LINE
  5
CF
330
1F
100
AcDbEntity
  8
0
  6
Continuous
 62
     7
370
    25
100
AcDbLine
 10
9.8062300876
 20
22.5680649707
 30
0.0
 11
9.8062300876
 21
22.4477234276
 31
0.0
  0
LINE
  5
D0
330
1F
100
AcDbEntity
  8
0
  6
Continuous
 62
     7
370
    25
100
AcDbLine
 10
8.658238176
 20
22.5680649707
 30
0.0
 11
8.685674939
 21
22.5857750595
 31
0.0
  0
LINE
  5
D1
330
1F
100
AcDbEntity
  8
0
  6
Continuous
 62
     7
370
    25
100
AcDbLine
 10
8.8286466307
 20
22.6127232815
 30
0.0
 11
8.7322341378
 21
22.6127232815
 31
0.0
  0
LINE
  5
D2
330
1F
100
AcDbEntity
  8
0
  6
Continuous
 62
     7
370
    25
100
AcDbLine
 10
9.7322341258
 20
22.6127232815
 30
0.0
 11
9.6896405645
 21
22.6127232815
 31
0.0
  0
LINE
  5
D3
330
1F
100
AcDbEntity
  8
0
  6
Continuous
 62
     7
370
    25
100
AcDbLine
 10
4.6941470895
 20
12.2424102305
 30
0.0
 11
1.3389253693
 21
8.887188217
 31
0.0
  0
LINE
  5
D4
330
1F
100
AcDbEntity
  8
0
  6
Continuous
 62
     7
370
    25
100
AcDbLine
 10
6.1346168224
 20
10.5433255651
 30
0.0
 11
6.2639242886
 21
10.6726330313
 31
0.0
  0
LINE
  5
D5
330
1F
100
AcDbEntity
  8
0
  6
Continuous
 62
     7
370
    25
100
AcDbLine
 10
4.4784797676
 20
8.887188217
 30
0.0
 11
6.0391267788
 21
10.4478355216
 31
0.0
  0
LINE
  5
D6
330
1F
100
AcDbEntity
  8
0
  6
Continuous
 62
     7
370
    25
100
AcDbLine
 10
12.4253414847
 20
10.4478355216
 30
0.0
 11
13.985988496
 21
8.887188217
 31
0.0
  0
LINE
  5
D7
330
1F
100
AcDbEntity
  8
0
  6
Continuous
 62
     7
370
    25
100
AcDbLine
 10
12.200543975
 20
10.6726330313
 30
0.0
 11
12.3298514412
 21
10.5433255651
 31
0.0
  0
LINE
  5
D8
330
1F
100
AcDbEntity
  8
0
  6
Continuous
 62
     7
370
    25
100
AcDbLine
 10
17.1255428943
 20
8.887188217
 30
0.0
 11
13.7703211741
 21
12.2424102305
 31
0.0
  0
LINE
  5
D9
330
1F
100
AcDbEntity
  8
0
  6
Continuous
 62
     7
370
    25
100
AcDbLine
 10
10.888860901
 20
11.984316252
 30
0.0
 11
12.1934729633
 21
10.679704043
 31
0.0
  0
LINE
  5
DA
330
1F
100
AcDbEntity
  8
0
  6
Continuous
 62
     7
370
    25
100
AcDbLine
 10
13.7632498691
 20
12.2494812421
 30
0.0
 11
12.4586379534
 21
13.5540931578
 31
0.0
  0
LINE
  5
DB
330
1F
100
AcDbEntity
  8
0
  6
Continuous
 62
     7
370
    25
100
AcDbLine
 10
12.4586379534
 20
13.5540931578
 30
0.0
 11
12.4162115902
 21
13.5540931578
 31
0.0
  0
LINE
  5
DC
330
1F
100
AcDbEntity
  8
0
  6
Continuous
 62
     7
370
    25
100
AcDbLine
 10
10.888860901
 20
12.0267426152
 30
0.0
 11
10.888860901
 21
11.984316252
 31
0.0
  0
ARC
  5
DD
330
1F
100
AcDbEntity
  8
0
  6
Continuous
 62
     7
370
    25
100
AcDbCircle
 10
13.7561794727
 20
12.2424100838
 30
0.0
 40
0.0099995892957037
100
AcDbArc
 50
314.9969133079
 51
45.0030866921
  0
ARC
  5
DE
330
1F
100
AcDbEntity
  8
0
  6
Continuous
 62
     7
370
    25
100
AcDbCircle
 10
12.200543975
 20
10.6867750868
 30
0.0
 40
0.0099999433294086
100
AcDbArc
 50
225.0001303859
 51
314.999869614
  0
LINE
  5
DF
330
1F
100
AcDbEntity
  8
0
  6
Continuous
 62
     7
370
    25
100
AcDbLine
 10
7.5756073626
 20
11.984316252
 30
0.0
 11
7.5756073626
 21
12.0267426152
 31
0.0
  0
LINE
  5
E0
330
1F
100
AcDbEntity
  8
0
  6
Continuous
 62
     7
370
    25
100
AcDbLine
 10
6.0482566734
 20
13.5540931578
 30
0.0
 11
6.0058303102
 21
13.5540931578
 31
0.0
  0
LINE
  5
E1
330
1F
100
AcDbEntity
  8
0
  6
Continuous
 62
     7
370
    25
100
AcDbLine
 10
6.0058303102
 20
13.5540931578
 30
0.0
 11
4.7012183945
 21
12.2494812421
 31
0.0
  0
LINE
  5
E2
330
1F
100
AcDbEntity
  8
0
  6
Continuous
 62
     7
370
    25
100
AcDbLine
 10
6.2709953003
 20
10.679704043
 30
0.0
 11
7.5756073626
 21
11.984316252
 31
0.0
  0
ARC
  5
E3
330
1F
100
AcDbEntity
  8
0
  6
Continuous
 62
     7
370
    25
100
AcDbCircle
 10
6.2639242886
 20
10.6867750868
 30
0.0
 40
0.0099999433294086
100
AcDbArc
 50
225.000130386
 51
314.999869614
  0
ARC
  5
E4
330
1F
100
AcDbEntity
  8
0
  6
Continuous
 62
     7
370
    25
100
AcDbCircle
 10
4.7082887909
 20
12.2424100838
 30
0.0
 40
0.0099995892957037
100
AcDbArc
 50
134.9969133079
 51
225.0030866921
  0
LINE
  5
E5
330
1F
100
AcDbEntity
  8
0
  6
Continuous
 62
     7
370
    25
100
AcDbLine
 10
7.8402340923
 20
13.6637199447
 30
0.0
 11
7.1851341667
 21
13.6637199447
 31
0.0
  0
LINE
  5
E6
330
1F
100
AcDbEntity
  8
0
  6
Continuous
 62
     7
370
    25
100
AcDbLine
 10
7.3952698726
 20
12.6737199413
 30
0.0
 11
7.8402340923
 21
12.6737199413
 31
0.0
  0
ARC
  5
E7
330
1F
100
AcDbEntity
  8
0
  6
Continuous
 62
     7
370
    25
100
AcDbCircle
 10
7.185133931
 20
13.1688203973
 30
0.0
 40
0.4948995474002846
100
AcDbArc
 50
89.9999727093
 51
141.8928456368
  0
LINE
  5
E8
330
1F
100
AcDbEntity
  8
0
  6
Continuous
 62
     7
370
    25
100
AcDbLine
 10
10.6242341713
 20
12.6737199413
 30
0.0
 11
11.2793340969
 21
12.6737199413
 31
0.0
  0
LINE
  5
E9
330
1F
100
AcDbEntity
  8
0
  6
Continuous
 62
     7
370
    25
100
AcDbLine
 10
11.2793340969
 20
13.6637199447
 30
0.0
 11
10.6242341713
 21
13.6637199447
 31
0.0
  0
ARC
  5
EA
330
1F
100
AcDbEntity
  8
0
  6
Continuous
 62
     7
370
    25
100
AcDbCircle
 10
11.2793342446
 20
13.1688201163
 30
0.0
 40
0.4948998284485179
100
AcDbArc
 50
359.9999828937
 51
90.0000171063
  0
ARC
  5
EB
330
1F
100
AcDbEntity
  8
0
  6
Continuous
 62
     7
370
    25
100
AcDbCircle
 10
11.2793339853
 20
13.168620029
 30
0.0
 40
0.4949000877393762
100
AcDbArc
 50
270.0000129124
 51
0.0000040673
  0
ARC
  5
EC
330
1F
100
AcDbEntity
  8
0
  6
Continuous
 62
     7
370
    25
100
AcDbCircle
 10
8.7472342063
 20
15.7887199649
 30
0.0
 40
0.0100000761706334
100
AcDbArc
 50
90.0005253484
 51
179.9998948149
  0
ARC
  5
ED
330
1F
100
AcDbEntity
  8
0
  6
Continuous
 62
     7
370
    25
100
AcDbCircle
 10
9.7172340573
 20
15.7887199649
 30
0.0
 40
0.0100000761706334
100
AcDbArc
 50
0.0001051851
 51
89.9994746516
  0
LINE
  5
EE
330
1F
100
AcDbEntity
  8
0
  6
Continuous
 62
     7
370
    25
100
AcDbLine
 10
9.7272341335
 20
15.1158600845
 30
0.0
 11
9.7272341335
 21
15.7887199832
 31
0.0
  0
LINE
  5
EF
330
1F
100
AcDbEntity
  8
0
  6
Continuous
 62
     7
370
    25
100
AcDbLine
 10
9.7272341335
 20
13.9187200256
 30
0.0
 11
9.7272341335
 21
14.980720009
 31
0.0
  0
LINE
  5
F0
330
1F
100
AcDbEntity
  8
0
  6
Continuous
 62
     7
370
    25
100
AcDbLine
 10
8.7372341301
 20
14.980720009
 30
0.0
 11
8.7372341301
 21
13.9187200256
 31
0.0
  0
LINE
  5
F1
330
1F
100
AcDbEntity
  8
0
  6
Continuous
 62
     7
370
    25
100
AcDbLine
 10
8.7372341301
 20
15.7887199832
 30
0.0
 11
8.7372341301
 21
15.1158600845
 31
0.0
  0
LINE
  5
F2
330
1F
100
AcDbEntity
  8
0
  6
Continuous
 62
     7
370
    25
100
AcDbLine
 10
8.7322341378
 20
19.0630225315
 30
0.0
 11
8.7322341378
 21
15.798720041
 31
0.0
  0
LINE
  5
F3
330
1F
100
AcDbEntity
  8
0
  6
Continuous
 62
     7
370
    25
100
AcDbLine
 10
9.7322341258
 20
15.798720041
 30
0.0
 11
9.7322341258
 21
18.8914591268
 31
0.0
  0
LINE
  5
F4
330
1F
100
AcDbEntity
  8
0
  6
Continuous
 62
     7
370
    25
100
AcDbLine
 10
10.5160303279
 20
13.6663238346
 30
0.0
 11
10.5136341156
 21
13.668720047
 31
0.0
  0
LINE
  5
F5
330
1F
100
AcDbEntity
  8
0
  6
Continuous
 62
     7
370
    25
100
AcDbLine
 10
10.3868341071
 20
13.668720047
 30
0.0
 11
10.3844418547
 21
13.6663277946
 31
0.0
  0
LINE
  5
F6
330
1F
100
AcDbEntity
  8
0
  6
Continuous
 62
     7
370
    25
100
AcDbLine
 10
8.0800302955
 20
13.6663238346
 30
0.0
 11
8.0776341565
 21
13.668720047
 31
0.0
  0
LINE
  5
F7
330
1F
100
AcDbEntity
  8
0
  6
Continuous
 62
     7
370
    25
100
AcDbLine
 10
7.950834148
 20
13.668720047
 30
0.0
 11
7.9484418956
 21
13.6663277946
 31
0.0
  0
LINE
  5
F8
330
1F
100
AcDbEntity
  8
0
  6
Continuous
 62
     7
370
    25
100
AcDbLine
 10
9.7272341335
 20
13.668720047
 30
0.0
 11
9.7272341335
 21
13.9187200256
 31
0.0
  0
LINE
  5
F9
330
1F
100
AcDbEntity
  8
0
  6
Continuous
 62
     7
370
    25
100
AcDbLine
 10
8.7372341301
 20
13.9187200256
 30
0.0
 11
8.7372341301
 21
13.668720047
 31
0.0
  0
LINE
  5
FA
330
1F
100
AcDbEntity
  8
0
  6
Continuous
 62
     7
370
    25
100
AcDbLine
 10
7.8692341573
 20
13.668720047
 30
0.0
 11
7.8402340923
 21
13.639719982
 31
0.0
  0
LINE
  5
FB
330
1F
100
AcDbEntity
  8
0
  6
Continuous
 62
     7
370
    25
100
AcDbLine
 10
7.8402340923
 20
12.6977200507
 30
0.0
 11
7.8692341573
 21
12.6687199857
 31
0.0
  0
LINE
  5
FC
330
1F
100
AcDbEntity
  8
0
  6
Continuous
 62
     7
370
    25
100
AcDbLine
 10
10.5952341063
 20
12.6687199857
 30
0.0
 11
10.6242341713
 21
12.6977200507
 31
0.0
  0
LINE
  5
FD
330
1F
100
AcDbEntity
  8
0
  6
Continuous
 62
     7
370
    25
100
AcDbLine
 10
10.6242341713
 20
13.639719982
 30
0.0
 11
10.5952341063
 21
13.668720047
 31
0.0
  0
LINE
  5
FE
330
1F
100
AcDbEntity
  8
0
  6
Continuous
 62
     7
370
    25
100
AcDbLine
 10
7.9322340962
 20
13.668720047
 30
0.0
 11
7.8692341573
 21
13.668720047
 31
0.0
  0
LINE
  5
FF
330
1F
100
AcDbEntity
  8
0
  6
Continuous
 62
     7
370
    25
100
AcDbLine
 10
8.7372341301
 20
13.668720047
 30
0.0
 11
8.0960073176
 21
13.668720047
 31
0.0
  0
LINE
  5
100
330
1F
100
AcDbEntity
  8
0
  6
Continuous
 62
     7
370
    25
100
AcDbLine
 10
10.3682341286
 20
13.668720047
 30
0.0
 11
9.7272341335
 21
13.668720047
 31
0.0
  0
LINE
  5
101
330
1F
100
AcDbEntity
  8
0
  6
Continuous
 62
     7
370
    25
100
AcDbLine
 10
10.5952341063
 20
13.668720047
 30
0.0
 11
10.5320072767
 21
13.668720047
 31
0.0
  0
LINE
  5
102
330
1F
100
AcDbEntity
  8
0
  6
Continuous
 62
     7
370
    25
100
AcDbLine
 10
7.8692341573
 20
12.6687199857
 30
0.0
 11
10.5952341063
 21
12.6687199857
 31
0.0
  0
LINE
  5
103
330
1F
100
AcDbEntity
  8
0
  6
Continuous
 62
     7
370
    25
100
AcDbLine
 10
4.4784797676
 20
8.887188217
 30
0.0
 11
1.3389253693
 21
8.887188217
 31
0.0
  0
SPLINE
  5
104
330
1F
100
AcDbEntity
  8
0
  6
Continuous
 62
     7
370
    25
100
AcDbSpline
210
0.0
220
0.0
230
1.0
 70
     8
 71
     3
 72
    12
 73
     8
 74
     0
 42
0.00000001
 43
0.00000001
 40
0.0
 40
0.0
 40
0.0
 40
0.0
 40
0.3347506443989398
 40
0.6318626592221867
 40
0.8582546418746115
 40
0.9880438601027254
 40
1.0
 40
1.0
 40
1.0
 40
1.0
 10
6.085673254471041
 20
10.49733054979161
 30
0.0
 10
6.09100406043413
 20
10.50259985735159
 30
0.0
 10
6.101066288208724
 20
10.51254600306576
 30
0.0
 10
6.115062743518671
 20
10.52571612910044
 30
0.0
 10
6.125859453438908
 20
10.53558562940415
 30
0.0
 10
6.132003758658884
 20
10.54108050802607
 30
0.0
 10
6.134379202197122
 20
10.54318528157752
 30
0.0
 10
6.134579569501116
 20
10.54336281802292
 30
0.0
  0
SPLINE
  5
105
330
1F
100
AcDbEntity
  8
0
  6
Continuous
 62
     7
370
    25
100
AcDbSpline
210
0.0
220
0.0
230
1.0
 70
     8
 71
     3
 72
    13
 73
     9
 74
     0
 42
0.00000001
 43
0.00000001
 40
0.0
 40
0.0
 40
0.0
 40
0.0
 40
0.0012657975561623
 40
0.0600355856905236
 40
0.2244581181846068
 40
0.4763764289112519
 40
0.7874766298059047
 40
1.0
 40
1.0
 40
1.0
 40
1.0
 10
6.039122965557283
 20
10.44783933485168
 30
0.0
 10
6.039103466848959
 20
10.4478173363818
 30
0.0
 10
6.038178661481188
 20
10.44677396967812
 30
0.0
 10
6.045627503799978
 20
10.45517596681293
 30
0.0
 10
6.04919348336735
 20
10.45907355746105
 30
0.0
 10
6.062274106481757
 20
10.47332232074356
 30
0.0
 10
6.073805306001792
 20
10.4853590793516
 30
0.0
 10
6.082247014050101
 20
10.49387442289437
 30
0.0
 10
6.085673254471041
 20
10.49733054979161
 30
0.0
  0
SPLINE
  5
106
330
1F
100
AcDbEntity
  8
0
  6
Continuous
 62
     7
370
    25
100
AcDbSpline
210
0.0
220
0.0
230
1.0
 70
    11
 71
     3
 72
    26
 73
    22
 74
     0
 42
0.00000001
 43
0.00000001
 40
0.0
 40
0.0
 40
0.0
 40
0.0
 40
0.0365878597990862
 40
0.0937500989037454
 40
0.1491164738529833
 40
0.2018169538792257
 40
0.2522567026182015
 40
0.3019350175276335
 40
0.3526958410308315
 40
0.4057504855025054
 40
0.4612269232266873
 40
0.5182976724685928
 40
0.5756855075986057
 40
0.632165487572689
 40
0.6867930196159148
 40
0.7390688117844293
 40
0.7893241008763523
 40
0.838977181993848
 40
0.8899913073258082
 40
0.943705905085317
 40
1.0
 40
1.0
 40
1.0
 40
1.0
 10
4.85959427157341
 20
11.70293451588505
 30
0.0
 10
4.862570069713651
 20
11.70677279562005
 30
0.0
 10
4.870195040714881
 20
11.71660772739122
 30
0.0
 10
4.886382972599471
 20
11.728533416862
 30
0.0
 10
4.907126186816024
 20
11.73636209861558
 30
0.0
 10
4.928535925013471
 20
11.73713787927477
 30
0.0
 10
4.948160092128452
 20
11.73043729353077
 30
0.0
 10
4.963515947848098
 20
11.71683835326565
 30
0.0
 10
4.972688058105912
 20
11.69815960995268
 30
0.0
 10
4.974787049049115
 20
11.67675087777372
 30
0.0
 10
4.969688244965374
 20
11.65503876125455
 30
0.0
 10
4.957946452245824
 20
11.63543131726578
 30
0.0
 10
4.940834920792115
 20
11.62009112825135
 30
0.0
 10
4.920221913448624
 20
11.61066179928445
 30
0.0
 10
4.89834646447667
 20
11.60813562284268
 30
0.0
 10
4.877620157528709
 20
11.61284938772197
 30
0.0
 10
4.860519135841496
 20
11.62443388140293
 30
0.0
 10
4.849268470861182
 20
11.64161147571741
 30
0.0
 10
4.845348620617835
 20
11.66209753375324
 30
0.0
 10
4.848484065704179
 20
11.68372949857056
 30
0.0
 10
4.85583342671451
 20
11.6964335480828
 30
0.0
 10
4.85959427157341
 20
11.70293451588505
 30
0.0
  0
LINE
  5
107
330
1F
100
AcDbEntity
  8
0
  6
Continuous
 62
     7
370
    25
100
AcDbLine
 10
6.2639242886
 20
10.6726330313
 30
0.0
 11
4.6941470895
 21
12.2424102305
 31
0.0
  0
SPLINE
  5
108
330
1F
100
AcDbEntity
  8
0
  6
Continuous
 62
     7
370
    25
100
AcDbSpline
210
0.0
220
0.0
230
1.0
 70
     8
 71
     3
 72
    11
 73
     7
 74
     0
 42
0.00000001
 43
0.00000001
 40
0.0
 40
0.0
 40
0.0
 40
0.0
 40
0.2829047761550184
 40
0.556813049409948
 40
0.8174741380516355
 40
1.0
 40
1.0
 40
1.0
 40
1.0
 10
4.895480550345388
 20
11.68752325391726
 30
0.0
 10
4.890524895450883
 20
11.68171667939187
 30
0.0
 10
4.88077117778257
 20
11.67028818210011
 30
0.0
 10
4.873422067459122
 20
11.64934923973728
 30
0.0
 10
4.871924578808657
 20
11.62956055543187
 30
0.0
 10
4.876597040230264
 20
11.61852966520812
 30
0.0
 10
4.878521386259099
 20
11.61398661008552
 30
0.0
  0
SPLINE
  5
109
330
1F
100
AcDbEntity
  8
0
  6
Continuous
 62
     7
370
    25
100
AcDbSpline
210
0.0
220
0.0
230
1.0
 70
     8
 71
     3
 72
    12
 73
     8
 74
     0
 42
0.00000001
 43
0.00000001
 40
0.0
 40
0.0
 40
0.0
 40
0.0
 40
0.0017752112026603
 40
0.2591788824827589
 40
0.5303142464695838
 40
0.8146459022188292
 40
1.0
 40
1.0
 40
1.0
 40
1.0
 10
4.967752942115218
 20
11.70581912256183
 30
0.0
 10
4.967714052200675
 20
11.70584469255273
 30
0.0
 10
4.962036167464504
 20
11.7095778830918
 30
0.0
 10
4.947122311006471
 20
11.71063689699573
 30
0.0
 10
4.926150959730044
 20
11.70787602241417
 30
0.0
 10
4.908263192965954
 20
11.69900715440168
 30
0.0
 10
4.899097605377156
 20
11.69077280890088
 30
0.0
 10
4.895480550345388
 20
11.68752325391726
 30
0.0
  0
LINE
  5
10A
330
1F
100
AcDbEntity
  8
0
  6
Continuous
 62
     7
370
    25
100
AcDbLine
 10
17.1255428943
 20
8.887188217
 30
0.0
 11
13.985988496
 21
8.887188217
 31
0.0
  0
LINE
  5
10B
330
1F
100
AcDbEntity
  8
0
  6
Continuous
 62
     7
370
    25
100
AcDbLine
 10
13.7703211741
 20
12.2424102305
 30
0.0
 11
12.200543975
 21
10.6726330313
 31
0.0
  0
SPLINE
  5
10C
330
1F
100
AcDbEntity
  8
0
  6
Continuous
 62
     7
370
    25
100
AcDbSpline
210
0.0
220
0.0
230
1.0
 70
     8
 71
     3
 72
    17
 73
    13
 74
     0
 42
0.00000001
 43
0.00000001
 40
0.0
 40
0.0
 40
0.0
 40
0.0
 40
0.0030810952480057
 40
0.0500456630369441
 40
0.1476356741956836
 40
0.2850638223326055
 40
0.4467462025617392
 40
0.6141895576606641
 40
0.7687118078115664
 40
0.8932607397373292
 40
0.9736837821098858
 40
1.0
 40
1.0
 40
1.0
 40
1.0
 10
12.32988869409477
 20
10.54336281802292
 30
0.0
 10
12.32977716169355
 20
10.54346163009425
 30
0.0
 10
12.3279655614281
 20
10.54506661638241
 30
0.0
 10
12.33898702127231
 20
10.5352839007091
 30
0.0
 10
12.34408370144938
 20
10.53057357350118
 30
0.0
 10
12.35920826584605
 20
10.51656010334156
 30
0.0
 10
12.3737194491114
 20
10.50246333618618
 30
0.0
 10
12.38935907420858
 20
10.48673059430256
 30
0.0
 10
12.40328247873757
 20
10.47213138339557
 30
0.0
 10
12.41433550106585
 20
10.46014346826487
 30
0.0
 10
12.42134510929627
 20
10.45235187373918
 30
0.0
 10
12.42455412551413
 20
10.44873184193406
 30
0.0
 10
12.42534529803861
 20
10.44783933485168
 30
0.0
  0
SPLINE
  5
10D
330
1F
100
AcDbEntity
  8
0
  6
Continuous
 62
     7
370
    25
100
AcDbSpline
210
0.0
220
0.0
230
1.0
 70
    11
 71
     3
 72
    26
 73
    22
 74
     0
 42
0.00000001
 43
0.00000001
 40
0.0
 40
0.0
 40
0.0
 40
0.0
 40
0.0366095798860052
 40
0.0938543219913008
 40
0.1498551593710181
 40
0.2037566198844701
 40
0.2553005485214991
 40
0.3051638357804502
 40
0.3550417334199987
 40
0.4068312665743007
 40
0.461455564658162
 40
0.5183086870374533
 40
0.5756846460125593
 40
0.6317393906219911
 40
0.6853018072578572
 40
0.7363414995760721
 40
0.7860574832325612
 40
0.8362954333766912
 40
0.8885516485874585
 40
0.9433085601212845
 40
1.0
 40
1.0
 40
1.0
 40
1.0
 10
13.5235007453865
 20
11.62156156257902
 30
0.0
 10
13.51963133296905
 20
11.6245047641657
 30
0.0
 10
13.5097114955911
 20
11.63205011678274
 30
0.0
 10
13.49788662202491
 20
11.64850164125987
 30
0.0
 10
13.4905351901512
 20
11.66970687129303
 30
0.0
 10
13.49031957285677
 20
11.69150390218055
 30
0.0
 10
13.49729730209817
 20
11.71133863901436
 30
0.0
 10
13.51085349575561
 20
11.72679341991065
 30
0.0
 10
13.52935937869978
 20
11.73580781524638
 30
0.0
 10
13.55044210530906
 20
11.73740589430475
 30
0.0
 10
13.57168674525928
 20
11.73176078912275
 30
0.0
 10
13.59092583262539
 20
11.71977297997191
 30
0.0
 10
13.60624527903111
 20
11.70282739825362
 30
0.0
 10
13.61605650772625
 20
11.68265205293165
 30
0.0
 10
13.61915962224991
 20
11.66121199493693
 30
0.0
 10
13.6148393733294
 20
11.64074534006625
 30
0.0
 10
13.60329245031082
 20
11.62378167254639
 30
0.0
 10
13.58597334478175
 20
11.61247791973086
 30
0.0
 10
13.5652237871466
 20
11.60815840415302
 30
0.0
 10
13.54313679265986
 20
11.61068633513632
 30
0.0
 10
13.53012140183495
 20
11.61789477854175
 30
0.0
 10
13.5235007453865
 20
11.62156156257902
 30
0.0
  0
SPLINE
  5
10E
330
1F
100
AcDbEntity
  8
0
  6
Continuous
 62
     7
370
    25
100
AcDbSpline
210
0.0
220
0.0
230
1.0
 70
     8
 71
     3
 72
    15
 73
    11
 74
     0
 42
0.00000001
 43
0.00000001
 40
0.0
 40
0.0
 40
0.0
 40
0.0
 40
0.0526076694228457
 40
0.1819362127128004
 40
0.3184195071005477
 40
0.4605441827893218
 40
0.6039642442694015
 40
0.7440310521176411
 40
0.8778341105640048
 40
1.0
 40
1.0
 40
1.0
 40
1.0
 10
13.58572687987822
 20
11.61393469068529
 30
0.0
 10
13.58708559659983
 20
11.61638960455843
 30
0.0
 10
13.59178452694956
 20
11.62487957831158
 30
0.0
 10
13.59204393950785
 20
11.64255456844281
 30
0.0
 10
13.58674961244924
 20
11.6636107018124
 30
0.0
 10
13.57465828739393
 20
11.68287739069098
 30
0.0
 10
13.55773761250247
 20
11.69822553664216
 30
0.0
 10
13.53763303570967
 20
11.70791456365288
 30
0.0
 10
13.51630642279406
 20
11.71150160397856
 30
0.0
 10
13.50316305852402
 20
11.70761130617196
 30
0.0
 10
13.49689014612775
 20
11.70575458997398
 30
0.0
  0
LWPOLYLINE
  5
10F
330
1F
100
AcDbEntity
  8
0
  6
Continuous
 62
     7
370
    25
100
AcDbPolyline
 90
       71
 70
   128
 43
0.0
 10
12.4586379534
 20
13.5540931578
 10
12.4578477226
 20
13.5533029269
 10
12.4554782033
 20
13.5509334076
 10
12.4515346755
 20
13.5469897332
 10
12.4460244725
 20
13.5414796769
 10
12.4389593274
 20
13.5344143851
 10
12.4303527335
 20
13.5258080846
 10
12.4202228772
 20
13.5156780816
 10
12.4085894116
 20
13.504044616
 10
12.3954763898
 20
13.4909314475
 10
12.3809096247
 20
13.4763648291
 10
12.3649187428
 20
13.4603739471
 10
12.3475360102
 20
13.4429913613
 10
12.3287963334
 20
13.4242516844
 10
12.3087375518
 20
13.4041929028
 10
12.2874001449
 20
13.3828552026
 10
12.2648266457
 20
13.3602818501
 10
12.2410628136
 20
13.3365180179
 10
12.2161564613
 20
13.3116118123
 10
12.1901580416
 20
13.285613246
 10
12.163119474
 20
13.2585746783
 10
12.1350953177
 20
13.2305505221
 10
12.1061421855
 20
13.2015973899
 10
12.0763181567
 20
13.1717735077
 10
12.0456836573
 20
13.141138715
 10
12.0142996998
 20
13.1097550508
 10
11.9822302303
 20
13.0776855813
 10
11.9495394879
 20
13.0449946923
 10
11.916293472
 20
13.0117485297
 10
11.8825587684
 20
12.9780139727
 10
11.8484037229
 20
12.9438587806
 10
11.8138966815
 20
12.9093518859
 10
11.7791077501
 20
12.8745628078
 10
11.7441064478
 20
12.8395615055
 10
11.7089634671
 20
12.8044185248
 10
11.6737495005
 20
12.7692047049
 10
11.638535534
 20
12.7339907384
 10
11.6033925533
 20
12.6988477577
 10
11.568391251
 20
12.663846602
 10
11.5336021729
 20
12.6290573772
 10
11.4990952782
 20
12.5945504825
 10
11.4649402327
 20
12.5603954371
 10
11.4312055291
 20
12.5266607335
 10
11.3979593665
 20
12.4934145709
 10
11.3652686241
 20
12.4607238285
 10
11.3331991546
 20
12.4286542123
 10
11.3018153438
 20
12.3972705482
 10
11.2711806977
 20
12.3666360487
 10
11.2413568156
 20
12.3368120199
 10
11.2124035367
 20
12.3078588877
 10
11.1843795271
 20
12.2798347315
 10
11.1573409595
 20
12.2527961638
 10
11.1313422465
 20
12.2267974508
 10
11.1064360409
 20
12.2018913919
 10
11.0826723554
 20
12.1781275597
 10
11.0600988561
 20
12.1555540605
 10
11.0387613026
 20
12.1342166537
 10
11.018702521
 20
12.1141575787
 10
10.9999628442
 20
12.0954181952
 10
10.9825801117
 20
12.0780354627
 10
10.9665893764
 20
12.0620445807
 10
10.9520226113
 20
12.0474778157
 10
10.9389094428
 20
12.0343647938
 10
10.9272761239
 20
12.0227313282
 10
10.9171461209
 20
12.0126011786
 10
10.9085396736
 20
12.003994878
 10
10.9014743819
 20
11.996929733
 10
10.8959643256
 20
11.9914195299
 10
10.8920206511
 20
11.9874760022
 10
10.8896512785
 20
11.9851064829
 10
10.888860901
 20
11.984316252
  0
LWPOLYLINE
  5
110
330
1F
100
AcDbEntity
  8
0
  6
Continuous
 62
     7
370
    25
100
AcDbPolyline
 90
       70
 70
   128
 43
0.0
 10
10.888860901
 20
12.0267426152
 10
10.8896523052
 20
12.0275340194
 10
10.8920249044
 20
12.029906472
 10
10.8959738588
 20
12.0338555731
 10
10.9014908084
 20
12.0393725227
 10
10.90856446
 20
12.0464461743
 10
10.9171801472
 20
12.0550615681
 10
10.92731983
 20
12.0652013976
 10
10.9389626822
 20
12.0768442498
 10
10.9520846506
 20
12.0899663649
 10
10.9666583089
 20
12.1045398765
 10
10.9826535908
 20
12.1205351584
 10
11.0000372033
 20
12.1379187709
 10
11.0187733602
 20
12.1566549278
 10
11.0388230486
 20
12.1767046162
 10
11.0601446156
 20
12.1980261832
 10
11.0826942085
 20
12.2205759227
 10
11.1064247477
 20
12.2443063152
 10
11.1312872471
 20
12.2691689614
 10
11.1572300807
 20
12.2951116483
 10
11.1841995692
 20
12.3220812834
 10
11.2121396864
 20
12.350021254
 10
11.2409926464
 20
12.3788743607
 10
11.2706986099
 20
12.4085801775
 10
11.3011959776
 20
12.4390775452
 10
11.3324215369
 20
12.4703031045
 10
11.3643104619
 20
12.5021921761
 10
11.3967968999
 20
12.5346786142
 10
11.4298133852
 20
12.5676950994
 10
11.4632915718
 20
12.6011731394
 10
11.4971619405
 20
12.6350435081
 10
11.5313543855
 20
12.6692359531
 10
11.5657979209
 20
12.7036794885
 10
11.6004212676
 20
12.7383028352
 10
11.6351525597
 20
12.7730341273
 10
11.6699199314
 20
12.8078016457
 10
11.7046512236
 20
12.8425329378
 10
11.7392747169
 20
12.8771562845
 10
11.7737181057
 20
12.9115998199
 10
11.8079106974
 20
12.945792265
 10
11.8417809194
 20
12.9796626337
 10
11.8752589593
 20
13.0131406736
 10
11.9082755913
 20
13.0461571589
 10
11.9407618827
 20
13.0786435969
 10
11.9726509543
 20
13.1105326685
 10
12.0038765135
 20
13.1417582278
 10
12.0343740279
 20
13.1722555955
 10
12.0640798447
 20
13.2019614123
 10
12.0929326581
 20
13.2308143724
 10
12.120872922
 20
13.2587546363
 10
12.1478422638
 20
13.285723978
 10
12.1737852441
 20
13.3116668117
 10
12.1986475969
 20
13.3365293111
 10
12.2223782827
 20
13.360259997
 10
12.2449277289
 20
13.3828094432
 10
12.2662495893
 20
13.4041311568
 10
12.2862992776
 20
13.4241808452
 10
12.3050351412
 20
13.4429168555
 10
12.3224190471
 20
13.4603006146
 10
12.3384143289
 20
13.4762958965
 10
12.3529878406
 20
13.4908695548
 10
12.3661096623
 20
13.5039913766
 10
12.3777528078
 20
13.5156342288
 10
12.387892344
 20
13.5257740583
 10
12.3965080312
 20
13.5343897454
 10
12.4035816828
 20
13.5414632504
 10
12.4090986324
 20
13.5469803466
 10
12.4130474401
 20
13.5509291544
 10
12.415420186
 20
13.5533017536
 10
12.4162115902
 20
13.5540931578
  0
LINE
  5
111
330
1F
100
AcDbEntity
  8
0
  6
Continuous
 62
     7
370
    25
100
AcDbLine
 10
12.0025541822
 20
13.1404357497
 30
0.0
 11
11.668749985
 21
13.4742398003
 31
0.0
  0
LINE
  5
112
330
1F
100
AcDbEntity
  8
0
  6
Continuous
 62
     7
370
    25
100
AcDbLine
 10
11.069198391
 20
12.6737199413
 30
0.0
 11
11.3025184557
 21
12.4404000233
 31
0.0
  0
LWPOLYLINE
  5
113
330
1F
100
AcDbEntity
  8
0
  6
Continuous
 62
     7
370
    25
100
AcDbPolyline
 90
       70
 70
   128
 43
0.0
 10
6.0482566734
 20
13.5540931578
 10
6.0490480776
 20
13.5533017536
 10
6.0514208235
 20
13.5509291544
 10
6.0553696312
 20
13.5469803466
 10
6.0608865808
 20
13.5414632504
 10
6.0679602324
 20
13.5343897454
 10
6.0765759196
 20
13.5257740583
 10
6.0867154558
 20
13.5156342288
 10
6.0983586013
 20
13.5039913766
 10
6.111480423
 20
13.4908695548
 10
6.1260539347
 20
13.4762958965
 10
6.1420492165
 20
13.4603006146
 10
6.1594331224
 20
13.4429168555
 10
6.178168986
 20
13.4241808452
 10
6.1982186743
 20
13.4041311568
 10
6.2195405347
 20
13.3828094432
 10
6.2420899809
 20
13.360259997
 10
6.2658206667
 20
13.3365293111
 10
6.2906830195
 20
13.3116668117
 10
6.3166259998
 20
13.285723978
 10
6.3435953416
 20
13.2587546363
 10
6.3715356055
 20
13.2308143724
 10
6.4003884189
 20
13.2019614123
 10
6.4300942357
 20
13.1722555955
 10
6.46059175
 20
13.1417582278
 10
6.4918173093
 20
13.1105326685
 10
6.5237063809
 20
13.0786435969
 10
6.5561926723
 20
13.0461571589
 10
6.5892093042
 20
13.0131406736
 10
6.6226873442
 20
12.9796626337
 10
6.6565575662
 20
12.945792265
 10
6.6907501579
 20
12.9115998199
 10
6.7251935467
 20
12.8771562845
 10
6.75981704
 20
12.8425329378
 10
6.7945483322
 20
12.8078016457
 10
6.8293157039
 20
12.7730341273
 10
6.864046996
 20
12.7383028352
 10
6.8986703427
 20
12.7036794885
 10
6.9331138781
 20
12.6692359531
 10
6.9673063231
 20
12.6350435081
 10
7.0011766918
 20
12.6011731394
 10
7.0346548784
 20
12.5676950994
 10
7.0676713637
 20
12.5346786142
 10
7.1001578017
 20
12.5021921761
 10
7.1320467267
 20
12.4703031045
 10
7.163272286
 20
12.4390775452
 10
7.1937696536
 20
12.4085801775
 10
7.2234756171
 20
12.3788743607
 10
7.2523285772
 20
12.350021254
 10
7.2802686944
 20
12.3220812834
 10
7.3072381828
 20
12.2951116483
 10
7.3331810165
 20
12.2691689614
 10
7.3580435159
 20
12.2443063152
 10
7.3817740551
 20
12.2205759227
 10
7.404323648
 20
12.1980261832
 10
7.425645215
 20
12.1767046162
 10
7.4456949034
 20
12.1566549278
 10
7.4644310603
 20
12.1379187709
 10
7.4818146728
 20
12.1205351584
 10
7.4978099547
 20
12.1045398765
 10
7.512383613
 20
12.0899663649
 10
7.5255055814
 20
12.0768442498
 10
7.5371484336
 20
12.0652013976
 10
7.5472881164
 20
12.0550615681
 10
7.5559038036
 20
12.0464461743
 10
7.5629774552
 20
12.0393725227
 10
7.5684944048
 20
12.0338555731
 10
7.5724433592
 20
12.029906472
 10
7.5748159584
 20
12.0275340194
 10
7.5756073626
 20
12.0267426152
  0
LWPOLYLINE
  5
114
330
1F
100
AcDbEntity
  8
0
  6
Continuous
 62
     7
370
    25
100
AcDbPolyline
 90
       71
 70
   128
 43
0.0
 10
7.5756073626
 20
11.984316252
 10
7.5748169851
 20
11.9851064829
 10
7.5724476125
 20
11.9874760022
 10
7.568503938
 20
11.9914195299
 10
7.5629938817
 20
11.996929733
 10
7.55592859
 20
12.003994878
 10
7.5473221427
 20
12.0126011786
 10
7.5371921397
 20
12.0227313282
 10
7.5255588208
 20
12.0343647938
 10
7.5124456523
 20
12.0474778157
 10
7.4978788872
 20
12.0620445807
 10
7.4818881519
 20
12.0780354627
 10
7.4645054194
 20
12.0954181952
 10
7.4457657426
 20
12.1141575787
 10
7.425706961
 20
12.1342166537
 10
7.4043694074
 20
12.1555540605
 10
7.3817959082
 20
12.1781275597
 10
7.3580322227
 20
12.2018913919
 10
7.3331260171
 20
12.2267974508
 10
7.3071273041
 20
12.2527961638
 10
7.2800887365
 20
12.2798347315
 10
7.2520647269
 20
12.3078588877
 10
7.223111448
 20
12.3368120199
 10
7.1932875659
 20
12.3666360487
 10
7.1626529198
 20
12.3972705482
 10
7.131269109
 20
12.4286542123
 10
7.0991996395
 20
12.4607238285
 10
7.0665088971
 20
12.4934145709
 10
7.0332627345
 20
12.5266607335
 10
6.9995280309
 20
12.5603954371
 10
6.9653729854
 20
12.5945504825
 10
6.9308660907
 20
12.6290573772
 10
6.8960770126
 20
12.663846602
 10
6.8610757103
 20
12.6988477577
 10
6.8259327296
 20
12.7339907384
 10
6.7907187631
 20
12.7692047049
 10
6.7555047965
 20
12.8044185248
 10
6.7203618158
 20
12.8395615055
 10
6.6853605135
 20
12.8745628078
 10
6.6505715821
 20
12.9093518859
 10
6.6160645407
 20
12.9438587806
 10
6.5819094952
 20
12.9780139727
 10
6.5481747916
 20
13.0117485297
 10
6.5149287757
 20
13.0449946923
 10
6.4822380333
 20
13.0776855813
 10
6.4501685638
 20
13.1097550508
 10
6.4187846063
 20
13.141138715
 10
6.3881501069
 20
13.1717735077
 10
6.3583260781
 20
13.2015973899
 10
6.3293729459
 20
13.2305505221
 10
6.3013487896
 20
13.2585746783
 10
6.274310222
 20
13.285613246
 10
6.2483118023
 20
13.3116118123
 10
6.22340545
 20
13.3365180179
 10
6.1996416179
 20
13.3602818501
 10
6.1770681187
 20
13.3828552026
 10
6.1557307118
 20
13.4041929028
 10
6.1356719302
 20
13.4242516844
 10
6.1169322534
 20
13.4429913613
 10
6.0995495208
 20
13.4603739471
 10
6.0835586389
 20
13.4763648291
 10
6.0689918738
 20
13.4909314475
 10
6.055878852
 20
13.504044616
 10
6.0442453864
 20
13.5156780816
 10
6.0341155301
 20
13.5258080846
 10
6.0255089362
 20
13.5344143851
 10
6.0184437911
 20
13.5414796769
 10
6.0129335881
 20
13.5469897332
 10
6.0089900603
 20
13.5509334076
 10
6.006620541
 20
13.5533029269
 10
6.0058303102
 20
13.5540931578
  0
LWPOLYLINE
  5
115
330
1F
100
AcDbEntity
  8
0
  6
Continuous
 62
     7
370
    25
100
AcDbPolyline
 90
       47
 70
   128
 43
0.0
 10
7.5402520111
 20
12.8187022264
 10
7.5394359671
 20
12.8195181237
 10
7.536991942
 20
12.8219622954
 10
7.5329310823
 20
12.8260231552
 10
7.5272723077
 20
12.8316817832
 10
7.5200423112
 20
12.8389119263
 10
7.5112745325
 20
12.847679705
 10
7.5010097444
 20
12.8579443464
 10
7.4892961997
 20
12.8696578911
 10
7.4761881645
 20
12.8827659264
 10
7.4617469446
 20
12.8972071462
 10
7.4460397127
 20
12.9129143781
 10
7.429139948
 20
12.9298142895
 10
7.4111261161
 20
12.9478279748
 10
7.3920825494
 20
12.9668715414
 10
7.3720978336
 20
12.9868564039
 10
7.3512651009
 20
13.0076889899
 10
7.3296815902
 20
13.0292725006
 10
7.3074479138
 20
13.0515061771
 10
7.2846677636
 20
13.0742863272
 10
7.2614473252
 20
13.0975067657
 10
7.2378948372
 20
13.1210592536
 10
7.2141201519
 20
13.1448339389
 10
7.1902341478
 20
13.168719943
 10
7.1663479971
 20
13.1926060937
 10
7.1425733117
 20
13.2163807791
 10
7.1190208238
 20
13.239933267
 10
7.0958003854
 20
13.2631537054
 10
7.0730202352
 20
13.2859338556
 10
7.0507867054
 20
13.3081675321
 10
7.0292031947
 20
13.3297510428
 10
7.0083704621
 20
13.3505836288
 10
6.9883857463
 20
13.3705684912
 10
6.9693420329
 20
13.3896120579
 10
6.9513283477
 20
13.4076257431
 10
6.9344284362
 20
13.4245256546
 10
6.918721351
 20
13.4402328865
 10
6.9042801312
 20
13.4546741063
 10
6.8911720959
 20
13.4677819949
 10
6.8794584046
 20
13.4794956862
 10
6.8691937632
 20
13.4897603277
 10
6.8604259845
 20
13.4985281064
 10
6.8531958413
 20
13.5057582495
 10
6.8475372134
 20
13.5114168775
 10
6.8434763536
 20
13.5154777372
 10
6.8410321818
 20
13.517921909
 10
6.8402162846
 20
13.5187378062
  0
ARC
  5
116
330
1F
100
AcDbEntity
  8
0
  6
Continuous
 62
     7
370
    25
100
AcDbCircle
 10
7.1902341478
 20
13.1687200163
 30
0.0
 40
0.4949999573994481
100
AcDbArc
 50
315.000006002
 51
135.000006002
  0
LINE
  5
117
330
1F
100
AcDbEntity
  8
0
  6
Continuous
 62
     7
370
    25
100
AcDbLine
 10
7.5402520111
 20
12.8187022264
 30
0.0
 11
7.1619498079
 21
12.4404000233
 31
0.0
  0
LINE
  5
118
330
1F
100
AcDbEntity
  8
0
  6
Continuous
 62
     7
370
    25
100
AcDbLine
 10
6.8402162846
 20
13.5187378062
 30
0.0
 11
6.4619140814
 21
13.1404357497
 31
0.0
  0
LINE
  5
119
330
1F
100
AcDbEntity
  8
0
  6
Continuous
 62
     7
370
    25
100
AcDbLine
 10
7.7112341825
 20
12.6829217017
 30
0.0
 11
7.4044714863
 21
12.6829217017
 31
0.0
  0
LWPOLYLINE
  5
11A
330
1F
100
AcDbEntity
  8
0
  6
Continuous
 62
     7
370
    25
100
AcDbPolyline
 90
       42
 70
   128
 43
0.0
 10
7.7112341825
 20
13.654518331
 10
7.7169486898
 20
13.6470420841
 10
7.722561705
 20
13.6374064887
 10
7.7280480016
 20
13.6256549578
 10
7.7333827933
 20
13.6118404374
 10
7.7385418804
 20
13.5960254067
 10
7.7435020898
 20
13.5782812917
 10
7.7482411283
 20
13.5586880247
 10
7.7527372897
 20
13.5373343381
 10
7.7569706275
 20
13.5143162973
 10
7.7609216352
 20
13.4897381812
 10
7.7645728597
 20
13.4637107219
 10
7.7679075812
 20
13.436351398
 10
7.7709108398
 20
13.407783848
 10
7.7735691424
 20
13.3781371371
 10
7.7758703158
 20
13.3475448772
 10
7.7778039468
 20
13.3161452266
 10
7.7793615288
 20
13.2840800104
 10
7.7805360219
 20
13.2514941335
 10
7.7813218529
 20
13.2185344075
 10
7.7817156483
 20
13.1853498442
 10
7.7817156483
 20
13.1520901884
 10
7.7813218529
 20
13.1189056251
 10
7.7805360219
 20
13.0859458992
 10
7.7793615288
 20
13.0533600223
 10
7.7778039468
 20
13.0212948061
 10
7.7758703158
 20
12.9898951555
 10
7.7735691424
 20
12.9593028955
 10
7.7709108398
 20
12.9296561847
 10
7.7679075812
 20
12.9010886347
 10
7.7645728597
 20
12.8737293108
 10
7.7609216352
 20
12.8477018514
 10
7.7569706275
 20
12.8231237354
 10
7.7527372897
 20
12.8001056946
 10
7.7482411283
 20
12.7787520079
 10
7.7435020898
 20
12.759158741
 10
7.7385418804
 20
12.7414146259
 10
7.7333827933
 20
12.7255995953
 10
7.7280480016
 20
12.7117850749
 10
7.722561705
 20
12.700033544
 10
7.7169486898
 20
12.690397802
 10
7.7112341825
 20
12.6829217017
  0
LINE
  5
11B
330
1F
100
AcDbEntity
  8
0
  6
Continuous
 62
     7
370
    25
100
AcDbLine
 10
7.2852341837
 20
13.654518331
 30
0.0
 11
7.7112341825
 21
13.654518331
 31
0.0
  0
LINE
  5
11C
330
1F
100
AcDbEntity
  8
0
  6
Continuous
 62
     7
370
    25
100
AcDbLine
 10
7.8402340923
 20
13.6637199447
 30
0.0
 11
7.8402340923
 21
12.6737199413
 31
0.0
  0
LINE
  5
11D
330
1F
100
AcDbEntity
  8
0
  6
Continuous
 62
     7
370
    25
100
AcDbLine
 10
7.7112341825
 20
12.6829217017
 30
0.0
 11
7.7112341825
 21
13.654518331
 31
0.0
  0
SPLINE
  5
11E
330
1F
100
AcDbEntity
  8
0
  6
Continuous
 62
     7
370
    25
100
AcDbSpline
210
0.0
220
0.0
230
1.0
 70
     8
 71
     3
 72
    26
 73
    22
 74
     0
 42
0.00000001
 43
0.00000001
 40
0.0
 40
0.0
 40
0.0
 40
0.0
 40
0.0508149550218754
 40
0.1015152974981195
 40
0.1519026353906938
 40
0.2020848044445232
 40
0.2538179384375493
 40
0.305560097519011
 40
0.3591002009694362
 40
0.4128702468420929
 40
0.4652577962423249
 40
0.5177401762799275
 40
0.5679711520966052
 40
0.6180463625513453
 40
0.6682612672749795
 40
0.7182979774924676
 40
0.7705492166669494
 40
0.8228610609526333
 40
0.8764334291407531
 40
0.930248393395874
 40
1.0
 40
1.0
 40
1.0
 40
1.0
 10
11.2793340968578
 20
13.33264063604755
 30
0.0
 10
11.27042796697757
 20
13.33248892983893
 30
0.0
 10
11.25263579489045
 20
13.3321858595933
 30
0.0
 10
11.22653265696593
 20
13.32634322873773
 30
0.0
 10
11.2018188052935
 20
13.31664192290552
 30
0.0
 10
11.1787934701956
 20
13.30299717603043
 30
0.0
 10
11.1581512332871
 20
13.2855950876433
 30
0.0
 10
11.14022053481834
 20
13.26462327683369
 30
0.0
 10
11.12595373190004
 20
13.24057941427254
 30
0.0
 10
11.1158742785634
 20
13.21437694501948
 30
0.0
 10
11.11051800265104
 20
13.18701726044624
 30
0.0
 10
11.10971889859587
 20
13.15976952926583
 30
0.0
 10
11.11343721455716
 20
13.13318708616365
 30
0.0
 10
11.12115437838814
 20
13.10789612171532
 30
0.0
 10
11.1328785591437
 20
13.08423178280299
 30
0.0
 10
11.14839198685683
 20
13.06238985427405
 30
0.0
 10
11.16758463402435
 20
13.0431635099088
 30
0.0
 10
11.19017168604331
 20
13.02695110425252
 30
0.0
 10
11.21546088602805
 20
13.01484580587397
 30
0.0
 10
11.24538610095044
 20
13.00589371476082
 30
0.0
 10
11.26708523704234
 20
13.00519424024413
 30
0.0
 10
11.2793340968578
 20
13.00479939663085
 30
0.0
  0
LINE
  5
11F
330
1F
100
AcDbEntity
  8
0
  6
Continuous
 62
     7
370
    25
100
AcDbLine
 10
10.6242341713
 20
13.168719943
 30
0.0
 11
10.6242341713
 21
13.6637199447
 31
0.0
  0
LINE
  5
120
330
1F
100
AcDbEntity
  8
0
  6
Continuous
 62
     7
370
    25
100
AcDbLine
 10
10.6242341713
 20
12.6737199413
 30
0.0
 11
10.6242341713
 21
13.168719943
 31
0.0
  0
LINE
  5
121
330
1F
100
AcDbEntity
  8
0
  6
Continuous
 62
     7
370
    25
100
AcDbLine
 10
11.7742340731
 20
13.1688199685
 30
0.0
 11
11.7742340731
 21
13.1686200642
 31
0.0
  0
SPLINE
  5
122
330
1F
100
AcDbEntity
  8
0
  6
Continuous
 62
     7
370
    25
100
AcDbSpline
210
0.0
220
0.0
230
1.0
 70
     8
 71
     3
 72
    26
 73
    22
 74
     0
 42
0.00000001
 43
0.00000001
 40
0.0
 40
0.0
 40
0.0
 40
0.0
 40
0.0547723236602655
 40
0.1095446746306673
 40
0.164325407699863
 40
0.2191063799103244
 40
0.2738866271305407
 40
0.3286671950881955
 40
0.3834451527877574
 40
0.4382235032577483
 40
0.4929991354143061
 40
0.5477748885284084
 40
0.6025494417445947
 40
0.6573233450444289
 40
0.7120977054508743
 40
0.7668718354205891
 40
0.8216477772724133
 40
0.8764231192242357
 40
0.9312014130202133
 40
0.9859791700874825
 40
1.0
 40
1.0
 40
1.0
 40
1.0
 10
11.2793340968578
 20
13.33264063604755
 30
0.0
 10
11.28853399488953
 20
13.33189485553518
 30
0.0
 10
11.30693379554017
 20
13.33040329413858
 30
0.0
 10
11.33358631116241
 20
13.3223987711159
 30
0.0
 10
11.35853145276961
 20
13.31028258401416
 30
0.0
 10
11.38113089146987
 20
13.29413801461613
 30
0.0
 10
11.40063388334994
 20
13.27438413645363
 30
0.0
 10
11.41662161174628
 20
13.25168596545837
 30
0.0
 10
11.42848417400558
 20
13.2265862498457
 30
0.0
 10
11.43605743385131
 20
13.19987782801447
 30
0.0
 10
11.43894279771298
 20
13.17226732765146
 30
0.0
 10
11.4372489141719
 20
13.14455879121808
 30
0.0
 10
11.43083290722059
 20
13.11755047693315
 30
0.0
 10
11.42006352241025
 20
13.09196486344084
 30
0.0
 10
11.40507009155856
 20
13.06860275913349
 30
0.0
 10
11.38643889734258
 20
13.0480231490645
 30
0.0
 10
11.36455781661062
 20
13.03094206583908
 30
0.0
 10
11.34016381113405
 20
13.01768139236018
 30
0.0
 10
11.31386351353156
 20
13.0088327279306
 30
0.0
 10
11.29324601900679
 20
13.00541898726937
 30
0.0
 10
11.28168930173036
 20
13.00490428960504
 30
0.0
 10
11.2793340968578
 20
13.00479939663085
 30
0.0
  0
LINE
  5
123
330
1F
100
AcDbEntity
  8
0
  6
Continuous
 62
     7
370
    25
100
AcDbLine
 10
9.7272341335
 20
13.9187200256
 30
0.0
 11
8.7372341301
 21
13.9187200256
 31
0.0
  0
SPLINE
  5
124
330
1F
100
AcDbEntity
  8
0
  6
Continuous
 62
     7
370
    25
100
AcDbSpline
210
0.0
220
0.0
230
1.0
 70
     8
 71
     3
 72
    17
 73
    13
 74
     0
 42
0.00000001
 43
0.00000001
 40
0.0
 40
0.0
 40
0.0
 40
0.0
 40
0.0280454933703824
 40
0.1087363469414443
 40
0.2335350674950198
 40
0.3887974003112495
 40
0.5555983873271728
 40
0.7151335530287637
 40
0.8514389532454723
 40
0.9495778408509254
 40
0.9969299263650484
 40
1.0
 40
1.0
 40
1.0
 40
1.0
 10
9.727234133515685
 20
14.98072000896066
 30
0.0
 10
9.727063496589851
 20
14.98198361842381
 30
0.0
 10
9.726401913078963
 20
14.98688281114503
 30
0.0
 10
9.725153095717335
 20
14.9974257051076
 30
0.0
 10
9.723663364287201
 20
15.01377451713492
 30
0.0
 10
9.722589605616689
 20
15.03400551508656
 30
0.0
 10
9.722454193536919
 20
15.05616755567644
 30
0.0
 10
9.723124198477642
 20
15.07629845501069
 30
0.0
 10
9.724879715963823
 20
15.09675266410105
 30
0.0
 10
9.725496616599523
 20
15.10367377902865
 30
0.0
 10
9.727464525116847
 20
15.11843008982699
 30
0.0
 10
9.727137000330655
 20
15.11600758450249
 30
0.0
 10
9.727117058201483
 20
15.11586008447765
 30
0.0
  0
SPLINE
  5
125
330
1F
100
AcDbEntity
  8
0
  6
Continuous
 62
     7
370
    25
100
AcDbSpline
210
0.0
220
0.0
230
1.0
 70
     8
 71
     3
 72
    17
 73
    13
 74
     0
 42
0.00000001
 43
0.00000001
 40
0.0
 40
0.0
 40
0.0
 40
0.0
 40
0.0059355676992812
 40
0.0695602184746263
 40
0.181042471825292
 40
0.3286779655178451
 40
0.4947777948274075
 40
0.659751871282435
 40
0.8066603327760716
 40
0.9202757160971026
 40
0.9865843538492023
 40
1.0
 40
1.0
 40
1.0
 40
1.0
 10
8.737351205394408
 20
15.11586008447765
 30
0.0
 10
8.737387239954927
 20
15.11559431967643
 30
0.0
 10
8.737809536865573
 20
15.11247976373643
 30
0.0
 10
8.738825853737316
 20
15.10436237563709
 30
0.0
 10
8.740308983817144
 20
15.08985286755273
 30
0.0
 10
8.741588687689127
 20
15.07067690221201
 30
0.0
 10
8.742098485638312
 20
15.04904492746461
 30
0.0
 10
8.741617049076439
 20
15.02744528074078
 30
0.0
 10
8.740365316110852
 20
15.00825483807017
 30
0.0
 10
8.738882805403488
 20
14.99355937170112
 30
0.0
 10
8.73780226280823
 20
14.98488998236002
 30
0.0
 10
8.737315962519219
 20
14.98132064165978
 30
0.0
 10
8.737234130080205
 20
14.98072000896066
 30
0.0
  0
LINE
  5
126
330
1F
100
AcDbEntity
  8
0
  6
Continuous
 62
     7
370
    25
100
AcDbLine
 10
9.3420998085
 20
15.798720041
 30
0.0
 11
9.7322341258
 21
15.798720041
 31
0.0
  0
LINE
  5
127
330
1F
100
AcDbEntity
  8
0
  6
Continuous
 62
     7
370
    25
100
AcDbLine
 10
8.7322341378
 20
15.798720041
 30
0.0
 11
9.3420998085
 21
15.798720041
 31
0.0
  0
ARC
  5
128
330
1F
100
AcDbEntity
  8
0
  6
Continuous
 62
     7
370
    25
100
AcDbCircle
 10
11.2742340613
 20
13.1687204421
 30
0.0
 40
0.0902113740367833
100
AcDbArc
 50
245.2296429195
 51
305.2293818932
  0
LWPOLYLINE
  5
129
330
1F
100
AcDbEntity
  8
0
  6
Continuous
 62
     7
370
    25
100
AcDbPolyline
 90
        6
 70
   128
 43
0.0
 10
11.2364370857
 20
13.0868090226
 10
11.2551606294
 20
13.0885228028
 10
11.2757129387
 20
13.0904037811
 10
11.2901116257
 20
13.0917217125
 10
11.3047020038
 20
13.0930570971
 10
11.326272608
 20
13.0950313543
  0
ARC
  5
12A
330
1F
100
AcDbEntity
  8
0
  6
Continuous
 62
     7
370
    25
100
AcDbCircle
 10
11.2742343532
 20
13.1687202018
 30
0.0
 40
0.0902112781886633
100
AcDbArc
 50
185.2296623448
 51
245.2294105982
  0
LWPOLYLINE
  5
12B
330
1F
100
AcDbEntity
  8
0
  6
Continuous
 62
     7
370
    25
100
AcDbPolyline
 90
        6
 70
   128
 43
0.0
 10
11.1843985936
 20
13.1604976113
 10
11.1952444683
 20
13.1451394421
 10
11.2071497041
 20
13.1282811835
 10
11.2154903944
 20
13.1164705466
 10
11.2239419634
 20
13.1045026848
 10
11.2364370857
 20
13.0868090226
  0
ARC
  5
12C
330
1F
100
AcDbEntity
  8
0
  6
Continuous
 62
     7
370
    25
100
AcDbCircle
 10
11.2742333625
 20
13.1687194666
 30
0.0
 40
0.0902118250882417
100
AcDbArc
 50
5.2298628859
 51
65.229210057
  0
LWPOLYLINE
  5
12D
330
1F
100
AcDbEntity
  8
0
  6
Continuous
 62
     7
370
    25
100
AcDbPolyline
 90
        6
 70
   128
 43
0.0
 10
11.364069638
 20
13.1769424214
 10
11.3532237633
 20
13.1923005906
 10
11.3413185275
 20
13.2091587025
 10
11.3329778372
 20
13.2209694861
 10
11.3245262681
 20
13.2329373478
 10
11.3120311458
 20
13.2506310101
  0
LWPOLYLINE
  5
12E
330
1F
100
AcDbEntity
  8
0
  6
Continuous
 62
     7
370
    25
100
AcDbPolyline
 90
        6
 70
   128
 43
0.0
 10
11.3120311458
 20
13.2506310101
 10
11.2933076021
 20
13.2489172299
 10
11.2727552929
 20
13.2470362516
 10
11.2583566059
 20
13.2457183202
 10
11.2437662277
 20
13.2443829356
 10
11.2221956236
 20
13.2424086784
  0
ARC
  5
12F
330
1F
100
AcDbEntity
  8
0
  6
Continuous
 62
     7
370
    25
100
AcDbCircle
 10
11.2742341703
 20
13.1687195906
 30
0.0
 40
0.090211374036785
100
AcDbArc
 50
65.2296429195
 51
125.2293818932
  0
LWPOLYLINE
  5
130
330
1F
100
AcDbEntity
  8
0
  6
Continuous
 62
     7
370
    25
100
AcDbPolyline
 90
        7
 70
   128
 43
0.0
 10
11.2221956236
 20
13.2424086784
 10
11.2158579368
 20
13.2286740904
 10
11.2098115267
 20
13.2155707484
 10
11.2035823719
 20
13.2020711177
 10
11.1971612328
 20
13.1881556918
 10
11.1909237182
 20
13.1746384613
 10
11.1843985936
 20
13.1604976113
  0
ARC
  5
131
330
1F
100
AcDbEntity
  8
0
  6
Continuous
 62
     7
370
    25
100
AcDbCircle
 10
11.2742347595
 20
13.1687196863
 30
0.0
 40
0.0902116357449987
100
AcDbArc
 50
125.2297226395
 51
185.2293127758
  0
ARC
  5
132
330
1F
100
AcDbEntity
  8
0
  6
Continuous
 62
     7
370
    25
100
AcDbCircle
 10
11.2742343746
 20
13.1687199299
 30
0.0
 40
0.0902107749121157
100
AcDbArc
 50
305.2294069795
 51
5.2296284358
  0
LWPOLYLINE
  5
133
330
1F
100
AcDbEntity
  8
0
  6
Continuous
 62
     7
370
    25
100
AcDbPolyline
 90
        7
 70
   128
 43
0.0
 10
11.326272608
 20
13.0950313543
 10
11.3327977326
 20
13.1091722042
 10
11.3390351005
 20
13.1226894348
 10
11.3454562397
 20
13.1366048607
 10
11.351685541
 20
13.1501044914
 10
11.3577319512
 20
13.1632078333
 10
11.364069638
 20
13.1769424214
  0
CIRCLE
  5
134
330
1F
100
AcDbEntity
  8
0
  6
Continuous
 62
     7
370
    25
100
AcDbCircle
 10
11.274234183
 20
13.1687200697
 30
0.0
 40
0.1502265120292249
  0
CIRCLE
  5
135
330
1F
100
AcDbEntity
  8
0
  6
Continuous
 62
     7
370
    25
100
AcDbCircle
 10
11.2742340875
 20
13.1687199285
 30
0.0
 40
0.1560000451633392
  0
LINE
  5
136
330
1F
100
AcDbEntity
  8
0
  6
Continuous
 62
     7
370
    25
100
AcDbLine
 10
10.5031084105
 20
13.668720047
 30
0.0
 11
10.5136341156
 21
13.668720047
 31
0.0
  0
LINE
  5
137
330
1F
100
AcDbEntity
  8
0
  6
Continuous
 62
     7
370
    25
100
AcDbLine
 10
10.3868341071
 20
13.668720047
 30
0.0
 11
10.5031084105
 21
13.668720047
 31
0.0
  0
LINE
  5
138
330
1F
100
AcDbEntity
  8
0
  6
Continuous
 62
     7
370
    25
100
AcDbLine
 10
9.7272341335
 20
15.1121200177
 30
0.0
 11
9.7272341335
 21
14.9853200092
 31
0.0
  0
CIRCLE
  5
139
330
1F
100
AcDbEntity
  8
0
  6
Continuous
 62
     7
370
    25
100
AcDbCircle
 10
8.0142341498
 20
13.1687200085
 30
0.0
 40
0.063399993140326
  0
CIRCLE
  5
13A
330
1F
100
AcDbEntity
  8
0
  6
Continuous
 62
     7
370
    25
100
AcDbCircle
 10
8.0142341156
 20
13.1687200163
 30
0.0
 40
0.0743398491493219
  0
LINE
  5
13B
330
1F
100
AcDbEntity
  8
0
  6
Continuous
 62
     7
370
    25
100
AcDbLine
 10
8.04732056
 20
13.1992696701
 30
0.0
 11
8.0043205168
 21
13.2126485955
 31
0.0
  0
LINE
  5
13C
330
1F
100
AcDbEntity
  8
0
  6
Continuous
 62
     7
370
    25
100
AcDbLine
 10
7.9712340723
 20
13.1820988685
 30
0.0
 11
8.0043205168
 21
13.2126485955
 31
0.0
  0
LINE
  5
13D
330
1F
100
AcDbEntity
  8
0
  6
Continuous
 62
     7
370
    25
100
AcDbLine
 10
7.9811475978
 20
13.1381702159
 30
0.0
 11
7.9712340723
 21
13.1820988685
 31
0.0
  0
LINE
  5
13E
330
1F
100
AcDbEntity
  8
0
  6
Continuous
 62
     7
370
    25
100
AcDbLine
 10
7.9811475978
 20
13.1381702159
 30
0.0
 11
8.0241477144
 21
13.1247914371
 31
0.0
  0
LINE
  5
13F
330
1F
100
AcDbEntity
  8
0
  6
Continuous
 62
     7
370
    25
100
AcDbLine
 10
8.0572342322
 20
13.1553411642
 30
0.0
 11
8.0241477144
 21
13.1247914371
 31
0.0
  0
LINE
  5
140
330
1F
100
AcDbEntity
  8
0
  6
Continuous
 62
     7
370
    25
100
AcDbLine
 10
8.0572342322
 20
13.1553411642
 30
0.0
 11
8.04732056
 21
13.1992696701
 31
0.0
  0
CIRCLE
  5
141
330
1F
100
AcDbEntity
  8
0
  6
Continuous
 62
     7
370
    25
100
AcDbCircle
 10
10.4502341258
 20
13.168720003
 30
0.0
 40
0.0633999691429738
  0
CIRCLE
  5
142
330
1F
100
AcDbEntity
  8
0
  6
Continuous
 62
     7
370
    25
100
AcDbCircle
 10
10.4502341423
 20
13.1687200573
 30
0.0
 40
0.0743398121046876
  0
LINE
  5
143
330
1F
100
AcDbEntity
  8
0
  6
Continuous
 62
     7
370
    25
100
AcDbLine
 10
10.4932820041
 20
13.1554957491
 30
0.0
 11
10.4832106671
 21
13.1993883221
 31
0.0
  0
LINE
  5
144
330
1F
100
AcDbEntity
  8
0
  6
Continuous
 62
     7
370
    25
100
AcDbLine
 10
10.440162811
 20
13.2126126626
 30
0.0
 11
10.4832106671
 21
13.1993883221
 31
0.0
  0
LINE
  5
145
330
1F
100
AcDbEntity
  8
0
  6
Continuous
 62
     7
370
    25
100
AcDbLine
 10
10.407186292
 20
13.1819442836
 30
0.0
 11
10.440162811
 21
13.2126126626
 31
0.0
  0
LINE
  5
146
330
1F
100
AcDbEntity
  8
0
  6
Continuous
 62
     7
370
    25
100
AcDbLine
 10
10.407186292
 20
13.1819442836
 30
0.0
 11
10.417257629
 21
13.138051564
 31
0.0
  0
LINE
  5
147
330
1F
100
AcDbEntity
  8
0
  6
Continuous
 62
     7
370
    25
100
AcDbLine
 10
10.460305485
 20
13.1248273701
 30
0.0
 11
10.417257629
 21
13.138051564
 31
0.0
  0
LINE
  5
148
330
1F
100
AcDbEntity
  8
0
  6
Continuous
 62
     7
370
    25
100
AcDbLine
 10
10.460305485
 20
13.1248273701
 30
0.0
 11
10.4932820041
 21
13.1554957491
 31
0.0
  0
LINE
  5
149
330
1F
100
AcDbEntity
  8
0
  6
Continuous
 62
     7
370
    25
100
AcDbLine
 10
8.7372341301
 20
14.9853200092
 30
0.0
 11
8.7372341301
 21
15.1121200177
 31
0.0
  0
LINE
  5
14A
330
1F
100
AcDbEntity
  8
0
  6
Continuous
 62
     7
370
    25
100
AcDbLine
 10
8.0730539561
 20
13.668720047
 30
0.0
 11
8.0776340832
 21
13.668720047
 31
0.0
  0
LINE
  5
14B
330
1F
100
AcDbEntity
  8
0
  6
Continuous
 62
     7
370
    25
100
AcDbLine
 10
7.950834148
 20
13.668720047
 30
0.0
 11
8.0730539561
 21
13.668720047
 31
0.0
  0
SPLINE
  5
14C
330
1F
100
AcDbEntity
  8
0
  6
Continuous
 62
     7
370
    25
100
AcDbSpline
210
0.0
220
0.0
230
1.0
 70
     8
 71
     3
 72
    24
 73
    20
 74
     0
 42
0.00000001
 43
0.00000001
 40
0.0
 40
0.0
 40
0.0
 40
0.0
 40
0.0011374119810666
 40
0.0081807679315857
 40
0.020675270271016
 40
0.0369538214060377
 40
0.0574778256513789
 40
0.0825995278822983
 40
0.1115485680221412
 40
0.1562676555627603
 40
0.2065924202489652
 40
0.2634076404808085
 40
0.3246318064551588
 40
0.4123067475123544
 40
0.5054376467797772
 40
0.6057018627232588
 40
0.7096595537563476
 40
0.8523850092439808
 40
1.0
 40
1.0
 40
1.0
 40
1.0
 10
9.72706550546369
 20
13.66855306889179
 30
0.0
 10
9.726927726058024
 20
13.66841667035253
 30
0.0
 10
9.725936755888657
 20
13.66743563198254
 30
0.0
 10
9.723432230468822
 20
13.6649562969392
 30
0.0
 10
9.71909315538618
 20
13.66066168075217
 30
0.0
 10
9.713120429385446
 20
13.65475115557032
 30
0.0
 10
9.705616625343456
 20
13.64732788455158
 30
0.0
 10
9.696575795572755
 20
13.63838738845038
 30
0.0
 10
9.68459974154425
 20
13.62654983873828
 30
0.0
 10
9.669563156977235
 20
13.6116976030971
 30
0.0
 10
9.651138197454816
 20
13.59351664158887
 30
0.0
 10
9.630698057778913
 20
13.57337245325195
 30
0.0
 10
9.605702804646048
 20
13.54878041274843
 30
0.0
 10
9.57626169216255
 20
13.5198808904972
 30
0.0
 10
9.54200313158682
 20
13.48638988793526
 30
0.0
 10
9.505674678886914
 20
13.45104544852504
 30
0.0
 10
9.463076271118107
 20
13.41002597502972
 30
0.0
 10
9.414459768849074
 20
13.36361032211578
 30
0.0
 10
9.37764175656839
 20
13.33053575668916
 30
0.0
 10
9.358922729947114
 20
13.31371997462064
 30
0.0
  0
LINE
  5
14D
330
1F
100
AcDbEntity
  8
0
  6
Continuous
 62
     7
370
    25
100
AcDbLine
 10
9.3589227299
 20
13.3137199746
 30
0.0
 11
9.1055455336
 21
13.3137199746
 31
0.0
  0
SPLINE
  5
14E
330
1F
100
AcDbEntity
  8
0
  6
Continuous
 62
     7
370
    25
100
AcDbSpline
210
0.0
220
0.0
230
1.0
 70
     8
 71
     3
 72
    25
 73
    21
 74
     0
 42
0.00000001
 43
0.00000001
 40
0.0
 40
0.0
 40
0.0
 40
0.0
 40
0.1181096491634975
 40
0.2340132177691062
 40
0.3495110547973885
 40
0.4609943833434241
 40
0.5417337371042029
 40
0.6189447740337392
 40
0.6935767333926295
 40
0.7628656039548951
 40
0.8107828137880339
 40
0.8545782649209221
 40
0.8946305209434735
 40
0.9291275274410888
 40
0.9527239928354807
 40
0.9718481406141233
 40
0.9865094578084007
 40
0.9958645108629046
 40
0.9996748539527814
 40
1.0
 40
1.0
 40
1.0
 40
1.0
 10
9.105545533648776
 20
13.31371997462064
 30
0.0
 10
9.090512360077188
 20
13.32713212501602
 30
0.0
 10
9.060726806181432
 20
13.35370591042181
 30
0.0
 10
9.017455070082239
 20
13.39471900694504
 30
0.0
 10
8.97520131453602
 20
13.43515280486042
 30
0.0
 10
8.937538229231924
 20
13.47170915475243
 30
0.0
 10
8.904641854259049
 20
13.50379920085375
 30
0.0
 10
8.876303088812314
 20
13.53155975222447
 30
0.0
 10
8.849396012881803
 20
13.55799138389555
 30
0.0
 10
8.826080556784328
 20
13.58094727685555
 30
0.0
 10
8.80652470817383
 20
13.60023026883709
 30
0.0
 10
8.79053552946121
 20
13.61601259299289
 30
0.0
 10
8.776157146379507
 20
13.63021724782888
 30
0.0
 10
8.764305698800582
 20
13.6419337854063
 30
0.0
 10
8.754814144424596
 20
13.65132174849658
 30
0.0
 10
8.748184131175194
 20
13.65788151089084
 30
0.0
 10
8.742146977067188
 20
13.66385679297685
 30
0.0
 10
8.740329046587782
 20
13.66565624594994
 30
0.0
 10
8.736816199120414
 20
13.66913363019533
 30
0.0
 10
8.737360002485019
 20
13.6685953873521
 30
0.0
 10
8.7374027581322
 20
13.66855306889179
 30
0.0
  0
LINE
  5
14F
330
1F
100
AcDbEntity
  8
0
  6
Continuous
 62
     7
370
    25
100
AcDbLine
 10
7.8692341573
 20
13.668720047
 30
0.0
 11
7.8692341573
 21
12.6687199857
 31
0.0
  0
LINE
  5
150
330
1F
100
AcDbEntity
  8
0
  6
Continuous
 62
     7
370
    25
100
AcDbLine
 10
10.5952341063
 20
12.6687199857
 30
0.0
 11
10.5952341063
 21
13.668720047
 31
0.0
  0
SPLINE
  5
151
330
1F
100
AcDbEntity
  8
0
  6
Continuous
 62
     7
370
    25
100
AcDbSpline
210
0.0
220
0.0
230
1.0
 70
    11
 71
     3
 72
    44
 73
    40
 74
     0
 42
0.00000001
 43
0.00000001
 40
0.0
 40
0.0
 40
0.0
 40
0.0
 40
0.0380473588636925
 40
0.0646938453044321
 40
0.0913232564062655
 40
0.1179123601089256
 40
0.1444762174025639
 40
0.1712456720706655
 40
0.1980201138561249
 40
0.2249782582421889
 40
0.2519644527053994
 40
0.27873349077489
 40
0.3055089585149762
 40
0.3320038505385109
 40
0.3584741091584006
 40
0.3850392392235343
 40
0.4115865734518331
 40
0.4384528321795129
 40
0.4653359583616205
 40
0.4922699849697521
 40
0.5192294955165291
 40
0.5458947735150084
 40
0.5725547910970884
 40
0.5990360170415098
 40
0.6254902371509556
 40
0.6521481610514134
 40
0.6787980254759871
 40
0.7057271690146555
 40
0.7326807757439825
 40
0.7595543538314187
 40
0.7864467034140886
 40
0.813014825269535
 40
0.8395666406277271
 40
0.866060350429696
 40
0.8925290914554156
 40
0.9192905578682289
 40
0.9460567500741154
 40
0.9730142093230575
 40
1.0
 40
1.0
 40
1.0
 40
1.0
 10
8.09389695529948
 20
13.14928199422222
 30
0.0
 10
8.095019076349015
 20
13.15574472036432
 30
0.0
 10
8.096927075425944
 20
13.16673361992971
 30
0.0
 10
8.095420073278413
 20
13.18244891876974
 30
0.0
 10
8.092062610048607
 20
13.19577779938344
 30
0.0
 10
8.086447008464086
 20
13.20833382522227
 30
0.0
 10
8.078861397034819
 20
13.21982627246732
 30
0.0
 10
8.069405635192172
 20
13.2298857527574
 30
0.0
 10
8.05837421531104
 20
13.23829814502739
 30
0.0
 10
8.046030120034743
 20
13.24471318816261
 30
0.0
 10
8.03279656540869
 20
13.24900087980719
 30
0.0
 10
8.019056044757459
 20
13.25094937086363
 30
0.0
 10
8.005266331073813
 20
13.25062236615129
 30
0.0
 10
7.991785126615886
 20
13.24796485223486
 30
0.0
 10
7.978947579167785
 20
13.2431688377739
 30
0.0
 10
7.967098026709892
 20
13.23626524575881
 30
0.0
 10
7.956478170374505
 20
13.22748136422839
 30
0.0
 10
7.947472530340962
 20
13.21697429010249
 30
0.0
 10
7.940285905059893
 20
13.20507036708252
 30
0.0
 10
7.935244240746283
 20
13.192094147214
 30
0.0
 10
7.932419519782639
 20
13.1785004629408
 30
0.0
 10
7.931965772051068
 20
13.16467274362967
 30
0.0
 10
7.933764324324423
 20
13.15103803915668
 30
0.0
 10
7.93783795918629
 20
13.13794135198085
 30
0.0
 10
7.943981402512324
 20
13.12567928503572
 30
0.0
 10
7.952131031508516
 20
13.11461061694083
 30
0.0
 10
7.962038101178189
 20
13.10496534363949
 30
0.0
 10
7.973490803757034
 20
13.09712505440253
 30
0.0
 10
7.986115635561639
 20
13.09126630473126
 30
0.0
 10
7.999552498156782
 20
13.08766508749306
 30
0.0
 10
8.013332985385896
 20
13.08633048924208
 30
0.0
 10
8.027082066057261
 20
13.08736293708923
 30
0.0
 10
8.040413109372318
 20
13.09060182778288
 30
0.0
 10
8.052988647393883
 20
13.096043113475
 30
0.0
 10
8.064541344345912
 20
13.10347317057291
 30
0.0
 10
8.074712962220621
 20
13.11278681959049
 30
0.0
 10
8.083225911442415
 20
13.12371841920466
 30
0.0
 10
8.089926827528387
 20
13.13594738183332
 30
0.0
 10
8.092573116091781
 20
13.14483556737712
 30
0.0
 10
8.09389695529948
 20
13.14928199422222
 30
0.0
  0
SPLINE
  5
152
330
1F
100
AcDbEntity
  8
0
  6
Continuous
 62
     7
370
    25
100
AcDbSpline
210
0.0
220
0.0
230
1.0
 70
    11
 71
     3
 72
    44
 73
    40
 74
     0
 42
0.00000001
 43
0.00000001
 40
0.0
 40
0.0
 40
0.0
 40
0.0
 40
0.0380473753014783
 40
0.0646938613392499
 40
0.0913233073610015
 40
0.1179124106615613
 40
0.1444761888988135
 40
0.1712456431620875
 40
0.1980200845426437
 40
0.2249782285210269
 40
0.2519645582018972
 40
0.2787334547894293
 40
0.3055089221245966
 40
0.3320038137474558
 40
0.3584742054109511
 40
0.3850392118564512
 40
0.4115866553999086
 40
0.438452820857609
 40
0.4653360201499703
 40
0.4922700463507854
 40
0.5192295276626328
 40
0.5458948052578599
 40
0.5725548036356639
 40
0.5990360713532186
 40
0.6254902910626039
 40
0.6521481301906725
 40
0.678797994212227
 40
0.7057271373436528
 40
0.7326807436653674
 40
0.7595544589575527
 40
0.7864468081335361
 40
0.8130147874622997
 40
0.8395667408647234
 40
0.8660604502660341
 40
0.8925290711036615
 40
0.9192905371117677
 40
0.9460567289128757
 40
0.9730142551969639
 40
1.0
 40
1.0
 40
1.0
 40
1.0
 10
10.52989691442008
 20
13.14928199422222
 30
0.0
 10
10.53101906437579
 20
13.15574471869297
 30
0.0
 10
10.53292711225194
 20
13.16673361339256
 30
0.0
 10
10.53142012543829
 20
13.18244893062618
 30
0.0
 10
10.52806255193256
 20
13.19577779043467
 30
0.0
 10
10.52244696164294
 20
13.2083338026559
 30
0.0
 10
10.51486143779203
 20
13.21982629461679
 30
0.0
 10
10.50540566306311
 20
13.22988574993881
 30
0.0
 10
10.49437424845579
 20
13.23829814399171
 30
0.0
 10
10.48203013361476
 20
13.2447132059841
 30
0.0
 10
10.46879656763239
 20
13.2490008578919
 30
0.0
 10
10.4550560547963
 20
13.25094937663555
 30
0.0
 10
10.44126636130305
 20
13.25062236816189
 30
0.0
 10
10.4277851434466
 20
13.24796483365383
 30
0.0
 10
10.41494756336765
 20
13.24316888191059
 30
0.0
 10
10.40309805046322
 20
13.23626519149984
 30
0.0
 10
10.39247812109731
 20
13.22748142165895
 30
0.0
 10
10.38347258294985
 20
13.21697423785894
 30
0.0
 10
10.37628585108403
 20
13.20507039351002
 30
0.0
 10
10.37124418446774
 20
13.19209415327609
 30
0.0
 10
10.3684195667508
 20
13.17850045247524
 30
0.0
 10
10.36796583077852
 20
13.16467275324046
 30
0.0
 10
10.36976423758096
 20
13.15103801839166
 30
0.0
 10
10.37383801531277
 20
13.13794136391798
 30
0.0
 10
10.37998143661542
 20
13.12567930792485
 30
0.0
 10
10.38813098531994
 20
13.11461059425484
 30
0.0
 10
10.39803806446972
 20
13.10496534665043
 30
0.0
 10
10.4094907620999
 20
13.09712505506194
 30
0.0
 10
10.4221156151129
 20
13.09126628908813
 30
0.0
 10
10.43555250887682
 20
13.0876650990448
 30
0.0
 10
10.44933299340996
 20
13.08633048444033
 30
0.0
 10
10.46308207180727
 20
13.08736295235725
 30
0.0
 10
10.47641311864376
 20
13.09060181661707
 30
0.0
 10
10.48898866950324
 20
13.09604309330447
 30
0.0
 10
10.50054130963917
 20
13.10347319650852
 30
0.0
 10
10.51071293013494
 20
13.11278681317839
 30
0.0
 10
10.5192258515589
 20
13.12371844200467
 30
0.0
 10
10.52592688982508
 20
13.13594734739823
 30
0.0
 10
10.52857311146259
 20
13.14483556209559
 30
0.0
 10
10.52989691442008
 20
13.14928199422222
 30
0.0
  0
SPLINE
  5
153
330
1F
100
AcDbEntity
  8
0
  6
Continuous
 62
     7
370
    25
100
AcDbSpline
210
0.0
220
0.0
230
1.0
 70
     8
 71
     3
 72
    26
 73
    22
 74
     0
 42
0.00000001
 43
0.00000001
 40
0.0
 40
0.0
 40
0.0
 40
0.0
 40
0.0068592428618665
 40
0.0280141867090648
 40
0.0616040301125283
 40
0.1085001001632604
 40
0.165273030529851
 40
0.2331733427075396
 40
0.3070100016412539
 40
0.3886047363333585
 40
0.4702891037120518
 40
0.5552431427841293
 40
0.6354933803564358
 40
0.714271950833426
 40
0.785430996749867
 40
0.8506440651992356
 40
0.9051534044098332
 40
0.9496314030955019
 40
0.9802814397814581
 40
0.9978635297424208
 40
1.0
 40
1.0
 40
1.0
 40
1.0
 10
10.36823412862904
 20
13.66872004696285
 30
0.0
 10
10.36860533758249
 20
13.6686593966707
 30
0.0
 10
10.37012141116949
 20
13.66841169169183
 30
0.0
 10
10.37345800205199
 20
13.66788359633583
 30
0.0
 10
10.37897008855606
 20
13.6670575694341
 30
0.0
 10
10.38642749387265
 20
13.66603669645448
 30
0.0
 10
10.39576883527399
 20
13.66491354934639
 30
0.0
 10
10.40660122508343
 20
13.66383142010531
 30
0.0
 10
10.41881310644693
 20
13.66289521626709
 30
0.0
 10
10.43180027975704
 20
13.66223384142139
 30
0.0
 10
10.44541010978624
 20
13.66191015829468
 30
0.0
 10
10.45895014079118
 20
13.66196490330877
 30
0.0
 10
10.47232400354401
 20
13.66238696025025
 30
0.0
 10
10.48492676266379
 20
13.66311801787371
 30
0.0
 10
10.49668554190721
 20
13.66409109338584
 30
0.0
 10
10.5070961015204
 20
13.66518516073468
 30
0.0
 10
10.5160315296046
 20
13.66629814794869
 30
0.0
 10
10.52307143616429
 20
13.66728677921866
 30
0.0
 10
10.52809719674561
 20
13.66805337859128
 30
0.0
 10
10.53082455724574
 20
13.66848949880634
 30
0.0
 10
10.53189165824828
 20
13.66866403052904
 30
0.0
 10
10.53200727670766
 20
13.66868294072484
 30
0.0
  0
SPLINE
  5
154
330
1F
100
AcDbEntity
  8
0
  6
Continuous
 62
     7
370
    25
100
AcDbSpline
210
0.0
220
0.0
230
1.0
 70
     8
 71
     3
 72
    26
 73
    22
 74
     0
 42
0.00000001
 43
0.00000001
 40
0.0
 40
0.0
 40
0.0
 40
0.0
 40
0.0068596798006132
 40
0.0280146143067041
 40
0.0616040020240937
 40
0.1085000513675504
 40
0.1652733992525347
 40
0.2331732378833805
 40
0.3070098642140229
 40
0.3886050080724925
 40
0.4702888937373415
 40
0.5552428952973932
 40
0.6354930974346691
 40
0.7142720781508545
 40
0.7854306483921799
 40
0.8506441313780946
 40
0.9051534465197278
 40
0.949631425565838
 40
0.9802814487180662
 40
0.9978630907494028
 40
1.0
 40
1.0
 40
1.0
 40
1.0
 10
7.932234096175956
 20
13.66872004696285
 30
0.0
 10
7.932605329651304
 20
13.66865939714597
 30
0.0
 10
7.934121429955095
 20
13.66841170610541
 30
0.0
 10
7.937458018322935
 20
13.66788359579856
 30
0.0
 10
7.942970079690512
 20
13.66705756356301
 30
0.0
 10
7.950427485290004
 20
13.66603669147051
 30
0.0
 10
7.959768828489826
 20
13.66491356035615
 30
0.0
 10
7.970601216446161
 20
13.66383141419378
 30
0.0
 10
7.982813098422838
 20
13.66289521461034
 30
0.0
 10
7.995800271871444
 20
13.66223384482775
 30
0.0
 10
8.009410101728772
 20
13.66191015737752
 30
0.0
 10
8.022950108399767
 20
13.66196490281577
 30
0.0
 10
8.036323995295936
 20
13.66238696374162
 30
0.0
 10
8.048926755262045
 20
13.66311800975194
 30
0.0
 10
8.060685557509784
 20
13.66409110267841
 30
0.0
 10
8.07109611819101
 20
13.66518515724671
 30
0.0
 10
8.080031571407432
 20
13.66629814246483
 30
0.0
 10
8.087071474508338
 20
13.66728679479001
 30
0.0
 10
8.092097218980282
 20
13.66805334285031
 30
0.0
 10
8.094824567392228
 20
13.66848953737619
 30
0.0
 10
8.095891674641503
 20
13.66866403078678
 30
0.0
 10
8.09600731758706
 20
13.66868294072484
 30
0.0
  0
LWPOLYLINE
  5
155
330
1F
100
AcDbEntity
  8
0
  6
Continuous
 62
     7
370
    25
100
AcDbPolyline
 90
       71
 70
   128
 43
0.0
 10
12.1934729633
 20
10.679704043
 10
12.1942631942
 20
10.6804945672
 10
12.1966327135
 20
10.6828637932
 10
12.2005762413
 20
10.6868076143
 10
12.2060864443
 20
10.692317524
 10
12.2131518826
 20
10.6993829623
 10
12.2217581832
 20
10.7079892629
 10
12.2318880395
 20
10.7181194126
 10
12.2435215051
 20
10.7297525848
 10
12.2566348203
 20
10.7428659
 10
12.2712012921
 20
10.7574326651
 10
12.287192174
 20
10.7734232537
 10
12.3045749065
 20
10.7908059862
 10
12.3233145834
 20
10.8095456631
 10
12.343373365
 20
10.8296044447
 10
12.3647107718
 20
10.8509421448
 10
12.3872842711
 20
10.8735156441
 10
12.4110481032
 20
10.8972791829
 10
12.4359544555
 20
10.9221855352
 10
12.4619528751
 20
10.9481842482
 10
12.4889914428
 20
10.9752228158
 10
12.5170155991
 20
11.0032466787
 10
12.5459687313
 20
11.0321998109
 10
12.5757927601
 20
11.0620238397
 10
12.6064272595
 20
11.0926586325
 10
12.6378112169
 20
11.1240422966
 10
12.6698806865
 20
11.1561117662
 10
12.7025714288
 20
11.1888025085
 10
12.7358174448
 20
11.2220488178
 10
12.7695521484
 20
11.2557835214
 10
12.8037074872
 20
11.2899385668
 10
12.8382142352
 20
11.3244453149
 10
12.87300346
 20
11.3592345397
 10
12.908004469
 20
11.394235842
 10
12.9431474497
 20
11.4293788227
 10
12.9783614162
 20
11.4645927892
 10
13.0135753828
 20
11.4998064624
 10
13.0487183634
 20
11.5349494431
 10
13.0837196658
 20
11.5699507455
 10
13.1185085972
 20
11.6047399702
 10
13.1530156386
 20
11.6392467183
 10
13.187170684
 20
11.673402057
 10
13.2209053877
 20
11.7071364673
 10
13.2541514036
 20
11.7403827766
 10
13.2868424393
 20
11.773073519
 10
13.3189119088
 20
11.8051429885
 10
13.3502955729
 20
11.8365266526
 10
13.3809303657
 20
11.8671614454
 10
13.4107541012
 20
11.8969854742
 10
13.4397072334
 20
11.9259386064
 10
13.4677313896
 20
11.9539627627
 10
13.4947699573
 20
11.9810013303
 10
13.5207686703
 20
12.00699975
 10
13.5456747292
 20
12.0319061022
 10
13.5694385614
 20
12.0556699344
 10
13.5920120606
 20
12.0782431403
 10
13.6133497608
 20
12.0995808405
 10
13.6334085424
 20
12.1196396221
 10
13.6521482192
 20
12.1383792989
 10
13.6695306584
 20
12.1557620314
 10
13.6855215404
 20
12.1717529134
 10
13.7000883054
 20
12.1863193851
 10
13.7132016206
 20
12.1994327003
 10
13.7248347929
 20
12.2110658726
 10
13.7349649425
 20
12.2211960222
 10
13.7435712431
 20
12.2298023228
 10
13.7506363882
 20
12.2368677612
 10
13.7561465912
 20
12.2423776709
 10
13.7600904123
 20
12.246321492
 10
13.7624596382
 20
12.2486910113
 10
13.7632498691
 20
12.2494812421
  0
LWPOLYLINE
  5
156
330
1F
100
AcDbEntity
  8
0
  6
Continuous
 62
     7
370
    25
100
AcDbPolyline
 90
       71
 70
   128
 43
0.0
 10
4.7012183945
 20
12.2494812421
 10
4.7020086253
 20
12.2486910113
 10
4.7043778513
 20
12.246321492
 10
4.7083216724
 20
12.2423776709
 10
4.7138318754
 20
12.2368677612
 10
4.7208970205
 20
12.2298023228
 10
4.7295033211
 20
12.2211960222
 10
4.7396334707
 20
12.2110658726
 10
4.751266643
 20
12.1994327003
 10
4.7643799582
 20
12.1863193851
 10
4.7789467232
 20
12.1717529134
 10
4.7949376052
 20
12.1557620314
 10
4.8123200444
 20
12.1383792989
 10
4.8310597212
 20
12.1196396221
 10
4.8511185028
 20
12.0995808405
 10
4.872456203
 20
12.0782431403
 10
4.8950297022
 20
12.0556699344
 10
4.9187935344
 20
12.0319061022
 10
4.9436995933
 20
12.00699975
 10
4.9696983063
 20
11.9810013303
 10
4.996736874
 20
11.9539627627
 10
5.0247610302
 20
11.9259386064
 10
5.0537141624
 20
11.8969854742
 10
5.0835378979
 20
11.8671614454
 10
5.1141726907
 20
11.8365266526
 10
5.1455563548
 20
11.8051429885
 10
5.1776258243
 20
11.773073519
 10
5.21031686
 20
11.7403827766
 10
5.2435628759
 20
11.7071364673
 10
5.2772975796
 20
11.673402057
 10
5.311452625
 20
11.6392467183
 10
5.3459596664
 20
11.6047399702
 10
5.3807485978
 20
11.5699507455
 10
5.4157499001
 20
11.5349494431
 10
5.4508928808
 20
11.4998064624
 10
5.4861068474
 20
11.4645927892
 10
5.5213208139
 20
11.4293788227
 10
5.5564637946
 20
11.394235842
 10
5.5914648036
 20
11.3592345397
 10
5.6262540284
 20
11.3244453149
 10
5.6607607764
 20
11.2899385668
 10
5.6949161152
 20
11.2557835214
 10
5.7286508188
 20
11.2220488178
 10
5.7618968348
 20
11.1888025085
 10
5.7945875771
 20
11.1561117662
 10
5.8266570466
 20
11.1240422966
 10
5.8580410041
 20
11.0926586325
 10
5.8886755035
 20
11.0620238397
 10
5.9184995323
 20
11.0321998109
 10
5.9474526645
 20
11.0032466787
 10
5.9754768208
 20
10.9752228158
 10
6.0025153885
 20
10.9481842482
 10
6.0285138081
 20
10.9221855352
 10
6.0534201604
 20
10.8972791829
 10
6.0771839925
 20
10.8735156441
 10
6.0997574918
 20
10.8509421448
 10
6.1210948986
 20
10.8296044447
 10
6.1411536802
 20
10.8095456631
 10
6.1598933571
 20
10.7908059862
 10
6.1772760896
 20
10.7734232537
 10
6.1932669715
 20
10.7574326651
 10
6.2078334433
 20
10.7428659
 10
6.2209467584
 20
10.7297525848
 10
6.2325802241
 20
10.7181194126
 10
6.2427100804
 20
10.7079892629
 10
6.2513163809
 20
10.6993829623
 10
6.2583818193
 20
10.692317524
 10
6.2638920223
 20
10.6868076143
 10
6.2678355501
 20
10.6828637932
 10
6.2702050694
 20
10.6804945672
 10
6.2709953003
 20
10.679704043
  0
LINE
  5
157
330
1F
100
AcDbEntity
  8
0
  6
Continuous
 62
     7
370
    25
100
AcDbLine
 10
7.1851341667
 20
13.6637199447
 30
0.0
 11
7.1851341667
 21
13.6636936917
 31
0.0
  0
LINE
  5
158
330
1F
100
AcDbEntity
  8
0
  6
Continuous
 62
     7
370
    25
100
AcDbLine
 10
11.2793340969
 20
12.6737199413
 30
0.0
 11
11.2793340969
 21
13.0047993966
 31
0.0
  0
LINE
  5
159
330
1F
100
AcDbEntity
  8
0
  6
Continuous
 62
     7
370
    25
100
AcDbLine
 10
11.2793340969
 20
13.332640636
 30
0.0
 11
11.2793340969
 21
13.6637199447
 31
0.0
  0
LINE
  5
15A
330
1F
100
AcDbEntity
  8
0
  6
Continuous
 62
     7
370
    25
100
AcDbLine
 10
9.7272341335
 20
15.7887199832
 30
0.0
 11
8.7372341301
 21
15.7887199832
 31
0.0
  0
DIMENSION
  5
15B
330
1F
100
AcDbEntity
  8
0
  6
Continuous
 62
     7
370
    18
100
AcDbDimension
  2
_D
 10
19.9560798743
 20
11.7177255791
 30
0.0
 11
17.4241198307
 21
14.2496856227
 31
0.0
 70
   160
  1
<>
 71
     2
 42
-1.0
  3
SLDDIMSTYLE0
100
AcDbAlignedDimension
 13
11.2793341318
 23
13.1688200109
 33
0.0
 14
17.1255427461
 24
8.8871884509
 34
0.0
 50
-45.0
100
AcDbRotatedDimension
  0
DIMENSION
  5
171
330
1F
100
AcDbEntity
  8
0
  6
Continuous
 62
     7
370
    18
100
AcDbDimension
  2
_D_1
 10
3.9045894653
 20
15.7987200109
 30
0.0
 11
3.9045894653
 21
18.9357217198
 31
0.0
 70
   160
  1
SPECIFY PROJECTION LENGTH\P18"-48"\P[457mm - 1219mm]
 71
     2
 42
-1.0
  3
SLDDIMSTYLE1
100
AcDbAlignedDimension
 13
6.7972341318
 23
22.0727234287
 33
0.0
 14
8.7322341318
 24
15.7987200109
 34
0.0
 50
90.0
100
AcDbRotatedDimension
  0
DIMENSION
  5
183
330
1F
100
AcDbEntity
  8
0
  6
Continuous
 62
     7
370
    18
100
AcDbDimension
  2
_D_2
 10
3.9326615642
 20
22.0727234287
 30
0.0
 11
3.9326615642
 21
24.021245592
 31
0.0
 70
   160
  1
<>
 71
     2
 42
-1.0
  3
SLDDIMSTYLE2
100
AcDbAlignedDimension
 13
6.7472341318
 23
22.4477234287
 33
0.0
 14
6.7972341318
 24
22.0727234287
 34
0.0
 50
90.0
100
AcDbRotatedDimension
  0
DIMENSION
  5
199
330
1F
100
AcDbEntity
  8
0
  6
Continuous
 62
     7
370
    18
100
AcDbDimension
  2
_D_3
 10
3.9045894653
 20
13.1687200109
 30
0.0
 11
3.9045894653
 21
14.4837200109
 31
0.0
 70
   160
  1
<>
 71
     2
 42
-1.0
  3
SLDDIMSTYLE2
100
AcDbAlignedDimension
 13
8.7322341318
 23
15.7987200109
 33
0.0
 14
7.1902341318
 24
13.1687200109
 34
0.0
 50
90.0
100
AcDbRotatedDimension
  0
DIMENSION
  5
1AD
330
1F
100
AcDbEntity
  8
0
  6
Continuous
 62
     7
370
    18
100
AcDbDimension
  2
_D_4
 10
11.2793973719
 20
10.5828707472
 30
0.0
 11
9.2348473719
 21
10.5828207472
 31
0.0
 70
   160
  1
<>
 71
     2
 42
-1.0
  3
SLDDIMSTYLE0
100
AcDbAlignedDimension
 13
7.1902341318
 23
13.1687200109
 33
0.0
 14
11.2793341318
 24
13.1688200109
 34
0.0
 50
0.0014011831
100
AcDbRotatedDimension
  0
DIMENSION
  5
1C1
330
1F
100
AcDbEntity
  8
0
  6
Continuous
 62
     7
370
    18
100
AcDbDimension
  2
_D_5
 10
13.4067236476
 20
15.2962095267
 30
0.0
 11
14.2610728528
 21
14.4418603215
 31
0.0
 70
   160
  1
<>
 71
     2
 42
-1.0
  3
SLDDIMSTYLE2
100
AcDbAlignedDimension
 13
13.7703210694
 23
12.2424101276
 33
0.0
 14
11.2793341318
 24
13.1688200109
 34
0.0
 50
-45.0
100
AcDbRotatedDimension
  0
DIMENSION
  5
1D5
330
1F
100
AcDbEntity
  8
0
  6
Continuous
 62
     7
370
    18
100
AcDbDimension
  2
_D_6
 10
17.8098715395
 20
8.2028596575
 30
0.0
 11
17.0249830124
 21
7.4179711304
 31
0.0
 70
   160
  1
%%c<>
 71
     2
 42
-1.0
  3
SLDDIMSTYLE2
100
AcDbAlignedDimension
 13
13.9859886376
 23
8.8871884509
 33
0.0
 14
17.1255427461
 24
8.8871884509
 34
0.0
 50
45.0
100
AcDbRotatedDimension
  0
ARC
  5
1E8
330
1F
100
AcDbEntity
  8
0
  6
HIDDEN
 62
     7
370
    18
100
AcDbCircle
 10
9.6697341318
 20
20.0272407337
 30
0.0
 40
1.137500000000001
100
AcDbArc
 50
247.380135052
 51
292.619864948
  0
ARC
  5
1E9
330
1F
100
AcDbEntity
  8
0
  6
HIDDEN
 62
     7
370
    18
100
AcDbCircle
 10
8.7947341318
 20
17.9272407337
 30
0.0
 40
1.137500000000001
100
AcDbArc
 50
67.380135052
 51
112.619864948
  0
ARC
  5
1EA
330
1F
100
AcDbEntity
  8
0
  6
HIDDEN
 62
     7
370
    18
100
AcDbCircle
 10
9.6697341318
 20
20.3272407337
 30
0.0
 40
1.137500000000001
100
AcDbArc
 50
247.380135052
 51
292.619864948
  0
ARC
  5
1EB
330
1F
100
AcDbEntity
  8
0
  6
HIDDEN
 62
     7
370
    18
100
AcDbCircle
 10
8.7947341318
 20
18.2272407337
 30
0.0
 40
1.137500000000001
100
AcDbArc
 50
67.380135052
 51
112.619864948
  0
LINE
  5
1EC
330
1F
100
AcDbEntity
  8
0
  6
Continuous
 62
     7
370
    25
100
AcDbLine
 10
5.2124302251
 20
2.6448978305
 30
0.0
 11
5.2124302251
 21
4.8519413044
 31
0.0
  0
LINE
  5
1ED
330
1F
100
AcDbEntity
  8
0
  6
Continuous
 62
     7
370
    25
100
AcDbLine
 10
5.2124302251
 20
2.3269413044
 30
0.0
 11
5.2124302251
 21
2.5091600735
 31
0.0
  0
LINE
  5
1EE
330
1F
100
AcDbEntity
  8
0
  6
Continuous
 62
     7
370
    25
100
AcDbLine
 10
2.9924302251
 20
7.0719413044
 30
0.0
 11
2.9924302251
 21
2.3269413044
 31
0.0
  0
LINE
  5
1EF
330
1F
100
AcDbEntity
  8
0
  6
Continuous
 62
     7
370
    25
100
AcDbLine
 10
2.9924302251
 20
7.0719413044
 30
0.0
 11
5.2124302251
 21
4.8519413044
 31
0.0
  0
LINE
  5
1F0
330
1F
100
AcDbEntity
  8
0
  6
Continuous
 62
     7
370
    25
100
AcDbLine
 10
2.9924302251
 20
2.3269413044
 30
0.0
 11
5.2124302251
 21
2.3269413044
 31
0.0
  0
SPLINE
  5
1F1
330
1F
100
AcDbEntity
  8
0
  6
Continuous
 62
     7
370
    25
100
AcDbSpline
210
0.0
220
0.0
230
1.0
 70
     8
 71
     3
 72
    26
 73
    22
 74
     0
 42
0.00000001
 43
0.00000001
 40
0.0
 40
0.0
 40
0.0
 40
0.0
 40
0.0366214964884576
 40
0.0894453430016904
 40
0.1437992306352671
 40
0.1966606285712171
 40
0.2510500574716295
 40
0.3039963223031515
 40
0.3584776806048262
 40
0.4114239354211615
 40
0.4659104750210932
 40
0.5187714412319908
 40
0.5731678399642085
 40
0.625991469170295
 40
0.6803432448079227
 40
0.7332356294019678
 40
0.7876577885963871
 40
0.8406177944135143
 40
0.8951155732594256
 40
0.948036621704778
 40
1.0
 40
1.0
 40
1.0
 40
1.0
 10
5.212416856149963
 20
2.509160073515353
 30
0.0
 10
5.212416825413658
 20
2.509160152118979
 30
0.0
 10
5.212416750342472
 20
2.509160344102622
 30
0.0
 10
5.212282068454445
 20
2.511378389679713
 30
0.0
 10
5.212048640062807
 20
2.515418026861909
 30
0.0
 10
5.211734145320877
 20
2.521318616140596
 30
0.0
 10
5.211384416615623
 20
2.528717912845904
 30
0.0
 10
5.211031548897221
 20
2.537567585482606
 30
0.0
 10
5.210721427054726
 20
2.54745491673372
 30
0.0
 10
5.210484130016002
 20
2.558275994985618
 30
0.0
 10
5.210350470879622
 20
2.569523060223201
 30
0.0
 10
5.210333235043838
 20
2.581078567452489
 30
0.0
 10
5.210434400798611
 20
2.592403499209967
 30
0.0
 10
5.210644055738611
 20
2.603387452214924
 30
0.0
 10
5.210935183032015
 20
2.613527562061332
 30
0.0
 10
5.211279958228652
 20
2.622723609418836
 30
0.0
 10
5.211634014609865
 20
2.630549590852675
 30
0.0
 10
5.211963998610224
 20
2.636934058815195
 30
0.0
 10
5.212224073828233
 20
2.641524588075411
 30
0.0
 10
5.212398326303956
 20
2.644424171364024
 30
0.0
 10
5.212417887395502
 20
2.6447409081091
 30
0.0
 10
5.212427578637866
 20
2.644897830464647
 30
0.0
  0
SPLINE
  5
1F2
330
1F
100
AcDbEntity
  8
0
  6
Continuous
 62
     7
370
    25
100
AcDbSpline
210
0.0
220
0.0
230
1.0
 70
    11
 71
     3
 72
    56
 73
    52
 74
     0
 42
0.00000001
 43
0.00000001
 40
0.0
 40
0.0
 40
0.0
 40
0.0
 40
0.03125
 40
0.03125
 40
0.0624999999999999
 40
0.0624999999999999
 40
0.0937499999999999
 40
0.0937499999999999
 40
0.1249999999999999
 40
0.1249999999999999
 40
0.1874999999999995
 40
0.1874999999999995
 40
0.2499999999999991
 40
0.2499999999999991
 40
0.2812499999999992
 40
0.2812499999999992
 40
0.3124999999999993
 40
0.3124999999999993
 40
0.3437499999999993
 40
0.3437499999999993
 40
0.3749999999999994
 40
0.3749999999999994
 40
0.4062499999999995
 40
0.4062499999999995
 40
0.4374999999999996
 40
0.4374999999999996
 40
0.4687499999999997
 40
0.4687499999999997
 40
0.4999999999999997
 40
0.4999999999999997
 40
0.5625
 40
0.5625
 40
0.6250000000000004
 40
0.6250000000000004
 40
0.6562500000000003
 40
0.6562500000000003
 40
0.6875000000000004
 40
0.6875000000000004
 40
0.7187500000000006
 40
0.7187500000000006
 40
0.7500000000000006
 40
0.7500000000000006
 40
0.8125000000000008
 40
0.8125000000000008
 40
0.8437500000000009
 40
0.8437500000000009
 40
0.8750000000000008
 40
0.8750000000000008
 40
0.9375000000000004
 40
0.9375000000000004
 40
1.0
 40
1.0
 40
1.0
 40
1.0
 10
3.607362372906521
 20
2.576941304366735
 30
0.0
 10
3.607362372906522
 20
2.572447768608757
 30
0.0
 10
3.60696677287052
 20
2.568029533592674
 30
0.0
 10
3.605418419294861
 20
2.55933744135649
 30
0.0
 10
3.604246834475982
 20
2.555018486114095
 30
0.0
 10
3.601193905112055
 20
2.546784054792295
 30
0.0
 10
3.599327710102633
 20
2.542878734772741
 30
0.0
 10
3.594928365385105
 20
2.535487749702614
 30
0.0
 10
3.592372527574877
 20
2.531989145388108
 30
0.0
 10
3.584020444953557
 20
2.522582268567623
 30
0.0
 10
3.57731570429627
 20
2.517516303178467
 30
0.0
 10
3.56295231342208
 20
2.510732968975269
 30
0.0
 10
3.555145027167295
 20
2.508946076393824
 30
0.0
 10
3.543620241918545
 20
2.508938933048726
 30
0.0
 10
3.539731857251309
 20
2.509380428696061
 30
0.0
 10
3.532230523597481
 20
2.51111531605996
 30
0.0
 10
3.528597345170969
 20
2.512398968138835
 30
0.0
 10
3.521562887169746
 20
2.515803589414132
 30
0.0
 10
3.518173312018062
 20
2.517932215561689
 30
0.0
 10
3.511917487841281
 20
2.52285319722568
 30
0.0
 10
3.509010607930503
 20
2.52566254183486
 30
0.0
 10
3.503648395633383
 20
2.532007053021732
 30
0.0
 10
3.501276282424377
 20
2.535445231995897
 30
0.0
 10
3.497135736597136
 20
2.542807428944494
 30
0.0
 10
3.495349827993675
 20
2.546780935073444
 30
0.0
 10
3.492488891622989
 20
2.55501922041971
 30
0.0
 10
3.491412729240174
 20
2.55925779971758
 30
0.0
 10
3.489956976029095
 20
2.56797138043732
 30
0.0
 10
3.489584251706316
 20
2.572478763696435
 30
0.0
 10
3.489580261529612
 20
2.585793198064788
 30
0.0
 10
3.491064427225063
 20
2.594740625333467
 30
0.0
 10
3.496735225382901
 20
2.611111796803711
 30
0.0
 10
3.500982314058483
 20
2.618702545365844
 30
0.0
 10
3.508914703064785
 20
2.628115705231863
 30
0.0
 10
3.511871565719686
 20
2.630989166961097
 30
0.0
 10
3.518146675374303
 20
2.635933513883705
 30
0.0
 10
3.521469653001092
 20
2.638024880236221
 30
0.0
 10
3.528494836375721
 20
2.641442794031172
 30
0.0
 10
3.532199889155508
 20
2.64275674921414
 30
0.0
 10
3.539675789087525
 20
2.644492631287218
 30
0.0
 10
3.543485849109632
 20
2.644936798071819
 30
0.0
 10
3.555142879423616
 20
2.644950215612004
 30
0.0
 10
3.562845032935865
 20
2.643191404424873
 30
0.0
 10
3.573701667160863
 20
2.638077493691225
 30
0.0
 10
3.577142906166983
 20
2.635991366040521
 30
0.0
 10
3.583668918564834
 20
2.631066676511048
 30
0.0
 10
3.586771231421821
 20
2.628197789855181
 30
0.0
 10
3.59513331716213
 20
2.618792668217798
 30
0.0
 10
3.599660237222713
 20
2.611215154547244
 30
0.0
 10
3.605740041719081
 20
2.594856520313825
 30
0.0
 10
3.607362372906521
 20
2.58592837588269
 30
0.0
 10
3.607362372906522
 20
2.576941304366735
 30
0.0
  0
SPLINE
  5
1F3
330
1F
100
AcDbEntity
  8
0
  6
Continuous
 62
     7
370
    25
100
AcDbSpline
210
0.0
220
0.0
230
1.0
 70
     8
 71
     3
 72
    23
 73
    19
 74
     0
 42
0.00000001
 43
0.00000001
 40
0.0
 40
0.0
 40
0.0
 40
0.0
 40
0.0523983360470322
 40
0.1199697790356453
 40
0.1875416299219612
 40
0.2552415804074457
 40
0.3229411077746593
 40
0.3906450207793536
 40
0.4583483330498646
 40
0.5259247207816169
 40
0.5935012704471323
 40
0.6610179049559889
 40
0.7285352030750087
 40
0.7961528676041333
 40
0.8637706647294742
 40
0.9314926032619197
 40
0.9992139322641502
 40
1.0
 40
1.0
 40
1.0
 40
1.0
 10
3.566515182489171
 20
2.641305284626199
 30
0.0
 10
3.564122070457736
 20
2.64033044152312
 30
0.0
 10
3.558642867428061
 20
2.638098467752698
 30
0.0
 10
3.550941539657011
 20
2.632498976059852
 30
0.0
 10
3.543515324482733
 20
2.625115176633503
 30
0.0
 10
3.537317097391284
 20
2.616276006895815
 30
0.0
 10
3.532433539016242
 20
2.606351194072769
 30
0.0
 10
3.529057107801077
 20
2.595567451604556
 30
0.0
 10
3.527212418179279
 20
2.584271345565454
 30
0.0
 10
3.527007141006939
 20
2.572769234621519
 30
0.0
 10
3.528377981611224
 20
2.561393664608514
 30
0.0
 10
3.531352328326971
 20
2.550473282736454
 30
0.0
 10
3.535792356831593
 20
2.540281210492052
 30
0.0
 10
3.541652183605188
 20
2.531160126614245
 30
0.0
 10
3.548713247755928
 20
2.52324021394921
 30
0.0
 10
3.556917791505501
 20
2.517097616882137
 30
0.0
 10
3.562817056498386
 20
2.513524475711992
 30
0.0
 10
3.566036671768338
 20
2.51258961579402
 30
0.0
 10
3.566073614285585
 20
2.512578889022108
 30
0.0
  0
INSERT
  5
1F4
330
1F
100
AcDbEntity
  8
0
  6
Continuous
 62
     7
100
AcDbBlockReference
  2
Block1
 10
3.2663188637
 20
1.1182707816
 30
0.0
 41
0.5
 42
0.5
 43
0.5
  0
DIMENSION
  5
1F5
330
1F
100
AcDbEntity
  8
0
  6
Continuous
 62
     7
370
    18
100
AcDbDimension
  2
_D_7
 10
1.742443459
 20
7.0719413044
 30
0.0
 11
1.742443459
 21
4.6994413044
 31
0.0
 70
   160
  1
<>
 71
     2
 42
-1.0
  3
SLDDIMSTYLE0
100
AcDbAlignedDimension
 13
2.9924302251
 23
2.3269413044
 33
0.0
 14
2.9924302251
 24
7.0719413044
 34
0.0
 50
90.0
100
AcDbRotatedDimension
  0
ARC
  5
209
330
1F
100
AcDbEntity
  8
0
  6
Continuous
 62
     7
370
    25
100
AcDbCircle
 10
8.5351748145
 20
4.7685164313
 30
0.0
 40
0.0299999999999994
100
AcDbArc
 50
90.0
 51
180.0
  0
ARC
  5
20A
330
1F
100
AcDbEntity
  8
0
  6
Continuous
 62
     7
370
    25
100
AcDbCircle
 10
10.6951748145
 20
4.7685164313
 30
0.0
 40
0.0300000000000011
100
AcDbArc
 50
0.0
 51
90.0
  0
LINE
  5
20B
330
1F
100
AcDbEntity
  8
0
  6
Continuous
 62
     7
370
    25
100
AcDbLine
 10
10.7251748145
 20
2.566495724
 30
0.0
 11
10.7251748145
 21
4.7685164313
 31
0.0
  0
LINE
  5
20C
330
1F
100
AcDbEntity
  8
0
  6
Continuous
 62
     7
370
    25
100
AcDbLine
 10
10.7251748145
 20
2.2485164313
 30
0.0
 11
10.7251748145
 21
2.4305730218
 31
0.0
  0
LINE
  5
20D
330
1F
100
AcDbEntity
  8
0
  6
Continuous
 62
     7
370
    25
100
AcDbLine
 10
8.5051748145
 20
4.7685164313
 30
0.0
 11
8.5051748145
 21
2.2485164313
 31
0.0
  0
LINE
  5
20E
330
1F
100
AcDbEntity
  8
0
  6
Continuous
 62
     7
370
    25
100
AcDbLine
 10
8.5351748145
 20
4.7985164313
 30
0.0
 11
10.6951748145
 21
4.7985164313
 31
0.0
  0
LINE
  5
20F
330
1F
100
AcDbEntity
  8
0
  6
Continuous
 62
     7
370
    25
100
AcDbLine
 10
8.5051748145
 20
2.2485164313
 30
0.0
 11
10.7251748145
 21
2.2485164313
 31
0.0
  0
SPLINE
  5
210
330
1F
100
AcDbEntity
  8
0
  6
Continuous
 62
     7
370
    25
100
AcDbSpline
210
0.0
220
0.0
230
1.0
 70
     8
 71
     3
 72
    45
 73
    41
 74
     0
 42
0.00000001
 43
0.00000001
 40
0.0
 40
0.0
 40
0.0
 40
0.0
 40
0.0094289094174146
 40
0.0366438128280125
 40
0.0630541983983063
 40
0.0894646038911567
 40
0.1166412925856764
 40
0.1438180124421665
 40
0.170247125065898
 40
0.1966762613254146
 40
0.2238706913251743
 40
0.2510651314997896
 40
0.2775367390964916
 40
0.3040083371713322
 40
0.3312488626646395
 40
0.3584893611680593
 40
0.3849610404740847
 40
0.4114326916498235
 40
0.4386758957910074
 40
0.4659190777322936
 40
0.4923480841110628
 40
0.5187770877739214
 40
0.5459751278979099
 40
0.5731731853201729
 40
0.599583434336174
 40
0.6259937100463997
 40
0.6531693107228185
 40
0.6803449408455762
 40
0.7067895569217638
 40
0.7332341874849082
 40
0.7604450162698221
 40
0.7876558408805281
 40
0.8141343516345931
 40
0.8406128419934897
 40
0.8678616249117672
 40
0.8951103762937487
 40
0.9215694560743845
 40
0.9480285123619312
 40
0.9752587923886415
 40
1.0
 40
1.0
 40
1.0
 40
1.0
 10
10.72517133170276
 20
2.430573021759789
 30
0.0
 10
10.72517225929438
 20
2.430557798696593
 30
0.0
 10
10.72517586421748
 20
2.430498636915125
 30
0.0
 10
10.7251513315383
 20
2.430900174569878
 30
0.0
 10
10.72509877533225
 20
2.431765544577818
 30
0.0
 10
10.72501773490871
 20
2.433124543487255
 30
0.0
 10
10.72491103824011
 20
2.434955552394455
 30
0.0
 10
10.72478197954579
 20
2.43724561035122
 30
0.0
 10
10.72463572484859
 20
2.439947800522876
 30
0.0
 10
10.72447559829013
 20
2.443055756757075
 30
0.0
 10
10.72430403515385
 20
2.446590576955692
 30
0.0
 10
10.72412747184663
 20
2.450500432725211
 30
0.0
 10
10.72395265935807
 20
2.454716087793543
 30
0.0
 10
10.72378268517977
 20
2.459238228249514
 30
0.0
 10
10.72362109540389
 20
2.464086548078588
 30
0.0
 10
10.72347413490452
 20
2.469183457327327
 30
0.0
 10
10.7233474001476
 20
2.474440654189783
 30
0.0
 10
10.7232423152206
 20
2.479865600966541
 30
0.0
 10
10.72316187811166
 20
2.485477733342112
 30
0.0
 10
10.72310930279995
 20
2.491181259676335
 30
0.0
 10
10.72308647708585
 20
2.496879171765884
 30
0.0
 10
10.72309246069789
 20
2.502585253272824
 30
0.0
 10
10.72312844343685
 20
2.508317410302095
 30
0.0
 10
10.7231931151714
 20
2.513977514214274
 30
0.0
 10
10.72328387777051
 20
2.51947191346198
 30
0.0
 10
10.72339791977829
 20
2.524819542570978
 30
0.0
 10
10.72353416398006
 20
2.530030273745015
 30
0.0
 10
10.7236875169
 20
2.53501657363445
 30
0.0
 10
10.72385208453038
 20
2.539698160339403
 30
0.0
 10
10.72402442034118
 20
2.544096420673268
 30
0.0
 10
10.72420154251539
 20
2.548210398800238
 30
0.0
 10
10.7243767503837
 20
2.55196853469887
 30
0.0
 10
10.7245433492997
 20
2.555312438457871
 30
0.0
 10
10.72469868782926
 20
2.558263662208185
 30
0.0
 10
10.72483924774959
 20
2.560814415084748
 30
0.0
 10
10.72495948192375
 20
2.562914477103202
 30
0.0
 10
10.72505510243151
 20
2.564538820678592
 30
0.0
 10
10.72512458346231
 20
2.565693304098324
 30
0.0
 10
10.7251675200021
 20
2.566398275849608
 30
0.0
 10
10.72517160195695
 20
2.566464295260041
 30
0.0
 10
10.72517354518576
 20
2.566495724030202
 30
0.0
  0
SPLINE
  5
211
330
1F
100
AcDbEntity
  8
0
  6
Continuous
 62
     7
370
    25
100
AcDbSpline
210
0.0
220
0.0
230
1.0
 70
    11
 71
     3
 72
    56
 73
    52
 74
     0
 42
0.00000001
 43
0.00000001
 40
0.0
 40
0.0
 40
0.0
 40
0.0
 40
0.0312500000000006
 40
0.0312500000000006
 40
0.0625000000000012
 40
0.0625000000000012
 40
0.0937500000000018
 40
0.0937500000000018
 40
0.1250000000000024
 40
0.1250000000000024
 40
0.1875000000000026
 40
0.1875000000000026
 40
0.2500000000000028
 40
0.2500000000000028
 40
0.281250000000003
 40
0.281250000000003
 40
0.3125000000000032
 40
0.3125000000000032
 40
0.3437500000000033
 40
0.3437500000000033
 40
0.3750000000000034
 40
0.3750000000000034
 40
0.4062500000000036
 40
0.4062500000000036
 40
0.4375000000000038
 40
0.4375000000000038
 40
0.4687500000000039
 40
0.4687500000000039
 40
0.5000000000000041
 40
0.5000000000000041
 40
0.5625000000000044
 40
0.5625000000000044
 40
0.6250000000000048
 40
0.6250000000000048
 40
0.6562500000000043
 40
0.6562500000000043
 40
0.687500000000004
 40
0.687500000000004
 40
0.7187500000000036
 40
0.7187500000000036
 40
0.7500000000000031
 40
0.7500000000000031
 40
0.8125000000000023
 40
0.8125000000000023
 40
0.843750000000002
 40
0.843750000000002
 40
0.8750000000000016
 40
0.8750000000000016
 40
0.9375000000000008
 40
0.9375000000000008
 40
1.0
 40
1.0
 40
1.0
 40
1.0
 10
9.120106962335415
 20
2.498516431288823
 30
0.0
 10
9.120106962335415
 20
2.494022895530846
 30
0.0
 10
9.119711362299414
 20
2.489604660514761
 30
0.0
 10
9.118163008723755
 20
2.480912568278578
 30
0.0
 10
9.116991423904876
 20
2.476593613036183
 30
0.0
 10
9.11393849454095
 20
2.468359181714383
 30
0.0
 10
9.112072299531526
 20
2.464453861694829
 30
0.0
 10
9.107672954814
 20
2.457062876624701
 30
0.0
 10
9.105117117003772
 20
2.453564272310195
 30
0.0
 10
9.096765034382452
 20
2.444157395489712
 30
0.0
 10
9.090060293725164
 20
2.439091430100554
 30
0.0
 10
9.075696902850973
 20
2.432308095897357
 30
0.0
 10
9.067889616596188
 20
2.430521203315912
 30
0.0
 10
9.05636483134744
 20
2.430514059970814
 30
0.0
 10
9.052476446680203
 20
2.430955555618148
 30
0.0
 10
9.044975113026375
 20
2.432690442982048
 30
0.0
 10
9.041341934599863
 20
2.433974095060922
 30
0.0
 10
9.03430747659864
 20
2.43737871633622
 30
0.0
 10
9.030917901446957
 20
2.439507342483777
 30
0.0
 10
9.024662077270174
 20
2.444428324147768
 30
0.0
 10
9.021755197359397
 20
2.447237668756948
 30
0.0
 10
9.016392985062277
 20
2.45358217994382
 30
0.0
 10
9.01402087185327
 20
2.457020358917985
 30
0.0
 10
9.00988032602603
 20
2.464382555866581
 30
0.0
 10
9.00809441742257
 20
2.468356061995532
 30
0.0
 10
9.005233481051881
 20
2.476594347341798
 30
0.0
 10
9.004157318669067
 20
2.480832926639668
 30
0.0
 10
9.002701565457988
 20
2.489546507359408
 30
0.0
 10
9.00232884113521
 20
2.494053890618523
 30
0.0
 10
9.002324850958505
 20
2.507368324986875
 30
0.0
 10
9.003809016653955
 20
2.516315752255554
 30
0.0
 10
9.009479814811796
 20
2.532686923725799
 30
0.0
 10
9.013726903487377
 20
2.540277672287931
 30
0.0
 10
9.021659292493679
 20
2.54969083215395
 30
0.0
 10
9.02461615514858
 20
2.552564293883186
 30
0.0
 10
9.030891264803197
 20
2.557508640805793
 30
0.0
 10
9.034214242429986
 20
2.559600007158308
 30
0.0
 10
9.041239425804614
 20
2.563017920953259
 30
0.0
 10
9.044944478584402
 20
2.564331876136228
 30
0.0
 10
9.052420378516418
 20
2.566067758209306
 30
0.0
 10
9.056230438538526
 20
2.566511924993907
 30
0.0
 10
9.06788746885251
 20
2.566525342534093
 30
0.0
 10
9.07558962236476
 20
2.564766531346961
 30
0.0
 10
9.086446256589756
 20
2.559652620613313
 30
0.0
 10
9.089887495595878
 20
2.557566492962609
 30
0.0
 10
9.096413507993729
 20
2.552641803433136
 30
0.0
 10
9.099515820850716
 20
2.549772916777269
 30
0.0
 10
9.107877906591023
 20
2.540367795139885
 30
0.0
 10
9.112404826651607
 20
2.532790281469332
 30
0.0
 10
9.118484631147975
 20
2.516431647235912
 30
0.0
 10
9.120106962335415
 20
2.507503502804778
 30
0.0
 10
9.120106962335415
 20
2.498516431288823
 30
0.0
  0
SPLINE
  5
212
330
1F
100
AcDbEntity
  8
0
  6
Continuous
 62
     7
370
    25
100
AcDbSpline
210
0.0
220
0.0
230
1.0
 70
     8
 71
     3
 72
    31
 73
    27
 74
     0
 42
0.00000001
 43
0.00000001
 40
0.0
 40
0.0
 40
0.0
 40
0.0
 40
0.0060032977605746
 40
0.050980364514524
 40
0.0959923599214653
 40
0.1411474903418977
 40
0.186159767757287
 40
0.2312573054632489
 40
0.2764985176199316
 40
0.3215957627939249
 40
0.3666958717691455
 40
0.4119401519997875
 40
0.457039845643788
 40
0.5020550374769889
 40
0.5472140734505214
 40
0.5922293772402014
 40
0.6372048471597928
 40
0.6823235223912107
 40
0.7272994511114319
 40
0.7723422250255323
 40
0.8175282505790188
 40
0.8625711161662645
 40
0.9076832708162366
 40
0.9529393342702848
 40
0.9980510675080562
 40
1.0
 40
1.0
 40
1.0
 40
1.0
 10
9.079022688047502
 20
2.562912951150795
 30
0.0
 10
9.07874326490924
 20
2.562820082950243
 30
0.0
 10
9.07637038686612
 20
2.562031440623179
 30
0.0
 10
9.072140504673396
 20
2.559779525356793
 30
0.0
 10
9.066448865841306
 20
2.556116218173556
 30
0.0
 10
9.061185025185562
 20
2.551657229373634
 30
0.0
 10
9.056376499674752
 20
2.546554533859618
 30
0.0
 10
9.052107081282392
 20
2.540822336714953
 30
0.0
 10
9.048406292388872
 20
2.534560806743346
 30
0.0
 10
9.045317727893059
 20
2.527846615077961
 30
0.0
 10
9.042899599500632
 20
2.520751804695723
 30
0.0
 10
9.041156631579465
 20
2.513379747330432
 30
0.0
 10
9.040108440862051
 20
2.505824350656871
 30
0.0
 10
9.039790339022726
 20
2.498178909907999
 30
0.0
 10
9.040179510381725
 20
2.490544129608636
 30
0.0
 10
9.04127124701595
 20
2.483009592563296
 30
0.0
 10
9.043076683443632
 20
2.475677989391087
 30
0.0
 10
9.045550348245833
 20
2.468634743603427
 30
0.0
 10
9.048667541887072
 20
2.461958607515235
 30
0.0
 10
9.052415653970579
 20
2.455751525654982
 30
0.0
 10
9.056730488544199
 20
2.450073783295811
 30
0.0
 10
9.061567840124981
 20
2.445002484908565
 30
0.0
 10
9.06687997599546
 20
2.440594573230363
 30
0.0
 10
9.072623030053316
 20
2.437004445485592
 30
0.0
 10
9.076694220479357
 20
2.434838062001355
 30
0.0
 10
9.07888898951514
 20
2.434126717610562
 30
0.0
 10
9.078979881911579
 20
2.434097258567119
 30
0.0
  0
LINE
  5
213
330
1F
100
AcDbEntity
  8
0
  6
Continuous
 62
     7
370
    25
100
AcDbLine
 10
10.7251748145
 20
4.7685164313
 30
0.0
 11
8.5051748145
 21
4.7685164313
 31
0.0
  0
INSERT
  5
214
330
1F
100
AcDbEntity
  8
0
  6
Continuous
 62
     7
100
AcDbBlockReference
  2
Block2
 10
8.8861826207
 20
0.6457930521
 30
0.0
 41
0.5
 42
0.5
 43
0.5
  0
DIMENSION
  5
215
330
1F
100
AcDbEntity
  8
0
  6
Continuous
 62
     7
370
    18
100
AcDbDimension
  2
_D_8
 10
7.2551880485
 20
4.7985164313
 30
0.0
 11
7.2551880485
 21
3.5235164313
 31
0.0
 70
   160
  1
<>
 71
     2
 42
-1.0
  3
SLDDIMSTYLE2
100
AcDbAlignedDimension
 13
8.5051748145
 23
2.2485164313
 33
0.0
 14
8.5351748145
 24
4.7985164313
 34
0.0
 50
90.0
100
AcDbRotatedDimension
  0
LINE
  5
229
330
1F
100
AcDbEntity
  8
0
  6
Continuous
 62
     7
370
    25
100
AcDbLine
 10
16.2663202039
 20
2.5920028859
 30
0.0
 11
16.2663202039
 21
3.8940594763
 31
0.0
  0
LINE
  5
22A
330
1F
100
AcDbEntity
  8
0
  6
Continuous
 62
     7
370
    25
100
AcDbLine
 10
16.2663202039
 20
2.2740594763
 30
0.0
 11
16.2663202039
 21
2.4560801836
 31
0.0
  0
LINE
  5
22B
330
1F
100
AcDbEntity
  8
0
  6
Continuous
 62
     7
370
    25
100
AcDbLine
 10
14.0463202039
 20
3.8940594763
 30
0.0
 11
14.0463202039
 21
2.2740594763
 31
0.0
  0
ARC
  5
22C
330
1F
100
AcDbEntity
  8
0
  6
Continuous
 62
     7
370
    25
100
AcDbCircle
 10
14.0763202039
 20
3.8940594763
 30
0.0
 40
0.0300000000000007
100
AcDbArc
 50
90.0
 51
180.0
  0
ARC
  5
22D
330
1F
100
AcDbEntity
  8
0
  6
Continuous
 62
     7
370
    25
100
AcDbCircle
 10
16.2363202039
 20
3.8940594763
 30
0.0
 40
0.0300000000000011
100
AcDbArc
 50
0.0
 51
90.0
  0
SPLINE
  5
22E
330
1F
100
AcDbEntity
  8
0
  6
Continuous
 62
     7
370
    25
100
AcDbSpline
210
0.0
220
0.0
230
1.0
 70
     8
 71
     3
 72
    45
 73
    41
 74
     0
 42
0.00000001
 43
0.00000001
 40
0.0
 40
0.0
 40
0.0
 40
0.0
 40
0.0094289094174153
 40
0.0366438128280131
 40
0.0630541983983071
 40
0.0894646038911575
 40
0.1166412925856773
 40
0.1438180124421672
 40
0.1702471250658985
 40
0.1966762613254154
 40
0.2238706913251755
 40
0.2510651314997906
 40
0.2775367390964928
 40
0.3040083371713331
 40
0.3312488626646405
 40
0.3584893611680596
 40
0.3849610404740852
 40
0.4114326916498233
 40
0.4386758957910075
 40
0.4659190777322942
 40
0.4923480841110636
 40
0.5187770877739216
 40
0.54597512789791
 40
0.5731731853201734
 40
0.5995834343361736
 40
0.6259937100463997
 40
0.6531693107228188
 40
0.6803449408455766
 40
0.7067895569217643
 40
0.7332341874849083
 40
0.760445016269822
 40
0.7876558408805284
 40
0.8141343516345936
 40
0.8406128419934901
 40
0.8678616249117675
 40
0.8951103762937492
 40
0.9215694560743849
 40
0.9480285123619319
 40
0.9752587923886423
 40
1.0
 40
1.0
 40
1.0
 40
1.0
 10
16.26631672112496
 20
2.59200288587185
 30
0.0
 10
16.26631764871657
 20
2.592018108935047
 30
0.0
 10
16.26632125363967
 20
2.592077270716515
 30
0.0
 10
16.26629672096049
 20
2.591675733061762
 30
0.0
 10
16.26624416475445
 20
2.590810363053821
 30
0.0
 10
16.2661631243309
 20
2.589451364144384
 30
0.0
 10
16.2660564276623
 20
2.587620355237184
 30
0.0
 10
16.26592736896798
 20
2.58533029728042
 30
0.0
 10
16.26578111427079
 20
2.582628107108764
 30
0.0
 10
16.26562098771232
 20
2.579520150874564
 30
0.0
 10
16.26544942457604
 20
2.575985330675948
 30
0.0
 10
16.26527286126882
 20
2.572075474906429
 30
0.0
 10
16.26509804878026
 20
2.567859819838096
 30
0.0
 10
16.26492807460196
 20
2.563337679382125
 30
0.0
 10
16.26476648482608
 20
2.558489359553052
 30
0.0
 10
16.26461952432671
 20
2.553392450304312
 30
0.0
 10
16.26449278956979
 20
2.548135253441856
 30
0.0
 10
16.26438770464279
 20
2.542710306665098
 30
0.0
 10
16.26430726753385
 20
2.537098174289528
 30
0.0
 10
16.26425469222214
 20
2.531394647955304
 30
0.0
 10
16.26423186650804
 20
2.525696735865755
 30
0.0
 10
16.26423785012008
 20
2.519990654358816
 30
0.0
 10
16.26427383285904
 20
2.514258497329544
 30
0.0
 10
16.2643385045936
 20
2.508598393417365
 30
0.0
 10
16.26442926719271
 20
2.503103994169659
 30
0.0
 10
16.26454330920048
 20
2.497756365060661
 30
0.0
 10
16.26467955340225
 20
2.492545633886624
 30
0.0
 10
16.26483290632219
 20
2.487559333997189
 30
0.0
 10
16.26499747395257
 20
2.482877747292236
 30
0.0
 10
16.26516980976337
 20
2.478479486958371
 30
0.0
 10
16.26534693193758
 20
2.474365508831401
 30
0.0
 10
16.26552213980589
 20
2.47060737293277
 30
0.0
 10
16.26568873872189
 20
2.467263469173768
 30
0.0
 10
16.26584407725145
 20
2.464312245423454
 30
0.0
 10
16.26598463717178
 20
2.461761492546892
 30
0.0
 10
16.26610487134593
 20
2.459661430528437
 30
0.0
 10
16.2662004918537
 20
2.458037086953047
 30
0.0
 10
16.2662699728845
 20
2.456882603533316
 30
0.0
 10
16.2663129094243
 20
2.456177631782031
 30
0.0
 10
16.26631699137914
 20
2.456111612371598
 30
0.0
 10
16.26631893460795
 20
2.456080183601437
 30
0.0
  0
SPLINE
  5
22F
330
1F
100
AcDbEntity
  8
0
  6
Continuous
 62
     7
370
    25
100
AcDbSpline
210
0.0
220
0.0
230
1.0
 70
    11
 71
     3
 72
    56
 73
    52
 74
     0
 42
0.00000001
 43
0.00000001
 40
0.0
 40
0.0
 40
0.0
 40
0.0
 40
0.0312499999999999
 40
0.0312499999999999
 40
0.0624999999999998
 40
0.0624999999999998
 40
0.0937499999999996
 40
0.0937499999999996
 40
0.1249999999999995
 40
0.1249999999999995
 40
0.187499999999999
 40
0.187499999999999
 40
0.2499999999999984
 40
0.2499999999999984
 40
0.2812499999999986
 40
0.2812499999999986
 40
0.3124999999999988
 40
0.3124999999999988
 40
0.3437499999999989
 40
0.3437499999999989
 40
0.3749999999999991
 40
0.3749999999999991
 40
0.4062499999999992
 40
0.4062499999999992
 40
0.4374999999999994
 40
0.4374999999999994
 40
0.4687499999999996
 40
0.4687499999999996
 40
0.4999999999999998
 40
0.4999999999999998
 40
0.5625000000000001
 40
0.5625000000000001
 40
0.6250000000000004
 40
0.6250000000000004
 40
0.6562500000000006
 40
0.6562500000000006
 40
0.6875000000000007
 40
0.6875000000000007
 40
0.7187500000000008
 40
0.7187500000000008
 40
0.7500000000000008
 40
0.7500000000000008
 40
0.812500000000001
 40
0.812500000000001
 40
0.8437500000000007
 40
0.8437500000000007
 40
0.8750000000000003
 40
0.8750000000000003
 40
0.9375000000000002
 40
0.9375000000000002
 40
1.0
 40
1.0
 40
1.0
 40
1.0
 10
14.66125235175759
 20
2.524059476342816
 30
0.0
 10
14.66125235175759
 20
2.528553012100794
 30
0.0
 10
14.66085675172159
 20
2.532971247116877
 30
0.0
 10
14.65930839814593
 20
2.541663339353061
 30
0.0
 10
14.65813681332705
 20
2.545982294595456
 30
0.0
 10
14.65508388396313
 20
2.554216725917256
 30
0.0
 10
14.65321768895371
 20
2.55812204593681
 30
0.0
 10
14.64881834423618
 20
2.565513031006938
 30
0.0
 10
14.64626250642595
 20
2.569011635321444
 30
0.0
 10
14.63791042380463
 20
2.578418512141929
 30
0.0
 10
14.63120568314734
 20
2.583484477531084
 30
0.0
 10
14.61684229227315
 20
2.590267811734283
 30
0.0
 10
14.60903500601837
 20
2.592054704315727
 30
0.0
 10
14.59751022076962
 20
2.592061847660825
 30
0.0
 10
14.59362183610238
 20
2.59162035201349
 30
0.0
 10
14.58612050244855
 20
2.589885464649591
 30
0.0
 10
14.58248732402204
 20
2.588601812570717
 30
0.0
 10
14.57545286602082
 20
2.585197191295419
 30
0.0
 10
14.57206329086913
 20
2.583068565147862
 30
0.0
 10
14.56580746669235
 20
2.578147583483871
 30
0.0
 10
14.56290058678158
 20
2.575338238874691
 30
0.0
 10
14.55753837448446
 20
2.56899372768782
 30
0.0
 10
14.55516626127545
 20
2.565555548713655
 30
0.0
 10
14.55102571544821
 20
2.558193351765058
 30
0.0
 10
14.54923980684475
 20
2.554219845636107
 30
0.0
 10
14.54637887047406
 20
2.545981560289841
 30
0.0
 10
14.54530270809125
 20
2.541742980991971
 30
0.0
 10
14.54384695488017
 20
2.533029400272231
 30
0.0
 10
14.54347423055739
 20
2.528522017013116
 30
0.0
 10
14.54347024038069
 20
2.515207582644764
 30
0.0
 10
14.54495440607614
 20
2.506260155376085
 30
0.0
 10
14.55062520423397
 20
2.48988898390584
 30
0.0
 10
14.55487229290956
 20
2.482298235343708
 30
0.0
 10
14.56280468191586
 20
2.472885075477689
 30
0.0
 10
14.56576154457076
 20
2.470011613748454
 30
0.0
 10
14.57203665422537
 20
2.465067266825846
 30
0.0
 10
14.57535963185217
 20
2.462975900473331
 30
0.0
 10
14.58238481522679
 20
2.45955798667838
 30
0.0
 10
14.58608986800658
 20
2.458244031495411
 30
0.0
 10
14.5935657679386
 20
2.456508149422334
 30
0.0
 10
14.5973758279607
 20
2.456063982637732
 30
0.0
 10
14.60903285827469
 20
2.456050565097547
 30
0.0
 10
14.61673501178694
 20
2.457809376284678
 30
0.0
 10
14.62759164601194
 20
2.462923287018326
 30
0.0
 10
14.63103288501805
 20
2.46500941466903
 30
0.0
 10
14.63755889741591
 20
2.469934104198504
 30
0.0
 10
14.64066121027289
 20
2.47280299085437
 30
0.0
 10
14.6490232960132
 20
2.482208112491753
 30
0.0
 10
14.65355021607379
 20
2.489785626162307
 30
0.0
 10
14.65963002057015
 20
2.506144260395727
 30
0.0
 10
14.66125235175759
 20
2.515072404826861
 30
0.0
 10
14.66125235175759
 20
2.524059476342816
 30
0.0
  0
LINE
  5
230
330
1F
100
AcDbEntity
  8
0
  6
Continuous
 62
     7
370
    25
100
AcDbLine
 10
16.2663202039
 20
2.2740594763
 30
0.0
 11
14.0463202039
 21
2.2740594763
 31
0.0
  0
LINE
  5
231
330
1F
100
AcDbEntity
  8
0
  6
Continuous
 62
     7
370
    25
100
AcDbLine
 10
16.2363202039
 20
3.9240594763
 30
0.0
 11
14.0763202039
 21
3.9240594763
 31
0.0
  0
SPLINE
  5
232
330
1F
100
AcDbEntity
  8
0
  6
Continuous
 62
     7
370
    25
100
AcDbSpline
210
0.0
220
0.0
230
1.0
 70
     8
 71
     3
 72
    31
 73
    27
 74
     0
 42
0.00000001
 43
0.00000001
 40
0.0
 40
0.0
 40
0.0
 40
0.0
 40
0.0060897437148835
 40
0.05104429113972
 40
0.096033749729306
 40
0.1411662716668729
 40
0.1861560121237096
 40
0.231230970182596
 40
0.2764495307566045
 40
0.3215241964299891
 40
0.366601724470739
 40
0.4118233515825703
 40
0.4569004645000502
 40
0.5018931179154927
 40
0.5470295434507089
 40
0.5920223087665771
 40
0.6369752601565658
 40
0.6820713451576735
 40
0.7270247551185779
 40
0.7720449768049946
 40
0.8172083784068958
 40
0.8622286917205596
 40
0.9073182594049753
 40
0.9525516638405326
 40
0.9976408103237426
 40
1.0
 40
1.0
 40
1.0
 40
1.0
 10
14.62018054816274
 20
2.588460233815638
 30
0.0
 10
14.61989695176754
 20
2.588366005779111
 30
0.0
 10
14.61751984402044
 20
2.587576185459048
 30
0.0
 10
14.61328584166484
 20
2.58532273931532
 30
0.0
 10
14.60759426936804
 20
2.58165921779002
 30
0.0
 10
14.60233041083696
 20
2.577200286575132
 30
0.0
 10
14.59752189010798
 20
2.572097575656521
 30
0.0
 10
14.59325247043245
 20
2.566365382645569
 30
0.0
 10
14.58955168188381
 20
2.560103851562971
 30
0.0
 10
14.58646311729577
 20
2.553389660194659
 30
0.0
 10
14.58404498892806
 20
2.546294849732886
 30
0.0
 10
14.58230202100021
 20
2.538922792388803
 30
0.0
 10
14.58125383028475
 20
2.531367395710151
 30
0.0
 10
14.58093572844425
 20
2.523721954960487
 30
0.0
 10
14.58132489980601
 20
2.516087174669387
 30
0.0
 10
14.5824166364304
 20
2.508552637591873
 30
0.0
 10
14.58422207289467
 20
2.50122103454006
 30
0.0
 10
14.58669573756009
 20
2.494177788302137
 30
0.0
 10
14.58981293171081
 20
2.487501653891199
 30
0.0
 10
14.59356104188949
 20
2.481294565760019
 30
0.0
 10
14.59787588358874
 20
2.475616846859355
 30
0.0
 10
14.60271320862689
 20
2.470545461090314
 30
0.0
 10
14.60802544373999
 20
2.46613787613175
 30
0.0
 10
14.61376812654276
 20
2.462546526166798
 30
0.0
 10
14.6178584075494
 20
2.460373601924904
 30
0.0
 10
14.62007269583101
 20
2.459657127998346
 30
0.0
 10
14.62018279296986
 20
2.459621504032836
 30
0.0
  0
LINE
  5
233
330
1F
100
AcDbEntity
  8
0
  6
Continuous
 62
     7
370
    25
100
AcDbLine
 10
16.2663202039
 20
3.8940594763
 30
0.0
 11
14.0463202039
 21
3.8940594763
 31
0.0
  0
INSERT
  5
234
330
1F
100
AcDbEntity
  8
0
  6
Continuous
 62
     7
100
AcDbBlockReference
  2
Block3
 10
14.4246196487
 20
1.052262719
 30
0.0
 41
0.5
 42
0.5
 43
0.5
  0
DIMENSION
  5
235
330
1F
100
AcDbEntity
  8
0
  6
Continuous
 62
     7
370
    18
100
AcDbDimension
  2
_D_9
 10
12.6802057199
 20
3.9240594763
 30
0.0
 11
12.6802057199
 21
3.0990594763
 31
0.0
 70
   160
  1
<>
 71
     2
 42
-1.0
  3
SLDDIMSTYLE2
100
AcDbAlignedDimension
 13
14.0463202039
 23
2.2740594763
 33
0.0
 14
14.0763202039
 24
3.9240594763
 34
0.0
 50
90.0
100
AcDbRotatedDimension
  0
LINE
  5
249
330
1F
100
AcDbEntity
  8
0
  6
Continuous
 62
     7
370
    25
100
AcDbLine
 10
23.016209482
 20
13.7267098243
 30
0.0
 11
20.8782627238
 21
10.0236774259
 31
0.0
  0
LINE
  5
24A
330
1F
100
AcDbEntity
  8
0
  6
Continuous
 62
     7
370
    25
100
AcDbLine
 10
23.4417326353
 20
10.0237375532
 30
0.0
 11
24.938785877
 21
12.6167098218
 31
0.0
  0
LINE
  5
24B
330
1F
100
AcDbEntity
  8
0
  6
Continuous
 62
     7
370
    25
100
AcDbLine
 10
29.2019898776
 20
15.0022452346
 30
0.0
 11
30.3055443825
 21
14.3649696794
 31
0.0
  0
LINE
  5
24C
330
1F
100
AcDbEntity
  8
0
  6
Continuous
 62
     7
370
    25
100
AcDbLine
 10
29.0430443788
 20
15.0940323466
 30
0.0
 11
29.1344751518
 21
15.0412333264
 31
0.0
  0
LINE
  5
24D
330
1F
100
AcDbEntity
  8
0
  6
Continuous
 62
     7
370
    25
100
AcDbLine
 10
32.5257247594
 20
15.6464442539
 30
0.0
 11
30.153224763
 21
17.0165045869
 31
0.0
  0
LINE
  5
24E
330
1F
100
AcDbEntity
  8
0
  6
Continuous
 62
     7
370
    25
100
AcDbLine
 10
28.1155443788
 20
15.62964076
 30
0.0
 11
29.0380443788
 21
15.0969197235
 31
0.0
  0
LINE
  5
24F
330
1F
100
AcDbEntity
  8
0
  6
Continuous
 62
     7
370
    25
100
AcDbLine
 10
30.148224763
 20
17.0193919637
 30
0.0
 11
29.225724763
 21
17.5521130002
 31
0.0
  0
LINE
  5
250
330
1F
100
AcDbEntity
  8
0
  6
Continuous
 62
     7
370
    25
100
AcDbLine
 10
25.8662858774
 20
14.2231869466
 30
0.0
 11
25.8553051153
 21
14.2641677085
 31
0.0
  0
LINE
  5
251
330
1F
100
AcDbEntity
  8
0
  6
Continuous
 62
     7
370
    25
100
AcDbLine
 10
23.9846902486
 20
15.3441677085
 30
0.0
 11
23.9437094866
 21
15.3331869466
 31
0.0
  0
LINE
  5
252
330
1F
100
AcDbEntity
  8
0
  6
Continuous
 62
     7
370
    25
100
AcDbLine
 10
23.943709482
 20
15.3331869436
 30
0.0
 11
23.021209482
 21
13.7353700783
 31
0.0
  0
LINE
  5
253
330
1F
100
AcDbEntity
  8
0
  6
Continuous
 62
     7
370
    25
100
AcDbLine
 10
24.943785877
 20
12.6253700758
 30
0.0
 11
25.866285877
 21
14.2231869411
 31
0.0
  0
SPLINE
  5
254
330
1F
100
AcDbEntity
  8
0
  6
Continuous
 62
     7
370
    25
100
AcDbSpline
210
0.0
220
0.0
230
1.0
 70
     8
 71
     3
 72
    13
 73
     9
 74
     0
 42
0.00000001
 43
0.00000001
 40
0.0
 40
0.0
 40
0.0
 40
0.0
 40
0.0473317735498358
 40
0.2118959995891275
 40
0.3868940839141439
 40
0.6497637525337145
 40
0.9028892213615052
 40
1.0
 40
1.0
 40
1.0
 40
1.0
 10
24.93167734710178
 20
12.62100087317953
 30
0.0
 10
24.9318770948089
 20
12.62092521801977
 30
0.0
 10
24.93277133005285
 20
12.62058652321715
 30
0.0
 10
24.93460429883611
 20
12.62029638624967
 30
0.0
 10
24.93743761270226
 20
12.620466430809
 30
0.0
 10
24.9404709079459
 20
12.62171015842658
 30
0.0
 10
24.94280851989908
 20
12.62358812011003
 30
0.0
 10
24.94349373175503
 20
12.62508683458221
 30
0.0
 10
24.9436837219612
 20
12.62550238645728
 30
0.0
  0
SPLINE
  5
255
330
1F
100
AcDbEntity
  8
0
  6
Continuous
 62
     7
370
    25
100
AcDbSpline
210
0.0
220
0.0
230
1.0
 70
     8
 71
     3
 72
    13
 73
     9
 74
     0
 42
0.00000001
 43
0.00000001
 40
0.0
 40
0.0
 40
0.0
 40
0.0
 40
0.2398357503729313
 40
0.4546453009309217
 40
0.6326727611997414
 40
0.7830556681552789
 40
0.9065528519340732
 40
1.0
 40
1.0
 40
1.0
 40
1.0
 10
23.02126456993914
 20
13.7352887583066
 30
0.0
 10
23.02076850913159
 20
13.73427416094519
 30
0.0
 10
23.01982815009514
 20
13.73235083666187
 30
0.0
 10
23.0198083067404
 20
13.72932808610164
 30
0.0
 10
23.02040984670476
 20
13.72685644974323
 30
0.0
 10
23.02138094108533
 20
13.72497558320178
 30
0.0
 10
23.02243381108797
 20
13.72361171530796
 30
0.0
 10
23.02317853722047
 20
13.7229485210825
 30
0.0
 10
23.02349932243104
 20
13.72266285513098
 30
0.0
  0
ARC
  5
256
330
1F
100
AcDbEntity
  8
0
  6
Continuous
 62
     7
370
    25
100
AcDbCircle
 10
25.1874976795
 20
15.2674912941
 30
0.0
 40
0.4949999999999998
100
AcDbArc
 50
62.0626276029
 51
149.9999999272
  0
LINE
  5
257
330
1F
100
AcDbEntity
  8
0
  6
Continuous
 62
     7
370
    25
100
AcDbLine
 10
24.758815105
 20
15.5149912946
 30
0.0
 11
24.491315105
 21
15.0516677049
 31
0.0
  0
LINE
  5
258
330
1F
100
AcDbEntity
  8
0
  6
Continuous
 62
     7
370
    25
100
AcDbLine
 10
25.5412799904
 20
15.8627037752
 30
0.0
 11
25.4966194155
 21
15.8369217741
 31
0.0
  0
LINE
  5
259
330
1F
100
AcDbEntity
  8
0
  6
Continuous
 62
     7
370
    25
100
AcDbLine
 10
25.5877777198
 20
14.7464237745
 30
0.0
 11
26.036239763
 21
15.0053154014
 31
0.0
  0
SPLINE
  5
25A
330
1F
100
AcDbEntity
  8
0
  6
Continuous
 62
     7
370
    25
100
AcDbSpline
210
0.0
220
0.0
230
1.0
 70
     8
 71
     3
 72
    17
 73
    13
 74
     0
 42
0.00000001
 43
0.00000001
 40
0.0
 40
0.0
 40
0.0
 40
0.0
 40
0.0314498909196684
 40
0.1395298132051657
 40
0.2476756472632865
 40
0.3680229922005646
 40
0.4877224239860617
 40
0.6063958941413287
 40
0.7240615129883776
 40
0.8407501010187622
 40
0.9564928167341307
 40
1.0
 40
1.0
 40
1.0
 40
1.0
 10
25.27094032269168
 20
14.68528031359075
 30
0.0
 10
25.27434111336992
 20
14.68472159704541
 30
0.0
 10
25.28942897772203
 20
14.68224280895025
 30
0.0
 10
25.3165571420829
 20
14.68038991828293
 30
0.0
 10
25.35343901026454
 20
14.67978900993964
 30
0.0
 10
25.39155878704647
 20
14.68226784817006
 30
0.0
 10
25.43049832855745
 20
14.68787856884482
 30
0.0
 10
25.46857892560448
 20
14.6965142383912
 30
0.0
 10
25.50557545034378
 20
14.70796294315854
 30
0.0
 10
25.54117175451082
 20
14.72229870541702
 30
0.0
 10
25.56856143702806
 20
14.73525097463828
 30
0.0
 10
25.58351341900879
 20
14.74425223741292
 30
0.0
 10
25.58759831089497
 20
14.74671138866931
 30
0.0
  0
SPLINE
  5
25B
330
1F
100
AcDbEntity
  8
0
  6
Continuous
 62
     7
370
    25
100
AcDbSpline
210
0.0
220
0.0
230
1.0
 70
     8
 71
     3
 72
    11
 73
     7
 74
     0
 42
0.00000001
 43
0.00000001
 40
0.0
 40
0.0
 40
0.0
 40
0.0
 40
0.2540932510403399
 40
0.5695465938151428
 40
0.8824428863363949
 40
1.0
 40
1.0
 40
1.0
 40
1.0
 10
28.09964269217768
 20
17.32217093290477
 30
0.0
 10
28.08975594385019
 20
17.31926718356735
 30
0.0
 10
28.06759493087257
 20
17.31275846860679
 30
0.0
 10
28.03447677865404
 20
17.2991510047125
 30
0.0
 10
28.00707164614118
 20
17.28625949920037
 30
0.0
 10
27.99212270894415
 20
17.27725607860511
 30
0.0
 10
27.98804014417879
 20
17.27479723840761
 30
0.0
  0
LINE
  5
25C
330
1F
100
AcDbEntity
  8
0
  6
Continuous
 62
     7
370
    25
100
AcDbLine
 10
27.9878545307
 20
17.275081194
 30
0.0
 11
27.5246288783
 21
17.007666717
 31
0.0
  0
LINE
  5
25D
330
1F
100
AcDbEntity
  8
0
  6
Continuous
 62
     7
370
    25
100
AcDbLine
 10
25.0303702556
 20
22.0841045055
 30
0.0
 11
25.0657313395
 21
22.0636843508
 31
0.0
  0
LINE
  5
25E
330
1F
100
AcDbEntity
  8
0
  6
Continuous
 62
     7
370
    25
100
AcDbLine
 10
28.5099009109
 20
22.0636843508
 30
0.0
 11
28.5452619948
 21
22.0841045055
 31
0.0
  0
LINE
  5
25F
330
1F
100
AcDbEntity
  8
0
  6
Continuous
 62
     7
370
    25
100
AcDbLine
 10
24.3028161252
 20
23.3637024953
 30
0.0
 11
24.3028161252
 21
23.0983267314
 31
0.0
  0
LINE
  5
260
330
1F
100
AcDbEntity
  8
0
  6
Continuous
 62
     7
370
    25
100
AcDbLine
 10
29.2728161252
 20
23.0983267314
 30
0.0
 11
29.2728161252
 21
23.3637024953
 31
0.0
  0
LINE
  5
261
330
1F
100
AcDbEntity
  8
0
  6
Continuous
 62
     7
370
    25
100
AcDbLine
 10
27.2828161252
 20
16.8738445323
 30
0.0
 11
27.2828161252
 21
18.1500894114
 31
0.0
  0
LINE
  5
262
330
1F
100
AcDbEntity
  8
0
  6
Continuous
 62
     7
370
    25
100
AcDbLine
 10
26.2928161252
 20
18.1500894114
 30
0.0
 11
26.2928161252
 21
16.6231580932
 31
0.0
  0
SPLINE
  5
263
330
1F
100
AcDbEntity
  8
0
  6
Continuous
 62
     7
370
    25
100
AcDbSpline
210
0.0
220
0.0
230
1.0
 70
     8
 71
     3
 72
    15
 73
    11
 74
     0
 42
0.00000001
 43
0.00000001
 40
0.0
 40
0.0
 40
0.0
 40
0.0
 40
0.0382483958766978
 40
0.1761718047436873
 40
0.314649922018612
 40
0.4536436593947838
 40
0.5930521988190134
 40
0.732754057526411
 40
0.8726365903743886
 40
1.0
 40
1.0
 40
1.0
 40
1.0
 10
27.26792372614262
 20
18.22031459202599
 30
0.0
 10
27.26716443684571
 20
18.2223161065808
 30
0.0
 10
27.26366715643191
 20
18.23153506657273
 30
0.0
 10
27.25465692549175
 20
18.24750956977077
 30
0.0
 10
27.24088580398025
 20
18.26809246037157
 30
0.0
 10
27.22425685623245
 20
18.28795889969527
 30
0.0
 10
27.20514538929595
 20
18.30704093102733
 30
0.0
 10
27.18354540380593
 20
18.32518064103549
 30
0.0
 10
27.16049596920698
 20
18.34186025733851
 30
0.0
 10
27.14374543560075
 20
18.35192990121257
 30
0.0
 10
27.1357625077651
 20
18.35672886715999
 30
0.0
  0
SPLINE
  5
264
330
1F
100
AcDbEntity
  8
0
  6
Continuous
 62
     7
370
    25
100
AcDbSpline
210
0.0
220
0.0
230
1.0
 70
     8
 71
     3
 72
    36
 73
    32
 74
     0
 42
0.00000001
 43
0.00000001
 40
0.0
 40
0.0
 40
0.0
 40
0.0
 40
0.0190653816001326
 40
0.0552332973982258
 40
0.0913956796309662
 40
0.1275465197110515
 40
0.1636847400305463
 40
0.199810748637423
 40
0.2359258645032499
 40
0.2720319434505145
 40
0.3081311451855184
 40
0.3442257951201573
 40
0.3803183072300113
 40
0.4164111440639943
 40
0.4525061471354803
 40
0.4886056474841858
 40
0.524712157905102
 40
0.5608281642258881
 40
0.596956064620612
 40
0.6330980571880883
 40
0.669255944916484
 40
0.7054308146006543
 40
0.7416225315048613
 40
0.7778289800125353
 40
0.8140449865947894
 40
0.8502570897610569
 40
0.8864468217003312
 40
0.9225888103637795
 40
0.9586510641386903
 40
0.994599182393428
 40
0.9999999999999999
 40
0.9999999999999999
 40
0.9999999999999999
 40
0.9999999999999999
 10
27.1357625077651
 20
18.35672886715999
 30
0.0
 10
27.13098895483145
 20
18.35941820655244
 30
0.0
 10
27.11715974992173
 20
18.36720934787777
 30
0.0
 10
27.0927874822399
 20
18.37914700140016
 30
0.0
 10
27.0622032568752
 20
18.39204157000533
 30
0.0
 10
27.03001498330776
 20
18.40351291826621
 30
0.0
 10
26.99644574094336
 20
18.41351946822405
 30
0.0
 10
26.96167981950964
 20
18.42200214276538
 30
0.0
 10
26.92591963874295
 20
18.42891700067394
 30
0.0
 10
26.88936960296175
 20
18.43422662624868
 30
0.0
 10
26.85223919494288
 20
18.43790267699283
 30
0.0
 10
26.81474080383363
 20
18.43992542493868
 30
0.0
 10
26.77708887624395
 20
18.44028405379695
 30
0.0
 10
26.73949887823706
 20
18.43897669229398
 30
0.0
 10
26.70218593778022
 20
18.43601047334684
 30
0.0
 10
26.66536354419218
 20
18.431401471901
 30
0.0
 10
26.6292421269262
 20
18.42517451474887
 30
0.0
 10
26.5940280632576
 20
18.41736296383054
 30
0.0
 10
26.55992264149041
 20
18.40800845047984
 30
0.0
 10
26.52712104055808
 20
18.39716055410155
 30
0.0
 10
26.49581143861919
 20
18.38487644829675
 30
0.0
 10
26.46617419055853
 20
18.37122056580186
 30
0.0
 10
26.43838142575949
 20
18.35626428952977
 30
0.0
 10
26.41259584167232
 20
18.34008595715505
 30
0.0
 10
26.38897406861024
 20
18.32277117603966
 30
0.0
 10
26.36765504569804
 20
18.30441514202688
 30
0.0
 10
26.34879867110276
 20
18.28511738522104
 30
0.0
 10
26.33243549926098
 20
18.2650061871723
 30
0.0
 10
26.31901560267421
 20
18.24415141586914
 30
0.0
 10
26.31064320794043
 20
18.22888786311364
 30
0.0
 10
26.30761420295127
 20
18.22049136761809
 30
0.0
 10
26.30721856753441
 20
18.21939465400838
 30
0.0
  0
LINE
  5
265
330
1F
100
AcDbEntity
  8
0
  6
Continuous
 62
     7
370
    25
100
AcDbLine
 10
26.2878161252
 20
23.0574996909
 30
0.0
 11
26.2878161252
 21
18.1582548195
 31
0.0
  0
LINE
  5
266
330
1F
100
AcDbEntity
  8
0
  6
Continuous
 62
     7
370
    25
100
AcDbLine
 10
27.2878161252
 20
18.1582548195
 30
0.0
 11
27.2878161252
 21
23.0574996909
 31
0.0
  0
LINE
  5
267
330
1F
100
AcDbEntity
  8
0
  6
Continuous
 62
     7
370
    25
100
AcDbLine
 10
27.935200898
 20
17.1799180299
 30
0.0
 11
27.9266735586
 21
17.1787552157
 31
0.0
  0
LINE
  5
268
330
1F
100
AcDbEntity
  8
0
  6
Continuous
 62
     7
370
    25
100
AcDbLine
 10
27.7895495299
 20
16.9412236941
 30
0.0
 11
27.7928069205
 21
16.9332577001
 31
0.0
  0
LINE
  5
269
330
1F
100
AcDbEntity
  8
0
  6
Continuous
 62
     7
370
    25
100
AcDbLine
 10
27.1826645518
 20
17.718186485
 30
0.0
 11
27.1826645518
 21
17.7220300812
 31
0.0
  0
LINE
  5
26A
330
1F
100
AcDbEntity
  8
0
  6
Continuous
 62
     7
370
    25
100
AcDbLine
 10
27.1378412681
 20
17.7996746988
 30
0.0
 11
27.1345891056
 21
17.8015527427
 31
0.0
  0
LINE
  5
26B
330
1F
100
AcDbEntity
  8
0
  6
Continuous
 62
     7
370
    25
100
AcDbLine
 10
25.5807337674
 20
15.7738928659
 30
0.0
 11
25.5729993889
 21
15.7694264527
 31
0.0
  0
LINE
  5
26C
330
1F
100
AcDbEntity
  8
0
  6
Continuous
 62
     7
370
    25
100
AcDbLine
 10
25.5281761052
 20
15.691781835
 30
0.0
 11
25.5281761052
 21
15.6828504601
 31
0.0
  0
LINE
  5
26D
330
1F
100
AcDbEntity
  8
0
  6
Continuous
 62
     7
370
    25
100
AcDbLine
 10
27.3032458863
 20
16.7682779461
 30
0.0
 11
27.2955115079
 21
16.7638115329
 31
0.0
  0
LINE
  5
26E
330
1F
100
AcDbEntity
  8
0
  6
Continuous
 62
     7
370
    25
100
AcDbLine
 10
27.2506882242
 20
16.6861669152
 30
0.0
 11
27.2506882242
 21
16.6772355403
 31
0.0
  0
LINE
  5
26F
330
1F
100
AcDbEntity
  8
0
  6
Continuous
 62
     7
370
    25
100
AcDbLine
 10
26.2928161252
 20
16.6231580932
 30
0.0
 11
26.2928161252
 21
16.3023296973
 31
0.0
  0
LINE
  5
270
330
1F
100
AcDbEntity
  8
0
  6
Continuous
 62
     7
370
    25
100
AcDbLine
 10
26.2928412217
 20
16.3023441852
 30
0.0
 11
25.5740498993
 21
15.8873947873
 31
0.0
  0
LINE
  5
271
330
1F
100
AcDbEntity
  8
0
  6
Continuous
 62
     7
370
    25
100
AcDbLine
 10
27.5016229848
 20
17.0001590437
 30
0.0
 11
26.7815467674
 21
16.5844678916
 31
0.0
  0
LINE
  5
272
330
1F
100
AcDbEntity
  8
0
  6
Continuous
 62
     7
370
    25
100
AcDbLine
 10
26.0740092656
 20
15.0213459249
 30
0.0
 11
27.7864878006
 21
16.0099387403
 31
0.0
  0
LINE
  5
273
330
1F
100
AcDbEntity
  8
0
  6
Continuous
 62
     7
370
    25
100
AcDbLine
 10
25.4704761919
 20
15.658472384
 30
0.0
 11
25.4704761919
 21
15.6347965488
 31
0.0
  0
LINE
  5
274
330
1F
100
AcDbEntity
  8
0
  6
Continuous
 62
     7
370
    25
100
AcDbLine
 10
25.8034693563
 20
15.0579729695
 30
0.0
 11
25.8239721201
 21
15.0461331278
 31
0.0
  0
LWPOLYLINE
  5
275
330
1F
100
AcDbEntity
  8
0
  6
Continuous
 62
     7
370
    25
100
AcDbPolyline
 90
       42
 70
   128
 43
0.0
 10
24.5324976795
 20
12.8512109881
 10
24.4895674044
 20
12.8759942586
 10
24.4451606996
 20
12.9016301536
 10
24.3994056013
 20
12.9280447582
 10
24.3524340333
 20
12.9551619123
 10
24.3043814267
 20
12.98290343
 10
24.2553863296
 20
13.0111893255
 10
24.2055900076
 20
13.0399380431
 10
24.1551360364
 20
13.0690666928
 10
24.1041698878
 20
13.0984912893
 10
24.0528385104
 20
13.1281269938
 10
24.0012899059
 20
13.1578883588
 10
23.9496727023
 20
13.1876895747
 10
23.8981357253
 20
13.2174447169
 10
23.8468275693
 20
13.2470679935
 10
23.7958961691
 20
13.276473993
 10
23.745488373
 20
13.3055779303
 10
23.6957495199
 20
13.3342958911
 10
23.6468230196
 20
13.3625450743
 10
23.59884994
 20
13.39024403
 10
23.5519685998
 20
13.417312895
 10
23.5063141702
 20
13.4436736228
 10
23.4620182845
 20
13.4692502085
 10
23.4192086594
 20
13.4939689083
 10
23.3780087261
 20
13.5177584517
 10
23.3385372746
 20
13.5405502474
 10
23.3009081114
 20
13.5622785806
 10
23.265229731
 20
13.582880803
 10
23.2316050036
 20
13.602297513
 10
23.2001308778
 20
13.6204727272
 10
23.1708981017
 20
13.6373540418
 10
23.143990961
 20
13.6528927836
 10
23.119487036
 20
13.6670441503
 10
23.0974569777
 20
13.67976734
 10
23.0779643046
 20
13.6910256683
 10
23.0610652192
 20
13.7007866746
 10
23.0468084457
 20
13.7090222153
 10
23.0352350902
 20
13.7157085453
 10
23.0263785217
 20
13.7208263862
 10
23.0202642759
 20
13.7243609819
 10
23.0169099819
 20
13.7263021413
 10
23.016209482
 20
13.7267098243
  0
LWPOLYLINE
  5
276
330
1F
100
AcDbEntity
  8
0
  6
Continuous
 62
     7
370
    25
100
AcDbPolyline
 90
       22
 70
   128
 43
0.0
 10
24.9297141342
 20
12.621959054
 10
24.9320180385
 20
12.620627312
 10
24.9367540156
 20
12.6178884472
 10
24.9387242083
 20
12.6167463928
 10
24.9379229362
 20
12.6172044416
 10
24.9343525094
 20
12.619261273
 10
24.9280232224
 20
12.6229109566
 10
24.9189533242
 20
12.6281429694
 10
24.9071689657
 20
12.6349422261
 10
24.8927041242
 20
12.6432891228
 10
24.8756005056
 20
12.6531595931
 10
24.855907424
 20
12.664525178
 10
24.8336816598
 20
12.6773531075
 10
24.8089872955
 20
12.6916063954
 10
24.7818955314
 20
12.7072439458
 10
24.7524844801
 20
12.7242206715
 10
24.7208389411
 20
12.7424876243
 10
24.6870501569
 20
12.7619921358
 10
24.6512155493
 20
12.7826779695
 10
24.6134384386
 20
12.8044854827
 10
24.573827746
 20
12.8273517987
 10
24.5324976795
 20
12.8512109881
  0
ELLIPSE
  5
277
330
1F
100
AcDbEntity
  8
0
  6
Continuous
 62
     7
370
    25
100
AcDbEllipse
 10
22.1599976795
 20
10.0237074895
 30
0.0
 11
1.346583026697822
 21
0.3607481261174428
 31
0.0
210
0.0
220
0.0
230
1.0
 40
0.5175895156
 41
0.0
 42
6.283185307179586
  0
SPLINE
  5
278
330
1F
100
AcDbEntity
  8
0
  6
Continuous
 62
     7
370
    25
100
AcDbSpline
210
0.0
220
0.0
230
1.0
 70
    11
 71
     3
 72
    26
 73
    22
 74
     0
 42
0.00000001
 43
0.00000001
 40
0.0
 40
0.0
 40
0.0
 40
0.0
 40
0.0536200607839433
 40
0.1072376822530345
 40
0.1609185883661205
 40
0.2146408563604132
 40
0.2682944511770226
 40
0.3218767096526469
 40
0.3754958818586693
 40
0.4292028051159875
 40
0.4829116531775912
 40
0.5365331513008973
 40
0.5901144855235969
 40
0.6437653861511299
 40
0.6974870899191815
 40
0.7511704282073667
 40
0.8047662990509751
 40
0.8583618717573679
 40
0.9120446244252629
 40
0.9657664953707773
 40
1.0
 40
1.0
 40
1.0
 40
1.0
 10
24.35837199802111
 20
12.66306448568829
 30
0.0
 10
24.36274552906596
 20
12.66935960683986
 30
0.0
 10
24.37149239219246
 20
12.68194956276173
 30
0.0
 10
24.39026130621662
 20
12.69459694400013
 30
0.0
 10
24.41055545425257
 20
12.7007548456558
 30
0.0
 10
24.43048685756042
 20
12.69948695884368
 30
0.0
 10
24.44756640073524
 20
12.69106286006977
 30
0.0
 10
24.45989480140715
 20
12.67643796652674
 30
0.0
 10
24.46615939582927
 20
12.65722243491307
 30
0.0
 10
24.46576700116078
 20
12.63548757980789
 30
0.0
 10
24.45885958347666
 20
12.61362297567707
 30
0.0
 10
24.4462908995051
 20
12.59407915010093
 30
0.0
 10
24.42947468696092
 20
12.57905631046359
 30
0.0
 10
24.41019920611085
 20
12.57027478273117
 30
0.0
 10
24.39050088403912
 20
12.56880407606592
 30
0.0
 10
24.37251409015234
 20
12.57488335391661
 30
0.0
 10
24.35824591099226
 20
12.5878267680437
 30
0.0
 10
24.34929878674108
 20
12.60616459796099
 30
0.0
 10
24.34687734281538
 20
12.62772559400596
 30
0.0
 10
24.3505150811167
 20
12.64756733139979
 30
0.0
 10
24.3561707355104
 20
12.6587226674951
 30
0.0
 10
24.35837199802111
 20
12.66306448568829
 30
0.0
  0
SPLINE
  5
279
330
1F
100
AcDbEntity
  8
0
  6
Continuous
 62
     7
370
    25
100
AcDbSpline
210
0.0
220
0.0
230
1.0
 70
    11
 71
     3
 72
    26
 73
    22
 74
     0
 42
0.00000001
 43
0.00000001
 40
0.0
 40
0.0
 40
0.0
 40
0.0
 40
0.0536200607839419
 40
0.107237682253032
 40
0.1609185883661188
 40
0.2146408563604118
 40
0.2682944511770202
 40
0.321876709652644
 40
0.3754958818586658
 40
0.4292028051159836
 40
0.4829116531775883
 40
0.5365331513008988
 40
0.590114485523599
 40
0.6437653861511294
 40
0.6974870899191813
 40
0.751170428207365
 40
0.8047662990509737
 40
0.8583618717573682
 40
0.9120446244252604
 40
0.9657664953707783
 40
1.0
 40
1.0
 40
1.0
 40
1.0
 10
22.89165895198075
 20
13.50994136882438
 30
0.0
 10
22.89549695554468
 20
13.51654558910094
 30
0.0
 10
22.90317278807186
 20
13.52975372921104
 30
0.0
 10
22.91370303456563
 20
13.54715633409021
 30
0.0
 10
22.92218148400614
 20
13.5601339955822
 30
0.0
 10
22.92787314920493
 20
13.56708485784557
 30
0.0
 10
22.93027186356406
 20
13.56713394540992
 30
0.0
 10
22.92913784218228
 20
13.56027887321367
 30
0.0
 10
22.92449186766803
 20
13.54736024341385
 30
0.0
 10
22.91665031654511
 20
13.52992450809402
 30
0.0
 10
22.90629629997931
 20
13.51004901301634
 30
0.0
 10
22.89449928808542
 20
13.49005983948676
 30
0.0
 10
22.88261548156917
 20
13.47219038974148
 30
0.0
 10
22.87211745558598
 20
13.45834311626213
 30
0.0
 10
22.86439393252881
 20
13.4499612537868
 30
0.0
 10
22.86050236460974
 20
13.44790543036006
 30
0.0
 10
22.86094329949339
 20
13.45235927686776
 30
0.0
 10
22.86558601321989
 20
13.46285341781938
 30
0.0
 10
22.87373653121941
 20
13.47831248667103
 30
0.0
 10
22.8830131972135
 20
13.49489952053974
 30
0.0
 10
22.88923668175981
 20
13.50572711314068
 30
0.0
 10
22.89165895198075
 20
13.50994136882438
 30
0.0
  0
ELLIPSE
  5
27A
330
1F
100
AcDbEntity
  8
0
  6
Continuous
 62
     7
370
    25
100
AcDbEllipse
 10
22.1599976795
 20
10.0237074895
 30
0.0
 11
1.234367774473
 21
0.3306857822743225
 31
0.0
210
0.0
220
0.0
230
1.0
 40
0.5175895156
 41
0.0
 42
6.283185307179586
  0
SPLINE
  5
27B
330
1F
100
AcDbEntity
  8
0
  6
Continuous
 62
     7
370
    25
100
AcDbSpline
210
0.0
220
0.0
230
1.0
 70
     8
 71
     3
 72
    15
 73
    11
 74
     0
 42
0.00000001
 43
0.00000001
 40
0.0
 40
0.0
 40
0.0
 40
0.0
 40
0.0201060621636165
 40
0.1649548926919757
 40
0.3100763780172093
 40
0.4552042257555979
 40
0.6000606248478692
 40
0.7447918809828621
 40
0.8897391074780004
 40
1.0
 40
1.0
 40
1.0
 40
1.0
 10
24.35761571028338
 20
12.59184148255032
 30
0.0
 10
24.35846681516647
 20
12.59166986167586
 30
0.0
 10
24.36544948106679
 20
12.59026184340259
 30
0.0
 10
24.37987641090615
 20
12.5947669672886
 30
0.0
 10
24.39835278886618
 20
12.60541501693892
 30
0.0
 10
24.41384750835346
 20
12.62247812811778
 30
0.0
 10
24.42452761149659
 20
12.6431192902372
 30
0.0
 10
24.42900336512873
 20
12.66506963255424
 30
0.0
 10
24.42769472640133
 20
12.68485046974121
 30
0.0
 10
24.42207735801577
 20
12.69469031252207
 30
0.0
 10
24.41965041308078
 20
12.69894154814683
 30
0.0
  0
ELLIPSE
  5
27C
330
1F
100
AcDbEntity
  8
0
  6
Continuous
 62
     7
370
    25
100
AcDbEllipse
 10
31.4156345709
 20
15.0057069667
 30
0.0
 11
1.346583026697811
 21
0.3607481261174676
 31
0.0
210
0.0
220
0.0
230
1.0
 40
0.5175895156
 41
0.0
 42
6.283185307179586
  0
ELLIPSE
  5
27D
330
1F
100
AcDbEntity
  8
0
  6
Continuous
 62
     7
370
    25
100
AcDbEllipse
 10
31.4156345709
 20
15.0057069667
 30
0.0
 11
1.234367774472997
 21
0.3306857822743475
 31
0.0
210
0.0
220
0.0
230
1.0
 40
0.5175895156
 41
0.0
 42
6.283185307179586
  0
LWPOLYLINE
  5
27E
330
1F
100
AcDbEntity
  8
0
  6
Continuous
 62
     7
370
    25
100
AcDbPolyline
 90
       61
 70
   128
 43
0.0
 10
30.153224763
 20
17.0165045869
 10
30.1318618272
 20
17.0283751444
 10
30.0881775903
 20
17.0498994262
 10
30.0430804325
 20
17.0685559294
 10
29.9967003806
 20
17.0842908626
 10
29.9491711603
 20
17.0970588578
 10
29.9006298107
 20
17.1068231016
 10
29.8512162889
 20
17.1135554412
 10
29.8010730671
 20
17.1172364654
 10
29.750344721
 20
17.1178555611
 10
29.6991775136
 20
17.115410943
 10
29.6477189733
 20
17.1099096598
 10
29.5961174684
 20
17.101367573
 10
29.5445217792
 20
17.0898093116
 10
29.4930806696
 20
17.0752682012
 10
29.4419424576
 20
17.0577861675
 10
29.3912545879
 20
17.0374136157
 10
29.3411632068
 20
17.0142092853
 10
29.2918127406
 20
16.9882400802
 10
29.2433454795
 20
16.9595808764
 10
29.1959011673
 20
16.9283143058
 10
29.1496165981
 20
16.8945305181
 10
29.1046252223
 20
16.8583269207
 10
29.0610567617
 20
16.8198078978
 10
29.0190368354
 20
16.7790845098
 10
28.9786865979
 20
16.7362741728
 10
28.9401223892
 20
16.69150032
 10
28.9034554
 20
16.6448920462
 10
28.8687913506
 20
16.5965837349
 10
28.8362301866
 20
16.5467146715
 10
28.8058657901
 20
16.4954286415
 10
28.7777857097
 20
16.4428735158
 10
28.7520709073
 20
16.3892008244
 10
28.7287955256
 20
16.3345653196
 10
28.7080266733
 20
16.2791245296
 10
28.6898242325
 20
16.2230383047
 10
28.6742406856
 20
16.1664683558
 10
28.6613209639
 20
16.109577789
 10
28.6511023184
 20
16.0525306342
 10
28.643614212
 20
15.9954913734
 10
28.6388782349
 20
15.9386244654
 10
28.6369080421
 20
15.8820938722
 10
28.6377093143
 20
15.8260625863
 10
28.6412797411
 20
15.7706921602
 10
28.6476090281
 20
15.7161422413
 10
28.6566789262
 20
15.662570111
 10
28.6684632848
 20
15.6101302318
 10
28.6829281263
 20
15.5589738014
 10
28.7000317449
 20
15.5092483169
 10
28.7197248264
 20
15.4610971499
 10
28.7419505907
 20
15.4146591327
 10
28.7666449549
 20
15.3700681579
 10
28.793736719
 20
15.3274527931
 10
28.8231477704
 20
15.2869359092
 10
28.8547933093
 20
15.248634327
 10
28.8885820935
 20
15.2126584798
 10
28.9244167012
 20
15.1791120954
 10
28.9621938119
 20
15.1480918966
 10
29.0018045044
 20
15.1196873226
 10
29.0431345709
 20
15.0939802714
 10
29.0431345709
 20
15.0939802714
  0
SPLINE
  5
27F
330
1F
100
AcDbEntity
  8
0
  6
Continuous
 62
     7
370
    25
100
AcDbSpline
210
0.0
220
0.0
230
1.0
 70
     8
 71
     3
 72
    19
 73
    15
 74
     0
 42
0.00000001
 43
0.00000001
 40
0.0
 40
0.0
 40
0.0
 40
0.0
 40
0.0148360479942776
 40
0.1047405954101911
 40
0.1945302178389501
 40
0.2842004584603114
 40
0.3739324744375716
 40
0.4638113423413488
 40
0.5536934314169945
 40
0.6434293398312046
 40
0.733098033709589
 40
0.8228831473962767
 40
0.9127867505760919
 40
1.0
 40
1.0
 40
1.0
 40
1.0
 10
29.16844338247514
 20
15.02243149075173
 30
0.0
 10
29.16734342514204
 20
15.02302241531854
 30
0.0
 10
29.15957786749224
 20
15.02719426694603
 30
0.0
 10
29.14512587934609
 20
15.03512229801741
 30
0.0
 10
29.12807107191342
 20
15.04486842345513
 30
0.0
 10
29.11573603367927
 20
15.05245151062501
 30
0.0
 10
29.10947329400613
 20
15.05687682920599
 30
0.0
 10
29.10986490960114
 20
15.05745839281317
 30
0.0
 10
29.11677358527106
 20
15.05391887574268
 30
0.0
 10
29.12933802421511
 20
15.04655868110018
 30
0.0
 10
29.14616995120123
 20
15.03622319490603
 30
0.0
 10
29.16538672549933
 20
15.02428272502393
 30
0.0
 10
29.1851103552661
 20
15.01214720792715
 30
0.0
 10
29.19642284242925
 20
15.00551604975265
 30
0.0
 10
29.20199316930703
 20
15.00225083335262
 30
0.0
  0
SPLINE
  5
280
330
1F
100
AcDbEntity
  8
0
  6
Continuous
 62
     7
370
    25
100
AcDbSpline
210
0.0
220
0.0
230
1.0
 70
    11
 71
     3
 72
    26
 73
    22
 74
     0
 42
0.00000001
 43
0.00000001
 40
0.0
 40
0.0
 40
0.0
 40
0.0
 40
0.0536200607839455
 40
0.1072376822530349
 40
0.1609185883661216
 40
0.2146408563604147
 40
0.2682944511770228
 40
0.3218767096526463
 40
0.37549588185867
 40
0.4292028051159856
 40
0.482911653177589
 40
0.5365331513008988
 40
0.5901144855235961
 40
0.6437653861511288
 40
0.697487089919183
 40
0.7511704282073666
 40
0.8047662990509747
 40
0.8583618717573697
 40
0.9120446244252642
 40
0.9657664953707805
 40
1.0
 40
1.0
 40
1.0
 40
1.0
 10
29.26817016183943
 20
16.81736903638987
 30
0.0
 10
29.26492398515255
 20
16.82002145218635
 30
0.0
 10
29.25843177945575
 20
16.82532616311408
 30
0.0
 10
29.25722544288335
 20
16.83810155020045
 30
0.0
 10
29.26277901143248
 20
16.85255629369609
 30
0.0
 10
29.27510175600237
 20
16.86729191858436
 30
0.0
 10
29.29271490928865
 20
16.88038822450637
 30
0.0
 10
29.31366259677185
 20
16.89037867297928
 30
0.0
 10
29.33554562240228
 20
16.89624753634897
 30
0.0
 10
29.35584120402339
 20
16.89751396393527
 30
0.0
 10
29.37216368305907
 20
16.89420266799122
 30
0.0
 10
29.38261258495377
 20
16.88679361693096
 30
0.0
 10
29.38603940538184
 20
16.87610758715185
 30
0.0
 10
29.38212909237632
 20
16.86320012084458
 30
0.0
 10
29.3713902678299
 20
16.84932476391114
 30
0.0
 10
29.35510344899633
 20
16.83589541912675
 30
0.0
 10
29.335162057016
 20
16.82438108915117
 30
0.0
 10
29.31374533681598
 20
16.81610900182692
 30
0.0
 10
29.29328112127888
 20
16.81224775180966
 30
0.0
 10
29.27769162995907
 20
16.81301839864088
 30
0.0
 10
29.27083777956705
 20
16.8161501236928
 30
0.0
 10
29.26817016183943
 20
16.81736903638986
 30
0.0
  0
LWPOLYLINE
  5
281
330
1F
100
AcDbEntity
  8
0
  6
Continuous
 62
     7
370
    25
100
AcDbPolyline
 90
       33
 70
   128
 43
0.0
 10
31.3005297261
 20
15.6589177678
 10
31.2989333087
 20
15.6415731264
 10
31.2921030403
 20
15.5869660386
 10
31.2825386755
 20
15.5323334189
 10
31.2702703075
 20
15.4778471615
 10
31.2553365371
 20
15.4236787004
 10
31.2377843513
 20
15.3699984697
 10
31.217668976
 20
15.3169753672
 10
31.1950537015
 20
15.2647762232
 10
31.1700096839
 20
15.2135652755
 10
31.1426157208
 20
15.1635036527
 10
31.1129580038
 20
15.1147488673
 10
31.0811298471
 20
15.0674543197
 10
31.0472313938
 20
15.0217688161
 10
31.011369301
 20
14.9778361001
 10
30.9736564042
 20
14.9357944002
 10
30.934211362
 20
14.8957759952
 10
30.8931582831
 20
14.8579067977
 10
30.8506263357
 20
14.8223059582
 10
30.8067493411
 20
14.7890854903
 10
30.7616653525
 20
14.7583499177
 10
30.7155162208
 20
14.7301959459
 10
30.6684471482
 20
14.7047121578
 10
30.6206062316
 20
14.6819787348
 10
30.572143996
 20
14.6620672046
 10
30.5232129216
 20
14.6450402163
 10
30.4739669638
 20
14.6309513431
 10
30.4245610684
 20
14.6198449137
 10
30.3751506847
 20
14.6117558732
 10
30.3258912761
 20
14.6067096726
 10
30.2769378309
 20
14.6047221892
 10
30.2284443747
 20
14.6057996763
 10
30.2073343798
 20
14.60724076
  0
LWPOLYLINE
  5
282
330
1F
100
AcDbEntity
  8
0
  6
Continuous
 62
     7
370
    25
100
AcDbPolyline
 90
       32
 70
   128
 43
0.0
 10
30.1705677484
 20
14.7374846728
 10
30.1834014829
 20
14.7352464632
 10
30.227639027
 20
14.7295814107
 10
30.2725763945
 20
14.7269565238
 10
30.3180527212
 20
14.7273811991
 10
30.3639052136
 20
14.7308539163
 10
30.4099697317
 20
14.7373622439
 10
30.4560813766
 20
14.746882884
 10
30.5020750804
 20
14.7593817549
 10
30.5477861977
 20
14.7748141141
 10
30.5930510946
 20
14.7931247176
 10
30.6377077344
 20
14.8142480183
 10
30.6815962579
 20
14.8381084002
 10
30.7245595557
 20
14.8646204494
 10
30.7664438302
 20
14.8936892596
 10
30.8070991468
 20
14.9252107721
 10
30.8463799698
 20
14.9590721478
 10
30.8841456841
 20
14.9951521721
 10
30.9202610982
 20
15.0333216876
 10
30.9545969285
 20
15.0734440575
 10
30.9870302614
 20
15.1153756541
 10
31.0174449941
 20
15.1589663731
 10
31.0457322497
 20
15.2040601711
 10
31.0717907672
 20
15.250495624
 10
31.0955272639
 20
15.298106505
 10
31.1168567693
 20
15.3467223793
 10
31.1357029292
 20
15.3961692149
 10
31.1519982794
 20
15.4462700049
 10
31.1656844866
 20
15.4968454014
 10
31.1767125579
 20
15.5477143577
 10
31.1850430155
 20
15.5986947761
 10
31.1887018311
 20
15.6289574363
  0
LWPOLYLINE
  5
283
330
1F
100
AcDbEntity
  8
0
  6
Continuous
 62
     7
370
    25
100
AcDbPolyline
 90
       30
 70
   128
 43
0.0
 10
30.1695166625
 20
14.7592618826
 10
30.177639027
 20
14.7584551796
 10
30.2225763945
 20
14.7558302927
 10
30.2680527212
 20
14.756254968
 10
30.3139052136
 20
14.7597276852
 10
30.3599697317
 20
14.7662360129
 10
30.4060813766
 20
14.7757566529
 10
30.4520750804
 20
14.7882555238
 10
30.4977861977
 20
14.803687883
 10
30.5430510946
 20
14.8219984865
 10
30.5877077344
 20
14.8431217872
 10
30.6315962579
 20
14.8669821692
 10
30.6745595557
 20
14.8934942184
 10
30.7164438302
 20
14.9225630286
 10
30.7570991468
 20
14.954084541
 10
30.7963799698
 20
14.9879459168
 10
30.8341456841
 20
15.024025941
 10
30.8702610982
 20
15.0621954565
 10
30.9045969285
 20
15.1023178264
 10
30.9370302614
 20
15.144249423
 10
30.9674449941
 20
15.187840142
 10
30.9957322497
 20
15.23293394
 10
31.0217907672
 20
15.2793693929
 10
31.0455272639
 20
15.3269802739
 10
31.0668567693
 20
15.3755961483
 10
31.0857029292
 20
15.4250429838
 10
31.1019982794
 20
15.4751437738
 10
31.1156844866
 20
15.5257191703
 10
31.1267125579
 20
15.5765881266
 10
31.1327610261
 20
15.6118286451
  0
LINE
  5
284
330
1F
100
AcDbEntity
  8
0
  6
Continuous
 62
     7
370
    25
100
AcDbLine
 10
30.1481345709
 20
17.019444039
 30
0.0
 11
30.150721814
 21
17.0179434758
 31
0.0
  0
ARC
  5
285
330
1F
100
AcDbEntity
  8
0
  6
Continuous
 62
     7
370
    25
100
AcDbCircle
 10
29.431454419
 20
15.7681648651
 30
0.0
 40
0.7780180984101343
100
AcDbArc
 50
206.5485099728
 51
239.8384355655
  0
ARC
  5
286
330
1F
100
AcDbEntity
  8
0
  6
Continuous
 62
     7
370
    25
100
AcDbCircle
 10
29.7641237005
 20
16.3450421567
 30
0.0
 40
0.7760684553893139
100
AcDbArc
 50
60.3424006511
 51
92.7874558848
  0
LWPOLYLINE
  5
287
330
1F
100
AcDbEntity
  8
0
  6
Continuous
 62
     7
370
    25
100
AcDbPolyline
 90
       61
 70
   128
 43
0.0
 10
29.225724763
 20
17.5521130002
 10
29.2043618272
 20
17.5639835578
 10
29.1606775903
 20
17.5855078396
 10
29.1155804325
 20
17.6041643428
 10
29.0692003806
 20
17.619899276
 10
29.0216711603
 20
17.6326672712
 10
28.9731298107
 20
17.642431515
 10
28.9237162889
 20
17.6491638546
 10
28.8735730671
 20
17.6528448788
 10
28.822844721
 20
17.6534639744
 10
28.7716775136
 20
17.6510193564
 10
28.7202189733
 20
17.6455180732
 10
28.6686174684
 20
17.6369759863
 10
28.6170217792
 20
17.625417725
 10
28.5655806696
 20
17.6108766146
 10
28.5144424576
 20
17.5933945809
 10
28.4637545879
 20
17.5730220291
 10
28.4136632068
 20
17.5498176986
 10
28.3643127406
 20
17.5238484935
 10
28.3158454795
 20
17.4951892898
 10
28.2684011673
 20
17.4639227192
 10
28.2221165981
 20
17.4301389315
 10
28.1771252223
 20
17.393935334
 10
28.1335567617
 20
17.3554163112
 10
28.0915368354
 20
17.3146929232
 10
28.0511865979
 20
17.2718825862
 10
28.0126223892
 20
17.2271087334
 10
27.9759554
 20
17.1805004595
 10
27.9412913506
 20
17.1321921482
 10
27.9087301866
 20
17.0823230849
 10
27.8783657901
 20
17.0310370549
 10
27.8502857097
 20
16.9784819292
 10
27.8245709073
 20
16.9248092378
 10
27.8012955256
 20
16.870173733
 10
27.7805266733
 20
16.814732943
 10
27.7623242325
 20
16.758646718
 10
27.7467406856
 20
16.7020767692
 10
27.7338209639
 20
16.6451862023
 10
27.7236023184
 20
16.5881390476
 10
27.716114212
 20
16.5310997868
 10
27.7113782349
 20
16.4742328788
 10
27.7094080421
 20
16.4177022856
 10
27.7102093143
 20
16.3616709996
 10
27.7137797411
 20
16.3063005736
 10
27.7201090281
 20
16.2517506546
 10
27.7291789262
 20
16.1981785244
 10
27.7409632848
 20
16.1457386452
 10
27.7554281263
 20
16.0945822148
 10
27.7725317449
 20
16.0448567303
 10
27.7922248264
 20
15.9967055633
 10
27.8144505907
 20
15.9502675461
 10
27.8391449549
 20
15.9056765713
 10
27.866236719
 20
15.8630612064
 10
27.8956477704
 20
15.8225443226
 10
27.9272933093
 20
15.7842427404
 10
27.9610820935
 20
15.7482668932
 10
27.9969167012
 20
15.7147205088
 10
28.0346938119
 20
15.68370031
 10
28.0743045044
 20
15.655295736
 10
28.1156345709
 20
15.6295886847
 10
28.1156345709
 20
15.6295886847
  0
LWPOLYLINE
  5
288
330
1F
100
AcDbEntity
  8
0
  6
Continuous
 62
     7
370
    25
100
AcDbPolyline
 90
       41
 70
   128
 43
0.0
 10
25.4599976795
 20
14.4923310001
 10
25.5008956035
 20
14.4687212824
 10
25.5400598998
 20
14.4461126686
 10
25.5773736866
 20
14.4245726318
 10
25.6127256051
 20
14.4041654558
 10
25.6460101512
 20
14.3849520438
 10
25.6771279908
 20
14.3669897361
 10
25.7059862559
 20
14.3503321393
 10
25.7324988222
 20
14.3350289662
 10
25.7565865657
 20
14.3211258874
 10
25.7781775992
 20
14.3086643953
 10
25.7972074865
 20
14.2976816799
 10
25.813619435
 20
14.2882105177
 10
25.8273644649
 20
14.2802791747
 10
25.8384015558
 20
14.2739113208
 10
25.8466977685
 20
14.2691259605
 10
25.8522283439
 20
14.265937375
 10
25.8549767766
 20
14.2643550804
 10
25.8549348641
 20
14.2643837987
 10
25.8521027317
 20
14.2660234444
 10
25.8464888315
 20
14.2692691241
 10
25.8381099175
 20
14.2741111514
 10
25.8269909957
 20
14.2805350758
 10
25.8131652494
 20
14.2885217258
 10
25.7966739401
 20
14.298047266
 10
25.7775662842
 20
14.3090832685
 10
25.7558993065
 20
14.3215967976
 10
25.7317376698
 20
14.3355505079
 10
25.705153482
 20
14.3509027561
 10
25.6762260807
 20
14.3676077251
 10
25.6450417966
 20
14.3856155606
 10
25.6116936958
 20
14.4048725202
 10
25.5762813023
 20
14.4253211336
 10
25.5389103006
 20
14.4469003741
 10
25.4996922203
 20
14.4695458407
 10
25.4587441037
 20
14.4931899504
 10
25.4161881559
 20
14.51776214
 10
25.3721513808
 20
14.5431890764
 10
25.3267652014
 20
14.5693948756
 10
25.2801650677
 20
14.5963013291
 10
25.2347181521
 20
14.622541674
  0
LWPOLYLINE
  5
289
330
1F
100
AcDbEntity
  8
0
  6
Continuous
 62
     7
370
    25
100
AcDbPolyline
 90
       63
 70
   128
 43
0.0
 10
24.4913469491
 20
15.0517228606
 10
24.4890143785
 20
15.0530694641
 10
24.4443267957
 20
15.0788676602
 10
24.4010588018
 20
15.1038460438
 10
24.3593395255
 20
15.1279300694
 10
24.3192934734
 20
15.1510478608
 10
24.2810401589
 20
15.1731304255
 10
24.2446937446
 20
15.1941118604
 10
24.2103627028
 20
15.2139295488
 10
24.1781494906
 20
15.2325243467
 10
24.148150245
 20
15.24984076
 10
24.1204544955
 20
15.2658271098
 10
24.0951448971
 20
15.2804356865
 10
24.0722969836
 20
15.2936228923
 10
24.0519789421
 20
15.3053493715
 10
24.0342514098
 20
15.3155801275
 10
24.0191672924
 20
15.324284628
 10
24.006771607
 20
15.331436895
 10
23.9971013471
 20
15.3370155836
 10
23.9901853725
 20
15.3410040447
 10
23.9860443234
 20
15.3433903752
 10
23.9846905581
 20
15.3441674533
 10
23.9861281169
 20
15.3433329598
 10
23.9903527095
 20
15.3408893854
 10
23.9973517281
 20
15.3368440225
 10
24.0071042848
 20
15.3312089441
 10
24.0195812743
 20
15.3240009675
 10
24.0347454601
 20
15.3152416042
 10
24.0525515866
 20
15.3049569954
 10
24.0729465131
 20
15.2931778346
 10
24.0958693732
 20
15.2799392754
 10
24.1212517561
 20
15.2652808268
 10
24.1490179107
 20
15.2492462354
 10
24.179084972
 20
15.2318833547
 10
24.2113632081
 20
15.2132440024
 10
24.2457562879
 20
15.1933838057
 10
24.282161569
 20
15.1723620351
 10
24.3204704038
 20
15.150241428
 10
24.3605684636
 20
15.1270880008
 10
24.40233608
 20
15.1029708526
 10
24.4456486022
 20
15.0779619583
 10
24.4903767684
 20
15.0521359544
 10
24.5363870922
 20
15.0255699157
 10
24.5835422608
 20
14.9983431259
 10
24.6317015447
 20
14.9705368402
 10
24.6807212175
 20
14.9422340437
 10
24.7304549853
 20
14.9135192029
 10
24.780754423
 20
14.8844780143
 10
24.8314694173
 20
14.8551971482
 10
24.8824486148
 20
14.8257639901
 10
24.9335398734
 20
14.7962663803
 10
24.9845907168
 20
14.7667923511
 10
25.0354487891
 20
14.7374298646
 10
25.08596231
 20
14.7082665501
 10
25.1359805272
 20
14.6793894423
 10
25.1853541667
 20
14.6508847219
 10
25.2339358782
 20
14.6228374582
 10
25.2815806746
 20
14.5953313551
 10
25.3281463653
 20
14.5684485019
 10
25.3734939799
 20
14.5422691274
 10
25.4174881833
 20
14.5168713611
 10
25.4599976795
 20
14.4923310001
 10
25.4599976795
 20
14.4923310001
  0
LWPOLYLINE
  5
28A
330
1F
100
AcDbEntity
  8
0
  6
Continuous
 62
     7
370
    25
100
AcDbPolyline
 90
       42
 70
   128
 43
0.0
 10
25.4599976795
 20
14.4576881074
 10
25.4170674044
 20
14.4824713779
 10
25.3726606996
 20
14.5081072729
 10
25.3269056013
 20
14.5345218775
 10
25.2799340333
 20
14.5616390316
 10
25.2318814267
 20
14.5893805493
 10
25.1828863296
 20
14.6176664448
 10
25.1330900076
 20
14.6464151624
 10
25.0826360364
 20
14.6755438122
 10
25.0316698878
 20
14.7049684086
 10
24.9803385104
 20
14.7346041131
 10
24.9287899059
 20
14.7643654781
 10
24.8771727023
 20
14.7941666941
 10
24.8256357253
 20
14.8239218362
 10
24.7743275693
 20
14.8535451128
 10
24.7233961691
 20
14.8829511123
 10
24.672988373
 20
14.9120550496
 10
24.6232495199
 20
14.9407730104
 10
24.5743230196
 20
14.9690221936
 10
24.52634994
 20
14.9967211493
 10
24.4794685998
 20
15.0237900143
 10
24.4338141702
 20
15.0501507421
 10
24.3895182845
 20
15.0757273278
 10
24.3467086594
 20
15.1004460276
 10
24.3055087261
 20
15.124235571
 10
24.2660372746
 20
15.1470273667
 10
24.2284081114
 20
15.1687556999
 10
24.192729731
 20
15.1893579223
 10
24.1591050036
 20
15.2087746323
 10
24.1276308778
 20
15.2269498465
 10
24.0983981017
 20
15.2438311611
 10
24.071490961
 20
15.2593699029
 10
24.046987036
 20
15.2735212696
 10
24.0249569777
 20
15.2862444593
 10
24.0054643046
 20
15.2975027876
 10
23.9885652192
 20
15.3072637939
 10
23.9743084457
 20
15.3154993346
 10
23.9627350902
 20
15.3221856647
 10
23.9538785217
 20
15.3273035055
 10
23.9477642759
 20
15.3308381012
 10
23.9444099819
 20
15.3327792606
 10
23.9437094866
 20
15.3331869466
  0
LWPOLYLINE
  5
28B
330
1F
100
AcDbEntity
  8
0
  6
Continuous
 62
     7
370
    25
100
AcDbPolyline
 90
       19
 70
   128
 43
0.0
 10
25.8662858774
 20
14.2231869466
 10
25.8654229362
 20
14.2236815609
 10
25.8618525094
 20
14.2257383923
 10
25.8555232224
 20
14.2293880759
 10
25.8464533242
 20
14.2346200887
 10
25.8346689657
 20
14.2414193454
 10
25.8202041242
 20
14.2497662421
 10
25.8031005056
 20
14.2596367124
 10
25.783407424
 20
14.2710022973
 10
25.7611816598
 20
14.2838302268
 10
25.7364872955
 20
14.2980835147
 10
25.7093955314
 20
14.3137210651
 10
25.6799844801
 20
14.3306977908
 10
25.6483389411
 20
14.3489647436
 10
25.6145501569
 20
14.3684692551
 10
25.5787155493
 20
14.3891550888
 10
25.5409384386
 20
14.410962602
 10
25.501327746
 20
14.433828918
 10
25.4599976795
 20
14.4576881074
  0
LWPOLYLINE
  5
28C
330
1F
100
AcDbEntity
  8
0
  6
Continuous
 62
     7
370
    25
100
AcDbPolyline
 90
       61
 70
   128
 43
0.0
 10
24.930125532
 20
12.6217098406
 10
24.9300108378
 20
12.6217747881
 10
24.9278438995
 20
12.6230213493
 10
24.9229368671
 20
12.6258499214
 10
24.9153038887
 20
12.6302523489
 10
24.9049669723
 20
12.6362159384
 10
24.8919559218
 20
12.6437234955
 10
24.8763082514
 20
12.6527533738
 10
24.8580690776
 20
12.6632795379
 10
24.8372909884
 20
12.6752716381
 10
24.8140338925
 20
12.6886950981
 10
24.7883648462
 20
12.7035112146
 10
24.7603578599
 20
12.7196772689
 10
24.730093685
 20
12.7371466501
 10
24.6976595811
 20
12.7558689894
 10
24.6631490639
 20
12.7757903055
 10
24.6266616364
 20
12.79685316
 10
24.5883025011
 20
12.8189968234
 10
24.5481822573
 20
12.8421574496
 10
24.5064165822
 20
12.8662682606
 10
24.463125897
 20
12.8912597388
 10
24.4184350199
 20
12.9170598271
 10
24.3724728063
 20
12.9435941372
 10
24.3253717772
 20
12.970786164
 10
24.2772677369
 20
12.9985575057
 10
24.2282993821
 20
13.0268280903
 10
24.1786079009
 20
13.0555164065
 10
24.128336567
 20
13.0845397383
 10
24.0776303255
 20
13.1138144041
 10
24.0266353756
 20
13.1432559974
 10
23.9754987491
 20
13.1727796304
 10
23.924367886
 20
13.2023001789
 10
23.8733902098
 20
13.2317325275
 10
23.8227127024
 20
13.260991815
 10
23.7724814802
 20
13.2899936795
 10
23.7228413727
 20
13.318654501
 10
23.6739355054
 20
13.346891643
 10
23.6259048863
 20
13.3746236904
 10
23.5788880003
 20
13.4017706846
 10
23.5330204091
 20
13.4282543538
 10
23.4884343611
 20
13.4539983387
 10
23.4452584091
 20
13.4789284127
 10
23.4036170408
 20
13.502972696
 10
23.3636303189
 20
13.5260618627
 10
23.3254135355
 20
13.5481293407
 10
23.2890768795
 20
13.5691115038
 10
23.2547251189
 20
13.588947855
 10
23.2224572987
 20
13.6075812009
 10
23.1923664553
 20
13.6249578169
 10
23.1645393486
 20
13.6410276015
 10
23.1390562111
 20
13.6557442214
 10
23.1159905175
 20
13.6690652449
 10
23.095408772
 20
13.680952264
 10
23.0773703172
 20
13.6913710053
 10
23.0619271626
 20
13.7002914288
 10
23.0491238348
 20
13.7076878148
 10
23.0389972491
 20
13.7135388374
 10
23.0315766031
 20
13.7178276268
 10
23.0268832925
 20
13.7205418171
 10
23.0249308492
 20
13.7216735827
 10
23.024869788
 20
13.721709763
  0
LWPOLYLINE
  5
28D
330
1F
100
AcDbEntity
  8
0
  6
Continuous
 62
     7
370
    25
100
AcDbPolyline
 90
       29
 70
   128
 43
0.0
 10
25.1674976795
 20
14.6612425483
 10
25.1385303774
 20
14.6779651665
 10
25.1081458068
 20
14.6955062565
 10
25.0765410235
 20
14.7137520578
 10
25.0439209964
 20
14.7325842393
 10
25.0104972792
 20
14.7518806669
 10
24.9764866373
 20
14.7715161961
 10
24.9421096428
 20
14.7913634828
 10
24.9075892437
 20
14.8112938099
 10
24.8731493182
 20
14.8311779214
 10
24.8390132222
 20
14.8508868613
 10
24.8054023415
 20
14.8702928095
 10
24.7725346555
 20
14.889269911
 10
24.7406233239
 20
14.9076950921
 10
24.7098753037
 20
14.9254488583
 10
24.6804900078
 20
14.9424160697
 10
24.6526580111
 20
14.9584866874
 10
24.6265598147
 20
14.9735564873
 10
24.6023646755
 20
14.987527736
 10
24.5802295081
 20
15.0003098244
 10
24.5602978678
 20
15.011819856
 10
24.5426990187
 20
15.0219831837
 10
24.5275470963
 20
15.0307338944
 10
24.5149403665
 20
15.0380152364
 10
24.5049605888
 20
15.0437799874
 10
24.4976724858
 20
15.0479907609
 10
24.4931233239
 20
15.0506202482
 10
24.4913426059
 20
15.0516513963
 10
24.491315105
 20
15.0516677049
  0
LINE
  5
28E
330
1F
100
AcDbEntity
  8
0
  6
Continuous
 62
     7
370
    25
100
AcDbLine
 10
25.2346728238
 20
14.6224631629
 30
0.0
 11
25.1674976795
 21
14.6612425483
 31
0.0
  0
LINE
  5
28F
330
1F
100
AcDbEntity
  8
0
  6
Continuous
 62
     7
370
    25
100
AcDbLine
 10
25.4349976795
 20
15.1245661379
 30
0.0
 11
25.1674976795
 21
14.6612425483
 31
0.0
  0
ARC
  5
290
330
1F
100
AcDbEntity
  8
0
  6
Continuous
 62
     7
370
    25
100
AcDbCircle
 10
24.7693005909
 20
15.5092715816
 30
0.0
 40
0.8464284435961112
100
AcDbArc
 50
329.9788462461
 51
336.4220918747
  0
LINE
  5
291
330
1F
100
AcDbEntity
  8
0
  6
Continuous
 62
     7
370
    25
100
AcDbLine
 10
25.5021728238
 20
15.0857867526
 30
0.0
 11
25.4349976795
 21
15.1245661379
 31
0.0
  0
LINE
  5
292
330
1F
100
AcDbEntity
  8
0
  6
Continuous
 62
     7
370
    25
100
AcDbLine
 10
25.5021728238
 20
15.0857867526
 30
0.0
 11
25.2346728238
 21
14.6224631629
 31
0.0
  0
LINE
  5
293
330
1F
100
AcDbEntity
  8
0
  6
Continuous
 62
     7
370
    25
100
AcDbLine
 10
25.6451315668
 20
15.0319793524
 30
0.0
 11
25.3841090174
 21
14.881294242
 31
0.0
  0
ELLIPSE
  5
294
330
1F
100
AcDbEntity
  8
0
  6
Continuous
 62
     7
370
    25
100
AcDbEllipse
 10
25.7004619207
 20
15.3830362633
 30
0.0
 11
-0.1909438199157592
 21
0.4602539947866388
 31
0.0
210
0.0
220
0.0
230
1.0
 40
0.4693136299
 41
0.061420678729866
 42
2.224579114927179
  0
LWPOLYLINE
  5
295
330
1F
100
AcDbEntity
  8
0
  6
Continuous
 62
     7
370
    25
100
AcDbPolyline
 90
       39
 70
   128
 43
0.0
 10
25.5367809327
 20
15.8582229677
 10
25.5237042432
 20
15.846881284
 10
25.5076918636
 20
15.8293369128
 10
25.4935980655
 20
15.8092839662
 10
25.4815142527
 20
15.7868524951
 10
25.4715187934
 20
15.7621879764
 10
25.4636765119
 20
15.7354503688
 10
25.4580382684
 20
15.7068130761
 10
25.4546406292
 20
15.676461822
 10
25.4535056291
 20
15.6445934461
 10
25.4546406292
 20
15.6114146271
 10
25.4580382684
 20
15.5771405422
 10
25.4636765119
 20
15.5419934721
 10
25.4715187934
 20
15.5062013591
 10
25.4815142527
 20
15.4699963286
 10
25.4935980655
 20
15.4336131843
 10
25.5076918636
 20
15.3972878848
 10
25.5237042432
 20
15.3612560136
 10
25.541531358
 20
15.3257512512
 10
25.5610575923
 20
15.2910038596
 10
25.582156311
 20
15.257239189
 10
25.6046906807
 20
15.2246762162
 10
25.6285145575
 20
15.1935261246
 10
25.6534734343
 20
15.1639909345
 10
25.6794054433
 20
15.1362621929
 10
25.7061424054
 20
15.1105197314
 10
25.7335109212
 20
15.0869304997
 10
25.7613334953
 20
15.0656474831
 10
25.7894296878
 20
15.04680871
 10
25.8176172839
 20
15.0305363571
 10
25.8457134763
 20
15.0169359569
 10
25.8735360504
 20
15.0060957132
 10
25.9009045662
 20
14.9980859292
 10
25.9276415283
 20
14.9929585513
 10
25.9535735373
 20
14.9907468326
 10
25.9785324142
 20
14.9914651169
 10
26.0023562909
 20
14.9951087459
 10
26.0248906607
 20
15.0016540892
 10
26.030109586
 20
15.0036600823
  0
SPLINE
  5
296
330
1F
100
AcDbEntity
  8
0
  6
Continuous
 62
     7
370
    25
100
AcDbSpline
210
0.0
220
0.0
230
1.0
 70
     8
 71
     3
 72
    12
 73
     8
 74
     0
 42
0.00000001
 43
0.00000001
 40
0.0
 40
0.0
 40
0.0
 40
0.0
 40
0.0973464954143325
 40
0.3901691974104769
 40
0.6830339305659537
 40
0.9758985915933469
 40
0.9999999999999999
 40
0.9999999999999999
 40
0.9999999999999999
 40
0.9999999999999999
 10
27.91787763336444
 20
17.17671103279553
 30
0.0
 10
27.92001017863892
 20
17.17772419729676
 30
0.0
 10
27.92855751744803
 20
17.18178500686784
 30
0.0
 10
27.94303469563766
 20
17.18486768540981
 30
0.0
 10
27.96030928787558
 20
17.18508150161568
 30
0.0
 10
27.97177396124516
 20
17.18326617067581
 30
0.0
 10
27.97665028020564
 20
17.18032182396223
 30
0.0
 10
27.97702106486091
 20
17.1800979422617
 30
0.0
  0
SPLINE
  5
297
330
1F
100
AcDbEntity
  8
0
  6
Continuous
 62
     7
370
    25
100
AcDbSpline
210
0.0
220
0.0
230
1.0
 70
     8
 71
     3
 72
    19
 73
    15
 74
     0
 42
0.00000001
 43
0.00000001
 40
0.0
 40
0.0
 40
0.0
 40
0.0
 40
0.0535821128534926
 40
0.1422814468891037
 40
0.2309799039517101
 40
0.3224804049891736
 40
0.413957276956747
 40
0.5027095411764835
 40
0.5914523740934321
 40
0.6764708250900808
 40
0.7615033424526324
 40
0.8471527339914
 40
0.9328179405603422
 40
1.0
 40
1.0
 40
1.0
 40
1.0
 10
27.83947549553401
 20
17.12103504237587
 30
0.0
 10
27.83551099681743
 20
17.1172223713653
 30
0.0
 10
27.82498370359316
 20
17.10709824002734
 30
0.0
 10
27.80946438601721
 20
17.08870592793444
 30
0.0
 10
27.79346418680228
 20
17.06626769057308
 30
0.0
 10
27.78044918823358
 20
17.04251132274017
 30
0.0
 10
27.77105792216025
 20
17.01830018874368
 30
0.0
 10
27.76602096466047
 20
16.99445710013064
 30
0.0
 10
27.76525539881606
 20
16.97196055656376
 30
0.0
 10
27.76877569726072
 20
16.9512509564921
 30
0.0
 10
27.77597630964867
 20
16.93270962160211
 30
0.0
 10
27.78683956225168
 20
16.91683051247253
 30
0.0
 10
27.79945084377857
 20
16.90438859739003
 30
0.0
 10
27.80937042796073
 20
16.89918591896897
 30
0.0
 10
27.8137304542245
 20
16.89689914825951
 30
0.0
  0
ARC
  5
298
330
1F
100
AcDbEntity
  8
0
  6
Continuous
 62
     7
370
    25
100
AcDbCircle
 10
27.6695135923
 20
16.8056023003
 30
0.0
 40
0.2486395158272749
100
AcDbArc
 50
125.6413710367
 51
185.6708093567
  0
ARC
  5
299
330
1F
100
AcDbEntity
  8
0
  6
Continuous
 62
     7
370
    25
100
AcDbCircle
 10
28.1904188631
 20
16.8181929093
 30
0.0
 40
0.7692260172062124
100
AcDbArc
 50
182.7688924333
 51
233.0643180402
  0
LWPOLYLINE
  5
29A
330
1F
100
AcDbEntity
  8
0
  6
Continuous
 62
     7
370
    25
100
AcDbPolyline
 90
      133
 70
   128
 43
0.0
 10
25.030655774
 20
22.0839396525
 10
24.9687128382
 20
22.1210060451
 10
24.9091146406
 20
22.1593321579
 10
24.8519380004
 20
22.1988685903
 10
24.7972566155
 20
22.2395643817
 10
24.7451409677
 20
22.2813670771
 10
24.6956582316
 20
22.3242227949
 10
24.6488721881
 20
22.3680762961
 10
24.6048431422
 20
22.4128710556
 10
24.5636278452
 20
22.458549335
 10
24.5252794218
 20
22.5050522572
 10
24.4898473012
 20
22.5523198822
 10
24.4573771537
 20
22.6002912842
 10
24.4279108318
 20
22.6489046303
 10
24.4014863163
 20
22.6980972603
 10
24.3781376671
 20
22.7478057671
 10
24.3578949794
 20
22.7979660789
 10
24.3407843453
 20
22.8485135413
 10
24.3268278193
 20
22.8993830011
 10
24.3160433909
 20
22.95050889
 10
24.3084449607
 20
23.0018253091
 10
24.3040423227
 20
23.053266114
 10
24.3028411517
 20
23.1047649999
 10
24.3048429959
 20
23.1562555872
 10
24.310045275
 20
23.2076715069
 10
24.3184412836
 20
23.2589464863
 10
24.3300201997
 20
23.3100144345
 10
24.3447670984
 20
23.3608095273
 10
24.3626629718
 20
23.4112662921
 10
24.383684753
 20
23.4613196926
 10
24.4078053458
 20
23.5109052124
 10
24.4349936599
 20
23.559958938
 10
24.465214651
 20
23.6084176416
 10
24.4984293655
 20
23.6562188621
 10
24.5345949913
 20
23.703300986
 10
24.5736649126
 20
23.7496033267
 10
24.6155887701
 20
23.7950662026
 10
24.660312526
 20
23.8396310143
 10
24.7077785334
 20
23.8832403199
 10
24.7579256109
 20
23.925837909
 10
24.8106891213
 20
23.9673688753
 10
24.8660010549
 20
24.0077796873
 10
24.9237901172
 20
24.0470182575
 10
24.9839818209
 20
24.0850340092
 10
25.0464985818
 20
24.1217779419
 10
25.1112598186
 20
24.1572026943
 10
25.1781820572
 20
24.1912626057
 10
25.247179038
 20
24.2239137744
 10
25.3181618272
 20
24.2551141147
 10
25.3910389313
 20
24.2848234107
 10
25.4657164151
 20
24.3130033687
 10
25.5420980229
 20
24.3396176658
 10
25.6200853025
 20
24.3646319977
 10
25.6995777318
 20
24.3880141219
 10
25.780472849
 20
24.4097339001
 10
25.8626663841
 20
24.4297633365
 10
25.9460523934
 20
24.448076614
 10
26.0305233964
 20
24.4646501277
 10
26.1159705139
 20
24.4794625152
 10
26.2022836086
 20
24.492494684
 10
26.289351427
 20
24.5037298363
 10
26.3770617429
 20
24.5131534903
 10
26.4653015017
 20
24.5207534996
 10
26.5539569666
 20
24.5265200681
 10
26.642913865
 20
24.5304457628
 10
26.7320575355
 20
24.5325255239
 10
26.8212730761
 20
24.5327566705
 10
26.9104454924
 20
24.5311389048
 10
26.9994598452
 20
24.5276743119
 10
27.0882013992
 20
24.5223673576
 10
27.1765557709
 20
24.5152248823
 10
27.2644090755
 20
24.5062560922
 10
27.3516480743
 20
24.4954725478
 10
27.4381603204
 20
24.4828881485
 10
27.5238343036
 20
24.468519115
 10
27.6085595942
 20
24.4523839683
 10
27.6922269852
 20
24.4345035058
 10
27.7747286335
 20
24.4149007747
 10
27.8559581981
 20
24.3936010419
 10
27.9358109782
 20
24.3706317618
 10
28.0141840471
 20
24.3460225406
 10
28.0909763858
 20
24.3198050985
 10
28.1660890126
 20
24.2920132286
 10
28.2394251107
 20
24.2626827532
 10
28.3108901536
 20
24.231851478
 10
28.380392026
 20
24.1995591429
 10
28.4478411434
 20
24.1658473714
 10
28.513150567
 20
24.1307596163
 10
28.5762361162
 20
24.0943411039
 10
28.6370164765
 20
24.0566387762
 10
28.695413305
 20
24.0177012295
 10
28.751351331
 20
23.9775786526
 10
28.8047584529
 20
23.9363227615
 10
28.8555658316
 20
23.8939867332
 10
28.9037079786
 20
23.8506251368
 10
28.9491228411
 20
23.8062938632
 10
28.9917518815
 20
23.7610500536
 10
29.0315401528
 20
23.7149520249
 10
29.0684363701
 20
23.6680591954
 10
29.1023929756
 20
23.6204320076
 10
29.133366201
 20
23.5721318509
 10
29.1613161233
 20
23.5232209817
 10
29.1862067164
 20
23.473762444
 10
29.2080058974
 20
23.4238199873
 10
29.2266855682
 20
23.3734579853
 10
29.2422216516
 20
23.3227413521
 10
29.2545941224
 20
23.271735459
 10
29.2637870329
 20
23.2205060503
 10
29.2697885341
 20
23.1691191582
 10
29.2725908902
 20
23.1176410181
 10
29.2721904891
 20
23.0661379827
 10
29.2685878469
 20
23.0146764371
 10
29.2617876073
 20
22.9633227128
 10
29.2517985354
 20
22.9121430023
 10
29.2386335067
 20
22.8612032738
 10
29.2223094903
 20
22.8105691863
 10
29.2028475271
 20
22.7603060046
 10
29.1802727026
 20
22.7104785156
 10
29.1546141147
 20
22.6611509446
 10
29.1259048361
 20
22.6123868726
 10
29.0941818717
 20
22.5642491541
 10
29.0594861109
 20
22.5167998363
 10
29.021862275
 20
22.4701000791
 10
28.9813588592
 20
22.4242100764
 10
28.9380280705
 20
22.3791889783
 10
28.8919257603
 20
22.3350948146
 10
28.8431113523
 20
22.2919844209
 10
28.7916477659
 20
22.2499133642
 10
28.7376013353
 20
22.2089358722
 10
28.6810417238
 20
22.169104763
 10
28.622041834
 20
22.130471377
 10
28.560677714
 20
22.0930855108
 10
28.5452619948
 20
22.0841045055
  0
ARC
  5
29B
330
1F
100
AcDbEntity
  8
0
  6
Continuous
 62
     7
370
    25
100
AcDbCircle
 10
26.6344550464
 20
24.9371695654
 30
0.0
 40
3.273814597615462
100
AcDbArc
 50
241.3741722229
 51
263.9219997203
  0
LWPOLYLINE
  5
29C
330
1F
100
AcDbEntity
  8
0
  6
Continuous
 62
     7
370
    25
100
AcDbPolyline
 90
      149
 70
   128
 43
0.0
 10
27.2878161252
 20
21.6817581508
 10
27.332715717
 20
21.6874523734
 10
27.4180405001
 20
21.6997020273
 10
27.5025435907
 20
21.7137219902
 10
27.5861148132
 20
21.729493983
 10
27.6686452064
 20
21.7469974418
 10
27.7500271665
 20
21.7662095455
 10
27.8301545871
 20
21.7871052452
 10
27.9089229971
 20
21.8096572969
 10
27.9862296977
 20
21.8338362971
 10
28.0619738955
 20
21.8596107208
 10
28.1360568348
 20
21.8869469633
 10
28.2083819254
 20
21.9158093831
 10
28.2788548691
 20
21.9461603494
 10
28.3473837829
 20
21.9779602901
 10
28.4138793179
 20
22.0111677442
 10
28.4782547767
 20
22.0457394156
 10
28.5404262261
 20
22.0816302293
 10
28.6003126062
 20
22.1187933907
 10
28.6578358367
 20
22.1571804459
 10
28.7129209183
 20
22.1967413458
 10
28.7654960304
 20
22.2374245102
 10
28.8154926253
 20
22.2791768963
 10
28.8628455169
 20
22.3219440668
 10
28.907492966
 20
22.3656702615
 10
28.9493767609
 20
22.4102984698
 10
28.9884422932
 20
22.455770505
 10
29.0246386287
 20
22.5020270803
 10
29.0579185744
 20
22.5490078858
 10
29.0882387396
 20
22.5966516677
 10
29.1155595926
 20
22.6448963075
 10
29.1398455122
 20
22.6936789034
 10
29.1610648342
 20
22.7429358522
 10
29.1791898927
 20
22.7926029322
 10
29.194197056
 20
22.8426153871
 10
29.2060667576
 20
22.89290801
 10
29.2147835218
 20
22.9434152292
 10
29.2203359835
 20
22.9940711927
 10
29.2227169034
 20
23.0448098549
 10
29.2219231772
 20
23.0955650622
 10
29.2179558398
 20
23.1462706395
 10
29.2108200638
 20
23.1968604764
 10
29.2005251529
 20
23.2472686135
 10
29.1870845298
 20
23.2974293281
 10
29.1705157183
 20
23.3472772202
 10
29.1508403212
 20
23.3967472977
 10
29.1280839914
 20
23.445775061
 10
29.1022763987
 20
23.4942965874
 10
29.0734511914
 20
23.5422486139
 10
29.041645952
 20
23.5895686203
 10
29.0069021485
 20
23.6361949103
 10
28.9692650802
 20
23.6820666921
 10
28.9287838186
 20
23.7271241578
 10
28.8855111436
 20
23.7713085609
 10
28.8395034745
 20
23.8145622934
 10
28.7908207965
 20
23.8568289607
 10
28.7395265825
 20
23.8980534551
 10
28.6856877105
 20
23.9381820278
 10
28.629374376
 20
23.9771623587
 10
28.5706600008
 20
24.014943625
 10
28.5096211374
 20
24.051476567
 10
28.4463373687
 20
24.0867135528
 10
28.3808912048
 20
24.1206086401
 10
28.3133679748
 20
24.1531176361
 10
28.2438557163
 20
24.1841981554
 10
28.17244506
 20
24.2138096748
 10
28.0992291116
 20
24.2419135866
 10
28.024303331
 20
24.2684732487
 10
27.9477654069
 20
24.2934540322
 10
27.8697151302
 20
24.3168233671
 10
27.7902542636
 20
24.3385507841
 10
27.709486409
 20
24.358607955
 10
27.6275168721
 20
24.3769687289
 10
27.5444525257
 20
24.3936091668
 10
27.4604016697
 20
24.408507573
 10
27.3754738905
 20
24.4216445226
 10
27.2897799177
 20
24.4330028875
 10
27.2034314799
 20
24.4425678588
 10
27.116541159
 20
24.4503269654
 10
27.0292222433
 20
24.4562700909
 10
26.9415885801
 20
24.4603894867
 10
26.8537544269
 20
24.4626797818
 10
26.7658343028
 20
24.4631379902
 10
26.6779428388
 20
24.4617635144
 10
26.5901946286
 20
24.4585581465
 10
26.5027040791
 20
24.4535260657
 10
26.4155852613
 20
24.4466738328
 10
26.3289517616
 20
24.4380103818
 10
26.2429165334
 20
24.4275470083
 10
26.1575917504
 20
24.4152973544
 10
26.0730886597
 20
24.4012773915
 10
25.9895174373
 20
24.3855053987
 10
25.9069870441
 20
24.3680019399
 10
25.8256050839
 20
24.3487898362
 10
25.7454776634
 20
24.3278941365
 10
25.6667092533
 20
24.3053420848
 10
25.5894025528
 20
24.2811630846
 10
25.5136583549
 20
24.2553886609
 10
25.4395754157
 20
24.2280524184
 10
25.3672503251
 20
24.1991899986
 10
25.2967773813
 20
24.1688390323
 10
25.2282484676
 20
24.1370390916
 10
25.1617529326
 20
24.1038316375
 10
25.0973774737
 20
24.0692599661
 10
25.0352060244
 20
24.0333691524
 10
24.9753196443
 20
23.996205991
 10
24.9177964138
 20
23.9578189358
 10
24.8627113322
 20
23.918258036
 10
24.81013622
 20
23.8775748715
 10
24.7601396251
 20
23.8358224854
 10
24.7127867335
 20
23.7930553149
 10
24.6681392844
 20
23.7493291202
 10
24.6262554895
 20
23.7047009119
 10
24.5871899573
 20
23.6592288767
 10
24.5509936218
 20
23.6129723014
 10
24.517713676
 20
23.5659914959
 10
24.4873935108
 20
23.518347714
 10
24.4600726578
 20
23.4701030742
 10
24.4357867382
 20
23.4213204783
 10
24.4145674162
 20
23.3720635295
 10
24.3964423577
 20
23.3223964495
 10
24.3814351945
 20
23.2723839946
 10
24.3695654928
 20
23.2220913717
 10
24.3608487286
 20
23.1715841525
 10
24.3552962669
 20
23.120928189
 10
24.3529153471
 20
23.0701895268
 10
24.3537090733
 20
23.0194343195
 10
24.3576764107
 20
22.9687287422
 10
24.3648121867
 20
22.9181389053
 10
24.3751070976
 20
22.8677307682
 10
24.3885477207
 20
22.8175700536
 10
24.4051165321
 20
22.7677221615
 10
24.4247919292
 20
22.718252084
 10
24.4475482591
 20
22.6692243207
 10
24.4733558518
 20
22.6207027944
 10
24.5021810591
 20
22.5727507678
 10
24.5339862985
 20
22.5254307614
 10
24.568730102
 20
22.4788044714
 10
24.6063671703
 20
22.4329326896
 10
24.6468484319
 20
22.3878752239
 10
24.6901211069
 20
22.3436908208
 10
24.736128776
 20
22.3004370883
 10
24.784811454
 20
22.258170421
 10
24.8361056679
 20
22.2169459266
 10
24.88994454
 20
22.1768173539
 10
24.9462578745
 20
22.137837023
 10
25.0049722496
 20
22.1000557567
 10
25.066011113
 20
22.0635228147
 10
25.066011113
 20
22.0635228147
  0
LWPOLYLINE
  5
29D
330
1F
100
AcDbEntity
  8
0
  6
Continuous
 62
     7
370
    25
100
AcDbPolyline
 90
       90
 70
   128
 43
0.0
 10
24.3028161252
 20
23.3637024953
 10
24.3028411517
 20
23.3701407638
 10
24.3048429959
 20
23.421631351
 10
24.310045275
 20
23.4730472707
 10
24.3184412836
 20
23.5243222502
 10
24.3300201997
 20
23.5753901984
 10
24.3447670984
 20
23.6261852911
 10
24.3626629718
 20
23.676642056
 10
24.383684753
 20
23.7266954565
 10
24.4078053458
 20
23.7762809763
 10
24.4349936599
 20
23.8253347019
 10
24.465214651
 20
23.8737934054
 10
24.4984293655
 20
23.9215946259
 10
24.5345949913
 20
23.9686767498
 10
24.5736649126
 20
24.0149790905
 10
24.6155887701
 20
24.0604419665
 10
24.660312526
 20
24.1050067782
 10
24.7077785334
 20
24.1486160838
 10
24.7579256109
 20
24.1912136728
 10
24.8106891213
 20
24.2327446391
 10
24.8660010549
 20
24.2731554512
 10
24.9237901172
 20
24.3123940214
 10
24.9839818209
 20
24.3504097731
 10
25.0464985818
 20
24.3871537057
 10
25.1112598186
 20
24.4225784582
 10
25.1781820572
 20
24.4566383696
 10
25.247179038
 20
24.4892895383
 10
25.3181618272
 20
24.5204898786
 10
25.3910389313
 20
24.5501991746
 10
25.4657164151
 20
24.5783791325
 10
25.5420980229
 20
24.6049934297
 10
25.6200853025
 20
24.6300077615
 10
25.6995777318
 20
24.6533898858
 10
25.780472849
 20
24.675109664
 10
25.8626663841
 20
24.6951391003
 10
25.9460523934
 20
24.7134523779
 10
26.0305233964
 20
24.7300258916
 10
26.1159705139
 20
24.7448382791
 10
26.2022836086
 20
24.7578704479
 10
26.289351427
 20
24.7691056001
 10
26.3770617429
 20
24.7785292542
 10
26.4653015017
 20
24.7861292635
 10
26.5539569666
 20
24.7918958319
 10
26.642913865
 20
24.7958215267
 10
26.7320575355
 20
24.7979012878
 10
26.8212730761
 20
24.7981324344
 10
26.9104454924
 20
24.7965146687
 10
26.9994598452
 20
24.7930500758
 10
27.0882013992
 20
24.7877431215
 10
27.1765557709
 20
24.7806006462
 10
27.2644090755
 20
24.7716318561
 10
27.3516480743
 20
24.7608483117
 10
27.4381603204
 20
24.7482639124
 10
27.5238343036
 20
24.7338948789
 10
27.6085595942
 20
24.7177597322
 10
27.6922269852
 20
24.6998792697
 10
27.7747286335
 20
24.6802765386
 10
27.8559581981
 20
24.6589768058
 10
27.9358109782
 20
24.6360075256
 10
28.0141840471
 20
24.6113983044
 10
28.0909763858
 20
24.5851808624
 10
28.1660890126
 20
24.5573889924
 10
28.2394251107
 20
24.5280585171
 10
28.3108901536
 20
24.4972272418
 10
28.380392026
 20
24.4649349068
 10
28.4478411434
 20
24.4312231353
 10
28.513150567
 20
24.3961353801
 10
28.5762361162
 20
24.3597168678
 10
28.6370164765
 20
24.32201454
 10
28.695413305
 20
24.2830769934
 10
28.751351331
 20
24.2429544165
 10
28.8047584529
 20
24.2016985254
 10
28.8555658316
 20
24.1593624971
 10
28.9037079786
 20
24.1160009006
 10
28.9491228411
 20
24.0716696271
 10
28.9917518815
 20
24.0264258174
 10
29.0315401528
 20
23.9803277888
 10
29.0684363701
 20
23.9334349592
 10
29.1023929756
 20
23.8858077715
 10
29.133366201
 20
23.8375076147
 10
29.1613161233
 20
23.7885967456
 10
29.1862067164
 20
23.7391382078
 10
29.2080058974
 20
23.6891957512
 10
29.2266855682
 20
23.6388337491
 10
29.2422216516
 20
23.5881171159
 10
29.2545941224
 20
23.5371112229
 10
29.2637870329
 20
23.4858818142
 10
29.2697885341
 20
23.4344949221
 10
29.2725908902
 20
23.3830167819
 10
29.2728161252
 20
23.3637024953
  0
LWPOLYLINE
  5
29E
330
1F
100
AcDbEntity
  8
0
  6
Continuous
 62
     7
370
    25
100
AcDbPolyline
 90
       39
 70
   128
 43
0.0
 10
25.6331107515
 20
22.3909024675
 10
25.6183652456
 20
22.3981121021
 10
25.601765259
 20
22.4038223117
 10
25.5837635964
 20
22.4078773368
 10
25.564851296
 20
22.4101665668
 10
25.5455442362
 20
22.4106275576
 10
25.5263690631
 20
22.4092477344
 10
25.5078488256
 20
22.4060647353
 10
25.4904887074
 20
22.4011653842
 10
25.4747622473
 20
22.3946833225
 10
25.4610984222
 20
22.3867953642
 10
25.4498699455
 20
22.377716672
 10
25.4413831008
 20
22.3676948891
 10
25.4358693872
 20
22.3570033836
 10
25.4334792044
 20
22.3459337918
 10
25.4342777503
 20
22.3347880634
 10
25.4382432427
 20
22.3238702248
 10
25.4452675133
 20
22.3134780861
 10
25.4551589582
 20
22.3038951179
 10
25.4676477648
 20
22.2953827185
 10
25.4823932707
 20
22.2881730839
 10
25.4989932573
 20
22.2824628743
 10
25.5169949199
 20
22.2784078492
 10
25.5359072203
 20
22.2761186192
 10
25.5552142801
 20
22.2756576284
 10
25.5743894532
 20
22.2770374516
 10
25.5929096907
 20
22.2802204507
 10
25.6102698089
 20
22.2851198019
 10
25.625996269
 20
22.2916018635
 10
25.6396600941
 20
22.2994898218
 10
25.6508885708
 20
22.308568514
 10
25.6593754155
 20
22.3185902969
 10
25.6648891291
 20
22.3292818024
 10
25.6672793119
 20
22.3403513942
 10
25.666480766
 20
22.3514971226
 10
25.6625152736
 20
22.3624149612
 10
25.655491003
 20
22.3728070999
 10
25.6455995581
 20
22.3823900681
 10
25.6331107515
 20
22.3909024675
  0
LWPOLYLINE
  5
29F
330
1F
100
AcDbEntity
  8
0
  6
Continuous
 62
     7
370
    25
100
AcDbPolyline
 90
       39
 70
   128
 43
0.0
 10
28.1079844857
 20
23.8196166632
 10
28.0932389797
 20
23.8268262978
 10
28.0766389932
 20
23.8325365074
 10
28.0586373305
 20
23.8365915325
 10
28.0397250302
 20
23.8388807625
 10
28.0204179703
 20
23.8393417533
 10
28.0012427973
 20
23.8379619301
 10
27.9827225597
 20
23.834778931
 10
27.9653624416
 20
23.8298795798
 10
27.9496359815
 20
23.8233975182
 10
27.9359721563
 20
23.8155095599
 10
27.9247436796
 20
23.8064308677
 10
27.916256835
 20
23.7964090848
 10
27.9107431214
 20
23.7857175793
 10
27.9083529386
 20
23.7746479875
 10
27.9091514845
 20
23.7635022591
 10
27.9131169769
 20
23.7525844205
 10
27.9201412474
 20
23.7421922818
 10
27.9300326924
 20
23.7326093136
 10
27.9425214989
 20
23.7240969142
 10
27.9572670049
 20
23.7168872796
 10
27.9738669914
 20
23.71117707
 10
27.9918686541
 20
23.7071220449
 10
28.0107809544
 20
23.7048328149
 10
28.0300880143
 20
23.7043718241
 10
28.0492631873
 20
23.7057516473
 10
28.0677834249
 20
23.7089346464
 10
28.085143543
 20
23.7138339975
 10
28.1008700031
 20
23.7203160592
 10
28.1145338283
 20
23.7282040175
 10
28.125762305
 20
23.7372827097
 10
28.1342491496
 20
23.7473044926
 10
28.1397628632
 20
23.7579959981
 10
28.142153046
 20
23.7690655899
 10
28.1413545001
 20
23.7802113183
 10
28.1373890078
 20
23.7911291569
 10
28.1303647372
 20
23.8015212956
 10
28.1204732922
 20
23.8111042638
 10
28.1079844857
 20
23.8196166632
  0
LWPOLYLINE
  5
2A0
330
1F
100
AcDbEntity
  8
0
  6
Continuous
 62
     7
370
    25
100
AcDbPolyline
 90
       33
 70
   128
 43
0.0
 10
27.1668890932
 20
16.8069212812
 10
27.1648637178
 20
16.8083047233
 10
27.1378339819
 20
16.8252191009
 10
27.1085342459
 20
16.8408230352
 10
27.0771545299
 20
16.8550153289
 10
27.0438983432
 20
16.8677039395
 10
27.0089813652
 20
16.8788065764
 10
26.9726300456
 20
16.8882512348
 10
26.9350801369
 20
16.8959766624
 10
26.8965751645
 20
16.901932757
 10
26.8573648481
 20
16.9060808908
 10
26.8177034815
 20
16.9083941618
 10
26.7778482839
 20
16.9088575674
 10
26.7380577315
 20
16.9074681022
 10
26.6985898815
 20
16.9042347776
 10
26.6597006979
 20
16.8991785628
 10
26.621642392
 20
16.8923322493
 10
26.5846617865
 20
16.8837402382
 10
26.5489987149
 20
16.8734582518
 10
26.5148844658
 20
16.8615529729
 10
26.4825402833
 20
16.8481016117
 10
26.4521759317
 20
16.8331914055
 10
26.4239883356
 20
16.8169190526
 10
26.3981603023
 20
16.7993900855
 10
26.3748593366
 20
16.7807181864
 10
26.3542365541
 20
16.7610244496
 10
26.3364257015
 20
16.7404365966
 10
26.321542289
 20
16.7190881475
 10
26.3096828412
 20
16.6971175551
 10
26.3009242713
 20
16.6746673073
 10
26.2953233819
 20
16.6518830024
 10
26.2929164969
 20
16.6289124055
 10
26.2928161252
 20
16.6231580932
  0
ARC
  5
2A1
330
1F
100
AcDbEntity
  8
0
  6
Continuous
 62
     7
370
    25
100
AcDbCircle
 10
26.4654667194
 20
18.1494506143
 30
0.0
 40
0.1726517758959391
100
AcDbArc
 50
156.9963534248
 51
179.7880099252
  0
ARC
  5
2A2
330
1F
100
AcDbEntity
  8
0
  6
Continuous
 62
     7
370
    25
100
AcDbCircle
 10
27.1084459139
 20
18.1491098518
 30
0.0
 40
0.1743729627514857
100
AcDbArc
 50
0.3218671265
 51
23.206489544
  0
SPLINE
  5
2A3
330
1F
100
AcDbEntity
  8
0
  6
Continuous
 62
     7
370
    25
100
AcDbSpline
210
0.0
220
0.0
230
1.0
 70
     8
 71
     3
 72
    20
 73
    16
 74
     0
 42
0.00000001
 43
0.00000001
 40
0.0
 40
0.0
 40
0.0
 40
0.0
 40
0.0820977975937318
 40
0.1641772174397473
 40
0.2467351766875994
 40
0.3296254360417251
 40
0.4119893391826137
 40
0.493788313577837
 40
0.5758649477469394
 40
0.6586260288228042
 40
0.741416874231662
 40
0.823541040044014
 40
0.9053428300417087
 40
0.98765316616136
 40
1.0
 40
1.0
 40
1.0
 40
1.0
 10
27.13783398191379
 20
17.69238544309162
 30
0.0
 10
27.13238099527213
 20
17.69605556212058
 30
0.0
 10
27.12147624265022
 20
17.70339497861541
 30
0.0
 10
27.10610590122206
 20
17.72054335400802
 30
0.0
 10
27.0939775097259
 20
17.74019553533353
 30
0.0
 10
27.08680324743717
 20
17.76092196186898
 30
0.0
 10
27.08573580363944
 20
17.78031148987366
 30
0.0
 10
27.0908629782411
 20
17.79622773602889
 30
0.0
 10
27.10137925861042
 20
17.80687380261421
 30
0.0
 10
27.11584932180037
 20
17.81085777086129
 30
0.0
 10
27.13225599941165
 20
17.80742377146823
 30
0.0
 10
27.14859293040653
 20
17.79689520979678
 30
0.0
 10
27.1625728592656
 20
17.78050773673928
 30
0.0
 10
27.17136732654149
 20
17.76612536625952
 30
0.0
 10
27.17392749392429
 20
17.75795189539958
 30
0.0
 10
27.17426143546605
 20
17.75688576922407
 30
0.0
  0
SPLINE
  5
2A4
330
1F
100
AcDbEntity
  8
0
  6
Continuous
 62
     7
370
    25
100
AcDbSpline
210
0.0
220
0.0
230
1.0
 70
     8
 71
     3
 72
    12
 73
     8
 74
     0
 42
0.00000001
 43
0.00000001
 40
0.0
 40
0.0
 40
0.0
 40
0.0
 40
0.1845498258792271
 40
0.404253780753587
 40
0.6257520318296199
 40
0.8481569128889981
 40
1.0
 40
1.0
 40
1.0
 40
1.0
 10
27.18223690649488
 20
17.71580641589537
 30
0.0
 10
27.18185321207447
 20
17.71090424013185
 30
0.0
 10
27.18101273487887
 20
17.7001660935263
 30
0.0
 10
27.17420264481577
 20
17.68957675723074
 30
0.0
 10
27.16334427873014
 20
17.684509183455
 30
0.0
 10
27.15051734686399
 20
17.68593672260086
 30
0.0
 10
27.14149471947939
 20
17.69052418045009
 30
0.0
 10
27.13783398191379
 20
17.69238544309161
 30
0.0
  0
LWPOLYLINE
  5
2A5
330
1F
100
AcDbEntity
  8
0
  6
Continuous
 62
     7
370
    25
100
AcDbPolyline
 90
       28
 70
   128
 43
0.0
 10
26.5205901987
 20
23.3014611667
 10
26.5554618586
 20
23.3130833501
 10
26.591840425
 20
23.3230479754
 10
26.6294899691
 20
23.3312904181
 10
26.6681663191
 20
23.337757223
 10
26.7076186439
 20
23.3424064502
 10
26.7475910802
 20
23.3452079478
 10
26.7878243914
 20
23.3461435469
 10
26.828057649
 20
23.3452071798
 10
26.8680299248
 20
23.3424049193
 10
26.9074819833
 20
23.337754939
 10
26.9461579629
 20
23.3312873959
 10
26.9838070348
 20
23.3230442345
 10
27.0201850306
 20
23.3130789148
 10
27.0550560247
 20
23.3014560657
 10
27.0881938656
 20
23.288251066
 10
27.1193836416
 20
23.2735495551
 10
27.148423075
 20
23.2574468778
 10
27.175123834
 20
23.2400474664
 10
27.1993127538
 20
23.2214641626
 10
27.2208329601
 20
23.2018174862
 10
27.2395448861
 20
23.1812348536
 10
27.2553271777
 20
23.1598497509
 10
27.2680774808
 20
23.1378008689
 10
27.2777131046
 20
23.1152312029
 10
27.2841715586
 20
23.0922871259
 10
27.2874109571
 20
23.069117439
 10
27.2878161252
 20
23.0574996909
  0
LWPOLYLINE
  5
2A6
330
1F
100
AcDbEntity
  8
0
  6
Continuous
 62
     7
370
    25
100
AcDbPolyline
 90
       14
 70
   128
 43
0.0
 10
26.2878161252
 20
23.0574996909
 10
26.2882219591
 20
23.0691269752
 10
26.2914626846
 20
23.0922966002
 10
26.2979224527
 20
23.1152405539
 10
26.3075593693
 20
23.137810036
 10
26.3203109352
 20
23.1598586747
 10
26.3360944516
 20
23.181243476
 10
26.3548075565
 20
23.2018257515
 10
26.3763288881
 20
23.2214720171
 10
26.4005188723
 20
23.2400548592
 10
26.4272206278
 20
23.2574537609
 10
26.4562609835
 20
23.2735558839
 10
26.4874516015
 20
23.2882567995
 10
26.5205901987
 20
23.3014611667
  0
LWPOLYLINE
  5
2A7
330
1F
100
AcDbEntity
  8
0
  6
Continuous
 62
     7
370
    25
100
AcDbPolyline
 90
       30
 70
   128
 43
0.0
 10
26.5205901987
 20
18.4022162953
 10
26.5554618586
 20
18.4138384787
 10
26.591840425
 20
18.423803104
 10
26.6294899691
 20
18.4320455468
 10
26.6681663191
 20
18.4385123517
 10
26.7076186439
 20
18.4431615789
 10
26.7475910802
 20
18.4459630764
 10
26.7878243914
 20
18.4468986755
 10
26.828057649
 20
18.4459623085
 10
26.8680299248
 20
18.4431600479
 10
26.9074819833
 20
18.4385100677
 10
26.9461579629
 20
18.4320425246
 10
26.9838070348
 20
18.4237993631
 10
27.0201850306
 20
18.4138340435
 10
27.0550560247
 20
18.4022111944
 10
27.0881938656
 20
18.3890061947
 10
27.1193836416
 20
18.3743046838
 10
27.148423075
 20
18.3582020065
 10
27.175123834
 20
18.3408025951
 10
27.1993127538
 20
18.3222192912
 10
27.2208329601
 20
18.3025726149
 10
27.2395448861
 20
18.2819899823
 10
27.2553271777
 20
18.2606048796
 10
27.2680774808
 20
18.2385559976
 10
27.2777131046
 20
18.2159863316
 10
27.2841715586
 20
18.1930422545
 10
27.2874109571
 20
18.1698725677
 10
27.2874102914
 20
18.1466275352
 10
27.2841695658
 20
18.1234579102
 10
27.2828161252
 20
18.1175365928
  0
LWPOLYLINE
  5
2A8
330
1F
100
AcDbEntity
  8
0
  6
Continuous
 62
     7
370
    25
100
AcDbPolyline
 90
       16
 70
   128
 43
0.0
 10
26.2928161252
 20
18.1175365928
 10
26.2914606919
 20
18.1234673845
 10
26.2882212934
 20
18.1466370714
 10
26.2882219591
 20
18.1698821038
 10
26.2914626846
 20
18.1930517289
 10
26.2979224527
 20
18.2159956826
 10
26.3075593693
 20
18.2385651647
 10
26.3203109352
 20
18.2606138034
 10
26.3360944516
 20
18.2819986047
 10
26.3548075565
 20
18.3025808802
 10
26.3763288881
 20
18.3222271457
 10
26.4005188723
 20
18.3408099878
 10
26.4272206278
 20
18.3582088896
 10
26.4562609835
 20
18.3743110125
 10
26.4874516015
 20
18.3890119281
 10
26.5205901987
 20
18.4022162953
  0
LWPOLYLINE
  5
2A9
330
1F
100
AcDbEntity
  8
0
  6
Continuous
 62
     7
370
    25
100
AcDbPolyline
 90
       25
 70
   128
 43
0.0
 10
27.9679682074
 20
17.169761523
 10
27.9674664226
 20
17.1701152938
 10
27.9562373821
 20
17.1759844206
 10
27.9435706342
 20
17.1790039578
 10
27.9297361484
 20
17.1791095493
 10
27.915028783
 20
17.1762989447
 10
27.8997619998
 20
17.170632047
 10
27.8842611838
 20
17.1622296364
 10
27.8688567081
 20
17.1512707957
 10
27.8538768922
 20
17.1379890934
 10
27.8396410049
 20
17.1226676061
 10
27.8264524596
 20
17.1056328846
 10
27.814592347
 20
17.0872479945
 10
27.8043134449
 20
17.0679047778
 10
27.7958348302
 20
17.0480155015
 10
27.78933721
 20
17.028004071
 10
27.7849590697
 20
17.0082969953
 10
27.7827937218
 20
16.9893142964
 10
27.7828873169
 20
16.9714605577
 10
27.7852378601
 20
16.9551163005
 10
27.7897952538
 20
16.9406298743
 10
27.796462365
 20
16.9283100322
 10
27.8050970958
 20
16.9184193502
 10
27.8155154119
 20
16.911168631
 10
27.817966571
 20
16.909971001
  0
ARC
  5
2AA
330
1F
100
AcDbEntity
  8
0
  6
Continuous
 62
     7
370
    25
100
AcDbCircle
 10
27.8497165695
 20
16.9549165394
 30
0.0
 40
0.0608918177781183
100
AcDbArc
 50
200.8359690095
 51
235.9040916744
  0
ARC
  5
2AB
330
1F
100
AcDbEntity
  8
0
  6
Continuous
 62
     7
370
    25
100
AcDbCircle
 10
27.9449310976
 20
17.1199924462
 30
0.0
 40
0.0607103975767509
100
AcDbArc
 50
64.0225038921
 51
99.2227062307
  0
ARC
  5
2AC
330
1F
100
AcDbEntity
  8
0
  6
Continuous
 62
     7
370
    25
100
AcDbCircle
 10
27.9315695692
 20
17.032882508
 30
0.0
 40
0.0931099669306987
100
AcDbArc
 50
99.9333371884
 51
148.731194788
  0
ARC
  5
2AD
330
1F
100
AcDbEntity
  8
0
  6
Continuous
 62
     7
370
    25
100
AcDbCircle
 10
27.9562703046
 20
17.0018552451
 30
0.0
 40
0.1310455481776308
100
AcDbArc
 50
142.7306276438
 51
181.2926178791
  0
ARC
  5
2AE
330
1F
100
AcDbEntity
  8
0
  6
Continuous
 62
     7
370
    25
100
AcDbCircle
 10
27.8671144932
 20
16.9987974383
 30
0.0
 40
0.0418565122059419
100
AcDbArc
 50
179.8609061506
 51
235.254310125
  0
ARC
  5
2AF
330
1F
100
AcDbEntity
  8
0
  6
Continuous
 62
     7
370
    25
100
AcDbCircle
 10
27.9176284691
 20
17.0914337002
 30
0.0
 40
0.0332307048969932
100
AcDbArc
 50
61.5261698194
 51
93.6587496585
  0
LINE
  5
2B0
330
1F
100
AcDbEntity
  8
0
  6
Continuous
 62
     7
370
    25
100
AcDbLine
 10
27.9295478872
 20
17.1125029748
 30
0.0
 11
27.9155078903
 21
17.1245966749
 31
0.0
  0
SPLINE
  5
2B1
330
1F
100
AcDbEntity
  8
0
  6
Continuous
 62
     7
370
    25
100
AcDbSpline
210
0.0
220
0.0
230
1.0
 70
     8
 71
     3
 72
    10
 73
     6
 74
     0
 42
0.00000001
 43
0.00000001
 40
0.0
 40
0.0
 40
0.0
 40
0.0
 40
0.4707458474930947
 40
0.9575857462312635
 40
1.0
 40
1.0
 40
1.0
 40
1.0
 10
27.82525810433478
 20
16.99889905096823
 30
0.0
 10
27.82967071995041
 20
16.99514182105601
 30
0.0
 10
27.83864681148607
 20
16.98749890752121
 30
0.0
 10
27.84771948756594
 20
16.97944796063981
 30
0.0
 10
27.85015156669511
 20
16.97655834677413
 30
0.0
 10
27.85034647271688
 20
16.97632677406901
 30
0.0
  0
LINE
  5
2B2
330
1F
100
AcDbEntity
  8
0
  6
Continuous
 62
     7
370
    25
100
AcDbLine
 10
27.8526332508
 20
16.9830957153
 30
0.0
 11
27.8252581043
 21
16.998899051
 31
0.0
  0
SPLINE
  5
2B3
330
1F
100
AcDbEntity
  8
0
  6
Continuous
 62
     7
370
    25
100
AcDbSpline
210
0.0
220
0.0
230
1.0
 70
     8
 71
     3
 72
    11
 73
     7
 74
     0
 42
0.00000001
 43
0.00000001
 40
0.0
 40
0.0
 40
0.0
 40
0.0
 40
0.2164526223534672
 40
0.4403054153402569
 40
0.751895913027914
 40
1.0
 40
1.0
 40
1.0
 40
1.0
 10
27.91550789033106
 20
17.12459667492925
 30
0.0
 10
27.91315737413453
 20
17.12046973670426
 30
0.0
 10
27.90837598133401
 20
17.11207476680515
 30
0.0
 10
27.89534243789011
 20
17.09889766029484
 30
0.0
 10
27.87567706248637
 20
17.08804420201855
 30
0.0
 10
27.85926141687305
 20
17.08331013302901
 30
0.0
 10
27.85198461113189
 20
17.08121159233109
 30
0.0
  0
LINE
  5
2B4
330
1F
100
AcDbEntity
  8
0
  6
Continuous
 62
     7
370
    25
100
AcDbLine
 10
27.8935022678
 20
17.0572439593
 30
0.0
 11
27.8519846111
 21
17.0812115923
 31
0.0
  0
SPLINE
  5
2B5
330
1F
100
AcDbEntity
  8
0
  6
Continuous
 62
     7
370
    25
100
AcDbSpline
210
0.0
220
0.0
230
1.0
 70
     8
 71
     3
 72
    12
 73
     8
 74
     0
 42
0.00000001
 43
0.00000001
 40
0.0
 40
0.0
 40
0.0
 40
0.0
 40
0.175182662711286
 40
0.4922436022067569
 40
0.6558551807040486
 40
0.819778023987025
 40
1.0
 40
1.0
 40
1.0
 40
1.0
 10
27.85198461113189
 20
17.08121159233109
 30
0.0
 10
27.85214834730661
 20
17.07572324913107
 30
0.0
 10
27.85260842756347
 20
17.06030162129921
 30
0.0
 10
27.849495241879
 20
17.0397227224837
 30
0.0
 10
27.84212092675211
 20
17.0220741218421
 30
0.0
 10
27.8345942568284
 20
17.00967940264375
 30
0.0
 10
27.82846688846415
 20
17.00260419839262
 30
0.0
 10
27.82525810433478
 20
16.99889905096823
 30
0.0
  0
LWPOLYLINE
  5
2B6
330
1F
100
AcDbEntity
  8
0
  6
Continuous
 62
     7
370
    25
100
AcDbPolyline
 90
       29
 70
   128
 43
0.0
 10
27.1818457278
 20
17.7126536426
 10
27.1826401736
 20
17.7237511698
 10
27.1811878498
 20
17.7360601325
 10
27.177561582
 20
17.748963308
 10
27.1719432065
 20
17.7618136772
 10
27.164614452
 20
17.7739668689
 10
27.1559428129
 20
17.7848134713
 10
27.1463631215
 20
17.7938095906
 10
27.1363557433
 20
17.8005041236
 10
27.1264224902
 20
17.8045613786
 10
27.117061457
 20
17.8057779079
 10
27.1087420449
 20
17.8040927096
 10
27.101881424
 20
17.7995902866
 10
27.0968236145
 20
17.7924964092
 10
27.093822236
 20
17.783166794
 10
27.0930277903
 20
17.7720692668
 10
27.0944801141
 20
17.7597603041
 10
27.0981063818
 20
17.7468571286
 10
27.1037247573
 20
17.7340067594
 10
27.1110535118
 20
17.7218535677
 10
27.1197251509
 20
17.7110069653
 10
27.1293048424
 20
17.702010846
 10
27.1393122205
 20
17.695316313
 10
27.1492454736
 20
17.691259058
 10
27.1586065068
 20
17.6900425287
 10
27.1669259189
 20
17.691727727
 10
27.1737865398
 20
17.69623015
 10
27.1788443494
 20
17.7033240274
 10
27.1818457278
 20
17.7126536426
  0
LINE
  5
2B7
330
1F
100
AcDbEntity
  8
0
  6
Continuous
 62
     7
370
    25
100
AcDbLine
 10
27.1274497375
 20
17.7886663045
 30
0.0
 11
27.1065722298
 21
17.7729531314
 31
0.0
  0
LINE
  5
2B8
330
1F
100
AcDbEntity
  8
0
  6
Continuous
 62
     7
370
    25
100
AcDbLine
 10
27.1169564743
 20
17.7321970452
 30
0.0
 11
27.1065722298
 21
17.7729531314
 31
0.0
  0
LINE
  5
2B9
330
1F
100
AcDbEntity
  8
0
  6
Continuous
 62
     7
370
    25
100
AcDbLine
 10
27.1482182264
 20
17.7071541321
 30
0.0
 11
27.1169564743
 21
17.7321970452
 31
0.0
  0
LINE
  5
2BA
330
1F
100
AcDbEntity
  8
0
  6
Continuous
 62
     7
370
    25
100
AcDbLine
 10
27.1482182264
 20
17.7071541321
 30
0.0
 11
27.169095734
 21
17.7228673052
 31
0.0
  0
LINE
  5
2BB
330
1F
100
AcDbEntity
  8
0
  6
Continuous
 62
     7
370
    25
100
AcDbLine
 10
27.1587114895
 20
17.7636233914
 30
0.0
 11
27.169095734
 21
17.7228673052
 31
0.0
  0
LINE
  5
2BC
330
1F
100
AcDbEntity
  8
0
  6
Continuous
 62
     7
370
    25
100
AcDbLine
 10
27.1587114895
 20
17.7636233914
 30
0.0
 11
27.1274497375
 21
17.7886663045
 31
0.0
  0
LINE
  5
2BD
330
1F
100
AcDbEntity
  8
0
  6
Continuous
 62
     7
370
    25
100
AcDbLine
 10
27.1455622835
 20
17.7092817335
 30
0.0
 11
27.169095734
 21
17.7228673052
 31
0.0
  0
LINE
  5
2BE
330
1F
100
AcDbEntity
  8
0
  6
Continuous
 62
     7
370
    25
100
AcDbLine
 10
27.1153301869
 20
17.7385798984
 30
0.0
 11
27.1587114895
 21
17.7636233914
 31
0.0
  0
LWPOLYLINE
  5
2BF
330
1F
100
AcDbEntity
  8
0
  6
Continuous
 62
     7
370
    25
100
AcDbPolyline
 90
       29
 70
   128
 43
0.0
 10
25.5828756535
 20
15.6728604931
 10
25.5923592371
 20
15.6821372801
 10
25.6008724024
 20
15.6931954235
 10
25.6079882638
 20
15.7054804219
 10
25.6133500023
 20
15.718376254
 10
25.6166887578
 20
15.731236269
 10
25.6178371114
 20
15.7434156121
 10
25.6167374797
 20
15.7543035602
 10
25.6134450028
 20
15.7633541461
 10
25.6081247794
 20
15.7701135355
 10
25.6010435875
 20
15.7742427846
 10
25.5925565078
 20
15.7755348354
 10
25.5830891178
 20
15.7739248992
 10
25.5731161521
 20
15.769493705
 10
25.5631376968
 20
15.7624634512
 10
25.5536541132
 20
15.7531866642
 10
25.5451409479
 20
15.7421285207
 10
25.5380250865
 20
15.7298435224
 10
25.532663348
 20
15.7169476903
 10
25.5293245924
 20
15.7040876752
 10
25.5281762389
 20
15.6919083321
 10
25.5292758706
 20
15.6810203841
 10
25.5325683475
 20
15.6719697982
 10
25.5378885709
 20
15.6652104088
 10
25.5449697628
 20
15.6610811597
 10
25.5534568425
 20
15.6597891089
 10
25.5629242324
 20
15.661399045
 10
25.5728971982
 20
15.6658302393
 10
25.5828756535
 20
15.6728604931
  0
LWPOLYLINE
  5
2C0
330
1F
100
AcDbEntity
  8
0
  6
Continuous
 62
     7
370
    25
100
AcDbPolyline
 90
        3
 70
   128
 43
0.0
 10
25.5294656381
 20
15.6702320918
 10
25.5281802237
 20
15.6820929992
 10
25.5281761052
 20
15.6828504601
  0
LWPOLYLINE
  5
2C1
330
1F
100
AcDbEntity
  8
0
  6
Continuous
 62
     7
370
    25
100
AcDbPolyline
 90
        8
 70
   128
 43
0.0
 10
25.5807337674
 20
15.7738928659
 10
25.5855821459
 20
15.7764339417
 10
25.5963590903
 20
15.78017251
 10
25.6064535064
 20
15.7809838957
 10
25.61542422
 20
15.7788326376
 10
25.6228791677
 20
15.7738127559
 10
25.6284925326
 20
15.7661436436
 10
25.6307392047
 20
15.7608043702
  0
LWPOLYLINE
  5
2C2
330
1F
100
AcDbEntity
  8
0
  6
Continuous
 62
     7
370
    25
100
AcDbPolyline
 90
       10
 70
   128
 43
0.0
 10
25.6029239542
 20
15.670969039
 10
25.5976106878
 20
15.665442947
 10
25.5868909442
 20
15.6564609849
 10
25.5759024758
 20
15.6499586277
 10
25.5651255314
 20
15.6462200594
 10
25.5550311153
 20
15.6454086737
 10
25.5460604017
 20
15.6475599318
 10
25.538605454
 20
15.6525798135
 10
25.5329920891
 20
15.6602489258
 10
25.5294656381
 20
15.6702320918
  0
LWPOLYLINE
  5
2C3
330
1F
100
AcDbEntity
  8
0
  6
Continuous
 62
     7
370
    25
100
AcDbPolyline
 90
        3
 70
   128
 43
0.0
 10
25.5407665834
 20
15.6507018131
 10
25.5425350017
 20
15.6466674899
 10
25.5457447103
 20
15.6414724013
  0
LWPOLYLINE
  5
2C4
330
1F
100
AcDbEntity
  8
0
  6
Continuous
 62
     7
370
    25
100
AcDbPolyline
 90
        3
 70
   128
 43
0.0
 10
25.6236978293
 20
15.779527749
 10
25.6198953538
 20
15.7795831032
 10
25.6148700661
 20
15.7790667188
  0
LINE
  5
2C5
330
1F
100
AcDbEntity
  8
0
  6
Continuous
 62
     7
370
    25
100
AcDbLine
 10
25.5964023367
 20
15.7561131019
 30
0.0
 11
25.5659966929
 21
15.7494846754
 31
0.0
  0
LINE
  5
2C6
330
1F
100
AcDbEntity
  8
0
  6
Continuous
 62
     7
370
    25
100
AcDbLine
 10
25.5426010314
 20
15.7110335456
 30
0.0
 11
25.5659966929
 21
15.7494846754
 31
0.0
  0
LINE
  5
2C7
330
1F
100
AcDbEntity
  8
0
  6
Continuous
 62
     7
370
    25
100
AcDbLine
 10
25.5496110136
 20
15.6792108423
 30
0.0
 11
25.5426010314
 21
15.7110335456
 31
0.0
  0
LINE
  5
2C8
330
1F
100
AcDbEntity
  8
0
  6
Continuous
 62
     7
370
    25
100
AcDbLine
 10
25.5496110136
 20
15.6792108423
 30
0.0
 11
25.5800166574
 21
15.6858392689
 31
0.0
  0
LINE
  5
2C9
330
1F
100
AcDbEntity
  8
0
  6
Continuous
 62
     7
370
    25
100
AcDbLine
 10
25.6034123189
 20
15.7242903987
 30
0.0
 11
25.5800166574
 21
15.6858392689
 31
0.0
  0
LINE
  5
2CA
330
1F
100
AcDbEntity
  8
0
  6
Continuous
 62
     7
370
    25
100
AcDbLine
 10
25.6034123189
 20
15.7242903987
 30
0.0
 11
25.5964023367
 21
15.7561131019
 31
0.0
  0
LINE
  5
2CB
330
1F
100
AcDbEntity
  8
0
  6
Continuous
 62
     7
370
    25
100
AcDbLine
 10
25.6025051033
 20
15.7284088187
 30
0.0
 11
25.5659966929
 21
15.7494846754
 31
0.0
  0
LINE
  5
2CC
330
1F
100
AcDbEntity
  8
0
  6
Continuous
 62
     7
370
    25
100
AcDbLine
 10
25.5816353041
 20
15.6884995397
 30
0.0
 11
25.5426010314
 21
15.7110335456
 31
0.0
  0
LWPOLYLINE
  5
2CD
330
1F
100
AcDbEntity
  8
0
  6
Continuous
 62
     7
370
    25
100
AcDbPolyline
 90
       29
 70
   128
 43
0.0
 10
27.2626907473
 20
16.6578405584
 10
27.2703074462
 20
16.6546860474
 10
27.2791883475
 20
16.6544078568
 10
27.2888881255
 20
16.657019936
 10
27.2989203929
 20
16.6623913047
 10
27.30878209
 20
16.6702526199
 10
27.31797871
 20
16.6802096824
 10
27.3260490961
 20
16.6917632037
 10
27.3325885653
 20
16.7043338418
 10
27.3372692015
 20
16.7172912524
 10
27.3398562978
 20
16.729985697
 10
27.3402201266
 20
16.7417806231
 10
27.3383424439
 20
16.7520845837
 10
27.3343174046
 20
16.7603808953
 10
27.328346841
 20
16.7662535463
 10
27.320730142
 20
16.7694080572
 10
27.3118492408
 20
16.7696862479
 10
27.3021494627
 20
16.7670741686
 10
27.2921171953
 20
16.7617028
 10
27.2822554982
 20
16.7538414848
 10
27.2730588782
 20
16.7438844222
 10
27.2649884921
 20
16.732330901
 10
27.2584490229
 20
16.7197602629
 10
27.2537683868
 20
16.7068028522
 10
27.2511812904
 20
16.6941084077
 10
27.2508174616
 20
16.6823134816
 10
27.2526951443
 20
16.672009521
 10
27.2567201836
 20
16.6637132093
 10
27.2626907473
 20
16.6578405584
  0
LWPOLYLINE
  5
2CE
330
1F
100
AcDbEntity
  8
0
  6
Continuous
 62
     7
370
    25
100
AcDbPolyline
 90
        8
 70
   128
 43
0.0
 10
27.3032458863
 20
16.7682779461
 10
27.3079062204
 20
16.7707301512
 10
27.3186908182
 20
16.7745178548
 10
27.3288007718
 20
16.7753801127
 10
27.3377942276
 20
16.7732792399
 10
27.3452781286
 20
16.7683070547
 10
27.3509253922
 20
16.7606808656
 10
27.3523209353
 20
16.7576852103
  0
LWPOLYLINE
  5
2CF
330
1F
100
AcDbEntity
  8
0
  6
Continuous
 62
     7
370
    25
100
AcDbPolyline
 90
       12
 70
   128
 43
0.0
 10
27.3277974034
 20
16.6680706443
 10
27.3203015275
 20
16.660001539
 10
27.3095905427
 20
16.6509801873
 10
27.2986026393
 20
16.6444325786
 10
27.2878180414
 20
16.640644875
 10
27.2777080879
 20
16.6397826171
 10
27.268714632
 20
16.6418834899
 10
27.2612307311
 20
16.6468556751
 10
27.2555834674
 20
16.6544818642
 10
27.2520196535
 20
16.6644287564
 10
27.2506950453
 20
16.6762616247
 10
27.2506882242
 20
16.6772355403
  0
LWPOLYLINE
  5
2D0
330
1F
100
AcDbEntity
  8
0
  6
Continuous
 62
     7
370
    25
100
AcDbPolyline
 90
        3
 70
   128
 43
0.0
 10
27.263278702
 20
16.6450868943
 10
27.2643501419
 20
16.6425043012
 10
27.2687506467
 20
16.6352161426
  0
LWPOLYLINE
  5
2D1
330
1F
100
AcDbEntity
  8
0
  6
Continuous
 62
     7
370
    25
100
AcDbPolyline
 90
        3
 70
   128
 43
0.0
 10
27.3469488818
 20
16.7738533276
 10
27.3439821551
 20
16.7739946776
 10
27.3373821841
 20
16.7734517988
  0
LINE
  5
2D2
330
1F
100
AcDbEntity
  8
0
  6
Continuous
 62
     7
370
    25
100
AcDbLine
 10
27.3259582226
 20
16.718821171
 30
0.0
 11
27.3188367117
 21
16.7505501823
 31
0.0
  0
LINE
  5
2D3
330
1F
100
AcDbEntity
  8
0
  6
Continuous
 62
     7
370
    25
100
AcDbLine
 10
27.2883972832
 20
16.7437760637
 30
0.0
 11
27.3188367117
 21
16.7505501823
 31
0.0
  0
LINE
  5
2D4
330
1F
100
AcDbEntity
  8
0
  6
Continuous
 62
     7
370
    25
100
AcDbLine
 10
27.2650793657
 20
16.7052729337
 30
0.0
 11
27.2883972832
 21
16.7437760637
 31
0.0
  0
LINE
  5
2D5
330
1F
100
AcDbEntity
  8
0
  6
Continuous
 62
     7
370
    25
100
AcDbLine
 10
27.2650793657
 20
16.7052729337
 30
0.0
 11
27.2722008766
 21
16.6735439223
 31
0.0
  0
LINE
  5
2D6
330
1F
100
AcDbEntity
  8
0
  6
Continuous
 62
     7
370
    25
100
AcDbLine
 10
27.302640305
 20
16.680318041
 30
0.0
 11
27.2722008766
 21
16.6735439223
 31
0.0
  0
LINE
  5
2D7
330
1F
100
AcDbEntity
  8
0
  6
Continuous
 62
     7
370
    25
100
AcDbLine
 10
27.302640305
 20
16.680318041
 30
0.0
 11
27.3259582226
 21
16.718821171
 31
0.0
  0
LINE
  5
2D8
330
1F
100
AcDbEntity
  8
0
  6
Continuous
 62
     7
370
    25
100
AcDbLine
 10
27.3251146565
 20
16.7225795753
 30
0.0
 11
27.2883972832
 21
16.7437760637
 31
0.0
  0
LINE
  5
2D9
330
1F
100
AcDbEntity
  8
0
  6
Continuous
 62
     7
370
    25
100
AcDbLine
 10
27.3041082903
 20
16.6827420151
 30
0.0
 11
27.2650793657
 21
16.7052729337
 31
0.0
  0
LWPOLYLINE
  5
2DA
330
1F
100
AcDbEntity
  8
0
  6
Continuous
 62
     7
370
    25
100
AcDbPolyline
 90
       32
 70
   128
 43
0.0
 10
27.1668890932
 20
16.8069212812
 10
27.1516439148
 20
16.8169190526
 10
27.1234563187
 20
16.8331914055
 10
27.0930919672
 20
16.8481016117
 10
27.0607477846
 20
16.8615529729
 10
27.0266335356
 20
16.8734582518
 10
26.9909704639
 20
16.8837402382
 10
26.9539898585
 20
16.8923322493
 10
26.9159315526
 20
16.8991785628
 10
26.8770423689
 20
16.9042347776
 10
26.8375745189
 20
16.9074681022
 10
26.7977839666
 20
16.9088575674
 10
26.757928769
 20
16.9083941618
 10
26.7182674024
 20
16.9060808908
 10
26.6790570859
 20
16.901932757
 10
26.6405521136
 20
16.8959766624
 10
26.6030022048
 20
16.8882512348
 10
26.5666508853
 20
16.8788065764
 10
26.5317339072
 20
16.8677039395
 10
26.4984777206
 20
16.8550153289
 10
26.4670980045
 20
16.8408230352
 10
26.4377982685
 20
16.8252191009
 10
26.4107685327
 20
16.8083047233
 10
26.3861840951
 20
16.7901895988
 10
26.3642043954
 20
16.7709912109
 10
26.3449719804
 20
16.7508340685
 10
26.3286115795
 20
16.7298488985
 10
26.3152292963
 20
16.7081717976
 10
26.3049119201
 20
16.6859433502
 10
26.2977263629
 20
16.6633077163
 10
26.2937192259
 20
16.6404116967
 10
26.2928161252
 20
16.6231580932
  0
SPLINE
  5
2DB
330
1F
100
AcDbEntity
  8
0
  6
Continuous
 62
     7
370
    25
100
AcDbSpline
210
0.0
220
0.0
230
1.0
 70
     8
 71
     3
 72
    13
 73
     9
 74
     0
 42
0.00000001
 43
0.00000001
 40
0.0
 40
0.0
 40
0.0
 40
0.0
 40
0.0091251006574012
 40
0.1799118026930245
 40
0.3554316476983332
 40
0.5309754641763069
 40
0.764529207787114
 40
1.0
 40
1.0
 40
1.0
 40
1.0
 10
26.78282452411004
 20
16.5850785218118
 30
0.0
 10
26.78199108965518
 20
16.58463886732077
 30
0.0
 10
26.76555897555239
 20
16.57597057586698
 30
0.0
 10
26.73435753926396
 20
16.55497491200175
 30
0.0
 10
26.68957755709504
 20
16.52238620271366
 30
0.0
 10
26.64152101580258
 20
16.48181371757515
 30
0.0
 10
26.59084044603894
 20
16.43352910806046
 30
0.0
 10
26.55635278539395
 20
16.39535955913501
 30
0.0
 10
26.53903847419404
 20
16.37619677928576
 30
0.0
  0
ARC
  5
2DC
330
1F
100
AcDbEntity
  8
0
  6
Continuous
 62
     7
370
    25
100
AcDbCircle
 10
26.6750172334
 20
15.933756319
 30
0.0
 40
0.4628647576734891
100
AcDbArc
 50
107.0841816683
 51
132.910441799
  0
SPLINE
  5
2DD
330
1F
100
AcDbEntity
  8
0
  6
Continuous
 62
     7
370
    25
100
AcDbSpline
210
0.0
220
0.0
230
1.0
 70
     8
 71
     3
 72
    13
 73
     9
 74
     0
 42
0.00000001
 43
0.00000001
 40
0.0
 40
0.0
 40
0.0
 40
0.0
 40
0.1881820794879711
 40
0.3763701601636098
 40
0.5688285961653953
 40
0.7612571085223031
 40
0.9063902109690744
 40
1.0
 40
1.0
 40
1.0
 40
1.0
 10
26.35987374552235
 20
16.27276718298446
 30
0.0
 10
26.35234406822724
 20
16.27579019928571
 30
0.0
 10
26.33728447351316
 20
16.28183632829318
 30
0.0
 10
26.31984847216749
 20
16.29007590310033
 30
0.0
 10
26.30601458037927
 20
16.29657647538597
 30
0.0
 10
26.29760614483208
 20
16.30054422579391
 30
0.0
 10
26.29345339778421
 20
16.30234851566521
 30
0.0
 10
26.29326761261947
 20
16.3022078415916
 30
0.0
 10
26.29319476726702
 20
16.30215268405258
 30
0.0
  0
LINE
  5
2DE
330
1F
100
AcDbEntity
  8
0
  6
Continuous
 62
     7
370
    25
100
AcDbLine
 10
26.5390384742
 20
16.3761967793
 30
0.0
 11
26.3598737455
 21
16.272767183
 31
0.0
  0
LWPOLYLINE
  5
2DF
330
1F
100
AcDbEntity
  8
0
  6
Continuous
 62
     7
370
    25
100
AcDbPolyline
 90
       33
 70
   128
 43
0.0
 10
27.735457733
 20
16.1686103786
 10
27.7231534398
 20
16.1766114915
 10
27.6948887157
 20
16.1968914688
 10
27.6669918035
 20
16.2195726149
 10
27.6396436251
 20
16.244507834
 10
27.6130215441
 20
16.2715354115
 10
27.5872982148
 20
16.3004800633
 10
27.562640463
 20
16.3311540721
 10
27.5392082036
 20
16.3633585054
 10
27.5171534038
 20
16.3968845048
 10
27.4966190974
 20
16.4315146415
 10
27.4777384574
 20
16.4670243258
 10
27.4606339318
 20
16.5031832637
 10
27.4454164501
 20
16.5397569507
 10
27.4321847036
 20
16.5765081923
 10
27.4210245051
 20
16.6131986426
 10
27.4120082329
 20
16.64959035
 10
27.4051943609
 20
16.6854473003
 10
27.4006270797
 20
16.7205369475
 10
27.3983360098
 20
16.7546317216
 10
27.3983360098
 20
16.787510505
 10
27.4006270797
 20
16.8189600662
 10
27.4051943609
 20
16.8487764427
 10
27.4120082329
 20
16.8767662639
 10
27.4210245051
 20
16.902748005
 10
27.4321847036
 20
16.9265531644
 10
27.4454164501
 20
16.9480273566
 10
27.4606339318
 20
16.9670313132
 10
27.4777384574
 20
16.9834417863
 10
27.4966190974
 20
16.9971523476
 10
27.5171534038
 20
17.0080740788
 10
27.5392082036
 20
17.0161361484
 10
27.5393924874
 20
17.0161895671
  0
SPLINE
  5
2E0
330
1F
100
AcDbEntity
  8
0
  6
Continuous
 62
     7
370
    25
100
AcDbSpline
210
0.0
220
0.0
230
1.0
 70
    11
 71
     3
 72
    26
 73
    22
 74
     0
 42
0.00000001
 43
0.00000001
 40
0.0
 40
0.0
 40
0.0
 40
0.0
 40
0.0532007753862718
 40
0.1063847263153348
 40
0.1600073343611949
 40
0.213942894105743
 40
0.2673935894686003
 40
0.3203162448468938
 40
0.3734912217377431
 40
0.427301685045345
 40
0.4811480377781143
 40
0.5343807310971372
 40
0.5873085574696535
 40
0.6406942334865288
 40
0.694609971854434
 40
0.7482999487977636
 40
0.8013441886185636
 40
0.854336766092971
 40
0.9079436071600081
 40
0.9618809478017588
 40
1.0
 40
1.0
 40
1.0
 40
1.0
 10
25.63098943120525
 20
15.75113470471888
 30
0.0
 10
25.63046364185159
 20
15.75818142003367
 30
0.0
 10
25.62941222942229
 20
15.77227262217766
 30
0.0
 10
25.62105180375191
 20
15.78565703421139
 30
0.0
 10
25.60816051156266
 20
15.79156156159388
 30
0.0
 10
25.59106552578582
 20
15.78912400789392
 30
0.0
 10
25.57151579190948
 20
15.77894681237435
 30
0.0
 10
25.55170169964249
 20
15.76234344696155
 30
0.0
 10
25.53399184751848
 20
15.74096387061321
 30
0.0
 10
25.52078631800323
 20
15.71669661835806
 30
0.0
 10
25.51422381540839
 20
15.69200714608008
 30
0.0
 10
25.51536258573151
 20
15.66969388911133
 30
0.0
 10
25.52387781034021
 20
15.65222353554392
 30
0.0
 10
25.53849230227488
 20
15.64158031100898
 30
0.0
 10
25.55718410598222
 20
15.6393433726433
 30
0.0
 10
25.57729786041826
 20
15.64617113402855
 30
0.0
 10
25.5962280684123
 20
15.66126253079349
 30
0.0
 10
25.61216258830539
 20
15.68277342654556
 30
0.0
 10
25.62379868046661
 20
15.70814939196702
 30
0.0
 10
25.63005523912045
 20
15.73214419977026
 30
0.0
 10
25.63071587334007
 20
15.74557374774121
 30
0.0
 10
25.63098943120525
 20
15.75113470471889
 30
0.0
  0
SPLINE
  5
2E1
330
1F
100
AcDbEntity
  8
0
  6
Continuous
 62
     7
370
    25
100
AcDbSpline
210
0.0
220
0.0
230
1.0
 70
    11
 71
     3
 72
    26
 73
    22
 74
     0
 42
0.00000001
 43
0.00000001
 40
0.0
 40
0.0
 40
0.0
 40
0.0
 40
0.0532007753862719
 40
0.1063847263153331
 40
0.1600073343611945
 40
0.2139428941057427
 40
0.2673935894686
 40
0.3203162448468931
 40
0.3734912217377442
 40
0.4273016850453444
 40
0.4811480377781136
 40
0.5343807310971367
 40
0.5873085574696527
 40
0.640694233486528
 40
0.6946099718544333
 40
0.7482999487977631
 40
0.8013441886185626
 40
0.8543367660929703
 40
0.9079436071600079
 40
0.9618809478017588
 40
1.0
 40
1.0
 40
1.0
 40
1.0
 10
27.35350155017569
 20
16.74551978491895
 30
0.0
 10
27.35297576082202
 20
16.75256650023373
 30
0.0
 10
27.35192434839272
 20
16.76665770237773
 30
0.0
 10
27.34356392272234
 20
16.78004211441145
 30
0.0
 10
27.33067263053309
 20
16.78594664179394
 30
0.0
 10
27.31357764475625
 20
16.78350908809399
 30
0.0
 10
27.29402791087991
 20
16.77333189257441
 30
0.0
 10
27.27421381861292
 20
16.75672852716162
 30
0.0
 10
27.25650396648892
 20
16.73534895081328
 30
0.0
 10
27.24329843697366
 20
16.71108169855813
 30
0.0
 10
27.23673593437883
 20
16.68639222628014
 30
0.0
 10
27.23787470470194
 20
16.6640789693114
 30
0.0
 10
27.24638992931065
 20
16.64660861574398
 30
0.0
 10
27.26100442124531
 20
16.63596539120904
 30
0.0
 10
27.27969622495265
 20
16.63372845284337
 30
0.0
 10
27.29980997938869
 20
16.64055621422862
 30
0.0
 10
27.31874018738273
 20
16.65564761099355
 30
0.0
 10
27.33467470727582
 20
16.67715850674562
 30
0.0
 10
27.34631079943704
 20
16.70253447216708
 30
0.0
 10
27.35256735809088
 20
16.72652927997033
 30
0.0
 10
27.3532279923105
 20
16.73995882794127
 30
0.0
 10
27.35350155017569
 20
16.74551978491895
 30
0.0
  0
ARC
  5
2E2
330
1F
100
AcDbEntity
  8
0
  6
Continuous
 62
     7
370
    25
100
AcDbCircle
 10
25.9704465665
 20
15.2501059387
 30
0.0
 40
0.2511102876490801
100
AcDbArc
 50
234.3326467416
 51
294.3568948293
  0
LWPOLYLINE
  5
2E3
330
1F
100
AcDbEntity
  8
0
  6
Continuous
 62
     7
370
    25
100
AcDbPolyline
 90
       31
 70
   128
 43
0.0
 10
25.5740498993
 20
15.8873947873
 10
25.5690460119
 20
15.8843880912
 10
25.5501653718
 20
15.8706775299
 10
25.5330608463
 20
15.8542670568
 10
25.5178433646
 20
15.8352631002
 10
25.5046116181
 20
15.813788908
 10
25.4934514196
 20
15.7899837486
 10
25.4844351474
 20
15.7640020075
 10
25.4776212754
 20
15.7360121863
 10
25.4730539942
 20
15.7061958098
 10
25.4707629243
 20
15.6747462486
 10
25.4707629243
 20
15.6418674652
 10
25.4730539942
 20
15.6077726911
 10
25.4776212754
 20
15.5726830439
 10
25.4844351474
 20
15.5368260936
 10
25.4934514196
 20
15.5004343862
 10
25.5046116181
 20
15.4637439359
 10
25.5178433646
 20
15.4269926943
 10
25.5330608463
 20
15.3904190073
 10
25.5501653718
 20
15.3542600694
 10
25.5690460119
 20
15.3187503851
 10
25.5895803183
 20
15.2841202484
 10
25.6116351181
 20
15.2505942489
 10
25.6350673775
 20
15.2183898157
 10
25.6597251293
 20
15.1877158069
 10
25.6854484586
 20
15.1587711551
 10
25.7120705396
 20
15.1317435776
 10
25.7394187179
 20
15.1068083585
 10
25.7673156302
 20
15.0841272124
 10
25.7955803543
 20
15.0638472351
 10
25.8240295825
 20
15.0460999501
  0
ARC
  5
2E4
330
1F
100
AcDbEntity
  8
0
  6
Continuous
 62
     7
370
    25
100
AcDbCircle
 10
26.1920990893
 20
15.666855835
 30
0.0
 40
0.7223346896469636
100
AcDbArc
 50
182.5437867105
 51
237.4562134351
  0
LWPOLYLINE
  5
2E5
330
1F
100
AcDbEntity
  8
0
  6
Continuous
 62
     7
370
    25
100
AcDbPolyline
 90
       43
 70
   128
 43
0.0
 10
28.7354734559
 20
15.4204255081
 10
28.7255249593
 20
15.4405428858
 10
28.7045579784
 20
15.4878545325
 10
28.6861529938
 20
15.5368105055
 10
28.6703630719
 20
15.5872696521
 10
28.6572337392
 20
15.6390864854
 10
28.6468028508
 20
15.6921116042
 10
28.6391004817
 20
15.7461921233
 10
28.6341488399
 20
15.8011721146
 10
28.6319622022
 20
15.8568930565
 10
28.6325468732
 20
15.9131942911
 10
28.6359011673
 20
15.9699134873
 10
28.6420154131
 20
16.0268871092
 10
28.6508719816
 20
16.0839508869
 10
28.6624453371
 20
16.1409402908
 10
28.6767021105
 20
16.1976910057
 10
28.693601196
 20
16.2540394046
 10
28.7130938691
 20
16.3098230205
 10
28.7351239273
 20
16.3648810148
 10
28.7596278524
 20
16.419054641
 10
28.7865349931
 20
16.4721877026
 10
28.8157677691
 20
16.5241270031
 10
28.8472418949
 20
16.5747227882
 10
28.8808666224
 20
16.623829177
 10
28.9165450028
 20
16.6713045831
 10
28.954174166
 20
16.7170121228
 10
28.9936456175
 20
16.7608200092
 10
29.0348455508
 20
16.8026019329
 10
29.0776551759
 20
16.8422374258
 10
29.1219510615
 20
16.8796122086
 10
29.1676054912
 20
16.91461852
 10
29.2144868314
 20
16.9471554278
 10
29.262459911
 20
16.9771291196
 10
29.3113864113
 20
17.0044531736
 10
29.3611252644
 20
17.0290488074
 10
29.4115330605
 20
17.0508451055
 10
29.4624644607
 20
17.0697792235
 10
29.5137726166
 20
17.0857965693
 10
29.5653095936
 20
17.098850961
 10
29.6169267973
 20
17.1089047592
 10
29.6684754018
 20
17.1159289762
 10
29.7198067791
 20
17.1199033595
 10
29.7263826426
 20
17.1201923744
  0
LWPOLYLINE
  5
2E6
330
1F
100
AcDbEntity
  8
0
  6
Continuous
 62
     7
370
    25
100
AcDbPolyline
 90
       61
 70
   128
 43
0.0
 10
23.021209482
 20
13.7353700783
 10
23.0212711508
 20
13.7353335073
 10
23.0232413435
 20
13.7341914529
 10
23.0279773206
 20
13.7314525881
 10
23.035465427
 20
13.7271248098
 10
23.0456840726
 20
13.721220596
 10
23.0586037942
 20
13.7137569702
 10
23.0741873412
 20
13.7047554518
 10
23.0923897819
 20
13.6942419947
 10
23.1131586342
 20
13.6822469119
 10
23.1364340159
 20
13.6688047882
 10
23.1621488183
 20
13.6539543807
 10
23.1902288988
 20
13.6377385072
 10
23.2205932952
 20
13.620203922
 10
23.2531544592
 20
13.601401182
 10
23.2878185086
 20
13.5813845004
 10
23.3244854978
 20
13.5602115903
 10
23.3630497065
 20
13.5379434989
 10
23.4033999441
 20
13.5146444307
 10
23.4454198703
 20
13.490381563
 10
23.4889883309
 20
13.4652248519
 10
23.5339797067
 20
13.4392468308
 10
23.5802642759
 20
13.412522401
 10
23.6277085882
 20
13.3851286159
 10
23.6761758492
 20
13.357144459
 10
23.7255263154
 20
13.3286506157
 10
23.7756176966
 20
13.2997292413
 10
23.8263055663
 20
13.2704637235
 10
23.8774437782
 20
13.2409384424
 10
23.9288848878
 20
13.2112385271
 10
23.980480577
 20
13.1814496099
 10
24.032082082
 20
13.1516575803
 10
24.0835406223
 20
13.1219483362
 10
24.1347078296
 20
13.092407537
 10
24.1854361757
 20
13.0631203567
 10
24.2355793975
 20
13.0341712377
 10
24.2849929193
 20
13.0056436477
 10
24.333534269
 20
12.9776198393
 10
24.3810634893
 20
12.9501806123
 10
24.4274435412
 20
12.9234050811
 10
24.472540699
 20
12.8973704465
 10
24.5162249359
 20
12.8721517732
 10
24.5583702989
 20
12.8478217729
 10
24.5988552722
 20
12.8244505956
 10
24.6375631269
 20
12.8021056262
 10
24.6743822584
 20
12.7808512912
 10
24.7092065075
 20
12.7607488722
 10
24.7419354669
 20
12.7418563298
 10
24.7724747706
 20
12.7242281361
 10
24.8007363659
 20
12.7079151177
 10
24.8266387672
 20
12.6929643092
 10
24.8501072912
 20
12.6794188177
 10
24.8710742721
 20
12.6673176984
 10
24.8894792566
 20
12.6566958419
 10
24.9052691785
 20
12.6475838738
 10
24.9183985113
 20
12.6400080662
 10
24.9288293997
 20
12.6339902622
 10
24.9365317688
 20
12.6295478126
 10
24.9414834106
 20
12.6266935263
 10
24.9436700483
 20
12.6254356327
 10
24.943785877
 20
12.6253700758
  0
LWPOLYLINE
  5
2E7
330
1F
100
AcDbEntity
  8
0
  6
Continuous
 62
     7
370
    25
100
AcDbPolyline
 90
       29
 70
   128
 43
0.0
 10
25.4349976795
 20
15.1245661379
 10
25.4060303774
 20
15.1412887561
 10
25.3756458068
 20
15.1588298462
 10
25.3440410235
 20
15.1770756475
 10
25.3114209964
 20
15.1959078289
 10
25.2779972792
 20
15.2152042566
 10
25.2439866373
 20
15.2348397858
 10
25.2096096428
 20
15.2546870725
 10
25.1750892437
 20
15.2746173995
 10
25.1406493182
 20
15.294501511
 10
25.1065132222
 20
15.3142104509
 10
25.0729023415
 20
15.3336163991
 10
25.0400346555
 20
15.3525935007
 10
25.0081233239
 20
15.3710186818
 10
24.9773753037
 20
15.388772448
 10
24.9479900078
 20
15.4057396594
 10
24.9201580111
 20
15.4218102771
 10
24.8940598147
 20
15.436880077
 10
24.8698646755
 20
15.4508513256
 10
24.8477295081
 20
15.4636334141
 10
24.8277978678
 20
15.4751434457
 10
24.8101990187
 20
15.4853067733
 10
24.7950470963
 20
15.494057484
 10
24.7824403665
 20
15.5013388261
 10
24.7724605888
 20
15.5071035771
 10
24.7651724858
 20
15.5113143505
 10
24.7606233239
 20
15.5139438379
 10
24.7588426059
 20
15.5149749859
 10
24.758815105
 20
15.5149912946
  0
ARC
  5
2E8
330
1F
100
AcDbEntity
  8
0
  6
Continuous
 62
     7
370
    25
100
AcDbCircle
 10
24.7143274318
 20
15.5417985296
 30
0.0
 40
0.832735537008097
100
AcDbArc
 50
329.9312833037
 51
340.3166176914
  0
ARC
  5
2E9
330
1F
100
AcDbEntity
  8
0
  6
Continuous
 62
     7
370
    25
100
AcDbCircle
 10
25.4842872317
 20
14.9801505215
 30
0.0
 40
0.2556139146925683
100
AcDbArc
 50
231.6027452171
 51
293.883001146
  0
ARC
  5
2EA
330
1F
100
AcDbEntity
  8
0
  6
Continuous
 62
     7
370
    25
100
AcDbCircle
 10
28.0876321766
 20
17.1109670738
 30
0.0
 40
0.1920650096313745
100
AcDbArc
 50
121.2967630294
 51
161.0790331802
  0
LWPOLYLINE
  5
2EB
330
1F
100
AcDbEntity
  8
0
  6
Continuous
 62
     7
370
    25
100
AcDbPolyline
 90
       28
 70
   128
 43
0.0
 10
27.1378339819
 20
18.3521504191
 10
27.1085342459
 20
18.3677543535
 10
27.0771545299
 20
18.3819466472
 10
27.0438983432
 20
18.3946352577
 10
27.0089813652
 20
18.4057378946
 10
26.9726300456
 20
18.415182553
 10
26.9350801369
 20
18.4229079806
 10
26.8965751645
 20
18.4288640752
 10
26.8573648481
 20
18.433012209
 10
26.8177034815
 20
18.43532548
 10
26.7778482839
 20
18.4357888856
 10
26.7380577315
 20
18.4343994204
 10
26.6985898815
 20
18.4311660958
 10
26.6597006979
 20
18.426109881
 10
26.621642392
 20
18.4192635676
 10
26.5846617865
 20
18.4106715564
 10
26.5489987149
 20
18.4003895701
 10
26.5148844658
 20
18.3884842911
 10
26.4825402833
 20
18.3750329299
 10
26.4521759317
 20
18.3601227237
 10
26.4239883356
 20
18.3438503708
 10
26.3981603023
 20
18.3263214038
 10
26.3748593366
 20
18.3076495046
 10
26.3542365541
 20
18.2879557678
 10
26.3364257015
 20
18.2673679148
 10
26.321542289
 20
18.2460194657
 10
26.3096828412
 20
18.2240488733
 10
26.3065442155
 20
18.2169211522
  0
ARC
  5
2EC
330
1F
100
AcDbEntity
  8
0
  6
Continuous
 62
     7
370
    25
100
AcDbCircle
 10
26.9965095105
 20
18.0835379671
 30
0.0
 40
0.303521425235321
100
AcDbArc
 50
26.2581586883
 51
62.2498957886
  0
CIRCLE
  5
2ED
330
1F
100
AcDbEntity
  8
0
  6
Continuous
 62
     7
370
    25
100
AcDbCircle
 10
26.5090021207
 20
4.6409303685
 30
0.0
 40
2.484999999999999
  0
CIRCLE
  5
2EE
330
1F
100
AcDbEntity
  8
0
  6
Continuous
 62
     7
370
    25
100
AcDbCircle
 10
26.5090021207
 20
4.6409303685
 30
0.0
 40
2.434999999999999
  0
CIRCLE
  5
2EF
330
1F
100
AcDbEntity
  8
0
  6
Continuous
 62
     7
370
    25
100
AcDbCircle
 10
28.2590021207
 20
4.6409303685
 30
0.0
 40
0.1169999999999973
  0
CIRCLE
  5
2F0
330
1F
100
AcDbEntity
  8
0
  6
Continuous
 62
     7
370
    25
100
AcDbCircle
 10
24.7590021207
 20
4.6409303685
 30
0.0
 40
0.1170000000000009
  0
CIRCLE
  5
2F1
330
1F
100
AcDbEntity
  8
0
  6
Continuous
 62
     7
370
    25
100
AcDbCircle
 10
26.5090021207
 20
4.6409303685
 30
0.0
 40
0.4140000000000015
  0
DIMENSION
  5
2F2
330
1F
100
AcDbEntity
  8
0
  6
Continuous
 62
     7
370
    18
100
AcDbDimension
  2
_D_10
 10
28.2590021207
 20
8.3070327307
 30
0.0
 11
26.5090021207
 21
8.3070327307
 31
0.0
 70
   160
  1
ON CENTER\P<>
 71
     2
 42
-1.0
  3
SLDDIMSTYLE2
100
AcDbAlignedDimension
 13
24.7590021207
 23
4.6409303685
 33
0.0
 14
28.2590021207
 24
4.6409303685
 34
0.0
100
AcDbRotatedDimension
  0
DIMENSION
  5
305
330
1F
100
AcDbEntity
  8
0
  6
Continuous
 62
     7
370
    18
100
AcDbDimension
  2
_D_11
 10
24.3569289923
 20
3.3984303685
 30
0.0
 11
31.300170278
 21
6.3315722139
 31
0.0
 70
   163
  1
<>
 71
     1
 42
-1.0
  3
SLDDIMSTYLE3
100
AcDbDiametricDimension
 15
28.6610752491
 25
5.8834303685
 35
0.0
 40
0.0
  0
MTEXT
  5
316
330
1F
100
AcDbEntity
  8
0
  6
Continuous
 62
     7
370
     0
100
AcDbMText
 10
24.5704606349
 20
1.7848594928
 30
0.0
 40
0.375
 41
0.0
 71
     1
 72
     1
  1
CANOPY DETAIL
  7
SLDTEXTSTYLE1
 73
     1
 44
1.0
  0
ARC
  5
317
330
1F
100
AcDbEntity
  8
0
  6
Continuous
 62
     7
370
    25
100
AcDbCircle
 10
19.5934447321
 20
4.2391121382
 30
0.0
 40
0.0300000000000002
100
AcDbArc
 50
90.0
 51
180.0
  0
ARC
  5
318
330
1F
100
AcDbEntity
  8
0
  6
Continuous
 62
     7
370
    25
100
AcDbCircle
 10
21.7534447321
 20
4.2391121382
 30
0.0
 40
0.0300000000000002
100
AcDbArc
 50
0.0
 51
90.0
  0
LINE
  5
319
330
1F
100
AcDbEntity
  8
0
  6
Continuous
 62
     7
370
    25
100
AcDbLine
 10
21.7834447321
 20
2.5870914309
 30
0.0
 11
21.7834447321
 21
4.2391121382
 31
0.0
  0
LINE
  5
31A
330
1F
100
AcDbEntity
  8
0
  6
Continuous
 62
     7
370
    25
100
AcDbLine
 10
21.7834447321
 20
2.2691121382
 30
0.0
 11
21.7834447321
 21
2.4511687286
 31
0.0
  0
LINE
  5
31B
330
1F
100
AcDbEntity
  8
0
  6
Continuous
 62
     7
370
    25
100
AcDbLine
 10
19.5634447321
 20
4.2391121382
 30
0.0
 11
19.5634447321
 21
2.2691121382
 31
0.0
  0
LINE
  5
31C
330
1F
100
AcDbEntity
  8
0
  6
Continuous
 62
     7
370
    25
100
AcDbLine
 10
21.7534447321
 20
4.2691121382
 30
0.0
 11
19.5934447321
 21
4.2691121382
 31
0.0
  0
SPLINE
  5
31D
330
1F
100
AcDbEntity
  8
0
  6
Continuous
 62
     7
370
    25
100
AcDbSpline
210
0.0
220
0.0
230
1.0
 70
     8
 71
     3
 72
    45
 73
    41
 74
     0
 42
0.00000001
 43
0.00000001
 40
0.0
 40
0.0
 40
0.0
 40
0.0
 40
0.0094289094174152
 40
0.0366438128280131
 40
0.063054198398307
 40
0.0894646038911574
 40
0.1166412925856772
 40
0.1438180124421672
 40
0.1702471250658985
 40
0.1966762613254154
 40
0.2238706913251754
 40
0.2510651314997905
 40
0.2775367390964929
 40
0.304008337171333
 40
0.3312488626646404
 40
0.3584893611680596
 40
0.3849610404740855
 40
0.4114326916498236
 40
0.4386758957910078
 40
0.4659190777322945
 40
0.4923480841110636
 40
0.5187770877739218
 40
0.5459751278979104
 40
0.5731731853201736
 40
0.5995834343361739
 40
0.6259937100463999
 40
0.653169310722819
 40
0.6803449408455771
 40
0.7067895569217647
 40
0.7332341874849087
 40
0.7604450162698223
 40
0.7876558408805289
 40
0.8141343516345938
 40
0.8406128419934902
 40
0.8678616249117677
 40
0.8951103762937495
 40
0.9215694560743851
 40
0.948028512361932
 40
0.9752587923886423
 40
1.0
 40
1.0
 40
1.0
 40
1.0
 10
21.78344124932422
 20
2.451168728636668
 30
0.0
 10
21.78344217691584
 20
2.451153505573472
 30
0.0
 10
21.78344578183894
 20
2.451094343792004
 30
0.0
 10
21.78342124915976
 20
2.451495881446756
 30
0.0
 10
21.78336869295372
 20
2.452361251454698
 30
0.0
 10
21.78328765253017
 20
2.453720250364134
 30
0.0
 10
21.78318095586157
 20
2.455551259271334
 30
0.0
 10
21.78305189716725
 20
2.457841317228099
 30
0.0
 10
21.78290564247006
 20
2.460543507399755
 30
0.0
 10
21.78274551591159
 20
2.463651463633954
 30
0.0
 10
21.78257395277532
 20
2.467186283832571
 30
0.0
 10
21.78239738946809
 20
2.47109613960209
 30
0.0
 10
21.78222257697953
 20
2.475311794670422
 30
0.0
 10
21.78205260280123
 20
2.479833935126393
 30
0.0
 10
21.78189101302535
 20
2.484682254955467
 30
0.0
 10
21.78174405252598
 20
2.489779164204206
 30
0.0
 10
21.78161731776906
 20
2.495036361066662
 30
0.0
 10
21.78151223284206
 20
2.50046130784342
 30
0.0
 10
21.78143179573312
 20
2.506073440218991
 30
0.0
 10
21.78137922042141
 20
2.511776966553214
 30
0.0
 10
21.78135639470731
 20
2.517474878642763
 30
0.0
 10
21.78136237831935
 20
2.523180960149702
 30
0.0
 10
21.78139836105831
 20
2.528913117178974
 30
0.0
 10
21.78146303279286
 20
2.534573221091153
 30
0.0
 10
21.78155379539198
 20
2.540067620338859
 30
0.0
 10
21.78166783739974
 20
2.545415249447857
 30
0.0
 10
21.78180408160152
 20
2.550625980621894
 30
0.0
 10
21.78195743452146
 20
2.555612280511329
 30
0.0
 10
21.78212200215184
 20
2.560293867216282
 30
0.0
 10
21.78229433796264
 20
2.564692127550147
 30
0.0
 10
21.78247146013685
 20
2.568806105677118
 30
0.0
 10
21.78264666800516
 20
2.572564241575748
 30
0.0
 10
21.78281326692116
 20
2.57590814533475
 30
0.0
 10
21.78296860545072
 20
2.578859369085064
 30
0.0
 10
21.78310916537104
 20
2.581410121961627
 30
0.0
 10
21.78322939954521
 20
2.583510183980081
 30
0.0
 10
21.78332502005297
 20
2.58513452755547
 30
0.0
 10
21.78339450108377
 20
2.586289010975203
 30
0.0
 10
21.78343743762357
 20
2.586993982726487
 30
0.0
 10
21.78344151957841
 20
2.58706000213692
 30
0.0
 10
21.78344346280722
 20
2.587091430907081
 30
0.0
  0
SPLINE
  5
31E
330
1F
100
AcDbEntity
  8
0
  6
Continuous
 62
     7
370
    25
100
AcDbSpline
210
0.0
220
0.0
230
1.0
 70
    11
 71
     3
 72
    56
 73
    52
 74
     0
 42
0.00000001
 43
0.00000001
 40
0.0
 40
0.0
 40
0.0
 40
0.0
 40
0.0312499999999999
 40
0.0312499999999999
 40
0.0624999999999998
 40
0.0624999999999998
 40
0.0937499999999997
 40
0.0937499999999997
 40
0.1249999999999996
 40
0.1249999999999996
 40
0.1874999999999994
 40
0.1874999999999994
 40
0.2499999999999992
 40
0.2499999999999992
 40
0.2812499999999993
 40
0.2812499999999993
 40
0.3124999999999994
 40
0.3124999999999994
 40
0.3437499999999996
 40
0.3437499999999996
 40
0.3749999999999997
 40
0.3749999999999997
 40
0.4062499999999998
 40
0.4062499999999998
 40
0.4374999999999999
 40
0.4374999999999999
 40
0.4687500000000001
 40
0.4687500000000001
 40
0.5000000000000002
 40
0.5000000000000002
 40
0.5625000000000003
 40
0.5625000000000003
 40
0.6250000000000007
 40
0.6250000000000007
 40
0.6562500000000007
 40
0.6562500000000007
 40
0.6875000000000007
 40
0.6875000000000007
 40
0.7187500000000007
 40
0.7187500000000007
 40
0.7500000000000007
 40
0.7500000000000007
 40
0.8125000000000009
 40
0.8125000000000009
 40
0.8437500000000009
 40
0.8437500000000009
 40
0.8750000000000008
 40
0.8750000000000008
 40
0.9375000000000004
 40
0.9375000000000004
 40
1.0
 40
1.0
 40
1.0
 40
1.0
 10
20.17837687995686
 20
2.519112138165702
 30
0.0
 10
20.17837687995686
 20
2.514618602407724
 30
0.0
 10
20.17798127992086
 20
2.51020036739164
 30
0.0
 10
20.1764329263452
 20
2.501508275155457
 30
0.0
 10
20.17526134152632
 20
2.497189319913061
 30
0.0
 10
20.17220841216239
 20
2.488954888591262
 30
0.0
 10
20.17034221715297
 20
2.485049568571708
 30
0.0
 10
20.16594287243545
 20
2.47765858350158
 30
0.0
 10
20.16338703462522
 20
2.474159979187074
 30
0.0
 10
20.1550349520039
 20
2.46475310236659
 30
0.0
 10
20.14833021134661
 20
2.459687136977434
 30
0.0
 10
20.13396682047242
 20
2.452903802774236
 30
0.0
 10
20.12615953421763
 20
2.451116910192791
 30
0.0
 10
20.11463474896889
 20
2.451109766847693
 30
0.0
 10
20.11074636430165
 20
2.451551262495028
 30
0.0
 10
20.10324503064782
 20
2.453286149858926
 30
0.0
 10
20.09961185222131
 20
2.454569801937801
 30
0.0
 10
20.09257739422009
 20
2.457974423213099
 30
0.0
 10
20.08918781906841
 20
2.460103049360656
 30
0.0
 10
20.08293199489162
 20
2.465024031024647
 30
0.0
 10
20.08002511498085
 20
2.467833375633827
 30
0.0
 10
20.07466290268373
 20
2.474177886820699
 30
0.0
 10
20.07229078947472
 20
2.477616065794864
 30
0.0
 10
20.06815024364748
 20
2.484978262743461
 30
0.0
 10
20.06636433504402
 20
2.488951768872412
 30
0.0
 10
20.06350339867333
 20
2.497190054218677
 30
0.0
 10
20.06242723629052
 20
2.501428633516547
 30
0.0
 10
20.06097148307943
 20
2.510142214236287
 30
0.0
 10
20.06059875875666
 20
2.514649597495402
 30
0.0
 10
20.06059476857995
 20
2.527964031863754
 30
0.0
 10
20.06207893427541
 20
2.536911459132434
 30
0.0
 10
20.06774973243325
 20
2.553282630602678
 30
0.0
 10
20.07199682110883
 20
2.560873379164811
 30
0.0
 10
20.07992921011513
 20
2.570286539030829
 30
0.0
 10
20.08288607277003
 20
2.573160000760065
 30
0.0
 10
20.08916118242465
 20
2.578104347682672
 30
0.0
 10
20.09248416005143
 20
2.580195714035187
 30
0.0
 10
20.09950934342606
 20
2.583613627830138
 30
0.0
 10
20.10321439620585
 20
2.584927583013108
 30
0.0
 10
20.11069029613787
 20
2.586663465086185
 30
0.0
 10
20.11450035615997
 20
2.587107631870786
 30
0.0
 10
20.12615738647396
 20
2.587121049410972
 30
0.0
 10
20.13385953998621
 20
2.58536223822384
 30
0.0
 10
20.1447161742112
 20
2.580248327490192
 30
0.0
 10
20.14815741321732
 20
2.578162199839488
 30
0.0
 10
20.15468342561518
 20
2.573237510310014
 30
0.0
 10
20.15778573847216
 20
2.570368623654148
 30
0.0
 10
20.16614782421247
 20
2.560963502016765
 30
0.0
 10
20.17067474427306
 20
2.553385988346211
 30
0.0
 10
20.17675454876942
 20
2.537027354112791
 30
0.0
 10
20.17837687995686
 20
2.528099209681657
 30
0.0
 10
20.17837687995686
 20
2.519112138165702
 30
0.0
  0
LINE
  5
31F
330
1F
100
AcDbEntity
  8
0
  6
Continuous
 62
     7
370
    25
100
AcDbLine
 10
19.5634447321
 20
2.2691121382
 30
0.0
 11
21.7834447321
 21
2.2691121382
 31
0.0
  0
SPLINE
  5
320
330
1F
100
AcDbEntity
  8
0
  6
Continuous
 62
     7
370
    25
100
AcDbSpline
210
0.0
220
0.0
230
1.0
 70
     8
 71
     3
 72
    31
 73
    27
 74
     0
 42
0.00000001
 43
0.00000001
 40
0.0
 40
0.0
 40
0.0
 40
0.0
 40
0.0060897437148838
 40
0.0510442911397207
 40
0.0960337497293065
 40
0.1411662716668739
 40
0.1861560121237104
 40
0.2312309701825969
 40
0.2764495307566054
 40
0.3215241964299898
 40
0.3666017244707399
 40
0.4118233515825707
 40
0.4569004645000505
 40
0.5018931179154933
 40
0.5470295434507094
 40
0.5920223087665777
 40
0.6369752601565667
 40
0.6820713451576739
 40
0.7270247551185782
 40
0.7720449768049954
 40
0.8172083784068959
 40
0.8622286917205597
 40
0.9073182594049759
 40
0.9525516638405328
 40
0.9976408103237433
 40
1.0
 40
1.0
 40
1.0
 40
1.0
 10
20.137305076362
 20
2.45471138069288
 30
0.0
 10
20.13702147996681
 20
2.454805608729407
 30
0.0
 10
20.13464437221971
 20
2.455595429049469
 30
0.0
 10
20.13041036986411
 20
2.457848875193198
 30
0.0
 10
20.12471879756731
 20
2.461512396718498
 30
0.0
 10
20.11945493903622
 20
2.465971327933386
 30
0.0
 10
20.11464641830726
 20
2.471074038851997
 30
0.0
 10
20.11037699863173
 20
2.47680623186295
 30
0.0
 10
20.10667621008308
 20
2.483067762945547
 30
0.0
 10
20.10358764549504
 20
2.489781954313859
 30
0.0
 10
20.10116951712733
 20
2.496876764775632
 30
0.0
 10
20.09942654919948
 20
2.504248822119715
 30
0.0
 10
20.09837835848402
 20
2.511804218798367
 30
0.0
 10
20.09806025664352
 20
2.519449659548031
 30
0.0
 10
20.09844942800528
 20
2.527084439839131
 30
0.0
 10
20.09954116462967
 20
2.534618976916645
 30
0.0
 10
20.10134660109394
 20
2.541950579968458
 30
0.0
 10
20.10382026575936
 20
2.548993826206382
 30
0.0
 10
20.10693745991007
 20
2.555669960617319
 30
0.0
 10
20.11068557008876
 20
2.561877048748499
 30
0.0
 10
20.11500041178801
 20
2.567554767649164
 30
0.0
 10
20.11983773682616
 20
2.572626153418204
 30
0.0
 10
20.12514997193926
 20
2.577033738376768
 30
0.0
 10
20.13089265474203
 20
2.58062508834172
 30
0.0
 10
20.13498293574867
 20
2.582798012583615
 30
0.0
 10
20.13719722403028
 20
2.583514486510172
 30
0.0
 10
20.13730732116913
 20
2.583550110475682
 30
0.0
  0
LINE
  5
321
330
1F
100
AcDbEntity
  8
0
  6
Continuous
 62
     7
370
    25
100
AcDbLine
 10
21.7834447321
 20
4.2391121382
 30
0.0
 11
19.5634447321
 21
4.2391121382
 31
0.0
  0
DIMENSION
  5
322
330
1F
100
AcDbEntity
  8
0
  6
Continuous
 62
     7
370
    18
100
AcDbDimension
  2
_D_12
 10
18.1367980458
 20
4.2691121382
 30
0.0
 11
18.1367980458
 21
3.2691121382
 31
0.0
 70
   160
  1
<>
 71
     2
 42
-1.0
  3
SLDDIMSTYLE4
100
AcDbAlignedDimension
 13
19.5634447321
 23
2.2691121382
 33
0.0
 14
19.5934447321
 24
4.2691121382
 34
0.0
 50
90.0
100
AcDbRotatedDimension
  0
MTEXT
  5
337
330
1F
100
AcDbEntity
  8
0
  6
Continuous
 62
     7
370
     0
100
AcDbMText
 10
19.9849793224
 20
1.4934442853
 30
0.0
 40
0.375
 41
0.0
 71
     1
 72
     1
  1
F CAP
  7
SLDTEXTSTYLE0
 73
     1
 44
1.0
  0
ENDSEC
  0
SECTION
  2
OBJECTS
  0
DICTIONARY
  5
C
330
0
100
AcDbDictionary
281
     1
  3
ACAD_GROUP
350
D
  3
ACAD_LAYOUT
350
1A
  3
ACAD_MLINESTYLE
350
17
  3
ACAD_PLOTSETTINGS
350
19
  3
ACAD_PLOTSTYLENAME
350
E
  3
ACAD_SCALELIST
350
47
  3
DWGPROPS
350
338
  0
DICTIONARY
  5
D
102
{ACAD_REACTORS
330
C
102
}
330
C
100
AcDbDictionary
281
     1
  0
DICTIONARY
  5
1A
102
{ACAD_REACTORS
330
C
102
}
330
C
100
AcDbDictionary
281
     1
  3
Layout1
350
1E
  3
Layout2
350
26
  3
Model
350
22
  0
DICTIONARY
  5
17
102
{ACAD_REACTORS
330
C
102
}
330
C
100
AcDbDictionary
281
     1
  3
Standard
350
18
  0
DICTIONARY
  5
19
102
{ACAD_REACTORS
330
C
102
}
330
C
100
AcDbDictionary
281
     1
  0
ACDBDICTIONARYWDFLT
  5
E
102
{ACAD_REACTORS
330
C
102
}
330
C
100
AcDbDictionary
281
     1
  3
Normal
350
F
100
AcDbDictionaryWithDefault
340
F
  0
DICTIONARY
  5
47
102
{ACAD_REACTORS
330
C
102
}
330
C
100
AcDbDictionary
281
     1
  3
A0
350
48
  3
A1
350
49
  3
A2
350
4A
  3
A3
350
4B
  3
A4
350
4C
  3
A5
350
4D
  3
A6
350
4E
  3
A7
350
4F
  3
A8
350
50
  3
A9
350
51
  3
B1
350
52
  3
B2
350
53
  3
B3
350
54
  3
B4
350
55
  3
B5
350
56
  3
B6
350
57
  3
B7
350
58
  0
XRECORD
  5
338
102
{ACAD_REACTORS
330
C
102
}
330
C
100
AcDbXrecord
280
     1
  1
DWGPROPS COOKIE
  2

  3

  4

  6

  7

  8
alekseyb
  9

300
=
301
=
302
=
303
=
304
=
305
=
306
=
307
=
308
=
309
=
 40
0.0
 41
2460510.131674387
 42
2460510.131675394
  1

 90
        0
  0
LAYOUT
  5
1E
102
{ACAD_REACTORS
330
1A
102
}
330
1A
100
AcDbPlotSettings
  1

  2
none_device
  4

  6

 40
0.0
 41
0.0
 42
0.0
 43
0.0
 44
0.0
 45
0.0
 46
0.0
 47
0.0
 48
0.0
 49
0.0
140
0.0
141
0.0
142
1.0
143
1.0
 70
   688
 72
     0
 73
     0
 74
     5
  7

 75
    16
147
1.0
148
0.0
149
0.0
100
AcDbLayout
  1
Layout1
 70
     1
 71
     1
 10
0.0
 20
0.0
 11
12.0
 21
9.0
 12
0.0
 22
0.0
 32
0.0
 14
1.0000000000E+20
 24
1.0000000000E+20
 34
1.0000000000E+20
 15
-1.0000000000E+20
 25
-1.0000000000E+20
 35
-1.0000000000E+20
146
0.0
 13
0.0
 23
0.0
 33
0.0
 16
1.0
 26
0.0
 36
0.0
 17
0.0
 27
1.0
 37
0.0
 76
     0
330
1B
  0
LAYOUT
  5
26
102
{ACAD_REACTORS
330
1A
102
}
330
1A
100
AcDbPlotSettings
  1

  2
none_device
  4

  6

 40
0.0
 41
0.0
 42
0.0
 43
0.0
 44
0.0
 45
0.0
 46
0.0
 47
0.0
 48
0.0
 49
0.0
140
0.0
141
0.0
142
1.0
143
1.0
 70
   688
 72
     0
 73
     0
 74
     5
  7

 75
    16
147
1.0
148
0.0
149
0.0
100
AcDbLayout
  1
Layout2
 70
     1
 71
     2
 10
0.0
 20
0.0
 11
0.0
 21
0.0
 12
0.0
 22
0.0
 32
0.0
 14
0.0
 24
0.0
 34
0.0
 15
0.0
 25
0.0
 35
0.0
146
0.0
 13
0.0
 23
0.0
 33
0.0
 16
1.0
 26
0.0
 36
0.0
 17
0.0
 27
1.0
 37
0.0
 76
     0
330
23
  0
LAYOUT
  5
22
102
{ACAD_REACTORS
330
1A
102
}
330
1A
100
AcDbPlotSettings
  1

  2
none_device
  4
Letter_(8.50_x_11.00_Inches)
  6

 40
6.35
 41
6.35
 42
6.35000508
 43
6.35000508
 44
215.9
 45
279.4
 46
0.0
 47
0.0
 48
0.0
 49
0.0
140
0.0
141
0.0
142
1.0
143
1.0
 70
  1712
 72
     0
 73
     0
 74
     0
  7

 75
     0
147
1.0
148
0.0
149
0.0
100
AcDbLayout
  1
Model
 70
     1
 71
     0
 10
0.0
 20
0.0
 11
33.0
 21
25.5
 12
0.0
 22
0.0
 32
0.0
 14
0.0
 24
0.0
 34
0.0
 15
33.0
 25
25.5
 35
0.0
146
0.0
 13
0.0
 23
0.0
 33
0.0
 16
1.0
 26
0.0
 36
0.0
 17
0.0
 27
1.0
 37
0.0
 76
     0
330
1F
331
29
  0
MLINESTYLE
  5
18
102
{ACAD_REACTORS
330
17
102
}
330
17
100
AcDbMlineStyle
  2
Standard
 70
     0
  3

 62
   256
 51
90.0
 52
90.0
 71
     2
 49
0.5
 62
   256
  6
BYLAYER
 49
-0.5
 62
   256
  6
BYLAYER
  0
ACDBPLACEHOLDER
  5
F
102
{ACAD_REACTORS
330
E
102
}
330
E
  0
SCALE
  5
48
102
{ACAD_REACTORS
330
47
102
}
330
47
100
AcDbScale
 70
     0
300
1:1
140
1.0
141
1.0
290
     1
  0
SCALE
  5
49
102
{ACAD_REACTORS
330
47
102
}
330
47
100
AcDbScale
 70
     0
300
1/128" = 1'-0"
140
0.0078125
141
12.0
290
     0
  0
SCALE
  5
4A
102
{ACAD_REACTORS
330
47
102
}
330
47
100
AcDbScale
 70
     0
300
1/64" = 1'-0"
140
0.015625
141
12.0
290
     0
  0
SCALE
  5
4B
102
{ACAD_REACTORS
330
47
102
}
330
47
100
AcDbScale
 70
     0
300
1/32" = 1'-0"
140
0.03125
141
12.0
290
     0
  0
SCALE
  5
4C
102
{ACAD_REACTORS
330
47
102
}
330
47
100
AcDbScale
 70
     0
300
1/16" = 1'-0"
140
0.0625
141
12.0
290
     0
  0
SCALE
  5
4D
102
{ACAD_REACTORS
330
47
102
}
330
47
100
AcDbScale
 70
     0
300
3/32" = 1'-0"
140
0.09375
141
12.0
290
     0
  0
SCALE
  5
4E
102
{ACAD_REACTORS
330
47
102
}
330
47
100
AcDbScale
 70
     0
300
1/8" = 1'-0"
140
0.125
141
12.0
290
     0
  0
SCALE
  5
4F
102
{ACAD_REACTORS
330
47
102
}
330
47
100
AcDbScale
 70
     0
300
3/16" = 1'-0"
140
0.1875
141
12.0
290
     0
  0
SCALE
  5
50
102
{ACAD_REACTORS
330
47
102
}
330
47
100
AcDbScale
 70
     0
300
1/4" = 1'-0"
140
0.25
141
12.0
290
     0
  0
SCALE
  5
51
102
{ACAD_REACTORS
330
47
102
}
330
47
100
AcDbScale
 70
     0
300
3/8" = 1'-0"
140
0.375
141
12.0
290
     0
  0
SCALE
  5
52
102
{ACAD_REACTORS
330
47
102
}
330
47
100
AcDbScale
 70
     0
300
1/2" = 1'-0"
140
0.5
141
12.0
290
     0
  0
SCALE
  5
53
102
{ACAD_REACTORS
330
47
102
}
330
47
100
AcDbScale
 70
     0
300
3/4" = 1'-0"
140
0.75
141
12.0
290
     0
  0
SCALE
  5
54
102
{ACAD_REACTORS
330
47
102
}
330
47
100
AcDbScale
 70
     0
300
1" = 1'-0"
140
1.0
141
12.0
290
     0
  0
SCALE
  5
55
102
{ACAD_REACTORS
330
47
102
}
330
47
100
AcDbScale
 70
     0
300
1-1/2" = 1'-0"
140
1.5
141
12.0
290
     0
  0
SCALE
  5
56
102
{ACAD_REACTORS
330
47
102
}
330
47
100
AcDbScale
 70
     0
300
3" = 1'-0"
140
3.0
141
12.0
290
     0
  0
SCALE
  5
57
102
{ACAD_REACTORS
330
47
102
}
330
47
100
AcDbScale
 70
     0
300
6" = 1'-0"
140
6.0
141
12.0
290
     0
  0
SCALE
  5
58
102
{ACAD_REACTORS
330
47
102
}
330
47
100
AcDbScale
 70
     0
300
1'-0" = 1'-0"
140
12.0
141
12.0
290
     0
  0
ENDSEC
  0
EOF
