  0
SECTION
  2
HEADER
  9
$ACADVER
  1
AC1015
  9
$ACADMAINTVER
 70
     6
  9
$DWGCODEPAGE
  3
ANSI_1252
  9
$INSBASE
 10
0.0
 20
0.0
 30
0.0
  9
$EXTMIN
 10
0.0
 20
0.0
 30
0.0
  9
$EXTMAX
 10
22.0
 20
17.0
 30
0.0
  9
$LIMMIN
 10
0.0
 20
0.0
  9
$LIMMAX
 10
22.0
 20
17.0
  9
$ORTHOMODE
 70
     0
  9
$REGENMODE
 70
     1
  9
$FILLMODE
 70
     1
  9
$QTEXTMODE
 70
     0
  9
$MIRRTEXT
 70
     1
  9
$LTSCALE
 40
2.0
  9
$ATTMODE
 70
     1
  9
$TEXTSIZE
 40
0.25
  9
$TRACEWID
 40
0.05
  9
$TEXTSTYLE
  7
Standard
  9
$CLAYER
  8
0
  9
$CELTYPE
  6
ByLayer
  9
$CECOLOR
 62
   256
  9
$CELTSCALE
 40
1.0
  9
$DISPSILH
 70
     0
  9
$DIMSCALE
 40
1.0
  9
$DIMASZ
 40
0.26
  9
$DIMEXO
 40
0.1
  9
$DIMDLI
 40
0.38
  9
$DIMRND
 40
0.0
  9
$DIMDLE
 40
0.0
  9
$DIMEXE
 40
0.25
  9
$DIMTP
 40
0.0
  9
$DIMTM
 40
0.0
  9
$DIMTXT
 40
0.25
  9
$DIMCEN
 40
0.09
  9
$DIMTSZ
 40
0.0
  9
$DIMTOL
 70
     0
  9
$DIMLIM
 70
     0
  9
$DIMTIH
 70
     1
  9
$DIMTOH
 70
     1
  9
$DIMSE1
 70
     0
  9
$DIMSE2
 70
     0
  9
$DIMTAD
 70
     0
  9
$DIMZIN
 70
     1
  9
$DIMBLK
  1

  9
$DIMASO
 70
     1
  9
$DIMSHO
 70
     1
  9
$DIMPOST
  1

  9
$DIMAPOST
  1

  9
$DIMALT
 70
     0
  9
$DIMALTD
 70
     2
  9
$DIMALTF
 40
25.4
  9
$DIMLFAC
 40
1.0
  9
$DIMTOFL
 70
     0
  9
$DIMTVP
 40
0.0
  9
$DIMTIX
 70
     0
  9
$DIMSOXD
 70
     0
  9
$DIMSAH
 70
     0
  9
$DIMBLK1
  1

  9
$DIMBLK2
  1

  9
$DIMSTYLE
  2
Standard
  9
$DIMCLRD
 70
     0
  9
$DIMCLRE
 70
     0
  9
$DIMCLRT
 70
     0
  9
$DIMTFAC
 40
1.0
  9
$DIMGAP
 40
0.12
  9
$DIMJUST
 70
     0
  9
$DIMSD1
 70
     0
  9
$DIMSD2
 70
     0
  9
$DIMTOLJ
 70
     1
  9
$DIMTZIN
 70
     1
  9
$DIMALTZ
 70
     0
  9
$DIMALTTZ
 70
     0
  9
$DIMUPT
 70
     0
  9
$DIMDEC
 70
     0
  9
$DIMTDEC
 70
     0
  9
$DIMALTU
 70
     2
  9
$DIMALTTD
 70
     2
  9
$DIMTXSTY
  7
Standard
  9
$DIMAUNIT
 70
     0
  9
$DIMADEC
 70
     0
  9
$DIMALTRND
 40
0.0
  9
$DIMAZIN
 70
     0
  9
$DIMDSEP
 70
    46
  9
$DIMATFIT
 70
     3
  9
$DIMFRAC
 70
     0
  9
$DIMLDRBLK
  1

  9
$DIMLUNIT
 70
     2
  9
$DIMLWD
 70
    -2
  9
$DIMLWE
 70
    -2
  9
$DIMTMOVE
 70
     0
  9
$LUNITS
 70
     2
  9
$LUPREC
 70
     6
  9
$SKETCHINC
 40
0.1
  9
$FILLETRAD
 40
0.0
  9
$AUNITS
 70
     0
  9
$AUPREC
 70
     2
  9
$MENU
  1
.
  9
$ELEVATION
 40
0.0
  9
$PELEVATION
 40
0.0
  9
$THICKNESS
 40
0.0
  9
$LIMCHECK
 70
     0
  9
$CHAMFERA
 40
0.0
  9
$CHAMFERB
 40
0.0
  9
$CHAMFERC
 40
0.0
  9
$CHAMFERD
 40
0.0
  9
$SKPOLY
 70
     0
  9
$TDCREATE
 40
2460508.067327199
  9
$TDUCREATE
 40
2460508.358993866
  9
$TDUPDATE
 40
2460508.067328044
  9
$TDUUPDATE
 40
2460508.358994711
  9
$TDINDWG
 40
0.0000000116
  9
$TDUSRTIMER
 40
0.0000000116
  9
$USRTIMER
 70
     1
  9
$ANGBASE
 50
0.0
  9
$ANGDIR
 70
     0
  9
$PDMODE
 70
     0
  9
$PDSIZE
 40
-1.0
  9
$PLINEWID
 40
0.0
  9
$SPLFRAME
 70
     0
  9
$SPLINETYPE
 70
     6
  9
$SPLINESEGS
 70
     8
  9
$HANDSEED
  5
44F
  9
$SURFTAB1
 70
     6
  9
$SURFTAB2
 70
     6
  9
$SURFTYPE
 70
     6
  9
$SURFU
 70
     6
  9
$SURFV
 70
     6
  9
$UCSBASE
  2

  9
$UCSNAME
  2

  9
$UCSORG
 10
0.0
 20
0.0
 30
0.0
  9
$UCSXDIR
 10
1.0
 20
0.0
 30
0.0
  9
$UCSYDIR
 10
0.0
 20
1.0
 30
0.0
  9
$UCSORTHOREF
  2

  9
$UCSORTHOVIEW
 70
     0
  9
$UCSORGTOP
 10
0.0
 20
0.0
 30
0.0
  9
$UCSORGBOTTOM
 10
0.0
 20
0.0
 30
0.0
  9
$UCSORGLEFT
 10
0.0
 20
0.0
 30
0.0
  9
$UCSORGRIGHT
 10
0.0
 20
0.0
 30
0.0
  9
$UCSORGFRONT
 10
0.0
 20
0.0
 30
0.0
  9
$UCSORGBACK
 10
0.0
 20
0.0
 30
0.0
  9
$PUCSBASE
  2

  9
$PUCSNAME
  2

  9
$PUCSORG
 10
0.0
 20
0.0
 30
0.0
  9
$PUCSXDIR
 10
1.0
 20
0.0
 30
0.0
  9
$PUCSYDIR
 10
0.0
 20
1.0
 30
0.0
  9
$PUCSORTHOREF
  2

  9
$PUCSORTHOVIEW
 70
     0
  9
$PUCSORGTOP
 10
0.0
 20
0.0
 30
0.0
  9
$PUCSORGBOTTOM
 10
0.0
 20
0.0
 30
0.0
  9
$PUCSORGLEFT
 10
0.0
 20
0.0
 30
0.0
  9
$PUCSORGRIGHT
 10
0.0
 20
0.0
 30
0.0
  9
$PUCSORGFRONT
 10
0.0
 20
0.0
 30
0.0
  9
$PUCSORGBACK
 10
0.0
 20
0.0
 30
0.0
  9
$USERI1
 70
     0
  9
$USERI2
 70
     0
  9
$USERI3
 70
     0
  9
$USERI4
 70
     0
  9
$USERI5
 70
     0
  9
$USERR1
 40
0.0
  9
$USERR2
 40
0.0
  9
$USERR3
 40
0.0
  9
$USERR4
 40
0.0
  9
$USERR5
 40
0.0
  9
$WORLDVIEW
 70
     1
  9
$SHADEDGE
 70
     3
  9
$SHADEDIF
 70
    70
  9
$TILEMODE
 70
     1
  9
$MAXACTVP
 70
    64
  9
$PINSBASE
 10
0.0
 20
0.0
 30
0.0
  9
$PLIMCHECK
 70
     0
  9
$PEXTMIN
 10
1.0000000000E+20
 20
1.0000000000E+20
 30
1.0000000000E+20
  9
$PEXTMAX
 10
-1.0000000000E+20
 20
-1.0000000000E+20
 30
-1.0000000000E+20
  9
$PLIMMIN
 10
0.0
 20
0.0
  9
$PLIMMAX
 10
12.0
 20
9.0
  9
$UNITMODE
 70
     0
  9
$VISRETAIN
 70
     1
  9
$PLINEGEN
 70
     0
  9
$PSLTSCALE
 70
     1
  9
$TREEDEPTH
 70
  3020
  9
$CMLSTYLE
  2
Standard
  9
$CMLJUST
 70
     0
  9
$CMLSCALE
 40
1.0
  9
$PROXYGRAPHICS
 70
     1
  9
$MEASUREMENT
 70
     0
  9
$CELWEIGHT
370
    -1
  9
$ENDCAPS
280
     0
  9
$JOINSTYLE
280
     0
  9
$LWDISPLAY
290
     1
  9
$INSUNITS
 70
     1
  9
$HYPERLINKBASE
  1

  9
$STYLESHEET
  1

  9
$XEDIT
290
     1
  9
$CEPSNTYPE
380
     0
  9
$PSTYLEMODE
290
     1
  9
$FINGERPRINTGUID
  2
{93181618-a484-44b1-a194-0136d5252a6b}
  9
$VERSIONGUID
  2
{FAEB1C32-E019-11D5-929B-00C0DF256EC4}
  9
$EXTNAMES
290
     1
  9
$PSVPSCALE
 40
0.0
  9
$OLESTARTUP
290
     0
  0
ENDSEC
  0
SECTION
  2
CLASSES
  0
CLASS
  1
ACDBDICTIONARYWDFLT
  2
AcDbDictionaryWithDefault
  3
ObjectDBX Classes
 90
        0
280
     0
281
     0
  0
CLASS
  1
VISUALSTYLE
  2
AcDbVisualStyle
  3
ObjectDBX Classes
 90
     4095
280
     0
281
     0
  0
CLASS
  1
MATERIAL
  2
AcDbMaterial
  3
ObjectDBX Classes
 90
     1153
280
     0
281
     0
  0
CLASS
  1
SCALE
  2
AcDbScale
  3
ObjectDBX Classes
 90
     1153
280
     0
281
     0
  0
CLASS
  1
TABLESTYLE
  2
AcDbTableStyle
  3
ObjectDBX Classes
 90
     4095
280
     0
281
     0
  0
CLASS
  1
MLEADERSTYLE
  2
AcDbMLeaderStyle
  3
ACDB_MLEADERSTYLE_CLASS
 90
     4095
280
     0
281
     0
  0
CLASS
  1
SUN
  2
AcDbSun
  3
SCENEOE
 90
     1153
280
     0
281
     0
  0
CLASS
  1
ACDBPLACEHOLDER
  2
AcDbPlaceHolder
  3
ObjectDBX Classes
 90
        0
280
     0
281
     0
  0
CLASS
  1
LAYOUT
  2
AcDbLayout
  3
ObjectDBX Classes
 90
        0
280
     0
281
     0
  0
ENDSEC
  0
SECTION
  2
TABLES
  0
TABLE
  2
VPORT
  5
8
330
0
100
AcDbSymbolTable
 70
     1
  0
VPORT
  5
29
330
8
100
AcDbSymbolTableRecord
100
AcDbViewportTableRecord
  2
*Active
 70
     0
 10
0.0
 20
0.0
 11
1.0
 21
1.0
 12
11.0
 22
8.5
 13
0.0
 23
0.0
 14
0.5
 24
0.5
 15
0.5
 25
0.5
 16
0.0
 26
0.0
 36
1.0
 17
0.0
 27
0.0
 37
0.0
 40
17.0
 41
1.2941176471
 42
50.0
 43
0.0
 44
0.0
 50
0.0
 51
0.0
 71
     0
 72
  2000
 73
     1
 74
     3
 75
     0
 76
     0
 77
     0
 78
     0
281
     0
 65
     1
110
0.0
120
0.0
130
0.0
111
1.0
121
0.0
131
0.0
112
0.0
122
1.0
132
0.0
 79
     0
146
0.0
  0
ENDTAB
  0
TABLE
  2
LTYPE
  5
5
330
0
100
AcDbSymbolTable
 70
     6
  0
LTYPE
  5
14
330
5
100
AcDbSymbolTableRecord
100
AcDbLinetypeTableRecord
  2
ByBlock
 70
     0
  3

 72
    65
 73
     0
 40
0.0
  0
LTYPE
  5
15
330
5
100
AcDbSymbolTableRecord
100
AcDbLinetypeTableRecord
  2
ByLayer
 70
     0
  3

 72
    65
 73
     0
 40
0.0
  0
LTYPE
  5
16
330
5
100
AcDbSymbolTableRecord
100
AcDbLinetypeTableRecord
  2
Continuous
 70
     0
  3
Solid line
 72
    65
 73
     0
 40
0.0
  0
LTYPE
  5
5E
330
5
100
AcDbSymbolTableRecord
100
AcDbLinetypeTableRecord
  2
HIDDEN
 70
     0
  3
Hidden __ __ __ __ __ __ __ __ __ __ __ __ __ __
 72
    65
 73
     2
 40
0.075
 49
0.05
 74
     0
 49
-0.025
 74
     0
  0
LTYPE
  5
5F
330
5
100
AcDbSymbolTableRecord
100
AcDbLinetypeTableRecord
  2
PHANTOM
 70
     0
  3
Phantom ______  __  __  ______  __  __  ______
 72
    65
 73
     6
 40
0.5
 49
0.25
 74
     0
 49
-0.05
 74
     0
 49
0.05
 74
     0
 49
-0.05
 74
     0
 49
0.05
 74
     0
 49
-0.05
 74
     0
  0
LTYPE
  5
60
330
5
100
AcDbSymbolTableRecord
100
AcDbLinetypeTableRecord
  2
CENTER
 70
     0
  3
Center ____ _ ____ _ ____ _ ____ _ ____ _ ____
 72
    65
 73
     4
 40
0.4
 49
0.25
 74
     0
 49
-0.05
 74
     0
 49
0.05
 74
     0
 49
-0.05
 74
     0
  0
LTYPE
  5
61
330
5
100
AcDbSymbolTableRecord
100
AcDbLinetypeTableRecord
  2
CENTERX2
 70
     0
  3
Center (2x) ________  __  ________  __  _____
 72
    65
 73
     4
 40
0.8
 49
0.5
 74
     0
 49
-0.1
 74
     0
 49
0.1
 74
     0
 49
-0.1
 74
     0
  0
LTYPE
  5
62
330
5
100
AcDbSymbolTableRecord
100
AcDbLinetypeTableRecord
  2
DOT2
 70
     0
  3
Dot (.5x) ........................................
 72
    65
 73
     2
 40
0.025
 49
0.0
 74
     0
 49
-0.025
 74
     0
  0
ENDTAB
  0
TABLE
  2
LAYER
  5
2
330
0
100
AcDbSymbolTable
 70
    12
  0
LAYER
  5
10
330
2
100
AcDbSymbolTableRecord
100
AcDbLayerTableRecord
  2
0
 70
     0
 62
     7
  6
Continuous
370
    -3
390
F
  0
LAYER
  5
63
330
2
100
AcDbSymbolTableRecord
100
AcDbLayerTableRecord
  2
SLD-0
 70
     0
 62
     7
  6
Continuous
370
    -3
390
F
  0
LAYER
  5
64
330
2
100
AcDbSymbolTableRecord
100
AcDbLayerTableRecord
  2
DIM
 70
     0
 62
     7
  6
Continuous
370
    -3
390
F
  0
LAYER
  5
65
330
2
100
AcDbSymbolTableRecord
100
AcDbLayerTableRecord
  2
CEN
 70
     0
 62
     1
  6
CENTER
370
    -3
390
F
  0
LAYER
  5
66
330
2
100
AcDbSymbolTableRecord
100
AcDbLayerTableRecord
  2
HAT
 70
     0
 62
     4
  6
Continuous
370
    -3
390
F
  0
LAYER
  5
67
330
2
100
AcDbSymbolTableRecord
100
AcDbLayerTableRecord
  2
OBJ
 70
     0
 62
     5
  6
Continuous
370
    -3
390
F
  0
LAYER
  5
68
330
2
100
AcDbSymbolTableRecord
100
AcDbLayerTableRecord
  2
SLD-DEFPOINTS
 70
     0
 62
     7
  6
Continuous
370
    -3
390
F
  0
LAYER
  5
69
330
2
100
AcDbSymbolTableRecord
100
AcDbLayerTableRecord
  2
HID
 70
     0
 62
     4
  6
HIDDEN
370
    -3
390
F
  0
LAYER
  5
6A
330
2
100
AcDbSymbolTableRecord
100
AcDbLayerTableRecord
  2
NOTE
 70
     0
 62
     7
  6
Continuous
370
    -3
390
F
  0
LAYER
  5
6B
330
2
100
AcDbSymbolTableRecord
100
AcDbLayerTableRecord
  2
VP
 70
     0
 62
    -5
  6
Continuous
290
     0
370
    -3
390
F
  0
LAYER
  5
6C
330
2
100
AcDbSymbolTableRecord
100
AcDbLayerTableRecord
  2
TITLE
 70
     0
 62
     7
  6
Continuous
370
    -3
390
F
  0
LAYER
  5
6D
330
2
100
AcDbSymbolTableRecord
100
AcDbLayerTableRecord
  2
THICK_TITLE
 70
     0
 62
     7
  6
Continuous
370
   100
390
F
  0
ENDTAB
  0
TABLE
  2
STYLE
  5
3
330
0
100
AcDbSymbolTable
 70
     2
  0
STYLE
  5
11
330
3
100
AcDbSymbolTableRecord
100
AcDbTextStyleTableRecord
  2
Standard
 70
     0
 40
0.0
 41
1.0
 50
0.0
 71
     0
 42
0.25
  3
txt
  4

  0
STYLE
  5
6E
330
3
100
AcDbSymbolTableRecord
100
AcDbTextStyleTableRecord
  2
SLDTEXTSTYLE0
 70
     0
 40
0.0
 41
0.75
 50
0.0
 71
     0
 42
0.25
  3
TXT
  4

  0
ENDTAB
  0
TABLE
  2
VIEW
  5
6
330
0
100
AcDbSymbolTable
 70
     0
  0
ENDTAB
  0
TABLE
  2
UCS
  5
7
330
0
100
AcDbSymbolTable
 70
     0
  0
ENDTAB
  0
TABLE
  2
APPID
  5
9
330
0
100
AcDbSymbolTable
 70
     1
  0
APPID
  5
12
330
9
100
AcDbSymbolTableRecord
100
AcDbRegAppTableRecord
  2
ACAD
 70
     0
  0
ENDTAB
  0
TABLE
  2
DIMSTYLE
  5
A
330
0
100
AcDbSymbolTable
 70
     8
100
AcDbDimStyleTable
  0
DIMSTYLE
105
27
330
A
100
AcDbSymbolTableRecord
100
AcDbDimStyleTableRecord
  2
Standard
 70
     0
178
     0
340
11
  0
DIMSTYLE
105
1EC
102
{ACAD_REACTORS
330
1EB
102
}
330
A
100
AcDbSymbolTableRecord
100
AcDbDimStyleTableRecord
  2
SLDDIMSTYLE0
 70
     0
 41
0.26
 44
0.0
 45
0.000000001
 78
    12
 79
     3
140
0.25
147
0.0625
148
0.000000001
170
     1
172
     1
173
     1
178
     0
271
     6
272
     0
276
     2
277
     5
284
    12
289
     0
340
6E
  0
DIMSTYLE
105
201
102
{ACAD_REACTORS
330
200
330
360
102
}
330
A
100
AcDbSymbolTableRecord
100
AcDbDimStyleTableRecord
  2
SLDDIMSTYLE1
 70
     0
 41
0.26
 44
0.0
 45
0.000000001
 78
    12
 79
     3
140
0.25
147
0.0625
148
0.000000001
170
     1
173
     1
178
     0
271
     6
272
     0
276
     2
277
     5
284
    12
340
6E
  0
DIMSTYLE
105
217
330
A
100
AcDbSymbolTableRecord
100
AcDbDimStyleTableRecord
  2
SLDDIMSTYLE2
 70
     0
 41
0.26
 44
0.0
 45
0.000000001
146
0.26
147
0.0
173
     1
178
     0
271
     0
272
     0
276
     2
277
     5
340
11
  0
DIMSTYLE
105
34D
102
{ACAD_REACTORS
330
34C
102
}
330
A
100
AcDbSymbolTableRecord
100
AcDbDimStyleTableRecord
  2
SLDDIMSTYLE3
 70
     0
 41
0.26
 44
0.0
 45
0.000000001
 78
    12
 79
     3
140
0.25
147
0.0625
148
0.000000001
170
     1
173
     1
178
     0
271
     0
272
     0
276
     2
277
     5
284
    12
340
6E
  0
DIMSTYLE
105
399
102
{ACAD_REACTORS
330
398
330
40B
102
}
330
A
100
AcDbSymbolTableRecord
100
AcDbDimStyleTableRecord
  2
SLDDIMSTYLE4
 70
     0
 41
0.26
 44
0.0
 45
0.000000001
 78
    12
 79
     3
140
0.25
141
0.0
144
1.5
147
0.0625
148
0.000000001
170
     1
173
     1
178
     0
271
     0
272
     0
276
     2
277
     5
284
    12
340
6E
  0
DIMSTYLE
105
3AA
102
{ACAD_REACTORS
330
3A9
330
41B
102
}
330
A
100
AcDbSymbolTableRecord
100
AcDbDimStyleTableRecord
  2
SLDDIMSTYLE5
 70
     0
 41
0.26
 44
0.0
 45
0.000000001
 78
    12
 79
     3
140
0.25
144
1.5
147
0.0625
148
0.000000001
170
     1
172
     1
173
     1
178
     0
271
     6
272
     0
276
     2
277
     5
284
    12
289
     0
340
6E
  0
DIMSTYLE
105
3D5
102
{ACAD_REACTORS
330
3D4
330
443
102
}
330
A
100
AcDbSymbolTableRecord
100
AcDbDimStyleTableRecord
  2
SLDDIMSTYLE6
 70
     0
 41
0.26
 44
0.0
 78
    12
 79
     3
140
0.25
144
3.0
147
0.0625
148
0.000000001
170
     1
173
     1
178
     0
179
     2
272
     2
276
     2
277
     5
284
    12
340
6E
  0
ENDTAB
  0
TABLE
  2
BLOCK_RECORD
  5
1
330
0
100
AcDbSymbolTable
 70
    11
  0
BLOCK_RECORD
  5
1F
330
1
100
AcDbSymbolTableRecord
100
AcDbBlockTableRecord
  2
*Model_Space
340
22
  0
BLOCK_RECORD
  5
1B
330
1
100
AcDbSymbolTableRecord
100
AcDbBlockTableRecord
  2
*Paper_Space
340
1E
  0
BLOCK_RECORD
  5
23
330
1
100
AcDbSymbolTableRecord
100
AcDbBlockTableRecord
  2
*Paper_Space0
340
26
  0
BLOCK_RECORD
  5
1ED
330
1
100
AcDbSymbolTableRecord
100
AcDbBlockTableRecord
  2
_D
340
0
  0
BLOCK_RECORD
  5
202
330
1
100
AcDbSymbolTableRecord
100
AcDbBlockTableRecord
  2
_D_1
340
0
  0
BLOCK_RECORD
  5
34E
330
1
100
AcDbSymbolTableRecord
100
AcDbBlockTableRecord
  2
_D_2
340
0
  0
BLOCK_RECORD
  5
361
330
1
100
AcDbSymbolTableRecord
100
AcDbBlockTableRecord
  2
_D_3
340
0
  0
BLOCK_RECORD
  5
39A
330
1
100
AcDbSymbolTableRecord
100
AcDbBlockTableRecord
  2
_D_4
340
0
  0
BLOCK_RECORD
  5
3AB
330
1
100
AcDbSymbolTableRecord
100
AcDbBlockTableRecord
  2
_D_5
340
0
  0
BLOCK_RECORD
  5
3D6
330
1
100
AcDbSymbolTableRecord
100
AcDbBlockTableRecord
  2
_D_6
340
0
  0
BLOCK_RECORD
  5
40C
330
1
100
AcDbSymbolTableRecord
100
AcDbBlockTableRecord
  2
_D_7
340
0
  0
BLOCK_RECORD
  5
41C
330
1
100
AcDbSymbolTableRecord
100
AcDbBlockTableRecord
  2
_D_8
340
0
  0
BLOCK_RECORD
  5
444
330
1
100
AcDbSymbolTableRecord
100
AcDbBlockTableRecord
  2
_D_9
340
0
  0
ENDTAB
  0
ENDSEC
  0
SECTION
  2
BLOCKS
  0
BLOCK
  5
20
330
1F
100
AcDbEntity
  8
0
100
AcDbBlockBegin
  2
*Model_Space
 70
     0
 10
0.0
 20
0.0
 30
0.0
  3
*Model_Space
  1

  0
ENDBLK
  5
21
330
1F
100
AcDbEntity
  8
0
100
AcDbBlockEnd
  0
BLOCK
  5
1C
330
1B
100
AcDbEntity
 67
     1
  8
0
100
AcDbBlockBegin
  2
*Paper_Space
 70
     0
 10
0.0
 20
0.0
 30
0.0
  3
*Paper_Space
  1

  0
ENDBLK
  5
1D
330
1B
100
AcDbEntity
 67
     1
  8
0
100
AcDbBlockEnd
  0
BLOCK
  5
24
330
23
100
AcDbEntity
  8
0
100
AcDbBlockBegin
  2
*Paper_Space0
 70
     0
 10
0.0
 20
0.0
 30
0.0
  3
*Paper_Space0
  1

  0
ENDBLK
  5
25
330
23
100
AcDbEntity
  8
0
100
AcDbBlockEnd
  0
BLOCK
  5
1EE
330
1ED
100
AcDbEntity
  8
0
100
AcDbBlockBegin
  2
_D
 70
     0
 10
0.0
 20
0.0
 30
0.0
  3
_D
  1

  0
SOLID
  5
1F0
330
1ED
100
AcDbEntity
  8
0
  6
Continuous
 62
     7
370
    18
100
AcDbTrace
 10
12.2628377326
 20
13.8787235121
 30
0.0
 11
12.0028377326
 21
13.9187235121
 31
0.0
 12
12.0028377326
 22
13.8387235121
 32
0.0
 13
12.0028377326
 23
13.8387235121
 33
0.0
  0
SOLID
  5
1F1
330
1ED
100
AcDbEntity
  8
0
  6
Continuous
 62
     7
370
    18
100
AcDbTrace
 10
13.6378377326
 20
13.8787235121
 30
0.0
 11
13.8978377326
 21
13.8387235121
 31
0.0
 12
13.8978377326
 22
13.9187235121
 32
0.0
 13
13.8978377326
 23
13.9187235121
 33
0.0
  0
LINE
  5
1F2
330
1ED
100
AcDbEntity
  8
0
  6
Continuous
 62
     7
370
     0
100
AcDbLine
 10
12.4531155365
 20
13.8768137508
 30
0.0
 11
12.3769436623
 21
13.8768137508
 31
0.0
  0
LINE
  5
1F3
330
1ED
100
AcDbEntity
  8
0
  6
Continuous
 62
     7
370
     0
100
AcDbLine
 10
12.3769436623
 20
13.8768137508
 30
0.0
 11
12.3769436623
 21
13.4799387389
 31
0.0
  0
LINE
  5
1F4
330
1ED
100
AcDbEntity
  8
0
  6
Continuous
 62
     7
370
     0
100
AcDbLine
 10
12.3769436623
 20
13.4799387389
 30
0.0
 11
12.4531155365
 21
13.4799387389
 31
0.0
  0
LINE
  5
1F5
330
1ED
100
AcDbEntity
  8
0
  6
Continuous
 62
     7
370
     0
100
AcDbLine
 10
13.447560002
 20
13.8768137508
 30
0.0
 11
13.5237318762
 21
13.8768137508
 31
0.0
  0
LINE
  5
1F6
330
1ED
100
AcDbEntity
  8
0
  6
Continuous
 62
     7
370
     0
100
AcDbLine
 10
13.5237318762
 20
13.8768137508
 30
0.0
 11
13.5237318762
 21
13.4799387389
 31
0.0
  0
LINE
  5
1F7
330
1ED
100
AcDbEntity
  8
0
  6
Continuous
 62
     7
370
     0
100
AcDbLine
 10
13.5237318762
 20
13.4799387389
 30
0.0
 11
13.447560002
 21
13.4799387389
 31
0.0
  0
LINE
  5
1F8
330
1ED
100
AcDbEntity
  8
0
  6
Continuous
 62
     7
370
     0
100
AcDbLine
 10
12.2628377326
 20
12.7900065332
 30
0.0
 11
12.2628377326
 21
14.1287235121
 31
0.0
  0
LINE
  5
1F9
330
1ED
100
AcDbEntity
  8
0
  6
Continuous
 62
     7
370
     0
100
AcDbLine
 10
13.6378377326
 20
10.2900065332
 30
0.0
 11
13.6378377326
 21
14.1287235121
 31
0.0
  0
LINE
  5
1FA
330
1ED
100
AcDbEntity
  8
0
  6
Continuous
 62
     7
370
     0
100
AcDbLine
 10
12.2628377326
 20
13.8787235121
 30
0.0
 11
11.7628377326
 21
13.8787235121
 31
0.0
  0
LINE
  5
1FB
330
1ED
100
AcDbEntity
  8
0
  6
Continuous
 62
     7
370
     0
100
AcDbLine
 10
13.6378377326
 20
13.8787235121
 30
0.0
 11
14.1378377326
 21
13.8787235121
 31
0.0
  0
MTEXT
  5
1FC
330
1ED
100
AcDbEntity
  8
0
  6
Continuous
 62
     7
370
    18
100
AcDbMText
 10
12.3021606767
 20
14.2536814058
 30
0.0
 40
0.25
 41
0.0
 71
     1
 72
     1
  1

  7
SLDTEXTSTYLE0
 73
     1
 44
1.0
  0
MTEXT
  5
1FD
330
1ED
100
AcDbEntity
  8
0
  6
Continuous
 62
     7
370
    18
100
AcDbMText
 10
12.5025947066
 20
14.2498619429
 30
0.0
 40
0.25
 41
0.0
 71
     1
 72
     1
  1
1 3/8"
  7
SLDTEXTSTYLE0
 73
     1
 44
1.0
  0
MTEXT
  5
1FE
330
1ED
100
AcDbEntity
  8
0
  6
Continuous
 62
     7
370
    18
100
AcDbMText
 10
12.4531155365
 20
13.8022057013
 30
0.0
 40
0.25
 41
0.0
 71
     1
 72
     1
  1
35mm
  7
SLDTEXTSTYLE0
 73
     1
 44
1.0
  0
MTEXT
  5
1FF
330
1ED
100
AcDbEntity
  8
0
  6
Continuous
 62
     7
370
    18
100
AcDbMText
 10
13.6936536954
 20
14.2536814058
 30
0.0
 40
0.25
 41
0.0
 71
     1
 72
     1
  1

  7
SLDTEXTSTYLE0
 73
     1
 44
1.0
  0
ENDBLK
  5
1EF
330
1ED
100
AcDbEntity
  8
0
100
AcDbBlockEnd
  0
BLOCK
  5
203
330
202
100
AcDbEntity
  8
0
100
AcDbBlockBegin
  2
_D_1
 70
     0
 10
0.0
 20
0.0
 30
0.0
  3
_D_1
  1

  0
SOLID
  5
205
330
202
100
AcDbEntity
  8
0
  6
Continuous
 62
     7
370
    18
100
AcDbTrace
 10
12.2628377326
 20
13.8787235121
 30
0.0
 11
12.0028377326
 21
13.9187235121
 31
0.0
 12
12.0028377326
 22
13.8387235121
 32
0.0
 13
12.0028377326
 23
13.8387235121
 33
0.0
  0
SOLID
  5
206
330
202
100
AcDbEntity
  8
0
  6
Continuous
 62
     7
370
    18
100
AcDbTrace
 10
8.9088377326
 20
13.8787235121
 30
0.0
 11
9.1688377326
 21
13.8387235121
 31
0.0
 12
9.1688377326
 22
13.9187235121
 32
0.0
 13
9.1688377326
 23
13.9187235121
 33
0.0
  0
LINE
  5
207
330
202
100
AcDbEntity
  8
0
  6
Continuous
 62
     7
370
     0
100
AcDbLine
 10
10.0886155365
 20
13.8768137508
 30
0.0
 11
10.0124436623
 21
13.8768137508
 31
0.0
  0
LINE
  5
208
330
202
100
AcDbEntity
  8
0
  6
Continuous
 62
     7
370
     0
100
AcDbLine
 10
10.0124436623
 20
13.8768137508
 30
0.0
 11
10.0124436623
 21
13.4799387389
 31
0.0
  0
LINE
  5
209
330
202
100
AcDbEntity
  8
0
  6
Continuous
 62
     7
370
     0
100
AcDbLine
 10
10.0124436623
 20
13.4799387389
 30
0.0
 11
10.0886155365
 21
13.4799387389
 31
0.0
  0
LINE
  5
20A
330
202
100
AcDbEntity
  8
0
  6
Continuous
 62
     7
370
     0
100
AcDbLine
 10
11.083060002
 20
13.8768137508
 30
0.0
 11
11.1592318762
 21
13.8768137508
 31
0.0
  0
LINE
  5
20B
330
202
100
AcDbEntity
  8
0
  6
Continuous
 62
     7
370
     0
100
AcDbLine
 10
11.1592318762
 20
13.8768137508
 30
0.0
 11
11.1592318762
 21
13.4799387389
 31
0.0
  0
LINE
  5
20C
330
202
100
AcDbEntity
  8
0
  6
Continuous
 62
     7
370
     0
100
AcDbLine
 10
11.1592318762
 20
13.4799387389
 30
0.0
 11
11.083060002
 21
13.4799387389
 31
0.0
  0
LINE
  5
20D
330
202
100
AcDbEntity
  8
0
  6
Continuous
 62
     7
370
     0
100
AcDbLine
 10
12.2628377326
 20
12.7900065332
 30
0.0
 11
12.2628377326
 21
14.1287235121
 31
0.0
  0
LINE
  5
20E
330
202
100
AcDbEntity
  8
0
  6
Continuous
 62
     7
370
     0
100
AcDbLine
 10
8.9088377326
 20
12.3825065332
 30
0.0
 11
8.9088377326
 21
14.1287235121
 31
0.0
  0
LINE
  5
20F
330
202
100
AcDbEntity
  8
0
  6
Continuous
 62
     7
370
     0
100
AcDbLine
 10
12.2628377326
 20
13.8787235121
 30
0.0
 11
11.3784680548
 21
13.8787235121
 31
0.0
  0
LINE
  5
210
330
202
100
AcDbEntity
  8
0
  6
Continuous
 62
     7
370
     0
100
AcDbLine
 10
8.9088377326
 20
13.8787235121
 30
0.0
 11
9.7932074104
 21
13.8787235121
 31
0.0
  0
MTEXT
  5
211
330
202
100
AcDbEntity
  8
0
  6
Continuous
 62
     7
370
    18
100
AcDbMText
 10
9.9376606767
 20
14.2536814058
 30
0.0
 40
0.25
 41
0.0
 71
     1
 72
     1
  1

  7
SLDTEXTSTYLE0
 73
     1
 44
1.0
  0
MTEXT
  5
212
330
202
100
AcDbEntity
  8
0
  6
Continuous
 62
     7
370
    18
100
AcDbMText
 10
10.1380947066
 20
14.2498619429
 30
0.0
 40
0.25
 41
0.0
 71
     1
 72
     1
  1
3 3/8"
  7
SLDTEXTSTYLE0
 73
     1
 44
1.0
  0
MTEXT
  5
213
330
202
100
AcDbEntity
  8
0
  6
Continuous
 62
     7
370
    18
100
AcDbMText
 10
10.0886155365
 20
13.8022057013
 30
0.0
 40
0.25
 41
0.0
 71
     1
 72
     1
  1
85mm
  7
SLDTEXTSTYLE0
 73
     1
 44
1.0
  0
MTEXT
  5
214
330
202
100
AcDbEntity
  8
0
  6
Continuous
 62
     7
370
    18
100
AcDbMText
 10
11.3291536954
 20
14.2536814058
 30
0.0
 40
0.25
 41
0.0
 71
     1
 72
     1
  1

  7
SLDTEXTSTYLE0
 73
     1
 44
1.0
  0
ENDBLK
  5
204
330
202
100
AcDbEntity
  8
0
100
AcDbBlockEnd
  0
BLOCK
  5
34F
330
34E
100
AcDbEntity
  8
0
100
AcDbBlockBegin
  2
_D_2
 70
     0
 10
0.0
 20
0.0
 30
0.0
  3
_D_2
  1

  0
SOLID
  5
351
330
34E
100
AcDbEntity
  8
0
  6
Continuous
 62
     7
370
    18
100
AcDbTrace
 10
1.4270473041
 20
13.9642921624
 30
0.0
 11
1.6870473041
 21
13.9242921624
 31
0.0
 12
1.6870473041
 22
14.0042921624
 32
0.0
 13
1.6870473041
 23
14.0042921624
 33
0.0
  0
SOLID
  5
352
330
34E
100
AcDbEntity
  8
0
  6
Continuous
 62
     7
370
    18
100
AcDbTrace
 10
6.4320473041
 20
13.9642921624
 30
0.0
 11
6.1720473041
 21
14.0042921624
 31
0.0
 12
6.1720473041
 22
13.9242921624
 32
0.0
 13
6.1720473041
 23
13.9242921624
 33
0.0
  0
LINE
  5
353
330
34E
100
AcDbEntity
  8
0
  6
Continuous
 62
     7
370
     0
100
AcDbLine
 10
2.9212140141
 20
13.9623824011
 30
0.0
 11
2.8450421399
 21
13.9623824011
 31
0.0
  0
LINE
  5
354
330
34E
100
AcDbEntity
  8
0
  6
Continuous
 62
     7
370
     0
100
AcDbLine
 10
2.8450421399
 20
13.9623824011
 30
0.0
 11
2.8450421399
 21
13.5655073892
 31
0.0
  0
LINE
  5
355
330
34E
100
AcDbEntity
  8
0
  6
Continuous
 62
     7
370
     0
100
AcDbLine
 10
2.8450421399
 20
13.5655073892
 30
0.0
 11
2.9212140141
 21
13.5655073892
 31
0.0
  0
LINE
  5
356
330
34E
100
AcDbEntity
  8
0
  6
Continuous
 62
     7
370
     0
100
AcDbLine
 10
4.1003806656
 20
13.9623824011
 30
0.0
 11
4.1765525398
 21
13.9623824011
 31
0.0
  0
LINE
  5
357
330
34E
100
AcDbEntity
  8
0
  6
Continuous
 62
     7
370
     0
100
AcDbLine
 10
4.1765525398
 20
13.9623824011
 30
0.0
 11
4.1765525398
 21
13.5655073892
 31
0.0
  0
LINE
  5
358
330
34E
100
AcDbEntity
  8
0
  6
Continuous
 62
     7
370
     0
100
AcDbLine
 10
4.1765525398
 20
13.5655073892
 30
0.0
 11
4.1003806656
 21
13.5655073892
 31
0.0
  0
LINE
  5
359
330
34E
100
AcDbEntity
  8
0
  6
Continuous
 62
     7
370
     0
100
AcDbLine
 10
1.4270473041
 20
10.2900250427
 30
0.0
 11
1.4270473041
 21
14.2142921624
 31
0.0
  0
LINE
  5
35A
330
34E
100
AcDbEntity
  8
0
  6
Continuous
 62
     7
370
     0
100
AcDbLine
 10
6.4320473041
 20
10.2900250427
 30
0.0
 11
6.4320473041
 21
14.2142921624
 31
0.0
  0
LINE
  5
35B
330
34E
100
AcDbEntity
  8
0
  6
Continuous
 62
     7
370
     0
100
AcDbLine
 10
1.4270473041
 20
13.9642921624
 30
0.0
 11
2.7181669993
 21
13.9642921624
 31
0.0
  0
LINE
  5
35C
330
34E
100
AcDbEntity
  8
0
  6
Continuous
 62
     7
370
     0
100
AcDbLine
 10
6.4320473041
 20
13.9642921624
 30
0.0
 11
5.1409276088
 21
13.9642921624
 31
0.0
  0
MTEXT
  5
35D
330
34E
100
AcDbEntity
  8
0
  6
Continuous
 62
     7
370
    18
100
AcDbMText
 10
3.3668737099
 20
14.3354305932
 30
0.0
 40
0.25
 41
0.0
 71
     1
 72
     1
  1
5"
  7
SLDTEXTSTYLE0
 73
     1
 44
1.0
  0
MTEXT
  5
35E
330
34E
100
AcDbEntity
  8
0
  6
Continuous
 62
     7
370
    18
100
AcDbMText
 10
2.9212140141
 20
13.8877743516
 30
0.0
 40
0.25
 41
0.0
 71
     1
 72
     1
  1
127mm
  7
SLDTEXTSTYLE0
 73
     1
 44
1.0
  0
MTEXT
  5
35F
330
34E
100
AcDbEntity
  8
0
  6
Continuous
 62
     7
370
    18
100
AcDbMText
 10
4.3464743774
 20
14.3392500561
 30
0.0
 40
0.25
 41
0.0
 71
     1
 72
     1
  1
O.C.
  7
SLDTEXTSTYLE0
 73
     1
 44
1.0
  0
ENDBLK
  5
350
330
34E
100
AcDbEntity
  8
0
100
AcDbBlockEnd
  0
BLOCK
  5
362
330
361
100
AcDbEntity
  8
0
100
AcDbBlockBegin
  2
_D_3
 70
     0
 10
0.0
 20
0.0
 30
0.0
  3
_D_3
  1

  0
SOLID
  5
364
330
361
100
AcDbEntity
  8
0
  6
Continuous
 62
     7
370
    18
100
AcDbTrace
 10
1.7795473041
 20
12.9133206485
 30
0.0
 11
2.0395473041
 21
12.8733206485
 31
0.0
 12
2.0395473041
 22
12.9533206485
 32
0.0
 13
2.0395473041
 23
12.9533206485
 33
0.0
  0
SOLID
  5
365
330
361
100
AcDbEntity
  8
0
  6
Continuous
 62
     7
370
    18
100
AcDbTrace
 10
6.0795473041
 20
12.9133206485
 30
0.0
 11
5.8195473041
 21
12.9533206485
 31
0.0
 12
5.8195473041
 22
12.8733206485
 32
0.0
 13
5.8195473041
 23
12.8733206485
 33
0.0
  0
LINE
  5
366
330
361
100
AcDbEntity
  8
0
  6
Continuous
 62
     7
370
     0
100
AcDbLine
 10
3.3399639966
 20
12.9133206118
 30
0.0
 11
3.2637921224
 21
12.9133206118
 31
0.0
  0
LINE
  5
367
330
361
100
AcDbEntity
  8
0
  6
Continuous
 62
     7
370
     0
100
AcDbLine
 10
3.2637921224
 20
12.9133206118
 30
0.0
 11
3.2637921224
 21
12.5164455999
 31
0.0
  0
LINE
  5
368
330
361
100
AcDbEntity
  8
0
  6
Continuous
 62
     7
370
     0
100
AcDbLine
 10
3.2637921224
 20
12.5164455999
 30
0.0
 11
3.3399639966
 21
12.5164455999
 31
0.0
  0
LINE
  5
369
330
361
100
AcDbEntity
  8
0
  6
Continuous
 62
     7
370
     0
100
AcDbLine
 10
4.5191306481
 20
12.9133206118
 30
0.0
 11
4.5953025224
 21
12.9133206118
 31
0.0
  0
LINE
  5
36A
330
361
100
AcDbEntity
  8
0
  6
Continuous
 62
     7
370
     0
100
AcDbLine
 10
4.5953025224
 20
12.9133206118
 30
0.0
 11
4.5953025224
 21
12.5164455999
 31
0.0
  0
LINE
  5
36B
330
361
100
AcDbEntity
  8
0
  6
Continuous
 62
     7
370
     0
100
AcDbLine
 10
4.5953025224
 20
12.5164455999
 30
0.0
 11
4.5191306481
 21
12.5164455999
 31
0.0
  0
LINE
  5
36C
330
361
100
AcDbEntity
  8
0
  6
Continuous
 62
     7
370
     0
100
AcDbLine
 10
1.7795473041
 20
10.2900250427
 30
0.0
 11
1.7795473041
 21
13.1633206485
 31
0.0
  0
LINE
  5
36D
330
361
100
AcDbEntity
  8
0
  6
Continuous
 62
     7
370
     0
100
AcDbLine
 10
6.0795473041
 20
10.2900250427
 30
0.0
 11
6.0795473041
 21
13.1633206485
 31
0.0
  0
LINE
  5
36E
330
361
100
AcDbEntity
  8
0
  6
Continuous
 62
     7
370
     0
100
AcDbLine
 10
1.7795473041
 20
12.9133206485
 30
0.0
 11
3.1369169818
 21
12.9133206485
 31
0.0
  0
LINE
  5
36F
330
361
100
AcDbEntity
  8
0
  6
Continuous
 62
     7
370
     0
100
AcDbLine
 10
6.0795473041
 20
12.9133206485
 30
0.0
 11
4.7221776263
 21
12.9133206485
 31
0.0
  0
MTEXT
  5
370
330
361
100
AcDbEntity
  8
0
  6
Continuous
 62
     7
370
    18
100
AcDbMText
 10
3.2009275278
 20
13.2863688222
 30
0.0
 40
0.25
 41
0.0
 71
     1
 72
     1
  1
%%c
  7
SLDTEXTSTYLE0
 73
     1
 44
1.0
  0
MTEXT
  5
371
330
361
100
AcDbEntity
  8
0
  6
Continuous
 62
     7
370
    18
100
AcDbMText
 10
3.577958769
 20
13.2863688222
 30
0.0
 40
0.25
 41
0.0
 71
     1
 72
     1
  1
4 5/16"
  7
SLDTEXTSTYLE0
 73
     1
 44
1.0
  0
MTEXT
  5
372
330
361
100
AcDbEntity
  8
0
  6
Continuous
 62
     7
370
    18
100
AcDbMText
 10
3.3399639966
 20
12.8387125623
 30
0.0
 40
0.25
 41
0.0
 71
     1
 72
     1
  1
109mm
  7
SLDTEXTSTYLE0
 73
     1
 44
1.0
  0
ENDBLK
  5
363
330
361
100
AcDbEntity
  8
0
100
AcDbBlockEnd
  0
BLOCK
  5
39B
330
39A
100
AcDbEntity
  8
0
100
AcDbBlockBegin
  2
_D_4
 70
     0
 10
0.0
 20
0.0
 30
0.0
  3
_D_4
  1

  0
SOLID
  5
39D
330
39A
100
AcDbEntity
  8
0
  6
Continuous
 62
     7
370
    18
100
AcDbTrace
 10
2.749243023
 20
1.9234608294
 30
0.0
 11
2.5371109886
 21
1.7678973376
 31
0.0
 12
2.5936795311
 22
1.7113287951
 32
0.0
 13
2.5936795311
 23
1.7113287951
 33
0.0
  0
LINE
  5
39E
330
39A
100
AcDbEntity
  8
0
  6
Continuous
 62
     7
370
     0
100
AcDbLine
 10
0.4889070933
 20
1.4946352263
 30
0.0
 11
0.412735219
 21
1.4946352263
 31
0.0
  0
LINE
  5
39F
330
39A
100
AcDbEntity
  8
0
  6
Continuous
 62
     7
370
     0
100
AcDbLine
 10
0.412735219
 20
1.4946352263
 30
0.0
 11
0.412735219
 21
1.0977602144
 31
0.0
  0
LINE
  5
3A0
330
39A
100
AcDbEntity
  8
0
  6
Continuous
 62
     7
370
     0
100
AcDbLine
 10
0.412735219
 20
1.0977602144
 30
0.0
 11
0.4889070933
 21
1.0977602144
 31
0.0
  0
LINE
  5
3A1
330
39A
100
AcDbEntity
  8
0
  6
Continuous
 62
     7
370
     0
100
AcDbLine
 10
1.6680737448
 20
1.4946352263
 30
0.0
 11
1.744245619
 21
1.4946352263
 31
0.0
  0
LINE
  5
3A2
330
39A
100
AcDbEntity
  8
0
  6
Continuous
 62
     7
370
     0
100
AcDbLine
 10
1.744245619
 20
1.4946352263
 30
0.0
 11
1.744245619
 21
1.0977602144
 31
0.0
  0
LINE
  5
3A3
330
39A
100
AcDbEntity
  8
0
  6
Continuous
 62
     7
370
     0
100
AcDbLine
 10
1.744245619
 20
1.0977602144
 30
0.0
 11
1.6680737448
 21
1.0977602144
 31
0.0
  0
LINE
  5
3A4
330
39A
100
AcDbEntity
  8
0
  6
Continuous
 62
     7
370
     0
100
AcDbLine
 10
2.749243023
 20
1.9234608294
 30
0.0
 11
2.3204174565
 21
1.494635263
 31
0.0
  0
LINE
  5
3A5
330
39A
100
AcDbEntity
  8
0
  6
Continuous
 62
     7
370
     0
100
AcDbLine
 10
2.3204174565
 20
1.494635263
 30
0.0
 11
1.8204174565
 21
1.494635263
 31
0.0
  0
MTEXT
  5
3A6
330
39A
100
AcDbEntity
  8
0
  6
Continuous
 62
     7
370
    18
100
AcDbMText
 10
0.7460511777
 20
1.8676834367
 30
0.0
 40
0.25
 41
0.0
 71
     1
 72
     1
  1
%%c
  7
SLDTEXTSTYLE0
 73
     1
 44
1.0
  0
MTEXT
  5
3A7
330
39A
100
AcDbEntity
  8
0
  6
Continuous
 62
     7
370
    18
100
AcDbMText
 10
1.1230824189
 20
1.8676834367
 30
0.0
 40
0.25
 41
0.0
 71
     1
 72
     1
  1
5"
  7
SLDTEXTSTYLE0
 73
     1
 44
1.0
  0
MTEXT
  5
3A8
330
39A
100
AcDbEntity
  8
0
  6
Continuous
 62
     7
370
    18
100
AcDbMText
 10
0.4889070933
 20
1.4200271769
 30
0.0
 40
0.25
 41
0.0
 71
     1
 72
     1
  1
127mm
  7
SLDTEXTSTYLE0
 73
     1
 44
1.0
  0
ENDBLK
  5
39C
330
39A
100
AcDbEntity
  8
0
100
AcDbBlockEnd
  0
BLOCK
  5
3AC
330
3AB
100
AcDbEntity
  8
0
100
AcDbBlockBegin
  2
_D_5
 70
     0
 10
0.0
 20
0.0
 30
0.0
  3
_D_5
  1

  0
SOLID
  5
3AE
330
3AB
100
AcDbEntity
  8
0
  6
Continuous
 62
     7
370
    18
100
AcDbTrace
 10
2.7610876583
 20
5.5560403729
 30
0.0
 11
2.5010876583
 21
5.5960403729
 31
0.0
 12
2.5010876583
 22
5.5160403729
 32
0.0
 13
2.5010876583
 23
5.5160403729
 33
0.0
  0
SOLID
  5
3AF
330
3AB
100
AcDbEntity
  8
0
  6
Continuous
 62
     7
370
    18
100
AcDbTrace
 10
5.0944209916
 20
5.5560403729
 30
0.0
 11
5.3544209916
 21
5.5160403729
 31
0.0
 12
5.3544209916
 22
5.5960403729
 32
0.0
 13
5.3544209916
 23
5.5960403729
 33
0.0
  0
LINE
  5
3B0
330
3AB
100
AcDbEntity
  8
0
  6
Continuous
 62
     7
370
     0
100
AcDbLine
 10
3.011782128
 20
5.5541306116
 30
0.0
 11
2.9356102538
 21
5.5541306116
 31
0.0
  0
LINE
  5
3B1
330
3AB
100
AcDbEntity
  8
0
  6
Continuous
 62
     7
370
     0
100
AcDbLine
 10
2.9356102538
 20
5.5541306116
 30
0.0
 11
2.9356102538
 21
5.1572555997
 31
0.0
  0
LINE
  5
3B2
330
3AB
100
AcDbEntity
  8
0
  6
Continuous
 62
     7
370
     0
100
AcDbLine
 10
2.9356102538
 20
5.1572555997
 30
0.0
 11
3.011782128
 21
5.1572555997
 31
0.0
  0
LINE
  5
3B3
330
3AB
100
AcDbEntity
  8
0
  6
Continuous
 62
     7
370
     0
100
AcDbLine
 10
4.0062265934
 20
5.5541306116
 30
0.0
 11
4.0823984676
 21
5.5541306116
 31
0.0
  0
LINE
  5
3B4
330
3AB
100
AcDbEntity
  8
0
  6
Continuous
 62
     7
370
     0
100
AcDbLine
 10
4.0823984676
 20
5.5541306116
 30
0.0
 11
4.0823984676
 21
5.1572555997
 31
0.0
  0
LINE
  5
3B5
330
3AB
100
AcDbEntity
  8
0
  6
Continuous
 62
     7
370
     0
100
AcDbLine
 10
4.0823984676
 20
5.1572555997
 30
0.0
 11
4.0062265934
 21
5.1572555997
 31
0.0
  0
LINE
  5
3B6
330
3AB
100
AcDbEntity
  8
0
  6
Continuous
 62
     7
370
     0
100
AcDbLine
 10
2.7610876583
 20
3.2019721314
 30
0.0
 11
2.7610876583
 21
5.8060403729
 31
0.0
  0
LINE
  5
3B7
330
3AB
100
AcDbEntity
  8
0
  6
Continuous
 62
     7
370
     0
100
AcDbLine
 10
5.0944209916
 20
3.2019721314
 30
0.0
 11
5.0944209916
 21
5.8060403729
 31
0.0
  0
LINE
  5
3B8
330
3AB
100
AcDbEntity
  8
0
  6
Continuous
 62
     7
370
     0
100
AcDbLine
 10
2.7610876583
 20
5.5560403729
 30
0.0
 11
2.2610876583
 21
5.5560403729
 31
0.0
  0
LINE
  5
3B9
330
3AB
100
AcDbEntity
  8
0
  6
Continuous
 62
     7
370
     0
100
AcDbLine
 10
5.0944209916
 20
5.5560403729
 30
0.0
 11
5.5944209916
 21
5.5560403729
 31
0.0
  0
MTEXT
  5
3BA
330
3AB
100
AcDbEntity
  8
0
  6
Continuous
 62
     7
370
    18
100
AcDbMText
 10
3.0612612981
 20
5.9271788037
 30
0.0
 40
0.25
 41
0.0
 71
     1
 72
     1
  1
3 1/2"
  7
SLDTEXTSTYLE0
 73
     1
 44
1.0
  0
MTEXT
  5
3BB
330
3AB
100
AcDbEntity
  8
0
  6
Continuous
 62
     7
370
    18
100
AcDbMText
 10
3.011782128
 20
5.4795225621
 30
0.0
 40
0.25
 41
0.0
 71
     1
 72
     1
  1
89mm
  7
SLDTEXTSTYLE0
 73
     1
 44
1.0
  0
MTEXT
  5
3BC
330
3AB
100
AcDbEntity
  8
0
  6
Continuous
 62
     7
370
    18
100
AcDbMText
 10
4.2523203052
 20
5.9309982666
 30
0.0
 40
0.25
 41
0.0
 71
     1
 72
     1
  1
O.C.
  7
SLDTEXTSTYLE0
 73
     1
 44
1.0
  0
ENDBLK
  5
3AD
330
3AB
100
AcDbEntity
  8
0
100
AcDbBlockEnd
  0
BLOCK
  5
3D7
330
3D6
100
AcDbEntity
  8
0
100
AcDbBlockBegin
  2
_D_6
 70
     0
 10
0.0
 20
0.0
 30
0.0
  3
_D_6
  1

  0
ARC
  5
3D9
330
3D6
100
AcDbEntity
  8
0
  6
Continuous
 62
     7
370
    18
100
AcDbCircle
 10
7.7432479824
 20
2.8951353053
 30
0.0
 40
2.003573141769208
100
AcDbArc
 50
270.0
 51
295.7228574911
  0
ARC
  5
3DA
330
3D6
100
AcDbEntity
  8
0
  6
Continuous
 62
     7
370
    18
100
AcDbCircle
 10
7.7432479824
 20
2.8951353053
 30
0.0
 40
2.003573141769208
100
AcDbArc
 50
313.1306972189
 51
338.0409059415
  0
SOLID
  5
3DB
330
3D6
100
AcDbEntity
  8
0
  6
Continuous
 62
     7
370
    18
100
AcDbTrace
 10
7.7432479824
 20
0.8915621635
 30
0.0
 11
8.0052860931
 21
0.8684098734
 31
0.0
 12
8.0001277937
 22
0.9482433999
 32
0.0
 13
8.0001277937
 23
0.9482433999
 33
0.0
  0
SOLID
  5
3DC
330
3D6
100
AcDbEntity
  8
0
  6
Continuous
 62
     7
370
    18
100
AcDbTrace
 10
9.6014640288
 20
2.1459100659
 30
0.0
 11
9.4528361525
 21
1.92886225
 31
0.0
 12
9.5249489238
 22
1.8942248683
 32
0.0
 13
9.5249489238
 23
1.8942248683
 33
0.0
  0
LINE
  5
3DD
330
3D6
100
AcDbEntity
  8
0
  6
Continuous
 62
     7
370
     0
100
AcDbLine
 10
7.7432479824
 20
1.3462207005
 30
0.0
 11
7.7432479824
 21
0.6415621635
 31
0.0
  0
LINE
  5
3DE
330
3D6
100
AcDbEntity
  8
0
  6
Continuous
 62
     7
370
     0
100
AcDbLine
 10
8.3564095889
 20
2.6479110106
 30
0.0
 11
9.8333267953
 21
2.0524239306
 31
0.0
  0
MTEXT
  5
3DF
330
3D6
100
AcDbEntity
  8
0
  6
Continuous
 62
     7
370
    18
100
AcDbMText
 10
8.6128358408
 20
1.358327399
 30
0.0
 40
0.25
 41
0.0
 71
     1
 72
     1
  1
68°
  7
SLDTEXTSTYLE0
 73
     1
 44
1.0
  0
ENDBLK
  5
3D8
330
3D6
100
AcDbEntity
  8
0
100
AcDbBlockEnd
  0
BLOCK
  5
40D
330
40C
100
AcDbEntity
  8
0
100
AcDbBlockBegin
  2
_D_7
 70
     0
 10
0.0
 20
0.0
 30
0.0
  3
_D_7
  1

  0
SOLID
  5
40F
330
40C
100
AcDbEntity
  8
0
  6
Continuous
 62
     7
370
    18
100
AcDbTrace
 10
14.651528643
 20
1.9234608294
 30
0.0
 11
14.4393966086
 21
1.7678973376
 31
0.0
 12
14.4959651511
 22
1.7113287951
 32
0.0
 13
14.4959651511
 23
1.7113287951
 33
0.0
  0
LINE
  5
410
330
40C
100
AcDbEntity
  8
0
  6
Continuous
 62
     7
370
     0
100
AcDbLine
 10
12.3313099425
 20
1.4347524555
 30
0.0
 11
12.2551380683
 21
1.4347524555
 31
0.0
  0
LINE
  5
411
330
40C
100
AcDbEntity
  8
0
  6
Continuous
 62
     7
370
     0
100
AcDbLine
 10
12.2551380683
 20
1.4347524555
 30
0.0
 11
12.2551380683
 21
1.0378774436
 31
0.0
  0
LINE
  5
412
330
40C
100
AcDbEntity
  8
0
  6
Continuous
 62
     7
370
     0
100
AcDbLine
 10
12.2551380683
 20
1.0378774436
 30
0.0
 11
12.3313099425
 21
1.0378774436
 31
0.0
  0
LINE
  5
413
330
40C
100
AcDbEntity
  8
0
  6
Continuous
 62
     7
370
     0
100
AcDbLine
 10
13.510476594
 20
1.4347524555
 30
0.0
 11
13.5866484682
 21
1.4347524555
 31
0.0
  0
LINE
  5
414
330
40C
100
AcDbEntity
  8
0
  6
Continuous
 62
     7
370
     0
100
AcDbLine
 10
13.5866484682
 20
1.4347524555
 30
0.0
 11
13.5866484682
 21
1.0378774436
 31
0.0
  0
LINE
  5
415
330
40C
100
AcDbEntity
  8
0
  6
Continuous
 62
     7
370
     0
100
AcDbLine
 10
13.5866484682
 20
1.0378774436
 30
0.0
 11
13.510476594
 21
1.0378774436
 31
0.0
  0
LINE
  5
416
330
40C
100
AcDbEntity
  8
0
  6
Continuous
 62
     7
370
     0
100
AcDbLine
 10
14.651528643
 20
1.9234608294
 30
0.0
 11
14.1628203058
 21
1.4347524922
 31
0.0
  0
LINE
  5
417
330
40C
100
AcDbEntity
  8
0
  6
Continuous
 62
     7
370
     0
100
AcDbLine
 10
14.1628203058
 20
1.4347524922
 30
0.0
 11
13.6628203058
 21
1.4347524922
 31
0.0
  0
MTEXT
  5
418
330
40C
100
AcDbEntity
  8
0
  6
Continuous
 62
     7
370
    18
100
AcDbMText
 10
12.5884540269
 20
1.8078006659
 30
0.0
 40
0.25
 41
0.0
 71
     1
 72
     1
  1
%%c
  7
SLDTEXTSTYLE0
 73
     1
 44
1.0
  0
MTEXT
  5
419
330
40C
100
AcDbEntity
  8
0
  6
Continuous
 62
     7
370
    18
100
AcDbMText
 10
12.9654852681
 20
1.8078006659
 30
0.0
 40
0.25
 41
0.0
 71
     1
 72
     1
  1
5"
  7
SLDTEXTSTYLE0
 73
     1
 44
1.0
  0
MTEXT
  5
41A
330
40C
100
AcDbEntity
  8
0
  6
Continuous
 62
     7
370
    18
100
AcDbMText
 10
12.3313099425
 20
1.360144406
 30
0.0
 40
0.25
 41
0.0
 71
     1
 72
     1
  1
127mm
  7
SLDTEXTSTYLE0
 73
     1
 44
1.0
  0
ENDBLK
  5
40E
330
40C
100
AcDbEntity
  8
0
100
AcDbBlockEnd
  0
BLOCK
  5
41D
330
41C
100
AcDbEntity
  8
0
100
AcDbBlockBegin
  2
_D_8
 70
     0
 10
0.0
 20
0.0
 30
0.0
  3
_D_8
  1

  0
SOLID
  5
41F
330
41C
100
AcDbEntity
  8
0
  6
Continuous
 62
     7
370
    18
100
AcDbTrace
 10
14.6633732783
 20
5.5560403729
 30
0.0
 11
14.4033732783
 21
5.5960403729
 31
0.0
 12
14.4033732783
 22
5.5160403729
 32
0.0
 13
14.4033732783
 23
5.5160403729
 33
0.0
  0
SOLID
  5
420
330
41C
100
AcDbEntity
  8
0
  6
Continuous
 62
     7
370
    18
100
AcDbTrace
 10
16.9967066116
 20
5.5560403729
 30
0.0
 11
17.2567066116
 21
5.5160403729
 31
0.0
 12
17.2567066116
 22
5.5960403729
 32
0.0
 13
17.2567066116
 23
5.5960403729
 33
0.0
  0
LINE
  5
421
330
41C
100
AcDbEntity
  8
0
  6
Continuous
 62
     7
370
     0
100
AcDbLine
 10
14.914067748
 20
5.5541306116
 30
0.0
 11
14.8378958738
 21
5.5541306116
 31
0.0
  0
LINE
  5
422
330
41C
100
AcDbEntity
  8
0
  6
Continuous
 62
     7
370
     0
100
AcDbLine
 10
14.8378958738
 20
5.5541306116
 30
0.0
 11
14.8378958738
 21
5.1572555997
 31
0.0
  0
LINE
  5
423
330
41C
100
AcDbEntity
  8
0
  6
Continuous
 62
     7
370
     0
100
AcDbLine
 10
14.8378958738
 20
5.1572555997
 30
0.0
 11
14.914067748
 21
5.1572555997
 31
0.0
  0
LINE
  5
424
330
41C
100
AcDbEntity
  8
0
  6
Continuous
 62
     7
370
     0
100
AcDbLine
 10
15.9085122135
 20
5.5541306116
 30
0.0
 11
15.9846840877
 21
5.5541306116
 31
0.0
  0
LINE
  5
425
330
41C
100
AcDbEntity
  8
0
  6
Continuous
 62
     7
370
     0
100
AcDbLine
 10
15.9846840877
 20
5.5541306116
 30
0.0
 11
15.9846840877
 21
5.1572555997
 31
0.0
  0
LINE
  5
426
330
41C
100
AcDbEntity
  8
0
  6
Continuous
 62
     7
370
     0
100
AcDbLine
 10
15.9846840877
 20
5.1572555997
 30
0.0
 11
15.9085122135
 21
5.1572555997
 31
0.0
  0
LINE
  5
427
330
41C
100
AcDbEntity
  8
0
  6
Continuous
 62
     7
370
     0
100
AcDbLine
 10
14.6633732783
 20
3.2019721314
 30
0.0
 11
14.6633732783
 21
5.8060403729
 31
0.0
  0
LINE
  5
428
330
41C
100
AcDbEntity
  8
0
  6
Continuous
 62
     7
370
     0
100
AcDbLine
 10
16.9967066116
 20
3.2019721314
 30
0.0
 11
16.9967066116
 21
5.8060403729
 31
0.0
  0
LINE
  5
429
330
41C
100
AcDbEntity
  8
0
  6
Continuous
 62
     7
370
     0
100
AcDbLine
 10
14.6633732783
 20
5.5560403729
 30
0.0
 11
14.1633732783
 21
5.5560403729
 31
0.0
  0
LINE
  5
42A
330
41C
100
AcDbEntity
  8
0
  6
Continuous
 62
     7
370
     0
100
AcDbLine
 10
16.9967066116
 20
5.5560403729
 30
0.0
 11
17.4967066116
 21
5.5560403729
 31
0.0
  0
MTEXT
  5
42B
330
41C
100
AcDbEntity
  8
0
  6
Continuous
 62
     7
370
    18
100
AcDbMText
 10
14.9635469181
 20
5.9271788037
 30
0.0
 40
0.25
 41
0.0
 71
     1
 72
     1
  1
3 1/2"
  7
SLDTEXTSTYLE0
 73
     1
 44
1.0
  0
MTEXT
  5
42C
330
41C
100
AcDbEntity
  8
0
  6
Continuous
 62
     7
370
    18
100
AcDbMText
 10
14.914067748
 20
5.4795225621
 30
0.0
 40
0.25
 41
0.0
 71
     1
 72
     1
  1
89mm
  7
SLDTEXTSTYLE0
 73
     1
 44
1.0
  0
MTEXT
  5
42D
330
41C
100
AcDbEntity
  8
0
  6
Continuous
 62
     7
370
    18
100
AcDbMText
 10
16.1546059252
 20
5.9309982666
 30
0.0
 40
0.25
 41
0.0
 71
     1
 72
     1
  1
O.C.
  7
SLDTEXTSTYLE0
 73
     1
 44
1.0
  0
ENDBLK
  5
41E
330
41C
100
AcDbEntity
  8
0
100
AcDbBlockEnd
  0
BLOCK
  5
445
330
444
100
AcDbEntity
  8
0
100
AcDbBlockBegin
  2
_D_9
 70
     0
 10
0.0
 20
0.0
 30
0.0
  3
_D_9
  1

  0
ARC
  5
447
330
444
100
AcDbEntity
  8
0
  6
Continuous
 62
     7
370
    18
100
AcDbCircle
 10
19.6972388618
 20
2.8519721314
 30
0.0
 40
1.684392839381473
100
AcDbArc
 50
270.0
 51
304.4199938839
  0
ARC
  5
448
330
444
100
AcDbEntity
  8
0
  6
Continuous
 62
     7
370
    18
100
AcDbCircle
 10
19.6972388618
 20
2.8519721314
 30
0.0
 40
1.684392839381474
100
AcDbArc
 50
323.8928441816
 51
0.0
  0
SOLID
  5
449
330
444
100
AcDbEntity
  8
0
  6
Continuous
 62
     7
370
    18
100
AcDbTrace
 10
19.6972388618
 20
1.167579292
 30
0.0
 11
19.9595369525
 21
1.1475865034
 31
0.0
 12
19.9534169541
 22
1.22735207
 32
0.0
 13
19.9534169541
 23
1.22735207
 33
0.0
  0
SOLID
  5
44A
330
444
100
AcDbEntity
  8
0
  6
Continuous
 62
     7
370
    18
100
AcDbTrace
 10
21.3816317011
 20
2.8519721314
 30
0.0
 11
21.3218589232
 21
2.595794039
 31
0.0
 12
21.4016244898
 22
2.5896740407
 32
0.0
 13
21.4016244898
 23
2.5896740407
 33
0.0
  0
LINE
  5
44B
330
444
100
AcDbEntity
  8
0
  6
Continuous
 62
     7
370
     0
100
AcDbLine
 10
19.6972388618
 20
1.3462207005
 30
0.0
 11
19.6972388618
 21
0.917579292
 31
0.0
  0
LINE
  5
44C
330
444
100
AcDbEntity
  8
0
  6
Continuous
 62
     7
370
     0
100
AcDbLine
 10
20.4152554024
 20
2.8519721314
 30
0.0
 11
21.6316317011
 21
2.8519721314
 31
0.0
  0
MTEXT
  5
44D
330
444
100
AcDbEntity
  8
0
  6
Continuous
 62
     7
370
    18
100
AcDbMText
 10
20.6368955647
 20
1.784755989
 30
0.0
 40
0.25
 41
0.0
 71
     1
 72
     1
  1
90°
  7
SLDTEXTSTYLE0
 73
     1
 44
1.0
  0
ENDBLK
  5
446
330
444
100
AcDbEntity
  8
0
100
AcDbBlockEnd
  0
ENDSEC
  0
SECTION
  2
ENTITIES
  0
MTEXT
  5
6F
330
1F
100
AcDbEntity
  8
0
  6
Continuous
 62
     7
370
     0
100
AcDbMText
 10
16.6045765207
 20
0.8752387777
 30
0.0
 40
0.25
 41
0.0
 71
     1
 72
     1
  1
FACEPLATE B
  7
SLDTEXTSTYLE0
 73
     1
 44
1.0
  0
LINE
  5
70
330
1F
100
AcDbEntity
  8
0
  6
Continuous
 62
     7
370
    25
100
AcDbLine
 10
20.2764424948
 20
13.18074481
 30
0.0
 11
20.3070013822
 21
13.198391815
 31
0.0
  0
LINE
  5
71
330
1F
100
AcDbEntity
  8
0
  6
Continuous
 62
     7
370
    25
100
AcDbLine
 10
19.8069189245
 20
14.0643696066
 30
0.0
 11
19.7763599675
 21
14.0467225614
 31
0.0
  0
LINE
  5
72
330
1F
100
AcDbEntity
  8
0
  6
Continuous
 62
     7
370
    25
100
AcDbLine
 10
21.3320882535
 20
12.0451757061
 30
0.0
 11
21.4863342267
 21
12.1290204039
 31
0.0
  0
LINE
  5
73
330
1F
100
AcDbEntity
  8
0
  6
Continuous
 62
     7
370
    25
100
AcDbLine
 10
17.3678842946
 20
14.5613543987
 30
0.0
 11
17.3325289556
 21
14.5409441959
 31
0.0
  0
LINE
  5
74
330
1F
100
AcDbEntity
  8
0
  6
Continuous
 62
     7
370
    25
100
AcDbLine
 10
19.4823542307
 20
10.8169340877
 30
0.0
 11
19.5177095698
 21
10.8373442905
 31
0.0
  0
LINE
  5
75
330
1F
100
AcDbEntity
  8
0
  6
Continuous
 62
     7
370
    25
100
AcDbLine
 10
17.352251834
 20
14.5141316025
 30
0.0
 11
17.3252185759
 21
14.4995064129
 31
0.0
  0
LINE
  5
76
330
1F
100
AcDbEntity
  8
0
  6
Continuous
 62
     7
370
    25
100
AcDbLine
 10
19.4429835807
 20
10.8314298368
 30
0.0
 11
19.4689973313
 21
10.8474216591
 31
0.0
  0
SPLINE
  5
77
330
1F
100
AcDbEntity
  8
0
  6
Continuous
 62
     7
370
    25
100
AcDbSpline
210
0.0
220
0.0
230
1.0
 70
     8
 71
     3
 72
    15
 73
    11
 74
     0
 42
0.00000001
 43
0.00000001
 40
0.0
 40
0.0
 40
0.0
 40
0.0
 40
0.0219394671996648
 40
0.1645803112641932
 40
0.3065448932023075
 40
0.4476885028303297
 40
0.5873213693123585
 40
0.727477072336562
 40
0.8683969851523605
 40
1.0
 40
1.0
 40
1.0
 40
1.0
 10
18.74686213515526
 20
14.15456539932876
 30
0.0
 10
18.74162217944514
 20
14.15922221655593
 30
0.0
 10
18.70231431777589
 20
14.19415562773558
 30
0.0
 10
18.62736554718908
 20
14.25220781356484
 30
0.0
 10
18.52273310107958
 20
14.32754181648701
 30
0.0
 10
18.41797008054872
 20
14.39338540760791
 30
0.0
 10
18.31354590127012
 20
14.45064282503609
 30
0.0
 10
18.20954773415282
 20
14.49900540104235
 30
0.0
 10
18.10821353519382
 20
14.53851190893641
 30
0.0
 10
18.04246570143534
 20
14.55710258214767
 30
0.0
 10
18.01071566404765
 20
14.56608013373801
 30
0.0
  0
SPLINE
  5
78
330
1F
100
AcDbEntity
  8
0
  6
Continuous
 62
     7
370
    25
100
AcDbSpline
210
0.0
220
0.0
230
1.0
 70
     8
 71
     3
 72
    14
 73
    10
 74
     0
 42
0.00000001
 43
0.00000001
 40
0.0
 40
0.0
 40
0.0
 40
0.0
 40
0.1427177578164273
 40
0.2894695282772355
 40
0.4354569724610392
 40
0.5804652057168681
 40
0.7237965555467443
 40
0.8674360606719136
 40
1.0
 40
1.0
 40
1.0
 40
1.0
 10
19.84202831902241
 20
11.38881365615747
 30
0.0
 10
19.85057653441257
 20
11.42236892610506
 30
0.0
 10
19.86791458620419
 20
11.49042792809302
 30
0.0
 10
19.88482938306736
 20
11.6002218400625
 30
0.0
 10
19.89494304635695
 20
11.7153999494932
 30
0.0
 10
19.89740448908466
 20
11.83451353217385
 30
0.0
 10
19.89216279445046
 20
11.95715057326663
 30
0.0
 10
19.88057457997975
 20
12.07937671199458
 30
0.0
 10
19.86717921843217
 20
12.16198141560053
 30
0.0
 10
19.8607501099937
 20
12.20162757185579
 30
0.0
  0
LINE
  5
79
330
1F
100
AcDbEntity
  8
0
  6
Continuous
 62
     7
370
    25
100
AcDbLine
 10
19.4680884684
 20
10.7879468959
 30
0.0
 11
19.4314535789
 21
10.8514003856
 31
0.0
  0
LINE
  5
7A
330
1F
100
AcDbEntity
  8
0
  6
Continuous
 62
     7
370
    25
100
AcDbLine
 10
17.3366949883
 20
14.4796286836
 30
0.0
 11
17.3000884684
 21
14.5430330357
 31
0.0
  0
LINE
  5
7B
330
1F
100
AcDbEntity
  8
0
  6
Continuous
 62
     7
370
    25
100
AcDbLine
 10
18.4303825099
 20
15.1017051252
 30
0.0
 11
18.3753825099
 21
15.1969679193
 31
0.0
  0
LINE
  5
7C
330
1F
100
AcDbEntity
  8
0
  6
Continuous
 62
     7
370
    25
100
AcDbLine
 10
17.4660558366
 20
14.6719679181
 30
0.0
 11
17.4963037739
 21
14.6195769542
 31
0.0
  0
LINE
  5
7D
330
1F
100
AcDbEntity
  8
0
  6
Continuous
 62
     7
370
    25
100
AcDbLine
 10
18.0403490039
 20
15.2372629735
 30
0.0
 11
17.2765556511
 21
16.5601918632
 31
0.0
  0
LINE
  5
7E
330
1F
100
AcDbEntity
  8
0
  6
Continuous
 62
     7
370
    25
100
AcDbLine
 10
16.7848314382
 20
16.2763049299
 30
0.0
 11
17.5882188565
 21
14.8847971074
 31
0.0
  0
LINE
  5
7F
330
1F
100
AcDbEntity
  8
0
  6
Continuous
 62
     7
370
    25
100
AcDbLine
 10
18.3284947556
 20
15.0381798924
 30
0.0
 11
18.3264594616
 21
15.041705125
 31
0.0
  0
LINE
  5
80
330
1F
100
AcDbEntity
  8
0
  6
Continuous
 62
     7
370
    25
100
AcDbLine
 10
15.9252382681
 20
14.1312905641
 30
0.0
 11
15.6685078642
 21
13.9641870391
 31
0.0
  0
LINE
  5
81
330
1F
100
AcDbEntity
  8
0
  6
Continuous
 62
     7
370
    25
100
AcDbLine
 10
18.1507491735
 20
9.6643530789
 30
0.0
 11
18.4238432951
 21
9.803110742
 31
0.0
  0
ARC
  5
82
330
1F
100
AcDbEntity
  8
0
  6
Continuous
 62
     7
370
    25
100
AcDbCircle
 10
16.9479731968
 20
11.8364059704
 30
0.0
 40
1.0
100
AcDbArc
 50
123.9726483867
 51
229.9447348452
  0
LINE
  5
83
330
1F
100
AcDbEntity
  8
0
  6
Continuous
 62
     7
370
    25
100
AcDbLine
 10
15.8093357289
 20
12.3705142142
 30
0.0
 11
15.8128712628
 21
12.3725552345
 31
0.0
  0
LINE
  5
84
330
1F
100
AcDbEntity
  8
0
  6
Continuous
 62
     7
370
    25
100
AcDbLine
 10
15.6073879633
 20
12.7285013169
 30
0.0
 11
15.6038524294
 21
12.7264602967
 31
0.0
  0
LINE
  5
85
330
1F
100
AcDbEntity
  8
0
  6
Continuous
 62
     7
370
    25
100
AcDbLine
 10
15.8543344231
 20
12.4466204255
 30
0.0
 11
15.8543902765
 21
12.4471080352
 31
0.0
  0
LINE
  5
86
330
1F
100
AcDbEntity
  8
0
  6
Continuous
 62
     7
370
    25
100
AcDbLine
 10
15.6927119651
 20
12.7271734305
 30
0.0
 11
15.6922617744
 21
12.7273689071
 31
0.0
  0
LINE
  5
87
330
1F
100
AcDbEntity
  8
0
  6
Continuous
 62
     7
370
    25
100
AcDbLine
 10
18.2842094631
 20
10.9418000185
 30
0.0
 11
18.287744997
 21
10.9438410388
 31
0.0
  0
LINE
  5
88
330
1F
100
AcDbEntity
  8
0
  6
Continuous
 62
     7
370
    25
100
AcDbLine
 10
18.0822616974
 20
11.2997871213
 30
0.0
 11
18.0787261635
 21
11.297746101
 31
0.0
  0
LINE
  5
89
330
1F
100
AcDbEntity
  8
0
  6
Continuous
 62
     7
370
    25
100
AcDbLine
 10
18.3292081572
 20
11.0179062298
 30
0.0
 11
18.3292640106
 21
11.0183938395
 31
0.0
  0
LINE
  5
8A
330
1F
100
AcDbEntity
  8
0
  6
Continuous
 62
     7
370
    25
100
AcDbLine
 10
18.1675856993
 20
11.2984592348
 30
0.0
 11
18.1671355086
 21
11.2986547115
 31
0.0
  0
LWPOLYLINE
  5
8B
330
1F
100
AcDbEntity
  8
0
  6
Continuous
 62
     7
370
    25
100
AcDbPolyline
 90
        3
 70
   128
 43
0.0
 10
19.8478415736
 20
11.1230742393
 10
19.8112228335
 20
11.1019297953
 10
19.7712875625
 20
11.0788693276
  0
LWPOLYLINE
  5
8C
330
1F
100
AcDbEntity
  8
0
  6
Continuous
 62
     7
370
    25
100
AcDbPolyline
 90
       20
 70
   128
 43
0.0
 10
19.8466093418
 20
13.9862480743
 10
19.8178629366
 20
13.9671500994
 10
19.7757770289
 20
13.9277977654
 10
19.7416632391
 20
13.8798504829
 10
19.7165029588
 20
13.8246876078
 10
19.7010200035
 20
13.7638960756
 10
19.6956597896
 20
13.699224748
 10
19.7005765207
 20
13.6325341013
 10
19.7156287514
 20
13.5657427042
 10
19.7403834564
 20
13.5007720233
 10
19.7741284879
 20
13.439491147
 10
19.8158930629
 20
13.3836630144
 10
19.8644756905
 20
13.3348936993
 10
19.918478737
 20
13.2945862062
 10
19.976348633
 20
13.2639001081
 10
20.0364205671
 20
13.2437181883
 10
20.096966379
 20
13.2346210438
 10
20.156244276
 20
13.2368703829
 10
20.2125489409
 20
13.2504014963
 10
20.2591763765
 20
13.2718158228
  0
LINE
  5
8D
330
1F
100
AcDbEntity
  8
0
  6
Continuous
 62
     7
370
    25
100
AcDbLine
 10
20.0428036026
 20
13.5856466335
 30
0.0
 11
20.1451291299
 21
13.3835357216
 31
0.0
  0
ARC
  5
8E
330
1F
100
AcDbEntity
  8
0
  6
Continuous
 62
     7
370
    25
100
AcDbCircle
 10
20.0963854411
 20
13.5537292042
 30
0.0
 40
0.1770360661505882
100
AcDbArc
 50
285.9817983626
 51
304.58131354
  0
LINE
  5
8F
330
1F
100
AcDbEntity
  8
0
  6
Continuous
 62
     7
370
    25
100
AcDbLine
 10
20.1968667318
 20
13.4079716009
 30
0.0
 11
20.0945412045
 21
13.6100825128
 31
0.0
  0
LINE
  5
90
330
1F
100
AcDbEntity
  8
0
  6
Continuous
 62
     7
370
    25
100
AcDbLine
 10
20.0945412045
 20
13.6100825128
 30
0.0
 11
20.2620785738
 21
13.6892110919
 31
0.0
  0
ARC
  5
91
330
1F
100
AcDbEntity
  8
0
  6
Continuous
 62
     7
370
    25
100
AcDbCircle
 10
19.9606595772
 20
13.5757638518
 30
0.0
 40
0.3220616211015238
100
AcDbArc
 50
20.6251936308
 51
33.0936352539
  0
LINE
  5
92
330
1F
100
AcDbEntity
  8
0
  6
Continuous
 62
     7
370
    25
100
AcDbLine
 10
20.2304761611
 20
13.751612363
 30
0.0
 11
20.0629465761
 21
13.6724874604
 31
0.0
  0
LINE
  5
93
330
1F
100
AcDbEntity
  8
0
  6
Continuous
 62
     7
370
    25
100
AcDbLine
 10
20.0629465761
 20
13.6724874604
 30
0.0
 11
19.9606565883
 21
13.8745281755
 31
0.0
  0
ARC
  5
94
330
1F
100
AcDbEntity
  8
0
  6
Continuous
 62
     7
370
    25
100
AcDbCircle
 10
20.0094002771
 20
13.7043346929
 30
0.0
 40
0.1770360661512064
100
AcDbArc
 50
105.9817983626
 51
124.5813135399
  0
LINE
  5
95
330
1F
100
AcDbEntity
  8
0
  6
Continuous
 62
     7
370
    25
100
AcDbLine
 10
19.9089189864
 20
13.8500922962
 30
0.0
 11
20.0112089742
 21
13.6480515811
 31
0.0
  0
LINE
  5
96
330
1F
100
AcDbEntity
  8
0
  6
Continuous
 62
     7
370
    25
100
AcDbLine
 10
20.0112089742
 20
13.6480515811
 30
0.0
 11
19.8436793892
 21
13.5689266786
 31
0.0
  0
ARC
  5
97
330
1F
100
AcDbEntity
  8
0
  6
Continuous
 62
     7
370
    25
100
AcDbCircle
 10
20.1451203787
 20
13.6822970197
 30
0.0
 40
0.3220551263898552
100
AcDbArc
 50
200.6110114095
 51
213.0796210064
  0
LINE
  5
98
330
1F
100
AcDbEntity
  8
0
  6
Continuous
 62
     7
370
    25
100
AcDbLine
 10
19.8752662334
 20
13.5065180544
 30
0.0
 11
20.0428036026
 21
13.5856466335
 31
0.0
  0
LINE
  5
99
330
1F
100
AcDbEntity
  8
0
  6
Continuous
 62
     7
370
    25
100
AcDbLine
 10
19.9762089742
 20
13.6278399429
 30
0.0
 11
20.0112089742
 21
13.6480515811
 31
0.0
  0
LINE
  5
9A
330
1F
100
AcDbEntity
  8
0
  6
Continuous
 62
     7
370
    25
100
AcDbLine
 10
19.9762089742
 20
13.6278399429
 30
0.0
 11
19.8448695199
 21
13.5658077858
 31
0.0
  0
ARC
  5
9B
330
1F
100
AcDbEntity
  8
0
  6
Continuous
 62
     7
370
    25
100
AcDbCircle
 10
19.9751606461
 20
13.6819971627
 30
0.0
 40
0.1792892037693762
100
AcDbArc
 50
106.0283452975
 51
111.4665635792
  0
LINE
  5
9C
330
1F
100
AcDbEntity
  8
0
  6
Continuous
 62
     7
370
    25
100
AcDbLine
 10
20.0279465761
 20
13.6522758221
 30
0.0
 11
19.9256565883
 21
13.8543165373
 31
0.0
  0
LINE
  5
9D
330
1F
100
AcDbEntity
  8
0
  6
Continuous
 62
     7
370
    25
100
AcDbLine
 10
20.1954761611
 20
13.7314007247
 30
0.0
 11
20.0279465761
 21
13.6522758221
 31
0.0
  0
ARC
  5
9E
330
1F
100
AcDbEntity
  8
0
  6
Continuous
 62
     7
370
    25
100
AcDbCircle
 10
19.9256595772
 20
13.5555522136
 30
0.0
 40
0.3220616210998069
100
AcDbArc
 50
20.6251936308
 51
33.0936352539
  0
LINE
  5
9F
330
1F
100
AcDbEntity
  8
0
  6
Continuous
 62
     7
370
    25
100
AcDbLine
 10
20.1612374256
 20
13.3890029531
 30
0.0
 11
20.0595412045
 21
13.5898708746
 31
0.0
  0
LINE
  5
A0
330
1F
100
AcDbEntity
  8
0
  6
Continuous
 62
     7
370
    25
100
AcDbLine
 10
20.1723939365
 20
13.3938391641
 30
0.0
 11
20.1968667318
 21
13.4079716009
 31
0.0
  0
LINE
  5
A1
330
1F
100
AcDbEntity
  8
0
  6
Continuous
 62
     7
370
    25
100
AcDbLine
 10
19.9256565883
 20
13.8543165373
 30
0.0
 11
19.9606565883
 21
13.8745281755
 31
0.0
  0
LINE
  5
A2
330
1F
100
AcDbEntity
  8
0
  6
Continuous
 62
     7
370
    25
100
AcDbLine
 10
20.0595412045
 20
13.5898708746
 30
0.0
 11
20.0945412045
 21
13.6100825128
 31
0.0
  0
LINE
  5
A3
330
1F
100
AcDbEntity
  8
0
  6
Continuous
 62
     7
370
    25
100
AcDbLine
 10
20.0279465761
 20
13.6522758221
 30
0.0
 11
20.0629465761
 21
13.6724874604
 31
0.0
  0
LINE
  5
A4
330
1F
100
AcDbEntity
  8
0
  6
Continuous
 62
     7
370
    25
100
AcDbLine
 10
20.1954761611
 20
13.7314007247
 30
0.0
 11
20.2304761611
 21
13.751612363
 31
0.0
  0
SPLINE
  5
A5
330
1F
100
AcDbEntity
  8
0
  6
Continuous
 62
     7
370
    25
100
AcDbSpline
210
0.0
220
0.0
230
1.0
 70
     8
 71
     3
 72
    16
 73
    12
 74
     0
 42
0.00000001
 43
0.00000001
 40
0.0
 40
0.0
 40
0.0
 40
0.0
 40
0.0131380317503668
 40
0.1438991911854181
 40
0.2720189898847803
 40
0.4037034061987925
 40
0.5344933871496679
 40
0.6690652656616692
 40
0.79982368320577
 40
0.9345574756600799
 40
1.0
 40
1.0
 40
1.0
 40
1.0
 10
17.70626116360971
 20
14.654963901116
 30
0.0
 10
17.70803427866658
 20
14.65586621553057
 30
0.0
 10
17.72745498242262
 20
14.66574915057884
 30
0.0
 10
17.77273880340569
 20
14.68645773374788
 30
0.0
 10
17.84097348821079
 20
14.71702051173946
 30
0.0
 10
17.91484181918001
 20
14.7492904469986
 30
0.0
 10
17.99200697623637
 20
14.78338975201283
 30
0.0
 10
18.06906278206853
 20
14.81867159781315
 30
0.0
 10
18.14383148495344
 20
14.85523966056937
 30
0.0
 10
18.20235576160228
 20
14.88600603926777
 30
0.0
 10
18.23326956923013
 20
14.90435336502001
 30
0.0
 10
18.24337604756146
 20
14.9103515536736
 30
0.0
  0
LINE
  5
A6
330
1F
100
AcDbEntity
  8
0
  6
Continuous
 62
     7
370
    25
100
AcDbLine
 10
18.2892053753
 20
14.9395492911
 30
0.0
 11
18.3354915287
 21
14.9706513563
 31
0.0
  0
LINE
  5
A7
330
1F
100
AcDbEntity
  8
0
  6
Continuous
 62
     7
370
    25
100
AcDbLine
 10
18.3354915287
 20
14.9706513563
 30
0.0
 11
18.8188319334
 21
15.262631676
 31
0.0
  0
LWPOLYLINE
  5
A8
330
1F
100
AcDbEntity
  8
0
  6
Continuous
 62
     7
370
    25
100
AcDbPolyline
 90
       15
 70
   128
 43
0.0
 10
20.3507168342
 20
14.3782933464
 10
20.2501004772
 20
14.5006460515
 10
20.1454661981
 20
14.6161019034
 10
20.0374458862
 20
14.7239636611
 10
19.9266918791
 20
14.8235799445
 10
19.813873023
 20
14.9143491682
 10
19.6996706342
 20
14.9957231746
 10
19.5847743838
 20
15.0672105438
 10
19.4698781335
 20
15.1283795616
 10
19.3556757446
 20
15.1788608268
 10
19.2428568886
 20
15.2183494816
 10
19.1321028814
 20
15.246607053
 10
19.0240825695
 20
15.2634628927
 10
18.9194482905
 20
15.268815208
 10
18.8188319334
 20
15.262631676
  0
LINE
  5
A9
330
1F
100
AcDbEntity
  8
0
  6
Continuous
 62
     7
370
    25
100
AcDbLine
 10
20.3507168342
 20
14.3782933464
 30
0.0
 11
19.8936763775
 21
14.0987655236
 31
0.0
  0
SPLINE
  5
AA
330
1F
100
AcDbEntity
  8
0
  6
Continuous
 62
     7
370
    25
100
AcDbSpline
210
0.0
220
0.0
230
1.0
 70
     8
 71
     3
 72
    16
 73
    12
 74
     0
 42
0.00000001
 43
0.00000001
 40
0.0
 40
0.0
 40
0.0
 40
0.0
 40
0.104972615839116
 40
0.2100345923264721
 40
0.3150062474620227
 40
0.4199901229684996
 40
0.5266930195449575
 40
0.6333951412651287
 40
0.7416951730116285
 40
0.8499827624223439
 40
1.0
 40
1.0
 40
1.0
 40
1.0
 10
19.77636299475484
 20
14.04671805650082
 30
0.0
 10
19.75743267721271
 20
14.03423372422249
 30
0.0
 10
19.71955592720712
 20
14.00925443205578
 30
0.0
 10
19.67488703159384
 20
13.95919872021286
 30
0.0
 10
19.64090753508698
 20
13.90130699732996
 30
0.0
 10
19.61832701934414
 20
13.83597259945132
 30
0.0
 10
19.6077867420762
 20
13.76462087148677
 30
0.0
 10
19.60888106264667
 20
13.68851019747868
 30
0.0
 10
19.62212876756128
 20
13.60975714458525
 30
0.0
 10
19.64877450252853
 20
13.51967934643015
 30
0.0
 10
19.68002213503255
 20
13.45931357587772
 30
0.0
 10
19.69817000924671
 20
13.42425458666676
 30
0.0
  0
SPLINE
  5
AB
330
1F
100
AcDbEntity
  8
0
  6
Continuous
 62
     7
370
    25
100
AcDbSpline
210
0.0
220
0.0
230
1.0
 70
     8
 71
     3
 72
    18
 73
    14
 74
     0
 42
0.00000001
 43
0.00000001
 40
0.0
 40
0.0
 40
0.0
 40
0.0
 40
0.0632736841276492
 40
0.1680079328944941
 40
0.272751962500644
 40
0.3782684949729301
 40
0.4837922309519723
 40
0.5915735994556175
 40
0.6993463320485322
 40
0.8071816762404902
 40
0.9150039850430253
 40
0.9999373449504801
 40
1.0
 40
1.0
 40
1.0
 40
1.0
 10
19.69817000924671
 20
13.42425458666676
 30
0.0
 10
19.7067622873179
 20
13.41004909150089
 30
0.0
 10
19.72957699927117
 20
13.37232984199827
 30
0.0
 10
19.77301111200112
 20
13.31586293822602
 30
0.0
 10
19.82874614141156
 20
13.25810366825077
 30
0.0
 10
19.88967231599401
 20
13.20997677858932
 30
0.0
 10
19.95469129239116
 20
13.17228778053472
 30
0.0
 10
20.02260840242645
 20
13.14704658201323
 30
0.0
 10
20.09190092768375
 20
13.13524535218802
 30
0.0
 10
20.16102393649953
 20
13.13743626988366
 30
0.0
 10
20.22214201688631
 20
13.15510269805459
 30
0.0
 10
20.26156738830395
 20
13.16908926846551
 30
0.0
 10
20.27642810072789
 20
13.18074102303713
 30
0.0
 10
20.27643905534351
 20
13.18074961216051
 30
0.0
  0
LINE
  5
AC
330
1F
100
AcDbEntity
  8
0
  6
Continuous
 62
     7
370
    25
100
AcDbLine
 10
20.3796867443
 20
13.2560436176
 30
0.0
 11
20.8507168342
 21
13.5122679452
 31
0.0
  0
ARC
  5
AD
330
1F
100
AcDbEntity
  8
0
  6
Continuous
 62
     7
370
    25
100
AcDbCircle
 10
18.0045184014
 20
12.3543461047
 30
0.0
 40
3.072723304729824
100
AcDbArc
 50
10.3772821625
 51
22.1380171974
  0
LINE
  5
AE
330
1F
100
AcDbEntity
  8
0
  6
Continuous
 62
     7
370
    25
100
AcDbLine
 10
20.871849113
 20
12.8210394171
 30
0.0
 11
21.0269810774
 21
12.9078331231
 31
0.0
  0
ARC
  5
AF
330
1F
100
AcDbEntity
  8
0
  6
Continuous
 62
     7
370
    25
100
AcDbCircle
 10
18.9528342664
 20
12.4400587252
 30
0.0
 40
1.95646729311792
100
AcDbArc
 50
348.7711138303
 51
11.2288861697
  0
ARC
  5
B0
330
1F
100
AcDbEntity
  8
0
  6
Continuous
 62
     7
370
    25
100
AcDbCircle
 10
20.0251463766
 20
12.3427054563
 30
0.0
 40
1.020220036279638
100
AcDbArc
 50
324.0186460777
 51
345.4295090207
  0
LINE
  5
B1
330
1F
100
AcDbEntity
  8
0
  6
Continuous
 62
     7
370
    25
100
AcDbLine
 10
20.8507168342
 20
11.743303803
 30
0.0
 11
20.3561589281
 21
11.4707527655
 31
0.0
  0
SPLINE
  5
B2
330
1F
100
AcDbEntity
  8
0
  6
Continuous
 62
     7
370
    25
100
AcDbSpline
210
0.0
220
0.0
230
1.0
 70
     8
 71
     3
 72
    17
 73
    13
 74
     0
 42
0.00000001
 43
0.00000001
 40
0.0
 40
0.0
 40
0.0
 40
0.0
 40
0.0684954963854137
 40
0.1534307200123144
 40
0.2576773874998874
 40
0.3649961368444974
 40
0.4692302053819338
 40
0.5763965193934996
 40
0.6823428564995186
 40
0.7912695536193366
 40
0.8987084776090658
 40
1.0
 40
1.0
 40
1.0
 40
1.0
 10
20.35615892812935
 20
11.47075276554839
 30
0.0
 10
20.34504666431971
 20
11.46580244686023
 30
0.0
 10
20.32015506228376
 20
11.45471367459498
 30
0.0
 10
20.273418526305
 20
11.43058545801661
 30
0.0
 10
20.21563620350145
 20
11.39737132859645
 30
0.0
 10
20.15049965408877
 20
11.35607933184998
 30
0.0
 10
20.08298653204676
 20
11.31018176914112
 30
0.0
 10
20.01545424705958
 20
11.26203229273499
 30
0.0
 10
19.94801562719464
 20
11.21264421434616
 30
0.0
 10
19.88312313221751
 20
11.16489786369905
 30
0.0
 10
19.82238817905611
 20
11.12076935751047
 30
0.0
 10
19.78704436168566
 20
11.09657281533919
 30
0.0
 10
19.76989291525971
 20
11.08483085514304
 30
0.0
  0
LINE
  5
B3
330
1F
100
AcDbEntity
  8
0
  6
Continuous
 62
     7
370
    25
100
AcDbLine
 10
20.3810243838
 20
14.3957952101
 30
0.0
 11
20.8810243838
 21
13.5297698088
 31
0.0
  0
LINE
  5
B4
330
1F
100
AcDbEntity
  8
0
  6
Continuous
 62
     7
370
    25
100
AcDbLine
 10
20.8810243838
 20
13.5297698088
 30
0.0
 11
20.3849387275
 21
13.2598649124
 31
0.0
  0
ELLIPSE
  5
B5
330
1F
100
AcDbEntity
  8
0
  6
Continuous
 62
     7
370
    25
100
AcDbEllipse
 10
20.0569601533
 20
13.6313807108
 30
0.0
 11
-0.2500425468034244
 21
0.4329881346983998
 31
0.0
210
0.0
220
0.0
230
0.9999999999999999
 40
0.8285688811
 41
1.57067773780314
 42
3.380985481671253
  0
ELLIPSE
  5
B6
330
1F
100
AcDbEntity
  8
0
  6
Continuous
 62
     7
370
    25
100
AcDbEllipse
 10
20.0569601533
 20
13.6313807108
 30
0.0
 11
-0.2500425468034244
 21
0.4329881346983998
 31
0.0
210
0.0
220
0.0
230
0.9999999999999999
 40
0.8285688811
 41
6.04355530111465
 42
7.853863044982726
  0
LINE
  5
B7
330
1F
100
AcDbEntity
  8
0
  6
Continuous
 62
     7
370
    25
100
AcDbLine
 10
19.8992117293
 20
14.1011687494
 30
0.0
 11
20.3810243838
 21
14.3957952101
 31
0.0
  0
ELLIPSE
  5
B8
330
1F
100
AcDbEntity
  8
0
  6
Continuous
 62
     7
370
    25
100
AcDbEllipse
 10
20.0571350372
 20
13.6314816696
 30
0.0
 11
-0.1943254816802309
 21
0.33650524236295
 31
0.0
210
0.0
220
0.0
230
1.0
 40
0.8285690441
 41
0.0
 42
6.283185307179586
  0
LINE
  5
B9
330
1F
100
AcDbEntity
  8
0
  6
Continuous
 62
     7
370
    25
100
AcDbLine
 10
20.8507168342
 20
13.5122679452
 30
0.0
 11
20.8810243838
 21
13.5297698088
 31
0.0
  0
LINE
  5
BA
330
1F
100
AcDbEntity
  8
0
  6
Continuous
 62
     7
370
    25
100
AcDbLine
 10
20.3507168342
 20
14.3782933464
 30
0.0
 11
20.3810243838
 21
14.3957952101
 31
0.0
  0
LINE
  5
BB
330
1F
100
AcDbEntity
  8
0
  6
Continuous
 62
     7
370
    25
100
AcDbLine
 10
21.2735949543
 20
12.037639959
 30
0.0
 11
20.9316809803
 21
12.1010452002
 31
0.0
  0
ARC
  5
BC
330
1F
100
AcDbEntity
  8
0
  6
Continuous
 62
     7
370
    25
100
AcDbCircle
 10
20.9209760721
 20
12.0526727885
 30
0.0
 40
0.0495427620232329
100
AcDbArc
 50
77.5214493782
 51
172.5715959952
  0
ARC
  5
BD
330
1F
100
AcDbEntity
  8
0
  6
Continuous
 62
     7
370
    25
100
AcDbCircle
 10
21.0806247311
 20
12.861884322
 30
0.0
 40
0.2127335539724887
100
AcDbArc
 50
191.0695421318
 51
225.5615815059
  0
LINE
  5
BE
330
1F
100
AcDbEntity
  8
0
  6
Continuous
 62
     7
370
    25
100
AcDbLine
 10
20.9316809803
 20
12.7099918466
 30
0.0
 11
21.2735949543
 21
12.3786316162
 31
0.0
  0
LWPOLYLINE
  5
BF
330
1F
100
AcDbEntity
  8
0
  6
Continuous
 62
     7
370
    25
100
AcDbPolyline
 90
       11
 70
   128
 43
0.0
 10
21.2735949543
 20
12.3786316162
 10
21.3083998015
 20
12.3390499834
 10
21.3379787893
 20
12.2931908448
 10
21.3605113556
 20
12.2438767922
 10
21.37461064
 20
12.1941430641
 10
21.3794088432
 20
12.1470507297
 10
21.37461064
 20
12.105498283
 10
21.3605113556
 20
12.0720432421
 10
21.3379787893
 20
12.0487447368
 10
21.3083998015
 20
12.0370367706
 10
21.2735949543
 20
12.037639959
  0
LWPOLYLINE
  5
C0
330
1F
100
AcDbEntity
  8
0
  6
Continuous
 62
     7
370
    25
100
AcDbPolyline
 90
       19
 70
   128
 43
0.0
 10
21.2022811458
 20
12.3322240924
 10
21.1777218101
 20
12.3414012241
 10
21.1561246928
 20
12.3394701164
 10
21.1400947249
 20
12.3266636893
 10
21.1315653572
 20
12.3045265869
 10
21.1315653572
 20
12.2757288706
 10
21.1400947249
 20
12.2437439698
 10
21.1561246928
 20
12.2124297358
 10
21.1777218101
 20
12.1855631272
 10
21.2022811458
 20
12.1663846535
 10
21.2268404814
 20
12.1572075218
 10
21.2484375988
 20
12.1591386295
 10
21.2644675666
 20
12.1719450566
 10
21.2729969344
 20
12.194082159
 10
21.2729969344
 20
12.2228798753
 10
21.2644675666
 20
12.2548647761
 10
21.2484375988
 20
12.2861790101
 10
21.2268404814
 20
12.3130456188
 10
21.2022811458
 20
12.3322240924
  0
LINE
  5
C1
330
1F
100
AcDbEntity
  8
0
  6
Continuous
 62
     7
370
    25
100
AcDbLine
 10
21.2735949543
 20
12.3786316162
 30
0.0
 11
21.4266462101
 21
12.4692871044
 31
0.0
  0
LINE
  5
C2
330
1F
100
AcDbEntity
  8
0
  6
Continuous
 62
     7
370
    25
100
AcDbLine
 10
21.0847322361
 20
12.8006473348
 30
0.0
 11
20.9316809803
 21
12.7099918466
 31
0.0
  0
LINE
  5
C3
330
1F
100
AcDbEntity
  8
0
  6
Continuous
 62
     7
370
    25
100
AcDbLine
 10
21.0847322361
 20
12.8006473348
 30
0.0
 11
21.4266462101
 21
12.4692871044
 31
0.0
  0
LWPOLYLINE
  5
C4
330
1F
100
AcDbEntity
  8
0
  6
Continuous
 62
     7
370
    25
100
AcDbPolyline
 90
       10
 70
   128
 43
0.0
 10
21.4266462101
 20
12.4692871044
 10
21.4621619415
 20
12.4288970223
 10
21.4923450759
 20
12.3821012172
 10
21.5153378668
 20
12.3317799319
 10
21.5297251271
 20
12.2810303994
 10
21.534621333
 20
12.2329762107
 10
21.5297251271
 20
12.1905750611
 10
21.5153378668
 20
12.1564367056
 10
21.4923450759
 20
12.1326623316
 10
21.4863342267
 20
12.1290204039
  0
ARC
  5
C5
330
1F
100
AcDbEntity
  8
0
  6
Continuous
 62
     7
370
    25
100
AcDbCircle
 10
21.22849633
 20
12.9472576086
 30
0.0
 40
0.2053355474737288
100
AcDbArc
 50
191.0695421318
 51
225.5615815059
  0
ELLIPSE
  5
C6
330
1F
100
AcDbEntity
  8
0
  6
Continuous
 62
     7
370
    25
100
AcDbEllipse
 10
20.0569601533
 20
11.234390015
 30
0.0
 11
0.437288999820062
 21
0.2425932131204327
 31
0.0
210
0.0
220
0.0
230
1.0
 40
0.0121572128
 41
0.7159748457689107
 42
2.268453908834136
  0
LINE
  5
C7
330
1F
100
AcDbEntity
  8
0
  6
Continuous
 62
     7
370
    25
100
AcDbLine
 10
20.3561589281
 20
11.4707527655
 30
0.0
 11
20.3849387275
 21
11.420904691
 31
0.0
  0
LINE
  5
C8
330
1F
100
AcDbEntity
  8
0
  6
Continuous
 62
     7
370
    25
100
AcDbLine
 10
18.3354915287
 20
14.9706513563
 30
0.0
 11
18.3067117293
 21
15.0204994309
 31
0.0
  0
ELLIPSE
  5
C9
330
1F
100
AcDbEntity
  8
0
  6
Continuous
 62
     7
370
    25
100
AcDbEllipse
 10
17.9812177644
 20
14.8296812854
 30
0.0
 11
0.4287363985294093
 21
0.2574067535188114
 31
0.0
210
0.0
220
0.0
230
1.0
 40
0.0120245515
 41
4.0151257294469
 42
5.56721273127216
  0
LINE
  5
CA
330
1F
100
AcDbEntity
  8
0
  6
Continuous
 62
     7
370
    25
100
AcDbLine
 10
20.3810243838
 20
11.4020718982
 30
0.0
 11
19.8992117293
 21
11.1404093089
 31
0.0
  0
ELLIPSE
  5
CB
330
1F
100
AcDbEntity
  8
0
  6
Continuous
 62
     7
370
    25
100
AcDbEllipse
 10
20.0569601533
 20
11.234390015
 30
0.0
 11
0.437288999820062
 21
0.2425932131204327
 31
0.0
210
0.0
220
0.0
230
1.0
 40
0.0121572128
 41
3.96679965386149
 42
4.336590333505534
  0
LINE
  5
CC
330
1F
100
AcDbEntity
  8
0
  6
Continuous
 62
     7
370
    25
100
AcDbLine
 10
20.3849387275
 20
11.420904691
 30
0.0
 11
20.8810243838
 21
11.6908095874
 31
0.0
  0
ELLIPSE
  5
CD
330
1F
100
AcDbEntity
  8
0
  6
Continuous
 62
     7
370
    25
100
AcDbEllipse
 10
20.0571350372
 20
11.2344850786
 30
0.0
 11
0.3398477892769627
 21
0.1885361094570452
 31
0.0
210
0.0
220
0.0
230
1.0
 40
0.012157212
 41
5.667875335959866
 42
8.846580893505745
  0
ELLIPSE
  5
CE
330
1F
100
AcDbEntity
  8
0
  6
Continuous
 62
     7
370
    25
100
AcDbEllipse
 10
20.0571350372
 20
11.2344850786
 30
0.0
 11
0.3398477892769627
 21
0.1885361094570452
 31
0.0
210
0.0
220
0.0
230
1.0
 40
0.012157212
 41
3.671869959126581
 42
5.667875335959817
  0
LINE
  5
CF
330
1F
100
AcDbEntity
  8
0
  6
Continuous
 62
     7
370
    25
100
AcDbLine
 10
20.8810243838
 20
11.6908095874
 30
0.0
 11
20.3810243838
 21
11.4020718982
 31
0.0
  0
LINE
  5
D0
330
1F
100
AcDbEntity
  8
0
  6
Continuous
 62
     7
370
    25
100
AcDbLine
 10
18.7885243838
 20
15.3151258916
 30
0.0
 11
18.3067117293
 21
15.0204994309
 31
0.0
  0
ELLIPSE
  5
D1
330
1F
100
AcDbEntity
  8
0
  6
Continuous
 62
     7
370
    25
100
AcDbEllipse
 10
17.9813875433
 20
14.8297851913
 30
0.0
 11
0.3332009652778182
 21
0.2000487466635477
 31
0.0
210
0.0
220
0.0
230
1.0
 40
0.0120245507
 41
3.720729384920119
 42
4.019701545820055
  0
ELLIPSE
  5
D2
330
1F
100
AcDbEntity
  8
0
  6
Continuous
 62
     7
370
    25
100
AcDbEllipse
 10
17.9813875433
 20
14.8297851913
 30
0.0
 11
0.3332009652778182
 21
0.2000487466635477
 31
0.0
210
0.0
220
0.0
230
1.0
 40
0.0120245507
 41
5.062501769688187
 42
5.592900673247589
  0
LINE
  5
D3
330
1F
100
AcDbEntity
  8
0
  6
Continuous
 62
     7
370
    25
100
AcDbLine
 10
18.4275236325
 20
15.1066568461
 30
0.0
 11
18.7885243838
 21
15.3151258916
 31
0.0
  0
LINE
  5
D4
330
1F
100
AcDbEntity
  8
0
  6
Continuous
 62
     7
370
    25
100
AcDbLine
 10
20.8507168342
 20
11.743303803
 30
0.0
 11
20.8810243838
 21
11.6908095874
 31
0.0
  0
LINE
  5
D5
330
1F
100
AcDbEntity
  8
0
  6
Continuous
 62
     7
370
    25
100
AcDbLine
 10
18.8188319334
 20
15.262631676
 30
0.0
 11
18.7885243838
 21
15.3151258916
 31
0.0
  0
LWPOLYLINE
  5
D6
330
1F
100
AcDbEntity
  8
0
  6
Continuous
 62
     7
370
    25
100
AcDbPolyline
 90
       12
 70
   128
 43
0.0
 10
18.4427969322
 20
14.4549120902
 10
18.3305204428
 20
14.5149337904
 10
18.2188571686
 20
14.565039398
 10
18.1084169758
 20
14.6049552534
 10
17.9998030503
 20
14.6344633503
 10
17.8936086038
 20
14.6534025254
 10
17.7904136335
 20
14.6616693397
 10
17.6907817546
 20
14.6592186427
 10
17.5952571218
 20
14.6460638191
 10
17.5043614575
 20
14.6222767162
 10
17.4185912023
 20
14.5879872508
 10
17.3678842946
 20
14.5613543987
  0
LWPOLYLINE
  5
D7
330
1F
100
AcDbEntity
  8
0
  6
Continuous
 62
     7
370
    25
100
AcDbPolyline
 90
       33
 70
   128
 43
0.0
 10
19.5177095698
 20
10.8373442905
 10
19.5850314614
 20
10.8814124583
 10
19.656006227
 20
10.9410156097
 10
19.7203548641
 20
11.0102221703
 10
19.7777259229
 20
11.0886541578
 10
19.8278060624
 20
11.1758832038
 10
19.8703217623
 20
11.2714328936
 10
19.9050408166
 20
11.3747813679
 10
19.9317736019
 20
11.4853641731
 10
19.950374113
 20
11.6025773444
 10
19.9607407603
 20
11.725780704
 10
19.9628169247
 20
11.8543013579
 10
19.9565912671
 20
11.9874373709
 10
19.9420977898
 20
12.1244616002
 10
19.919415651
 20
12.2646256671
 10
19.8886687329
 20
12.4071640439
 10
19.8500249644
 20
12.5512982355
 10
19.8036954044
 20
12.6962410309
 10
19.7499330889
 20
12.8412008028
 10
19.6890316489
 20
12.9853858313
 10
19.6213237071
 20
13.1280086276
 10
19.5471790607
 20
13.2682902357
 10
19.4670026621
 20
13.4054644858
 10
19.3812324069
 20
13.5387821799
 10
19.2903367427
 20
13.667515183
 10
19.1948121098
 20
13.7909604
 10
19.0951802309
 20
13.9084436159
 10
18.9919852606
 20
14.0193231782
 10
18.8857908141
 20
14.1229935012
 10
18.7771768886
 20
14.2188883734
 10
18.6667366958
 20
14.3064840504
 10
18.5550734216
 20
14.385302115
 10
18.4427969322
 20
14.4549120902
  0
LWPOLYLINE
  5
D8
330
1F
100
AcDbEntity
  8
0
  6
Continuous
 62
     7
370
    25
100
AcDbPolyline
 90
       12
 70
   128
 43
0.0
 10
18.4074415932
 20
14.4345018874
 10
18.2951651037
 20
14.4945235876
 10
18.1835018296
 20
14.5446291952
 10
18.0730616367
 20
14.5845450506
 10
17.9644477113
 20
14.6140531475
 10
17.8582532648
 20
14.6329923226
 10
17.7550582945
 20
14.6412591369
 10
17.6554264155
 20
14.6388084399
 10
17.5599017827
 20
14.6256536163
 10
17.4690061184
 20
14.6018665134
 10
17.3832358633
 20
14.567577048
 10
17.3093576945
 20
14.5269782652
  0
LWPOLYLINE
  5
D9
330
1F
100
AcDbEntity
  8
0
  6
Continuous
 62
     7
370
    25
100
AcDbPolyline
 90
       34
 70
   128
 43
0.0
 10
19.4588510051
 20
10.8039466516
 10
19.4724628678
 20
10.8113280449
 10
19.5496761223
 20
10.8610022555
 10
19.6206508879
 20
10.9206054069
 10
19.6849995251
 20
10.9898119675
 10
19.7423705838
 20
11.068243955
 10
19.7924507233
 20
11.155473001
 10
19.8349664232
 20
11.2510226908
 10
19.8696854776
 20
11.3543711651
 10
19.8964182629
 20
11.4649539703
 10
19.9150187739
 20
11.5821671416
 10
19.9253854212
 20
11.7053705012
 10
19.9274615857
 20
11.8338911551
 10
19.921235928
 20
11.9670271681
 10
19.9067424507
 20
12.1040513974
 10
19.884060312
 20
12.2442154643
 10
19.8533133939
 20
12.3867538411
 10
19.8146696254
 20
12.5308880327
 10
19.7683400654
 20
12.6758308281
 10
19.7145777498
 20
12.8207906
 10
19.6536763099
 20
12.9649756285
 10
19.585968368
 20
13.1075984248
 10
19.5118237216
 20
13.2478800329
 10
19.431647323
 20
13.385054283
 10
19.3458770679
 20
13.5183719771
 10
19.2549814036
 20
13.6471049802
 10
19.1594567708
 20
13.7705501972
 10
19.0598248918
 20
13.8880334131
 10
18.9566299215
 20
13.9989129754
 10
18.850435475
 20
14.1025832984
 10
18.7418215496
 20
14.1984781706
 10
18.6313813567
 20
14.2860738476
 10
18.5197180826
 20
14.3648919122
 10
18.4074415932
 20
14.4345018874
  0
SPLINE
  5
DA
330
1F
100
AcDbEntity
  8
0
  6
Continuous
 62
     7
370
    25
100
AcDbSpline
210
0.0
220
0.0
230
1.0
 70
     8
 71
     3
 72
    13
 73
     9
 74
     0
 42
0.00000001
 43
0.00000001
 40
0.0
 40
0.0
 40
0.0
 40
0.0
 40
0.1812100768342773
 40
0.3678120828475013
 40
0.548984348377844
 40
0.7351811556003591
 40
0.9206278168511544
 40
1.0
 40
1.0
 40
1.0
 40
1.0
 10
19.21534694751649
 20
10.78006130698402
 30
0.0
 10
19.23649215800016
 20
10.79196485669642
 30
0.0
 10
19.27941175742929
 20
10.81612614777628
 30
0.0
 10
19.33334511268195
 20
10.83987225627773
 30
0.0
 10
19.37815368588071
 20
10.85466190033092
 30
0.0
 10
19.41001960442379
 20
10.85943967127708
 30
0.0
 10
19.42795459188812
 20
10.85768225994406
 30
0.0
 10
19.42925184833733
 20
10.85204370414766
 30
0.0
 10
19.42964066536699
 20
10.85035370174477
 30
0.0
  0
LINE
  5
DB
330
1F
100
AcDbEntity
  8
0
  6
Continuous
 62
     7
370
    25
100
AcDbLine
 10
18.9488138746
 20
10.6237402688
 30
0.0
 11
19.2153469475
 21
10.780061307
 31
0.0
  0
LINE
  5
DC
330
1F
100
AcDbEntity
  8
0
  6
Continuous
 62
     7
370
    25
100
AcDbLine
 10
17.166857751
 20
14.3281486637
 30
0.0
 11
16.8985304911
 21
14.1757028952
 31
0.0
  0
SPLINE
  5
DD
330
1F
100
AcDbEntity
  8
0
  6
Continuous
 62
     7
370
    25
100
AcDbSpline
210
0.0
220
0.0
230
1.0
 70
     8
 71
     3
 72
    13
 73
     9
 74
     0
 42
0.00000001
 43
0.00000001
 40
0.0
 40
0.0
 40
0.0
 40
0.0
 40
0.0355129009081324
 40
0.2230286307647786
 40
0.4103860778548673
 40
0.603225879343378
 40
0.798266344535119
 40
1.0
 40
1.0
 40
1.0
 40
1.0
 10
17.33562402147224
 20
14.47901036529517
 30
0.0
 10
17.33631916016788
 20
14.47857737058499
 30
0.0
 10
17.34068478019656
 20
14.475858070982
 30
0.0
 10
17.33555024497958
 20
14.46178040081855
 30
0.0
 10
17.3184350501916
 20
14.43761310816658
 30
0.0
 10
17.28452155481757
 20
14.40588364977209
 30
0.0
 10
17.2354674676928
 20
14.36894712151876
 30
0.0
 10
17.18998341367605
 20
14.34190023448132
 30
0.0
 10
17.16685775097663
 20
14.32814866373377
 30
0.0
  0
SPLINE
  5
DE
330
1F
100
AcDbEntity
  8
0
  6
Continuous
 62
     7
370
    25
100
AcDbSpline
210
0.0
220
0.0
230
1.0
 70
     8
 71
     3
 72
    14
 73
    10
 74
     0
 42
0.00000001
 43
0.00000001
 40
0.0
 40
0.0
 40
0.0
 40
0.0
 40
0.1300159596226282
 40
0.2918290070004677
 40
0.4581306848801775
 40
0.6244325333077405
 40
0.789866509022103
 40
0.955300448384376
 40
1.0
 40
1.0
 40
1.0
 40
1.0
 10
19.46842181387611
 20
10.84836648973647
 30
0.0
 10
19.49088822225182
 20
10.86268969088064
 30
0.0
 10
19.54131549030554
 20
10.89483901761793
 30
0.0
 10
19.61155818933993
 20
10.95952863253313
 30
0.0
 10
19.67976933973747
 20
11.03977473831529
 30
0.0
 10
19.73955790149514
 20
11.13209913645249
 30
0.0
 10
19.78911289040387
 20
11.23559571024716
 30
0.0
 10
19.82155521649957
 20
11.3192613887211
 30
0.0
 10
19.83400823284461
 20
11.37119379270773
 30
0.0
 10
19.8366572358393
 20
11.38224084266498
 30
0.0
  0
SPLINE
  5
DF
330
1F
100
AcDbEntity
  8
0
  6
Continuous
 62
     7
370
    25
100
AcDbSpline
210
0.0
220
0.0
230
1.0
 70
     8
 71
     3
 72
    13
 73
     9
 74
     0
 42
0.00000001
 43
0.00000001
 40
0.0
 40
0.0
 40
0.0
 40
0.0
 40
0.1396522132763554
 40
0.3297428060502841
 40
0.5198332822706601
 40
0.717403432603541
 40
0.9149735442445005
 40
1.0
 40
1.0
 40
1.0
 40
1.0
 10
18.00222571492509
 20
14.56459247003258
 30
0.0
 10
17.96838650599096
 20
14.57305765118199
 30
0.0
 10
17.88848633508296
 20
14.59304539445109
 30
0.0
 10
17.76723958538965
 20
14.60529597939918
 30
0.0
 10
17.63779626702234
 20
14.60299118888525
 30
0.0
 10
17.51449960104722
 20
14.58071181249418
 30
0.0
 10
17.41905082848668
 20
14.54955312649534
 30
0.0
 10
17.36830356336614
 20
14.52125315443052
 30
0.0
 10
17.35303494162655
 20
14.51273837895104
 30
0.0
  0
LWPOLYLINE
  5
E0
330
1F
100
AcDbEntity
  8
0
  6
Continuous
 62
     7
370
    25
100
AcDbPolyline
 90
       22
 70
   128
 43
0.0
 10
18.6801023492
 20
13.5235744841
 10
18.74579833
 20
13.5483833096
 10
18.8157460673
 20
13.5617400451
 10
18.8885021469
 20
13.5633690661
 10
18.9625652026
 20
13.5532367569
 10
19.0364068979
 20
13.5315522038
 10
19.1085034644
 20
13.4987628808
 10
19.1773671452
 20
13.4555454157
 10
19.2415768963
 20
13.4027916272
 10
19.2998077101
 20
13.3415901221
 10
19.3508579583
 20
13.2732038308
 10
19.3936741877
 20
13.1990439463
 10
19.4273728593
 20
13.1206408031
 10
19.4512585804
 20
13.0396122979
 10
19.4648384545
 20
12.9576305036
 10
19.4678322527
 20
12.8763871646
 10
19.460178196
 20
12.7975587869
 10
19.4420342306
 20
12.7227720422
 10
19.4137747684
 20
12.6535702007
 10
19.3759829605
 20
12.5913812847
 10
19.3294386641
 20
12.5374886005
 10
19.2751023492
 20
12.4930042567
  0
LINE
  5
E1
330
1F
100
AcDbEntity
  8
0
  6
Continuous
 62
     7
370
    25
100
AcDbLine
 10
18.0994740856
 20
13.2440363861
 30
0.0
 11
18.6801023492
 21
13.5235744841
 31
0.0
  0
LINE
  5
E2
330
1F
100
AcDbEntity
  8
0
  6
Continuous
 62
     7
370
    25
100
AcDbLine
 10
19.2751023492
 20
12.4930042567
 30
0.0
 11
18.7426657823
 21
12.1299831628
 31
0.0
  0
SPLINE
  5
E3
330
1F
100
AcDbEntity
  8
0
  6
Continuous
 62
     7
370
    25
100
AcDbSpline
210
0.0
220
0.0
230
1.0
 70
     8
 71
     3
 72
    17
 73
    13
 74
     0
 42
0.00000001
 43
0.00000001
 40
0.0
 40
0.0
 40
0.0
 40
0.0
 40
0.099902065642289
 40
0.1998025847635422
 40
0.3000213140152621
 40
0.3999212288873571
 40
0.4998301051351202
 40
0.6000573853455365
 40
0.6999658463467738
 40
0.7998711010066978
 40
0.900094781262205
 40
0.9999999999999999
 40
0.9999999999999999
 40
0.9999999999999999
 40
0.9999999999999999
 10
18.74151940529131
 20
14.15436648167678
 30
0.0
 10
18.79522711081291
 20
14.10695585253065
 30
0.0
 10
18.90264169044091
 20
14.0121353281725
 30
0.0
 10
19.05642458313343
 20
13.84758012984786
 30
0.0
 10
19.20237503709538
 20
13.66980560652167
 30
0.0
 10
19.33835479407504
 20
13.47926039861684
 30
0.0
 10
19.46232368067343
 20
13.27844981498108
 30
0.0
 10
19.57307599568323
 20
13.07017960131308
 30
0.0
 10
19.66939425571524
 20
12.85695694998138
 30
0.0
 10
19.74902502145542
 20
12.64154835425474
 30
0.0
 10
19.81324624070963
 20
12.4262252294688
 30
0.0
 10
19.84104253502318
 20
12.28574379301461
 30
0.0
 10
19.85491856630834
 20
12.21561484757918
 30
0.0
  0
LINE
  5
E4
330
1F
100
AcDbEntity
  8
0
  6
Continuous
 62
     7
370
    25
100
AcDbLine
 10
19.2153469475
 20
10.780061307
 30
0.0
 11
19.2751023492
 21
10.6765619155
 31
0.0
  0
LINE
  5
E5
330
1F
100
AcDbEntity
  8
0
  6
Continuous
 62
     7
370
    25
100
AcDbLine
 10
18.9195696272
 20
10.4713202637
 30
0.0
 11
19.2751023492
 21
10.6765619155
 31
0.0
  0
LINE
  5
E6
330
1F
100
AcDbEntity
  8
0
  6
Continuous
 62
     7
370
    25
100
AcDbLine
 10
17.1071023492
 20
14.4316480553
 30
0.0
 11
16.7516570555
 21
14.226456874
 31
0.0
  0
LINE
  5
E7
330
1F
100
AcDbEntity
  8
0
  6
Continuous
 62
     7
370
    25
100
AcDbLine
 10
17.166857751
 20
14.3281486637
 30
0.0
 11
17.1071023492
 21
14.4316480553
 31
0.0
  0
LWPOLYLINE
  5
E8
330
1F
100
AcDbEntity
  8
0
  6
Continuous
 62
     7
370
    25
100
AcDbPolyline
 90
       19
 70
   128
 43
0.0
 10
19.2751023492
 20
10.6765619155
 10
19.3294386641
 20
10.7079285365
 10
19.3759829605
 20
10.7347957908
 10
19.4137747684
 20
10.7566092563
 10
19.4420342306
 20
10.7729187987
 10
19.460178196
 20
10.7833878607
 10
19.4678322527
 20
10.7878004067
 10
19.4648384545
 20
10.7860653812
 10
19.4512585804
 20
10.7782185875
 10
19.4273728593
 20
10.764421949
 10
19.3936741877
 20
10.7449601677
 10
19.3508579583
 20
10.7202348494
 10
19.2998077101
 20
10.6907562162
 10
19.2415768963
 20
10.6571325776
 10
19.1773671452
 20
10.6200577781
 10
19.1085034644
 20
10.5802968787
 10
19.0364068979
 20
10.53867037
 10
18.9625652026
 20
10.4960372404
 10
18.9195354368
 20
10.4711940732
  0
LWPOLYLINE
  5
E9
330
1F
100
AcDbEntity
  8
0
  6
Continuous
 62
     7
370
    25
100
AcDbPolyline
 90
        8
 70
   128
 43
0.0
 10
17.3000884684
 20
14.5430330357
 10
17.2998322527
 20
14.5428865465
 10
17.292178196
 20
14.5384740005
 10
17.2740342306
 20
14.5280049385
 10
17.2457747684
 20
14.5116953961
 10
17.2079829605
 20
14.4898819306
 10
17.1614386641
 20
14.4630146763
 10
17.1071023492
 20
14.4316480553
  0
LWPOLYLINE
  5
EA
330
1F
100
AcDbEntity
  8
0
  6
Continuous
 62
     7
370
    25
100
AcDbPolyline
 90
       22
 70
   128
 43
0.0
 10
18.3264705442
 20
15.0416859293
 10
18.3655288456
 20
15.0642411399
 10
18.3960544408
 20
15.0818704714
 10
18.4171904407
 20
15.0940790601
 10
18.428464702
 20
15.1005941862
 10
18.4296253764
 20
15.1012703126
 10
18.4206465362
 20
15.0960923358
 10
18.4017287539
 20
15.0851759232
 10
18.3732946216
 20
15.0687649294
 10
18.3359793107
 20
15.0472259489
 10
18.2906163837
 20
15.0210401269
 10
18.2382191733
 20
14.9907924114
 10
18.1799581467
 20
14.9571584864
 10
18.1171347589
 20
14.9208896783
 10
18.0511523807
 20
14.8827961722
 10
17.9834849492
 20
14.8437289141
 10
17.9156440431
 20
14.804560602
 10
17.8491451162
 20
14.7661661914
 10
17.7854736446
 20
14.7294033498
 10
17.7260519436
 20
14.6950932984
 10
17.6722073961
 20
14.664002467
 10
17.6583657454
 20
14.6560098415
  0
LWPOLYLINE
  5
EB
330
1F
100
AcDbEntity
  8
0
  6
Continuous
 62
     7
370
    25
100
AcDbPolyline
 90
       23
 70
   128
 43
0.0
 10
18.3753825099
 20
15.1969679193
 10
18.3746253764
 20
15.1965331068
 10
18.3656465362
 20
15.19135513
 10
18.3467287539
 20
15.1804387173
 10
18.3182946216
 20
15.1640277235
 10
18.2809793107
 20
15.142488743
 10
18.2356163837
 20
15.116302921
 10
18.1832191733
 20
15.0860552055
 10
18.1249581467
 20
15.0524212806
 10
18.0621347589
 20
15.0161524724
 10
17.9961523807
 20
14.9780589663
 10
17.9284849492
 20
14.9389917082
 10
17.8606440431
 20
14.8998233962
 10
17.7941451162
 20
14.8614289855
 10
17.7304736446
 20
14.8246661439
 10
17.6710519436
 20
14.7903560925
 10
17.6172073961
 20
14.7592652612
 10
17.5701428001
 20
14.7320881677
 10
17.5309095009
 20
14.7094319034
 10
17.5003839057
 20
14.6918025719
 10
17.4792479058
 20
14.6795939832
 10
17.4679736446
 20
14.6730788571
 10
17.4660558366
 20
14.6719679181
  0
LINE
  5
EC
330
1F
100
AcDbEntity
  8
0
  6
Continuous
 62
     7
370
    25
100
AcDbLine
 10
17.658406566
 20
14.6560146691
 30
0.0
 11
17.7870394231
 21
14.730296977
 31
0.0
  0
ARC
  5
ED
330
1F
100
AcDbEntity
  8
0
  6
Continuous
 62
     7
370
    25
100
AcDbCircle
 10
69.753137282
 20
-74.142305146
 30
0.0
 40
102.9489722128091
100
AcDbArc
 50
119.9692810782
 51
120.0046692117
  0
LINE
  5
EE
330
1F
100
AcDbEntity
  8
0
  6
Continuous
 62
     7
370
    25
100
AcDbLine
 10
18.055052635
 20
14.8850385446
 30
0.0
 11
18.2713857116
 21
15.0099249714
 31
0.0
  0
LWPOLYLINE
  5
EF
330
1F
100
AcDbEntity
  8
0
  6
Continuous
 62
     7
370
    25
100
AcDbPolyline
 90
        9
 70
   128
 43
0.0
 10
18.055052635
 20
14.8850385446
 10
18.0207150114
 20
14.8652142562
 10
17.9859321027
 20
14.8451325778
 10
17.9510481256
 20
14.8249922406
 10
17.9164082965
 20
14.804992556
 10
17.8823554159
 20
14.7853314436
 10
17.8492264758
 20
14.7662034725
 10
17.8173493246
 20
14.7477979357
 10
17.7870394231
 20
14.730296977
  0
LINE
  5
F0
330
1F
100
AcDbEntity
  8
0
  6
Continuous
 62
     7
370
    25
100
AcDbLine
 10
17.8111568549
 20
14.8712511221
 30
0.0
 11
17.7484813023
 21
15.0687889071
 31
0.0
  0
ELLIPSE
  5
F1
330
1F
100
AcDbEntity
  8
0
  6
Continuous
 62
     7
370
    25
100
AcDbEllipse
 10
17.7226422502
 20
15.2775472123
 30
0.0
 11
0.179657665655153
 21
0.1876496486732755
 31
0.0
210
0.0
220
0.0
230
1.0
 40
0.7304108209
 41
4.175278756817534
 42
4.490305289231186
  0
LINE
  5
F2
330
1F
100
AcDbEntity
  8
0
  6
Continuous
 62
     7
370
    25
100
AcDbLine
 10
17.8794411308
 20
14.9106760863
 30
0.0
 11
17.8167655736
 21
15.1082138859
 31
0.0
  0
LINE
  5
F3
330
1F
100
AcDbEntity
  8
0
  6
Continuous
 62
     7
370
    25
100
AcDbLine
 10
18.055052635
 20
14.8850385446
 30
0.0
 11
18.0621533647
 21
14.8727397201
 31
0.0
  0
LINE
  5
F4
330
1F
100
AcDbEntity
  8
0
  6
Continuous
 62
     7
370
    25
100
AcDbLine
 10
17.7870394231
 20
14.730296977
 30
0.0
 11
17.7964655793
 21
14.7139703954
 31
0.0
  0
LINE
  5
F5
330
1F
100
AcDbEntity
  8
0
  6
Continuous
 62
     7
370
    25
100
AcDbLine
 10
17.9179707678
 20
14.9329213479
 30
0.0
 11
17.8167655736
 21
15.1082138859
 31
0.0
  0
LINE
  5
F6
330
1F
100
AcDbEntity
  8
0
  6
Continuous
 62
     7
370
    25
100
AcDbLine
 10
18.2567969178
 20
14.9118192413
 30
0.0
 11
18.2552267506
 21
14.9230086846
 31
0.0
  0
LINE
  5
F7
330
1F
100
AcDbEntity
  8
0
  6
Continuous
 62
     7
370
    25
100
AcDbLine
 10
18.2552267506
 20
14.9230086846
 30
0.0
 11
18.2905820896
 21
14.9434188873
 31
0.0
  0
LINE
  5
F8
330
1F
100
AcDbEntity
  8
0
  6
Continuous
 62
     7
370
    25
100
AcDbLine
 10
18.2905820896
 20
14.9434188873
 30
0.0
 11
18.2920149712
 21
14.93320778
 31
0.0
  0
LINE
  5
F9
330
1F
100
AcDbEntity
  8
0
  6
Continuous
 62
     7
370
    25
100
AcDbLine
 10
18.2343358234
 20
14.9308150354
 30
0.0
 11
18.2552267506
 21
14.9230086846
 31
0.0
  0
LINE
  5
FA
330
1F
100
AcDbEntity
  8
0
  6
Continuous
 62
     7
370
    25
100
AcDbLine
 10
18.2343358234
 20
14.9308150354
 30
0.0
 11
18.2350238637
 21
14.925911871
 31
0.0
  0
LINE
  5
FB
330
1F
100
AcDbEntity
  8
0
  6
Continuous
 62
     7
370
    25
100
AcDbLine
 10
18.2696911624
 20
14.9512252382
 30
0.0
 11
18.2905820896
 21
14.9434188873
 31
0.0
  0
LINE
  5
FC
330
1F
100
AcDbEntity
  8
0
  6
Continuous
 62
     7
370
    25
100
AcDbLine
 10
18.2343358234
 20
14.9308150354
 30
0.0
 11
18.2696911624
 21
14.9512252382
 31
0.0
  0
LINE
  5
FD
330
1F
100
AcDbEntity
  8
0
  6
Continuous
 62
     7
370
    25
100
AcDbLine
 10
18.1499341534
 20
15.0668399858
 30
0.0
 11
17.9171423528
 21
15.1661644345
 31
0.0
  0
ELLIPSE
  5
FE
330
1F
100
AcDbEntity
  8
0
  6
Continuous
 62
     7
370
    25
100
AcDbEllipse
 10
17.7226422502
 20
15.2775472123
 30
0.0
 11
0.28871198232099
 21
-0.01338908954907936
 31
0.0
210
0.0
220
0.0
230
1.0
 40
0.4888449076
 41
5.474001247236726
 42
5.789027779650407
  0
LINE
  5
FF
330
1F
100
AcDbEntity
  8
0
  6
Continuous
 62
     7
370
    25
100
AcDbLine
 10
18.2065026111
 20
15.0994963465
 30
0.0
 11
17.9737108953
 21
15.198820759
 31
0.0
  0
LINE
  5
100
330
1F
100
AcDbEntity
  8
0
  6
Continuous
 62
     7
370
    25
100
AcDbLine
 10
18.0183470819
 20
14.9908727022
 30
0.0
 11
17.9171423528
 21
15.1661644345
 31
0.0
  0
LINE
  5
101
330
1F
100
AcDbEntity
  8
0
  6
Continuous
 62
     7
370
    25
100
AcDbLine
 10
18.2713857116
 20
15.0099249714
 30
0.0
 11
18.2752821642
 21
15.0031761175
 31
0.0
  0
ELLIPSE
  5
102
330
1F
100
AcDbEntity
  8
0
  6
Continuous
 62
     7
370
    25
100
AcDbEllipse
 10
17.7226422502
 20
15.2775472123
 30
0.0
 11
0.3179153795917742
 21
-0.04165485136166681
 31
0.0
210
0.0
220
0.0
230
1.0
 40
0.0822150872
 41
6.018714034936277
 42
6.33374056734985
  0
LINE
  5
103
330
1F
100
AcDbEntity
  8
0
  6
Continuous
 62
     7
370
    25
100
AcDbLine
 10
18.0708267585
 20
15.1573846794
 30
0.0
 11
18.0286087788
 21
15.2305083651
 31
0.0
  0
LINE
  5
104
330
1F
100
AcDbEntity
  8
0
  6
Continuous
 62
     7
370
    25
100
AcDbLine
 10
16.960848882
 20
16.3779361168
 30
0.0
 11
17.7872726792
 21
14.9465281157
 31
0.0
  0
LWPOLYLINE
  5
105
330
1F
100
AcDbEntity
  8
0
  6
Continuous
 62
     7
370
    25
100
AcDbPolyline
 90
       11
 70
   128
 43
0.0
 10
16.960848882
 20
16.3779361168
 10
17.0064812078
 20
16.4042833552
 10
17.0544697513
 20
16.4319900451
 10
17.1025180843
 20
16.4597303196
 10
17.1483269173
 20
16.4861767045
 10
17.1897041292
 20
16.5100636431
 10
17.2246696683
 20
16.5302480575
 10
17.2515503049
 20
16.5457640492
 10
17.2690597018
 20
16.555869121
 10
17.2763599699
 20
16.5600797081
 10
17.2765556511
 20
16.5601918632
  0
LINE
  5
106
330
1F
100
AcDbEntity
  8
0
  6
Continuous
 62
     7
370
    25
100
AcDbLine
 10
17.5765595447
 20
14.7357935492
 30
0.0
 11
17.6302774782
 21
14.9147544039
 31
0.0
  0
LINE
  5
107
330
1F
100
AcDbEntity
  8
0
  6
Continuous
 62
     7
370
    25
100
AcDbLine
 10
17.5365596298
 20
14.7126948175
 30
0.0
 11
17.5902774782
 21
14.8916553888
 31
0.0
  0
ELLIPSE
  5
108
330
1F
100
AcDbEntity
  8
0
  6
Continuous
 62
     7
370
    25
100
AcDbEllipse
 10
17.648469229
 20
15.0304404007
 30
0.0
 11
0.06136379074335351
 21
0.137797746019725
 31
0.0
210
0.0
220
0.0
230
0.9999999999999998
 40
0.3049453522
 41
3.213380450388104
 42
3.864839424990961
  0
LINE
  5
109
330
1F
100
AcDbEntity
  8
0
  6
Continuous
 62
     7
370
    25
100
AcDbLine
 10
17.6302774782
 20
14.9147544039
 30
0.0
 11
17.6943365952
 21
14.8038007588
 31
0.0
  0
LWPOLYLINE
  5
10A
330
1F
100
AcDbEntity
  8
0
  6
Continuous
 62
     7
370
    25
100
AcDbPolyline
 90
        8
 70
   128
 43
0.0
 10
16.7848314382
 20
16.2763049299
 10
16.7893250572
 20
16.278902053
 10
16.804696266
 20
16.287779423
 10
16.829397435
 20
16.3020428645
 10
16.8608211965
 20
16.3201867791
 10
16.8956505698
 20
16.3402959596
 10
16.9302090898
 20
16.3602477523
 10
16.960848882
 20
16.3779361168
  0
LINE
  5
10B
330
1F
100
AcDbEntity
  8
0
  6
Continuous
 62
     7
370
    25
100
AcDbLine
 10
18.3544379946
 20
15.1848876636
 30
0.0
 11
18.0286087788
 21
15.2305083651
 31
0.0
  0
LINE
  5
10C
330
1F
100
AcDbEntity
  8
0
  6
Continuous
 62
     7
370
    25
100
AcDbLine
 10
18.3661508828
 20
15.1916460996
 30
0.0
 11
18.0403245075
 21
15.2372664034
 31
0.0
  0
LINE
  5
10D
330
1F
100
AcDbEntity
  8
0
  6
Continuous
 62
     7
370
    25
100
AcDbLine
 10
17.4752874981
 20
14.6773058861
 30
0.0
 11
17.5711809459
 21
14.914307634
 31
0.0
  0
LWPOLYLINE
  5
10E
330
1F
100
AcDbEntity
  8
0
  6
Continuous
 62
     7
370
    25
100
AcDbPolyline
 90
       13
 70
   128
 43
0.0
 10
17.2131382397
 20
14.0308345211
 10
17.0925015566
 20
14.0957177331
 10
16.9724273374
 20
14.1507807042
 10
16.8534754235
 20
14.1957667053
 10
16.7362004237
 20
14.230465991
 10
16.6211491281
 20
14.2547167771
 10
16.5088579591
 20
14.2684059953
 10
16.3998504698
 20
14.2714698201
 10
16.2946349036
 20
14.2638939665
 10
16.1937018239
 20
14.2457137568
 10
16.0975218273
 20
14.2170139554
 10
16.0065433495
 20
14.177928374
 10
15.9252382681
 20
14.1312905641
  0
LWPOLYLINE
  5
10F
330
1F
100
AcDbEntity
  8
0
  6
Continuous
 62
     7
370
    25
100
AcDbPolyline
 90
       36
 70
   128
 43
0.0
 10
18.4238432951
 20
9.803110742
 10
18.5050859054
 20
9.850325735
 10
18.5844150245
 20
9.9095885976
 10
18.6573506182
 20
9.9785488856
 10
18.7235526271
 20
10.0568850744
 10
18.7827123868
 20
10.1442319245
 10
18.8345540674
 20
10.2401821845
 10
18.8788359589
 20
10.34428849
 10
18.9153515987
 20
10.4560654495
 10
18.9439307341
 20
10.574991907
 10
18.9644401159
 20
10.7005133726
 10
18.9767841199
 20
10.8320446072
 10
18.9809051927
 20
10.9689723516
 10
18.9767841199
 20
11.1106581853
 10
18.9644401159
 20
11.2564415036
 10
18.9439307341
 20
11.4056425974
 10
18.9153515987
 20
11.5575658223
 10
18.8788359589
 20
11.711502842
 10
18.8345540674
 20
11.8667359313
 10
18.7827123868
 20
12.0225413216
 10
18.7235526271
 20
12.1781925764
 10
18.6573506182
 20
12.3329639777
 10
18.5844150245
 20
12.4861339097
 10
18.5050859054
 20
12.6369882236
 10
18.41973313
 20
12.7848235668
 10
18.3287546521
 20
12.9289506628
 10
18.2325746556
 20
13.0686975246
 10
18.1316415759
 20
13.2034125876
 10
18.0264260096
 20
13.3324677481
 10
17.9174185204
 20
13.4552612915
 10
17.8051273513
 20
13.5712206974
 10
17.6900760558
 20
13.6798053097
 10
17.572801056
 20
13.7805088567
 10
17.4538491421
 20
13.872861812
 10
17.3337749229
 20
13.9564335835
 10
17.2131382397
 20
14.0308345211
  0
LWPOLYLINE
  5
110
330
1F
100
AcDbEntity
  8
0
  6
Continuous
 62
     7
370
    25
100
AcDbPolyline
 90
       93
 70
   128
 43
0.0
 10
16.9479731968
 20
13.864388897
 10
16.8281265803
 20
13.9288471797
 10
16.7088387442
 20
13.9835495356
 10
16.5906658632
 20
14.028240917
 10
16.4741589139
 20
14.0627129521
 10
16.3598611056
 20
14.0868049164
 10
16.2483053473
 20
14.1004044819
 10
16.1400117635
 20
14.1034482413
 10
16.0354852689
 20
14.0959220031
 10
15.9352132142
 20
14.0778608582
 10
15.8396631141
 20
14.0493490158
 10
15.7492804672
 20
14.0105194115
 10
15.6644866791
 20
13.9615530866
 10
15.5856770976
 20
13.9026783449
 10
15.5132191695
 20
13.8341696876
 10
15.4474507269
 20
13.7563465336
 10
15.3886784128
 20
13.6695717304
 10
15.3371762507
 20
13.5742498622
 10
15.2931843675
 20
13.4708253636
 10
15.2569078738
 20
13.3597804472
 10
15.2285159072
 20
13.2416328559
 10
15.2081408443
 20
13.1169334481
 10
15.1958776829
 20
12.9862636301
 10
15.1917835996
 20
12.8502326449
 10
15.1958776829
 20
12.7094747318
 10
15.2081408443
 20
12.5646461691
 10
15.2285159072
 20
12.4164222143
 10
15.2569078738
 20
12.2654939561
 10
15.2931843675
 20
12.1125650917
 10
15.3371762507
 20
11.9583486459
 10
15.3886784128
 20
11.8035636471
 10
15.4474507269
 20
11.6489317744
 10
15.5132191695
 20
11.4951739929
 10
15.5856770976
 20
11.3430071924
 10
15.6644866791
 20
11.1931408448
 10
15.7492804672
 20
11.0462736961
 10
15.8396631141
 20
10.9030905089
 10
15.9352132142
 20
10.7642588691
 10
16.0354852689
 20
10.6304260741
 10
16.1400117635
 20
10.502216114
 10
16.2483053473
 20
10.380226763
 10
16.3598611056
 20
10.2650267916
 10
16.4741589139
 20
10.1571533153
 10
16.5906658632
 20
10.0571092901
 10
16.7088387442
 20
9.9653611673
 10
16.8281265803
 20
9.8823367191
 10
16.9479731968
 20
9.8084230439
 10
17.0678198132
 20
9.7439647611
 10
17.1871076494
 20
9.6892624052
 10
17.3052805304
 20
9.6445710238
 10
17.4217874796
 20
9.6100989887
 10
17.536085288
 20
9.5860070244
 10
17.6476410463
 20
9.5724074589
 10
17.7559346301
 20
9.5693636995
 10
17.8604611247
 20
9.5768899377
 10
17.9607331794
 20
9.5949510826
 10
18.0562832795
 20
9.623462925
 10
18.1466659264
 20
9.6622925294
 10
18.2314597145
 20
9.7112588542
 10
18.3102692959
 20
9.7701335959
 10
18.3827272241
 20
9.8386422533
 10
18.4484956667
 20
9.9164654073
 10
18.5072679808
 20
10.0032402104
 10
18.5587701429
 20
10.0985620786
 10
18.602762026
 20
10.2019865773
 10
18.6390385198
 20
10.3130314936
 10
18.6674304863
 20
10.4311790849
 10
18.6878055493
 20
10.5558784927
 10
18.7000687107
 20
10.6865483107
 10
18.704162794
 20
10.8225792959
 10
18.7000687107
 20
10.963337209
 10
18.6878055493
 20
11.1081657718
 10
18.6674304863
 20
11.2563897265
 10
18.6390385198
 20
11.4073179847
 10
18.602762026
 20
11.5602468491
 10
18.5587701429
 20
11.7144632949
 10
18.5072679808
 20
11.8692482937
 10
18.4484956667
 20
12.0238801664
 10
18.3827272241
 20
12.1776379479
 10
18.3102692959
 20
12.3298047484
 10
18.2314597145
 20
12.479671096
 10
18.1466659264
 20
12.6265382447
 10
18.0562832795
 20
12.769721432
 10
17.9607331794
 20
12.9085530717
 10
17.8604611247
 20
13.0423858667
 10
17.7559346301
 20
13.1705958268
 10
17.6476410463
 20
13.2925851778
 10
17.536085288
 20
13.4077851492
 10
17.4217874796
 20
13.5156586255
 10
17.3052805304
 20
13.6157026508
 10
17.1871076494
 20
13.7074507735
 10
17.0678198132
 20
13.7904752217
 10
16.9479731968
 20
13.864388897
  0
LWPOLYLINE
  5
111
330
1F
100
AcDbEntity
  8
0
  6
Continuous
 62
     7
370
    25
100
AcDbPolyline
 90
       10
 70
   128
 43
0.0
 10
18.330366954
 20
11.0383670411
 10
18.3261547702
 20
11.0808579394
 10
18.3137630157
 20
11.1257427051
 10
18.2939118542
 20
11.1704127986
 10
18.2677549629
 20
11.2122721565
 10
18.2368124855
 20
11.2488880652
 10
18.2028826862
 20
11.278132541
 10
18.1679374415
 20
11.2983060013
 10
18.1340076422
 20
11.3082360379
 10
18.1078424835
 20
11.3082367602
  0
ARC
  5
112
330
1F
100
AcDbEntity
  8
0
  6
Continuous
 62
     7
370
    25
100
AcDbCircle
 10
18.2212946411
 20
11.0297109039
 30
0.0
 40
0.1094152555931712
100
AcDbArc
 50
314.1653562478
 51
4.5375660342
  0
LWPOLYLINE
  5
113
330
1F
100
AcDbEntity
  8
0
  6
Continuous
 62
     7
370
    25
100
AcDbPolyline
 90
       10
 70
   128
 43
0.0
 10
15.8554932199
 20
12.4670812368
 10
15.8512810361
 20
12.5095721351
 10
15.8388892815
 20
12.5544569008
 10
15.81903812
 20
12.5991269943
 10
15.7928812288
 20
12.6409863522
 10
15.7619387514
 20
12.6776022609
 10
15.728008952
 20
12.7068467366
 10
15.6930637074
 20
12.727020197
 10
15.6591339081
 20
12.7369502336
 10
15.6329687494
 20
12.7369509559
  0
ARC
  5
114
330
1F
100
AcDbEntity
  8
0
  6
Continuous
 62
     7
370
    25
100
AcDbCircle
 10
15.7464209069
 20
12.4584250996
 30
0.0
 40
0.1094152555931631
100
AcDbArc
 50
314.1653562478
 51
4.5375660342
  0
LWPOLYLINE
  5
115
330
1F
100
AcDbEntity
  8
0
  6
Continuous
 62
     7
370
    25
100
AcDbPolyline
 90
        3
 70
   128
 43
0.0
 10
16.4006484781
 20
12.6731042648
 10
16.3907222264
 20
12.6667459382
 10
16.3891761194
 20
12.6657103936
  0
LINE
  5
116
330
1F
100
AcDbEntity
  8
0
  6
Continuous
 62
     7
370
    25
100
AcDbLine
 10
17.4558989499
 20
10.9838641803
 30
0.0
 11
17.4584256946
 21
10.9850996799
 31
0.0
  0
LWPOLYLINE
  5
117
330
1F
100
AcDbEntity
  8
0
  6
Continuous
 62
     7
370
    25
100
AcDbPolyline
 90
       15
 70
   128
 43
0.0
 10
17.4558989499
 20
10.9838641803
 10
17.3783647761
 20
10.950104232
 10
17.2941692944
 20
10.9221631945
 10
17.2046156251
 20
10.90047352
 10
17.111089819
 20
10.8853709067
 10
17.0150394048
 20
10.8770891025
 10
16.9179509855
 20
10.8757562875
 10
16.8213272295
 20
10.8813930901
 10
16.7266636137
 20
10.8939122678
 10
16.6354252769
 20
10.9131200572
 10
16.5490243441
 20
10.9387191732
 10
16.4687980701
 20
10.9703134102
 10
16.3959881426
 20
11.007413774
 10
16.3317214641
 20
11.0494460504
 10
16.3044469912
 20
11.0709818901
  0
SPLINE
  5
118
330
1F
100
AcDbEntity
  8
0
  6
Continuous
 62
     7
370
    25
100
AcDbSpline
210
0.0
220
0.0
230
1.0
 70
     8
 71
     3
 72
    13
 73
     9
 74
     0
 42
0.00000001
 43
0.00000001
 40
0.0
 40
0.0
 40
0.0
 40
0.0
 40
0.19783029573761
 40
0.3953004648874364
 40
0.602240926288678
 40
0.8290525882169238
 40
0.9963125971572766
 40
1.0
 40
1.0
 40
1.0
 40
1.0
 10
17.45842569455616
 20
10.98509967993914
 30
0.0
 10
17.46318099449853
 20
10.98670488029263
 30
0.0
 10
17.47268293792376
 20
10.98991235892277
 30
0.0
 10
17.48758609503829
 20
10.98654973168319
 30
0.0
 10
17.5014502189572
 20
10.97744840507164
 30
0.0
 10
17.51193328311671
 20
10.96381806616312
 30
0.0
 10
17.51674380480924
 20
10.9528426652972
 30
0.0
 10
17.51836568351293
 20
10.94788175327421
 30
0.0
 10
17.51840066807386
 20
10.94777474445258
 30
0.0
  0
LWPOLYLINE
  5
119
330
1F
100
AcDbEntity
  8
0
  6
Continuous
 62
     7
370
    25
100
AcDbPolyline
 90
       27
 70
   128
 43
0.0
 10
15.7065940792
 20
12.7162863923
 10
15.6718190138
 20
12.7314856722
 10
15.6390649489
 20
12.7360497494
 10
15.6102354316
 20
12.7297133761
 10
15.5870059286
 20
12.7128447995
 10
15.5707264542
 20
12.6864243598
 10
15.5623431124
 20
12.6519875169
 10
15.5623431124
 20
12.6115356151
 10
15.5707264542
 20
12.5674195718
 10
15.5870059286
 20
12.5222032511
 10
15.6102354316
 20
12.4785144612
 10
15.6390649489
 20
12.4388922357
 10
15.6718190138
 20
12.4056392745
 10
15.7065940792
 20
12.3806881186
 10
15.7413691445
 20
12.3654888387
 10
15.7741232094
 20
12.3609247615
 10
15.8029527267
 20
12.3672611348
 10
15.8261822297
 20
12.3841297114
 10
15.8424617041
 20
12.4105501511
 10
15.8508450459
 20
12.444986994
 10
15.8508450459
 20
12.4854388958
 10
15.8424617041
 20
12.5295549391
 10
15.8261822297
 20
12.5747712598
 10
15.8029527267
 20
12.6184600497
 10
15.7741232094
 20
12.6580822752
 10
15.7413691445
 20
12.6913352364
 10
15.7065940792
 20
12.7162863923
  0
ARC
  5
11A
330
1F
100
AcDbEntity
  8
0
  6
Continuous
 62
     7
370
    25
100
AcDbCircle
 10
15.6503586261
 20
12.6385849346
 30
0.0
 40
0.099656578698162
100
AcDbArc
 50
53.1466013049
 51
115.542940266
  0
LWPOLYLINE
  5
11B
330
1F
100
AcDbEntity
  8
0
  6
Continuous
 62
     7
370
    25
100
AcDbPolyline
 90
       11
 70
   128
 43
0.0
 10
15.8128712628
 20
12.3725552345
 10
15.8297177636
 20
12.3861707317
 10
15.845997238
 20
12.4125911714
 10
15.8543805799
 20
12.4470280142
 10
15.8543805799
 20
12.487479916
 10
15.845997238
 20
12.5315959593
 10
15.8297177636
 20
12.5768122801
 10
15.8064882606
 20
12.62050107
 10
15.7776587433
 20
12.6601232954
 10
15.7449046784
 20
12.6933762567
 10
15.7101296131
 20
12.7183274126
  0
LINE
  5
11C
330
1F
100
AcDbEntity
  8
0
  6
Continuous
 62
     7
370
    25
100
AcDbLine
 10
15.681078561
 20
12.6142508513
 30
0.0
 11
15.7321095973
 21
12.5847912611
 31
0.0
  0
LINE
  5
11D
330
1F
100
AcDbEntity
  8
0
  6
Continuous
 62
     7
370
    25
100
AcDbLine
 10
15.6555630428
 20
12.5779468456
 30
0.0
 11
15.681078561
 21
12.6142508513
 31
0.0
  0
LINE
  5
11E
330
1F
100
AcDbEntity
  8
0
  6
Continuous
 62
     7
370
    25
100
AcDbLine
 10
15.681078561
 20
12.5121832498
 30
0.0
 11
15.6555630428
 21
12.5779468456
 31
0.0
  0
LINE
  5
11F
330
1F
100
AcDbEntity
  8
0
  6
Continuous
 62
     7
370
    25
100
AcDbLine
 10
15.7321095973
 20
12.4827236596
 30
0.0
 11
15.681078561
 21
12.5121832498
 31
0.0
  0
LINE
  5
120
330
1F
100
AcDbEntity
  8
0
  6
Continuous
 62
     7
370
    25
100
AcDbLine
 10
15.7576251155
 20
12.5190276652
 30
0.0
 11
15.7321095973
 21
12.4827236596
 31
0.0
  0
LINE
  5
121
330
1F
100
AcDbEntity
  8
0
  6
Continuous
 62
     7
370
    25
100
AcDbLine
 10
15.7321095973
 20
12.5847912611
 30
0.0
 11
15.7576251155
 21
12.5190276652
 31
0.0
  0
ARC
  5
122
330
1F
100
AcDbEntity
  8
0
  6
Continuous
 62
     7
370
    25
100
AcDbCircle
 10
15.8295902731
 20
12.6194745782
 30
0.0
 40
0.107066239619606
100
AcDbArc
 50
201.3022023724
 51
216.1900440244
  0
LINE
  5
123
330
1F
100
AcDbEntity
  8
0
  6
Continuous
 62
     7
370
    25
100
AcDbLine
 10
15.7274510078
 20
12.5874806075
 30
0.0
 11
15.7298390919
 21
12.5805788006
 31
0.0
  0
LINE
  5
124
330
1F
100
AcDbEntity
  8
0
  6
Continuous
 62
     7
370
    25
100
AcDbLine
 10
15.6997644
 20
12.603463746
 30
0.0
 11
15.6555630428
 21
12.5779468456
 31
0.0
  0
LINE
  5
125
330
1F
100
AcDbEntity
  8
0
  6
Continuous
 62
     7
370
    25
100
AcDbLine
 10
15.742596851
 20
12.5476970027
 30
0.0
 11
15.681078561
 21
12.5121832498
 31
0.0
  0
LINE
  5
126
330
1F
100
AcDbEntity
  8
0
  6
Continuous
 62
     7
370
    25
100
AcDbLine
 10
15.7476288045
 20
12.5447921177
 30
0.0
 11
15.742596851
 21
12.5476970027
 31
0.0
  0
LINE
  5
127
330
1F
100
AcDbEntity
  8
0
  6
Continuous
 62
     7
370
    25
100
AcDbLine
 10
15.7298390919
 20
12.5805788006
 30
0.0
 11
15.7270776438
 21
12.587696146
 31
0.0
  0
LINE
  5
128
330
1F
100
AcDbEntity
  8
0
  6
Continuous
 62
     7
370
    25
100
AcDbLine
 10
15.742596851
 20
12.5476970027
 30
0.0
 11
15.7298390919
 21
12.5805788006
 31
0.0
  0
LWPOLYLINE
  5
129
330
1F
100
AcDbEntity
  8
0
  6
Continuous
 62
     7
370
    25
100
AcDbPolyline
 90
       27
 70
   128
 43
0.0
 10
18.1814678133
 20
11.2875721966
 10
18.146692748
 20
11.3027714765
 10
18.1139386831
 20
11.3073355537
 10
18.0851091657
 20
11.3009991804
 10
18.0618796627
 20
11.2841306038
 10
18.0456001884
 20
11.2577101641
 10
18.0372168465
 20
11.2232733212
 10
18.0372168465
 20
11.1828214194
 10
18.0456001884
 20
11.1387053761
 10
18.0618796627
 20
11.0934890554
 10
18.0851091657
 20
11.0498002655
 10
18.1139386831
 20
11.01017804
 10
18.146692748
 20
10.9769250788
 10
18.1814678133
 20
10.9519739229
 10
18.2162428786
 20
10.936774643
 10
18.2489969436
 20
10.9322105658
 10
18.2778264609
 20
10.9385469391
 10
18.3010559639
 20
10.9554155157
 10
18.3173354382
 20
10.9818359554
 10
18.3257187801
 20
11.0162727983
 10
18.3257187801
 20
11.0567247001
 10
18.3173354382
 20
11.1008407434
 10
18.3010559639
 20
11.1460570641
 10
18.2778264609
 20
11.189745854
 10
18.2489969436
 20
11.2293680795
 10
18.2162428786
 20
11.2626210407
 10
18.1814678133
 20
11.2875721966
  0
ARC
  5
12A
330
1F
100
AcDbEntity
  8
0
  6
Continuous
 62
     7
370
    25
100
AcDbCircle
 10
18.1252323602
 20
11.2098707389
 30
0.0
 40
0.0996565786981578
100
AcDbArc
 50
53.1466013049
 51
115.542940266
  0
LWPOLYLINE
  5
12B
330
1F
100
AcDbEntity
  8
0
  6
Continuous
 62
     7
370
    25
100
AcDbPolyline
 90
       11
 70
   128
 43
0.0
 10
18.287744997
 20
10.9438410388
 10
18.3045914978
 20
10.957456536
 10
18.3208709721
 20
10.9838769757
 10
18.329254314
 20
11.0183138185
 10
18.329254314
 20
11.0587657204
 10
18.3208709721
 20
11.1028817637
 10
18.3045914978
 20
11.1480980844
 10
18.2813619948
 20
11.1917868743
 10
18.2525324775
 20
11.2314090998
 10
18.2197784125
 20
11.264662061
 10
18.1850033472
 20
11.2896132169
  0
LINE
  5
12C
330
1F
100
AcDbEntity
  8
0
  6
Continuous
 62
     7
370
    25
100
AcDbLine
 10
18.1559522952
 20
11.1855366556
 30
0.0
 11
18.2069833315
 21
11.1560770654
 31
0.0
  0
LINE
  5
12D
330
1F
100
AcDbEntity
  8
0
  6
Continuous
 62
     7
370
    25
100
AcDbLine
 10
18.130436777
 20
11.14923265
 30
0.0
 11
18.1559522952
 21
11.1855366556
 31
0.0
  0
LINE
  5
12E
330
1F
100
AcDbEntity
  8
0
  6
Continuous
 62
     7
370
    25
100
AcDbLine
 10
18.1559522952
 20
11.0834690541
 30
0.0
 11
18.130436777
 21
11.14923265
 31
0.0
  0
LINE
  5
12F
330
1F
100
AcDbEntity
  8
0
  6
Continuous
 62
     7
370
    25
100
AcDbLine
 10
18.2069833315
 20
11.0540094639
 30
0.0
 11
18.1559522952
 21
11.0834690541
 31
0.0
  0
LINE
  5
130
330
1F
100
AcDbEntity
  8
0
  6
Continuous
 62
     7
370
    25
100
AcDbLine
 10
18.2324988496
 20
11.0903134696
 30
0.0
 11
18.2069833315
 21
11.0540094639
 31
0.0
  0
LINE
  5
131
330
1F
100
AcDbEntity
  8
0
  6
Continuous
 62
     7
370
    25
100
AcDbLine
 10
18.2069833315
 20
11.1560770654
 30
0.0
 11
18.2324988496
 21
11.0903134696
 31
0.0
  0
ARC
  5
132
330
1F
100
AcDbEntity
  8
0
  6
Continuous
 62
     7
370
    25
100
AcDbCircle
 10
18.3044640072
 20
11.1907603825
 30
0.0
 40
0.1070662396194265
100
AcDbArc
 50
201.3022023724
 51
216.1900440244
  0
LINE
  5
133
330
1F
100
AcDbEntity
  8
0
  6
Continuous
 62
     7
370
    25
100
AcDbLine
 10
18.202324742
 20
11.1587664119
 30
0.0
 11
18.204712826
 21
11.1518646049
 31
0.0
  0
LINE
  5
134
330
1F
100
AcDbEntity
  8
0
  6
Continuous
 62
     7
370
    25
100
AcDbLine
 10
18.1746381342
 20
11.1747495503
 30
0.0
 11
18.130436777
 21
11.14923265
 31
0.0
  0
LINE
  5
135
330
1F
100
AcDbEntity
  8
0
  6
Continuous
 62
     7
370
    25
100
AcDbLine
 10
18.2174705851
 20
11.118982807
 30
0.0
 11
18.1559522952
 21
11.0834690541
 31
0.0
  0
LINE
  5
136
330
1F
100
AcDbEntity
  8
0
  6
Continuous
 62
     7
370
    25
100
AcDbLine
 10
18.2225025386
 20
11.116077922
 30
0.0
 11
18.2174705851
 21
11.118982807
 31
0.0
  0
LINE
  5
137
330
1F
100
AcDbEntity
  8
0
  6
Continuous
 62
     7
370
    25
100
AcDbLine
 10
18.204712826
 20
11.1518646049
 30
0.0
 11
18.2019513779
 21
11.1589819503
 31
0.0
  0
LINE
  5
138
330
1F
100
AcDbEntity
  8
0
  6
Continuous
 62
     7
370
    25
100
AcDbLine
 10
18.2174705851
 20
11.118982807
 30
0.0
 11
18.204712826
 21
11.1518646049
 31
0.0
  0
LINE
  5
139
330
1F
100
AcDbEntity
  8
0
  6
Continuous
 62
     7
370
    25
100
AcDbLine
 10
20.9441087713
 20
12.0987405647
 30
0.0
 11
20.871849113
 21
12.0590780333
 31
0.0
  0
SPLINE
  5
13A
330
1F
100
AcDbEntity
  8
0
  6
Continuous
 62
     7
370
    25
100
AcDbSpline
210
0.0
220
0.0
230
1.0
 70
     8
 71
     3
 72
    33
 73
    29
 74
     0
 42
0.00000001
 43
0.00000001
 40
0.0
 40
0.0
 40
0.0
 40
0.0
 40
0.030006288814681
 40
0.0706966045595943
 40
0.1102472076106185
 40
0.1497978789095448
 40
0.1904978204381789
 40
0.2311977452426065
 40
0.270739791797934
 40
0.3102818719722837
 40
0.3509721079212009
 40
0.3916623100530091
 40
0.4312054932743135
 40
0.470748679618287
 40
0.5114407859996745
 40
0.5521328419439465
 40
0.5916727161523164
 40
0.6312126173077165
 40
0.6719011939920944
 40
0.7125897860746261
 40
0.7521303854261674
 40
0.7916709446865513
 40
0.8323605256246752
 40
0.8730501868677796
 40
0.9125919059848777
 40
0.9521335436952788
 40
0.9928242327599631
 40
0.9999999999999999
 40
0.9999999999999999
 40
0.9999999999999999
 40
0.9999999999999999
 10
19.8366572358393
 20
11.38224084266498
 30
0.0
 10
19.84481360001528
 20
11.41265137966345
 30
0.0
 10
19.86403048006179
 20
11.4843004170337
 30
0.0
 10
19.88165721835305
 20
11.60637618342816
 30
0.0
 10
19.8915403531898
 20
11.74541385311142
 30
0.0
 10
19.8906840612576
 20
11.8911917346156
 30
0.0
 10
19.87916334045782
 20
12.04389823037491
 30
0.0
 10
19.85690190444175
 20
12.20114018798209
 30
0.0
 10
19.8244499928863
 20
12.36019883186759
 30
0.0
 10
19.78207496220027
 20
12.52140100172093
 30
0.0
 10
19.72932499719004
 20
12.68523640610852
 30
0.0
 10
19.66695075270166
 20
12.84897114560495
 30
0.0
 10
19.59611510603319
 20
13.00987197716462
 30
0.0
 10
19.51693101257119
 20
13.16842255542031
 30
0.0
 10
19.4289152397807
 20
13.32493638834911
 30
0.0
 10
19.33344454592814
 20
13.47673580674456
 30
0.0
 10
19.23220511439151
 20
13.62134224775322
 30
0.0
 10
19.12514965408127
 20
13.75934905316101
 30
0.0
 10
19.01180562250353
 20
13.8908776341824
 30
0.0
 10
18.89400833780601
 20
14.01361905400544
 30
0.0
 10
18.77378251451225
 20
14.12564139904913
 30
0.0
 10
18.65091936898425
 20
14.22756796558887
 30
0.0
 10
18.52501176248155
 20
14.31932109529019
 30
0.0
 10
18.39817639358584
 20
14.39910429863738
 30
0.0
 10
18.2724524204782
 20
14.46617040120539
 30
0.0
 10
18.14783548911775
 20
14.51956031021235
 30
0.0
 10
18.05741975179189
 20
14.55230602631982
 30
0.0
 10
18.00942127382675
 20
14.56299070588476
 30
0.0
 10
18.00222571492509
 20
14.56459247003258
 30
0.0
  0
LINE
  5
13B
330
1F
100
AcDbEntity
  8
0
  6
Continuous
 62
     7
370
    25
100
AcDbLine
 10
17.5184006681
 20
10.9477747445
 30
0.0
 11
17.4559622662
 21
10.9838196666
 31
0.0
  0
LWPOLYLINE
  5
13C
330
1F
100
AcDbEntity
  8
0
  6
Continuous
 62
     7
370
    25
100
AcDbPolyline
 90
       35
 70
   128
 43
0.0
 10
16.2510921022
 20
12.5535926546
 10
16.2773804897
 20
12.6070538197
 10
16.3162048374
 20
12.664275606
 10
16.3620949134
 20
12.7122384577
 10
16.4145374809
 20
12.750405956
 10
16.4729460195
 20
12.7783512336
 10
16.5366672854
 20
12.7957617491
 10
16.6049886168
 20
12.8024427826
 10
16.6771459046
 20
12.798319613
 10
16.752332138
 20
12.7834383541
 10
16.8297064307
 20
12.7579654385
 10
16.9084034247
 20
12.7221857566
 10
16.9875429689
 20
12.6764994702
 10
17.0662399629
 20
12.6214175368
 10
17.1436142555
 20
12.5575559957
 10
17.218800489
 20
12.4856290772
 10
17.2909577768
 20
12.4064412157
 10
17.3592791082
 20
12.3208780521
 10
17.4230003741
 20
12.2298965289
 10
17.4814089127
 20
12.134514188
 10
17.5338514802
 20
12.0357977902
 10
17.5797415561
 20
11.9348513845
 10
17.6185659038
 20
11.8328039605
 10
17.6498903098
 20
11.7307968215
 10
17.6733644403
 20
11.6299708204
 10
17.6887257596
 20
11.5314536002
 10
17.6958024659
 20
11.4363469822
 10
17.694515413
 20
11.3457146436
 10
17.6848789953
 20
11.2605702209
 10
17.6670009871
 20
11.1818659734
 10
17.6410813367
 20
11.1104821333
 10
17.607409931
 20
11.047217061
 10
17.5663633524
 20
10.9927783162
 10
17.5184006681
 20
10.9477747445
 10
17.5184006681
 20
10.9477747445
  0
LWPOLYLINE
  5
13D
330
1F
100
AcDbEntity
  8
0
  6
Continuous
 62
     7
370
    25
100
AcDbPolyline
 90
       29
 70
   128
 43
0.0
 10
17.4584256946
 20
10.9850996799
 10
17.5034800789
 20
11.0317010581
 10
17.5413845799
 20
11.0876862204
 10
17.5716841206
 20
11.1523830158
 10
17.5940149285
 20
11.2250147022
 10
17.6081089025
 20
11.3047092724
 10
17.613796832
 20
11.3905099229
 10
17.6110104284
 20
11.4813865413
 10
17.599783145
 20
11.5762480739
 10
17.5802497753
 20
11.6739556244
 10
17.5526448343
 20
11.7733361278
 10
17.5172997439
 20
11.8731964336
 10
17.4746388529
 20
11.972337631
 10
17.4251743429
 20
12.0695694427
 10
17.3695000788
 20
12.163724515
 10
17.3082844792
 20
12.2536724336
 10
17.2422624912
 20
12.3383332945
 10
17.1722267669
 20
12.4166906696
 10
17.0990181468
 20
12.4878038096
 10
17.0235155649
 20
12.5508189387
 10
16.946625496
 20
12.6049795047
 10
16.8692710732
 20
12.6496352625
 10
16.7923810044
 20
12.6842500803
 10
16.7168784225
 20
12.7084083768
 10
16.6436698024
 20
12.7218201104
 10
16.5736340781
 20
12.7243242614
 10
16.5076120901
 20
12.7158907652
 10
16.4463964905
 20
12.6966208735
 10
16.4006484781
 20
12.6731042648
  0
LINE
  5
13E
330
1F
100
AcDbEntity
  8
0
  6
Continuous
 62
     7
370
    25
100
AcDbLine
 10
10.1213377326
 20
8.7279870367
 30
0.0
 11
10.1213377326
 21
8.7283448715
 31
0.0
  0
LINE
  5
13F
330
1F
100
AcDbEntity
  8
0
  6
Continuous
 62
     7
370
    25
100
AcDbLine
 10
8.9088377326
 20
8.0975065332
 30
0.0
 11
10.5238377326
 21
8.1313359607
 31
0.0
  0
LINE
  5
140
330
1F
100
AcDbEntity
  8
0
  6
Continuous
 62
     7
370
    25
100
AcDbLine
 10
10.5238377326
 20
12.2486771058
 30
0.0
 11
10.0638377326
 21
12.2583127322
 31
0.0
  0
LINE
  5
141
330
1F
100
AcDbEntity
  8
0
  6
Continuous
 62
     7
370
    25
100
AcDbLine
 10
9.4538377326
 20
12.2710904107
 30
0.0
 11
8.9088377326
 21
12.2825065332
 31
0.0
  0
LINE
  5
142
330
1F
100
AcDbEntity
  8
0
  6
Continuous
 62
     7
370
    25
100
AcDbLine
 10
10.5238377326
 20
8.0400065332
 30
0.0
 11
10.5738377326
 21
8.0400065332
 31
0.0
  0
LINE
  5
143
330
1F
100
AcDbEntity
  8
0
  6
Continuous
 62
     7
370
    25
100
AcDbLine
 10
10.5738377326
 20
12.3400065332
 30
0.0
 11
10.5238377326
 21
12.3400065332
 31
0.0
  0
LINE
  5
144
330
1F
100
AcDbEntity
  8
0
  6
Continuous
 62
     7
370
    25
100
AcDbLine
 10
10.5933864583
 20
8.0728153294
 30
0.0
 11
12.1373864588
 21
8.0379681071
 31
0.0
  0
LINE
  5
145
330
1F
100
AcDbEntity
  8
0
  6
Continuous
 62
     7
370
    25
100
AcDbLine
 10
12.1373864588
 20
12.3420449594
 30
0.0
 11
10.5933864583
 21
12.3071977371
 31
0.0
  0
ARC
  5
146
330
1F
100
AcDbEntity
  8
0
  6
Continuous
 62
     7
370
    25
100
AcDbCircle
 10
10.5938377326
 20
12.287202816
 30
0.0
 40
0.0200000000000004
100
AcDbArc
 50
91.3545846938
 51
180.0000743198
  0
ARC
  5
147
330
1F
100
AcDbEntity
  8
0
  6
Continuous
 62
     7
370
    25
100
AcDbCircle
 10
10.5938377321
 20
8.0928103286
 30
0.0
 40
0.0199999995342073
100
AcDbArc
 50
179.99948135
 51
268.1108952083
  0
LINE
  5
148
330
1F
100
AcDbEntity
  8
0
  6
Continuous
 62
     7
370
    25
100
AcDbLine
 10
10.7408377326
 20
11.7230140349
 30
0.0
 11
10.7408377326
 21
11.6893470297
 31
0.0
  0
LINE
  5
149
330
1F
100
AcDbEntity
  8
0
  6
Continuous
 62
     7
370
    25
100
AcDbLine
 10
10.7408377326
 20
8.6906660368
 30
0.0
 11
10.7408377326
 21
8.6569990316
 31
0.0
  0
ARC
  5
14A
330
1F
100
AcDbEntity
  8
0
  6
Continuous
 62
     7
370
    25
100
AcDbCircle
 10
12.1378378176
 20
8.0579824953
 30
0.0
 40
0.019999914770876
100
AcDbArc
 50
267.8667343649
 51
0.1108063215
  0
ARC
  5
14B
330
1F
100
AcDbEntity
  8
0
  6
Continuous
 62
     7
370
    25
100
AcDbCircle
 10
12.1378377697
 20
12.3220414226
 30
0.0
 40
0.0199999628582857
100
AcDbArc
 50
359.9509219995
 51
92.2869982064
  0
LINE
  5
14C
330
1F
100
AcDbEntity
  8
0
  6
Continuous
 62
     7
370
    25
100
AcDbLine
 10
9.4538377326
 20
12.966630712
 30
0.0
 11
9.4538377326
 21
11.8847573368
 31
0.0
  0
LINE
  5
14D
330
1F
100
AcDbEntity
  8
0
  6
Continuous
 62
     7
370
    25
100
AcDbLine
 10
10.0638377326
 20
11.8303645074
 30
0.0
 11
10.0638377326
 21
12.966630712
 31
0.0
  0
LINE
  5
14E
330
1F
100
AcDbEntity
  8
0
  6
Continuous
 62
     7
370
    25
100
AcDbLine
 10
10.2338377326
 20
11.6655542346
 30
0.0
 11
10.2338377326
 21
11.7433359805
 31
0.0
  0
LINE
  5
14F
330
1F
100
AcDbEntity
  8
0
  6
Continuous
 62
     7
370
    25
100
AcDbLine
 10
9.1838377326
 20
11.7433359805
 30
0.0
 11
9.1838377326
 21
11.6655542346
 31
0.0
  0
LINE
  5
150
330
1F
100
AcDbEntity
  8
0
  6
Continuous
 62
     7
370
    25
100
AcDbLine
 10
12.2628377326
 20
7.6900065332
 30
0.0
 11
12.6378377326
 21
7.7063793868
 31
0.0
  0
LINE
  5
151
330
1F
100
AcDbEntity
  8
0
  6
Continuous
 62
     7
370
    25
100
AcDbLine
 10
12.6378377326
 20
12.6736336797
 30
0.0
 11
12.2628377326
 21
12.6900065332
 31
0.0
  0
ARC
  5
152
330
1F
100
AcDbEntity
  8
0
  6
Continuous
 62
     7
370
    25
100
AcDbCircle
 10
12.6978377326
 20
11.2483070577
 30
0.0
 40
0.0600000000000003
100
AcDbArc
 50
180.0
 51
266.7551083283
  0
ARC
  5
153
330
1F
100
AcDbEntity
  8
0
  6
Continuous
 62
     7
370
    25
100
AcDbCircle
 10
12.6378377326
 20
10.1900065332
 30
0.0
 40
1.0
100
AcDbArc
 50
321.3178125465
 51
0.0
  0
ARC
  5
154
330
1F
100
AcDbEntity
  8
0
  6
Continuous
 62
     7
370
    25
100
AcDbCircle
 10
12.6378377326
 20
10.1900065332
 30
0.0
 40
0.9999999999999992
100
AcDbArc
 50
0.0
 51
86.7551083283
  0
LINE
  5
155
330
1F
100
AcDbEntity
  8
0
  6
Continuous
 62
     7
370
    25
100
AcDbLine
 10
12.6384129168
 20
10.3955065332
 30
0.0
 11
12.6378377326
 21
10.3950065332
 31
0.0
  0
LINE
  5
156
330
1F
100
AcDbEntity
  8
0
  6
Continuous
 62
     7
370
    25
100
AcDbLine
 10
12.6378377326
 20
9.9850065332
 30
0.0
 11
12.6384129168
 21
9.9845065332
 31
0.0
  0
LINE
  5
157
330
1F
100
AcDbEntity
  8
0
  6
Continuous
 62
     7
370
    25
100
AcDbLine
 10
12.6434129168
 20
10.3955065332
 30
0.0
 11
12.6384129168
 21
10.3955065332
 31
0.0
  0
LINE
  5
158
330
1F
100
AcDbEntity
  8
0
  6
Continuous
 62
     7
370
    25
100
AcDbLine
 10
12.6384129168
 20
9.9845065332
 30
0.0
 11
12.6434129168
 21
9.9845065332
 31
0.0
  0
LINE
  5
159
330
1F
100
AcDbEntity
  8
0
  6
Continuous
 62
     7
370
    25
100
AcDbLine
 10
12.1578377326
 20
7.8400065332
 30
0.0
 11
12.2628377326
 21
7.8400065332
 31
0.0
  0
LINE
  5
15A
330
1F
100
AcDbEntity
  8
0
  6
Continuous
 62
     7
370
    25
100
AcDbLine
 10
12.2628377326
 20
12.5400065332
 30
0.0
 11
12.1578377326
 21
12.5400065332
 31
0.0
  0
LWPOLYLINE
  5
15B
330
1F
100
AcDbEntity
  8
0
  6
Continuous
 62
     7
370
    25
100
AcDbPolyline
 90
       12
 70
   128
 43
0.0
 10
9.9046724056
 20
8.4712721843
 10
9.9522836419
 20
8.4925190566
 10
9.9953599415
 20
8.5181522519
 10
10.0330988745
 20
8.5476942722
 10
10.0647974359
 20
8.5805948056
 10
10.0898651416
 20
8.6162409773
 10
10.1078350276
 20
8.6539687667
 10
10.1183723489
 20
8.6930753765
 10
10.1212808152
 20
8.7328323244
 10
10.1165062472
 20
8.7724990137
 10
10.1041375861
 20
8.8113365292
 10
10.0971789268
 20
8.8263419219
  0
LINE
  5
15C
330
1F
100
AcDbEntity
  8
0
  6
Continuous
 62
     7
370
    25
100
AcDbLine
 10
9.723044359
 20
8.7614938823
 30
0.0
 11
9.6154140931
 21
8.9025837486
 31
0.0
  0
ARC
  5
15D
330
1F
100
AcDbEntity
  8
0
  6
Continuous
 62
     7
370
    25
100
AcDbCircle
 10
9.694964545
 20
8.6015118459
 30
0.0
 40
0.311404182614158
100
AcDbArc
 50
104.8006802427
 51
116.9554738166
  0
LINE
  5
15E
330
1F
100
AcDbEntity
  8
0
  6
Continuous
 62
     7
370
    25
100
AcDbLine
 10
9.5538056717
 20
8.8790847867
 30
0.0
 11
9.6614359376
 21
8.7379949205
 31
0.0
  0
LINE
  5
15F
330
1F
100
AcDbEntity
  8
0
  6
Continuous
 62
     7
370
    25
100
AcDbLine
 10
9.6614359376
 20
8.7379949205
 30
0.0
 11
9.4619347536
 21
8.6619002794
 31
0.0
  0
ARC
  5
160
330
1F
100
AcDbEntity
  8
0
  6
Continuous
 62
     7
370
    25
100
AcDbCircle
 10
9.6194281127
 20
8.7476232898
 30
0.0
 40
0.1793114403783821
100
AcDbArc
 50
208.5592772415
 51
226.1369467926
  0
LINE
  5
161
330
1F
100
AcDbEntity
  8
0
  6
Continuous
 62
     7
370
    25
100
AcDbLine
 10
9.4951765736
 20
8.6183400824
 30
0.0
 11
9.6946684882
 21
8.694431188
 31
0.0
  0
LINE
  5
162
330
1F
100
AcDbEntity
  8
0
  6
Continuous
 62
     7
370
    25
100
AcDbLine
 10
9.6946684882
 20
8.694431188
 30
0.0
 11
9.8022613721
 21
8.5533903248
 31
0.0
  0
ARC
  5
163
330
1F
100
AcDbEntity
  8
0
  6
Continuous
 62
     7
370
    25
100
AcDbCircle
 10
9.7227109201
 20
8.8544622275
 30
0.0
 40
0.311404182614931
100
AcDbArc
 50
284.8006802427
 51
296.9554738166
  0
LINE
  5
164
330
1F
100
AcDbEntity
  8
0
  6
Continuous
 62
     7
370
    25
100
AcDbLine
 10
9.8638697934
 20
8.5768892867
 30
0.0
 11
9.7562769095
 21
8.7179301498
 31
0.0
  0
LINE
  5
165
330
1F
100
AcDbEntity
  8
0
  6
Continuous
 62
     7
370
    25
100
AcDbLine
 10
9.7562769095
 20
8.7179301498
 30
0.0
 11
9.955768824
 21
8.7940212554
 31
0.0
  0
ARC
  5
166
330
1F
100
AcDbEntity
  8
0
  6
Continuous
 62
     7
370
    25
100
AcDbCircle
 10
9.7982910402
 20
8.7083839818
 30
0.0
 40
0.1792567851730317
100
AcDbArc
 50
28.5375875973
 51
46.1188406716
  0
LINE
  5
167
330
1F
100
AcDbEntity
  8
0
  6
Continuous
 62
     7
370
    25
100
AcDbLine
 10
9.9225455429
 20
8.8375885235
 30
0.0
 11
9.723044359
 21
8.7614938823
 31
0.0
  0
LINE
  5
168
330
1F
100
AcDbEntity
  8
0
  6
Continuous
 62
     7
370
    25
100
AcDbLine
 10
9.7562769095
 20
8.7674276245
 30
0.0
 11
9.9273961372
 21
8.8326966919
 31
0.0
  0
ARC
  5
169
330
1F
100
AcDbEntity
  8
0
  6
Continuous
 62
     7
370
    25
100
AcDbCircle
 10
9.7188429927
 20
8.9159060245
 30
0.0
 40
0.3239429504900024
100
AcDbArc
 50
284.9223344216
 51
291.1499177311
  0
LINE
  5
16A
330
1F
100
AcDbEntity
  8
0
  6
Continuous
 62
     7
370
    25
100
AcDbLine
 10
9.6946684882
 20
8.7439286626
 30
0.0
 11
9.8022613721
 21
8.6028877995
 31
0.0
  0
LINE
  5
16B
330
1F
100
AcDbEntity
  8
0
  6
Continuous
 62
     7
370
    25
100
AcDbLine
 10
9.4951765736
 20
8.6678375571
 30
0.0
 11
9.6946684882
 21
8.7439286626
 31
0.0
  0
LINE
  5
16C
330
1F
100
AcDbEntity
  8
0
  6
Continuous
 62
     7
370
    25
100
AcDbLine
 10
9.4903237305
 20
8.6727285309
 30
0.0
 11
9.4951765736
 21
8.6678375571
 31
0.0
  0
LINE
  5
16D
330
1F
100
AcDbEntity
  8
0
  6
Continuous
 62
     7
370
    25
100
AcDbLine
 10
9.5819507826
 20
8.8916875283
 30
0.0
 11
9.6614359376
 21
8.7874923952
 31
0.0
  0
LINE
  5
16E
330
1F
100
AcDbEntity
  8
0
  6
Continuous
 62
     7
370
    25
100
AcDbLine
 10
9.6614359376
 20
8.7874923952
 30
0.0
 11
9.6614359376
 21
8.7379949205
 31
0.0
  0
LINE
  5
16F
330
1F
100
AcDbEntity
  8
0
  6
Continuous
 62
     7
370
    25
100
AcDbLine
 10
9.7562769095
 20
8.7674276245
 30
0.0
 11
9.7562769095
 21
8.7179301498
 31
0.0
  0
LINE
  5
170
330
1F
100
AcDbEntity
  8
0
  6
Continuous
 62
     7
370
    25
100
AcDbLine
 10
9.6946684882
 20
8.7439286626
 30
0.0
 11
9.6946684882
 21
8.694431188
 31
0.0
  0
LINE
  5
171
330
1F
100
AcDbEntity
  8
0
  6
Continuous
 62
     7
370
    25
100
AcDbLine
 10
9.8022613721
 20
8.6028877995
 30
0.0
 11
9.8022613721
 21
8.5533903248
 31
0.0
  0
LINE
  5
172
330
1F
100
AcDbEntity
  8
0
  6
Continuous
 62
     7
370
    25
100
AcDbLine
 10
9.4951765736
 20
8.6678375571
 30
0.0
 11
9.4951765736
 21
8.6183400824
 31
0.0
  0
LINE
  5
173
330
1F
100
AcDbEntity
  8
0
  6
Continuous
 62
     7
370
    25
100
AcDbLine
 10
9.1238377326
 20
10.3988091138
 30
0.0
 11
8.9088377326
 21
10.4030738773
 31
0.0
  0
LINE
  5
174
330
1F
100
AcDbEntity
  8
0
  6
Continuous
 62
     7
370
    25
100
AcDbLine
 10
9.1238377326
 20
9.9812039527
 30
0.0
 11
9.1238377326
 21
10.3988091138
 31
0.0
  0
LINE
  5
175
330
1F
100
AcDbEntity
  8
0
  6
Continuous
 62
     7
370
    25
100
AcDbLine
 10
9.1238377326
 20
9.9812039527
 30
0.0
 11
8.9088377326
 21
9.9769391892
 31
0.0
  0
LINE
  5
176
330
1F
100
AcDbEntity
  8
0
  6
Continuous
 62
     7
370
    25
100
AcDbLine
 10
8.9088377326
 20
9.9769391892
 30
0.0
 11
8.9088377326
 21
10.4030738773
 31
0.0
  0
LINE
  5
177
330
1F
100
AcDbEntity
  8
0
  6
Continuous
 62
     7
370
    25
100
AcDbLine
 10
8.9088377326
 20
9.8128598283
 30
0.0
 11
9.1238377326
 21
9.8171245918
 31
0.0
  0
LINE
  5
178
330
1F
100
AcDbEntity
  8
0
  6
Continuous
 62
     7
370
    25
100
AcDbLine
 10
9.1238377326
 20
9.8171245918
 30
0.0
 11
9.1238377326
 21
9.9812039527
 31
0.0
  0
LINE
  5
179
330
1F
100
AcDbEntity
  8
0
  6
Continuous
 62
     7
370
    25
100
AcDbLine
 10
8.9088377326
 20
9.8128598283
 30
0.0
 11
8.9088377326
 21
9.9769391892
 31
0.0
  0
LINE
  5
17A
330
1F
100
AcDbEntity
  8
0
  6
Continuous
 62
     7
370
    25
100
AcDbLine
 10
9.1238377326
 20
10.5628884747
 30
0.0
 11
8.9088377326
 21
10.5671532382
 31
0.0
  0
LINE
  5
17B
330
1F
100
AcDbEntity
  8
0
  6
Continuous
 62
     7
370
    25
100
AcDbLine
 10
9.1238377326
 20
10.3988091138
 30
0.0
 11
9.1238377326
 21
10.5628884747
 31
0.0
  0
LINE
  5
17C
330
1F
100
AcDbEntity
  8
0
  6
Continuous
 62
     7
370
    25
100
AcDbLine
 10
8.9088377326
 20
10.4030738773
 30
0.0
 11
8.9088377326
 21
10.5671532382
 31
0.0
  0
LINE
  5
17D
330
1F
100
AcDbEntity
  8
0
  6
Continuous
 62
     7
370
    25
100
AcDbLine
 10
9.1238377326
 20
9.7234276601
 30
0.0
 11
8.9088377326
 21
9.7224212942
 31
0.0
  0
LINE
  5
17E
330
1F
100
AcDbEntity
  8
0
  6
Continuous
 62
     7
370
    25
100
AcDbLine
 10
9.1238377326
 20
9.8171245918
 30
0.0
 11
9.1238377326
 21
9.7234276601
 31
0.0
  0
LINE
  5
17F
330
1F
100
AcDbEntity
  8
0
  6
Continuous
 62
     7
370
    25
100
AcDbLine
 10
8.9088377326
 20
9.7224212942
 30
0.0
 11
8.9088377326
 21
9.8128598283
 31
0.0
  0
LINE
  5
180
330
1F
100
AcDbEntity
  8
0
  6
Continuous
 62
     7
370
    25
100
AcDbLine
 10
8.9088377326
 20
10.6575917723
 30
0.0
 11
9.1238377326
 21
10.6565854064
 31
0.0
  0
LINE
  5
181
330
1F
100
AcDbEntity
  8
0
  6
Continuous
 62
     7
370
    25
100
AcDbLine
 10
9.1238377326
 20
10.6565854064
 30
0.0
 11
9.1238377326
 21
10.5628884747
 31
0.0
  0
LINE
  5
182
330
1F
100
AcDbEntity
  8
0
  6
Continuous
 62
     7
370
    25
100
AcDbLine
 10
8.9088377326
 20
10.5671532382
 30
0.0
 11
8.9088377326
 21
10.6575917723
 31
0.0
  0
SPLINE
  5
183
330
1F
100
AcDbEntity
  8
0
  6
Continuous
 62
     7
370
    25
100
AcDbSpline
210
0.0
220
0.0
230
1.0
 70
     8
 71
     3
 72
     9
 73
     5
 74
     0
 42
0.00000001
 43
0.00000001
 40
0.0
 40
0.0
 40
0.0
 40
0.0
 40
0.5644956677268319
 40
1.0
 40
1.0
 40
1.0
 40
1.0
 10
9.590223723119623
 20
11.27537329969918
 30
0.0
 10
9.607627506230425
 20
11.27169139583313
 30
0.0
 10
9.638458182364547
 20
11.26516892971594
 30
0.0
 10
9.670070452140848
 20
11.26355535162272
 30
0.0
 10
9.683837732581415
 20
11.26285263137266
 30
0.0
  0
SPLINE
  5
184
330
1F
100
AcDbEntity
  8
0
  6
Continuous
 62
     7
370
    25
100
AcDbSpline
210
0.0
220
0.0
230
1.0
 70
     8
 71
     3
 72
    13
 73
     9
 74
     0
 42
0.00000001
 43
0.00000001
 40
0.0
 40
0.0
 40
0.0
 40
0.0
 40
0.1248705759421261
 40
0.3042310281837654
 40
0.4834372849776452
 40
0.6626644042312776
 40
0.844826214101185
 40
1.0
 40
1.0
 40
1.0
 40
1.0
 10
9.733837732581415
 20
11.26246856432264
 30
0.0
 10
9.753017797343253
 20
11.26310511862647
 30
0.0
 10
9.799747547559424
 20
11.26465600096114
 30
0.0
 10
9.871931688325153
 20
11.28070768763284
 30
0.0
 10
9.947739057407274
 20
11.30817825476601
 30
0.0
 10
10.01708134696144
 20
11.34598982275487
 30
0.0
 10
10.07616489201594
 20
11.38962497843432
 30
0.0
 10
10.10650515348813
 20
11.42295845874642
 30
0.0
 10
10.12046162086618
 20
11.43829180157205
 30
0.0
  0
SPLINE
  5
185
330
1F
100
AcDbEntity
  8
0
  6
Continuous
 62
     7
370
    25
100
AcDbSpline
210
0.0
220
0.0
230
1.0
 70
     8
 71
     3
 72
    18
 73
    14
 74
     0
 42
0.00000001
 43
0.00000001
 40
0.0
 40
0.0
 40
0.0
 40
0.0
 40
0.0549260307308652
 40
0.1458427624757149
 40
0.2367679846805026
 40
0.3283637939824395
 40
0.4199658564374669
 40
0.5135277035191519
 40
0.6070820540198375
 40
0.7006907558145973
 40
0.7942881419698473
 40
0.8680163024313304
 40
1.0
 40
1.0
 40
1.0
 40
1.0
 10
10.20883773258142
 20
8.729640901865787
 30
0.0
 10
10.20834678822224
 20
8.741454265274303
 30
0.0
 10
10.20704320446401
 20
8.772821788663526
 30
0.0
 10
10.19342633520944
 20
8.824882546384654
 30
0.0
 10
10.16556433678033
 20
8.884072915188503
 30
0.0
 10
10.12483623021287
 20
8.94065791427064
 30
0.0
 10
10.07262251728687
 20
8.99306024232653
 30
0.0
 10
10.00965408902629
 20
9.03888316400537
 30
0.0
 10
9.937752202769095
 20
9.076352225904937
 30
0.0
 10
9.858976250988647
 20
9.103131987159093
 30
0.0
 10
9.78174464618492
 20
9.116999397945047
 30
0.0
 10
9.691066114123917
 20
9.12165452755809
 30
0.0
 10
9.629636594908153
 20
9.11128975374303
 30
0.0
 10
9.59022372311943
 20
9.10463976678713
 30
0.0
  0
LINE
  5
186
330
1F
100
AcDbEntity
  8
0
  6
Continuous
 62
     7
370
    25
100
AcDbLine
 10
9.5902237231
 20
9.1046397668
 30
0.0
 11
8.9088377326
 21
9.1068003319
 31
0.0
  0
LINE
  5
187
330
1F
100
AcDbEntity
  8
0
  6
Continuous
 62
     7
370
    25
100
AcDbLine
 10
8.9088377326
 20
11.2732127346
 30
0.0
 11
9.5902237231
 21
11.2753732997
 31
0.0
  0
LINE
  5
188
330
1F
100
AcDbEntity
  8
0
  6
Continuous
 62
     7
370
    25
100
AcDbLine
 10
8.9088377326
 20
9.7224212942
 30
0.0
 11
8.9088377326
 21
9.1068003319
 31
0.0
  0
LINE
  5
189
330
1F
100
AcDbEntity
  8
0
  6
Continuous
 62
     7
370
    25
100
AcDbLine
 10
8.9088377326
 20
8.356832203
 30
0.0
 11
8.9088377326
 21
8.0975065332
 31
0.0
  0
LINE
  5
18A
330
1F
100
AcDbEntity
  8
0
  6
Continuous
 62
     7
370
    25
100
AcDbLine
 10
8.9088377326
 20
12.2825065332
 30
0.0
 11
8.9088377326
 21
12.0231808635
 31
0.0
  0
LINE
  5
18B
330
1F
100
AcDbEntity
  8
0
  6
Continuous
 62
     7
370
    25
100
AcDbLine
 10
8.9088377326
 20
11.2732127346
 30
0.0
 11
8.9088377326
 21
10.6575917723
 31
0.0
  0
LINE
  5
18C
330
1F
100
AcDbEntity
  8
0
  6
Continuous
 62
     7
370
    25
100
AcDbLine
 10
8.9088377326
 20
12.0231808635
 30
0.0
 11
9.3440134864
 21
12.0102894123
 31
0.0
  0
LINE
  5
18D
330
1F
100
AcDbEntity
  8
0
  6
Continuous
 62
     7
370
    25
100
AcDbLine
 10
9.5317720773
 20
11.3160740823
 30
0.0
 11
8.9088377326
 21
11.3160740823
 31
0.0
  0
LINE
  5
18E
330
1F
100
AcDbEntity
  8
0
  6
Continuous
 62
     7
370
    25
100
AcDbLine
 10
8.9088377326
 20
11.3160740823
 30
0.0
 11
8.9088377326
 21
12.0231808635
 31
0.0
  0
LINE
  5
18F
330
1F
100
AcDbEntity
  8
0
  6
Continuous
 62
     7
370
    25
100
AcDbLine
 10
9.5902237231
 20
11.2753732997
 30
0.0
 11
9.5902237231
 21
11.3039220203
 31
0.0
  0
LINE
  5
190
330
1F
100
AcDbEntity
  8
0
  6
Continuous
 62
     7
370
    25
100
AcDbLine
 10
8.9088377326
 20
11.2732127346
 30
0.0
 11
8.9088377326
 21
11.3160740823
 31
0.0
  0
LINE
  5
191
330
1F
100
AcDbEntity
  8
0
  6
Continuous
 62
     7
370
    25
100
AcDbLine
 10
8.9088377326
 20
9.0639389842
 30
0.0
 11
9.5902237231
 21
9.0639389842
 31
0.0
  0
LINE
  5
192
330
1F
100
AcDbEntity
  8
0
  6
Continuous
 62
     7
370
    25
100
AcDbLine
 10
9.5902237231
 20
9.1046397668
 30
0.0
 11
9.5902237231
 21
9.0639389842
 31
0.0
  0
LINE
  5
193
330
1F
100
AcDbEntity
  8
0
  6
Continuous
 62
     7
370
    25
100
AcDbLine
 10
8.9088377326
 20
9.1068003319
 30
0.0
 11
8.9088377326
 21
9.0639389842
 31
0.0
  0
ELLIPSE
  5
194
330
1F
100
AcDbEntity
  8
0
  6
Continuous
 62
     7
370
    25
100
AcDbEllipse
 10
9.7088377326
 20
8.7222350141
 30
0.0
 11
0.4998905337994373
 21
0.01480204369346616
 31
0.0
210
0.0
220
0.0
230
1.0
 40
0.7067967906
 41
6.262259706105285
 42
8.072567449973365
  0
ELLIPSE
  5
195
330
1F
100
AcDbEntity
  8
0
  6
Continuous
 62
     7
370
    25
100
AcDbEllipse
 10
9.7088377326
 20
8.7222350141
 30
0.0
 11
0.4998905337994373
 21
0.01480204369346616
 31
0.0
210
0.0
220
0.0
230
1.0
 40
0.7067967906
 41
4.451951962237196
 42
6.262259706105285
  0
LINE
  5
196
330
1F
100
AcDbEntity
  8
0
  6
Continuous
 62
     7
370
    25
100
AcDbLine
 10
9.5902237231
 20
8.3770172758
 30
0.0
 11
8.9088377326
 21
8.356832203
 31
0.0
  0
ELLIPSE
  5
197
330
1F
100
AcDbEntity
  8
0
  6
Continuous
 62
     7
370
    25
100
AcDbEllipse
 10
9.7085940193
 20
8.7222314042
 30
0.0
 11
0.3884998338074527
 21
0.01150369704373766
 31
0.0
210
0.0
220
0.0
230
1.0
 40
0.7067966517
 41
0.0
 42
6.283185307179586
  0
LINE
  5
198
330
1F
100
AcDbEntity
  8
0
  6
Continuous
 62
     7
370
    25
100
AcDbLine
 10
8.9088377326
 20
8.356832203
 30
0.0
 11
8.9088377326
 21
9.0639389842
 31
0.0
  0
LINE
  5
199
330
1F
100
AcDbEntity
  8
0
  6
Continuous
 62
     7
370
    25
100
AcDbLine
 10
10.5738377326
 20
12.3400065332
 30
0.0
 11
10.5738377326
 21
8.0400065332
 31
0.0
  0
LINE
  5
19A
330
1F
100
AcDbEntity
  8
0
  6
Continuous
 62
     7
370
    25
100
AcDbLine
 10
10.5238377326
 20
12.3400065332
 30
0.0
 11
10.5238377326
 21
8.0400065332
 31
0.0
  0
LINE
  5
19B
330
1F
100
AcDbEntity
  8
0
  6
Continuous
 62
     7
370
    25
100
AcDbLine
 10
12.1373864582
 20
12.3401761442
 30
0.0
 11
12.1373864582
 21
12.3402044685
 31
0.0
  0
SPLINE
  5
19C
330
1F
100
AcDbEntity
  8
0
  6
Continuous
 62
     7
370
    25
100
AcDbSpline
210
0.0
220
0.0
230
1.0
 70
     8
 71
     3
 72
    17
 73
    13
 74
     0
 42
0.00000001
 43
0.00000001
 40
0.0
 40
0.0
 40
0.0
 40
0.0
 40
0.1089814827247309
 40
0.2179765148932607
 40
0.3268275190431869
 40
0.4356935971419696
 40
0.5471500937332392
 40
0.658600991677301
 40
0.771489027719909
 40
0.8843593378944101
 40
0.9944426106702716
 40
1.0
 40
1.0
 40
1.0
 40
1.0
 10
11.30051616019613
 20
11.21777860049788
 30
0.0
 10
11.26785854787454
 20
11.22053374238343
 30
0.0
 10
11.20253926297754
 20
11.22604436869565
 30
0.0
 10
11.1086239787476
 20
11.25230320290302
 30
0.0
 10
11.02123854199184
 20
11.29068969735079
 30
0.0
 10
10.94181009489733
 20
11.340607156548
 30
0.0
 10
10.8728308123946
 20
11.40029095856777
 30
0.0
 10
10.81590068480138
 20
11.46762672958738
 30
0.0
 10
10.77324872600087
 20
11.53998469771691
 30
0.0
 10
10.74845374749305
 20
11.61355460867832
 30
0.0
 10
10.73845966443179
 20
11.66413459729093
 30
0.0
 10
10.74116592203786
 20
11.68816792765532
 30
0.0
 10
10.74129597773686
 20
11.68932290697915
 30
0.0
  0
SPLINE
  5
19D
330
1F
100
AcDbEntity
  8
0
  6
Continuous
 62
     7
370
    25
100
AcDbSpline
210
0.0
220
0.0
230
1.0
 70
     8
 71
     3
 72
     9
 73
     5
 74
     0
 42
0.00000001
 43
0.00000001
 40
0.0
 40
0.0
 40
0.0
 40
0.0
 40
0.499999889902919
 40
1.0
 40
1.0
 40
1.0
 40
1.0
 10
12.13738645890018
 20
11.18452719682391
 30
0.0
 10
11.99790775606114
 20
11.19011840042957
 30
0.0
 10
11.71895028895824
 20
11.20130081010318
 30
0.0
 10
11.43999422359167
 20
11.21228600289336
 30
0.0
 10
11.30051616019613
 20
11.21777860049788
 30
0.0
  0
SPLINE
  5
19E
330
1F
100
AcDbEntity
  8
0
  6
Continuous
 62
     7
370
    25
100
AcDbSpline
210
0.0
220
0.0
230
1.0
 70
     8
 71
     3
 72
    17
 73
    13
 74
     0
 42
0.00000001
 43
0.00000001
 40
0.0
 40
0.0
 40
0.0
 40
0.0
 40
0.0255642936769667
 40
0.1424702565211854
 40
0.2597486119615176
 40
0.3766538917451506
 40
0.4935693174202311
 40
0.6108574062887187
 40
0.7277724173269979
 40
0.8184571754333656
 40
0.9093150935585572
 40
1.0
 40
1.0
 40
1.0
 40
1.0
 10
12.13738645890018
 20
9.195485869662436
 30
0.0
 10
12.13738645901319
 20
9.21116564484617
 30
0.0
 10
12.13738645964298
 20
9.298549306638241
 30
0.0
 10
12.13738645931696
 20
9.464065996880214
 30
0.0
 10
12.13738645735447
 20
9.696400215290236
 30
0.0
 10
12.13738645709549
 20
9.935060041151484
 30
0.0
 10
12.13738645756959
 20
10.17700116231331
 30
0.0
 10
12.13738645680717
 20
10.41904689926445
 30
0.0
 10
12.13738645733049
 20
10.64047902790649
 30
0.0
 10
12.13738645879689
 20
10.83911714426358
 30
0.0
 10
12.13738645961497
 20
11.01595570075313
 30
0.0
 10
12.13738645913829
 20
11.12837240945796
 30
0.0
 10
12.13738645890018
 20
11.18452719682391
 30
0.0
  0
SPLINE
  5
19F
330
1F
100
AcDbEntity
  8
0
  6
Continuous
 62
     7
370
    25
100
AcDbSpline
210
0.0
220
0.0
230
1.0
 70
     8
 71
     3
 72
     9
 73
     5
 74
     0
 42
0.00000001
 43
0.00000001
 40
0.0
 40
0.0
 40
0.0
 40
0.0
 40
0.4999998892255675
 40
1.0
 40
1.0
 40
1.0
 40
1.0
 10
11.30051616019613
 20
9.162234465988464
 30
0.0
 10
11.43999416197816
 20
9.16772706115939
 30
0.0
 10
11.71895022734461
 20
9.178712253934998
 30
0.0
 10
11.99790769444742
 20
9.18989466359414
 30
0.0
 10
12.13738645890018
 20
9.195485869662436
 30
0.0
  0
SPLINE
  5
1A0
330
1F
100
AcDbEntity
  8
0
  6
Continuous
 62
     7
370
    25
100
AcDbSpline
210
0.0
220
0.0
230
1.0
 70
     8
 71
     3
 72
    16
 73
    12
 74
     0
 42
0.00000001
 43
0.00000001
 40
0.0
 40
0.0
 40
0.0
 40
0.0
 40
0.1045258466707981
 40
0.2124223882677677
 40
0.3203335015055528
 40
0.4299608086313688
 40
0.5395954632225326
 40
0.6522503072379426
 40
0.764889571045658
 40
0.8824543459194816
 40
0.9999999999999999
 40
0.9999999999999999
 40
0.9999999999999999
 40
0.9999999999999999
 10
10.74129597773686
 20
8.690641914106154
 30
0.0
 10
10.74254173107412
 20
8.713134915884966
 30
0.0
 10
10.74507341015181
 20
8.75884626201943
 30
0.0
 10
10.76921901046938
 20
8.829524083444886
 30
0.0
 10
10.80721468186421
 20
8.899664606070502
 30
0.0
 10
10.86015818853424
 20
8.966373159622515
 30
0.0
 10
10.9264977572362
 20
9.027750918964193
 30
0.0
 10
11.0052312529961
 20
9.080696369110148
 30
0.0
 10
11.09550572133286
 20
9.123187130043082
 30
0.0
 10
11.19485013436289
 20
9.152922261929797
 30
0.0
 10
11.26529606130043
 20
9.159130566269544
 30
0.0
 10
11.30051616019613
 20
9.162234465988464
 30
0.0
  0
SPLINE
  5
1A1
330
1F
100
AcDbEntity
  8
0
  6
Continuous
 62
     7
370
    25
100
AcDbSpline
210
0.0
220
0.0
230
1.0
 70
     8
 71
     3
 72
    12
 73
     8
 74
     0
 42
0.00000001
 43
0.00000001
 40
0.0
 40
0.0
 40
0.0
 40
0.0
 40
0.226061494092192
 40
0.4521927760915585
 40
0.6753966747646275
 40
0.8893760940302798
 40
1.0
 40
1.0
 40
1.0
 40
1.0
 10
12.15783773258141
 20
11.16852992312727
 30
0.0
 10
12.15759508202716
 20
11.17029159567301
 30
0.0
 10
12.15710970600949
 20
11.17381548461402
 30
0.0
 10
12.15333880692898
 20
11.17863180589795
 30
0.0
 10
12.14783751370018
 20
11.18229443768517
 30
0.0
 10
12.14212919477373
 20
11.18414474085129
 30
0.0
 10
12.13859194405758
 20
11.18442998605556
 30
0.0
 10
12.13738645890018
 20
11.18452719682391
 30
0.0
  0
SPLINE
  5
1A2
330
1F
100
AcDbEntity
  8
0
  6
Continuous
 62
     7
370
    25
100
AcDbSpline
210
0.0
220
0.0
230
1.0
 70
     8
 71
     3
 72
    12
 73
     8
 74
     0
 42
0.00000001
 43
0.00000001
 40
0.0
 40
0.0
 40
0.0
 40
0.0
 40
0.2010938451006737
 40
0.4019636841840273
 40
0.6087264830309718
 40
0.8253222430399382
 40
1.0
 40
1.0
 40
1.0
 40
1.0
 10
12.13738645890018
 20
9.195485869662436
 30
0.0
 10
12.13958723077779
 20
9.195731912492798
 30
0.0
 10
12.14398632301021
 20
9.196223724077132
 30
0.0
 10
12.14990286703696
 20
9.198883637633298
 30
0.0
 10
12.15454951231359
 20
9.202668026629528
 30
0.0
 10
12.15736497156643
 20
9.207086576648676
 30
0.0
 10
12.15769181748681
 20
9.210126167155156
 30
0.0
 10
12.15783773258141
 20
9.211483143359072
 30
0.0
  0
LINE
  5
1A3
330
1F
100
AcDbEntity
  8
0
  6
Continuous
 62
     7
370
    25
100
AcDbLine
 10
11.3005161602
 20
11.2177786005
 30
0.0
 11
11.3005161602
 21
11.3022855
 31
0.0
  0
LINE
  5
1A4
330
1F
100
AcDbEntity
  8
0
  6
Continuous
 62
     7
370
    25
100
AcDbLine
 10
12.1578377326
 20
11.265162394
 30
0.0
 11
11.3005161602
 21
11.3022855
 31
0.0
  0
LINE
  5
1A5
330
1F
100
AcDbEntity
  8
0
  6
Continuous
 62
     7
370
    25
100
AcDbLine
 10
11.3005161602
 20
9.0777275664
 30
0.0
 11
12.1578377326
 21
9.1148506724
 31
0.0
  0
LINE
  5
1A6
330
1F
100
AcDbEntity
  8
0
  6
Continuous
 62
     7
370
    25
100
AcDbLine
 10
11.3005161602
 20
9.162234466
 30
0.0
 11
11.3005161602
 21
9.0777275664
 31
0.0
  0
LINE
  5
1A7
330
1F
100
AcDbEntity
  8
0
  6
Continuous
 62
     7
370
    25
100
AcDbLine
 10
12.1578377326
 20
8.1991473908
 30
0.0
 11
11.3005161602
 21
8.2362704968
 31
0.0
  0
LWPOLYLINE
  5
1A8
330
1F
100
AcDbEntity
  8
0
  6
Continuous
 62
     7
370
    25
100
AcDbPolyline
 90
       27
 70
   128
 43
0.0
 10
11.3005161602
 20
8.2362704968
 10
11.2318218929
 20
8.2420892897
 10
11.1645437381
 20
8.2534969396
 10
11.0995879363
 20
8.2703397851
 10
11.0378294459
 20
8.292390952
 10
10.980100157
 20
8.3193534098
 10
10.9271776863
 20
8.3508639729
 10
10.8797749025
 20
8.3864981921
 10
10.8385303237
 20
8.4257760725
 10
10.8039995167
 20
8.468168539
 10
10.7766476132
 20
8.5131045627
 10
10.756843045
 20
8.5599788528
 10
10.7448525808
 20
8.60816001
 10
10.7408377326
 20
8.6569990316
 10
10.7448525808
 20
8.7058380532
 10
10.756843045
 20
8.7540192105
 10
10.7766476132
 20
8.8008935006
 10
10.8039995167
 20
8.8458295243
 10
10.8385303237
 20
8.8882219907
 10
10.8797749025
 20
8.9274998712
 10
10.9271776863
 20
8.9631340904
 10
10.980100157
 20
8.9946446534
 10
11.0378294459
 20
9.0216071113
 10
11.0995879363
 20
9.0436582782
 10
11.1645437381
 20
9.0605011236
 10
11.2318218929
 20
9.0719087736
 10
11.3005161602
 20
9.0777275664
  0
LWPOLYLINE
  5
1A9
330
1F
100
AcDbEntity
  8
0
  6
Continuous
 62
     7
370
    25
100
AcDbPolyline
 90
       27
 70
   128
 43
0.0
 10
11.3005161602
 20
11.3022855
 10
11.2318218929
 20
11.3081042929
 10
11.1645437381
 20
11.3195119429
 10
11.0995879363
 20
11.3363547883
 10
11.0378294459
 20
11.3584059552
 10
10.980100157
 20
11.3853684131
 10
10.9271776863
 20
11.4168789761
 10
10.8797749025
 20
11.4525131953
 10
10.8385303237
 20
11.4917910758
 10
10.8039995167
 20
11.5341835422
 10
10.7766476132
 20
11.5791195659
 10
10.756843045
 20
11.625993856
 10
10.7448525808
 20
11.6741750133
 10
10.7408377326
 20
11.7230140349
 10
10.7448525808
 20
11.7718530564
 10
10.756843045
 20
11.8200342137
 10
10.7766476132
 20
11.8669085038
 10
10.8039995167
 20
11.9118445275
 10
10.8385303237
 20
11.954236994
 10
10.8797749025
 20
11.9935148744
 10
10.9271776863
 20
12.0291490936
 10
10.980100157
 20
12.0606596566
 10
11.0378294459
 20
12.0876221145
 10
11.0995879363
 20
12.1096732814
 10
11.1645437381
 20
12.1265161268
 10
11.2318218929
 20
12.1379237768
 10
11.3005161602
 20
12.1437425697
  0
LINE
  5
1AA
330
1F
100
AcDbEntity
  8
0
  6
Continuous
 62
     7
370
    25
100
AcDbLine
 10
11.3005161602
 20
12.1437425697
 30
0.0
 11
12.1578377326
 21
12.1808656757
 31
0.0
  0
LWPOLYLINE
  5
1AB
330
1F
100
AcDbEntity
  8
0
  6
Continuous
 62
     7
370
    25
100
AcDbPolyline
 90
       14
 70
   128
 43
0.0
 10
9.9312290369
 20
12.8784062603
 10
9.9624603274
 20
12.8798350525
 10
9.9922108003
 20
12.8867047599
 10
10.018615503
 20
12.8985847446
 10
10.0400192173
 20
12.9147302922
 10
10.0550802195
 20
12.9341292949
 10
10.0628543883
 20
12.9555656973
 10
10.0628543883
 20
12.9776957267
 10
10.0550802195
 20
12.9991321291
 10
10.0400192173
 20
13.0185311318
 10
10.018615503
 20
13.0346766793
 10
9.9922108003
 20
13.0465566641
 10
9.9624603274
 20
13.0534263715
 10
9.9312290369
 20
13.0548551637
  0
LWPOLYLINE
  5
1AC
330
1F
100
AcDbEntity
  8
0
  6
Continuous
 62
     7
370
    25
100
AcDbPolyline
 90
       31
 70
   128
 43
0.0
 10
9.9312290369
 20
13.0548551637
 10
9.9060518645
 20
13.0809364121
 10
9.8748260246
 20
13.1035118409
 10
9.8385092311
 20
13.1218890491
 10
9.7982153404
 20
13.1355043974
 10
9.7551801885
 20
13.1439402954
 10
9.7107236876
 20
13.1469380096
 10
9.6662093435
 20
13.1444055983
 10
9.6230024358
 20
13.136420732
 10
9.5824281446
 20
13.123228311
 10
9.545730906
 20
13.1052329542
 10
9.5140362449
 20
13.0829865893
 10
9.4883162541
 20
13.0571715247
 10
9.4693597802
 20
13.0285795228
 10
9.4577482288
 20
12.9980875162
 10
9.4538377326
 20
12.966630712
 10
9.4577482288
 20
12.9351739077
 10
9.4693597802
 20
12.9046819012
 10
9.4883162541
 20
12.8760898993
 10
9.5140362449
 20
12.8502748346
 10
9.545730906
 20
12.8280284697
 10
9.5824281446
 20
12.8100331129
 10
9.6230024358
 20
12.7968406919
 10
9.6662093435
 20
12.7888558256
 10
9.7107236876
 20
12.7863234143
 10
9.7551801885
 20
12.7893211285
 10
9.7982153404
 20
12.7977570266
 10
9.8385092311
 20
12.8113723749
 10
9.8748260246
 20
12.8297495831
 10
9.9060518645
 20
12.8523250119
 10
9.9312290369
 20
12.8784062603
  0
LINE
  5
1AD
330
1F
100
AcDbEntity
  8
0
  6
Continuous
 62
     7
370
    25
100
AcDbLine
 10
9.4569945274
 20
11.7150517093
 30
0.0
 11
9.4569945274
 21
11.8581901355
 31
0.0
  0
ELLIPSE
  5
1AE
330
1F
100
AcDbEntity
  8
0
  6
Continuous
 62
     7
370
    25
100
AcDbEllipse
 10
9.7088377326
 20
12.0234590515
 30
0.0
 11
0.2364107804648407
 21
0.1961735829783909
 31
0.0
210
0.0
220
0.0
230
1.0
 40
0.4872057372
 41
2.757399367543751
 42
2.914912633750587
  0
LINE
  5
1AF
330
1F
100
AcDbEntity
  8
0
  6
Continuous
 62
     7
370
    25
100
AcDbLine
 10
9.9312290369
 20
11.7568915498
 30
0.0
 11
9.9312290369
 21
12.8784062603
 31
0.0
  0
ELLIPSE
  5
1B0
330
1F
100
AcDbEntity
  8
0
  6
Continuous
 62
     7
370
    25
100
AcDbEllipse
 10
9.7088377326
 20
12.0234590515
 30
0.0
 11
-0.1755395368335648
 21
0.2694421138349661
 31
0.0
210
0.0
220
0.0
230
1.0
 40
0.6864621382
 41
3.010210019669268
 42
3.325236552082949
  0
LINE
  5
1B1
330
1F
100
AcDbEntity
  8
0
  6
Continuous
 62
     7
370
    25
100
AcDbLine
 10
9.8586334995
 20
11.5974143779
 30
0.0
 11
9.8586334995
 21
11.7405528042
 31
0.0
  0
ARC
  5
1B2
330
1F
100
AcDbEntity
  8
0
  6
Continuous
 62
     7
370
    25
100
AcDbCircle
 10
9.7153910006
 20
11.8829625444
 30
0.0
 40
0.3194623121571948
100
AcDbArc
 50
276.00970725
 51
296.6401926238
  0
ELLIPSE
  5
1B3
330
1F
100
AcDbEntity
  8
0
  6
Continuous
 62
     7
370
    25
100
AcDbEllipse
 10
9.7088377326
 20
12.0234590515
 30
0.0
 11
5.329070518200751E-15
 21
0.3190139439737755
 31
0.0
210
0.0
220
0.0
230
1.0
 40
0.7993381005
 41
2.984079387382975
 42
3.299105919796656
  0
ARC
  5
1B4
330
1F
100
AcDbEntity
  8
0
  6
Continuous
 62
     7
370
    25
100
AcDbCircle
 10
9.7022844646
 20
11.8829625444
 30
0.0
 40
0.3194623121572281
100
AcDbArc
 50
243.3598073762
 51
263.99029275
  0
LINE
  5
1B5
330
1F
100
AcDbEntity
  8
0
  6
Continuous
 62
     7
370
    25
100
AcDbLine
 10
9.5590419656
 20
11.5974143779
 30
0.0
 11
9.5590419656
 21
11.7405528042
 31
0.0
  0
ELLIPSE
  5
1B6
330
1F
100
AcDbEntity
  8
0
  6
Continuous
 62
     7
370
    25
100
AcDbEllipse
 10
9.7088377326
 20
12.0234590515
 30
0.0
 11
0.1755395368335684
 21
0.2694421138349643
 31
0.0
210
0.0
220
0.0
230
1.0
 40
0.6864621382
 41
2.957948755096663
 42
3.272975287510346
  0
ARC
  5
1B7
330
1F
100
AcDbEntity
  8
0
  6
Continuous
 62
     7
370
    25
100
AcDbCircle
 10
9.9626183521
 20
11.7676651048
 30
0.0
 40
0.1082873179757717
100
AcDbArc
 50
286.9067825967
 51
330.9306108847
  0
ELLIPSE
  5
1B8
330
1F
100
AcDbEntity
  8
0
  6
Continuous
 62
     7
370
    25
100
AcDbEllipse
 10
9.9388377326
 20
11.8983555441
 30
0.0
 11
0.1158876374827642
 21
-0.09616352106783843
 31
0.0
210
0.0
220
0.0
230
1.0
 40
0.4872057372
 41
0.0584637987490132
 42
0.3841932860245952
  0
LINE
  5
1B9
330
1F
100
AcDbEntity
  8
0
  6
Continuous
 62
     7
370
    25
100
AcDbLine
 10
10.0572649254
 20
11.805655372
 30
0.0
 11
10.0572649254
 21
11.7150517093
 31
0.0
  0
LINE
  5
1BA
330
1F
100
AcDbEntity
  8
0
  6
Continuous
 62
     7
370
    25
100
AcDbLine
 10
9.6688377326
 20
11.3791759882
 30
0.0
 11
9.7488377326
 21
11.3791759882
 31
0.0
  0
LINE
  5
1BB
330
1F
100
AcDbEntity
  8
0
  6
Continuous
 62
     7
370
    25
100
AcDbLine
 10
9.6688377326
 20
11.3791759882
 30
0.0
 11
9.6688377326
 21
11.7083943686
 31
0.0
  0
LINE
  5
1BC
330
1F
100
AcDbEntity
  8
0
  6
Continuous
 62
     7
370
    25
100
AcDbLine
 10
9.7488377326
 20
11.3791759882
 30
0.0
 11
9.7488377326
 21
11.7083943686
 31
0.0
  0
LINE
  5
1BD
330
1F
100
AcDbEntity
  8
0
  6
Continuous
 62
     7
370
    25
100
AcDbLine
 10
10.0447134536
 20
11.4658359805
 30
0.0
 11
10.1012819961
 21
11.5058359805
 31
0.0
  0
LINE
  5
1BE
330
1F
100
AcDbEntity
  8
0
  6
Continuous
 62
     7
370
    25
100
AcDbLine
 10
10.0447134536
 20
11.4658359805
 30
0.0
 11
9.8586334995
 21
11.7405528042
 31
0.0
  0
LINE
  5
1BF
330
1F
100
AcDbEntity
  8
0
  6
Continuous
 62
     7
370
    25
100
AcDbLine
 10
10.1012819961
 20
11.5058359805
 30
0.0
 11
9.915202042
 21
11.7805528042
 31
0.0
  0
LINE
  5
1C0
330
1F
100
AcDbEntity
  8
0
  6
Continuous
 62
     7
370
    25
100
AcDbLine
 10
10.0447134536
 20
11.4658359805
 30
0.0
 11
9.8586334995
 21
11.5974143779
 31
0.0
  0
LINE
  5
1C1
330
1F
100
AcDbEntity
  8
0
  6
Continuous
 62
     7
370
    25
100
AcDbLine
 10
9.316393469
 20
11.5058359805
 30
0.0
 11
9.3729620115
 21
11.4658359805
 31
0.0
  0
LINE
  5
1C2
330
1F
100
AcDbEntity
  8
0
  6
Continuous
 62
     7
370
    25
100
AcDbLine
 10
9.316393469
 20
11.5058359805
 30
0.0
 11
9.5024734231
 21
11.7805528042
 31
0.0
  0
LINE
  5
1C3
330
1F
100
AcDbEntity
  8
0
  6
Continuous
 62
     7
370
    25
100
AcDbLine
 10
9.3729620115
 20
11.4658359805
 30
0.0
 11
9.5590419656
 21
11.7405528042
 31
0.0
  0
LINE
  5
1C4
330
1F
100
AcDbEntity
  8
0
  6
Continuous
 62
     7
370
    25
100
AcDbLine
 10
9.3729620115
 20
11.4658359805
 30
0.0
 11
9.5590419656
 21
11.5974143779
 31
0.0
  0
LWPOLYLINE
  5
1C5
330
1F
100
AcDbEntity
  8
0
  6
Continuous
 62
     7
370
    25
100
AcDbPolyline
 90
       14
 70
   128
 43
0.0
 10
9.7088377326
 20
11.2943231745
 10
9.64432138
 20
11.2971369167
 10
9.5807830295
 20
11.3055354899
 10
9.5191858578
 20
11.3193915803
 10
9.4604636152
 20
11.3384951437
 10
9.4055064711
 20
11.3625565895
 10
9.3551475197
 20
11.3912111708
 10
9.3101501513
 20
11.4240245133
 10
9.2711964803
 20
11.4604992001
 10
9.2388770046
 20
11.5000823122
 10
9.2136816545
 20
11.54217381
 10
9.1959923658
 20
11.5861356293
 10
9.18607729
 20
11.6313013537
 10
9.1838377326
 20
11.6655542346
  0
LWPOLYLINE
  5
1C6
330
1F
100
AcDbEntity
  8
0
  6
Continuous
 62
     7
370
    25
100
AcDbPolyline
 90
       14
 70
   128
 43
0.0
 10
10.2338377326
 20
11.6655542346
 10
10.2315981751
 20
11.6313013537
 10
10.2216830994
 20
11.5861356293
 10
10.2039938107
 20
11.54217381
 10
10.1787984605
 20
11.5000823122
 10
10.1464789848
 20
11.4604992001
 10
10.1075253138
 20
11.4240245133
 10
10.0625279455
 20
11.3912111708
 10
10.0121689941
 20
11.3625565895
 10
9.9572118499
 20
11.3384951437
 10
9.8984896073
 20
11.3193915803
 10
9.8368924356
 20
11.3055354899
 10
9.7733540852
 20
11.2971369167
 10
9.7088377326
 20
11.2943231745
  0
LWPOLYLINE
  5
1C7
330
1F
100
AcDbEntity
  8
0
  6
Continuous
 62
     7
370
    25
100
AcDbPolyline
 90
       23
 70
   128
 43
0.0
 10
9.7088377326
 20
11.3721049204
 10
9.64432138
 20
11.3749186626
 10
9.5807830295
 20
11.3833172359
 10
9.5191858578
 20
11.3971733263
 10
9.4604636152
 20
11.4162768897
 10
9.4055064711
 20
11.4403383355
 10
9.3551475197
 20
11.4689929167
 10
9.3101501513
 20
11.5018062592
 10
9.2711964803
 20
11.538280946
 10
9.2388770046
 20
11.5778640582
 10
9.2136816545
 20
11.619955556
 10
9.1959923658
 20
11.6639173752
 10
9.18607729
 20
11.7090830996
 10
9.1840867297
 20
11.7547680628
 10
9.1900508597
 20
11.8002797272
 10
9.2038792699
 20
11.8449281824
 10
9.2253623357
 20
11.8880366035
 10
9.2541743956
 20
11.9289515106
 10
9.2898786883
 20
11.9670526755
 10
9.331933973
 20
12.0017625233
 10
9.3797027345
 20
12.0325548881
 10
9.4324608471
 20
12.0589629892
 10
9.4538377326
 20
12.0678355953
  0
LWPOLYLINE
  5
1C8
330
1F
100
AcDbEntity
  8
0
  6
Continuous
 62
     7
370
    25
100
AcDbPolyline
 90
       21
 70
   128
 43
0.0
 10
10.0638377326
 20
12.0168318671
 10
10.0857414922
 20
12.0017625233
 10
10.1277967769
 20
11.9670526755
 10
10.1635010696
 20
11.9289515106
 10
10.1923131295
 20
11.8880366035
 10
10.2137961952
 20
11.8449281824
 10
10.2276246054
 20
11.8002797272
 10
10.2335887354
 20
11.7547680628
 10
10.2315981751
 20
11.7090830996
 10
10.2216830994
 20
11.6639173752
 10
10.2039938107
 20
11.619955556
 10
10.1787984605
 20
11.5778640582
 10
10.1464789848
 20
11.538280946
 10
10.1075253138
 20
11.5018062592
 10
10.0625279455
 20
11.4689929167
 10
10.0121689941
 20
11.4403383355
 10
9.9572118499
 20
11.4162768897
 10
9.8984896073
 20
11.3971733263
 10
9.8368924356
 20
11.3833172359
 10
9.7733540852
 20
11.3749186626
 10
9.7088377326
 20
11.3721049204
  0
LINE
  5
1C9
330
1F
100
AcDbEntity
  8
0
  6
Continuous
 62
     7
370
    25
100
AcDbLine
 10
10.0572649254
 20
11.7150517093
 30
0.0
 11
10.2238377326
 21
11.7150517093
 31
0.0
  0
LINE
  5
1CA
330
1F
100
AcDbEntity
  8
0
  6
Continuous
 62
     7
370
    25
100
AcDbLine
 10
10.2238377326
 20
11.7150517093
 30
0.0
 11
10.2238377326
 21
11.7716202518
 31
0.0
  0
LINE
  5
1CB
330
1F
100
AcDbEntity
  8
0
  6
Continuous
 62
     7
370
    25
100
AcDbLine
 10
10.1012819961
 20
11.9808359805
 30
0.0
 11
10.0638377326
 21
11.9543588878
 31
0.0
  0
LINE
  5
1CC
330
1F
100
AcDbEntity
  8
0
  6
Continuous
 62
     7
370
    25
100
AcDbLine
 10
10.1012819961
 20
11.9808359805
 30
0.0
 11
10.0638377326
 21
12.0073130732
 31
0.0
  0
LINE
  5
1CD
330
1F
100
AcDbEntity
  8
0
  6
Continuous
 62
     7
370
    25
100
AcDbLine
 10
9.3729620115
 20
12.0208359805
 30
0.0
 11
9.316393469
 21
11.9808359805
 31
0.0
  0
LINE
  5
1CE
330
1F
100
AcDbEntity
  8
0
  6
Continuous
 62
     7
370
    25
100
AcDbLine
 10
9.316393469
 20
11.9808359805
 30
0.0
 11
9.4303424694
 21
11.9002618696
 31
0.0
  0
LINE
  5
1CF
330
1F
100
AcDbEntity
  8
0
  6
Continuous
 62
     7
370
    25
100
AcDbLine
 10
9.1938377326
 20
11.7716202518
 30
0.0
 11
9.1938377326
 21
11.7150517093
 31
0.0
  0
LINE
  5
1D0
330
1F
100
AcDbEntity
  8
0
  6
Continuous
 62
     7
370
    25
100
AcDbLine
 10
9.1938377326
 20
11.7150517093
 30
0.0
 11
9.4569945274
 21
11.7150517093
 31
0.0
  0
LINE
  5
1D1
330
1F
100
AcDbEntity
  8
0
  6
Continuous
 62
     7
370
    25
100
AcDbLine
 10
9.6838377326
 20
11.245270828
 30
0.0
 11
9.7338377326
 21
11.245270828
 31
0.0
  0
LINE
  5
1D2
330
1F
100
AcDbEntity
  8
0
  6
Continuous
 62
     7
370
    25
100
AcDbLine
 10
9.6838377326
 20
11.2748150606
 30
0.0
 11
9.6838377326
 21
11.245270828
 31
0.0
  0
LINE
  5
1D3
330
1F
100
AcDbEntity
  8
0
  6
Continuous
 62
     7
370
    25
100
AcDbLine
 10
9.6838377326
 20
11.2748150606
 30
0.0
 11
9.7338377326
 21
11.2748150606
 31
0.0
  0
LINE
  5
1D4
330
1F
100
AcDbEntity
  8
0
  6
Continuous
 62
     7
370
    25
100
AcDbLine
 10
9.7338377326
 20
11.2748150606
 30
0.0
 11
9.7338377326
 21
11.245270828
 31
0.0
  0
LINE
  5
1D5
330
1F
100
AcDbEntity
  8
0
  6
Continuous
 62
     7
370
    25
100
AcDbLine
 10
9.6838377326
 20
11.2432444275
 30
0.0
 11
9.6838377326
 21
11.245270828
 31
0.0
  0
LINE
  5
1D6
330
1F
100
AcDbEntity
  8
0
  6
Continuous
 62
     7
370
    25
100
AcDbLine
 10
9.7338377326
 20
11.245270828
 30
0.0
 11
9.7338377326
 21
11.2430502762
 31
0.0
  0
LINE
  5
1D7
330
1F
100
AcDbEntity
  8
0
  6
Continuous
 62
     7
370
    25
100
AcDbLine
 10
9.1938377326
 20
11.7716202518
 30
0.0
 11
9.4538377326
 21
11.913041608
 31
0.0
  0
LINE
  5
1D8
330
1F
100
AcDbEntity
  8
0
  6
Continuous
 62
     7
370
    25
100
AcDbLine
 10
9.1938377326
 20
11.7150517093
 30
0.0
 11
9.4569945274
 21
11.8581901355
 31
0.0
  0
LINE
  5
1D9
330
1F
100
AcDbEntity
  8
0
  6
Continuous
 62
     7
370
    25
100
AcDbLine
 10
10.2238377326
 20
11.7150517093
 30
0.0
 11
10.0572649254
 21
11.805655372
 31
0.0
  0
LINE
  5
1DA
330
1F
100
AcDbEntity
  8
0
  6
Continuous
 62
     7
370
    25
100
AcDbLine
 10
10.2238377326
 20
11.7716202518
 30
0.0
 11
10.0638377326
 21
11.8586487787
 31
0.0
  0
LINE
  5
1DB
330
1F
100
AcDbEntity
  8
0
  6
Continuous
 62
     7
370
    25
100
AcDbLine
 10
9.3729620115
 20
12.0208359805
 30
0.0
 11
9.4538377326
 21
12.0258603029
 31
0.0
  0
LINE
  5
1DC
330
1F
100
AcDbEntity
  8
0
  6
Continuous
 62
     7
370
    25
100
AcDbLine
 10
9.316393469
 20
11.9808359805
 30
0.0
 11
9.4538377326
 21
11.9893745663
 31
0.0
  0
LINE
  5
1DD
330
1F
100
AcDbEntity
  8
0
  6
Continuous
 62
     7
370
    25
100
AcDbLine
 10
10.1012819961
 20
11.9808359805
 30
0.0
 11
10.0638377326
 21
11.9831621675
 31
0.0
  0
LINE
  5
1DE
330
1F
100
AcDbEntity
  8
0
  6
Continuous
 62
     7
370
    25
100
AcDbLine
 10
12.6378377326
 20
12.6736336797
 30
0.0
 11
12.6378377326
 21
7.7063793868
 31
0.0
  0
LINE
  5
1DF
330
1F
100
AcDbEntity
  8
0
  6
Continuous
 62
     7
370
    25
100
AcDbLine
 10
12.2628377326
 20
12.6900065332
 30
0.0
 11
12.2628377326
 21
7.6900065332
 31
0.0
  0
SPLINE
  5
1E0
330
1F
100
AcDbEntity
  8
0
  6
Continuous
 62
     7
370
    25
100
AcDbSpline
210
0.0
220
0.0
230
1.0
 70
     8
 71
     3
 72
    13
 73
     9
 74
     0
 42
0.00000001
 43
0.00000001
 40
0.0
 40
0.0
 40
0.0
 40
0.0
 40
0.0036874028427234
 40
0.1709474117830761
 40
0.397759073711322
 40
0.6046995351125637
 40
0.8021697042623901
 40
1.0
 40
1.0
 40
1.0
 40
1.0
 10
12.63783773258141
 20
9.505006533243124
 30
0.0
 10
12.63783792029109
 20
9.505113038528519
 30
0.0
 10
12.63784662248223
 20
9.510050606691205
 30
0.0
 10
12.63930531190874
 20
9.5215493971348
 30
0.0
 10
12.64642893296431
 20
9.5379532028045
 30
0.0
 10
12.6592976269177
 20
9.552164181848704
 30
0.0
 10
12.67563584429524
 20
9.562081470547518
 30
0.0
 10
12.68816914618017
 20
9.563966808664002
 30
0.0
 10
12.69444150616631
 20
9.564910336512511
 30
0.0
  0
LINE
  5
1E1
330
1F
100
AcDbEntity
  8
0
  6
Continuous
 62
     7
370
    25
100
AcDbLine
 10
12.6944415062
 20
9.5649103365
 30
0.0
 11
12.6978377326
 21
9.5650065332
 31
0.0
  0
LINE
  5
1E2
330
1F
100
AcDbEntity
  8
0
  6
Continuous
 62
     7
370
    25
100
AcDbLine
 10
13.4184624824
 20
9.5650065332
 30
0.0
 11
12.6978377326
 21
9.5650065332
 31
0.0
  0
LINE
  5
1E3
330
1F
100
AcDbEntity
  8
0
  6
Continuous
 62
     7
370
    25
100
AcDbLine
 10
12.6384129168
 20
10.3955065332
 30
0.0
 11
12.6384129168
 21
9.9845065332
 31
0.0
  0
LINE
  5
1E4
330
1F
100
AcDbEntity
  8
0
  6
Continuous
 62
     7
370
    25
100
AcDbLine
 10
12.6434129168
 20
10.3955065332
 30
0.0
 11
12.6434129168
 21
9.9845065332
 31
0.0
  0
LINE
  5
1E5
330
1F
100
AcDbEntity
  8
0
  6
Continuous
 62
     7
370
    25
100
AcDbLine
 10
12.1578377326
 20
12.5400065332
 30
0.0
 11
12.1578377326
 21
7.8400065332
 31
0.0
  0
SPLINE
  5
1E6
330
1F
100
AcDbEntity
  8
0
  6
Continuous
 62
     7
370
    25
100
AcDbSpline
210
0.0
220
0.0
230
1.0
 70
     8
 71
     3
 72
    13
 73
     9
 74
     0
 42
0.00000001
 43
0.00000001
 40
0.0
 40
0.0
 40
0.0
 40
0.0
 40
0.0166444460247911
 40
0.23140119549095
 40
0.4523953918959636
 40
0.6733893756964415
 40
0.8881541954831559
 40
1.0
 40
1.0
 40
1.0
 40
1.0
 10
12.13738645948879
 20
12.17998010973976
 30
0.0
 10
12.13738645950113
 20
12.18189676597298
 30
0.0
 10
12.13738645967273
 20
12.20854328476083
 30
0.0
 10
12.1373864588559
 20
12.24766931361446
 30
0.0
 10
12.13738645746383
 20
12.295509143823
 30
0.0
 10
12.13738645672036
 20
12.3258668426364
 30
0.0
 10
12.13738645823107
 20
12.34111230224605
 30
0.0
 10
12.13738645822161
 20
12.34041494863777
 30
0.0
 10
12.13738645821837
 20
12.34017614417292
 30
0.0
  0
SPLINE
  5
1E7
330
1F
100
AcDbEntity
  8
0
  6
Continuous
 62
     7
370
    25
100
AcDbSpline
210
0.0
220
0.0
230
1.0
 70
     8
 71
     3
 72
    13
 73
     9
 74
     0
 42
0.00000001
 43
0.00000001
 40
0.0
 40
0.0
 40
0.0
 40
0.0
 40
0.0445763528908041
 40
0.2648677573954958
 40
0.4788922261569504
 40
0.6929168264493559
 40
0.9131600520222277
 40
1.0
 40
1.0
 40
1.0
 40
1.0
 10
12.13738645809216
 20
8.039248320075876
 30
0.0
 10
12.1373864581222
 20
8.038853838386965
 30
0.0
 10
12.13738645830069
 20
8.036509871832976
 30
0.0
 10
12.13738645709724
 20
8.047479190163555
 30
0.0
 10
12.13738645709416
 20
8.072309590581437
 30
0.0
 10
12.13738645832919
 20
8.11404813070339
 30
0.0
 10
12.13738645948678
 20
8.156485126833221
 30
0.0
 10
12.13738645940514
 20
8.190432882325647
 30
0.0
 10
12.13738645938206
 20
8.20003295675121
 30
0.0
  0
SPLINE
  5
1E8
330
1F
100
AcDbEntity
  8
0
  6
Continuous
 62
     7
370
    25
100
AcDbSpline
210
0.0
220
0.0
230
1.0
 70
     8
 71
     3
 72
    44
 73
    40
 74
     0
 42
0.00000001
 43
0.00000001
 40
0.0
 40
0.0
 40
0.0
 40
0.0
 40
0.0257525369752039
 40
0.0522143361993667
 40
0.0794450961443265
 40
0.1066758859739898
 40
0.1372051481595573
 40
0.167734391626187
 40
0.1994648988098217
 40
0.2311953997793885
 40
0.2560660058571508
 40
0.2810898151161206
 40
0.3075497633701024
 40
0.3340097260701363
 40
0.3612383933082229
 40
0.3884670740785751
 40
0.4149289020142438
 40
0.441390703480544
 40
0.4686214956969011
 40
0.49585233010019
 40
0.522316065750041
 40
0.5487797405547813
 40
0.5760124884193153
 40
0.603245265697617
 40
0.6297071748196008
 40
0.6561690796640413
 40
0.6833994915046433
 40
0.710629878362149
 40
0.7370976424636897
 40
0.7635654573247767
 40
0.790802369694244
 40
0.8180392667308574
 40
0.8445014324756756
 40
0.8709636215770998
 40
0.898194191149493
 40
0.9254247393134637
 40
0.9518872124330929
 40
0.9783496845931995
 40
0.9999999999999999
 40
0.9999999999999999
 40
0.9999999999999999
 40
0.9999999999999999
 10
10.59338645859029
 20
12.3070067640485
 30
0.0
 10
10.59338645836224
 20
12.30574424239451
 30
0.0
 10
10.59338645789985
 20
12.30318442740758
 30
0.0
 10
10.59338645669439
 20
12.28080570742204
 30
0.0
 10
10.59338645801666
 20
12.2441300747034
 30
0.0
 10
10.59338645955722
 20
12.18974360463027
 30
0.0
 10
10.59338645961621
 20
12.1164477722039
 30
0.0
 10
10.59338645810164
 20
12.02157504222963
 30
0.0
 10
10.59338645693033
 20
11.90772354023514
 30
0.0
 10
10.59338645782666
 20
11.78498118196041
 30
0.0
 10
10.59338645901607
 20
11.65949767467262
 30
0.0
 10
10.59338645707707
 20
11.53293386390964
 30
0.0
 10
10.59338645706537
 20
11.39482376195343
 30
0.0
 10
10.59338645826832
 20
11.24444315960803
 30
0.0
 10
10.59338645954797
 20
11.08503693850987
 30
0.0
 10
10.59338645966185
 20
10.91918018209969
 30
0.0
 10
10.59338645832473
 20
10.7497268726418
 30
0.0
 10
10.59338645689373
 20
10.57638558452501
 30
0.0
 10
10.5933864574167
 20
10.39858848229783
 30
0.0
 10
10.59338645898662
 20
10.21928434113122
 30
0.0
 10
10.59338645801791
 20
10.04148842939136
 30
0.0
 10
10.59338645668246
 20
9.864717627407542
 30
0.0
 10
10.59338645782337
 20
9.688572358741832
 30
0.0
 10
10.59338645932843
 20
9.516046209284498
 30
0.0
 10
10.59338645971971
 20
9.349971599881057
 30
0.0
 10
10.59338645884072
 20
9.189726850288746
 30
0.0
 10
10.59338645734477
 20
9.035111834603697
 30
0.0
 10
10.59338645683236
 20
8.888810694303077
 30
0.0
 10
10.59338645837951
 20
8.75316418902897
 30
0.0
 10
10.59338645848732
 20
8.627474530132524
 30
0.0
 10
10.59338645698872
 20
8.511787132470717
 30
0.0
 10
10.59338645731419
 20
8.408212225553301
 30
0.0
 10
10.5933864588395
 20
8.318320599026723
 30
0.0
 10
10.59338645984833
 20
8.24140984361681
 30
0.0
 10
10.59338645919257
 20
8.177773839797439
 30
0.0
 10
10.59338645771437
 20
8.128509858837605
 30
0.0
 10
10.59338645685936
 20
8.09483769376683
 30
0.0
 10
10.59338645794645
 20
8.075462276011859
 30
0.0
 10
10.59338645804691
 20
8.074513230595638
 30
0.0
 10
10.59338645809211
 20
8.07408616881777
 30
0.0
  0
LINE
  5
1E9
330
1F
100
AcDbEntity
  8
0
  6
Continuous
 62
     7
370
    25
100
AcDbLine
 10
12.6944415062
 20
11.1884032544
 30
0.0
 11
12.6944415062
 21
9.5649103365
 31
0.0
  0
LINE
  5
1EA
330
1F
100
AcDbEntity
  8
VP
100
AcDbLine
 10
13.6378377326
 20
10.1900065332
 30
0.0
 11
13.6378377326
 21
9.8415021472
 31
0.0
  0
DIMENSION
  5
1EB
330
1F
100
AcDbEntity
  8
0
  6
Continuous
 62
     7
370
    18
100
AcDbDimension
  2
_D
 10
13.6378377326
 20
13.8787235121
 30
0.0
 11
12.9503377326
 21
13.8787235121
 31
0.0
 70
   160
  1
<>
 71
     2
 42
-1.0
  3
SLDDIMSTYLE0
100
AcDbAlignedDimension
 13
12.2628377326
 23
12.6900065332
 33
0.0
 14
13.6378377326
 24
10.1900065332
 34
0.0
 50
0.0
100
AcDbRotatedDimension
  0
DIMENSION
  5
200
330
1F
100
AcDbEntity
  8
0
  6
Continuous
 62
     7
370
    18
100
AcDbDimension
  2
_D_1
 10
8.9088377326
 20
13.8787235121
 30
0.0
 11
10.5858377326
 21
13.8787235121
 31
0.0
 70
   160
  1
<>
 71
     2
 42
-1.0
  3
SLDDIMSTYLE1
100
AcDbAlignedDimension
 13
12.2628377326
 23
12.6900065332
 33
0.0
 14
8.9088377326
 24
12.2825065332
 34
0.0
 50
0.0
100
AcDbRotatedDimension
  0
MTEXT
  5
215
330
1F
100
AcDbEntity
  8
0
  6
Continuous
 62
     7
370
     0
100
AcDbMText
 10
7.2738377098
 20
15.0980248021
 30
0.0
 40
0.25
 41
0.0
 71
     1
 72
     1
  1
THERMAL PROTECTOR
  7
SLDTEXTSTYLE0
 73
     1
 44
1.0
  0
MTEXT
  5
216
330
1F
100
AcDbEntity
  8
0
  6
Continuous
 62
     7
370
     0
100
AcDbMText
 10
7.2738377098
 20
14.7692846531
 30
0.0
 40
0.25
 41
0.0
 71
     1
 72
     1
  1
(OPTIONAL)
  7
SLDTEXTSTYLE0
 73
     1
 44
1.0
  0
LEADER
  5
218
330
1F
100
AcDbEntity
  8
0
  6
Continuous
 62
     7
370
     0
100
AcDbLeader
  3
SLDDIMSTYLE2
 76
     3
 10
9.6953083657
 20
13.1466889751
 30
0.0
 10
9.6985557589
 20
14.6425434315
 30
0.0
 10
9.1985557589
 20
14.6425434315
 30
0.0
  0
MTEXT
  5
219
330
1F
100
AcDbEntity
  8
0
  6
Continuous
 62
     7
370
     0
100
AcDbMText
 10
8.2808094465
 20
7.5113808095
 30
0.0
 40
0.25
 41
0.0
 71
     2
 72
     1
  1
5X 1/2" NPT
  7
SLDTEXTSTYLE0
 73
     1
 44
1.0
  0
MTEXT
  5
21A
330
1F
100
AcDbEntity
  8
0
  6
Continuous
 62
     7
370
     0
100
AcDbMText
 10
8.2905315672
 20
7.1826406605
 30
0.0
 40
0.25
 41
0.0
 71
     2
 72
     1
  1
CONDUIT ENTRIES
  7
SLDTEXTSTYLE0
 73
     1
 44
1.0
  0
LEADER
  5
21B
330
1F
100
AcDbEntity
  8
0
  6
Continuous
 62
     7
370
     0
100
AcDbLeader
  3
SLDDIMSTYLE2
 76
     3
 10
9.7210919448
 20
8.447787705
 30
0.0
 10
9.7169292734
 20
7.3931399394
 30
0.0
 10
9.2169292734
 20
7.3931399394
 30
0.0
  0
LINE
  5
21C
330
1F
100
AcDbEntity
  8
0
  6
Continuous
 62
     7
370
    25
100
AcDbLine
 10
3.9564639707
 20
11.9002581002
 30
0.0
 11
3.9026306374
 21
11.9002581002
 31
0.0
  0
LINE
  5
21D
330
1F
100
AcDbEntity
  8
0
  6
Continuous
 62
     7
370
    25
100
AcDbLine
 10
3.9026306374
 20
11.8262372669
 30
0.0
 11
3.9564639707
 21
11.8262372669
 31
0.0
  0
LINE
  5
21E
330
1F
100
AcDbEntity
  8
0
  6
Continuous
 62
     7
370
    25
100
AcDbLine
 10
3.9026306374
 20
11.9540914336
 30
0.0
 11
3.9564639707
 21
11.9540914336
 31
0.0
  0
LINE
  5
21F
330
1F
100
AcDbEntity
  8
0
  6
Continuous
 62
     7
370
    25
100
AcDbLine
 10
3.9564639707
 20
12.0281122669
 30
0.0
 11
3.9026306374
 21
12.0281122669
 31
0.0
  0
CIRCLE
  5
220
330
1F
100
AcDbEntity
  8
0
  6
Continuous
 62
     7
370
    25
100
AcDbCircle
 10
3.9295473041
 20
11.9271747669
 30
0.0
 40
0.1104841369482479
  0
LINE
  5
221
330
1F
100
AcDbEntity
  8
0
  6
Continuous
 62
     7
370
    25
100
AcDbLine
 10
4.0304848041
 20
11.9002581002
 30
0.0
 11
3.9564639707
 21
11.9002581002
 31
0.0
  0
LINE
  5
222
330
1F
100
AcDbEntity
  8
0
  6
Continuous
 62
     7
370
    25
100
AcDbLine
 10
4.0304848041
 20
11.9002581002
 30
0.0
 11
4.0304848041
 21
11.9540914336
 31
0.0
  0
LINE
  5
223
330
1F
100
AcDbEntity
  8
0
  6
Continuous
 62
     7
370
    25
100
AcDbLine
 10
3.9026306374
 20
11.9540914336
 30
0.0
 11
3.9026306374
 21
12.0281122669
 31
0.0
  0
LINE
  5
224
330
1F
100
AcDbEntity
  8
0
  6
Continuous
 62
     7
370
    25
100
AcDbLine
 10
3.8286098041
 20
11.9540914336
 30
0.0
 11
3.9026306374
 21
11.9540914336
 31
0.0
  0
LINE
  5
225
330
1F
100
AcDbEntity
  8
0
  6
Continuous
 62
     7
370
    25
100
AcDbLine
 10
3.8286098041
 20
11.9540914336
 30
0.0
 11
3.8286098041
 21
11.9002581002
 31
0.0
  0
LINE
  5
226
330
1F
100
AcDbEntity
  8
0
  6
Continuous
 62
     7
370
    25
100
AcDbLine
 10
3.9564639707
 20
11.9540914336
 30
0.0
 11
4.0304848041
 21
11.9540914336
 31
0.0
  0
LINE
  5
227
330
1F
100
AcDbEntity
  8
0
  6
Continuous
 62
     7
370
    25
100
AcDbLine
 10
3.9564639707
 20
12.0281122669
 30
0.0
 11
3.9564639707
 21
11.9540914336
 31
0.0
  0
LINE
  5
228
330
1F
100
AcDbEntity
  8
0
  6
Continuous
 62
     7
370
    25
100
AcDbLine
 10
3.9564639707
 20
11.9002581002
 30
0.0
 11
3.9564639707
 21
11.8262372669
 31
0.0
  0
LINE
  5
229
330
1F
100
AcDbEntity
  8
0
  6
Continuous
 62
     7
370
    25
100
AcDbLine
 10
3.9026306374
 20
11.8262372669
 30
0.0
 11
3.9026306374
 21
11.9002581002
 31
0.0
  0
LINE
  5
22A
330
1F
100
AcDbEntity
  8
0
  6
Continuous
 62
     7
370
    25
100
AcDbLine
 10
3.9026306374
 20
11.9002581002
 30
0.0
 11
3.8286098041
 21
11.9002581002
 31
0.0
  0
LINE
  5
22B
330
1F
100
AcDbEntity
  8
0
  6
Continuous
 62
     7
370
    25
100
AcDbLine
 10
3.9026306374
 20
11.9002581002
 30
0.0
 11
3.9026306374
 21
11.9540914336
 31
0.0
  0
CIRCLE
  5
22C
330
1F
100
AcDbEntity
  8
0
  6
Continuous
 62
     7
370
    25
100
AcDbCircle
 10
3.9295473041
 20
11.9271747669
 30
0.0
 40
0.1864841369482479
  0
LINE
  5
22D
330
1F
100
AcDbEntity
  8
0
  6
Continuous
 62
     7
370
    25
100
AcDbLine
 10
3.9564639707
 20
11.9540914336
 30
0.0
 11
3.9564639707
 21
11.9002581002
 31
0.0
  0
LINE
  5
22E
330
1F
100
AcDbEntity
  8
0
  6
Continuous
 62
     7
370
    25
100
AcDbLine
 10
3.9295473041
 20
11.9271747669
 30
0.0
 11
3.9026306374
 21
11.9540914336
 31
0.0
  0
LINE
  5
22F
330
1F
100
AcDbEntity
  8
0
  6
Continuous
 62
     7
370
    25
100
AcDbLine
 10
3.9026306374
 20
11.9271747669
 30
0.0
 11
3.9295473041
 21
11.9271747669
 31
0.0
  0
LINE
  5
230
330
1F
100
AcDbEntity
  8
0
  6
Continuous
 62
     7
370
    25
100
AcDbLine
 10
3.9295473041
 20
11.9540914336
 30
0.0
 11
3.9295473041
 21
11.9271747669
 31
0.0
  0
LINE
  5
231
330
1F
100
AcDbEntity
  8
0
  6
Continuous
 62
     7
370
    25
100
AcDbLine
 10
3.9026306374
 20
11.9002581002
 30
0.0
 11
3.9295473041
 21
11.9271747669
 31
0.0
  0
LINE
  5
232
330
1F
100
AcDbEntity
  8
0
  6
Continuous
 62
     7
370
    25
100
AcDbLine
 10
3.9564639707
 20
11.9002581002
 30
0.0
 11
3.9295473041
 21
11.9271747669
 31
0.0
  0
LINE
  5
233
330
1F
100
AcDbEntity
  8
0
  6
Continuous
 62
     7
370
    25
100
AcDbLine
 10
3.9295473041
 20
11.9002581002
 30
0.0
 11
3.9295473041
 21
11.9271747669
 31
0.0
  0
LINE
  5
234
330
1F
100
AcDbEntity
  8
0
  6
Continuous
 62
     7
370
    25
100
AcDbLine
 10
3.9564639707
 20
11.9540914336
 30
0.0
 11
3.9295473041
 21
11.9271747669
 31
0.0
  0
LINE
  5
235
330
1F
100
AcDbEntity
  8
0
  6
Continuous
 62
     7
370
    25
100
AcDbLine
 10
3.9564639707
 20
11.9271747669
 30
0.0
 11
3.9295473041
 21
11.9271747669
 31
0.0
  0
CIRCLE
  5
236
330
1F
100
AcDbEntity
  8
0
  6
Continuous
 62
     7
370
    25
100
AcDbCircle
 10
3.9295473041
 20
8.4528753184
 30
0.0
 40
0.1104841369482479
  0
LINE
  5
237
330
1F
100
AcDbEntity
  8
0
  6
Continuous
 62
     7
370
    25
100
AcDbLine
 10
3.9026306374
 20
8.4259586517
 30
0.0
 11
3.8286098041
 21
8.4259586517
 31
0.0
  0
LINE
  5
238
330
1F
100
AcDbEntity
  8
0
  6
Continuous
 62
     7
370
    25
100
AcDbLine
 10
3.9026306374
 20
8.3519378184
 30
0.0
 11
3.9026306374
 21
8.4259586517
 31
0.0
  0
LINE
  5
239
330
1F
100
AcDbEntity
  8
0
  6
Continuous
 62
     7
370
    25
100
AcDbLine
 10
3.9026306374
 20
8.3519378184
 30
0.0
 11
3.9564639707
 21
8.3519378184
 31
0.0
  0
LINE
  5
23A
330
1F
100
AcDbEntity
  8
0
  6
Continuous
 62
     7
370
    25
100
AcDbLine
 10
3.9564639707
 20
8.4259586517
 30
0.0
 11
3.9564639707
 21
8.3519378184
 31
0.0
  0
LINE
  5
23B
330
1F
100
AcDbEntity
  8
0
  6
Continuous
 62
     7
370
    25
100
AcDbLine
 10
4.0304848041
 20
8.4259586517
 30
0.0
 11
3.9564639707
 21
8.4259586517
 31
0.0
  0
LINE
  5
23C
330
1F
100
AcDbEntity
  8
0
  6
Continuous
 62
     7
370
    25
100
AcDbLine
 10
4.0304848041
 20
8.4259586517
 30
0.0
 11
4.0304848041
 21
8.4797919851
 31
0.0
  0
LINE
  5
23D
330
1F
100
AcDbEntity
  8
0
  6
Continuous
 62
     7
370
    25
100
AcDbLine
 10
3.9564639707
 20
8.4797919851
 30
0.0
 11
4.0304848041
 21
8.4797919851
 31
0.0
  0
LINE
  5
23E
330
1F
100
AcDbEntity
  8
0
  6
Continuous
 62
     7
370
    25
100
AcDbLine
 10
3.9564639707
 20
8.5538128184
 30
0.0
 11
3.9564639707
 21
8.4797919851
 31
0.0
  0
LINE
  5
23F
330
1F
100
AcDbEntity
  8
0
  6
Continuous
 62
     7
370
    25
100
AcDbLine
 10
3.9564639707
 20
8.5538128184
 30
0.0
 11
3.9026306374
 21
8.5538128184
 31
0.0
  0
LINE
  5
240
330
1F
100
AcDbEntity
  8
0
  6
Continuous
 62
     7
370
    25
100
AcDbLine
 10
3.9026306374
 20
8.4797919851
 30
0.0
 11
3.9026306374
 21
8.5538128184
 31
0.0
  0
LINE
  5
241
330
1F
100
AcDbEntity
  8
0
  6
Continuous
 62
     7
370
    25
100
AcDbLine
 10
3.8286098041
 20
8.4797919851
 30
0.0
 11
3.9026306374
 21
8.4797919851
 31
0.0
  0
LINE
  5
242
330
1F
100
AcDbEntity
  8
0
  6
Continuous
 62
     7
370
    25
100
AcDbLine
 10
3.8286098041
 20
8.4797919851
 30
0.0
 11
3.8286098041
 21
8.4259586517
 31
0.0
  0
LINE
  5
243
330
1F
100
AcDbEntity
  8
0
  6
Continuous
 62
     7
370
    25
100
AcDbLine
 10
3.9564639707
 20
8.4259586517
 30
0.0
 11
3.9026306374
 21
8.4259586517
 31
0.0
  0
LINE
  5
244
330
1F
100
AcDbEntity
  8
0
  6
Continuous
 62
     7
370
    25
100
AcDbLine
 10
3.9026306374
 20
8.4259586517
 30
0.0
 11
3.9026306374
 21
8.4797919851
 31
0.0
  0
LINE
  5
245
330
1F
100
AcDbEntity
  8
0
  6
Continuous
 62
     7
370
    25
100
AcDbLine
 10
3.9026306374
 20
8.4797919851
 30
0.0
 11
3.9564639707
 21
8.4797919851
 31
0.0
  0
CIRCLE
  5
246
330
1F
100
AcDbEntity
  8
0
  6
Continuous
 62
     7
370
    25
100
AcDbCircle
 10
3.9295473041
 20
8.4528753184
 30
0.0
 40
0.1864841369482484
  0
LINE
  5
247
330
1F
100
AcDbEntity
  8
0
  6
Continuous
 62
     7
370
    25
100
AcDbLine
 10
3.9564639707
 20
8.4797919851
 30
0.0
 11
3.9564639707
 21
8.4259586517
 31
0.0
  0
LINE
  5
248
330
1F
100
AcDbEntity
  8
0
  6
Continuous
 62
     7
370
    25
100
AcDbLine
 10
3.9295473041
 20
8.4528753184
 30
0.0
 11
3.9026306374
 21
8.4797919851
 31
0.0
  0
LINE
  5
249
330
1F
100
AcDbEntity
  8
0
  6
Continuous
 62
     7
370
    25
100
AcDbLine
 10
3.9295473041
 20
8.4797919851
 30
0.0
 11
3.9295473041
 21
8.4528753184
 31
0.0
  0
LINE
  5
24A
330
1F
100
AcDbEntity
  8
0
  6
Continuous
 62
     7
370
    25
100
AcDbLine
 10
3.9026306374
 20
8.4528753184
 30
0.0
 11
3.9295473041
 21
8.4528753184
 31
0.0
  0
LINE
  5
24B
330
1F
100
AcDbEntity
  8
0
  6
Continuous
 62
     7
370
    25
100
AcDbLine
 10
3.9564639707
 20
8.4797919851
 30
0.0
 11
3.9295473041
 21
8.4528753184
 31
0.0
  0
LINE
  5
24C
330
1F
100
AcDbEntity
  8
0
  6
Continuous
 62
     7
370
    25
100
AcDbLine
 10
3.9564639707
 20
8.4259586517
 30
0.0
 11
3.9295473041
 21
8.4528753184
 31
0.0
  0
LINE
  5
24D
330
1F
100
AcDbEntity
  8
0
  6
Continuous
 62
     7
370
    25
100
AcDbLine
 10
3.9564639707
 20
8.4528753184
 30
0.0
 11
3.9295473041
 21
8.4528753184
 31
0.0
  0
LINE
  5
24E
330
1F
100
AcDbEntity
  8
0
  6
Continuous
 62
     7
370
    25
100
AcDbLine
 10
3.9026306374
 20
8.4259586517
 30
0.0
 11
3.9295473041
 21
8.4528753184
 31
0.0
  0
LINE
  5
24F
330
1F
100
AcDbEntity
  8
0
  6
Continuous
 62
     7
370
    25
100
AcDbLine
 10
3.9295473041
 20
8.4259586517
 30
0.0
 11
3.9295473041
 21
8.4528753184
 31
0.0
  0
CIRCLE
  5
250
330
1F
100
AcDbEntity
  8
0
  6
Continuous
 62
     7
370
    25
100
AcDbCircle
 10
3.9295473041
 20
10.1900250427
 30
0.0
 40
0.3499999999999984
  0
CIRCLE
  5
251
330
1F
100
AcDbEntity
  8
0
  6
Continuous
 62
     7
370
    25
100
AcDbCircle
 10
3.9295473041
 20
10.1900250427
 30
0.0
 40
0.3125000000000008
  0
LINE
  5
252
330
1F
100
AcDbEntity
  8
0
  6
Continuous
 62
     7
370
    25
100
AcDbLine
 10
3.6424279247
 20
9.9898689486
 30
0.0
 11
3.6179779172
 21
9.9728244077
 31
0.0
  0
ARC
  5
253
330
1F
100
AcDbEntity
  8
0
  6
Continuous
 62
     7
370
    25
100
AcDbCircle
 10
3.9295473041
 20
9.0900250427
 30
0.0
 40
0.1920401347143297
100
AcDbArc
 50
311.6643743302
 51
228.3356256698
  0
CIRCLE
  5
254
330
1F
100
AcDbEntity
  8
0
  6
Continuous
 62
     7
370
    25
100
AcDbCircle
 10
3.9295473041
 20
9.0900250427
 30
0.0
 40
0.0747499999999999
  0
CIRCLE
  5
255
330
1F
100
AcDbEntity
  8
0
  6
Continuous
 62
     7
370
    25
100
AcDbCircle
 10
3.9295473041
 20
10.1900250427
 30
0.0
 40
0.4953916569398746
  0
CIRCLE
  5
256
330
1F
100
AcDbEntity
  8
0
  6
Continuous
 62
     7
370
    25
100
AcDbCircle
 10
3.9295473041
 20
10.1900250427
 30
0.0
 40
0.3798046848571346
  0
CIRCLE
  5
257
330
1F
100
AcDbEntity
  8
0
  6
Continuous
 62
     7
370
    25
100
AcDbCircle
 10
3.9295473041
 20
10.1900250427
 30
0.0
 40
0.4994872916812731
  0
LINE
  5
258
330
1F
100
AcDbEntity
  8
0
  6
Continuous
 62
     7
370
    25
100
AcDbLine
 10
6.5329002593
 20
9.9812224621
 30
0.0
 11
6.534347421
 21
9.9769576986
 31
0.0
  0
ARC
  5
259
330
1F
100
AcDbEntity
  8
0
  6
Continuous
 62
     7
370
    25
100
AcDbCircle
 10
6.4620473041
 20
10.1900250427
 30
0.0
 40
0.2204963920094214
100
AcDbArc
 50
288.743609846
 51
71.256390154
  0
LINE
  5
25A
330
1F
100
AcDbEntity
  8
0
  6
Continuous
 62
     7
370
    25
100
AcDbLine
 10
6.5329002593
 20
10.3988276232
 30
0.0
 11
6.534347421
 21
10.4030923867
 31
0.0
  0
ARC
  5
25B
330
1F
100
AcDbEntity
  8
0
  6
Continuous
 62
     7
370
    25
100
AcDbCircle
 10
6.4620473041
 20
10.1900250427
 30
0.0
 40
0.2249999999999986
100
AcDbArc
 50
288.743609846
 51
71.256390154
  0
LINE
  5
25C
330
1F
100
AcDbEntity
  8
0
  6
Continuous
 62
     7
370
    25
100
AcDbLine
 10
6.0493608801
 20
10.5629069841
 30
0.0
 11
6.5329002593
 21
10.3988276232
 31
0.0
  0
LINE
  5
25D
330
1F
100
AcDbEntity
  8
0
  6
Continuous
 62
     7
370
    25
100
AcDbLine
 10
6.0508080418
 20
10.5671717476
 30
0.0
 11
6.0493608801
 21
10.5629069841
 31
0.0
  0
LINE
  5
25E
330
1F
100
AcDbEntity
  8
0
  6
Continuous
 62
     7
370
    25
100
AcDbLine
 10
6.0508080418
 20
10.5671717476
 30
0.0
 11
6.534347421
 21
10.4030923867
 31
0.0
  0
LINE
  5
25F
330
1F
100
AcDbEntity
  8
0
  6
Continuous
 62
     7
370
    25
100
AcDbLine
 10
1.3261943489
 20
10.3988276232
 30
0.0
 11
1.3247471872
 21
10.4030923867
 31
0.0
  0
LINE
  5
260
330
1F
100
AcDbEntity
  8
0
  6
Continuous
 62
     7
370
    25
100
AcDbLine
 10
1.3247471872
 20
10.4030923867
 30
0.0
 11
1.8082865664
 21
10.5671717476
 31
0.0
  0
LINE
  5
261
330
1F
100
AcDbEntity
  8
0
  6
Continuous
 62
     7
370
    25
100
AcDbLine
 10
1.8097337281
 20
10.5629069841
 30
0.0
 11
1.8082865664
 21
10.5671717476
 31
0.0
  0
LINE
  5
262
330
1F
100
AcDbEntity
  8
0
  6
Continuous
 62
     7
370
    25
100
AcDbLine
 10
1.3261943489
 20
10.3988276232
 30
0.0
 11
1.8097337281
 21
10.5629069841
 31
0.0
  0
LINE
  5
263
330
1F
100
AcDbEntity
  8
0
  6
Continuous
 62
     7
370
    25
100
AcDbLine
 10
1.8082865664
 20
10.5671717476
 30
0.0
 11
1.8151252603
 21
10.5697172381
 31
0.0
  0
LINE
  5
264
330
1F
100
AcDbEntity
  8
0
  6
Continuous
 62
     7
370
    25
100
AcDbLine
 10
1.8122873371
 20
10.5638033625
 30
0.0
 11
1.8097337281
 21
10.5629069841
 31
0.0
  0
LINE
  5
265
330
1F
100
AcDbEntity
  8
0
  6
Continuous
 62
     7
370
    25
100
AcDbLine
 10
6.0493608801
 20
10.5629069841
 30
0.0
 11
6.046807271
 21
10.5638033625
 31
0.0
  0
LINE
  5
266
330
1F
100
AcDbEntity
  8
0
  6
Continuous
 62
     7
370
    25
100
AcDbLine
 10
6.5329002593
 20
9.9812224621
 30
0.0
 11
6.0493608801
 21
9.8171431012
 31
0.0
  0
LINE
  5
267
330
1F
100
AcDbEntity
  8
0
  6
Continuous
 62
     7
370
    25
100
AcDbLine
 10
6.046807271
 20
9.8162467228
 30
0.0
 11
6.0493608801
 21
9.8171431012
 31
0.0
  0
CIRCLE
  5
268
330
1F
100
AcDbEntity
  8
0
  6
Continuous
 62
     7
370
    25
100
AcDbCircle
 10
6.4320473041
 20
10.1900250427
 30
0.0
 40
0.1015499999999996
  0
LINE
  5
269
330
1F
100
AcDbEntity
  8
0
  6
Continuous
 62
     7
370
    25
100
AcDbLine
 10
1.8097337281
 20
9.8171431012
 30
0.0
 11
1.8122873371
 21
9.8162467228
 31
0.0
  0
LINE
  5
26A
330
1F
100
AcDbEntity
  8
0
  6
Continuous
 62
     7
370
    25
100
AcDbLine
 10
1.8097337281
 20
9.8171431012
 30
0.0
 11
1.3261943489
 21
9.9812224621
 31
0.0
  0
ARC
  5
26B
330
1F
100
AcDbEntity
  8
0
  6
Continuous
 62
     7
370
    25
100
AcDbCircle
 10
1.3970473041
 20
10.1900250427
 30
0.0
 40
0.2204963920094249
100
AcDbArc
 50
108.743609846
 51
251.256390154
  0
CIRCLE
  5
26C
330
1F
100
AcDbEntity
  8
0
  6
Continuous
 62
     7
370
    25
100
AcDbCircle
 10
1.4270473041
 20
10.1900250427
 30
0.0
 40
0.1015499999999996
  0
LINE
  5
26D
330
1F
100
AcDbEntity
  8
0
  6
Continuous
 62
     7
370
    25
100
AcDbLine
 10
1.8152366112
 20
9.8102875952
 30
0.0
 11
1.8082865664
 21
9.8128783377
 31
0.0
  0
LINE
  5
26E
330
1F
100
AcDbEntity
  8
0
  6
Continuous
 62
     7
370
    25
100
AcDbLine
 10
1.8082865664
 20
9.8128783377
 30
0.0
 11
1.8097337281
 21
9.8171431012
 31
0.0
  0
LINE
  5
26F
330
1F
100
AcDbEntity
  8
0
  6
Continuous
 62
     7
370
    25
100
AcDbLine
 10
1.3261943489
 20
9.9812224621
 30
0.0
 11
1.3247471872
 21
9.9769576986
 31
0.0
  0
LINE
  5
270
330
1F
100
AcDbEntity
  8
0
  6
Continuous
 62
     7
370
    25
100
AcDbLine
 10
1.8082865664
 20
9.8128783377
 30
0.0
 11
1.3247471872
 21
9.9769576986
 31
0.0
  0
LINE
  5
271
330
1F
100
AcDbEntity
  8
0
  6
Continuous
 62
     7
370
    25
100
AcDbLine
 10
6.534347421
 20
9.9769576986
 30
0.0
 11
6.0508080418
 21
9.8128783377
 31
0.0
  0
LINE
  5
272
330
1F
100
AcDbEntity
  8
0
  6
Continuous
 62
     7
370
    25
100
AcDbLine
 10
6.0493608801
 20
9.8171431012
 30
0.0
 11
6.0508080418
 21
9.8128783377
 31
0.0
  0
LINE
  5
273
330
1F
100
AcDbEntity
  8
0
  6
Continuous
 62
     7
370
    25
100
AcDbLine
 10
6.0508080418
 20
9.8128783377
 30
0.0
 11
6.0437763999
 21
9.8102543557
 31
0.0
  0
ARC
  5
274
330
1F
100
AcDbEntity
  8
0
  6
Continuous
 62
     7
370
    25
100
AcDbCircle
 10
1.3970473041
 20
10.1900250427
 30
0.0
 40
0.2250000000000009
100
AcDbArc
 50
108.743609846
 51
251.256390154
  0
LINE
  5
275
330
1F
100
AcDbEntity
  8
0
  6
Continuous
 62
     7
370
    25
100
AcDbLine
 10
6.0439740152
 20
10.5697153441
 30
0.0
 11
6.0508080418
 21
10.5671717476
 31
0.0
  0
CIRCLE
  5
276
330
1F
100
AcDbEntity
  8
0
  6
Continuous
 62
     7
370
    25
100
AcDbCircle
 10
3.9295473041
 20
10.1900250427
 30
0.0
 40
0.5244818087681455
  0
LINE
  5
277
330
1F
100
AcDbEntity
  8
0
  6
Continuous
 62
     7
370
    25
100
AcDbLine
 10
5.7112004139
 20
10.1881730892
 30
0.0
 11
5.7130523674
 21
10.1900250427
 31
0.0
  0
LINE
  5
278
330
1F
100
AcDbEntity
  8
0
  6
Continuous
 62
     7
370
    25
100
AcDbLine
 10
5.7566937915
 20
10.1463836185
 30
0.0
 11
5.7130523674
 21
10.1900250427
 31
0.0
  0
LINE
  5
279
330
1F
100
AcDbEntity
  8
0
  6
Continuous
 62
     7
370
    25
100
AcDbLine
 10
5.7534321571
 20
10.145941346
 30
0.0
 11
5.7566937915
 21
10.1463836185
 31
0.0
  0
LINE
  5
27A
330
1F
100
AcDbEntity
  8
0
  6
Continuous
 62
     7
370
    25
100
AcDbLine
 10
5.7534321571
 20
10.145941346
 30
0.0
 11
5.7112004139
 21
10.1881730892
 31
0.0
  0
CIRCLE
  5
27B
330
1F
100
AcDbEntity
  8
0
  6
Continuous
 62
     7
370
    25
100
AcDbCircle
 10
5.6776970283
 20
10.1900250427
 30
0.0
 40
0.1804999999999997
  0
ARC
  5
27C
330
1F
100
AcDbEntity
  8
0
  6
Continuous
 62
     7
370
    25
100
AcDbCircle
 10
5.6776970283
 20
10.1900250427
 30
0.0
 40
0.090250000000001
100
AcDbArc
 50
61.0817321633
 51
118.9182678367
  0
ARC
  5
27D
330
1F
100
AcDbEntity
  8
0
  6
Continuous
 62
     7
370
    25
100
AcDbCircle
 10
5.6776970283
 20
10.1900250427
 30
0.0
 40
0.0902499999999986
100
AcDbArc
 50
118.9182678367
 51
151.0817321633
  0
ARC
  5
27E
330
1F
100
AcDbEntity
  8
0
  6
Continuous
 62
     7
370
    25
100
AcDbCircle
 10
5.6776970283
 20
10.1900250427
 30
0.0
 40
0.0902499999999987
100
AcDbArc
 50
151.0817321633
 51
208.9182678367
  0
LINE
  5
27F
330
1F
100
AcDbEntity
  8
0
  6
Continuous
 62
     7
370
    25
100
AcDbLine
 10
5.5987002651
 20
10.1463836185
 30
0.0
 11
5.5363358188
 21
10.0840191722
 31
0.0
  0
ARC
  5
280
330
1F
100
AcDbEntity
  8
0
  6
Continuous
 62
     7
370
    25
100
AcDbCircle
 10
5.6776970283
 20
10.1900250427
 30
0.0
 40
0.1766924902510344
100
AcDbArc
 50
216.8659969083
 51
233.1340030917
  0
LINE
  5
281
330
1F
100
AcDbEntity
  8
0
  6
Continuous
 62
     7
370
    25
100
AcDbLine
 10
5.5716911579
 20
10.0486638332
 30
0.0
 11
5.6340556042
 21
10.1110282794
 31
0.0
  0
ARC
  5
282
330
1F
100
AcDbEntity
  8
0
  6
Continuous
 62
     7
370
    25
100
AcDbCircle
 10
5.6776970283
 20
10.1900250427
 30
0.0
 40
0.0902500000000018
100
AcDbArc
 50
241.0817321633
 51
298.9182678367
  0
ARC
  5
283
330
1F
100
AcDbEntity
  8
0
  6
Continuous
 62
     7
370
    25
100
AcDbCircle
 10
5.6776970283
 20
10.1900250427
 30
0.0
 40
0.0902500000000032
100
AcDbArc
 50
298.9182678367
 51
331.0817321633
  0
ARC
  5
284
330
1F
100
AcDbEntity
  8
0
  6
Continuous
 62
     7
370
    25
100
AcDbCircle
 10
5.6776970283
 20
10.1900250427
 30
0.0
 40
0.0902500000000032
100
AcDbArc
 50
331.0817321633
 51
28.9182678367
  0
LINE
  5
285
330
1F
100
AcDbEntity
  8
0
  6
Continuous
 62
     7
370
    25
100
AcDbLine
 10
5.7566937915
 20
10.2336664668
 30
0.0
 11
5.8190582378
 21
10.2960309131
 31
0.0
  0
ARC
  5
286
330
1F
100
AcDbEntity
  8
0
  6
Continuous
 62
     7
370
    25
100
AcDbCircle
 10
5.6776970283
 20
10.1900250427
 30
0.0
 40
0.1766924902510376
100
AcDbArc
 50
36.8659969083
 51
53.1340030917
  0
LINE
  5
287
330
1F
100
AcDbEntity
  8
0
  6
Continuous
 62
     7
370
    25
100
AcDbLine
 10
5.7837028987
 20
10.3313862521
 30
0.0
 11
5.7213384525
 21
10.2690218059
 31
0.0
  0
LINE
  5
288
330
1F
100
AcDbEntity
  8
0
  6
Continuous
 62
     7
370
    25
100
AcDbLine
 10
5.6776970283
 20
10.1546697036
 30
0.0
 11
5.6340556042
 21
10.1110282794
 31
0.0
  0
LINE
  5
289
330
1F
100
AcDbEntity
  8
0
  6
Continuous
 62
     7
370
    25
100
AcDbLine
 10
5.6776970283
 20
10.1546697036
 30
0.0
 11
5.7213384525
 21
10.1110282794
 31
0.0
  0
ARC
  5
28A
330
1F
100
AcDbEntity
  8
0
  6
Continuous
 62
     7
370
    25
100
AcDbCircle
 10
5.6776970283
 20
10.1900250427
 30
0.0
 40
0.0876309422881205
100
AcDbArc
 50
300.2027119365
 51
329.7972880635
  0
LINE
  5
28B
330
1F
100
AcDbEntity
  8
0
  6
Continuous
 62
     7
370
    25
100
AcDbLine
 10
5.721780725
 20
10.1142899139
 30
0.0
 11
5.7213384525
 21
10.1110282794
 31
0.0
  0
LINE
  5
28C
330
1F
100
AcDbEntity
  8
0
  6
Continuous
 62
     7
370
    25
100
AcDbLine
 10
5.7566937915
 20
10.2336664668
 30
0.0
 11
5.7130523674
 21
10.1900250427
 31
0.0
  0
LINE
  5
28D
330
1F
100
AcDbEntity
  8
0
  6
Continuous
 62
     7
370
    25
100
AcDbLine
 10
5.6776970283
 20
10.1546697036
 30
0.0
 11
5.6795489818
 21
10.1565216571
 31
0.0
  0
LINE
  5
28E
330
1F
100
AcDbEntity
  8
0
  6
Continuous
 62
     7
370
    25
100
AcDbLine
 10
5.6795489818
 20
10.1565216571
 30
0.0
 11
5.721780725
 21
10.1142899139
 31
0.0
  0
ARC
  5
28F
330
1F
100
AcDbEntity
  8
0
  6
Continuous
 62
     7
370
    25
100
AcDbCircle
 10
5.6776970283
 20
10.1900250427
 30
0.0
 40
0.0876309422881175
100
AcDbArc
 50
120.2027119365
 51
149.7972880635
  0
LINE
  5
290
330
1F
100
AcDbEntity
  8
0
  6
Continuous
 62
     7
370
    25
100
AcDbLine
 10
5.6019618995
 20
10.2341087393
 30
0.0
 11
5.5987002651
 21
10.2336664668
 31
0.0
  0
LINE
  5
291
330
1F
100
AcDbEntity
  8
0
  6
Continuous
 62
     7
370
    25
100
AcDbLine
 10
5.6336133316
 20
10.2657601715
 30
0.0
 11
5.6340556042
 21
10.2690218059
 31
0.0
  0
LINE
  5
292
330
1F
100
AcDbEntity
  8
0
  6
Continuous
 62
     7
370
    25
100
AcDbLine
 10
5.6776970283
 20
10.2253803817
 30
0.0
 11
5.6758450748
 21
10.2235284282
 31
0.0
  0
LINE
  5
293
330
1F
100
AcDbEntity
  8
0
  6
Continuous
 62
     7
370
    25
100
AcDbLine
 10
5.6758450748
 20
10.2235284282
 30
0.0
 11
5.6336133316
 21
10.2657601715
 31
0.0
  0
LINE
  5
294
330
1F
100
AcDbEntity
  8
0
  6
Continuous
 62
     7
370
    25
100
AcDbLine
 10
5.6776970283
 20
10.2253803817
 30
0.0
 11
5.6340556042
 21
10.2690218059
 31
0.0
  0
LINE
  5
295
330
1F
100
AcDbEntity
  8
0
  6
Continuous
 62
     7
370
    25
100
AcDbLine
 10
5.7213384525
 20
10.2690218059
 30
0.0
 11
5.6776970283
 21
10.2253803817
 31
0.0
  0
LINE
  5
296
330
1F
100
AcDbEntity
  8
0
  6
Continuous
 62
     7
370
    25
100
AcDbLine
 10
5.5987002651
 20
10.2336664668
 30
0.0
 11
5.6423416892
 21
10.1900250427
 31
0.0
  0
LINE
  5
297
330
1F
100
AcDbEntity
  8
0
  6
Continuous
 62
     7
370
    25
100
AcDbLine
 10
5.6423416892
 20
10.1900250427
 30
0.0
 11
5.5987002651
 21
10.1463836185
 31
0.0
  0
LINE
  5
298
330
1F
100
AcDbEntity
  8
0
  6
Continuous
 62
     7
370
    25
100
AcDbLine
 10
5.6019618995
 20
10.2341087393
 30
0.0
 11
5.6441936427
 21
10.1918769961
 31
0.0
  0
LINE
  5
299
330
1F
100
AcDbEntity
  8
0
  6
Continuous
 62
     7
370
    25
100
AcDbLine
 10
5.6441936427
 20
10.1918769961
 30
0.0
 11
5.6423416892
 21
10.1900250427
 31
0.0
  0
ARC
  5
29A
330
1F
100
AcDbEntity
  8
0
  6
Continuous
 62
     7
370
    25
100
AcDbCircle
 10
2.1813975798
 20
10.1900250427
 30
0.0
 40
0.0902500000000016
100
AcDbArc
 50
241.0817321633
 51
298.9182678367
  0
LINE
  5
29B
330
1F
100
AcDbEntity
  8
0
  6
Continuous
 62
     7
370
    25
100
AcDbLine
 10
2.1813975798
 20
10.1546697036
 30
0.0
 11
2.1377561557
 21
10.1110282794
 31
0.0
  0
LINE
  5
29C
330
1F
100
AcDbEntity
  8
0
  6
Continuous
 62
     7
370
    25
100
AcDbLine
 10
2.1813975798
 20
10.1546697036
 30
0.0
 11
2.225039004
 21
10.1110282794
 31
0.0
  0
LINE
  5
29D
330
1F
100
AcDbEntity
  8
0
  6
Continuous
 62
     7
370
    25
100
AcDbLine
 10
2.260394343
 20
10.2336664668
 30
0.0
 11
2.2167529189
 21
10.1900250427
 31
0.0
  0
ARC
  5
29E
330
1F
100
AcDbEntity
  8
0
  6
Continuous
 62
     7
370
    25
100
AcDbCircle
 10
2.1813975798
 20
10.1900250427
 30
0.0
 40
0.0902500000000018
100
AcDbArc
 50
331.0817321633
 51
28.9182678367
  0
LINE
  5
29F
330
1F
100
AcDbEntity
  8
0
  6
Continuous
 62
     7
370
    25
100
AcDbLine
 10
2.260394343
 20
10.1463836185
 30
0.0
 11
2.2167529189
 21
10.1900250427
 31
0.0
  0
LINE
  5
2A0
330
1F
100
AcDbEntity
  8
0
  6
Continuous
 62
     7
370
    25
100
AcDbLine
 10
2.1813975798
 20
10.1546697036
 30
0.0
 11
2.1832495333
 21
10.1565216571
 31
0.0
  0
LINE
  5
2A1
330
1F
100
AcDbEntity
  8
0
  6
Continuous
 62
     7
370
    25
100
AcDbLine
 10
2.1832495333
 20
10.1565216571
 30
0.0
 11
2.2254812765
 21
10.1142899139
 31
0.0
  0
LINE
  5
2A2
330
1F
100
AcDbEntity
  8
0
  6
Continuous
 62
     7
370
    25
100
AcDbLine
 10
2.2254812765
 20
10.1142899139
 30
0.0
 11
2.225039004
 21
10.1110282794
 31
0.0
  0
CIRCLE
  5
2A3
330
1F
100
AcDbEntity
  8
0
  6
Continuous
 62
     7
370
    25
100
AcDbCircle
 10
2.1813975798
 20
10.1900250427
 30
0.0
 40
0.1805
  0
ARC
  5
2A4
330
1F
100
AcDbEntity
  8
0
  6
Continuous
 62
     7
370
    25
100
AcDbCircle
 10
2.1813975798
 20
10.1900250427
 30
0.0
 40
0.0902500000000008
100
AcDbArc
 50
61.0817321633
 51
118.9182678367
  0
ARC
  5
2A5
330
1F
100
AcDbEntity
  8
0
  6
Continuous
 62
     7
370
    25
100
AcDbCircle
 10
2.1813975798
 20
10.1900250427
 30
0.0
 40
0.0902500000000001
100
AcDbArc
 50
118.9182678367
 51
151.0817321633
  0
ARC
  5
2A6
330
1F
100
AcDbEntity
  8
0
  6
Continuous
 62
     7
370
    25
100
AcDbCircle
 10
2.1813975798
 20
10.1900250427
 30
0.0
 40
0.0902499999999974
100
AcDbArc
 50
151.0817321633
 51
208.9182678367
  0
LINE
  5
2A7
330
1F
100
AcDbEntity
  8
0
  6
Continuous
 62
     7
370
    25
100
AcDbLine
 10
2.1024008166
 20
10.1463836185
 30
0.0
 11
2.0400363703
 21
10.0840191722
 31
0.0
  0
ARC
  5
2A8
330
1F
100
AcDbEntity
  8
0
  6
Continuous
 62
     7
370
    25
100
AcDbCircle
 10
2.1813975798
 20
10.1900250427
 30
0.0
 40
0.1766924902510348
100
AcDbArc
 50
216.8659969083
 51
233.1340030917
  0
LINE
  5
2A9
330
1F
100
AcDbEntity
  8
0
  6
Continuous
 62
     7
370
    25
100
AcDbLine
 10
2.0753917094
 20
10.0486638332
 30
0.0
 11
2.1377561557
 21
10.1110282794
 31
0.0
  0
ARC
  5
2AA
330
1F
100
AcDbEntity
  8
0
  6
Continuous
 62
     7
370
    25
100
AcDbCircle
 10
2.1813975798
 20
10.1900250427
 30
0.0
 40
0.0902500000000016
100
AcDbArc
 50
298.9182678367
 51
331.0817321633
  0
LINE
  5
2AB
330
1F
100
AcDbEntity
  8
0
  6
Continuous
 62
     7
370
    25
100
AcDbLine
 10
2.260394343
 20
10.2336664668
 30
0.0
 11
2.3227587893
 21
10.2960309131
 31
0.0
  0
ARC
  5
2AC
330
1F
100
AcDbEntity
  8
0
  6
Continuous
 62
     7
370
    25
100
AcDbCircle
 10
2.1813975798
 20
10.1900250427
 30
0.0
 40
0.1766924902510379
100
AcDbArc
 50
36.8659969083
 51
53.1340030917
  0
LINE
  5
2AD
330
1F
100
AcDbEntity
  8
0
  6
Continuous
 62
     7
370
    25
100
AcDbLine
 10
2.2874034502
 20
10.3313862521
 30
0.0
 11
2.225039004
 21
10.2690218059
 31
0.0
  0
ARC
  5
2AE
330
1F
100
AcDbEntity
  8
0
  6
Continuous
 62
     7
370
    25
100
AcDbCircle
 10
2.1813975798
 20
10.1900250427
 30
0.0
 40
0.0876309422881207
100
AcDbArc
 50
300.2027119365
 51
329.7972880635
  0
LINE
  5
2AF
330
1F
100
AcDbEntity
  8
0
  6
Continuous
 62
     7
370
    25
100
AcDbLine
 10
2.2571327086
 20
10.145941346
 30
0.0
 11
2.260394343
 21
10.1463836185
 31
0.0
  0
LINE
  5
2B0
330
1F
100
AcDbEntity
  8
0
  6
Continuous
 62
     7
370
    25
100
AcDbLine
 10
2.2149009654
 20
10.1881730892
 30
0.0
 11
2.2167529189
 21
10.1900250427
 31
0.0
  0
LINE
  5
2B1
330
1F
100
AcDbEntity
  8
0
  6
Continuous
 62
     7
370
    25
100
AcDbLine
 10
2.2571327086
 20
10.145941346
 30
0.0
 11
2.2149009654
 21
10.1881730892
 31
0.0
  0
ARC
  5
2B2
330
1F
100
AcDbEntity
  8
0
  6
Continuous
 62
     7
370
    25
100
AcDbCircle
 10
2.1813975798
 20
10.1900250427
 30
0.0
 40
0.0876309422881171
100
AcDbArc
 50
120.2027119365
 51
149.7972880635
  0
LINE
  5
2B3
330
1F
100
AcDbEntity
  8
0
  6
Continuous
 62
     7
370
    25
100
AcDbLine
 10
2.105662451
 20
10.2341087393
 30
0.0
 11
2.1024008166
 21
10.2336664668
 31
0.0
  0
LINE
  5
2B4
330
1F
100
AcDbEntity
  8
0
  6
Continuous
 62
     7
370
    25
100
AcDbLine
 10
2.1373138831
 20
10.2657601715
 30
0.0
 11
2.1377561557
 21
10.2690218059
 31
0.0
  0
LINE
  5
2B5
330
1F
100
AcDbEntity
  8
0
  6
Continuous
 62
     7
370
    25
100
AcDbLine
 10
2.225039004
 20
10.2690218059
 30
0.0
 11
2.1813975798
 21
10.2253803817
 31
0.0
  0
LINE
  5
2B6
330
1F
100
AcDbEntity
  8
0
  6
Continuous
 62
     7
370
    25
100
AcDbLine
 10
2.1813975798
 20
10.2253803817
 30
0.0
 11
2.1377561557
 21
10.2690218059
 31
0.0
  0
LINE
  5
2B7
330
1F
100
AcDbEntity
  8
0
  6
Continuous
 62
     7
370
    25
100
AcDbLine
 10
2.1460422408
 20
10.1900250427
 30
0.0
 11
2.1024008166
 21
10.1463836185
 31
0.0
  0
LINE
  5
2B8
330
1F
100
AcDbEntity
  8
0
  6
Continuous
 62
     7
370
    25
100
AcDbLine
 10
2.1024008166
 20
10.2336664668
 30
0.0
 11
2.1460422408
 21
10.1900250427
 31
0.0
  0
LINE
  5
2B9
330
1F
100
AcDbEntity
  8
0
  6
Continuous
 62
     7
370
    25
100
AcDbLine
 10
2.105662451
 20
10.2341087393
 30
0.0
 11
2.1478941942
 21
10.1918769961
 31
0.0
  0
LINE
  5
2BA
330
1F
100
AcDbEntity
  8
0
  6
Continuous
 62
     7
370
    25
100
AcDbLine
 10
2.1478941942
 20
10.1918769961
 30
0.0
 11
2.1460422408
 21
10.1900250427
 31
0.0
  0
LINE
  5
2BB
330
1F
100
AcDbEntity
  8
0
  6
Continuous
 62
     7
370
    25
100
AcDbLine
 10
2.1795456263
 20
10.2235284282
 30
0.0
 11
2.1373138831
 21
10.2657601715
 31
0.0
  0
LINE
  5
2BC
330
1F
100
AcDbEntity
  8
0
  6
Continuous
 62
     7
370
    25
100
AcDbLine
 10
2.1813975798
 20
10.2253803817
 30
0.0
 11
2.1795456263
 21
10.2235284282
 31
0.0
  0
ARC
  5
2BD
330
1F
100
AcDbEntity
  8
0
  6
Continuous
 62
     7
370
    25
100
AcDbCircle
 10
3.9295473041
 20
10.1900250427
 30
0.0
 40
1.25
100
AcDbArc
 50
270.0
 51
352.0738951956
  0
LINE
  5
2BE
330
1F
100
AcDbEntity
  8
0
  6
Continuous
 62
     7
370
    25
100
AcDbLine
 10
5.1792246677
 20
10.1616263312
 30
0.0
 11
5.1792246677
 21
10.2184237542
 31
0.0
  0
ARC
  5
2BF
330
1F
100
AcDbEntity
  8
0
  6
Continuous
 62
     7
370
    25
100
AcDbCircle
 10
3.9295473041
 20
10.1900250427
 30
0.0
 40
1.25
100
AcDbArc
 50
7.9261048044
 51
172.0738951956
  0
LINE
  5
2C0
330
1F
100
AcDbEntity
  8
0
  6
Continuous
 62
     7
370
    25
100
AcDbLine
 10
2.6798699404
 20
10.2184237542
 30
0.0
 11
2.6798699404
 21
10.1616263312
 31
0.0
  0
ARC
  5
2C1
330
1F
100
AcDbEntity
  8
0
  6
Continuous
 62
     7
370
    25
100
AcDbCircle
 10
3.9295473041
 20
10.1900250427
 30
0.0
 40
1.25
100
AcDbArc
 50
187.9261048044
 51
270.0
  0
ARC
  5
2C2
330
1F
100
AcDbEntity
  8
0
  6
Continuous
 62
     7
370
    25
100
AcDbCircle
 10
3.9295473041
 20
10.1900250427
 30
0.0
 40
2.15
100
AcDbArc
 50
270.0
 51
297.4725435876
  0
ARC
  5
2C3
330
1F
100
AcDbEntity
  8
0
  6
Continuous
 62
     7
370
    25
100
AcDbCircle
 10
3.9295473041
 20
10.1900250427
 30
0.0
 40
2.15
100
AcDbArc
 50
332.5274564124
 51
349.7111887798
  0
LWPOLYLINE
  5
2C4
330
1F
100
AcDbEntity
  8
0
  6
Continuous
 62
     7
370
    25
100
AcDbPolyline
 90
        3
 70
   128
 43
0.0
 10
5.8914449989
 20
11.0694893312
 10
5.8876330577
 20
11.07794406
 10
5.8370961115
 20
11.1818705685
  0
ARC
  5
2C5
330
1F
100
AcDbEntity
  8
0
  6
Continuous
 62
     7
370
    25
100
AcDbCircle
 10
3.9295473041
 20
10.1900250427
 30
0.0
 40
2.15
100
AcDbArc
 50
62.5274564124
 51
117.4725435876
  0
ARC
  5
2C6
330
1F
100
AcDbEntity
  8
0
  6
Continuous
 62
     7
370
    25
100
AcDbCircle
 10
3.9295473041
 20
10.1900250427
 30
0.0
 40
2.15
100
AcDbArc
 50
152.5274564124
 51
163.6264386861
  0
ARC
  5
2C7
330
1F
100
AcDbEntity
  8
0
  6
Continuous
 62
     7
370
    25
100
AcDbCircle
 10
3.9295473041
 20
10.1900250427
 30
0.0
 40
2.15
100
AcDbArc
 50
198.0651520928
 51
207.4725435876
  0
LWPOLYLINE
  5
2C8
330
1F
100
AcDbEntity
  8
0
  6
Continuous
 62
     7
370
    25
100
AcDbPolyline
 90
        3
 70
   128
 43
0.0
 10
2.9377017782
 20
8.2824762352
 10
2.9562810402
 20
8.2729301625
 10
3.0004788688
 20
8.2511253953
  0
ARC
  5
2C9
330
1F
100
AcDbEntity
  8
0
  6
Continuous
 62
     7
370
    25
100
AcDbCircle
 10
3.9295473041
 20
10.1900250427
 30
0.0
 40
2.15
100
AcDbArc
 50
251.1210059199
 51
270.0
  0
CIRCLE
  5
2CA
330
1F
100
AcDbEntity
  8
0
  6
Continuous
 62
     7
370
    25
100
AcDbCircle
 10
5.3045473041
 20
10.1900250427
 30
0.0
 40
0.0625
  0
CIRCLE
  5
2CB
330
1F
100
AcDbEntity
  8
0
  6
Continuous
 62
     7
370
    25
100
AcDbCircle
 10
2.5545473041
 20
10.1900250427
 30
0.0
 40
0.0625
  0
SPLINE
  5
2CC
330
1F
100
AcDbEntity
  8
0
  6
Continuous
 62
     7
370
    25
100
AcDbSpline
210
0.0
220
0.0
230
1.0
 70
    11
 71
     3
 72
    66
 73
    62
 74
     0
 42
0.00000001
 43
0.00000001
 40
0.0
 40
0.0
 40
0.0
 40
0.0
 40
0.0178705275290826
 40
0.0357979876190634
 40
0.0536684943954348
 40
0.0715464426910013
 40
0.0894813433567321
 40
0.1073591849816909
 40
0.1252410042302183
 40
0.1431798350018372
 40
0.1610615828801503
 40
0.1789393701790002
 40
0.1968741402926558
 40
0.2147519241993282
 40
0.2326306706069383
 40
0.2505664686958656
 40
0.2684452812204245
 40
0.2863225846203377
 40
0.304256939761913
 40
0.322134348468496
 40
0.3400112291085111
 40
0.357945129781084
 40
0.3758220449536023
 40
0.3936997310479059
 40
0.4116344275285291
 40
0.4295121071714293
 40
0.4451672803637156
 40
0.4608990364225108
 40
0.4766307219403705
 40
0.4922857984698316
 40
0.5045099252274826
 40
0.5167340360775745
 40
0.5346107844666206
 40
0.5525445833664093
 40
0.5704214393206147
 40
0.5882988838846736
 40
0.6062333427084148
 40
0.6241107929409183
 40
0.6419895001954925
 40
0.6599252097724391
 40
0.6778038817679966
 40
0.6956817616048103
 40
0.713616592383834
 40
0.7314943669878439
 40
0.7493761863860221
 40
0.7673150204949127
 40
0.7851967740157668
 40
0.8030746221076187
 40
0.8210094571591353
 40
0.8388873089042608
 40
0.8567658089968249
 40
0.8747013607468818
 40
0.8925799324341877
 40
0.9104569539968536
 40
0.928391026789312
 40
0.946268155065399
 40
0.9520317879804041
 40
0.9635952500176327
 40
0.9751587043798903
 40
0.9875793411154631
 40
1.0
 40
1.0
 40
1.0
 40
1.0
 10
2.471451546124861
 20
11.64812080059109
 30
0.0
 10
2.418696403157979
 20
11.59173438684602
 30
0.0
 10
2.313018048017262
 20
11.47878192151761
 30
0.0
 10
2.179825840671296
 20
11.28835965507037
 30
0.0
 10
2.06706132057999
 20
11.08552237346313
 30
0.0
 10
1.978722026183782
 20
10.87071756327343
 30
0.0
 10
1.914629415155366
 20
10.6475344500359
 30
0.0
 10
1.875706046350557
 20
10.41854652403082
 30
0.0
 10
1.863349210552735
 20
10.18659221284046
 30
0.0
 10
1.876785807165218
 20
9.95471211457205
 30
0.0
 10
1.915863847612914
 20
9.725738363053576
 30
0.0
 10
1.980993008096871
 20
9.502790252528444
 30
0.0
 10
2.070414043471632
 20
9.288481688376331
 30
0.0
 10
2.183057728153024
 20
9.085373263932293
 30
0.0
 10
2.318298521937762
 20
8.896551042699368
 30
0.0
 10
2.473627702689416
 20
8.723914594787965
 30
0.0
 10
2.64715648985374
 20
8.569542930170865
 30
0.0
 10
2.837270800280328
 20
8.436138592878368
 30
0.0
 10
3.040973203619066
 20
8.32466134878299
 30
0.0
 10
3.255804005974545
 20
8.236435175890938
 30
0.0
 10
3.479346325086367
 20
8.17347273549311
 30
0.0
 10
3.708457511834621
 20
8.135693653154261
 30
0.0
 10
3.940380359885273
 20
8.123545039123885
 30
0.0
 10
4.172168505238592
 20
8.138121853159955
 30
0.0
 10
4.400875531779352
 20
8.178311527589166
 30
0.0
 10
4.61454440968044
 20
8.240894123989573
 30
0.0
 10
4.811265403225456
 20
8.32254904273936
 30
0.0
 10
4.990857965646458
 20
8.418681590100817
 30
0.0
 10
5.16034134029754
 20
8.531679199415859
 30
0.0
 10
5.306211084960696
 20
8.651177022436716
 30
0.0
 10
5.429885817735088
 20
8.77252975676512
 30
0.0
 10
5.550339894583917
 20
8.91011030501236
 30
0.0
 10
5.671562095025657
 20
9.07889550970311
 30
0.0
 10
5.785213581580615
 20
9.281378875787293
 30
0.0
 10
5.875754191074258
 20
9.495243012114596
 30
0.0
 10
5.941125131909597
 20
9.718095281883011
 30
0.0
 10
5.981376693737654
 20
9.94679230051904
 30
0.0
 10
5.996024739322773
 20
10.17858041004669
 30
0.0
 10
5.983943105145899
 20
10.41052182154777
 30
0.0
 10
5.946225237745678
 20
10.63966670244625
 30
0.0
 10
5.883318814514163
 20
10.86324323648812
 30
0.0
 10
5.79514494376945
 20
11.0781083268511
 30
0.0
 10
5.683718040749341
 20
11.28184529373179
 30
0.0
 10
5.550353115136321
 20
11.47200816227322
 30
0.0
 10
5.39600550265166
 20
11.64559629827004
 30
0.0
 10
5.223375377605424
 20
11.80099123651822
 30
0.0
 10
5.034559984575276
 20
11.93628724272384
 30
0.0
 10
4.831462229106002
 20
12.04897810813575
 30
0.0
 10
4.617170740148186
 20
12.13844225862103
 30
0.0
 10
4.394248549652079
 20
12.2036119821438
 30
0.0
 10
4.165310706584827
 20
12.24273353743801
 30
0.0
 10
3.933476256756168
 20
12.25622023397277
 30
0.0
 10
3.701550078781389
 20
12.24392564171508
 30
0.0
 10
3.472575509043893
 20
12.20505634225503
 30
0.0
 10
3.249375450701483
 20
12.14106328615769
 30
0.0
 10
3.083031179295754
 20
12.07258889790068
 30
0.0
 10
2.947274208375095
 20
12.00428694407359
 30
0.0
 10
2.838945757710269
 20
11.94224556974851
 30
0.0
 10
2.711713356261738
 20
11.85631268608357
 30
0.0
 10
2.587780039052345
 20
11.75930652589178
 30
0.0
 10
2.510227733483052
 20
11.68518273105471
 30
0.0
 10
2.471451546124861
 20
11.64812080059109
 30
0.0
  0
SPLINE
  5
2CD
330
1F
100
AcDbEntity
  8
0
  6
Continuous
 62
     7
370
    25
100
AcDbSpline
210
0.0
220
0.0
230
1.0
 70
    11
 71
     3
 72
    63
 73
    59
 74
     0
 42
0.00000001
 43
0.00000001
 40
0.0
 40
0.0
 40
0.0
 40
0.0
 40
0.0178800698329866
 40
0.0358171609734154
 40
0.0536972103483096
 40
0.0715771898400884
 40
0.0895141385336671
 40
0.1073940123107636
 40
0.1252731026353078
 40
0.1432091750781063
 40
0.1610881945530258
 40
0.1789665250192618
 40
0.1969018403695609
 40
0.214780167296332
 40
0.2326624373295502
 40
0.2506017893096694
 40
0.2684841246525464
 40
0.2863624077833096
 40
0.3042977482359959
 40
0.3221761356104795
 40
0.3400553244026749
 40
0.3579915521800036
 40
0.3758707757445811
 40
0.3937487475328095
 40
0.4116837294881019
 40
0.4295616955044136
 40
0.4474390654628539
 40
0.4653733805268478
 40
0.483250643956983
 40
0.5011294931678909
 40
0.5190653192029885
 40
0.53694409251841
 40
0.5537098369265697
 40
0.5704755997760208
 40
0.5883538037469339
 40
0.6062890261966544
 40
0.624167236557166
 40
0.6420446709607466
 40
0.6599790926859088
 40
0.6778564928878096
 40
0.6957344084403114
 40
0.7136692725496838
 40
0.7315470838043602
 40
0.7494264120564794
 40
0.767362727835344
 40
0.7852419906039189
 40
0.8031202540412096
 40
0.8210555051977639
 40
0.8389337719947348
 40
0.8568160357657152
 40
0.8747553837327764
 40
0.8926377181902397
 40
0.9105160698068749
 40
0.9284514815777034
 40
0.9463299388430353
 40
0.9642009674185529
 40
0.9821289508705835
 40
1.0
 40
1.0
 40
1.0
 40
1.0
 10
2.457313010984945
 20
11.662259335731
 30
0.0
 10
2.51427595890033
 20
11.71555199110227
 30
0.0
 10
2.628383515194187
 20
11.82230725738271
 30
0.0
 10
2.820762152857114
 20
11.95684240959338
 30
0.0
 10
3.025657594396481
 20
12.07071369326551
 30
0.0
 10
3.242609947336594
 20
12.1598914016887
 30
0.0
 10
3.467988465908627
 20
12.22456918806846
 30
0.0
 10
3.699203768694802
 20
12.26382478621165
 30
0.0
 10
3.933387632431018
 20
12.27625601888723
 30
0.0
 10
4.167471214389852
 20
12.26265198358591
 30
0.0
 10
4.398631251331763
 20
12.22316532264263
 30
0.0
 10
4.623718814726082
 20
12.15737740231626
 30
0.0
 10
4.840093302523117
 20
12.06705908622285
 30
0.0
 10
5.045167106955375
 20
11.95328809165908
 30
0.0
 10
5.235821621672947
 20
11.81669186128181
 30
0.0
 10
5.410135329875772
 20
11.65980074866338
 30
0.0
 10
5.565990299274508
 20
11.48453887472253
 30
0.0
 10
5.700660138270163
 20
11.2925403051455
 30
0.0
 10
5.813180125951448
 20
11.08683472983492
 30
0.0
 10
5.902222226905947
 20
10.86989161242405
 30
0.0
 10
5.965752381151614
 20
10.64415098091304
 30
0.0
 10
6.003850134829537
 20
10.41278643165218
 30
0.0
 10
6.016063212288446
 20
10.17859662279907
 30
0.0
 10
6.001287294628038
 20
9.944559950594082
 30
0.0
 10
5.960659729589301
 20
9.713642706015543
 30
0.0
 10
5.894667668628423
 20
9.48862551640655
 30
0.0
 10
5.803265720777067
 20
9.27268156292403
 30
0.0
 10
5.68851133101625
 20
9.068229487124256
 30
0.0
 10
5.551766710861076
 20
8.87773255823436
 30
0.0
 10
5.39403115648224
 20
8.704209633906622
 30
0.0
 10
5.21806237984817
 20
8.549246177516439
 30
0.0
 10
5.029914863695759
 20
8.417565966747187
 30
0.0
 10
4.832914315330783
 20
8.309977920223513
 30
0.0
 10
4.625818668912802
 20
8.223406810505054
 30
0.0
 10
4.405451977063717
 20
8.158791159958808
 30
0.0
 10
4.174519556668625
 20
8.118229090208324
 30
0.0
 10
3.940485719072719
 20
8.103506273814217
 30
0.0
 10
3.70631333591541
 20
8.115773955445693
 30
0.0
 10
3.474980594121887
 20
8.153919099286625
 30
0.0
 10
3.249270582187434
 20
8.217492167275283
 30
0.0
 10
3.03235667403457
 20
8.30657386019527
 30
0.0
 10
2.82667915606985
 20
8.419132161257174
 30
0.0
 10
2.634721422820585
 20
8.553830098719219
 30
0.0
 10
2.459509987511489
 20
8.709698681365136
 30
0.0
 10
2.3026746648818
 20
8.88400922582347
 30
0.0
 10
2.166122574597038
 20
9.074662321619751
 30
0.0
 10
2.052386737563045
 20
9.279739978183178
 30
0.0
 10
1.962098776319259
 20
9.496126225479241
 30
0.0
 10
1.896338168672986
 20
9.721235933435565
 30
0.0
 10
1.856881189162389
 20
9.95242984834989
 30
0.0
 10
1.843314202076854
 20
10.18655844826809
 30
0.0
 10
1.855790834846017
 20
10.42076196441869
 30
0.0
 10
1.895091579893152
 20
10.65197030627746
 30
0.0
 10
1.959805529579638
 20
10.87731755701562
 30
0.0
 10
2.049001379290361
 20
11.09420529811981
 30
0.0
 10
2.162859379900453
 20
11.2990094847645
 30
0.0
 10
2.297343154416306
 20
11.49127833563222
 30
0.0
 10
2.404046291896176
 20
11.60532612908109
 30
0.0
 10
2.457313010984945
 20
11.662259335731
 30
0.0
  0
SPLINE
  5
2CE
330
1F
100
AcDbEntity
  8
0
  6
Continuous
 62
     7
370
    25
100
AcDbSpline
210
0.0
220
0.0
230
1.0
 70
     8
 71
     3
 72
     9
 73
     5
 74
     0
 42
0.00000001
 43
0.00000001
 40
0.0
 40
0.0
 40
0.0
 40
0.0
 40
0.4972616951660058
 40
1.0
 40
1.0
 40
1.0
 40
1.0
 10
3.714547304231843
 20
12.23793559493361
 30
0.0
 10
3.785819874711403
 20
12.24353958758032
 30
0.0
 10
3.92914997870376
 20
12.25480929264949
 30
0.0
 10
4.072486529496217
 20
12.24358065910805
 30
0.0
 10
4.144547304062368
 20
12.23793559491582
 30
0.0
  0
SPLINE
  5
2CF
330
1F
100
AcDbEntity
  8
0
  6
Continuous
 62
     7
370
    25
100
AcDbSpline
210
0.0
220
0.0
230
1.0
 70
     8
 71
     3
 72
    12
 73
     8
 74
     0
 42
0.00000001
 43
0.00000001
 40
0.0
 40
0.0
 40
0.0
 40
0.0
 40
0.1971316750367394
 40
0.3942633581520825
 40
0.5956099115795666
 40
0.7969563213744333
 40
1.0
 40
1.0
 40
1.0
 40
1.0
 10
3.008606001248038
 20
12.00214051448181
 30
0.0
 10
3.052435692458753
 20
12.02327512518426
 30
0.0
 10
3.140095076676359
 20
12.06554434745526
 30
0.0
 10
3.277879191196726
 20
12.11723122481196
 30
0.0
 10
3.41977590873511
 20
12.15954619786394
 30
0.0
 10
3.565819824486686
 20
12.19229625238813
 30
0.0
 10
3.664832954710433
 20
12.20497229353372
 30
0.0
 10
3.714547304217338
 20
12.21133691546266
 30
0.0
  0
LINE
  5
2D0
330
1F
100
AcDbEntity
  8
0
  6
Continuous
 62
     7
370
    25
100
AcDbLine
 10
2.9669613066
 20
11.9940681097
 30
0.0
 11
3.0086060012
 21
12.0021405145
 31
0.0
  0
SPLINE
  5
2D1
330
1F
100
AcDbEntity
  8
0
  6
Continuous
 62
     7
370
    25
100
AcDbSpline
210
0.0
220
0.0
230
1.0
 70
     8
 71
     3
 72
    25
 73
    21
 74
     0
 42
0.00000001
 43
0.00000001
 40
0.0
 40
0.0
 40
0.0
 40
0.0
 40
0.0549889311655261
 40
0.1099885545094246
 40
0.164894612091977
 40
0.2198079797591218
 40
0.2763404422591799
 40
0.332866156465957
 40
0.3896569799550973
 40
0.4464352008391974
 40
0.5010042752942936
 40
0.5555734837749636
 40
0.608755264538893
 40
0.661946749936535
 40
0.7163330943023137
 40
0.7707259786134737
 40
0.8273254056854686
 40
0.8839175315212078
 40
0.9419654691690652
 40
1.0
 40
1.0
 40
1.0
 40
1.0
 10
2.125504236983195
 20
11.15261104012079
 30
0.0
 10
2.126817912499834
 20
11.15666699291152
 30
0.0
 10
2.1294455189673
 20
11.16477968714208
 30
0.0
 10
2.143686638280313
 20
11.19511685598173
 30
0.0
 10
2.165717111083448
 20
11.23738057410039
 30
0.0
 10
2.196389260482524
 20
11.29101687103243
 30
0.0
 10
2.23614824059094
 20
11.35418853179101
 30
0.0
 10
2.284959553943865
 20
11.42462211370536
 30
0.0
 10
2.342445938173741
 20
11.49921118592394
 30
0.0
 10
2.406469852000666
 20
11.57420063988127
 30
0.0
 10
2.475507621643259
 20
11.64664909423749
 30
0.0
 10
2.546483741049962
 20
11.71402213255449
 30
0.0
 10
2.618206436263917
 20
11.77526001346476
 30
0.0
 10
2.688792893444051
 20
11.83000580136677
 30
0.0
 10
2.756487763307682
 20
11.87746823105367
 30
0.0
 10
2.819766846314304
 20
11.91788560439129
 30
0.0
 10
2.875357532178631
 20
11.95012767865536
 30
0.0
 10
2.920823551817184
 20
11.97411050637189
 30
0.0
 10
2.953839014706972
 20
11.98976395840335
 30
0.0
 10
2.962587546099785
 20
11.9926335030946
 30
0.0
 10
2.966961306595189
 20
11.99406810973277
 30
0.0
  0
LINE
  5
2D2
330
1F
100
AcDbEntity
  8
0
  6
Continuous
 62
     7
370
    25
100
AcDbLine
 10
2.1174318322
 20
11.1109663455
 30
0.0
 11
2.125504237
 21
11.1526110401
 31
0.0
  0
SPLINE
  5
2D3
330
1F
100
AcDbEntity
  8
0
  6
Continuous
 62
     7
370
    25
100
AcDbSpline
210
0.0
220
0.0
230
1.0
 70
     8
 71
     3
 72
    19
 73
    15
 74
     0
 42
0.00000001
 43
0.00000001
 40
0.0
 40
0.0
 40
0.0
 40
0.0
 40
0.0763550248796074
 40
0.1527100528883009
 40
0.2306976268969603
 40
0.3086851452723887
 40
0.3970907337862541
 40
0.4854964524879829
 40
0.5764704899033501
 40
0.6674443065022253
 40
0.7495613551136938
 40
0.831678469781135
 40
0.9158392342304401
 40
1.0
 40
1.0
 40
1.0
 40
1.0
 10
2.117431832234158
 20
9.269083739839282
 30
0.0
 10
2.096294436988991
 20
9.312913149368933
 30
0.0
 10
2.054019645632429
 20
9.400571970224401
 30
0.0
 10
2.002374834100107
 20
9.538360340074032
 30
0.0
 10
1.959896705907132
 20
9.680240553030464
 30
0.0
 10
1.926423806051503
 20
9.832424894442607
 30
0.0
 10
1.904035289057571
 20
9.993373031852954
 30
0.0
 10
1.894585653089884
 20
10.16389059527361
 30
0.0
 10
1.89963783843449
 20
10.33624761648979
 30
0.0
 10
1.918882437762569
 20
10.50356140782591
 30
0.0
 10
1.950574024431338
 20
10.66319035774781
 30
0.0
 10
1.993471213287121
 20
10.81562131210975
 30
0.0
 10
2.047841394733962
 20
10.96587383192356
 30
0.0
 10
2.094235019612768
 20
11.0626021740336
 30
0.0
 10
2.117431832234119
 20
11.11096634546797
 30
0.0
  0
LINE
  5
2D4
330
1F
100
AcDbEntity
  8
0
  6
Continuous
 62
     7
370
    25
100
AcDbLine
 10
2.125504237
 20
9.2274390452
 30
0.0
 11
2.1174318322
 21
9.2690837398
 31
0.0
  0
SPLINE
  5
2D5
330
1F
100
AcDbEntity
  8
0
  6
Continuous
 62
     7
370
    25
100
AcDbSpline
210
0.0
220
0.0
230
1.0
 70
     8
 71
     3
 72
    25
 73
    21
 74
     0
 42
0.00000001
 43
0.00000001
 40
0.0
 40
0.0
 40
0.0
 40
0.0
 40
0.0549889311655272
 40
0.1099885545094256
 40
0.1648946120919779
 40
0.2198079797591224
 40
0.2763404422591804
 40
0.3328661564659574
 40
0.3896569799550979
 40
0.4464352008391985
 40
0.5010042752942957
 40
0.5555734837749664
 40
0.6087552645388953
 40
0.6619467499365368
 40
0.7163330943023135
 40
0.7707259786134714
 40
0.8273254056854666
 40
0.8839175315212063
 40
0.9419654691690644
 40
1.0
 40
1.0
 40
1.0
 40
1.0
 10
2.966961306595188
 20
8.38598197557444
 30
0.0
 10
2.962905353804454
 20
8.387295651091078
 30
0.0
 10
2.954792659573893
 20
8.389923257558545
 30
0.0
 10
2.924455490734239
 20
8.40416437687156
 30
0.0
 10
2.882191772615581
 20
8.426194849674692
 30
0.0
 10
2.828555475683541
 20
8.45686699907377
 30
0.0
 10
2.765383814924963
 20
8.496625979182186
 30
0.0
 10
2.694950233010607
 20
8.54543729253511
 30
0.0
 10
2.620361160792033
 20
8.602923676764984
 30
0.0
 10
2.545371706834699
 20
8.66694759059191
 30
0.0
 10
2.472923252478478
 20
8.735985360234505
 30
0.0
 10
2.405550214161479
 20
8.806961479641208
 30
0.0
 10
2.344312333251205
 20
8.878684174855161
 30
0.0
 10
2.289566545349201
 20
8.949270632035294
 30
0.0
 10
2.242104115662306
 20
9.016965501898923
 30
0.0
 10
2.201686742324676
 20
9.080244584905545
 30
0.0
 10
2.169444668060604
 20
9.13583527076987
 30
0.0
 10
2.145461840344084
 20
9.181301290408424
 30
0.0
 10
2.12980838831262
 20
9.214316753298213
 30
0.0
 10
2.126938843621368
 20
9.223065284691025
 30
0.0
 10
2.125504236983195
 20
9.227439045186431
 30
0.0
  0
LINE
  5
2D6
330
1F
100
AcDbEntity
  8
0
  6
Continuous
 62
     7
370
    25
100
AcDbLine
 10
3.0086060012
 20
8.3779095708
 30
0.0
 11
2.9669613066
 21
8.3859819756
 31
0.0
  0
SPLINE
  5
2D7
330
1F
100
AcDbEntity
  8
0
  6
Continuous
 62
     7
370
    25
100
AcDbSpline
210
0.0
220
0.0
230
1.0
 70
     8
 71
     3
 72
    12
 73
     8
 74
     0
 42
0.00000001
 43
0.00000001
 40
0.0
 40
0.0
 40
0.0
 40
0.0
 40
0.1782880561283883
 40
0.3567466493238237
 40
0.570949564365774
 40
0.7854303938459963
 40
0.9999999999999999
 40
0.9999999999999999
 40
0.9999999999999999
 40
0.9999999999999999
 10
3.714547305219501
 20
8.168712806429578
 30
0.0
 10
3.670884491072736
 20
8.174187895981108
 30
0.0
 10
3.583517098185292
 20
8.185143312146785
 30
0.0
 10
3.445491860117186
 20
8.21409715058864
 30
0.0
 10
3.301228590079352
 20
8.254806531744473
 30
0.0
 10
3.151837696683324
 20
8.30914937444693
 30
0.0
 10
3.056356485202706
 20
8.35498634392432
 30
0.0
 10
3.008606001248018
 20
8.377909570825413
 30
0.0
  0
SPLINE
  5
2D8
330
1F
100
AcDbEntity
  8
0
  6
Continuous
 62
     7
370
    25
100
AcDbSpline
210
0.0
220
0.0
230
1.0
 70
     8
 71
     3
 72
    11
 73
     7
 74
     0
 42
0.00000001
 43
0.00000001
 40
0.0
 40
0.0
 40
0.0
 40
0.0
 40
0.3223522016703147
 40
0.6445463695013174
 40
0.8223853724749998
 40
1.0
 40
1.0
 40
1.0
 40
1.0
 10
4.850488606876691
 20
8.377909570825409
 30
0.0
 10
4.778343131120696
 20
8.344243822318086
 30
0.0
 10
4.634087549078694
 20
8.276928830006872
 30
0.0
 10
4.438763060384034
 20
8.219522317449513
 30
0.0
 10
4.275089307503466
 20
8.185040008082234
 30
0.0
 10
4.188042989046453
 20
8.174152937801658
 30
0.0
 10
4.144547303242162
 20
8.16871283882163
 30
0.0
  0
LINE
  5
2D9
330
1F
100
AcDbEntity
  8
0
  6
Continuous
 62
     7
370
    25
100
AcDbLine
 10
4.8921333015
 20
8.3859819756
 30
0.0
 11
4.8504886069
 21
8.3779095708
 31
0.0
  0
SPLINE
  5
2DA
330
1F
100
AcDbEntity
  8
0
  6
Continuous
 62
     7
370
    25
100
AcDbSpline
210
0.0
220
0.0
230
1.0
 70
     8
 71
     3
 72
    25
 73
    21
 74
     0
 42
0.00000001
 43
0.00000001
 40
0.0
 40
0.0
 40
0.0
 40
0.0
 40
0.0549889311655273
 40
0.1099885545094258
 40
0.164894612091978
 40
0.2198079797591224
 40
0.2763404422591804
 40
0.3328661564659574
 40
0.3896569799550982
 40
0.4464352008391989
 40
0.5010042752942958
 40
0.5555734837749665
 40
0.6087552645388954
 40
0.6619467499365365
 40
0.7163330943023133
 40
0.7707259786134715
 40
0.8273254056854668
 40
0.8839175315212064
 40
0.9419654691690645
 40
1.0
 40
1.0
 40
1.0
 40
1.0
 10
5.73359037114153
 20
9.227439045186443
 30
0.0
 10
5.732276695624891
 20
9.223383092395709
 30
0.0
 10
5.729649089157423
 20
9.215270398165147
 30
0.0
 10
5.715407969844409
 20
9.184933229325491
 30
0.0
 10
5.693377497041276
 20
9.142669511206837
 30
0.0
 10
5.662705347642201
 20
9.089033214274796
 30
0.0
 10
5.622946367533786
 20
9.025861553516217
 30
0.0
 10
5.574135054180861
 20
8.95542797160186
 30
0.0
 10
5.516648669950986
 20
8.880838899383285
 30
0.0
 10
5.452624756124062
 20
8.805849445425952
 30
0.0
 10
5.383586986481467
 20
8.73340099106973
 30
0.0
 10
5.312610867074763
 20
8.666027952752733
 30
0.0
 10
5.240888171860811
 20
8.60479007184246
 30
0.0
 10
5.170301714680678
 20
8.550044283940453
 30
0.0
 10
5.102606844817048
 20
8.50258185425356
 30
0.0
 10
5.039327761810428
 20
8.462164480915927
 30
0.0
 10
4.983737075946101
 20
8.429922406651857
 30
0.0
 10
4.938271056307548
 20
8.405939578935337
 30
0.0
 10
4.905255593417759
 20
8.390286126903872
 30
0.0
 10
4.896507062024947
 20
8.38741658221262
 30
0.0
 10
4.892133301529544
 20
8.385981975574445
 30
0.0
  0
LINE
  5
2DB
330
1F
100
AcDbEntity
  8
0
  6
Continuous
 62
     7
370
    25
100
AcDbLine
 10
5.7416627759
 20
9.2690837398
 30
0.0
 11
5.7335903711
 21
9.2274390452
 31
0.0
  0
SPLINE
  5
2DC
330
1F
100
AcDbEntity
  8
0
  6
Continuous
 62
     7
370
    25
100
AcDbSpline
210
0.0
220
0.0
230
1.0
 70
     8
 71
     3
 72
    19
 73
    15
 74
     0
 42
0.00000001
 43
0.00000001
 40
0.0
 40
0.0
 40
0.0
 40
0.0
 40
0.0763550248796045
 40
0.1527100528882951
 40
0.2306976268969516
 40
0.3086851452723771
 40
0.3970907337862434
 40
0.485496452487973
 40
0.5764704899033407
 40
0.6674443065022169
 40
0.7495613551136872
 40
0.8316784697811306
 40
0.9158392342304377
 40
1.0
 40
1.0
 40
1.0
 40
1.0
 10
5.741662775890566
 20
11.11096634546792
 30
0.0
 10
5.762800171135733
 20
11.06713693593827
 30
0.0
 10
5.805074962492291
 20
10.97947811508281
 30
0.0
 10
5.856719774024611
 20
10.84168974523319
 30
0.0
 10
5.899197902217583
 20
10.69980953227676
 30
0.0
 10
5.93267080207321
 20
10.54762519086462
 30
0.0
 10
5.955059319067145
 20
10.38667705345428
 30
0.0
 10
5.964508955034833
 20
10.21615949003362
 30
0.0
 10
5.959456769690229
 20
10.04380246881744
 30
0.0
 10
5.940212170362151
 20
9.87648867748133
 30
0.0
 10
5.908520583693385
 20
9.716859727559422
 30
0.0
 10
5.865623394837601
 20
9.564428773197482
 30
0.0
 10
5.811253213390762
 20
9.414176253383667
 30
0.0
 10
5.764859588511955
 20
9.317447911273629
 30
0.0
 10
5.741662775890604
 20
9.269083739839257
 30
0.0
  0
SPLINE
  5
2DD
330
1F
100
AcDbEntity
  8
0
  6
Continuous
 62
     7
370
    25
100
AcDbSpline
210
0.0
220
0.0
230
1.0
 70
     8
 71
     3
 72
     9
 73
     5
 74
     0
 42
0.00000001
 43
0.00000001
 40
0.0
 40
0.0
 40
0.0
 40
0.0
 40
0.2532993713315539
 40
1.0
 40
1.0
 40
1.0
 40
1.0
 10
5.741662775890566
 20
11.11096634546792
 30
0.0
 10
5.741003451029139
 20
11.11450466124982
 30
0.0
 10
5.738400503939459
 20
11.12847356991035
 30
0.0
 10
5.735646664661576
 20
11.14229246355145
 30
0.0
 10
5.733590371141529
 20
11.15261104012077
 30
0.0
  0
SPLINE
  5
2DE
330
1F
100
AcDbEntity
  8
0
  6
Continuous
 62
     7
370
    25
100
AcDbSpline
210
0.0
220
0.0
230
1.0
 70
     8
 71
     3
 72
    25
 73
    21
 74
     0
 42
0.00000001
 43
0.00000001
 40
0.0
 40
0.0
 40
0.0
 40
0.0
 40
0.0549889311655272
 40
0.1099885545094256
 40
0.1648946120919781
 40
0.2198079797591228
 40
0.2763404422591805
 40
0.3328661564659572
 40
0.3896569799550977
 40
0.4464352008391984
 40
0.5010042752942956
 40
0.5555734837749664
 40
0.6087552645388952
 40
0.6619467499365365
 40
0.7163330943023132
 40
0.7707259786134711
 40
0.8273254056854666
 40
0.8839175315212063
 40
0.9419654691690644
 40
1.0
 40
1.0
 40
1.0
 40
1.0
 10
5.733590371141529
 20
11.15261104012077
 30
0.0
 10
5.73227669562489
 20
11.15666699291151
 30
0.0
 10
5.729649089157423
 20
11.16477968714207
 30
0.0
 10
5.715407969844409
 20
11.19511685598172
 30
0.0
 10
5.693377497041276
 20
11.23738057410038
 30
0.0
 10
5.662705347642201
 20
11.29101687103242
 30
0.0
 10
5.622946367533785
 20
11.354188531791
 30
0.0
 10
5.574135054180861
 20
11.42462211370535
 30
0.0
 10
5.516648669950986
 20
11.49921118592393
 30
0.0
 10
5.452624756124061
 20
11.57420063988126
 30
0.0
 10
5.383586986481467
 20
11.64664909423748
 30
0.0
 10
5.312610867074763
 20
11.71402213255448
 30
0.0
 10
5.240888171860809
 20
11.77526001346476
 30
0.0
 10
5.170301714680679
 20
11.83000580136676
 30
0.0
 10
5.102606844817048
 20
11.87746823105365
 30
0.0
 10
5.039327761810427
 20
11.91788560439129
 30
0.0
 10
4.983737075946101
 20
11.95012767865536
 30
0.0
 10
4.938271056307547
 20
11.97411050637188
 30
0.0
 10
4.905255593417758
 20
11.98976395840334
 30
0.0
 10
4.896507062024946
 20
11.99263350309459
 30
0.0
 10
4.892133301529542
 20
11.99406810973277
 30
0.0
  0
SPLINE
  5
2DF
330
1F
100
AcDbEntity
  8
0
  6
Continuous
 62
     7
370
    25
100
AcDbSpline
210
0.0
220
0.0
230
1.0
 70
     8
 71
     3
 72
     9
 73
     5
 74
     0
 42
0.00000001
 43
0.00000001
 40
0.0
 40
0.0
 40
0.0
 40
0.0
 40
0.7466995668812242
 40
1.0
 40
1.0
 40
1.0
 40
1.0
 10
4.892133301529542
 20
11.99406810973277
 30
0.0
 10
4.881814739671992
 20
11.99612440036809
 30
0.0
 10
4.867995846083172
 20
11.99887823969856
 30
0.0
 10
4.854026937476865
 20
12.00148118684279
 30
0.0
 10
4.850488606876691
 20
12.00214051448181
 30
0.0
  0
SPLINE
  5
2E0
330
1F
100
AcDbEntity
  8
0
  6
Continuous
 62
     7
370
    25
100
AcDbSpline
210
0.0
220
0.0
230
1.0
 70
     8
 71
     3
 72
    12
 73
     8
 74
     0
 42
0.00000001
 43
0.00000001
 40
0.0
 40
0.0
 40
0.0
 40
0.0
 40
0.1414033945882638
 40
0.3534142564161575
 40
0.5654252887882191
 40
0.7827126426897825
 40
1.0
 40
1.0
 40
1.0
 40
1.0
 10
4.144547304062367
 20
12.21133691544611
 30
0.0
 10
4.179186104053785
 20
12.20711534896551
 30
0.0
 10
4.265760021022049
 20
12.19656424598106
 30
0.0
 10
4.402703033738328
 20
12.16888300796619
 30
0.0
 10
4.555146200763902
 20
12.12613273966725
 30
0.0
 10
4.705395429807526
 20
12.07172296965879
 30
0.0
 10
4.8021242142674
 20
12.02533466632875
 30
0.0
 10
4.850488606876691
 20
12.00214051448181
 30
0.0
  0
SPLINE
  5
2E1
330
1F
100
AcDbEntity
  8
0
  6
Continuous
 62
     7
370
    25
100
AcDbSpline
210
0.0
220
0.0
230
1.0
 70
     8
 71
     3
 72
    17
 73
    13
 74
     0
 42
0.00000001
 43
0.00000001
 40
0.0
 40
0.0
 40
0.0
 40
0.0
 40
0.038370194032295
 40
0.15615350467654
 40
0.2743120399197201
 40
0.3920946338739208
 40
0.5099030303924227
 40
0.628086998842895
 40
0.7458948717278543
 40
0.8305503393230776
 40
0.9153444330660417
 40
1.0
 40
1.0
 40
1.0
 40
1.0
 10
4.90807069394648
 20
12.08425171417429
 30
0.0
 10
4.884843106198133
 20
12.09592102429062
 30
0.0
 10
4.7903148056888
 20
12.14341110657395
 30
0.0
 10
4.617260061136387
 20
12.21246164029735
 30
0.0
 10
4.386065669374941
 20
12.27704503958186
 30
0.0
 10
4.148972068481899
 20
12.31536987288791
 30
0.0
 10
3.90905266068089
 20
12.32625708732915
 30
0.0
 10
3.669434133424188
 20
12.31044837837569
 30
0.0
 10
3.455101473735603
 20
12.27216980845452
 30
0.0
 10
3.267765141579431
 20
12.21895680757696
 30
0.0
 10
3.105865189476462
 20
12.15965988405732
 30
0.0
 10
3.00260953509755
 20
12.10937406774774
 30
0.0
 10
2.951023914178251
 20
12.0842517141743
 30
0.0
  0
SPLINE
  5
2E2
330
1F
100
AcDbEntity
  8
0
  6
Continuous
 62
     7
370
    25
100
AcDbSpline
210
0.0
220
0.0
230
1.0
 70
     8
 71
     3
 72
    17
 73
    13
 74
     0
 42
0.00000001
 43
0.00000001
 40
0.0
 40
0.0
 40
0.0
 40
0.0
 40
0.0852624480987131
 40
0.1706685802503596
 40
0.2559309300439848
 40
0.3728633057804329
 40
0.4901689796786948
 40
0.6071018703257075
 40
0.7240091445106207
 40
0.8412895627999436
 40
0.958197541735882
 40
1.0
 40
1.0
 40
1.0
 40
1.0
 10
2.935026640481618
 20
12.09847785595169
 30
0.0
 10
2.987779899780703
 20
12.12437885577319
 30
0.0
 10
3.093375318032476
 20
12.17622450371287
 30
0.0
 10
3.259103564962725
 20
12.2372463750895
 30
0.0
 10
3.449811213916615
 20
12.29154756119536
 30
0.0
 10
3.666994094990724
 20
12.33033379786971
 30
0.0
 10
3.908860014629506
 20
12.34629151280595
 30
0.0
 10
4.151029043755766
 20
12.33530123850836
 30
0.0
 10
4.390347920285678
 20
12.29662032134105
 30
0.0
 10
4.623704217175528
 20
12.231419151817
 30
0.0
 10
4.800785511815937
 20
12.16080521258865
 30
0.0
 10
4.898366330337281
 20
12.11147171711194
 30
0.0
 10
4.924067967643434
 20
12.09847785595151
 30
0.0
  0
SPLINE
  5
2E3
330
1F
100
AcDbEntity
  8
0
  6
Continuous
 62
     7
370
    25
100
AcDbSpline
210
0.0
220
0.0
230
1.0
 70
     8
 71
     3
 72
    17
 73
    13
 74
     0
 42
0.00000001
 43
0.00000001
 40
0.0
 40
0.0
 40
0.0
 40
0.0
 40
0.0938758519225097
 40
0.1879408504412803
 40
0.2818165111405557
 40
0.3996115291257036
 40
0.517782420052927
 40
0.6355777783326958
 40
0.7533677382082706
 40
0.871533615644459
 40
0.9893242379600343
 40
1.0
 40
1.0
 40
1.0
 40
1.0
 10
2.951023914178255
 20
8.29579837113292
 30
0.0
 10
3.008307400358375
 20
8.268088825106421
 30
0.0
 10
3.122989790860887
 20
8.212613902227845
 30
0.0
 10
3.303492406197845
 20
8.149297233641564
 30
0.0
 10
3.504100592207497
 20
8.096997834848677
 30
0.0
 10
3.725536715632621
 20
8.06347265781738
 30
0.0
 10
3.965455524251996
 20
8.053995967393426
 30
0.0
 10
4.204989368118164
 20
8.071204392831707
 30
0.0
 10
4.44096816601347
 20
8.115803873488138
 30
0.0
 10
4.67044517609299
 20
8.186353539627207
 30
0.0
 10
4.824188606392977
 20
8.252816484534923
 30
0.0
 10
4.901634792033629
 20
8.292500560906184
 30
0.0
 10
4.908070693946416
 20
8.295798371132888
 30
0.0
  0
SPLINE
  5
2E4
330
1F
100
AcDbEntity
  8
0
  6
Continuous
 62
     7
370
    25
100
AcDbSpline
210
0.0
220
0.0
230
1.0
 70
     8
 71
     3
 72
    17
 73
    13
 74
     0
 42
0.00000001
 43
0.00000001
 40
0.0
 40
0.0
 40
0.0
 40
0.0
 40
0.0143146388518766
 40
0.1312298106303659
 40
0.248517451600747
 40
0.3654319719745033
 40
0.4823519449834776
 40
0.5996446614784744
 40
0.7165642998616315
 40
0.8109776225181814
 40
0.905586486639643
 40
1.0
 40
1.0
 40
1.0
 40
1.0
 10
4.924067967643113
 20
8.281572229355534
 30
0.0
 10
4.915303264197998
 20
8.27705392881889
 30
0.0
 10
4.834952625580038
 20
8.235632295347697
 30
0.0
 10
4.677385768345375
 20
8.167577406669412
 30
0.0
 10
4.445766044305481
 20
8.09634718391803
 30
0.0
 10
4.207571717454674
 20
8.051334627701912
 30
0.0
 10
3.96579209965102
 20
8.033963344945054
 30
0.0
 10
3.723622992125521
 20
8.04352979980796
 30
0.0
 10
3.499266814910758
 20
8.07749544971726
 30
0.0
 10
3.295151326118752
 20
8.130848217831774
 30
0.0
 10
3.110638858579832
 20
8.195927325473104
 30
0.0
 10
2.993523701141059
 20
8.253043604230022
 30
0.0
 10
2.935026640481617
 20
8.281572229355527
 30
0.0
  0
SPLINE
  5
2E5
330
1F
100
AcDbEntity
  8
0
  6
Continuous
 62
     7
370
    25
100
AcDbSpline
210
0.0
220
0.0
230
1.0
 70
     8
 71
     3
 72
    20
 73
    16
 74
     0
 42
0.00000001
 43
0.00000001
 40
0.0
 40
0.0
 40
0.0
 40
0.0
 40
0.0670609616745808
 40
0.1341219303246444
 40
0.2023112903629785
 40
0.2705006180772085
 40
0.3576746498373269
 40
0.4448487090890744
 40
0.5345556049647091
 40
0.624262346785839
 40
0.7114294034826996
 40
0.7985965292672347
 40
0.8882959288822108
 40
0.9779953524033704
 40
1.0
 40
1.0
 40
1.0
 40
1.0
 10
5.823773975583054
 20
9.211501652769506
 30
0.0
 10
5.843882818209982
 20
9.252265190635038
 30
0.0
 10
5.8841005055555
 20
9.333792270606203
 30
0.0
 10
5.934667434466143
 20
9.461355669152367
 30
0.0
 10
5.977700269645719
 20
9.592391241851962
 30
0.0
 10
6.015394472100799
 20
9.73921155850105
 30
0.0
 10
6.044398010589407
 20
9.901163057221178
 30
0.0
 10
6.061270323052905
 20
10.07948608974461
 30
0.0
 10
6.063007949180545
 20
10.26032913849604
 30
0.0
 10
6.049377253407814
 20
10.44066273594031
 30
0.0
 10
6.020785526106988
 20
10.61747412691274
 30
0.0
 10
5.977709777402508
 20
10.79133048890668
 30
0.0
 10
5.919408733314595
 20
10.96248890860838
 30
0.0
 10
5.864820931426865
 20
11.08778318521776
 30
0.0
 10
5.830529135657446
 20
11.15525677270866
 30
0.0
 10
5.823773975583054
 20
11.16854843253771
 30
0.0
  0
SPLINE
  5
2E6
330
1F
100
AcDbEntity
  8
0
  6
Continuous
 62
     7
370
    25
100
AcDbSpline
210
0.0
220
0.0
230
1.0
 70
     8
 71
     3
 72
    17
 73
    13
 74
     0
 42
0.00000001
 43
0.00000001
 40
0.0
 40
0.0
 40
0.0
 40
0.0
 40
0.0255642936769667
 40
0.1424702565211854
 40
0.2597486119615176
 40
0.3766538917451506
 40
0.4935693174202311
 40
0.6108574062887187
 40
0.7277724173269979
 40
0.8184571754333654
 40
0.9093150935585572
 40
1.0
 40
1.0
 40
1.0
 40
1.0
 10
5.838000117360441
 20
11.18454570623434
 30
0.0
 10
5.846017912341458
 20
11.16886593105061
 30
0.0
 10
5.890701224233976
 20
11.08148226925854
 30
0.0
 10
5.959910325248948
 20
10.91596557901657
 30
0.0
 10
6.028683272547386
 20
10.68363136060654
 30
0.0
 10
6.0711075609385
 20
10.4449715347453
 30
0.0
 10
6.085873618323394
 20
10.20303041358347
 30
0.0
 10
6.073699458509914
 20
9.960984676632329
 30
0.0
 10
6.03772745185816
 20
9.73955254799029
 30
0.0
 10
5.983923635479613
 20
9.540914431633203
 30
0.0
 10
5.920437761628611
 20
9.364075875143646
 30
0.0
 10
5.865461867969127
 20
9.251659166438818
 30
0.0
 10
5.838000117360441
 20
9.195504379072874
 30
0.0
  0
SPLINE
  5
2E7
330
1F
100
AcDbEntity
  8
0
  6
Continuous
 62
     7
370
    25
100
AcDbSpline
210
0.0
220
0.0
230
1.0
 70
     8
 71
     3
 72
    17
 73
    13
 74
     0
 42
0.00000001
 43
0.00000001
 40
0.0
 40
0.0
 40
0.0
 40
0.0
 40
0.0800727592770397
 40
0.160145523951018
 40
0.2779100334639699
 40
0.3960501496550428
 40
0.5138150078465644
 40
0.6315955582867085
 40
0.7497517866320865
 40
0.8675324256114872
 40
0.9337662162560912
 40
0.9999999999999999
 40
0.9999999999999999
 40
0.9999999999999999
 40
0.9999999999999999
 10
2.035320632541683
 20
11.16854843253771
 30
0.0
 10
2.011492019907045
 20
11.11978990812454
 30
0.0
 10
1.963834793031711
 20
11.02227285601187
 30
0.0
 10
1.897668676118309
 20
10.84574332508895
 30
0.0
 10
1.840843669896928
 20
10.63893641029365
 30
0.0
 10
1.803767213601932
 20
10.40172804762506
 30
0.0
 10
1.793078395527971
 20
10.16186195375156
 30
0.0
 10
1.810081449209299
 20
9.922346133180273
 30
0.0
 10
1.853418659779844
 20
9.686176305776145
 30
0.0
 10
1.912938035366885
 20
9.489879022062684
 30
0.0
 10
1.975733591235572
 20
9.332250275084462
 30
0.0
 10
2.015458286129436
 20
9.251751192143324
 30
0.0
 10
2.03532063254167
 20
9.211501652769492
 30
0.0
  0
SPLINE
  5
2E8
330
1F
100
AcDbEntity
  8
0
  6
Continuous
 62
     7
370
    25
100
AcDbSpline
210
0.0
220
0.0
230
1.0
 70
     8
 71
     3
 72
    17
 73
    13
 74
     0
 42
0.00000001
 43
0.00000001
 40
0.0
 40
0.0
 40
0.0
 40
0.0
 40
0.0675994912811976
 40
0.1351989907631902
 40
0.2521045076025301
 40
0.3693828235500634
 40
0.4862882533250116
 40
0.603185411620811
 40
0.7204551122068246
 40
0.8373519276813209
 40
0.918675967408513
 40
1.0
 40
1.0
 40
1.0
 40
1.0
 10
2.021094490764283
 20
9.195504379072858
 30
0.0
 10
2.000351584357286
 20
9.237217230227579
 30
0.0
 10
1.95886576902688
 20
9.32064293759739
 30
0.0
 10
1.894400653627396
 20
9.482088385582582
 30
0.0
 10
1.833947262806302
 20
9.681449900033362
 30
0.0
 10
1.790204758500969
 20
9.919836109828488
 30
0.0
 10
1.77304149394035
 20
10.16160315668343
 30
0.0
 10
1.783832277203768
 20
10.4037289260745
 30
0.0
 10
1.821260555517388
 20
10.64317795843794
 30
0.0
 10
1.878965558775006
 20
10.85315808786758
 30
0.0
 10
1.946799706008636
 20
11.03369113799836
 30
0.0
 10
1.996329563236726
 20
11.13426085162643
 30
0.0
 10
2.021094490764283
 20
11.18454570623436
 30
0.0
  0
LINE
  5
2E9
330
1F
100
AcDbEntity
  8
0
  6
Continuous
 62
     7
370
    25
100
AcDbLine
 10
5.0047031649
 20
8.1991659002
 30
0.0
 11
5.9204064465
 21
9.1148691819
 31
0.0
  0
LINE
  5
2EA
330
1F
100
AcDbEntity
  8
0
  6
Continuous
 62
     7
370
    25
100
AcDbLine
 10
5.9204064465
 20
11.2651809034
 30
0.0
 11
5.0047031649
 21
12.1808841851
 31
0.0
  0
LINE
  5
2EB
330
1F
100
AcDbEntity
  8
0
  6
Continuous
 62
     7
370
    25
100
AcDbLine
 10
1.9386881616
 20
9.1148691819
 30
0.0
 11
2.8543914433
 21
8.1991659002
 31
0.0
  0
LINE
  5
2EC
330
1F
100
AcDbEntity
  8
0
  6
Continuous
 62
     7
370
    25
100
AcDbLine
 10
2.8543914433
 20
12.1808841851
 30
0.0
 11
1.9386881616
 21
11.2651809034
 31
0.0
  0
LINE
  5
2ED
330
1F
100
AcDbEntity
  8
0
  6
Continuous
 62
     7
370
    25
100
AcDbLine
 10
2.0353206325
 20
9.2115016528
 30
0.0
 11
1.9386881616
 21
9.1148691819
 31
0.0
  0
LINE
  5
2EE
330
1F
100
AcDbEntity
  8
0
  6
Continuous
 62
     7
370
    25
100
AcDbLine
 10
5.8237739756
 20
11.1685484325
 30
0.0
 11
5.9204064465
 21
11.2651809034
 31
0.0
  0
LINE
  5
2EF
330
1F
100
AcDbEntity
  8
0
  6
Continuous
 62
     7
370
    25
100
AcDbLine
 10
4.9080706939
 20
8.2957983711
 30
0.0
 11
5.0047031649
 21
8.1991659002
 31
0.0
  0
LINE
  5
2F0
330
1F
100
AcDbEntity
  8
0
  6
Continuous
 62
     7
370
    25
100
AcDbLine
 10
2.9510239142
 20
12.0842517142
 30
0.0
 11
2.8543914433
 21
12.1808841851
 31
0.0
  0
LINE
  5
2F1
330
1F
100
AcDbEntity
  8
0
  6
Continuous
 62
     7
370
    25
100
AcDbLine
 10
4.9080706939
 20
12.0842517142
 30
0.0
 11
5.0047031649
 21
12.1808841851
 31
0.0
  0
LINE
  5
2F2
330
1F
100
AcDbEntity
  8
0
  6
Continuous
 62
     7
370
    25
100
AcDbLine
 10
2.0353206325
 20
11.1685484325
 30
0.0
 11
1.9386881616
 21
11.2651809034
 31
0.0
  0
LINE
  5
2F3
330
1F
100
AcDbEntity
  8
0
  6
Continuous
 62
     7
370
    25
100
AcDbLine
 10
2.9510239142
 20
8.2957983711
 30
0.0
 11
2.8543914433
 21
8.1991659002
 31
0.0
  0
LINE
  5
2F4
330
1F
100
AcDbEntity
  8
0
  6
Continuous
 62
     7
370
    25
100
AcDbLine
 10
5.8237739756
 20
9.2115016528
 30
0.0
 11
5.9204064465
 21
9.1148691819
 31
0.0
  0
ARC
  5
2F5
330
1F
100
AcDbEntity
  8
0
  6
Continuous
 62
     7
370
    25
100
AcDbCircle
 10
3.9295473041
 20
8.4528753184
 30
0.0
 40
0.2149999999999999
100
AcDbArc
 50
0.0
 51
180.0
  0
LINE
  5
2F6
330
1F
100
AcDbEntity
  8
0
  6
Continuous
 62
     7
370
    25
100
AcDbLine
 10
4.1445473041
 20
8.4528753184
 30
0.0
 11
4.1445473041
 21
8.168712834
 31
0.0
  0
LINE
  5
2F7
330
1F
100
AcDbEntity
  8
0
  6
Continuous
 62
     7
370
    25
100
AcDbLine
 10
3.7145473041
 20
8.4528753184
 30
0.0
 11
3.7145473041
 21
8.1687127955
 31
0.0
  0
SPLINE
  5
2F8
330
1F
100
AcDbEntity
  8
0
  6
Continuous
 62
     7
370
    25
100
AcDbSpline
210
0.0
220
0.0
230
1.0
 70
     8
 71
     3
 72
     9
 73
     5
 74
     0
 42
0.00000001
 43
0.00000001
 40
0.0
 40
0.0
 40
0.0
 40
0.0
 40
0.4997032105897841
 40
0.9999999999999999
 40
0.9999999999999999
 40
0.9999999999999999
 40
0.9999999999999999
 10
4.144547303747657
 20
8.168712833988543
 30
0.0
 10
4.07292335666457
 20
8.16301703024607
 30
0.0
 10
3.929590383081008
 20
8.151618656928134
 30
0.0
 10
3.786256690350005
 20
8.163012494901912
 30
0.0
 10
3.714547304062373
 20
8.168712795459255
 30
0.0
  0
LINE
  5
2F9
330
1F
100
AcDbEntity
  8
0
  6
Continuous
 62
     7
370
    25
100
AcDbLine
 10
4.1445473041
 20
11.9271747669
 30
0.0
 11
4.1445473041
 21
12.2379355949
 31
0.0
  0
LINE
  5
2FA
330
1F
100
AcDbEntity
  8
0
  6
Continuous
 62
     7
370
    25
100
AcDbLine
 10
3.7145473041
 20
11.9271747669
 30
0.0
 11
3.7145473042
 21
12.2379355949
 31
0.0
  0
ARC
  5
2FB
330
1F
100
AcDbEntity
  8
0
  6
Continuous
 62
     7
370
    25
100
AcDbCircle
 10
3.9295473041
 20
11.9271747669
 30
0.0
 40
0.2149999999999999
100
AcDbArc
 50
180.0
 51
0.0
  0
LINE
  5
2FC
330
1F
100
AcDbEntity
  8
0
  6
Continuous
 62
     7
370
    25
100
AcDbLine
 10
2.125504237
 20
9.2274390452
 30
0.0
 11
2.212338486
 21
9.3142732942
 31
0.0
  0
LINE
  5
2FD
330
1F
100
AcDbEntity
  8
0
  6
Continuous
 62
     7
370
    25
100
AcDbLine
 10
2.9669613066
 20
8.3859819756
 30
0.0
 11
3.0537955556
 21
8.4728162245
 31
0.0
  0
LINE
  5
2FE
330
1F
100
AcDbEntity
  8
0
  6
Continuous
 62
     7
370
    25
100
AcDbLine
 10
2.212338486
 20
9.3142732942
 30
0.0
 11
3.0537955556
 21
8.4728162245
 31
0.0
  0
LINE
  5
2FF
330
1F
100
AcDbEntity
  8
0
  6
Continuous
 62
     7
370
    25
100
AcDbLine
 10
5.6467561222
 20
11.0657767912
 30
0.0
 11
4.8052990526
 21
11.9072338608
 31
0.0
  0
LINE
  5
300
330
1F
100
AcDbEntity
  8
0
  6
Continuous
 62
     7
370
    25
100
AcDbLine
 10
4.8921333015
 20
11.9940681097
 30
0.0
 11
4.8052990526
 21
11.9072338608
 31
0.0
  0
LINE
  5
301
330
1F
100
AcDbEntity
  8
0
  6
Continuous
 62
     7
370
    25
100
AcDbLine
 10
5.7335903711
 20
11.1526110401
 30
0.0
 11
5.6467561222
 21
11.0657767912
 31
0.0
  0
LINE
  5
302
330
1F
100
AcDbEntity
  8
0
  6
Continuous
 62
     7
370
    25
100
AcDbLine
 10
4.8921333015
 20
8.3859819756
 30
0.0
 11
4.8052990526
 21
8.4728162245
 31
0.0
  0
LINE
  5
303
330
1F
100
AcDbEntity
  8
0
  6
Continuous
 62
     7
370
    25
100
AcDbLine
 10
5.7335903711
 20
9.2274390452
 30
0.0
 11
5.6467561222
 21
9.3142732942
 31
0.0
  0
LINE
  5
304
330
1F
100
AcDbEntity
  8
0
  6
Continuous
 62
     7
370
    25
100
AcDbLine
 10
4.8052990526
 20
8.4728162245
 30
0.0
 11
5.6467561222
 21
9.3142732942
 31
0.0
  0
LINE
  5
305
330
1F
100
AcDbEntity
  8
0
  6
Continuous
 62
     7
370
    25
100
AcDbLine
 10
2.9669613066
 20
11.9940681097
 30
0.0
 11
3.0537955556
 21
11.9072338608
 31
0.0
  0
LINE
  5
306
330
1F
100
AcDbEntity
  8
0
  6
Continuous
 62
     7
370
    25
100
AcDbLine
 10
2.125504237
 20
11.1526110401
 30
0.0
 11
2.212338486
 21
11.0657767912
 31
0.0
  0
LINE
  5
307
330
1F
100
AcDbEntity
  8
0
  6
Continuous
 62
     7
370
    25
100
AcDbLine
 10
3.0537955556
 20
11.9072338608
 30
0.0
 11
2.212338486
 21
11.0657767912
 31
0.0
  0
LINE
  5
308
330
1F
100
AcDbEntity
  8
0
  6
Continuous
 62
     7
370
    25
100
AcDbLine
 10
4.8504886069
 20
8.3779095708
 30
0.0
 11
4.7804405029
 21
8.4479576748
 31
0.0
  0
LINE
  5
309
330
1F
100
AcDbEntity
  8
0
  6
Continuous
 62
     7
370
    25
100
AcDbLine
 10
4.7804405029
 20
8.4479576748
 30
0.0
 11
4.8052990526
 21
8.4728162245
 31
0.0
  0
LINE
  5
30A
330
1F
100
AcDbEntity
  8
0
  6
Continuous
 62
     7
370
    25
100
AcDbLine
 10
3.0786541053
 20
8.4479576748
 30
0.0
 11
3.0086060012
 21
8.3779095708
 31
0.0
  0
LINE
  5
30B
330
1F
100
AcDbEntity
  8
0
  6
Continuous
 62
     7
370
    25
100
AcDbLine
 10
3.0537955556
 20
8.4728162245
 30
0.0
 11
3.0786541053
 21
8.4479576748
 31
0.0
  0
LINE
  5
30C
330
1F
100
AcDbEntity
  8
0
  6
Continuous
 62
     7
370
    25
100
AcDbLine
 10
2.1874799362
 20
11.0409182415
 30
0.0
 11
2.1174318322
 21
11.1109663455
 31
0.0
  0
LINE
  5
30D
330
1F
100
AcDbEntity
  8
0
  6
Continuous
 62
     7
370
    25
100
AcDbLine
 10
2.212338486
 20
11.0657767912
 30
0.0
 11
2.1874799362
 21
11.0409182415
 31
0.0
  0
LINE
  5
30E
330
1F
100
AcDbEntity
  8
0
  6
Continuous
 62
     7
370
    25
100
AcDbLine
 10
4.7804405029
 20
11.9320924105
 30
0.0
 11
4.8504886069
 21
12.0021405145
 31
0.0
  0
LINE
  5
30F
330
1F
100
AcDbEntity
  8
0
  6
Continuous
 62
     7
370
    25
100
AcDbLine
 10
4.8052990526
 20
11.9072338608
 30
0.0
 11
4.7804405029
 21
11.9320924105
 31
0.0
  0
LINE
  5
310
330
1F
100
AcDbEntity
  8
0
  6
Continuous
 62
     7
370
    25
100
AcDbLine
 10
5.6716146719
 20
11.0409182415
 30
0.0
 11
5.7416627759
 21
11.1109663455
 31
0.0
  0
LINE
  5
311
330
1F
100
AcDbEntity
  8
0
  6
Continuous
 62
     7
370
    25
100
AcDbLine
 10
5.6716146719
 20
11.0409182415
 30
0.0
 11
5.6467561222
 21
11.0657767912
 31
0.0
  0
LINE
  5
312
330
1F
100
AcDbEntity
  8
0
  6
Continuous
 62
     7
370
    25
100
AcDbLine
 10
3.0086060012
 20
12.0021405145
 30
0.0
 11
3.0786541053
 21
11.9320924105
 31
0.0
  0
LINE
  5
313
330
1F
100
AcDbEntity
  8
0
  6
Continuous
 62
     7
370
    25
100
AcDbLine
 10
3.0786541053
 20
11.9320924105
 30
0.0
 11
3.0537955556
 21
11.9072338608
 31
0.0
  0
LINE
  5
314
330
1F
100
AcDbEntity
  8
0
  6
Continuous
 62
     7
370
    25
100
AcDbLine
 10
2.1174318322
 20
9.2690837398
 30
0.0
 11
2.1874799362
 21
9.3391318439
 31
0.0
  0
LINE
  5
315
330
1F
100
AcDbEntity
  8
0
  6
Continuous
 62
     7
370
    25
100
AcDbLine
 10
2.1874799362
 20
9.3391318439
 30
0.0
 11
2.212338486
 21
9.3142732942
 31
0.0
  0
LINE
  5
316
330
1F
100
AcDbEntity
  8
0
  6
Continuous
 62
     7
370
    25
100
AcDbLine
 10
5.6716146719
 20
9.3391318439
 30
0.0
 11
5.7416627759
 21
9.2690837398
 31
0.0
  0
LINE
  5
317
330
1F
100
AcDbEntity
  8
0
  6
Continuous
 62
     7
370
    25
100
AcDbLine
 10
5.6467561222
 20
9.3142732942
 30
0.0
 11
5.6716146719
 21
9.3391318439
 31
0.0
  0
ARC
  5
318
330
1F
100
AcDbEntity
  8
0
  6
Continuous
 62
     7
370
    25
100
AcDbCircle
 10
3.9295473041
 20
10.1900250427
 30
0.0
 40
1.937149033616671
100
AcDbArc
 50
243.8275785348
 51
249.5216294544
  0
LINE
  5
319
330
1F
100
AcDbEntity
  8
0
  6
Continuous
 62
     7
370
    25
100
AcDbLine
 10
3.2879628189
 20
8.3752954447
 30
0.0
 11
3.2518284354
 21
8.3752954447
 31
0.0
  0
LINE
  5
31A
330
1F
100
AcDbEntity
  8
0
  6
Continuous
 62
     7
370
    25
100
AcDbLine
 10
3.2879628189
 20
8.4762908332
 30
0.0
 11
3.2879628189
 21
8.3752954447
 31
0.0
  0
ARC
  5
31B
330
1F
100
AcDbEntity
  8
0
  6
Continuous
 62
     7
370
    25
100
AcDbCircle
 10
3.4795473041
 20
8.4762908332
 30
0.0
 40
0.1915844851932196
100
AcDbArc
 50
90.0
 51
180.0
  0
LINE
  5
31C
330
1F
100
AcDbEntity
  8
0
  6
Continuous
 62
     7
370
    25
100
AcDbLine
 10
3.9295473041
 20
8.6678753184
 30
0.0
 11
3.4795473041
 21
8.6678753184
 31
0.0
  0
LINE
  5
31D
330
1F
100
AcDbEntity
  8
0
  6
Continuous
 62
     7
370
    25
100
AcDbLine
 10
4.3795473041
 20
8.6678753184
 30
0.0
 11
3.9295473041
 21
8.6678753184
 31
0.0
  0
ARC
  5
31E
330
1F
100
AcDbEntity
  8
0
  6
Continuous
 62
     7
370
    25
100
AcDbCircle
 10
4.3795473041
 20
8.4762908332
 30
0.0
 40
0.1915844851932036
100
AcDbArc
 50
0.0
 51
90.0
  0
LINE
  5
31F
330
1F
100
AcDbEntity
  8
0
  6
Continuous
 62
     7
370
    25
100
AcDbLine
 10
4.5711317893
 20
8.3752954447
 30
0.0
 11
4.5711317893
 21
8.4762908332
 31
0.0
  0
LINE
  5
320
330
1F
100
AcDbEntity
  8
0
  6
Continuous
 62
     7
370
    25
100
AcDbLine
 10
4.6072661727
 20
8.3752954447
 30
0.0
 11
4.5711317893
 21
8.3752954447
 31
0.0
  0
ARC
  5
321
330
1F
100
AcDbEntity
  8
0
  6
Continuous
 62
     7
370
    25
100
AcDbCircle
 10
3.9295473041
 20
10.1900250427
 30
0.0
 40
1.937149033616671
100
AcDbArc
 50
290.4783705456
 51
296.1724214652
  0
LINE
  5
322
330
1F
100
AcDbEntity
  8
0
  6
Continuous
 62
     7
370
    25
100
AcDbLine
 10
5.744276902
 20
10.8316095278
 30
0.0
 11
5.6432815135
 21
10.8316095278
 31
0.0
  0
LINE
  5
323
330
1F
100
AcDbEntity
  8
0
  6
Continuous
 62
     7
370
    25
100
AcDbLine
 10
5.744276902
 20
10.8677439113
 30
0.0
 11
5.744276902
 21
10.8316095278
 31
0.0
  0
ARC
  5
324
330
1F
100
AcDbEntity
  8
0
  6
Continuous
 62
     7
370
    25
100
AcDbCircle
 10
3.9295473041
 20
10.1900250427
 30
0.0
 40
1.937149033616685
100
AcDbArc
 50
20.4783705456
 51
26.1724214652
  0
ARC
  5
325
330
1F
100
AcDbEntity
  8
0
  6
Continuous
 62
     7
370
    25
100
AcDbCircle
 10
3.9295473041
 20
10.1900250427
 30
0.0
 40
1.937149033616672
100
AcDbArc
 50
333.8275785348
 51
339.5216294544
  0
LINE
  5
326
330
1F
100
AcDbEntity
  8
0
  6
Continuous
 62
     7
370
    25
100
AcDbLine
 10
5.744276902
 20
9.5484405575
 30
0.0
 11
5.744276902
 21
9.512306174
 31
0.0
  0
LINE
  5
327
330
1F
100
AcDbEntity
  8
0
  6
Continuous
 62
     7
370
    25
100
AcDbLine
 10
5.6432815135
 20
9.5484405575
 30
0.0
 11
5.744276902
 21
9.5484405575
 31
0.0
  0
ARC
  5
328
330
1F
100
AcDbEntity
  8
0
  6
Continuous
 62
     7
370
    25
100
AcDbCircle
 10
5.6432815135
 20
9.7400250427
 30
0.0
 40
0.1915844851932196
100
AcDbArc
 50
180.0
 51
270.0
  0
LINE
  5
329
330
1F
100
AcDbEntity
  8
0
  6
Continuous
 62
     7
370
    25
100
AcDbLine
 10
5.4516970283
 20
9.9710250427
 30
0.0
 11
5.4516970283
 21
9.7400250427
 31
0.0
  0
LINE
  5
32A
330
1F
100
AcDbEntity
  8
0
  6
Continuous
 62
     7
370
    25
100
AcDbLine
 10
5.3026970283
 20
9.9710250427
 30
0.0
 11
5.4516970283
 21
9.9710250427
 31
0.0
  0
ARC
  5
32B
330
1F
100
AcDbEntity
  8
0
  6
Continuous
 62
     7
370
    25
100
AcDbCircle
 10
5.3026970283
 20
10.1900250427
 30
0.0
 40
0.2189999999999994
100
AcDbArc
 50
90.0
 51
270.0
  0
LINE
  5
32C
330
1F
100
AcDbEntity
  8
0
  6
Continuous
 62
     7
370
    25
100
AcDbLine
 10
5.4516970283
 20
10.4090250427
 30
0.0
 11
5.3026970283
 21
10.4090250427
 31
0.0
  0
LINE
  5
32D
330
1F
100
AcDbEntity
  8
0
  6
Continuous
 62
     7
370
    25
100
AcDbLine
 10
5.4516970283
 20
10.6400250427
 30
0.0
 11
5.4516970283
 21
10.4090250427
 31
0.0
  0
CIRCLE
  5
32E
330
1F
100
AcDbEntity
  8
0
  6
Continuous
 62
     7
370
    25
100
AcDbCircle
 10
5.3045473041
 20
10.1900250427
 30
0.0
 40
0.1284999999999997
  0
ARC
  5
32F
330
1F
100
AcDbEntity
  8
0
  6
Continuous
 62
     7
370
    25
100
AcDbCircle
 10
5.6432815135
 20
10.6400250427
 30
0.0
 40
0.1915844851932027
100
AcDbArc
 50
90.0
 51
180.0
  0
ARC
  5
330
330
1F
100
AcDbEntity
  8
0
  6
Continuous
 62
     7
370
    25
100
AcDbCircle
 10
2.2158130946
 20
9.7400250427
 30
0.0
 40
0.1915844851932036
100
AcDbArc
 50
270.0
 51
0.0
  0
LINE
  5
331
330
1F
100
AcDbEntity
  8
0
  6
Continuous
 62
     7
370
    25
100
AcDbLine
 10
2.1148177061
 20
9.5484405575
 30
0.0
 11
2.2158130946
 21
9.5484405575
 31
0.0
  0
LINE
  5
332
330
1F
100
AcDbEntity
  8
0
  6
Continuous
 62
     7
370
    25
100
AcDbLine
 10
2.1148177061
 20
9.512306174
 30
0.0
 11
2.1148177061
 21
9.5484405575
 31
0.0
  0
ARC
  5
333
330
1F
100
AcDbEntity
  8
0
  6
Continuous
 62
     7
370
    25
100
AcDbCircle
 10
2.2158130946
 20
10.6400250427
 30
0.0
 40
0.1915844851932214
100
AcDbArc
 50
0.0
 51
90.0
  0
LINE
  5
334
330
1F
100
AcDbEntity
  8
0
  6
Continuous
 62
     7
370
    25
100
AcDbLine
 10
2.4073975798
 20
10.4090250427
 30
0.0
 11
2.4073975798
 21
10.6400250427
 31
0.0
  0
LINE
  5
335
330
1F
100
AcDbEntity
  8
0
  6
Continuous
 62
     7
370
    25
100
AcDbLine
 10
2.5563975798
 20
10.4090250427
 30
0.0
 11
2.4073975798
 21
10.4090250427
 31
0.0
  0
ARC
  5
336
330
1F
100
AcDbEntity
  8
0
  6
Continuous
 62
     7
370
    25
100
AcDbCircle
 10
2.5563975798
 20
10.1900250427
 30
0.0
 40
0.2190000000000225
100
AcDbArc
 50
270.0
 51
90.0
  0
LINE
  5
337
330
1F
100
AcDbEntity
  8
0
  6
Continuous
 62
     7
370
    25
100
AcDbLine
 10
2.4073975798
 20
9.9710250427
 30
0.0
 11
2.5563975798
 21
9.9710250427
 31
0.0
  0
CIRCLE
  5
338
330
1F
100
AcDbEntity
  8
0
  6
Continuous
 62
     7
370
    25
100
AcDbCircle
 10
2.5545473041
 20
10.1900250427
 30
0.0
 40
0.1285000000000003
  0
LINE
  5
339
330
1F
100
AcDbEntity
  8
0
  6
Continuous
 62
     7
370
    25
100
AcDbLine
 10
2.1148177061
 20
10.8316095278
 30
0.0
 11
2.1148177061
 21
10.8677439113
 31
0.0
  0
LINE
  5
33A
330
1F
100
AcDbEntity
  8
0
  6
Continuous
 62
     7
370
    25
100
AcDbLine
 10
2.2158130946
 20
10.8316095278
 30
0.0
 11
2.1148177061
 21
10.8316095278
 31
0.0
  0
ARC
  5
33B
330
1F
100
AcDbEntity
  8
0
  6
Continuous
 62
     7
370
    25
100
AcDbCircle
 10
3.9295473041
 20
10.1900250427
 30
0.0
 40
1.937149033616671
100
AcDbArc
 50
200.4783705456
 51
206.1724214652
  0
ARC
  5
33C
330
1F
100
AcDbEntity
  8
0
  6
Continuous
 62
     7
370
    25
100
AcDbCircle
 10
3.9295473041
 20
10.1900250427
 30
0.0
 40
1.937149033616671
100
AcDbArc
 50
153.8275785348
 51
159.5216294544
  0
LINE
  5
33D
330
1F
100
AcDbEntity
  8
0
  6
Continuous
 62
     7
370
    25
100
AcDbLine
 10
2.4073975798
 20
9.7400250427
 30
0.0
 11
2.4073975798
 21
9.9710250427
 31
0.0
  0
ARC
  5
33E
330
1F
100
AcDbEntity
  8
0
  6
Continuous
 62
     7
370
    25
100
AcDbCircle
 10
3.9295473041
 20
10.1900250427
 30
0.0
 40
1.937149033616671
100
AcDbArc
 50
63.8275785348
 51
69.5216294544
  0
LINE
  5
33F
330
1F
100
AcDbEntity
  8
0
  6
Continuous
 62
     7
370
    25
100
AcDbLine
 10
4.5711317893
 20
11.9037592521
 30
0.0
 11
4.5711317893
 21
12.0047546406
 31
0.0
  0
ARC
  5
340
330
1F
100
AcDbEntity
  8
0
  6
Continuous
 62
     7
370
    25
100
AcDbCircle
 10
4.3795473041
 20
11.9037592521
 30
0.0
 40
0.1915844851932196
100
AcDbArc
 50
270.0
 51
0.0
  0
LINE
  5
341
330
1F
100
AcDbEntity
  8
0
  6
Continuous
 62
     7
370
    25
100
AcDbLine
 10
3.9295473041
 20
11.7121747669
 30
0.0
 11
4.3795473041
 21
11.7121747669
 31
0.0
  0
LINE
  5
342
330
1F
100
AcDbEntity
  8
0
  6
Continuous
 62
     7
370
    25
100
AcDbLine
 10
4.5711317893
 20
12.0047546406
 30
0.0
 11
4.6072661727
 21
12.0047546406
 31
0.0
  0
LINE
  5
343
330
1F
100
AcDbEntity
  8
0
  6
Continuous
 62
     7
370
    25
100
AcDbLine
 10
3.4795473041
 20
11.7121747669
 30
0.0
 11
3.9295473041
 21
11.7121747669
 31
0.0
  0
ARC
  5
344
330
1F
100
AcDbEntity
  8
0
  6
Continuous
 62
     7
370
    25
100
AcDbCircle
 10
3.4795473041
 20
11.9037592521
 30
0.0
 40
0.1915844851932036
100
AcDbArc
 50
180.0
 51
270.0
  0
ARC
  5
345
330
1F
100
AcDbEntity
  8
0
  6
Continuous
 62
     7
370
    25
100
AcDbCircle
 10
3.9295473041
 20
10.1900250427
 30
0.0
 40
1.937149033616673
100
AcDbArc
 50
110.4783705456
 51
116.1724214652
  0
LINE
  5
346
330
1F
100
AcDbEntity
  8
0
  6
Continuous
 62
     7
370
    25
100
AcDbLine
 10
3.2518284354
 20
12.0047546406
 30
0.0
 11
3.2879628189
 21
12.0047546406
 31
0.0
  0
LINE
  5
347
330
1F
100
AcDbEntity
  8
0
  6
Continuous
 62
     7
370
    25
100
AcDbLine
 10
3.2879628189
 20
12.0047546406
 30
0.0
 11
3.2879628189
 21
11.9037592521
 31
0.0
  0
ARC
  5
348
330
1F
100
AcDbEntity
  8
0
  6
Continuous
 62
     7
370
    25
100
AcDbCircle
 10
3.9295473041
 20
9.0900250427
 30
0.0
 40
0.1994872916812744
100
AcDbArc
 50
314.5597322422
 51
225.4402677578
  0
ARC
  5
349
330
1F
100
AcDbEntity
  8
0
  6
Continuous
 62
     7
370
    25
100
AcDbCircle
 10
5.3045473041
 20
10.1900250427
 30
0.0
 40
0.2244818087681452
100
AcDbArc
 50
127.8181208677
 51
232.1818791323
  0
ARC
  5
34A
330
1F
100
AcDbEntity
  8
0
  6
Continuous
 62
     7
370
    25
100
AcDbCircle
 10
2.5545473041
 20
10.1900250427
 30
0.0
 40
0.2244818087681444
100
AcDbArc
 50
307.8181208677
 51
52.1818791323
  0
ARC
  5
34B
330
1F
100
AcDbEntity
  8
0
  6
Continuous
 62
     7
370
    25
100
AcDbCircle
 10
3.9295473041
 20
9.0900250427
 30
0.0
 40
0.224481808768145
100
AcDbArc
 50
322.2854550188
 51
217.7145449812
  0
DIMENSION
  5
34C
330
1F
100
AcDbEntity
  8
0
  6
Continuous
 62
     7
370
    18
100
AcDbDimension
  2
_D_2
 10
6.4320473041
 20
13.9642921624
 30
0.0
 11
3.9295473041
 21
13.9642921624
 31
0.0
 70
   160
  1
<> O.C.
 71
     2
 42
-1.0
  3
SLDDIMSTYLE3
100
AcDbAlignedDimension
 13
1.4270473041
 23
10.1900250427
 33
0.0
 14
6.4320473041
 24
10.1900250427
 34
0.0
100
AcDbRotatedDimension
  0
DIMENSION
  5
360
330
1F
100
AcDbEntity
  8
0
  6
Continuous
 62
     7
370
    18
100
AcDbDimension
  2
_D_3
 10
6.0795473041
 20
12.9133206485
 30
0.0
 11
3.9295473041
 21
12.9133206485
 31
0.0
 70
   160
  1
%%c<>
 71
     2
 42
-1.0
  3
SLDDIMSTYLE1
100
AcDbAlignedDimension
 13
1.7795473041
 23
10.1900250427
 33
0.0
 14
6.0795473041
 24
10.1900250427
 34
0.0
100
AcDbRotatedDimension
  0
LINE
  5
373
330
1F
100
AcDbEntity
  8
0
  6
Continuous
 62
     7
370
    25
100
AcDbLine
 10
3.4087592457
 20
2.6852413336
 30
0.0
 11
3.4088773324
 21
2.6853054647
 31
0.0
  0
ARC
  5
374
330
1F
100
AcDbEntity
  8
0
  6
Continuous
 62
     7
370
    25
100
AcDbCircle
 10
3.9277543249
 20
3.1019721314
 30
0.0
 40
0.6655978141043012
100
AcDbArc
 50
321.2370291436
 51
218.7629708564
  0
LINE
  5
375
330
1F
100
AcDbEntity
  8
0
  6
Continuous
 62
     7
370
    25
100
AcDbLine
 10
4.4466313174
 20
2.6853054647
 30
0.0
 11
4.4467494042
 21
2.6852413336
 31
0.0
  0
LINE
  5
376
330
1F
100
AcDbEntity
  8
0
  6
Continuous
 62
     7
370
    25
100
AcDbLine
 10
4.4466313174
 20
2.6853054647
 30
0.0
 11
3.4088773324
 21
2.6853054647
 31
0.0
  0
SPLINE
  5
377
330
1F
100
AcDbEntity
  8
0
  6
Continuous
 62
     7
370
    25
100
AcDbSpline
210
0.0
220
0.0
230
1.0
 70
     8
 71
     3
 72
    12
 73
     8
 74
     0
 42
0.00000001
 43
0.00000001
 40
0.0
 40
0.0
 40
0.0
 40
0.0
 40
0.3941520970509582
 40
0.5945301224970783
 40
0.7558156406149894
 40
0.8805377531389587
 40
1.0
 40
1.0
 40
1.0
 40
1.0
 10
4.290705193965374
 20
2.645305464734026
 30
0.0
 10
4.298821811481167
 20
2.651957581500715
 30
0.0
 10
4.311064734053521
 20
2.661991484214299
 30
0.0
 10
4.324276884964779
 20
2.674211281186942
 30
0.0
 10
4.330854031971524
 20
2.68077454973695
 30
0.0
 10
4.334227721987093
 20
2.684626883356935
 30
0.0
 10
4.334100525950621
 20
2.685082542659152
 30
0.0
 10
4.334038297868744
 20
2.685305464734026
 30
0.0
  0
SPLINE
  5
378
330
1F
100
AcDbEntity
  8
0
  6
Continuous
 62
     7
370
    25
100
AcDbSpline
210
0.0
220
0.0
230
1.0
 70
     8
 71
     3
 72
    12
 73
     8
 74
     0
 42
0.00000001
 43
0.00000001
 40
0.0
 40
0.0
 40
0.0
 40
0.0
 40
0.1227913012644967
 40
0.2452184014460944
 40
0.4086923427742459
 40
0.6460808063445712
 40
1.0
 40
1.0
 40
1.0
 40
1.0
 10
3.521470351991806
 20
2.685305464734026
 30
0.0
 10
3.52141347581274
 20
2.685069766801797
 30
0.0
 10
3.521299892150319
 20
2.684599070021404
 30
0.0
 10
3.524742548758618
 20
2.680682442991194
 30
0.0
 10
3.53186117490259
 20
2.673588215666221
 30
0.0
 10
3.545384128538824
 20
2.661174704626926
 30
0.0
 10
3.557532320217129
 20
2.65124734903575
 30
0.0
 10
3.564803455895177
 20
2.645305464734026
 30
0.0
  0
SPLINE
  5
379
330
1F
100
AcDbEntity
  8
0
  6
Continuous
 62
     7
370
    25
100
AcDbSpline
210
0.0
220
0.0
230
1.0
 70
     8
 71
     3
 72
    13
 73
     9
 74
     0
 42
0.00000001
 43
0.00000001
 40
0.0
 40
0.0
 40
0.0
 40
0.0
 40
0.1978302957376097
 40
0.3953004648874352
 40
0.6022409262886769
 40
0.8290525882169238
 40
0.9963125971572766
 40
1.0
 40
1.0
 40
1.0
 40
1.0
 10
4.44674940418285
 20
2.685241333580286
 30
0.0
 10
4.447051170639852
 20
2.684612315014613
 30
0.0
 10
4.447654154223813
 20
2.683355422936956
 30
0.0
 10
4.450812840581146
 20
2.676743897137746
 30
0.0
 10
4.455304932663242
 20
2.667269911108277
 30
0.0
 10
4.460439379632606
 20
2.656334040661811
 30
0.0
 10
4.464002323361392
 20
2.648668180366079
 30
0.0
 10
4.465525643806808
 20
2.645376468257623
 30
0.0
 10
4.465558502427376
 20
2.645305464734027
 30
0.0
  0
LINE
  5
37A
330
1F
100
AcDbEntity
  8
0
  6
Continuous
 62
     7
370
    25
100
AcDbLine
 10
4.4655585024
 20
2.6453054647
 30
0.0
 11
4.290705194
 21
2.6453054647
 31
0.0
  0
LINE
  5
37B
330
1F
100
AcDbEntity
  8
0
  6
Continuous
 62
     7
370
    25
100
AcDbLine
 10
3.5648034559
 20
2.6453054647
 30
0.0
 11
3.3899501474
 21
2.6453054647
 31
0.0
  0
SPLINE
  5
37C
330
1F
100
AcDbEntity
  8
0
  6
Continuous
 62
     7
370
    25
100
AcDbSpline
210
0.0
220
0.0
230
1.0
 70
     8
 71
     3
 72
    13
 73
     9
 74
     0
 42
0.00000001
 43
0.00000001
 40
0.0
 40
0.0
 40
0.0
 40
0.0
 40
0.0036874028427234
 40
0.170947411783076
 40
0.397759073711323
 40
0.6046995351125647
 40
0.8021697042623902
 40
1.0
 40
1.0
 40
1.0
 40
1.0
 10
3.389950147433174
 20
2.645305464734025
 30
0.0
 10
3.389983006053742
 20
2.64537646825762
 30
0.0
 10
3.391506326499159
 20
2.648668180366079
 30
0.0
 10
3.395069270227943
 20
2.656334040661808
 30
0.0
 10
3.400203717197309
 20
2.667269911108276
 30
0.0
 10
3.404695809279403
 20
2.676743897137744
 30
0.0
 10
3.407854495636737
 20
2.683355422936953
 30
0.0
 10
3.408457479220699
 20
2.684612315014611
 30
0.0
 10
3.408759245677699
 20
2.685241333580283
 30
0.0
  0
ARC
  5
37D
330
1F
100
AcDbEntity
  8
0
  6
Continuous
 62
     7
370
    25
100
AcDbCircle
 10
3.9277543249
 20
3.1019721314
 30
0.0
 40
0.7055336829505588
100
AcDbArc
 50
319.6643525571
 51
220.3356474429
  0
CIRCLE
  5
37E
330
1F
100
AcDbEntity
  8
0
  6
Continuous
 62
     7
370
    25
100
AcDbCircle
 10
3.9277543249
 20
3.1019721314
 30
0.0
 40
1.655751430939538
  0
ARC
  5
37F
330
1F
100
AcDbEntity
  8
0
  6
Continuous
 62
     7
370
    25
100
AcDbCircle
 10
3.9277543249
 20
3.1019721314
 30
0.0
 40
0.5833333333333341
100
AcDbArc
 50
231.5229222499
 51
308.4770777501
  0
CIRCLE
  5
380
330
1F
100
AcDbEntity
  8
0
  6
Continuous
 62
     7
370
    25
100
AcDbCircle
 10
5.0944209916
 20
3.1019721314
 30
0.0
 40
0.1366666666666667
  0
CIRCLE
  5
381
330
1F
100
AcDbEntity
  8
0
  6
Continuous
 62
     7
370
    25
100
AcDbCircle
 10
2.7610876583
 20
3.1019721314
 30
0.0
 40
0.1366666666666663
  0
CIRCLE
  5
382
330
1F
100
AcDbEntity
  8
0
  6
Continuous
 62
     7
370
    25
100
AcDbCircle
 10
5.0944209916
 20
3.1019721314
 30
0.0
 40
0.0676666666666659
  0
CIRCLE
  5
383
330
1F
100
AcDbEntity
  8
0
  6
Continuous
 62
     7
370
    25
100
AcDbCircle
 10
2.7610876583
 20
3.1019721314
 30
0.0
 40
0.0676666666666668
  0
CIRCLE
  5
384
330
1F
100
AcDbEntity
  8
0
  6
Continuous
 62
     7
370
    25
100
AcDbCircle
 10
3.9277543249
 20
3.1019721314
 30
0.0
 40
1.666666666666667
  0
LINE
  5
385
330
1F
100
AcDbEntity
  8
0
  6
Continuous
 62
     7
370
    25
100
AcDbLine
 10
3.5527543249
 20
2.6853054647
 30
0.0
 11
3.5527543249
 21
2.6553686593
 31
0.0
  0
LINE
  5
386
330
1F
100
AcDbEntity
  8
0
  6
Continuous
 62
     7
370
    25
100
AcDbLine
 10
4.3027543249
 20
2.6853054647
 30
0.0
 11
4.3027543249
 21
2.6554268318
 31
0.0
  0
LINE
  5
387
330
1F
100
AcDbEntity
  8
0
  6
Continuous
 62
     7
370
    25
100
AcDbLine
 10
4.2610876583
 20
2.6853054647
 30
0.0
 11
4.2610876583
 21
2.6232585775
 31
0.0
  0
LINE
  5
388
330
1F
100
AcDbEntity
  8
0
  6
Continuous
 62
     7
370
    25
100
AcDbLine
 10
3.6360876583
 20
2.6853054647
 30
0.0
 11
3.6360876583
 21
2.5967906459
 31
0.0
  0
LINE
  5
389
330
1F
100
AcDbEntity
  8
0
  6
Continuous
 62
     7
370
    25
100
AcDbLine
 10
3.5944209916
 20
2.6853054647
 30
0.0
 11
3.5944209916
 21
2.6232585775
 31
0.0
  0
LINE
  5
38A
330
1F
100
AcDbEntity
  8
0
  6
Continuous
 62
     7
370
    25
100
AcDbLine
 10
4.2194209916
 20
2.6853054647
 30
0.0
 11
4.2194209916
 21
2.5967906459
 31
0.0
  0
LINE
  5
38B
330
1F
100
AcDbEntity
  8
0
  6
Continuous
 62
     7
370
    25
100
AcDbLine
 10
4.1777543249
 20
2.6853054647
 30
0.0
 11
4.1777543249
 21
2.5749258547
 31
0.0
  0
LINE
  5
38C
330
1F
100
AcDbEntity
  8
0
  6
Continuous
 62
     7
370
    25
100
AcDbLine
 10
3.7194209916
 20
2.6853054647
 30
0.0
 11
3.7194209916
 21
2.5571097635
 31
0.0
  0
LINE
  5
38D
330
1F
100
AcDbEntity
  8
0
  6
Continuous
 62
     7
370
    25
100
AcDbLine
 10
3.6777543249
 20
2.6853054647
 30
0.0
 11
3.6777543249
 21
2.5749258547
 31
0.0
  0
LINE
  5
38E
330
1F
100
AcDbEntity
  8
0
  6
Continuous
 62
     7
370
    25
100
AcDbLine
 10
4.1360876583
 20
2.6853054647
 30
0.0
 11
4.1360876583
 21
2.5571097635
 31
0.0
  0
LINE
  5
38F
330
1F
100
AcDbEntity
  8
0
  6
Continuous
 62
     7
370
    25
100
AcDbLine
 10
4.0944209916
 20
2.6853054647
 30
0.0
 11
4.0944209916
 21
2.542955137
 31
0.0
  0
LINE
  5
390
330
1F
100
AcDbEntity
  8
0
  6
Continuous
 62
     7
370
    25
100
AcDbLine
 10
3.8027543249
 20
2.6853054647
 30
0.0
 11
3.8027543249
 21
2.5321890343
 31
0.0
  0
LINE
  5
391
330
1F
100
AcDbEntity
  8
0
  6
Continuous
 62
     7
370
    25
100
AcDbLine
 10
3.7610876583
 20
2.6853054647
 30
0.0
 11
3.7610876583
 21
2.542955137
 31
0.0
  0
LINE
  5
392
330
1F
100
AcDbEntity
  8
0
  6
Continuous
 62
     7
370
    25
100
AcDbLine
 10
4.0527543249
 20
2.6853054647
 30
0.0
 11
4.0527543249
 21
2.5321890343
 31
0.0
  0
LINE
  5
393
330
1F
100
AcDbEntity
  8
0
  6
Continuous
 62
     7
370
    25
100
AcDbLine
 10
4.0110876583
 20
2.6853054647
 30
0.0
 11
4.0110876583
 21
2.5246218622
 31
0.0
  0
LINE
  5
394
330
1F
100
AcDbEntity
  8
0
  6
Continuous
 62
     7
370
    25
100
AcDbLine
 10
3.8444209916
 20
2.6853054647
 30
0.0
 11
3.8444209916
 21
2.5246218622
 31
0.0
  0
LINE
  5
395
330
1F
100
AcDbEntity
  8
0
  6
Continuous
 62
     7
370
    25
100
AcDbLine
 10
3.8860876583
 20
2.6853054647
 30
0.0
 11
3.8860876583
 21
2.5201287962
 31
0.0
  0
LINE
  5
396
330
1F
100
AcDbEntity
  8
0
  6
Continuous
 62
     7
370
    25
100
AcDbLine
 10
3.9694209916
 20
2.6853054647
 30
0.0
 11
3.9694209916
 21
2.5201287962
 31
0.0
  0
LINE
  5
397
330
1F
100
AcDbEntity
  8
0
  6
Continuous
 62
     7
370
    25
100
AcDbLine
 10
3.9277543249
 20
2.6853054647
 30
0.0
 11
3.9277543249
 21
2.5186387981
 31
0.0
  0
DIMENSION
  5
398
330
1F
100
AcDbEntity
  8
0
  6
Continuous
 62
     7
370
    18
100
AcDbDimension
  2
_D_4
 10
5.1062656269
 20
4.2804834334
 30
0.0
 11
1.0784904007
 21
1.494635263
 31
0.0
 70
   163
  1
<>
 71
     1
 42
-1.0
  3
SLDDIMSTYLE4
100
AcDbDiametricDimension
 15
2.749243023
 25
1.9234608294
 35
0.0
 40
0.0
  0
DIMENSION
  5
3A9
330
1F
100
AcDbEntity
  8
0
  6
Continuous
 62
     7
370
    18
100
AcDbDimension
  2
_D_5
 10
5.0944209916
 20
5.5560403729
 30
0.0
 11
3.9277543249
 21
5.5560403729
 31
0.0
 70
   160
  1
<> O.C.
 71
     2
 42
-1.0
  3
SLDDIMSTYLE5
100
AcDbAlignedDimension
 13
2.7610876583
 23
3.1019721314
 33
0.0
 14
5.0944209916
 24
3.1019721314
 34
0.0
 50
0.0
100
AcDbRotatedDimension
  0
MTEXT
  5
3BD
330
1F
100
AcDbEntity
  8
0
  6
Continuous
 62
     7
370
     0
100
AcDbMText
 10
4.7307055904
 20
0.9791652016
 30
0.0
 40
0.25
 41
0.0
 71
     1
 72
     1
  1
FACEPLATE A
  7
SLDTEXTSTYLE0
 73
     1
 44
1.0
  0
LINE
  5
3BE
330
1F
100
AcDbEntity
  8
0
  6
Continuous
 62
     7
370
    25
100
AcDbLine
 10
6.50185578
 20
2.3619721314
 30
0.0
 11
7.4432479824
 21
2.3619721314
 31
0.0
  0
LINE
  5
3BF
330
1F
100
AcDbEntity
  8
0
  6
Continuous
 62
     7
370
    25
100
AcDbLine
 10
6.2899146491
 20
2.3619721314
 30
0.0
 11
6.4118268978
 21
2.3619721314
 31
0.0
  0
LINE
  5
3C0
330
1F
100
AcDbEntity
  8
0
  6
Continuous
 62
     7
370
    25
100
AcDbLine
 10
7.4432479824
 20
3.8419721314
 30
0.0
 11
6.2899146491
 21
3.8419721314
 31
0.0
  0
LINE
  5
3C1
330
1F
100
AcDbEntity
  8
0
  6
Continuous
 62
     7
370
    25
100
AcDbLine
 10
7.4932479824
 20
1.4353054647
 30
0.0
 11
7.7432479824
 21
1.4462207005
 31
0.0
  0
LINE
  5
3C2
330
1F
100
AcDbEntity
  8
0
  6
Continuous
 62
     7
370
    25
100
AcDbLine
 10
7.7432479824
 20
4.7577235623
 30
0.0
 11
7.4932479824
 21
4.7686387981
 31
0.0
  0
LINE
  5
3C3
330
1F
100
AcDbEntity
  8
0
  6
Continuous
 62
     7
370
    25
100
AcDbLine
 10
7.4932479824
 20
4.0142727038
 30
0.0
 11
7.4432479824
 21
4.0120896566
 31
0.0
  0
LINE
  5
3C4
330
1F
100
AcDbEntity
  8
0
  6
Continuous
 62
     7
370
    25
100
AcDbLine
 10
7.4432479824
 20
2.1918546062
 30
0.0
 11
7.4932479824
 21
2.189671559
 31
0.0
  0
ARC
  5
3C5
330
1F
100
AcDbEntity
  8
0
  6
Continuous
 62
     7
370
    25
100
AcDbCircle
 10
7.7832479824
 20
3.8075058144
 30
0.0
 40
0.04
100
AcDbArc
 50
180.0
 51
266.7551083283
  0
ARC
  5
3C6
330
1F
100
AcDbEntity
  8
0
  6
Continuous
 62
     7
370
    25
100
AcDbCircle
 10
7.7432479824
 20
3.1019721314
 30
0.0
 40
0.6666666666666674
100
AcDbArc
 50
321.3178125465
 51
0.0
  0
ARC
  5
3C7
330
1F
100
AcDbEntity
  8
0
  6
Continuous
 62
     7
370
    25
100
AcDbCircle
 10
7.7432479824
 20
3.1019721314
 30
0.0
 40
0.666666666666667
100
AcDbArc
 50
0.0
 51
86.7551083283
  0
SPLINE
  5
3C8
330
1F
100
AcDbEntity
  8
0
  6
Continuous
 62
     7
370
    25
100
AcDbSpline
210
0.0
220
0.0
230
1.0
 70
     8
 71
     3
 72
    17
 73
    13
 74
     0
 42
0.00000001
 43
0.00000001
 40
0.0
 40
0.0
 40
0.0
 40
0.0
 40
0.0367829129270482
 40
0.1439469936102739
 40
0.2511849014537433
 40
0.3585983106853297
 40
0.4660155695098251
 40
0.5732581291689257
 40
0.6804203613538303
 40
0.7877217257819897
 40
0.8951646959147039
 40
1.0
 40
1.0
 40
1.0
 40
1.0
 10
6.411826897829974
 20
2.362007270582574
 30
0.0
 10
6.411668149940961
 20
2.361997647958888
 30
0.0
 10
6.411046902749072
 20
2.361959990589204
 30
0.0
 10
6.415240677813813
 20
2.362216479633791
 30
0.0
 10
6.423969318406606
 20
2.362668400493593
 30
0.0
 10
6.436723270705877
 20
2.363140143686094
 30
0.0
 10
6.451631071498993
 20
2.363399284213597
 30
0.0
 10
6.46710357862075
 20
2.363339133387663
 30
0.0
 10
6.481403102207396
 20
2.362983056344708
 30
0.0
 10
6.492814661799256
 20
2.362494995533537
 30
0.0
 10
6.500480847059529
 20
2.362062391442222
 30
0.0
 10
6.501401237799866
 20
2.362004321567669
 30
0.0
 10
6.501855780043984
 20
2.361975643300996
 30
0.0
  0
SPLINE
  5
3C9
330
1F
100
AcDbEntity
  8
0
  6
Continuous
 62
     7
370
    25
100
AcDbSpline
210
0.0
220
0.0
230
1.0
 70
    11
 71
     3
 72
    26
 73
    22
 74
     0
 42
0.00000001
 43
0.00000001
 40
0.0
 40
0.0
 40
0.0
 40
0.0
 40
0.0536200607839427
 40
0.1072376822530331
 40
0.1609185883661233
 40
0.2146408563604132
 40
0.2682944511770227
 40
0.3218767096526471
 40
0.3754958818586676
 40
0.4292028051159854
 40
0.4829116531775901
 40
0.536533151300899
 40
0.5901144855235995
 40
0.6437653861511307
 40
0.697487089919182
 40
0.7511704282073669
 40
0.8047662990509749
 40
0.8583618717573682
 40
0.9120446244252628
 40
0.9657664953707783
 40
1.0
 40
1.0
 40
1.0
 40
1.0
 10
6.456581315723991
 20
3.432017366164699
 30
0.0
 10
6.451488999592588
 20
3.43246639583974
 30
0.0
 10
6.441304598992375
 20
3.433364434762304
 30
0.0
 10
6.427746600285565
 20
3.44033732646349
 30
0.0
 10
6.417427031873413
 20
3.450533203069133
 30
0.0
 10
6.411515776790414
 20
3.463147817896463
 30
0.0
 10
6.41068684156923
 20
3.47657968511218
 30
0.0
 10
6.415021645210594
 20
3.48933017681441
 30
0.0
 10
6.42402804775395
 20
3.50001313946127
 30
0.0
 10
6.436707837715075
 20
3.507510006095096
 30
0.0
 10
6.451634021397564
 20
3.511039773862445
 30
0.0
 10
6.467107175957628
 20
3.510245982023174
 30
0.0
 10
6.481385771285849
 20
3.505219573700658
 30
0.0
 10
6.49288052409818
 20
3.496464845032743
 30
0.0
 10
6.500295199912618
 20
3.484874972206103
 30
0.0
 10
6.502780330122519
 20
3.471693029850084
 30
0.0
 10
6.500062931143011
 20
3.4583982369297
 30
0.0
 10
6.492457460176189
 20
3.446483271054562
 30
0.0
 10
6.480815998126892
 20
3.437432120047557
 30
0.0
 10
6.468147600075684
 20
3.432679960953049
 30
0.0
 10
6.459821827039224
 20
3.432203004511793
 30
0.0
 10
6.456581315723991
 20
3.432017366164699
 30
0.0
  0
LINE
  5
3CA
330
1F
100
AcDbEntity
  8
0
  6
Continuous
 62
     7
370
    25
100
AcDbLine
 10
6.2899146491
 20
3.8419721314
 30
0.0
 11
6.2899146491
 21
2.3619721314
 31
0.0
  0
SPLINE
  5
3CB
330
1F
100
AcDbEntity
  8
0
  6
Continuous
 62
     7
370
    25
100
AcDbSpline
210
0.0
220
0.0
230
1.0
 70
     8
 71
     3
 72
    16
 73
    12
 74
     0
 42
0.00000001
 43
0.00000001
 40
0.0
 40
0.0
 40
0.0
 40
0.0
 40
0.049571576686966
 40
0.1848910475714384
 40
0.3204652357547083
 40
0.4560453677787389
 40
0.5913719093041011
 40
0.7265815408157424
 40
0.8619929343627091
 40
0.9976101416486919
 40
1.0
 40
1.0
 40
1.0
 40
1.0
 10
6.414236726297348
 20
3.459382984847839
 30
0.0
 10
6.414687320017809
 20
3.46093575803794
 30
0.0
 10
6.416367935212504
 20
3.466727259558485
 30
0.0
 10
6.424220456224361
 20
3.474919900921002
 30
0.0
 10
6.4366393847648
 20
3.482478409317314
 30
0.0
 10
6.451641777914285
 20
3.485983955999652
 30
0.0
 10
6.467061182388766
 20
3.485194188563792
 30
0.0
 10
6.481471312144889
 20
3.480212891848789
 30
0.0
 10
6.492491164562451
 20
3.471376819246974
 30
0.0
 10
6.49868020092972
 20
3.463859524416749
 30
0.0
 10
6.49949704573003
 20
3.459465050471023
 30
0.0
 10
6.499511190972224
 20
3.459388951684268
 30
0.0
  0
LINE
  5
3CC
330
1F
100
AcDbEntity
  8
0
  6
Continuous
 62
     7
370
    25
100
AcDbLine
 10
7.7432479824
 20
4.7577235623
 30
0.0
 11
7.7432479824
 21
1.4462207005
 31
0.0
  0
LINE
  5
3CD
330
1F
100
AcDbEntity
  8
0
  6
Continuous
 62
     7
370
    25
100
AcDbLine
 10
7.4932479824
 20
4.7686387981
 30
0.0
 11
7.4932479824
 21
1.4353054647
 31
0.0
  0
LINE
  5
3CE
330
1F
100
AcDbEntity
  8
0
  6
Continuous
 62
     7
370
    25
100
AcDbLine
 10
7.4432479824
 20
4.0120896566
 30
0.0
 11
7.4432479824
 21
2.1918546062
 31
0.0
  0
SPLINE
  5
3CF
330
1F
100
AcDbEntity
  8
0
  6
Continuous
 62
     7
370
    25
100
AcDbSpline
210
0.0
220
0.0
230
1.0
 70
     8
 71
     3
 72
    13
 73
     9
 74
     0
 42
0.00000001
 43
0.00000001
 40
0.0
 40
0.0
 40
0.0
 40
0.0
 40
0.0036874028427234
 40
0.170947411783076
 40
0.397759073711323
 40
0.6046995351125647
 40
0.8021697042623902
 40
1.0
 40
1.0
 40
1.0
 40
1.0
 10
7.743247982390656
 20
2.645305464734024
 30
0.0
 10
7.743248107530444
 20
2.64537646825762
 30
0.0
 10
7.74325390899121
 20
2.648668180366079
 30
0.0
 10
7.744226368608875
 20
2.656334040661807
 30
0.0
 10
7.748975449312589
 20
2.667269911108275
 30
0.0
 10
7.757554578614849
 20
2.676743897137743
 30
0.0
 10
7.768446723533212
 20
2.683355422936953
 30
0.0
 10
7.776802258123164
 20
2.68461231501461
 30
0.0
 10
7.780983831447259
 20
2.685241333580282
 30
0.0
  0
LINE
  5
3D0
330
1F
100
AcDbEntity
  8
0
  6
Continuous
 62
     7
370
    25
100
AcDbLine
 10
7.7809838314
 20
2.6852413336
 30
0.0
 11
7.7832479824
 21
2.6853054647
 31
0.0
  0
LINE
  5
3D1
330
1F
100
AcDbEntity
  8
0
  6
Continuous
 62
     7
370
    25
100
AcDbLine
 10
8.2636644823
 20
2.6853054647
 30
0.0
 11
7.7832479824
 21
2.6853054647
 31
0.0
  0
LINE
  5
3D2
330
1F
100
AcDbEntity
  8
0
  6
Continuous
 62
     7
370
    25
100
AcDbLine
 10
7.7809838314
 20
3.7675699455
 30
0.0
 11
7.7809838314
 21
2.6852413336
 31
0.0
  0
LINE
  5
3D3
330
1F
100
AcDbEntity
  8
VP
100
AcDbLine
 10
8.2636644823
 20
2.6853054647
 30
0.0
 11
7.7432479824
 21
2.8951353053
 31
0.0
  0
DIMENSION
  5
3D4
330
1F
100
AcDbEntity
  8
0
  6
Continuous
 62
     7
370
    18
100
AcDbDimension
  2
_D_6
 10
7.7432479824
 20
2.8951353053
 30
0.0
 11
8.8642247368
 21
1.2344979425
 31
0.0
 70
   162
  1
<>
 71
     1
 42
-1.0
  3
SLDDIMSTYLE6
100
AcDb2LineAngularDimension
 13
7.7432479824
 23
1.4462207005
 33
0.0
 14
7.7432479824
 24
4.7577235623
 34
0.0
 15
8.2636644823
 25
2.6853054647
 35
0.0
 16
8.1892310633
 26
0.9418292806
 36
0.0
  0
LINE
  5
3E0
330
1F
100
AcDbEntity
  8
0
  6
Continuous
 62
     7
370
    25
100
AcDbLine
 10
15.213202543
 20
2.8519080002
 30
0.0
 11
15.2133192266
 21
2.8519721314
 31
0.0
  0
ARC
  5
3E1
330
1F
100
AcDbEntity
  8
0
  6
Continuous
 62
     7
370
    25
100
AcDbCircle
 10
15.830039945
 20
3.1019721314
 30
0.0
 40
0.6655978141043009
100
AcDbArc
 50
337.9325061631
 51
202.0674938369
  0
LINE
  5
3E2
330
1F
100
AcDbEntity
  8
0
  6
Continuous
 62
     7
370
    25
100
AcDbLine
 10
16.4467606633
 20
2.8519721314
 30
0.0
 11
16.4468773469
 21
2.8519080002
 31
0.0
  0
LINE
  5
3E3
330
1F
100
AcDbEntity
  8
0
  6
Continuous
 62
     7
370
    25
100
AcDbLine
 10
16.4467606633
 20
2.8519721314
 30
0.0
 11
15.2133192266
 21
2.8519721314
 31
0.0
  0
SPLINE
  5
3E4
330
1F
100
AcDbEntity
  8
0
  6
Continuous
 62
     7
370
    25
100
AcDbSpline
210
0.0
220
0.0
230
1.0
 70
     8
 71
     3
 72
    12
 73
     8
 74
     0
 42
0.00000001
 43
0.00000001
 40
0.0
 40
0.0
 40
0.0
 40
0.0
 40
0.2536953872371949
 40
0.5083571327402229
 40
0.7353408005921713
 40
0.9307954370825654
 40
1.0
 40
1.0
 40
1.0
 40
1.0
 10
16.33618002220831
 20
2.811972131400693
 30
0.0
 10
16.33894626405825
 20
2.816895849597075
 30
0.0
 10
16.34448928472811
 20
2.826762041063905
 30
0.0
 10
16.3511185087328
 20
2.839788794134871
 30
0.0
 10
16.35505263579877
 20
2.848540649918843
 30
0.0
 10
16.35598508390802
 20
2.851712736312624
 30
0.0
 10
16.35565297737929
 20
2.851918362990586
 30
0.0
 10
16.35556613631269
 20
2.851972131400693
 30
0.0
  0
SPLINE
  5
3E5
330
1F
100
AcDbEntity
  8
0
  6
Continuous
 62
     7
370
    25
100
AcDbSpline
210
0.0
220
0.0
230
1.0
 70
     8
 71
     3
 72
    13
 73
     9
 74
     0
 42
0.00000001
 43
0.00000001
 40
0.0
 40
0.0
 40
0.0
 40
0.0
 40
0.1792124120605334
 40
0.3582718312483936
 40
0.5419943554936655
 40
0.7443202735176846
 40
0.9726479096074911
 40
1.0
 40
1.0
 40
1.0
 40
1.0
 10
15.30451375364515
 20
2.851972131400691
 30
0.0
 10
15.30440242976087
 20
2.851622199610845
 30
0.0
 10
15.30417987702903
 20
2.850922634766432
 30
0.0
 10
15.30636845650433
 20
2.845458207544756
 30
0.0
 10
15.31022648721805
 20
2.837281824318921
 30
0.0
 10
15.31587442580739
 20
2.826332752306087
 30
0.0
 10
15.32078403126672
 20
2.817422880078769
 30
0.0
 10
15.32359875446103
 20
2.812498889742548
 30
0.0
 10
15.32389986774952
 20
2.811972131400691
 30
0.0
  0
SPLINE
  5
3E6
330
1F
100
AcDbEntity
  8
0
  6
Continuous
 62
     7
370
    25
100
AcDbSpline
210
0.0
220
0.0
230
1.0
 70
     8
 71
     3
 72
    13
 73
     9
 74
     0
 42
0.00000001
 43
0.00000001
 40
0.0
 40
0.0
 40
0.0
 40
0.0
 40
0.1800812717708826
 40
0.3595841185603409
 40
0.5533428564933478
 40
0.7799120496244106
 40
0.9967794609603131
 40
1.0
 40
1.0
 40
1.0
 40
1.0
 10
16.44687734693404
 20
2.851908000246951
 30
0.0
 10
16.44727050389367
 20
2.851324647710273
 30
0.0
 10
16.44805555498417
 20
2.850159816378016
 30
0.0
 10
16.45205617513751
 20
2.844197277649529
 30
0.0
 10
16.45781074092261
 20
2.835551787048283
 30
0.0
 10
16.46509860785883
 20
2.82448550834564
 30
0.0
 10
16.47052574814423
 20
2.816138767130144
 30
0.0
 10
16.47317899425995
 20
2.812032222322745
 30
0.0
 10
16.47321781911466
 20
2.811972131400693
 30
0.0
  0
LINE
  5
3E7
330
1F
100
AcDbEntity
  8
0
  6
Continuous
 62
     7
370
    25
100
AcDbLine
 10
16.4732178191
 20
2.8119721314
 30
0.0
 11
16.3361800222
 21
2.8119721314
 31
0.0
  0
LINE
  5
3E8
330
1F
100
AcDbEntity
  8
0
  6
Continuous
 62
     7
370
    25
100
AcDbLine
 10
15.3238998677
 20
2.8119721314
 30
0.0
 11
15.1868620708
 21
2.8119721314
 31
0.0
  0
SPLINE
  5
3E9
330
1F
100
AcDbEntity
  8
0
  6
Continuous
 62
     7
370
    25
100
AcDbSpline
210
0.0
220
0.0
230
1.0
 70
     8
 71
     3
 72
    13
 73
     9
 74
     0
 42
0.00000001
 43
0.00000001
 40
0.0
 40
0.0
 40
0.0
 40
0.0
 40
0.0032205390396869
 40
0.2200879503755896
 40
0.4466571435066484
 40
0.6404158814396589
 40
0.8199187282291173
 40
1.0
 40
1.0
 40
1.0
 40
1.0
 10
15.18686207084317
 20
2.811972131400691
 30
0.0
 10
15.18690089569788
 20
2.812032222322742
 30
0.0
 10
15.1895541418136
 20
2.81613876713014
 30
0.0
 10
15.194981282099
 20
2.824485508345639
 30
0.0
 10
15.20226914903522
 20
2.83555178704828
 30
0.0
 10
15.20802371482033
 20
2.844197277649526
 30
0.0
 10
15.21202433497367
 20
2.850159816378014
 30
0.0
 10
15.21280938606417
 20
2.851324647710271
 30
0.0
 10
15.21320254302379
 20
2.851908000246949
 30
0.0
  0
ARC
  5
3EA
330
1F
100
AcDbEntity
  8
0
  6
Continuous
 62
     7
370
    25
100
AcDbCircle
 10
15.830039945
 20
3.1019721314
 30
0.0
 40
0.70553368295056
100
AcDbArc
 50
335.7300457666
 51
204.2699542334
  0
CIRCLE
  5
3EB
330
1F
100
AcDbEntity
  8
0
  6
Continuous
 62
     7
370
    25
100
AcDbCircle
 10
15.830039945
 20
3.1019721314
 30
0.0
 40
1.655751430939539
  0
ARC
  5
3EC
330
1F
100
AcDbEntity
  8
0
  6
Continuous
 62
     7
370
    25
100
AcDbCircle
 10
15.830039945
 20
3.1019721314
 30
0.0
 40
0.5833333333333353
100
AcDbArc
 50
209.8111522924
 51
330.1888477076
  0
CIRCLE
  5
3ED
330
1F
100
AcDbEntity
  8
0
  6
Continuous
 62
     7
370
    25
100
AcDbCircle
 10
14.6633732783
 20
3.1019721314
 30
0.0
 40
0.1366666666666667
  0
CIRCLE
  5
3EE
330
1F
100
AcDbEntity
  8
0
  6
Continuous
 62
     7
370
    25
100
AcDbCircle
 10
16.9967066116
 20
3.1019721314
 30
0.0
 40
0.1366666666666667
  0
CIRCLE
  5
3EF
330
1F
100
AcDbEntity
  8
0
  6
Continuous
 62
     7
370
    25
100
AcDbCircle
 10
15.830039945
 20
3.1019721314
 30
0.0
 40
1.666666666666667
  0
CIRCLE
  5
3F0
330
1F
100
AcDbEntity
  8
0
  6
Continuous
 62
     7
370
    25
100
AcDbCircle
 10
16.9967066116
 20
3.1019721314
 30
0.0
 40
0.0676666666666641
  0
CIRCLE
  5
3F1
330
1F
100
AcDbEntity
  8
0
  6
Continuous
 62
     7
370
    25
100
AcDbCircle
 10
14.6633732783
 20
3.1019721314
 30
0.0
 40
0.0676666666666677
  0
LINE
  5
3F2
330
1F
100
AcDbEntity
  8
0
  6
Continuous
 62
     7
370
    25
100
AcDbLine
 10
15.330039945
 20
2.8015095251
 30
0.0
 11
15.330039945
 21
2.8519721314
 31
0.0
  0
LINE
  5
3F3
330
1F
100
AcDbEntity
  8
0
  6
Continuous
 62
     7
370
    25
100
AcDbLine
 10
16.2883732783
 20
2.7411282132
 30
0.0
 11
16.2883732783
 21
2.8519721314
 31
0.0
  0
LINE
  5
3F4
330
1F
100
AcDbEntity
  8
0
  6
Continuous
 62
     7
370
    25
100
AcDbLine
 10
16.330039945
 20
2.8015095251
 30
0.0
 11
16.330039945
 21
2.8519721314
 31
0.0
  0
LINE
  5
3F5
330
1F
100
AcDbEntity
  8
0
  6
Continuous
 62
     7
370
    25
100
AcDbLine
 10
15.4133732783
 20
2.6937238409
 30
0.0
 11
15.4133732783
 21
2.8519721314
 31
0.0
  0
LINE
  5
3F6
330
1F
100
AcDbEntity
  8
0
  6
Continuous
 62
     7
370
    25
100
AcDbLine
 10
15.3717066116
 20
2.7411282132
 30
0.0
 11
15.3717066116
 21
2.8519721314
 31
0.0
  0
LINE
  5
3F7
330
1F
100
AcDbEntity
  8
0
  6
Continuous
 62
     7
370
    25
100
AcDbLine
 10
16.2467066116
 20
2.6937238409
 30
0.0
 11
16.2467066116
 21
2.8519721314
 31
0.0
  0
LINE
  5
3F8
330
1F
100
AcDbEntity
  8
0
  6
Continuous
 62
     7
370
    25
100
AcDbLine
 10
16.205039945
 20
2.6551469108
 30
0.0
 11
16.205039945
 21
2.8519721314
 31
0.0
  0
LINE
  5
3F9
330
1F
100
AcDbEntity
  8
0
  6
Continuous
 62
     7
370
    25
100
AcDbLine
 10
15.4967066116
 20
2.6232585775
 30
0.0
 11
15.4967066116
 21
2.8519721314
 31
0.0
  0
LINE
  5
3FA
330
1F
100
AcDbEntity
  8
0
  6
Continuous
 62
     7
370
    25
100
AcDbLine
 10
15.455039945
 20
2.6551469108
 30
0.0
 11
15.455039945
 21
2.8519721314
 31
0.0
  0
LINE
  5
3FB
330
1F
100
AcDbEntity
  8
0
  6
Continuous
 62
     7
370
    25
100
AcDbLine
 10
16.1217066116
 20
2.5967906459
 30
0.0
 11
16.1217066116
 21
2.8519721314
 31
0.0
  0
LINE
  5
3FC
330
1F
100
AcDbEntity
  8
0
  6
Continuous
 62
     7
370
    25
100
AcDbLine
 10
16.1633732783
 20
2.6232585775
 30
0.0
 11
16.1633732783
 21
2.8519721314
 31
0.0
  0
LINE
  5
3FD
330
1F
100
AcDbEntity
  8
0
  6
Continuous
 62
     7
370
    25
100
AcDbLine
 10
15.5383732783
 20
2.5967906459
 30
0.0
 11
15.5383732783
 21
2.8519721314
 31
0.0
  0
LINE
  5
3FE
330
1F
100
AcDbEntity
  8
0
  6
Continuous
 62
     7
370
    25
100
AcDbLine
 10
15.580039945
 20
2.5749258547
 30
0.0
 11
15.580039945
 21
2.8519721314
 31
0.0
  0
LINE
  5
3FF
330
1F
100
AcDbEntity
  8
0
  6
Continuous
 62
     7
370
    25
100
AcDbLine
 10
16.080039945
 20
2.5749258547
 30
0.0
 11
16.080039945
 21
2.8519721314
 31
0.0
  0
LINE
  5
400
330
1F
100
AcDbEntity
  8
0
  6
Continuous
 62
     7
370
    25
100
AcDbLine
 10
16.0383732783
 20
2.5571097635
 30
0.0
 11
16.0383732783
 21
2.8519721314
 31
0.0
  0
LINE
  5
401
330
1F
100
AcDbEntity
  8
0
  6
Continuous
 62
     7
370
    25
100
AcDbLine
 10
15.6217066116
 20
2.5571097635
 30
0.0
 11
15.6217066116
 21
2.8519721314
 31
0.0
  0
LINE
  5
402
330
1F
100
AcDbEntity
  8
0
  6
Continuous
 62
     7
370
    25
100
AcDbLine
 10
15.6633732783
 20
2.542955137
 30
0.0
 11
15.6633732783
 21
2.8519721314
 31
0.0
  0
LINE
  5
403
330
1F
100
AcDbEntity
  8
0
  6
Continuous
 62
     7
370
    25
100
AcDbLine
 10
15.955039945
 20
2.5321890343
 30
0.0
 11
15.955039945
 21
2.8519721314
 31
0.0
  0
LINE
  5
404
330
1F
100
AcDbEntity
  8
0
  6
Continuous
 62
     7
370
    25
100
AcDbLine
 10
15.9967066116
 20
2.542955137
 30
0.0
 11
15.9967066116
 21
2.8519721314
 31
0.0
  0
LINE
  5
405
330
1F
100
AcDbEntity
  8
0
  6
Continuous
 62
     7
370
    25
100
AcDbLine
 10
15.7467066116
 20
2.5246218622
 30
0.0
 11
15.7467066116
 21
2.8519721314
 31
0.0
  0
LINE
  5
406
330
1F
100
AcDbEntity
  8
0
  6
Continuous
 62
     7
370
    25
100
AcDbLine
 10
15.705039945
 20
2.5321890343
 30
0.0
 11
15.705039945
 21
2.8519721314
 31
0.0
  0
LINE
  5
407
330
1F
100
AcDbEntity
  8
0
  6
Continuous
 62
     7
370
    25
100
AcDbLine
 10
15.9133732783
 20
2.5246218622
 30
0.0
 11
15.9133732783
 21
2.8519721314
 31
0.0
  0
LINE
  5
408
330
1F
100
AcDbEntity
  8
0
  6
Continuous
 62
     7
370
    25
100
AcDbLine
 10
15.8717066116
 20
2.5201287962
 30
0.0
 11
15.8717066116
 21
2.8519721314
 31
0.0
  0
LINE
  5
409
330
1F
100
AcDbEntity
  8
0
  6
Continuous
 62
     7
370
    25
100
AcDbLine
 10
15.7883732783
 20
2.5201287962
 30
0.0
 11
15.7883732783
 21
2.8519721314
 31
0.0
  0
LINE
  5
40A
330
1F
100
AcDbEntity
  8
0
  6
Continuous
 62
     7
370
    25
100
AcDbLine
 10
15.830039945
 20
2.5186387981
 30
0.0
 11
15.830039945
 21
2.8519721314
 31
0.0
  0
DIMENSION
  5
40B
330
1F
100
AcDbEntity
  8
0
  6
Continuous
 62
     7
370
    18
100
AcDbDimension
  2
_D_7
 10
17.008551247
 20
4.2804834334
 30
0.0
 11
12.9208932499
 21
1.4347524922
 31
0.0
 70
   163
  1
<>
 71
     1
 42
-1.0
  3
SLDDIMSTYLE4
100
AcDbDiametricDimension
 15
14.651528643
 25
1.9234608294
 35
0.0
 40
0.0
  0
DIMENSION
  5
41B
330
1F
100
AcDbEntity
  8
0
  6
Continuous
 62
     7
370
    18
100
AcDbDimension
  2
_D_8
 10
16.9967066116
 20
5.5560403729
 30
0.0
 11
15.830039945
 21
5.5560403729
 31
0.0
 70
   160
  1
<> O.C.
 71
     2
 42
-1.0
  3
SLDDIMSTYLE5
100
AcDbAlignedDimension
 13
14.6633732783
 23
3.1019721314
 33
0.0
 14
16.9967066116
 24
3.1019721314
 34
0.0
 50
0.0
100
AcDbRotatedDimension
  0
LINE
  5
42E
330
1F
100
AcDbEntity
  8
0
  6
Continuous
 62
     7
370
    25
100
AcDbLine
 10
18.4558466594
 20
2.3619721314
 30
0.0
 11
19.3972388618
 21
2.3619721314
 31
0.0
  0
LINE
  5
42F
330
1F
100
AcDbEntity
  8
0
  6
Continuous
 62
     7
370
    25
100
AcDbLine
 10
18.2439055284
 20
2.3619721314
 30
0.0
 11
18.3658177772
 21
2.3619721314
 31
0.0
  0
LINE
  5
430
330
1F
100
AcDbEntity
  8
0
  6
Continuous
 62
     7
370
    25
100
AcDbLine
 10
19.3972388618
 20
3.8419721314
 30
0.0
 11
18.2439055284
 21
3.8419721314
 31
0.0
  0
LINE
  5
431
330
1F
100
AcDbEntity
  8
0
  6
Continuous
 62
     7
370
    25
100
AcDbLine
 10
19.4472388618
 20
1.4353054647
 30
0.0
 11
19.6972388618
 21
1.4462207005
 31
0.0
  0
LINE
  5
432
330
1F
100
AcDbEntity
  8
0
  6
Continuous
 62
     7
370
    25
100
AcDbLine
 10
19.6972388618
 20
4.7577235623
 30
0.0
 11
19.4472388618
 21
4.7686387981
 31
0.0
  0
LINE
  5
433
330
1F
100
AcDbEntity
  8
0
  6
Continuous
 62
     7
370
    25
100
AcDbLine
 10
19.4472388618
 20
4.0142727038
 30
0.0
 11
19.3972388618
 21
4.0120896566
 31
0.0
  0
LINE
  5
434
330
1F
100
AcDbEntity
  8
0
  6
Continuous
 62
     7
370
    25
100
AcDbLine
 10
19.3972388618
 20
2.1918546062
 30
0.0
 11
19.4472388618
 21
2.189671559
 31
0.0
  0
ARC
  5
435
330
1F
100
AcDbEntity
  8
0
  6
Continuous
 62
     7
370
    25
100
AcDbCircle
 10
19.7372388618
 20
3.8075058144
 30
0.0
 40
0.0400000000000027
100
AcDbArc
 50
180.0
 51
266.7551083283
  0
ARC
  5
436
330
1F
100
AcDbEntity
  8
0
  6
Continuous
 62
     7
370
    25
100
AcDbCircle
 10
19.6972388618
 20
3.1019721314
 30
0.0
 40
0.6666666666666733
100
AcDbArc
 50
337.975687163
 51
0.0
  0
ARC
  5
437
330
1F
100
AcDbEntity
  8
0
  6
Continuous
 62
     7
370
    25
100
AcDbCircle
 10
19.6972388618
 20
3.1019721314
 30
0.0
 40
0.6666666666666679
100
AcDbArc
 50
0.0
 51
86.7551083283
  0
LINE
  5
438
330
1F
100
AcDbEntity
  8
0
  6
Continuous
 62
     7
370
    25
100
AcDbLine
 10
18.2439055284
 20
3.8419721314
 30
0.0
 11
18.2439055284
 21
2.3619721314
 31
0.0
  0
SPLINE
  5
439
330
1F
100
AcDbEntity
  8
0
  6
Continuous
 62
     7
370
    25
100
AcDbSpline
210
0.0
220
0.0
230
1.0
 70
     8
 71
     3
 72
    17
 73
    13
 74
     0
 42
0.00000001
 43
0.00000001
 40
0.0
 40
0.0
 40
0.0
 40
0.0
 40
0.0367829129270474
 40
0.1439469936102732
 40
0.2511849014537436
 40
0.3585983106853299
 40
0.4660155695098255
 40
0.5732581291689264
 40
0.6804203613538312
 40
0.7877217257819898
 40
0.8951646959147044
 40
1.0
 40
1.0
 40
1.0
 40
1.0
 10
18.36581777720238
 20
2.362007270582573
 30
0.0
 10
18.36565902931337
 20
2.361997647958888
 30
0.0
 10
18.36503778212148
 20
2.361959990589204
 30
0.0
 10
18.36923155718622
 20
2.36221647963379
 30
0.0
 10
18.37796019777901
 20
2.362668400493593
 30
0.0
 10
18.39071415007828
 20
2.363140143686094
 30
0.0
 10
18.4056219508714
 20
2.363399284213597
 30
0.0
 10
18.42109445799316
 20
2.363339133387663
 30
0.0
 10
18.4353939815798
 20
2.362983056344708
 30
0.0
 10
18.44680554117166
 20
2.362494995533537
 30
0.0
 10
18.45447172643194
 20
2.362062391442222
 30
0.0
 10
18.45539211717227
 20
2.362004321567669
 30
0.0
 10
18.45584665941639
 20
2.361975643300996
 30
0.0
  0
SPLINE
  5
43A
330
1F
100
AcDbEntity
  8
0
  6
Continuous
 62
     7
370
    25
100
AcDbSpline
210
0.0
220
0.0
230
1.0
 70
    11
 71
     3
 72
    26
 73
    22
 74
     0
 42
0.00000001
 43
0.00000001
 40
0.0
 40
0.0
 40
0.0
 40
0.0
 40
0.0536200607839427
 40
0.1072376822530331
 40
0.1609185883661232
 40
0.2146408563604131
 40
0.2682944511770225
 40
0.321876709652647
 40
0.3754958818586674
 40
0.4292028051159853
 40
0.48291165317759
 40
0.536533151300899
 40
0.5901144855235995
 40
0.6437653861511305
 40
0.6974870899191818
 40
0.751170428207367
 40
0.8047662990509749
 40
0.8583618717573682
 40
0.9120446244252628
 40
0.9657664953707784
 40
1.0
 40
1.0
 40
1.0
 40
1.0
 10
18.4105721950964
 20
3.432017366164699
 30
0.0
 10
18.405479878965
 20
3.432466395839739
 30
0.0
 10
18.39529547836478
 20
3.433364434762304
 30
0.0
 10
18.38173747965797
 20
3.44033732646349
 30
0.0
 10
18.37141791124582
 20
3.450533203069133
 30
0.0
 10
18.36550665616283
 20
3.463147817896463
 30
0.0
 10
18.36467772094164
 20
3.47657968511218
 30
0.0
 10
18.369012524583
 20
3.48933017681441
 30
0.0
 10
18.37801892712636
 20
3.50001313946127
 30
0.0
 10
18.39069871708748
 20
3.507510006095096
 30
0.0
 10
18.40562490076998
 20
3.511039773862445
 30
0.0
 10
18.42109805533004
 20
3.510245982023173
 30
0.0
 10
18.43537665065826
 20
3.505219573700658
 30
0.0
 10
18.44687140347059
 20
3.496464845032742
 30
0.0
 10
18.45428607928503
 20
3.484874972206102
 30
0.0
 10
18.45677120949493
 20
3.471693029850084
 30
0.0
 10
18.45405381051542
 20
3.458398236929699
 30
0.0
 10
18.4464483395486
 20
3.446483271054561
 30
0.0
 10
18.4348068774993
 20
3.437432120047557
 30
0.0
 10
18.42213847944809
 20
3.432679960953049
 30
0.0
 10
18.41381270641163
 20
3.432203004511793
 30
0.0
 10
18.4105721950964
 20
3.432017366164699
 30
0.0
  0
SPLINE
  5
43B
330
1F
100
AcDbEntity
  8
0
  6
Continuous
 62
     7
370
    25
100
AcDbSpline
210
0.0
220
0.0
230
1.0
 70
     8
 71
     3
 72
    16
 73
    12
 74
     0
 42
0.00000001
 43
0.00000001
 40
0.0
 40
0.0
 40
0.0
 40
0.0
 40
0.0495715766869988
 40
0.1848910475714745
 40
0.3204652357547478
 40
0.4560453677787818
 40
0.5913719093041473
 40
0.7265815408157921
 40
0.8619929343627618
 40
0.9976101416487478
 40
1.0
 40
1.0
 40
1.0
 40
1.0
 10
18.36822760566976
 20
3.459382984847836
 30
0.0
 10
18.36867819939022
 20
3.460935758037937
 30
0.0
 10
18.37035881458491
 20
3.466727259558485
 30
0.0
 10
18.37821133559677
 20
3.474919900921002
 30
0.0
 10
18.39063026413721
 20
3.482478409317314
 30
0.0
 10
18.4056326572867
 20
3.485983955999651
 30
0.0
 10
18.42105206176117
 20
3.485194188563792
 30
0.0
 10
18.4354621915173
 20
3.480212891848789
 30
0.0
 10
18.44648204393485
 20
3.471376819246975
 30
0.0
 10
18.45267108030214
 20
3.463859524416748
 30
0.0
 10
18.45348792510244
 20
3.459465050471027
 30
0.0
 10
18.45350207034463
 20
3.459388951684272
 30
0.0
  0
LINE
  5
43C
330
1F
100
AcDbEntity
  8
0
  6
Continuous
 62
     7
370
    25
100
AcDbLine
 10
19.6972388618
 20
4.7577235623
 30
0.0
 11
19.6972388618
 21
1.4462207005
 31
0.0
  0
LINE
  5
43D
330
1F
100
AcDbEntity
  8
0
  6
Continuous
 62
     7
370
    25
100
AcDbLine
 10
19.4472388618
 20
4.7686387981
 30
0.0
 11
19.4472388618
 21
1.4353054647
 31
0.0
  0
LINE
  5
43E
330
1F
100
AcDbEntity
  8
0
  6
Continuous
 62
     7
370
    25
100
AcDbLine
 10
19.3972388618
 20
4.0120896566
 30
0.0
 11
19.3972388618
 21
2.1918546062
 31
0.0
  0
SPLINE
  5
43F
330
1F
100
AcDbEntity
  8
0
  6
Continuous
 62
     7
370
    25
100
AcDbSpline
210
0.0
220
0.0
230
1.0
 70
     8
 71
     3
 72
    13
 73
     9
 74
     0
 42
0.00000001
 43
0.00000001
 40
0.0
 40
0.0
 40
0.0
 40
0.0
 40
0.0032205390396869
 40
0.2200879503755896
 40
0.4466571435066484
 40
0.6404158814396589
 40
0.8199187282291173
 40
1.0
 40
1.0
 40
1.0
 40
1.0
 10
19.69723886176307
 20
2.811972131400691
 30
0.0
 10
19.69723895153033
 20
2.812032222322742
 30
0.0
 10
19.69724508612252
 20
2.81613876713014
 30
0.0
 10
19.69855539294912
 20
2.824485508345638
 30
0.0
 10
19.70412126375895
 20
2.83555178704828
 30
0.0
 10
19.71266927896464
 20
2.844197277649525
 30
0.0
 10
19.72304694316045
 20
2.850159816378013
 30
0.0
 10
19.73099452678722
 20
2.85132464771027
 30
0.0
 10
19.73497471081967
 20
2.851908000246949
 30
0.0
  0
LINE
  5
440
330
1F
100
AcDbEntity
  8
0
  6
Continuous
 62
     7
370
    25
100
AcDbLine
 10
19.7349747108
 20
2.8519080002
 30
0.0
 11
19.7372388618
 21
2.8519721314
 31
0.0
  0
LINE
  5
441
330
1F
100
AcDbEntity
  8
0
  6
Continuous
 62
     7
370
    25
100
AcDbLine
 10
20.3152554024
 20
2.8519721314
 30
0.0
 11
19.7372388618
 21
2.8519721314
 31
0.0
  0
LINE
  5
442
330
1F
100
AcDbEntity
  8
0
  6
Continuous
 62
     7
370
    25
100
AcDbLine
 10
19.7349747108
 20
3.7675699455
 30
0.0
 11
19.7349747108
 21
2.8519080002
 31
0.0
  0
DIMENSION
  5
443
330
1F
100
AcDbEntity
  8
0
  6
Continuous
 62
     7
370
    18
100
AcDbDimension
  2
_D_9
 10
19.6972388618
 20
4.7577235623
 30
0.0
 11
20.8882844607
 21
1.6609265325
 31
0.0
 70
   162
  1
<>
 71
     1
 42
-1.0
  3
SLDDIMSTYLE6
100
AcDb2LineAngularDimension
 13
20.3152554024
 23
2.8519721314
 33
0.0
 14
19.7372388618
 24
2.8519721314
 34
0.0
 15
19.6972388618
 25
1.4462207005
 35
0.0
 16
20.195608125
 26
1.2429950294
 36
0.0
  0
ENDSEC
  0
SECTION
  2
OBJECTS
  0
DICTIONARY
  5
C
330
0
100
AcDbDictionary
281
     1
  3
ACAD_GROUP
350
D
  3
ACAD_LAYOUT
350
1A
  3
ACAD_MLINESTYLE
350
17
  3
ACAD_PLOTSETTINGS
350
19
  3
ACAD_PLOTSTYLENAME
350
E
  3
ACAD_SCALELIST
350
47
  3
DWGPROPS
350
44E
  0
DICTIONARY
  5
D
102
{ACAD_REACTORS
330
C
102
}
330
C
100
AcDbDictionary
281
     1
  0
DICTIONARY
  5
1A
102
{ACAD_REACTORS
330
C
102
}
330
C
100
AcDbDictionary
281
     1
  3
Layout1
350
1E
  3
Layout2
350
26
  3
Model
350
22
  0
DICTIONARY
  5
17
102
{ACAD_REACTORS
330
C
102
}
330
C
100
AcDbDictionary
281
     1
  3
Standard
350
18
  0
DICTIONARY
  5
19
102
{ACAD_REACTORS
330
C
102
}
330
C
100
AcDbDictionary
281
     1
  0
ACDBDICTIONARYWDFLT
  5
E
102
{ACAD_REACTORS
330
C
102
}
330
C
100
AcDbDictionary
281
     1
  3
Normal
350
F
100
AcDbDictionaryWithDefault
340
F
  0
DICTIONARY
  5
47
102
{ACAD_REACTORS
330
C
102
}
330
C
100
AcDbDictionary
281
     1
  3
A0
350
48
  3
A1
350
49
  3
A2
350
4A
  3
A3
350
4B
  3
A4
350
4C
  3
A5
350
4D
  3
A6
350
4E
  3
A7
350
4F
  3
A8
350
50
  3
A9
350
51
  3
B1
350
52
  3
B2
350
53
  3
B3
350
54
  3
B4
350
55
  3
B5
350
56
  3
B6
350
57
  3
B7
350
58
  0
XRECORD
  5
44E
102
{ACAD_REACTORS
330
C
102
}
330
C
100
AcDbXrecord
280
     1
  1
DWGPROPS COOKIE
  2

  3

  4

  6

  7

  8
alekseyb
  9

300
=
301
=
302
=
303
=
304
=
305
=
306
=
307
=
308
=
309
=
 40
0.0
 41
2460508.358993866
 42
2460508.358994711
  1

 90
        0
  0
LAYOUT
  5
1E
102
{ACAD_REACTORS
330
1A
102
}
330
1A
100
AcDbPlotSettings
  1

  2
none_device
  4

  6

 40
0.0
 41
0.0
 42
0.0
 43
0.0
 44
0.0
 45
0.0
 46
0.0
 47
0.0
 48
0.0
 49
0.0
140
0.0
141
0.0
142
1.0
143
1.0
 70
   688
 72
     0
 73
     0
 74
     5
  7

 75
    16
147
1.0
148
0.0
149
0.0
100
AcDbLayout
  1
Layout1
 70
     1
 71
     1
 10
0.0
 20
0.0
 11
12.0
 21
9.0
 12
0.0
 22
0.0
 32
0.0
 14
1.0000000000E+20
 24
1.0000000000E+20
 34
1.0000000000E+20
 15
-1.0000000000E+20
 25
-1.0000000000E+20
 35
-1.0000000000E+20
146
0.0
 13
0.0
 23
0.0
 33
0.0
 16
1.0
 26
0.0
 36
0.0
 17
0.0
 27
1.0
 37
0.0
 76
     0
330
1B
  0
LAYOUT
  5
26
102
{ACAD_REACTORS
330
1A
102
}
330
1A
100
AcDbPlotSettings
  1

  2
none_device
  4

  6

 40
0.0
 41
0.0
 42
0.0
 43
0.0
 44
0.0
 45
0.0
 46
0.0
 47
0.0
 48
0.0
 49
0.0
140
0.0
141
0.0
142
1.0
143
1.0
 70
   688
 72
     0
 73
     0
 74
     5
  7

 75
    16
147
1.0
148
0.0
149
0.0
100
AcDbLayout
  1
Layout2
 70
     1
 71
     2
 10
0.0
 20
0.0
 11
0.0
 21
0.0
 12
0.0
 22
0.0
 32
0.0
 14
0.0
 24
0.0
 34
0.0
 15
0.0
 25
0.0
 35
0.0
146
0.0
 13
0.0
 23
0.0
 33
0.0
 16
1.0
 26
0.0
 36
0.0
 17
0.0
 27
1.0
 37
0.0
 76
     0
330
23
  0
LAYOUT
  5
22
102
{ACAD_REACTORS
330
1A
102
}
330
1A
100
AcDbPlotSettings
  1

  2
none_device
  4
Letter_(8.50_x_11.00_Inches)
  6

 40
6.35
 41
6.35
 42
6.35000508
 43
6.35000508
 44
215.9
 45
279.4
 46
0.0
 47
0.0
 48
0.0
 49
0.0
140
0.0
141
0.0
142
1.0
143
1.0
 70
  1712
 72
     0
 73
     0
 74
     0
  7

 75
     0
147
1.0
148
0.0
149
0.0
100
AcDbLayout
  1
Model
 70
     1
 71
     0
 10
0.0
 20
0.0
 11
22.0
 21
17.0
 12
0.0
 22
0.0
 32
0.0
 14
0.0
 24
0.0
 34
0.0
 15
22.0
 25
17.0
 35
0.0
146
0.0
 13
0.0
 23
0.0
 33
0.0
 16
1.0
 26
0.0
 36
0.0
 17
0.0
 27
1.0
 37
0.0
 76
     0
330
1F
331
29
  0
MLINESTYLE
  5
18
102
{ACAD_REACTORS
330
17
102
}
330
17
100
AcDbMlineStyle
  2
Standard
 70
     0
  3

 62
   256
 51
90.0
 52
90.0
 71
     2
 49
0.5
 62
   256
  6
BYLAYER
 49
-0.5
 62
   256
  6
BYLAYER
  0
ACDBPLACEHOLDER
  5
F
102
{ACAD_REACTORS
330
E
102
}
330
E
  0
SCALE
  5
48
102
{ACAD_REACTORS
330
47
102
}
330
47
100
AcDbScale
 70
     0
300
1:1
140
1.0
141
1.0
290
     1
  0
SCALE
  5
49
102
{ACAD_REACTORS
330
47
102
}
330
47
100
AcDbScale
 70
     0
300
1/128" = 1'-0"
140
0.0078125
141
12.0
290
     0
  0
SCALE
  5
4A
102
{ACAD_REACTORS
330
47
102
}
330
47
100
AcDbScale
 70
     0
300
1/64" = 1'-0"
140
0.015625
141
12.0
290
     0
  0
SCALE
  5
4B
102
{ACAD_REACTORS
330
47
102
}
330
47
100
AcDbScale
 70
     0
300
1/32" = 1'-0"
140
0.03125
141
12.0
290
     0
  0
SCALE
  5
4C
102
{ACAD_REACTORS
330
47
102
}
330
47
100
AcDbScale
 70
     0
300
1/16" = 1'-0"
140
0.0625
141
12.0
290
     0
  0
SCALE
  5
4D
102
{ACAD_REACTORS
330
47
102
}
330
47
100
AcDbScale
 70
     0
300
3/32" = 1'-0"
140
0.09375
141
12.0
290
     0
  0
SCALE
  5
4E
102
{ACAD_REACTORS
330
47
102
}
330
47
100
AcDbScale
 70
     0
300
1/8" = 1'-0"
140
0.125
141
12.0
290
     0
  0
SCALE
  5
4F
102
{ACAD_REACTORS
330
47
102
}
330
47
100
AcDbScale
 70
     0
300
3/16" = 1'-0"
140
0.1875
141
12.0
290
     0
  0
SCALE
  5
50
102
{ACAD_REACTORS
330
47
102
}
330
47
100
AcDbScale
 70
     0
300
1/4" = 1'-0"
140
0.25
141
12.0
290
     0
  0
SCALE
  5
51
102
{ACAD_REACTORS
330
47
102
}
330
47
100
AcDbScale
 70
     0
300
3/8" = 1'-0"
140
0.375
141
12.0
290
     0
  0
SCALE
  5
52
102
{ACAD_REACTORS
330
47
102
}
330
47
100
AcDbScale
 70
     0
300
1/2" = 1'-0"
140
0.5
141
12.0
290
     0
  0
SCALE
  5
53
102
{ACAD_REACTORS
330
47
102
}
330
47
100
AcDbScale
 70
     0
300
3/4" = 1'-0"
140
0.75
141
12.0
290
     0
  0
SCALE
  5
54
102
{ACAD_REACTORS
330
47
102
}
330
47
100
AcDbScale
 70
     0
300
1" = 1'-0"
140
1.0
141
12.0
290
     0
  0
SCALE
  5
55
102
{ACAD_REACTORS
330
47
102
}
330
47
100
AcDbScale
 70
     0
300
1-1/2" = 1'-0"
140
1.5
141
12.0
290
     0
  0
SCALE
  5
56
102
{ACAD_REACTORS
330
47
102
}
330
47
100
AcDbScale
 70
     0
300
3" = 1'-0"
140
3.0
141
12.0
290
     0
  0
SCALE
  5
57
102
{ACAD_REACTORS
330
47
102
}
330
47
100
AcDbScale
 70
     0
300
6" = 1'-0"
140
6.0
141
12.0
290
     0
  0
SCALE
  5
58
102
{ACAD_REACTORS
330
47
102
}
330
47
100
AcDbScale
 70
     0
300
1'-0" = 1'-0"
140
12.0
141
12.0
290
     0
  0
ENDSEC
  0
EOF
