  0
SECTION
  2
HEADER
  9
$ACADVER
  1
AC1015
  9
$ACADMAINTVER
 70
     6
  9
$DWGCODEPAGE
  3
ANSI_1252
  9
$INSBASE
 10
0.0
 20
0.0
 30
0.0
  9
$EXTMIN
 10
0.0
 20
0.0
 30
0.0
  9
$EXTMAX
 10
22.0
 20
17.0
 30
0.0
  9
$LIMMIN
 10
0.0
 20
0.0
  9
$LIMMAX
 10
22.0
 20
17.0
  9
$ORTHOMODE
 70
     0
  9
$REGENMODE
 70
     1
  9
$FILLMODE
 70
     1
  9
$QTEXTMODE
 70
     0
  9
$MIRRTEXT
 70
     1
  9
$LTSCALE
 40
2.0
  9
$ATTMODE
 70
     1
  9
$TEXTSIZE
 40
0.25
  9
$TRACEWID
 40
0.05
  9
$TEXTSTYLE
  7
STANDARD
  9
$CLAYER
  8
0
  9
$CELTYPE
  6
ByLayer
  9
$CECOLOR
 62
   256
  9
$CELTSCALE
 40
1.0
  9
$DISPSILH
 70
     0
  9
$DIMSCALE
 40
1.0
  9
$DIMASZ
 40
0.26
  9
$DIMEXO
 40
0.1
  9
$DIMDLI
 40
0.38
  9
$DIMRND
 40
0.0
  9
$DIMDLE
 40
0.0
  9
$DIMEXE
 40
0.25
  9
$DIMTP
 40
0.0
  9
$DIMTM
 40
0.0
  9
$DIMTXT
 40
0.25
  9
$DIMCEN
 40
0.09
  9
$DIMTSZ
 40
0.0
  9
$DIMTOL
 70
     0
  9
$DIMLIM
 70
     0
  9
$DIMTIH
 70
     1
  9
$DIMTOH
 70
     1
  9
$DIMSE1
 70
     0
  9
$DIMSE2
 70
     0
  9
$DIMTAD
 70
     0
  9
$DIMZIN
 70
     1
  9
$DIMBLK
  1

  9
$DIMASO
 70
     1
  9
$DIMSHO
 70
     1
  9
$DIMPOST
  1

  9
$DIMAPOST
  1

  9
$DIMALT
 70
     0
  9
$DIMALTD
 70
     2
  9
$DIMALTF
 40
25.4
  9
$DIMLFAC
 40
1.0
  9
$DIMTOFL
 70
     0
  9
$DIMTVP
 40
0.0
  9
$DIMTIX
 70
     0
  9
$DIMSOXD
 70
     0
  9
$DIMSAH
 70
     0
  9
$DIMBLK1
  1

  9
$DIMBLK2
  1

  9
$DIMSTYLE
  2
Standard
  9
$DIMCLRD
 70
     0
  9
$DIMCLRE
 70
     0
  9
$DIMCLRT
 70
     0
  9
$DIMTFAC
 40
1.0
  9
$DIMGAP
 40
0.12
  9
$DIMJUST
 70
     0
  9
$DIMSD1
 70
     0
  9
$DIMSD2
 70
     0
  9
$DIMTOLJ
 70
     1
  9
$DIMTZIN
 70
     1
  9
$DIMALTZ
 70
     0
  9
$DIMALTTZ
 70
     0
  9
$DIMUPT
 70
     0
  9
$DIMDEC
 70
     0
  9
$DIMTDEC
 70
     0
  9
$DIMALTU
 70
     2
  9
$DIMALTTD
 70
     2
  9
$DIMTXSTY
  7
STANDARD
  9
$DIMAUNIT
 70
     0
  9
$DIMADEC
 70
     0
  9
$DIMALTRND
 40
0.0
  9
$DIMAZIN
 70
     0
  9
$DIMDSEP
 70
    46
  9
$DIMATFIT
 70
     3
  9
$DIMFRAC
 70
     0
  9
$DIMLDRBLK
  1

  9
$DIMLUNIT
 70
     2
  9
$DIMLWD
 70
    -2
  9
$DIMLWE
 70
    -2
  9
$DIMTMOVE
 70
     0
  9
$LUNITS
 70
     2
  9
$LUPREC
 70
     6
  9
$SKETCHINC
 40
0.1
  9
$FILLETRAD
 40
0.0
  9
$AUNITS
 70
     0
  9
$AUPREC
 70
     2
  9
$MENU
  1
.
  9
$ELEVATION
 40
0.0
  9
$PELEVATION
 40
0.0
  9
$THICKNESS
 40
0.0
  9
$LIMCHECK
 70
     0
  9
$CHAMFERA
 40
0.0
  9
$CHAMFERB
 40
0.0
  9
$CHAMFERC
 40
0.0
  9
$CHAMFERD
 40
0.0
  9
$SKPOLY
 70
     0
  9
$TDCREATE
 40
2460507.947294769
  9
$TDUCREATE
 40
2460508.238961436
  9
$TDUPDATE
 40
2460507.947295579
  9
$TDUUPDATE
 40
2460508.238962245
  9
$TDINDWG
 40
0.0000000116
  9
$TDUSRTIMER
 40
0.0000000116
  9
$USRTIMER
 70
     1
  9
$ANGBASE
 50
0.0
  9
$ANGDIR
 70
     0
  9
$PDMODE
 70
     0
  9
$PDSIZE
 40
-1.0
  9
$PLINEWID
 40
0.0
  9
$SPLFRAME
 70
     0
  9
$SPLINETYPE
 70
     6
  9
$SPLINESEGS
 70
     8
  9
$HANDSEED
  5
357
  9
$SURFTAB1
 70
     6
  9
$SURFTAB2
 70
     6
  9
$SURFTYPE
 70
     6
  9
$SURFU
 70
     6
  9
$SURFV
 70
     6
  9
$UCSBASE
  2

  9
$UCSNAME
  2

  9
$UCSORG
 10
0.0
 20
0.0
 30
0.0
  9
$UCSXDIR
 10
1.0
 20
0.0
 30
0.0
  9
$UCSYDIR
 10
0.0
 20
1.0
 30
0.0
  9
$UCSORTHOREF
  2

  9
$UCSORTHOVIEW
 70
     0
  9
$UCSORGTOP
 10
0.0
 20
0.0
 30
0.0
  9
$UCSORGBOTTOM
 10
0.0
 20
0.0
 30
0.0
  9
$UCSORGLEFT
 10
0.0
 20
0.0
 30
0.0
  9
$UCSORGRIGHT
 10
0.0
 20
0.0
 30
0.0
  9
$UCSORGFRONT
 10
0.0
 20
0.0
 30
0.0
  9
$UCSORGBACK
 10
0.0
 20
0.0
 30
0.0
  9
$PUCSBASE
  2

  9
$PUCSNAME
  2

  9
$PUCSORG
 10
0.0
 20
0.0
 30
0.0
  9
$PUCSXDIR
 10
1.0
 20
0.0
 30
0.0
  9
$PUCSYDIR
 10
0.0
 20
1.0
 30
0.0
  9
$PUCSORTHOREF
  2

  9
$PUCSORTHOVIEW
 70
     0
  9
$PUCSORGTOP
 10
0.0
 20
0.0
 30
0.0
  9
$PUCSORGBOTTOM
 10
0.0
 20
0.0
 30
0.0
  9
$PUCSORGLEFT
 10
0.0
 20
0.0
 30
0.0
  9
$PUCSORGRIGHT
 10
0.0
 20
0.0
 30
0.0
  9
$PUCSORGFRONT
 10
0.0
 20
0.0
 30
0.0
  9
$PUCSORGBACK
 10
0.0
 20
0.0
 30
0.0
  9
$USERI1
 70
     0
  9
$USERI2
 70
     0
  9
$USERI3
 70
     0
  9
$USERI4
 70
     0
  9
$USERI5
 70
     0
  9
$USERR1
 40
0.0
  9
$USERR2
 40
0.0
  9
$USERR3
 40
0.0
  9
$USERR4
 40
0.0
  9
$USERR5
 40
0.0
  9
$WORLDVIEW
 70
     1
  9
$SHADEDGE
 70
     3
  9
$SHADEDIF
 70
    70
  9
$TILEMODE
 70
     1
  9
$MAXACTVP
 70
    64
  9
$PINSBASE
 10
0.0
 20
0.0
 30
0.0
  9
$PLIMCHECK
 70
     0
  9
$PEXTMIN
 10
1.0000000000E+20
 20
1.0000000000E+20
 30
1.0000000000E+20
  9
$PEXTMAX
 10
-1.0000000000E+20
 20
-1.0000000000E+20
 30
-1.0000000000E+20
  9
$PLIMMIN
 10
0.0
 20
0.0
  9
$PLIMMAX
 10
12.0
 20
9.0
  9
$UNITMODE
 70
     0
  9
$VISRETAIN
 70
     1
  9
$PLINEGEN
 70
     0
  9
$PSLTSCALE
 70
     1
  9
$TREEDEPTH
 70
  3020
  9
$CMLSTYLE
  2
Standard
  9
$CMLJUST
 70
     0
  9
$CMLSCALE
 40
1.0
  9
$PROXYGRAPHICS
 70
     1
  9
$MEASUREMENT
 70
     0
  9
$CELWEIGHT
370
    -1
  9
$ENDCAPS
280
     0
  9
$JOINSTYLE
280
     0
  9
$LWDISPLAY
290
     1
  9
$INSUNITS
 70
     1
  9
$HYPERLINKBASE
  1

  9
$STYLESHEET
  1

  9
$XEDIT
290
     1
  9
$CEPSNTYPE
380
     0
  9
$PSTYLEMODE
290
     1
  9
$FINGERPRINTGUID
  2
{898468c7-db4d-4b64-8fb8-14d65a485d49}
  9
$VERSIONGUID
  2
{FAEB1C32-E019-11D5-929B-00C0DF256EC4}
  9
$EXTNAMES
290
     1
  9
$PSVPSCALE
 40
0.0
  9
$OLESTARTUP
290
     0
  0
ENDSEC
  0
SECTION
  2
CLASSES
  0
CLASS
  1
ACDBDICTIONARYWDFLT
  2
AcDbDictionaryWithDefault
  3
ObjectDBX Classes
 90
        0
280
     0
281
     0
  0
CLASS
  1
VISUALSTYLE
  2
AcDbVisualStyle
  3
ObjectDBX Classes
 90
     4095
280
     0
281
     0
  0
CLASS
  1
MATERIAL
  2
AcDbMaterial
  3
ObjectDBX Classes
 90
     1153
280
     0
281
     0
  0
CLASS
  1
SCALE
  2
AcDbScale
  3
ObjectDBX Classes
 90
     1153
280
     0
281
     0
  0
CLASS
  1
TABLESTYLE
  2
AcDbTableStyle
  3
ObjectDBX Classes
 90
     4095
280
     0
281
     0
  0
CLASS
  1
MLEADERSTYLE
  2
AcDbMLeaderStyle
  3
ACDB_MLEADERSTYLE_CLASS
 90
     4095
280
     0
281
     0
  0
CLASS
  1
SUN
  2
AcDbSun
  3
SCENEOE
 90
     1153
280
     0
281
     0
  0
CLASS
  1
ACDBPLACEHOLDER
  2
AcDbPlaceHolder
  3
ObjectDBX Classes
 90
        0
280
     0
281
     0
  0
CLASS
  1
LAYOUT
  2
AcDbLayout
  3
ObjectDBX Classes
 90
        0
280
     0
281
     0
  0
ENDSEC
  0
SECTION
  2
TABLES
  0
TABLE
  2
VPORT
  5
8
330
0
100
AcDbSymbolTable
 70
     1
  0
VPORT
  5
29
330
8
100
AcDbSymbolTableRecord
100
AcDbViewportTableRecord
  2
*Active
 70
     0
 10
0.0
 20
0.0
 11
1.0
 21
1.0
 12
11.0
 22
8.5
 13
0.0
 23
0.0
 14
0.5
 24
0.5
 15
0.5
 25
0.5
 16
0.0
 26
0.0
 36
1.0
 17
0.0
 27
0.0
 37
0.0
 40
17.0
 41
1.2941176471
 42
50.0
 43
0.0
 44
0.0
 50
0.0
 51
0.0
 71
     0
 72
  2000
 73
     1
 74
     3
 75
     0
 76
     0
 77
     0
 78
     0
281
     0
 65
     1
110
0.0
120
0.0
130
0.0
111
1.0
121
0.0
131
0.0
112
0.0
122
1.0
132
0.0
 79
     0
146
0.0
  0
ENDTAB
  0
TABLE
  2
LTYPE
  5
5
330
0
100
AcDbSymbolTable
 70
     6
  0
LTYPE
  5
14
330
5
100
AcDbSymbolTableRecord
100
AcDbLinetypeTableRecord
  2
ByBlock
 70
     0
  3

 72
    65
 73
     0
 40
0.0
  0
LTYPE
  5
15
330
5
100
AcDbSymbolTableRecord
100
AcDbLinetypeTableRecord
  2
ByLayer
 70
     0
  3

 72
    65
 73
     0
 40
0.0
  0
LTYPE
  5
16
330
5
100
AcDbSymbolTableRecord
100
AcDbLinetypeTableRecord
  2
Continuous
 70
     0
  3
Solid line
 72
    65
 73
     0
 40
0.0
  0
LTYPE
  5
5E
330
5
100
AcDbSymbolTableRecord
100
AcDbLinetypeTableRecord
  2
HIDDEN
 70
     0
  3
Hidden __ __ __ __ __ __ __ __ __ __ __ __ __ __
 72
    65
 73
     2
 40
0.075
 49
0.05
 74
     0
 49
-0.025
 74
     0
  0
LTYPE
  5
5F
330
5
100
AcDbSymbolTableRecord
100
AcDbLinetypeTableRecord
  2
PHANTOM
 70
     0
  3
Phantom ______  __  __  ______  __  __  ______
 72
    65
 73
     6
 40
0.5
 49
0.25
 74
     0
 49
-0.05
 74
     0
 49
0.05
 74
     0
 49
-0.05
 74
     0
 49
0.05
 74
     0
 49
-0.05
 74
     0
  0
LTYPE
  5
60
330
5
100
AcDbSymbolTableRecord
100
AcDbLinetypeTableRecord
  2
CENTER
 70
     0
  3
Center ____ _ ____ _ ____ _ ____ _ ____ _ ____
 72
    65
 73
     4
 40
0.4
 49
0.25
 74
     0
 49
-0.05
 74
     0
 49
0.05
 74
     0
 49
-0.05
 74
     0
  0
LTYPE
  5
61
330
5
100
AcDbSymbolTableRecord
100
AcDbLinetypeTableRecord
  2
CENTERX2
 70
     0
  3
Center (2x) ________  __  ________  __  _____
 72
    65
 73
     4
 40
0.8
 49
0.5
 74
     0
 49
-0.1
 74
     0
 49
0.1
 74
     0
 49
-0.1
 74
     0
  0
LTYPE
  5
62
330
5
100
AcDbSymbolTableRecord
100
AcDbLinetypeTableRecord
  2
DOT2
 70
     0
  3
Dot (.5x) ........................................
 72
    65
 73
     2
 40
0.025
 49
0.0
 74
     0
 49
-0.025
 74
     0
  0
ENDTAB
  0
TABLE
  2
LAYER
  5
2
330
0
100
AcDbSymbolTable
 70
    12
  0
LAYER
  5
10
330
2
100
AcDbSymbolTableRecord
100
AcDbLayerTableRecord
  2
0
 70
     0
 62
     7
  6
Continuous
370
    -3
390
F
  0
LAYER
  5
63
330
2
100
AcDbSymbolTableRecord
100
AcDbLayerTableRecord
  2
SLD-0
 70
     0
 62
     7
  6
Continuous
370
    -3
390
F
  0
LAYER
  5
64
330
2
100
AcDbSymbolTableRecord
100
AcDbLayerTableRecord
  2
DIM
 70
     0
 62
     7
  6
Continuous
370
    -3
390
F
  0
LAYER
  5
65
330
2
100
AcDbSymbolTableRecord
100
AcDbLayerTableRecord
  2
CEN
 70
     0
 62
     1
  6
CENTER
370
    -3
390
F
  0
LAYER
  5
66
330
2
100
AcDbSymbolTableRecord
100
AcDbLayerTableRecord
  2
HAT
 70
     0
 62
     4
  6
Continuous
370
    -3
390
F
  0
LAYER
  5
67
330
2
100
AcDbSymbolTableRecord
100
AcDbLayerTableRecord
  2
OBJ
 70
     0
 62
     5
  6
Continuous
370
    -3
390
F
  0
LAYER
  5
68
330
2
100
AcDbSymbolTableRecord
100
AcDbLayerTableRecord
  2
SLD-DEFPOINTS
 70
     0
 62
     7
  6
Continuous
370
    -3
390
F
  0
LAYER
  5
69
330
2
100
AcDbSymbolTableRecord
100
AcDbLayerTableRecord
  2
HID
 70
     0
 62
     4
  6
HIDDEN
370
    -3
390
F
  0
LAYER
  5
6A
330
2
100
AcDbSymbolTableRecord
100
AcDbLayerTableRecord
  2
NOTE
 70
     0
 62
     7
  6
Continuous
370
    -3
390
F
  0
LAYER
  5
6B
330
2
100
AcDbSymbolTableRecord
100
AcDbLayerTableRecord
  2
VP
 70
     0
 62
    -5
  6
Continuous
290
     0
370
    -3
390
F
  0
LAYER
  5
6C
330
2
100
AcDbSymbolTableRecord
100
AcDbLayerTableRecord
  2
TITLE
 70
     0
 62
     7
  6
Continuous
370
    -3
390
F
  0
LAYER
  5
6D
330
2
100
AcDbSymbolTableRecord
100
AcDbLayerTableRecord
  2
THICK_TITLE
 70
     0
 62
     7
  6
Continuous
370
   100
390
F
  0
ENDTAB
  0
TABLE
  2
STYLE
  5
3
330
0
100
AcDbSymbolTable
 70
     2
  0
STYLE
  5
11
330
3
100
AcDbSymbolTableRecord
100
AcDbTextStyleTableRecord
  2
STANDARD
 70
     0
 40
0.0
 41
1.0
 50
0.0
 71
     0
 42
0.25
  3
GOTHIC.TTF
  4

1001
ACAD
1000
CENTURY GOTHIC
1071
       34
  0
STYLE
  5
BF
330
3
100
AcDbSymbolTableRecord
100
AcDbTextStyleTableRecord
  2
SLDTEXTSTYLE0
 70
     0
 40
0.0
 41
0.913
 50
0.0
 71
     0
 42
0.25
  3
GOTHIC.TTF
  4

1001
ACAD
1000
Century Gothic
1071
      290
  0
ENDTAB
  0
TABLE
  2
VIEW
  5
6
330
0
100
AcDbSymbolTable
 70
     0
  0
ENDTAB
  0
TABLE
  2
UCS
  5
7
330
0
100
AcDbSymbolTable
 70
     0
  0
ENDTAB
  0
TABLE
  2
APPID
  5
9
330
0
100
AcDbSymbolTable
 70
     1
  0
APPID
  5
12
330
9
100
AcDbSymbolTableRecord
100
AcDbRegAppTableRecord
  2
ACAD
 70
     0
  0
ENDTAB
  0
TABLE
  2
DIMSTYLE
  5
A
330
0
100
AcDbSymbolTable
 70
     4
100
AcDbDimStyleTable
  0
DIMSTYLE
105
27
330
A
100
AcDbSymbolTableRecord
100
AcDbDimStyleTableRecord
  2
Standard
 70
     0
178
     0
340
11
  0
DIMSTYLE
105
C0
102
{ACAD_REACTORS
330
BE
330
1A4
102
}
330
A
100
AcDbSymbolTableRecord
100
AcDbDimStyleTableRecord
  2
SLDDIMSTYLE0
 70
     0
 41
0.26
 44
0.0
 45
0.000000001
 78
    12
 79
     3
140
0.25
147
0.0625
148
0.000000001
170
     1
173
     1
178
     0
271
     0
272
     0
276
     2
277
     5
284
    12
340
BF
  0
DIMSTYLE
105
D5
102
{ACAD_REACTORS
330
D4
330
E9
330
17D
330
190
330
32D
330
341
102
}
330
A
100
AcDbSymbolTableRecord
100
AcDbDimStyleTableRecord
  2
SLDDIMSTYLE1
 70
     0
 41
0.26
 44
0.0
 45
0.000000001
 78
    12
 79
     3
140
0.25
147
0.0625
148
0.000000001
170
     1
173
     1
178
     0
271
     6
272
     0
276
     2
277
     5
284
    12
340
BF
  0
DIMSTYLE
105
FF
330
A
100
AcDbSymbolTableRecord
100
AcDbDimStyleTableRecord
  2
SLDDIMSTYLE2
 70
     0
 41
0.26
 44
0.0
 45
0.000000001
146
0.26
147
0.0
173
     1
178
     0
271
     0
272
     0
276
     2
277
     5
340
11
  0
ENDTAB
  0
TABLE
  2
BLOCK_RECORD
  5
1
330
0
100
AcDbSymbolTable
 70
     9
  0
BLOCK_RECORD
  5
1F
330
1
100
AcDbSymbolTableRecord
100
AcDbBlockTableRecord
  2
*Model_Space
340
22
  0
BLOCK_RECORD
  5
1B
330
1
100
AcDbSymbolTableRecord
100
AcDbBlockTableRecord
  2
*Paper_Space
340
1E
  0
BLOCK_RECORD
  5
23
330
1
100
AcDbSymbolTableRecord
100
AcDbBlockTableRecord
  2
*Paper_Space0
340
26
  0
BLOCK_RECORD
  5
C1
330
1
100
AcDbSymbolTableRecord
100
AcDbBlockTableRecord
  2
_D
340
0
  0
BLOCK_RECORD
  5
D6
330
1
100
AcDbSymbolTableRecord
100
AcDbBlockTableRecord
  2
_D_1
340
0
  0
BLOCK_RECORD
  5
EA
330
1
100
AcDbSymbolTableRecord
100
AcDbBlockTableRecord
  2
_D_2
340
0
  0
BLOCK_RECORD
  5
17E
330
1
100
AcDbSymbolTableRecord
100
AcDbBlockTableRecord
  2
_D_3
340
0
  0
BLOCK_RECORD
  5
191
330
1
100
AcDbSymbolTableRecord
100
AcDbBlockTableRecord
  2
_D_4
340
0
  0
BLOCK_RECORD
  5
1A5
330
1
100
AcDbSymbolTableRecord
100
AcDbBlockTableRecord
  2
_D_5
340
0
  0
BLOCK_RECORD
  5
32E
330
1
100
AcDbSymbolTableRecord
100
AcDbBlockTableRecord
  2
_D_6
340
0
  0
BLOCK_RECORD
  5
342
330
1
100
AcDbSymbolTableRecord
100
AcDbBlockTableRecord
  2
_D_7
340
0
  0
ENDTAB
  0
ENDSEC
  0
SECTION
  2
BLOCKS
  0
BLOCK
  5
20
330
1F
100
AcDbEntity
  8
0
100
AcDbBlockBegin
  2
*Model_Space
 70
     0
 10
0.0
 20
0.0
 30
0.0
  3
*Model_Space
  1

  0
ENDBLK
  5
21
330
1F
100
AcDbEntity
  8
0
100
AcDbBlockEnd
  0
BLOCK
  5
1C
330
1B
100
AcDbEntity
 67
     1
  8
0
100
AcDbBlockBegin
  2
*Paper_Space
 70
     0
 10
0.0
 20
0.0
 30
0.0
  3
*Paper_Space
  1

  0
ENDBLK
  5
1D
330
1B
100
AcDbEntity
 67
     1
  8
0
100
AcDbBlockEnd
  0
BLOCK
  5
24
330
23
100
AcDbEntity
  8
0
100
AcDbBlockBegin
  2
*Paper_Space0
 70
     0
 10
0.0
 20
0.0
 30
0.0
  3
*Paper_Space0
  1

  0
ENDBLK
  5
25
330
23
100
AcDbEntity
  8
0
100
AcDbBlockEnd
  0
BLOCK
  5
C2
330
C1
100
AcDbEntity
  8
0
100
AcDbBlockBegin
  2
_D
 70
     0
 10
0.0
 20
0.0
 30
0.0
  3
_D
  1

  0
SOLID
  5
C4
330
C1
100
AcDbEntity
  8
0
  6
Continuous
 62
     7
370
    18
100
AcDbTrace
 10
6.4888888175
 20
8.008326082
 30
0.0
 11
6.2288888175
 21
8.048326082
 31
0.0
 12
6.2288888175
 22
7.968326082
 32
0.0
 13
6.2288888175
 23
7.968326082
 33
0.0
  0
SOLID
  5
C5
330
C1
100
AcDbEntity
  8
0
  6
Continuous
 62
     7
370
    18
100
AcDbTrace
 10
3.4595636333
 20
8.008326082
 30
0.0
 11
3.7195636333
 21
7.968326082
 31
0.0
 12
3.7195636333
 22
8.048326082
 32
0.0
 13
3.7195636333
 23
8.048326082
 33
0.0
  0
LINE
  5
C6
330
C1
100
AcDbEntity
  8
0
  6
Continuous
 62
     7
370
     0
100
AcDbLine
 10
4.4770040293
 20
8.0064163208
 30
0.0
 11
4.4008321551
 21
8.0064163208
 31
0.0
  0
LINE
  5
C7
330
C1
100
AcDbEntity
  8
0
  6
Continuous
 62
     7
370
     0
100
AcDbLine
 10
4.4008321551
 20
8.0064163208
 30
0.0
 11
4.4008321551
 21
7.6095413088
 31
0.0
  0
LINE
  5
C8
330
C1
100
AcDbEntity
  8
0
  6
Continuous
 62
     7
370
     0
100
AcDbLine
 10
4.4008321551
 20
7.6095413088
 30
0.0
 11
4.4770040293
 21
7.6095413088
 31
0.0
  0
LINE
  5
C9
330
C1
100
AcDbEntity
  8
0
  6
Continuous
 62
     7
370
     0
100
AcDbLine
 10
5.4714484947
 20
8.0064163208
 30
0.0
 11
5.547620369
 21
8.0064163208
 31
0.0
  0
LINE
  5
CA
330
C1
100
AcDbEntity
  8
0
  6
Continuous
 62
     7
370
     0
100
AcDbLine
 10
5.547620369
 20
8.0064163208
 30
0.0
 11
5.547620369
 21
7.6095413088
 31
0.0
  0
LINE
  5
CB
330
C1
100
AcDbEntity
  8
0
  6
Continuous
 62
     7
370
     0
100
AcDbLine
 10
5.547620369
 20
7.6095413088
 30
0.0
 11
5.4714484947
 21
7.6095413088
 31
0.0
  0
LINE
  5
CC
330
C1
100
AcDbEntity
  8
0
  6
Continuous
 62
     7
370
     0
100
AcDbLine
 10
6.4888888175
 20
7.2959245072
 30
0.0
 11
6.4888888175
 21
8.258326082
 31
0.0
  0
LINE
  5
CD
330
C1
100
AcDbEntity
  8
0
  6
Continuous
 62
     7
370
     0
100
AcDbLine
 10
3.4595636333
 20
7.0510829683
 30
0.0
 11
3.4595636333
 21
8.258326082
 31
0.0
  0
LINE
  5
CE
330
C1
100
AcDbEntity
  8
0
  6
Continuous
 62
     7
370
     0
100
AcDbLine
 10
6.4888888175
 20
8.008326082
 30
0.0
 11
5.7668469429
 21
8.008326082
 31
0.0
  0
LINE
  5
CF
330
C1
100
AcDbEntity
  8
0
  6
Continuous
 62
     7
370
     0
100
AcDbLine
 10
3.4595636333
 20
8.008326082
 30
0.0
 11
4.1816055078
 21
8.008326082
 31
0.0
  0
MTEXT
  5
D0
330
C1
100
AcDbEntity
  8
0
  6
Continuous
 62
     7
370
    18
100
AcDbMText
 10
4.2322991695
 20
8.3803529784
 30
0.0
 40
0.25
 41
0.0
 71
     1
 72
     1
  1
 
  7
SLDTEXTSTYLE0
 73
     1
 44
1.0
  0
MTEXT
  5
D1
330
C1
100
AcDbEntity
  8
0
  6
Continuous
 62
     7
370
    18
100
AcDbMText
 10
4.8303026321
 20
8.3765335154
 30
0.0
 40
0.25
 41
0.0
 71
     1
 72
     1
  1
3"
  7
SLDTEXTSTYLE0
 73
     1
 44
1.0
  0
MTEXT
  5
D2
330
C1
100
AcDbEntity
  8
0
  6
Continuous
 62
     7
370
    18
100
AcDbMText
 10
4.4770040293
 20
7.9288772738
 30
0.0
 40
0.25
 41
0.0
 71
     1
 72
     1
  1
77mm
  7
SLDTEXTSTYLE0
 73
     1
 44
1.0
  0
MTEXT
  5
D3
330
C1
100
AcDbEntity
  8
0
  6
Continuous
 62
     7
370
    18
100
AcDbMText
 10
5.6237921882
 20
8.3803529784
 30
0.0
 40
0.25
 41
0.0
 71
     1
 72
     1
  1
 
  7
SLDTEXTSTYLE0
 73
     1
 44
1.0
  0
ENDBLK
  5
C3
330
C1
100
AcDbEntity
  8
0
100
AcDbBlockEnd
  0
BLOCK
  5
D7
330
D6
100
AcDbEntity
  8
0
100
AcDbBlockBegin
  2
_D_1
 70
     0
 10
0.0
 20
0.0
 30
0.0
  3
_D_1
  1

  0
SOLID
  5
D9
330
D6
100
AcDbEntity
  8
0
  6
Continuous
 62
     7
370
    18
100
AcDbTrace
 10
2.2339653101
 20
6.9510829683
 30
0.0
 11
2.1939653101
 21
6.6910829683
 31
0.0
 12
2.2739653101
 22
6.6910829683
 32
0.0
 13
2.2739653101
 23
6.6910829683
 33
0.0
  0
SOLID
  5
DA
330
D6
100
AcDbEntity
  8
0
  6
Continuous
 62
     7
370
    18
100
AcDbTrace
 10
2.2339653101
 20
4.2407660462
 30
0.0
 11
2.2739653101
 21
4.5007660462
 31
0.0
 12
2.1939653101
 22
4.5007660462
 32
0.0
 13
2.1939653101
 23
4.5007660462
 33
0.0
  0
LINE
  5
DB
330
D6
100
AcDbEntity
  8
0
  6
Continuous
 62
     7
370
     0
100
AcDbLine
 10
1.736743114
 20
5.594014746
 30
0.0
 11
1.6605712398
 21
5.594014746
 31
0.0
  0
LINE
  5
DC
330
D6
100
AcDbEntity
  8
0
  6
Continuous
 62
     7
370
     0
100
AcDbLine
 10
1.6605712398
 20
5.594014746
 30
0.0
 11
1.6605712398
 21
5.197139734
 31
0.0
  0
LINE
  5
DD
330
D6
100
AcDbEntity
  8
0
  6
Continuous
 62
     7
370
     0
100
AcDbLine
 10
1.6605712398
 20
5.197139734
 30
0.0
 11
1.736743114
 21
5.197139734
 31
0.0
  0
LINE
  5
DE
330
D6
100
AcDbEntity
  8
0
  6
Continuous
 62
     7
370
     0
100
AcDbLine
 10
2.7311875795
 20
5.594014746
 30
0.0
 11
2.8073594537
 21
5.594014746
 31
0.0
  0
LINE
  5
DF
330
D6
100
AcDbEntity
  8
0
  6
Continuous
 62
     7
370
     0
100
AcDbLine
 10
2.8073594537
 20
5.594014746
 30
0.0
 11
2.8073594537
 21
5.197139734
 31
0.0
  0
LINE
  5
E0
330
D6
100
AcDbEntity
  8
0
  6
Continuous
 62
     7
370
     0
100
AcDbLine
 10
2.8073594537
 20
5.197139734
 30
0.0
 11
2.7311875795
 21
5.197139734
 31
0.0
  0
LINE
  5
E1
330
D6
100
AcDbEntity
  8
0
  6
Continuous
 62
     7
370
     0
100
AcDbLine
 10
3.3595636333
 20
6.9510829683
 30
0.0
 11
1.9839653101
 21
6.9510829683
 31
0.0
  0
LINE
  5
E2
330
D6
100
AcDbEntity
  8
0
  6
Continuous
 62
     7
370
     0
100
AcDbLine
 10
3.3595636333
 20
4.2407660462
 30
0.0
 11
1.9839653101
 21
4.2407660462
 31
0.0
  0
LINE
  5
E3
330
D6
100
AcDbEntity
  8
0
  6
Continuous
 62
     7
370
     0
100
AcDbLine
 10
2.2339653101
 20
6.9510829683
 30
0.0
 11
2.2339653101
 21
6.0454904505
 31
0.0
  0
LINE
  5
E4
330
D6
100
AcDbEntity
  8
0
  6
Continuous
 62
     7
370
     0
100
AcDbLine
 10
2.2339653101
 20
4.2407660462
 30
0.0
 11
2.2339653101
 21
5.146358564
 31
0.0
  0
MTEXT
  5
E5
330
D6
100
AcDbEntity
  8
0
  6
Continuous
 62
     7
370
    18
100
AcDbMText
 10
1.4920382542
 20
5.9679514036
 30
0.0
 40
0.25
 41
0.0
 71
     1
 72
     1
  1
 
  7
SLDTEXTSTYLE0
 73
     1
 44
1.0
  0
MTEXT
  5
E6
330
D6
100
AcDbEntity
  8
0
  6
Continuous
 62
     7
370
    18
100
AcDbMText
 10
1.6015000614
 20
5.9641319406
 30
0.0
 40
0.25
 41
0.0
 71
     1
 72
     1
  1
2 11/16"
  7
SLDTEXTSTYLE0
 73
     1
 44
1.0
  0
MTEXT
  5
E7
330
D6
100
AcDbEntity
  8
0
  6
Continuous
 62
     7
370
    18
100
AcDbMText
 10
1.736743114
 20
5.516475699
 30
0.0
 40
0.25
 41
0.0
 71
     1
 72
     1
  1
69mm
  7
SLDTEXTSTYLE0
 73
     1
 44
1.0
  0
MTEXT
  5
E8
330
D6
100
AcDbEntity
  8
0
  6
Continuous
 62
     7
370
    18
100
AcDbMText
 10
2.8835312729
 20
5.9679514036
 30
0.0
 40
0.25
 41
0.0
 71
     1
 72
     1
  1
 
  7
SLDTEXTSTYLE0
 73
     1
 44
1.0
  0
ENDBLK
  5
D8
330
D6
100
AcDbEntity
  8
0
100
AcDbBlockEnd
  0
BLOCK
  5
EB
330
EA
100
AcDbEntity
  8
0
100
AcDbBlockBegin
  2
_D_2
 70
     0
 10
0.0
 20
0.0
 30
0.0
  3
_D_2
  1

  0
SOLID
  5
ED
330
EA
100
AcDbEntity
  8
0
  6
Continuous
 62
     7
370
    18
100
AcDbTrace
 10
6.4888888175
 20
8.008326082
 30
0.0
 11
6.7488888175
 21
7.968326082
 31
0.0
 12
6.7488888175
 22
8.048326082
 32
0.0
 13
6.7488888175
 23
8.048326082
 33
0.0
  0
SOLID
  5
EE
330
EA
100
AcDbEntity
  8
0
  6
Continuous
 62
     7
370
    18
100
AcDbTrace
 10
8.1888888175
 20
8.008326082
 30
0.0
 11
7.9288888175
 21
8.048326082
 31
0.0
 12
7.9288888175
 22
7.968326082
 32
0.0
 13
7.9288888175
 23
7.968326082
 33
0.0
  0
LINE
  5
EF
330
EA
100
AcDbEntity
  8
0
  6
Continuous
 62
     7
370
     0
100
AcDbLine
 10
8.7370231835
 20
8.0064163208
 30
0.0
 11
8.6608513093
 21
8.0064163208
 31
0.0
  0
LINE
  5
F0
330
EA
100
AcDbEntity
  8
0
  6
Continuous
 62
     7
370
     0
100
AcDbLine
 10
8.6608513093
 20
8.0064163208
 30
0.0
 11
8.6608513093
 21
7.6095413088
 31
0.0
  0
LINE
  5
F1
330
EA
100
AcDbEntity
  8
0
  6
Continuous
 62
     7
370
     0
100
AcDbLine
 10
8.6608513093
 20
7.6095413088
 30
0.0
 11
8.7370231835
 21
7.6095413088
 31
0.0
  0
LINE
  5
F2
330
EA
100
AcDbEntity
  8
0
  6
Continuous
 62
     7
370
     0
100
AcDbLine
 10
9.7314676489
 20
8.0064163208
 30
0.0
 11
9.8076395231
 21
8.0064163208
 31
0.0
  0
LINE
  5
F3
330
EA
100
AcDbEntity
  8
0
  6
Continuous
 62
     7
370
     0
100
AcDbLine
 10
9.8076395231
 20
8.0064163208
 30
0.0
 11
9.8076395231
 21
7.6095413088
 31
0.0
  0
LINE
  5
F4
330
EA
100
AcDbEntity
  8
0
  6
Continuous
 62
     7
370
     0
100
AcDbLine
 10
9.8076395231
 20
7.6095413088
 30
0.0
 11
9.7314676489
 21
7.6095413088
 31
0.0
  0
LINE
  5
F5
330
EA
100
AcDbEntity
  8
0
  6
Continuous
 62
     7
370
     0
100
AcDbLine
 10
6.4888888175
 20
7.2959245072
 30
0.0
 11
6.4888888175
 21
8.258326082
 31
0.0
  0
LINE
  5
F6
330
EA
100
AcDbEntity
  8
0
  6
Continuous
 62
     7
370
     0
100
AcDbLine
 10
8.1888888175
 20
5.2259245072
 30
0.0
 11
8.1888888175
 21
8.258326082
 31
0.0
  0
LINE
  5
F7
330
EA
100
AcDbEntity
  8
0
  6
Continuous
 62
     7
370
     0
100
AcDbLine
 10
6.4888888175
 20
8.008326082
 30
0.0
 11
8.1888888175
 21
8.008326082
 31
0.0
  0
LINE
  5
F8
330
EA
100
AcDbEntity
  8
0
  6
Continuous
 62
     7
370
     0
100
AcDbLine
 10
8.1888888175
 20
8.008326082
 30
0.0
 11
8.441624662
 21
8.008326082
 31
0.0
  0
MTEXT
  5
F9
330
EA
100
AcDbEntity
  8
0
  6
Continuous
 62
     7
370
    18
100
AcDbMText
 10
8.4923183237
 20
8.3803529784
 30
0.0
 40
0.25
 41
0.0
 71
     1
 72
     1
  1
 
  7
SLDTEXTSTYLE0
 73
     1
 44
1.0
  0
MTEXT
  5
FA
330
EA
100
AcDbEntity
  8
0
  6
Continuous
 62
     7
370
    18
100
AcDbMText
 10
8.6017801308
 20
8.3765335154
 30
0.0
 40
0.25
 41
0.0
 71
     1
 72
     1
  1
1 11/16"
  7
SLDTEXTSTYLE0
 73
     1
 44
1.0
  0
MTEXT
  5
FB
330
EA
100
AcDbEntity
  8
0
  6
Continuous
 62
     7
370
    18
100
AcDbMText
 10
8.7370231835
 20
7.9288772738
 30
0.0
 40
0.25
 41
0.0
 71
     1
 72
     1
  1
43mm
  7
SLDTEXTSTYLE0
 73
     1
 44
1.0
  0
MTEXT
  5
FC
330
EA
100
AcDbEntity
  8
0
  6
Continuous
 62
     7
370
    18
100
AcDbMText
 10
9.8838113424
 20
8.3803529784
 30
0.0
 40
0.25
 41
0.0
 71
     1
 72
     1
  1
 
  7
SLDTEXTSTYLE0
 73
     1
 44
1.0
  0
ENDBLK
  5
EC
330
EA
100
AcDbEntity
  8
0
100
AcDbBlockEnd
  0
BLOCK
  5
17F
330
17E
100
AcDbEntity
  8
0
100
AcDbBlockBegin
  2
_D_3
 70
     0
 10
0.0
 20
0.0
 30
0.0
  3
_D_3
  1

  0
SOLID
  5
181
330
17E
100
AcDbEntity
  8
0
  6
Continuous
 62
     7
370
    18
100
AcDbTrace
 10
13.9665461274
 20
8.008326082
 30
0.0
 11
14.2265461274
 21
7.968326082
 31
0.0
 12
14.2265461274
 22
8.048326082
 32
0.0
 13
14.2265461274
 23
8.048326082
 33
0.0
  0
SOLID
  5
182
330
17E
100
AcDbEntity
  8
0
  6
Continuous
 62
     7
370
    18
100
AcDbTrace
 10
17.2795461274
 20
8.008326082
 30
0.0
 11
17.0195461274
 21
8.048326082
 31
0.0
 12
17.0195461274
 22
7.968326082
 32
0.0
 13
17.0195461274
 23
7.968326082
 33
0.0
  0
LINE
  5
183
330
17E
100
AcDbEntity
  8
0
  6
Continuous
 62
     7
370
     0
100
AcDbLine
 10
14.7070739305
 20
8.0064163208
 30
0.0
 11
14.6309020562
 21
8.0064163208
 31
0.0
  0
LINE
  5
184
330
17E
100
AcDbEntity
  8
0
  6
Continuous
 62
     7
370
     0
100
AcDbLine
 10
14.6309020562
 20
8.0064163208
 30
0.0
 11
14.6309020562
 21
7.6095413088
 31
0.0
  0
LINE
  5
185
330
17E
100
AcDbEntity
  8
0
  6
Continuous
 62
     7
370
     0
100
AcDbLine
 10
14.6309020562
 20
7.6095413088
 30
0.0
 11
14.7070739305
 21
7.6095413088
 31
0.0
  0
LINE
  5
186
330
17E
100
AcDbEntity
  8
0
  6
Continuous
 62
     7
370
     0
100
AcDbLine
 10
15.7015183959
 20
8.0064163208
 30
0.0
 11
15.7776902701
 21
8.0064163208
 31
0.0
  0
LINE
  5
187
330
17E
100
AcDbEntity
  8
0
  6
Continuous
 62
     7
370
     0
100
AcDbLine
 10
15.7776902701
 20
8.0064163208
 30
0.0
 11
15.7776902701
 21
7.6095413088
 31
0.0
  0
LINE
  5
188
330
17E
100
AcDbEntity
  8
0
  6
Continuous
 62
     7
370
     0
100
AcDbLine
 10
15.7776902701
 20
7.6095413088
 30
0.0
 11
15.7015183959
 21
7.6095413088
 31
0.0
  0
LINE
  5
189
330
17E
100
AcDbEntity
  8
0
  6
Continuous
 62
     7
370
     0
100
AcDbLine
 10
13.9665461274
 20
5.6959245072
 30
0.0
 11
13.9665461274
 21
8.258326082
 31
0.0
  0
LINE
  5
18A
330
17E
100
AcDbEntity
  8
0
  6
Continuous
 62
     7
370
     0
100
AcDbLine
 10
17.2795461274
 20
5.6959245072
 30
0.0
 11
17.2795461274
 21
8.258326082
 31
0.0
  0
LINE
  5
18B
330
17E
100
AcDbEntity
  8
0
  6
Continuous
 62
     7
370
     0
100
AcDbLine
 10
13.9665461274
 20
8.008326082
 30
0.0
 11
14.5040365203
 21
8.008326082
 31
0.0
  0
LINE
  5
18C
330
17E
100
AcDbEntity
  8
0
  6
Continuous
 62
     7
370
     0
100
AcDbLine
 10
17.2795461274
 20
8.008326082
 30
0.0
 11
16.7420557345
 21
8.008326082
 31
0.0
  0
MTEXT
  5
18D
330
17E
100
AcDbEntity
  8
0
  6
Continuous
 62
     7
370
    18
100
AcDbMText
 10
14.6641919708
 20
8.3765335154
 30
0.0
 40
0.25
 41
0.0
 71
     1
 72
     1
  1
3 5/16"
  7
SLDTEXTSTYLE0
 73
     1
 44
1.0
  0
MTEXT
  5
18E
330
17E
100
AcDbEntity
  8
0
  6
Continuous
 62
     7
370
    18
100
AcDbMText
 10
14.7070739305
 20
7.9288772738
 30
0.0
 40
0.25
 41
0.0
 71
     1
 72
     1
  1
84mm
  7
SLDTEXTSTYLE0
 73
     1
 44
1.0
  0
MTEXT
  5
18F
330
17E
100
AcDbEntity
  8
0
  6
Continuous
 62
     7
370
    18
100
AcDbMText
 10
15.8538621077
 20
8.3803529784
 30
0.0
 40
0.25
 41
0.0
 71
     1
 72
     1
  1
 O.C.
  7
SLDTEXTSTYLE0
 73
     1
 44
1.0
  0
ENDBLK
  5
180
330
17E
100
AcDbEntity
  8
0
100
AcDbBlockEnd
  0
BLOCK
  5
192
330
191
100
AcDbEntity
  8
0
100
AcDbBlockBegin
  2
_D_4
 70
     0
 10
0.0
 20
0.0
 30
0.0
  3
_D_4
  1

  0
SOLID
  5
194
330
191
100
AcDbEntity
  8
0
  6
Continuous
 62
     7
370
    18
100
AcDbTrace
 10
12.1832673409
 20
7.1959245072
 30
0.0
 11
12.1432673409
 21
6.9359245072
 31
0.0
 12
12.2232673409
 22
6.9359245072
 32
0.0
 13
12.2232673409
 23
6.9359245072
 33
0.0
  0
SOLID
  5
195
330
191
100
AcDbEntity
  8
0
  6
Continuous
 62
     7
370
    18
100
AcDbTrace
 10
12.1832673409
 20
3.9959245072
 30
0.0
 11
12.2232673409
 21
4.2559245072
 31
0.0
 12
12.1432673409
 22
4.2559245072
 32
0.0
 13
12.1432673409
 23
4.2559245072
 33
0.0
  0
LINE
  5
196
330
191
100
AcDbEntity
  8
0
  6
Continuous
 62
     7
370
     0
100
AcDbLine
 10
11.6860451449
 20
5.594014746
 30
0.0
 11
11.6098732706
 21
5.594014746
 31
0.0
  0
LINE
  5
197
330
191
100
AcDbEntity
  8
0
  6
Continuous
 62
     7
370
     0
100
AcDbLine
 10
11.6098732706
 20
5.594014746
 30
0.0
 11
11.6098732706
 21
5.197139734
 31
0.0
  0
LINE
  5
198
330
191
100
AcDbEntity
  8
0
  6
Continuous
 62
     7
370
     0
100
AcDbLine
 10
11.6098732706
 20
5.197139734
 30
0.0
 11
11.6860451449
 21
5.197139734
 31
0.0
  0
LINE
  5
199
330
191
100
AcDbEntity
  8
0
  6
Continuous
 62
     7
370
     0
100
AcDbLine
 10
12.6804896103
 20
5.594014746
 30
0.0
 11
12.7566614845
 21
5.594014746
 31
0.0
  0
LINE
  5
19A
330
191
100
AcDbEntity
  8
0
  6
Continuous
 62
     7
370
     0
100
AcDbLine
 10
12.7566614845
 20
5.594014746
 30
0.0
 11
12.7566614845
 21
5.197139734
 31
0.0
  0
LINE
  5
19B
330
191
100
AcDbEntity
  8
0
  6
Continuous
 62
     7
370
     0
100
AcDbLine
 10
12.7566614845
 20
5.197139734
 30
0.0
 11
12.6804896103
 21
5.197139734
 31
0.0
  0
LINE
  5
19C
330
191
100
AcDbEntity
  8
0
  6
Continuous
 62
     7
370
     0
100
AcDbLine
 10
13.0220350658
 20
7.1959245072
 30
0.0
 11
11.9332673409
 21
7.1959245072
 31
0.0
  0
LINE
  5
19D
330
191
100
AcDbEntity
  8
0
  6
Continuous
 62
     7
370
     0
100
AcDbLine
 10
13.0220350658
 20
3.9959245072
 30
0.0
 11
11.9332673409
 21
3.9959245072
 31
0.0
  0
LINE
  5
19E
330
191
100
AcDbEntity
  8
0
  6
Continuous
 62
     7
370
     0
100
AcDbLine
 10
12.1832673409
 20
7.1959245072
 30
0.0
 11
12.1832673409
 21
6.0454904505
 31
0.0
  0
LINE
  5
19F
330
191
100
AcDbEntity
  8
0
  6
Continuous
 62
     7
370
     0
100
AcDbLine
 10
12.1832673409
 20
3.9959245072
 30
0.0
 11
12.1832673409
 21
5.146358564
 31
0.0
  0
MTEXT
  5
1A0
330
191
100
AcDbEntity
  8
0
  6
Continuous
 62
     7
370
    18
100
AcDbMText
 10
11.441340285
 20
5.9679514036
 30
0.0
 40
0.25
 41
0.0
 71
     1
 72
     1
  1
 
  7
SLDTEXTSTYLE0
 73
     1
 44
1.0
  0
MTEXT
  5
1A1
330
191
100
AcDbEntity
  8
0
  6
Continuous
 62
     7
370
    18
100
AcDbMText
 10
11.6431631852
 20
5.9641319406
 30
0.0
 40
0.25
 41
0.0
 71
     1
 72
     1
  1
3 3/16"
  7
SLDTEXTSTYLE0
 73
     1
 44
1.0
  0
MTEXT
  5
1A2
330
191
100
AcDbEntity
  8
0
  6
Continuous
 62
     7
370
    18
100
AcDbMText
 10
11.6860451449
 20
5.516475699
 30
0.0
 40
0.25
 41
0.0
 71
     1
 72
     1
  1
81mm
  7
SLDTEXTSTYLE0
 73
     1
 44
1.0
  0
MTEXT
  5
1A3
330
191
100
AcDbEntity
  8
0
  6
Continuous
 62
     7
370
    18
100
AcDbMText
 10
12.8328333037
 20
5.9679514036
 30
0.0
 40
0.25
 41
0.0
 71
     1
 72
     1
  1
 
  7
SLDTEXTSTYLE0
 73
     1
 44
1.0
  0
ENDBLK
  5
193
330
191
100
AcDbEntity
  8
0
100
AcDbBlockEnd
  0
BLOCK
  5
1A6
330
1A5
100
AcDbEntity
  8
0
100
AcDbBlockBegin
  2
_D_5
 70
     0
 10
0.0
 20
0.0
 30
0.0
  3
_D_5
  1

  0
SOLID
  5
1A8
330
1A5
100
AcDbEntity
  8
0
  6
Continuous
 62
     7
370
    18
100
AcDbTrace
 10
13.1220350658
 20
9.1476995869
 30
0.0
 11
13.3820350658
 21
9.1076995869
 31
0.0
 12
13.3820350658
 22
9.1876995869
 32
0.0
 13
13.3820350658
 23
9.1876995869
 33
0.0
  0
SOLID
  5
1A9
330
1A5
100
AcDbEntity
  8
0
  6
Continuous
 62
     7
370
    18
100
AcDbTrace
 10
18.124057189
 20
9.1476995869
 30
0.0
 11
17.864057189
 21
9.1876995869
 31
0.0
 12
17.864057189
 22
9.1076995869
 32
0.0
 13
17.864057189
 23
9.1076995869
 33
0.0
  0
LINE
  5
1AA
330
1A5
100
AcDbEntity
  8
0
  6
Continuous
 62
     7
370
     0
100
AcDbLine
 10
15.0334628383
 20
9.1457898256
 30
0.0
 11
14.9572909641
 21
9.1457898256
 31
0.0
  0
LINE
  5
1AB
330
1A5
100
AcDbEntity
  8
0
  6
Continuous
 62
     7
370
     0
100
AcDbLine
 10
14.9572909641
 20
9.1457898256
 30
0.0
 11
14.9572909641
 21
8.7489148137
 31
0.0
  0
LINE
  5
1AC
330
1A5
100
AcDbEntity
  8
0
  6
Continuous
 62
     7
370
     0
100
AcDbLine
 10
14.9572909641
 20
8.7489148137
 30
0.0
 11
15.0334628383
 21
8.7489148137
 31
0.0
  0
LINE
  5
1AD
330
1A5
100
AcDbEntity
  8
0
  6
Continuous
 62
     7
370
     0
100
AcDbLine
 10
16.2126294898
 20
9.1457898256
 30
0.0
 11
16.288801364
 21
9.1457898256
 31
0.0
  0
LINE
  5
1AE
330
1A5
100
AcDbEntity
  8
0
  6
Continuous
 62
     7
370
     0
100
AcDbLine
 10
16.288801364
 20
9.1457898256
 30
0.0
 11
16.288801364
 21
8.7489148137
 31
0.0
  0
LINE
  5
1AF
330
1A5
100
AcDbEntity
  8
0
  6
Continuous
 62
     7
370
     0
100
AcDbLine
 10
16.288801364
 20
8.7489148137
 30
0.0
 11
16.2126294898
 21
8.7489148137
 31
0.0
  0
LINE
  5
1B0
330
1A5
100
AcDbEntity
  8
0
  6
Continuous
 62
     7
370
     0
100
AcDbLine
 10
13.1220350658
 20
7.2959245072
 30
0.0
 11
13.1220350658
 21
9.3976995869
 31
0.0
  0
LINE
  5
1B1
330
1A5
100
AcDbEntity
  8
0
  6
Continuous
 62
     7
370
     0
100
AcDbLine
 10
18.124057189
 20
7.2959245072
 30
0.0
 11
18.124057189
 21
9.3976995869
 31
0.0
  0
LINE
  5
1B2
330
1A5
100
AcDbEntity
  8
0
  6
Continuous
 62
     7
370
     0
100
AcDbLine
 10
13.1220350658
 20
9.1476995869
 30
0.0
 11
14.7380643168
 21
9.1476995869
 31
0.0
  0
LINE
  5
1B3
330
1A5
100
AcDbEntity
  8
0
  6
Continuous
 62
     7
370
     0
100
AcDbLine
 10
18.124057189
 20
9.1476995869
 30
0.0
 11
16.508027938
 21
9.1476995869
 31
0.0
  0
MTEXT
  5
1B4
330
1A5
100
AcDbEntity
  8
0
  6
Continuous
 62
     7
370
    18
100
AcDbMText
 10
14.7887579785
 20
9.5197264832
 30
0.0
 40
0.25
 41
0.0
 71
     1
 72
     1
  1
 
  7
SLDTEXTSTYLE0
 73
     1
 44
1.0
  0
MTEXT
  5
1B5
330
1A5
100
AcDbEntity
  8
0
  6
Continuous
 62
     7
370
    18
100
AcDbMText
 10
15.4791225342
 20
9.5159070203
 30
0.0
 40
0.25
 41
0.0
 71
     1
 72
     1
  1
5"
  7
SLDTEXTSTYLE0
 73
     1
 44
1.0
  0
MTEXT
  5
1B6
330
1A5
100
AcDbEntity
  8
0
  6
Continuous
 62
     7
370
    18
100
AcDbMText
 10
15.0334628383
 20
9.0682507787
 30
0.0
 40
0.25
 41
0.0
 71
     1
 72
     1
  1
127mm
  7
SLDTEXTSTYLE0
 73
     1
 44
1.0
  0
MTEXT
  5
1B7
330
1A5
100
AcDbEntity
  8
0
  6
Continuous
 62
     7
370
    18
100
AcDbMText
 10
16.3649731833
 20
9.5197264832
 30
0.0
 40
0.25
 41
0.0
 71
     1
 72
     1
  1
 
  7
SLDTEXTSTYLE0
 73
     1
 44
1.0
  0
ENDBLK
  5
1A7
330
1A5
100
AcDbEntity
  8
0
100
AcDbBlockEnd
  0
BLOCK
  5
32F
330
32E
100
AcDbEntity
  8
0
100
AcDbBlockBegin
  2
_D_6
 70
     0
 10
0.0
 20
0.0
 30
0.0
  3
_D_6
  1

  0
SOLID
  5
331
330
32E
100
AcDbEntity
  8
0
  6
Continuous
 62
     7
370
    18
100
AcDbTrace
 10
2.9172341484
 20
15.4237596979
 30
0.0
 11
3.1772341484
 21
15.3837596979
 31
0.0
 12
3.1772341484
 22
15.4637596979
 32
0.0
 13
3.1772341484
 23
15.4637596979
 33
0.0
  0
SOLID
  5
332
330
32E
100
AcDbEntity
  8
0
  6
Continuous
 62
     7
370
    18
100
AcDbTrace
 10
7.6293931181
 20
15.4237596979
 30
0.0
 11
7.3693931181
 21
15.4637596979
 31
0.0
 12
7.3693931181
 22
15.3837596979
 32
0.0
 13
7.3693931181
 23
15.3837596979
 33
0.0
  0
LINE
  5
333
330
32E
100
AcDbEntity
  8
0
  6
Continuous
 62
     7
370
     0
100
AcDbLine
 10
4.6837303442
 20
15.4218499366
 30
0.0
 11
4.60755847
 21
15.4218499366
 31
0.0
  0
LINE
  5
334
330
32E
100
AcDbEntity
  8
0
  6
Continuous
 62
     7
370
     0
100
AcDbLine
 10
4.60755847
 20
15.4218499366
 30
0.0
 11
4.60755847
 21
15.0249749246
 31
0.0
  0
LINE
  5
335
330
32E
100
AcDbEntity
  8
0
  6
Continuous
 62
     7
370
     0
100
AcDbLine
 10
4.60755847
 20
15.0249749246
 30
0.0
 11
4.6837303442
 21
15.0249749246
 31
0.0
  0
LINE
  5
336
330
32E
100
AcDbEntity
  8
0
  6
Continuous
 62
     7
370
     0
100
AcDbLine
 10
5.8628969957
 20
15.4218499366
 30
0.0
 11
5.9390688699
 21
15.4218499366
 31
0.0
  0
LINE
  5
337
330
32E
100
AcDbEntity
  8
0
  6
Continuous
 62
     7
370
     0
100
AcDbLine
 10
5.9390688699
 20
15.4218499366
 30
0.0
 11
5.9390688699
 21
15.0249749246
 31
0.0
  0
LINE
  5
338
330
32E
100
AcDbEntity
  8
0
  6
Continuous
 62
     7
370
     0
100
AcDbLine
 10
5.9390688699
 20
15.0249749246
 30
0.0
 11
5.8628969957
 21
15.0249749246
 31
0.0
  0
LINE
  5
339
330
32E
100
AcDbEntity
  8
0
  6
Continuous
 62
     7
370
     0
100
AcDbLine
 10
2.9172341484
 20
14.736358123
 30
0.0
 11
2.9172341484
 21
15.6737596979
 31
0.0
  0
LINE
  5
33A
330
32E
100
AcDbEntity
  8
0
  6
Continuous
 62
     7
370
     0
100
AcDbLine
 10
7.6293931181
 20
14.736358123
 30
0.0
 11
7.6293931181
 21
15.6737596979
 31
0.0
  0
LINE
  5
33B
330
32E
100
AcDbEntity
  8
0
  6
Continuous
 62
     7
370
     0
100
AcDbLine
 10
2.9172341484
 20
15.4237596979
 30
0.0
 11
4.3883318227
 21
15.4237596979
 31
0.0
  0
LINE
  5
33C
330
32E
100
AcDbEntity
  8
0
  6
Continuous
 62
     7
370
     0
100
AcDbLine
 10
7.6293931181
 20
15.4237596979
 30
0.0
 11
6.1582954438
 21
15.4237596979
 31
0.0
  0
MTEXT
  5
33D
330
32E
100
AcDbEntity
  8
0
  6
Continuous
 62
     7
370
    18
100
AcDbMText
 10
4.4390254844
 20
15.7957865942
 30
0.0
 40
0.25
 41
0.0
 71
     1
 72
     1
  1
 
  7
SLDTEXTSTYLE0
 73
     1
 44
1.0
  0
MTEXT
  5
33E
330
32E
100
AcDbEntity
  8
0
  6
Continuous
 62
     7
370
    18
100
AcDbMText
 10
4.6408483845
 20
15.7919671312
 30
0.0
 40
0.25
 41
0.0
 71
     1
 72
     1
  1
4 11/16"
  7
SLDTEXTSTYLE0
 73
     1
 44
1.0
  0
MTEXT
  5
33F
330
32E
100
AcDbEntity
  8
0
  6
Continuous
 62
     7
370
    18
100
AcDbMText
 10
4.6837303442
 20
15.3443108896
 30
0.0
 40
0.25
 41
0.0
 71
     1
 72
     1
  1
120mm
  7
SLDTEXTSTYLE0
 73
     1
 44
1.0
  0
MTEXT
  5
340
330
32E
100
AcDbEntity
  8
0
  6
Continuous
 62
     7
370
    18
100
AcDbMText
 10
6.0152406891
 20
15.7957865942
 30
0.0
 40
0.25
 41
0.0
 71
     1
 72
     1
  1
 
  7
SLDTEXTSTYLE0
 73
     1
 44
1.0
  0
ENDBLK
  5
330
330
32E
100
AcDbEntity
  8
0
100
AcDbBlockEnd
  0
BLOCK
  5
343
330
342
100
AcDbEntity
  8
0
100
AcDbBlockBegin
  2
_D_7
 70
     0
 10
0.0
 20
0.0
 30
0.0
  3
_D_7
  1

  0
SOLID
  5
345
330
342
100
AcDbEntity
  8
0
  6
Continuous
 62
     7
370
    18
100
AcDbTrace
 10
2.1298325736
 20
14.636358123
 30
0.0
 11
2.0898325736
 21
14.376358123
 31
0.0
 12
2.1698325736
 22
14.376358123
 32
0.0
 13
2.1698325736
 23
14.376358123
 33
0.0
  0
SOLID
  5
346
330
342
100
AcDbEntity
  8
0
  6
Continuous
 62
     7
370
    18
100
AcDbTrace
 10
2.1298325736
 20
11.6841991534
 30
0.0
 11
2.1698325736
 21
11.9441991534
 31
0.0
 12
2.0898325736
 22
11.9441991534
 32
0.0
 13
2.0898325736
 23
11.9441991534
 33
0.0
  0
LINE
  5
347
330
342
100
AcDbEntity
  8
0
  6
Continuous
 62
     7
370
     0
100
AcDbLine
 10
1.6326103776
 20
13.1583688769
 30
0.0
 11
1.5564385033
 21
13.1583688769
 31
0.0
  0
LINE
  5
348
330
342
100
AcDbEntity
  8
0
  6
Continuous
 62
     7
370
     0
100
AcDbLine
 10
1.5564385033
 20
13.1583688769
 30
0.0
 11
1.5564385033
 21
12.761493865
 31
0.0
  0
LINE
  5
349
330
342
100
AcDbEntity
  8
0
  6
Continuous
 62
     7
370
     0
100
AcDbLine
 10
1.5564385033
 20
12.761493865
 30
0.0
 11
1.6326103776
 21
12.761493865
 31
0.0
  0
LINE
  5
34A
330
342
100
AcDbEntity
  8
0
  6
Continuous
 62
     7
370
     0
100
AcDbLine
 10
2.627054843
 20
13.1583688769
 30
0.0
 11
2.7032267172
 21
13.1583688769
 31
0.0
  0
LINE
  5
34B
330
342
100
AcDbEntity
  8
0
  6
Continuous
 62
     7
370
     0
100
AcDbLine
 10
2.7032267172
 20
13.1583688769
 30
0.0
 11
2.7032267172
 21
12.761493865
 31
0.0
  0
LINE
  5
34C
330
342
100
AcDbEntity
  8
0
  6
Continuous
 62
     7
370
     0
100
AcDbLine
 10
2.7032267172
 20
12.761493865
 30
0.0
 11
2.627054843
 21
12.761493865
 31
0.0
  0
LINE
  5
34D
330
342
100
AcDbEntity
  8
0
  6
Continuous
 62
     7
370
     0
100
AcDbLine
 10
2.8172341484
 20
14.636358123
 30
0.0
 11
1.8798325736
 21
14.636358123
 31
0.0
  0
LINE
  5
34E
330
342
100
AcDbEntity
  8
0
  6
Continuous
 62
     7
370
     0
100
AcDbLine
 10
2.8172341484
 20
11.6841991534
 30
0.0
 11
1.8798325736
 21
11.6841991534
 31
0.0
  0
LINE
  5
34F
330
342
100
AcDbEntity
  8
0
  6
Continuous
 62
     7
370
     0
100
AcDbLine
 10
2.1298325736
 20
14.636358123
 30
0.0
 11
2.1298325736
 21
13.6098445814
 31
0.0
  0
LINE
  5
350
330
342
100
AcDbEntity
  8
0
  6
Continuous
 62
     7
370
     0
100
AcDbLine
 10
2.1298325736
 20
11.6841991534
 30
0.0
 11
2.1298325736
 21
12.710712695
 31
0.0
  0
MTEXT
  5
351
330
342
100
AcDbEntity
  8
0
  6
Continuous
 62
     7
370
    18
100
AcDbMText
 10
1.3879055177
 20
13.5323055345
 30
0.0
 40
0.25
 41
0.0
 71
     1
 72
     1
  1
 
  7
SLDTEXTSTYLE0
 73
     1
 44
1.0
  0
MTEXT
  5
352
330
342
100
AcDbEntity
  8
0
  6
Continuous
 62
     7
370
    18
100
AcDbMText
 10
1.4973673249
 20
13.5284860716
 30
0.0
 40
0.25
 41
0.0
 71
     1
 72
     1
  1
2 15/16"
  7
SLDTEXTSTYLE0
 73
     1
 44
1.0
  0
MTEXT
  5
353
330
342
100
AcDbEntity
  8
0
  6
Continuous
 62
     7
370
    18
100
AcDbMText
 10
1.6326103776
 20
13.08082983
 30
0.0
 40
0.25
 41
0.0
 71
     1
 72
     1
  1
75mm
  7
SLDTEXTSTYLE0
 73
     1
 44
1.0
  0
MTEXT
  5
354
330
342
100
AcDbEntity
  8
0
  6
Continuous
 62
     7
370
    18
100
AcDbMText
 10
2.7793985364
 20
13.5323055345
 30
0.0
 40
0.25
 41
0.0
 71
     1
 72
     1
  1
 
  7
SLDTEXTSTYLE0
 73
     1
 44
1.0
  0
ENDBLK
  5
344
330
342
100
AcDbEntity
  8
0
100
AcDbBlockEnd
  0
ENDSEC
  0
SECTION
  2
ENTITIES
  0
LINE
  5
6E
330
1F
100
AcDbEntity
  8
0
  6
Continuous
 62
     7
370
    25
100
AcDbLine
 10
6.4888888175
 20
7.1959245072
 30
0.0
 11
6.8399358024
 21
7.1959245072
 31
0.0
  0
LINE
  5
6F
330
1F
100
AcDbEntity
  8
0
  6
Continuous
 62
     7
370
    25
100
AcDbLine
 10
6.8399358024
 20
3.9959245072
 30
0.0
 11
6.8399358024
 21
7.1959245072
 31
0.0
  0
LINE
  5
70
330
1F
100
AcDbEntity
  8
0
  6
Continuous
 62
     7
370
    25
100
AcDbLine
 10
6.8399358024
 20
3.9959245072
 30
0.0
 11
6.4888888175
 21
3.9959245072
 31
0.0
  0
LINE
  5
71
330
1F
100
AcDbEntity
  8
0
  6
Continuous
 62
     7
370
    25
100
AcDbLine
 10
6.4888888175
 20
3.9959245072
 30
0.0
 11
6.4888888175
 21
7.1959245072
 31
0.0
  0
LINE
  5
72
330
1F
100
AcDbEntity
  8
0
  6
Continuous
 62
     7
370
    25
100
AcDbLine
 10
6.8688888175
 20
7.1959245072
 30
0.0
 11
6.8688888175
 21
3.9959245072
 31
0.0
  0
LINE
  5
73
330
1F
100
AcDbEntity
  8
0
  6
Continuous
 62
     7
370
    25
100
AcDbLine
 10
6.8399358024
 20
3.9959245072
 30
0.0
 11
6.8688888175
 21
3.9959245072
 31
0.0
  0
LINE
  5
74
330
1F
100
AcDbEntity
  8
0
  6
Continuous
 62
     7
370
    25
100
AcDbLine
 10
6.8688888175
 20
7.1959245072
 30
0.0
 11
6.8399358024
 21
7.1959245072
 31
0.0
  0
LINE
  5
75
330
1F
100
AcDbEntity
  8
0
  6
Continuous
 62
     7
370
    25
100
AcDbLine
 10
6.4738888175
 20
3.9959245072
 30
0.0
 11
6.4738888175
 21
4.0959245072
 31
0.0
  0
LINE
  5
76
330
1F
100
AcDbEntity
  8
0
  6
Continuous
 62
     7
370
    25
100
AcDbLine
 10
6.4888888175
 20
4.0959245072
 30
0.0
 11
6.4738888175
 21
4.0959245072
 31
0.0
  0
LINE
  5
77
330
1F
100
AcDbEntity
  8
0
  6
Continuous
 62
     7
370
    25
100
AcDbLine
 10
6.4888888175
 20
3.9959245072
 30
0.0
 11
6.4738888175
 21
3.9959245072
 31
0.0
  0
LINE
  5
78
330
1F
100
AcDbEntity
  8
0
  6
Continuous
 62
     7
370
    25
100
AcDbLine
 10
6.4738888175
 20
7.0959245072
 30
0.0
 11
6.4738888175
 21
7.1959245072
 31
0.0
  0
LINE
  5
79
330
1F
100
AcDbEntity
  8
0
  6
Continuous
 62
     7
370
    25
100
AcDbLine
 10
6.4738888175
 20
7.0959245072
 30
0.0
 11
6.4888888175
 21
7.0959245072
 31
0.0
  0
LINE
  5
7A
330
1F
100
AcDbEntity
  8
0
  6
Continuous
 62
     7
370
    25
100
AcDbLine
 10
6.4738888175
 20
7.1959245072
 30
0.0
 11
6.4888888175
 21
7.1959245072
 31
0.0
  0
ARC
  5
7B
330
1F
100
AcDbEntity
  8
0
  6
Continuous
 62
     7
370
    25
100
AcDbCircle
 10
7.0563888175
 20
6.7932856928
 30
0.0
 40
0.1875
100
AcDbArc
 50
180.0
 51
219.5226312712
  0
ELLIPSE
  5
7C
330
1F
100
AcDbEntity
  8
0
  6
Continuous
 62
     7
370
    25
100
AcDbEllipse
 10
7.0563888175
 20
6.2040178672
 30
0.0
 11
-0.1447346925069999
 21
0.4700133395768677
 31
0.0
210
0.0
220
0.0
230
1.0
 40
0.0080804497
 41
6.263590043484744
 42
7.767106011670089
  0
LINE
  5
7D
330
1F
100
AcDbEntity
  8
0
  6
Continuous
 62
     7
370
    25
100
AcDbLine
 10
6.8688888175
 20
6.2436341139
 30
0.0
 11
7.0400471157
 21
6.2436341139
 31
0.0
  0
SPLINE
  5
7E
330
1F
100
AcDbEntity
  8
0
  6
Continuous
 62
     7
370
    25
100
AcDbSpline
210
0.0
220
0.0
230
1.0
 70
     8
 71
     3
 72
    11
 73
     7
 74
     0
 42
0.00000001
 43
0.00000001
 40
0.0
 40
0.0
 40
0.0
 40
0.0
 40
0.0033468221787182
 40
0.3978225979594086
 40
0.7569055226189392
 40
1.0
 40
1.0
 40
1.0
 40
1.0
 10
6.86888881746166
 20
4.99980836458422
 30
0.0
 10
6.868888948124974
 20
4.999897550016957
 30
0.0
 10
6.868904479520547
 20
5.010498645222089
 30
0.0
 10
6.874432201318993
 20
5.030437685588799
 30
0.0
 10
6.895097635199055
 20
5.053554754812262
 30
0.0
 10
6.916933632570201
 20
5.057951288973947
 30
0.0
 10
6.925748660087084
 20
5.059726136669496
 30
0.0
  0
LINE
  5
7F
330
1F
100
AcDbEntity
  8
0
  6
Continuous
 62
     7
370
    25
100
AcDbLine
 10
7.0400471157
 20
6.2436341139
 30
0.0
 11
7.0400471157
 21
5.0657162649
 31
0.0
  0
LINE
  5
80
330
1F
100
AcDbEntity
  8
0
  6
Continuous
 62
     7
370
    25
100
AcDbLine
 10
7.0400471157
 20
5.0657162649
 30
0.0
 11
6.9257486601
 21
5.0597261367
 31
0.0
  0
LINE
  5
81
330
1F
100
AcDbEntity
  8
0
  6
Continuous
 62
     7
370
    25
100
AcDbLine
 10
7.9715543069
 20
5.1145344882
 30
0.0
 11
7.0400471157
 21
6.2436341139
 31
0.0
  0
LINE
  5
82
330
1F
100
AcDbEntity
  8
0
  6
Continuous
 62
     7
370
    25
100
AcDbLine
 10
6.9117563277
 20
6.6739638887
 30
0.0
 11
8.1888888175
 21
5.1259245072
 31
0.0
  0
LINE
  5
83
330
1F
100
AcDbEntity
  8
0
  6
Continuous
 62
     7
370
    25
100
AcDbLine
 10
8.1888888175
 20
5.1259245072
 30
0.0
 11
7.9715543069
 21
5.1145344882
 31
0.0
  0
LINE
  5
84
330
1F
100
AcDbEntity
  8
0
  6
Continuous
 62
     7
370
    25
100
AcDbLine
 10
7.0400471157
 20
5.0657162649
 30
0.0
 11
7.9715543069
 21
5.1145344882
 31
0.0
  0
LINE
  5
85
330
1F
100
AcDbEntity
  8
0
  6
Continuous
 62
     7
370
    25
100
AcDbLine
 10
3.7726384363
 20
6.9609245072
 30
0.0
 11
5.4758136333
 21
7.0204006957
 31
0.0
  0
CIRCLE
  5
86
330
1F
100
AcDbEntity
  8
0
  6
Continuous
 62
     7
370
    25
100
AcDbCircle
 10
4.193805241
 20
6.3209245072
 30
0.0
 40
0.4031355274203676
  0
LINE
  5
87
330
1F
100
AcDbEntity
  8
0
  6
Continuous
 62
     7
370
    25
100
AcDbLine
 10
3.4908136333
 20
4.2407660462
 30
0.0
 11
3.7726384363
 21
4.2309245072
 31
0.0
  0
LINE
  5
88
330
1F
100
AcDbEntity
  8
0
  6
Continuous
 62
     7
370
    25
100
AcDbLine
 10
3.4908136333
 20
6.9510829683
 30
0.0
 11
3.4908136333
 21
4.2407660462
 31
0.0
  0
LINE
  5
89
330
1F
100
AcDbEntity
  8
0
  6
Continuous
 62
     7
370
    25
100
AcDbLine
 10
3.4908136333
 20
6.9510829683
 30
0.0
 11
3.7726384363
 21
6.9609245072
 31
0.0
  0
CIRCLE
  5
8A
330
1F
100
AcDbEntity
  8
0
  6
Continuous
 62
     7
370
    25
100
AcDbCircle
 10
4.193805241
 20
4.8709245072
 30
0.0
 40
0.4031355274203676
  0
LINE
  5
8B
330
1F
100
AcDbEntity
  8
0
  6
Continuous
 62
     7
370
    25
100
AcDbLine
 10
3.7726384363
 20
4.2309245072
 30
0.0
 11
5.4758136333
 21
4.1714483188
 31
0.0
  0
LINE
  5
8C
330
1F
100
AcDbEntity
  8
0
  6
Continuous
 62
     7
370
    25
100
AcDbLine
 10
3.4595636333
 20
4.2407660462
 30
0.0
 11
3.4908136333
 21
4.2407660462
 31
0.0
  0
LINE
  5
8D
330
1F
100
AcDbEntity
  8
0
  6
Continuous
 62
     7
370
    25
100
AcDbLine
 10
3.4595636333
 20
4.7459245072
 30
0.0
 11
3.4908136333
 21
4.7459245072
 31
0.0
  0
LINE
  5
8E
330
1F
100
AcDbEntity
  8
0
  6
Continuous
 62
     7
370
    25
100
AcDbLine
 10
3.4595636333
 20
4.2407660462
 30
0.0
 11
3.4595636333
 21
4.7459245072
 31
0.0
  0
LINE
  5
8F
330
1F
100
AcDbEntity
  8
0
  6
Continuous
 62
     7
370
    25
100
AcDbLine
 10
3.4595636333
 20
6.4459245072
 30
0.0
 11
3.4908136333
 21
6.4459245072
 31
0.0
  0
LINE
  5
90
330
1F
100
AcDbEntity
  8
0
  6
Continuous
 62
     7
370
    25
100
AcDbLine
 10
3.4595636333
 20
6.4459245072
 30
0.0
 11
3.4595636333
 21
6.9510829683
 31
0.0
  0
LINE
  5
91
330
1F
100
AcDbEntity
  8
0
  6
Continuous
 62
     7
370
    25
100
AcDbLine
 10
3.4595636333
 20
6.9510829683
 30
0.0
 11
3.4908136333
 21
6.9510829683
 31
0.0
  0
LINE
  5
92
330
1F
100
AcDbEntity
  8
0
  6
Continuous
 62
     7
370
    25
100
AcDbLine
 10
5.4758136333
 20
7.0720039921
 30
0.0
 11
5.6008136333
 21
7.0676388959
 31
0.0
  0
LINE
  5
93
330
1F
100
AcDbEntity
  8
0
  6
Continuous
 62
     7
370
    25
100
AcDbLine
 10
5.6008136333
 20
4.1242101186
 30
0.0
 11
5.6008136333
 21
7.0676388959
 31
0.0
  0
LINE
  5
94
330
1F
100
AcDbEntity
  8
0
  6
Continuous
 62
     7
370
    25
100
AcDbLine
 10
5.4758136333
 20
4.1198450224
 30
0.0
 11
5.4758136333
 21
7.0720039921
 31
0.0
  0
LINE
  5
95
330
1F
100
AcDbEntity
  8
0
  6
Continuous
 62
     7
370
    25
100
AcDbLine
 10
5.4758136333
 20
4.1198450224
 30
0.0
 11
5.6008136333
 21
4.1242101186
 31
0.0
  0
LINE
  5
96
330
1F
100
AcDbEntity
  8
0
  6
Continuous
 62
     7
370
    25
100
AcDbLine
 10
5.6008136333
 20
7.0655841723
 30
0.0
 11
5.6707709911
 21
6.9905640907
 31
0.0
  0
LINE
  5
97
330
1F
100
AcDbEntity
  8
0
  6
Continuous
 62
     7
370
    25
100
AcDbLine
 10
5.6707709911
 20
6.9905640907
 30
0.0
 11
5.6707709911
 21
4.2012849238
 31
0.0
  0
LINE
  5
98
330
1F
100
AcDbEntity
  8
0
  6
Continuous
 62
     7
370
    25
100
AcDbLine
 10
5.6707709911
 20
4.2012849238
 30
0.0
 11
5.6008136333
 21
4.1262648422
 31
0.0
  0
LINE
  5
99
330
1F
100
AcDbEntity
  8
0
  6
Continuous
 62
     7
370
    25
100
AcDbLine
 10
5.6807648994
 20
6.9798469362
 30
0.0
 11
6.3133136333
 21
6.9577578476
 31
0.0
  0
LINE
  5
9A
330
1F
100
AcDbEntity
  8
0
  6
Continuous
 62
     7
370
    25
100
AcDbLine
 10
5.6807648994
 20
4.2120020783
 30
0.0
 11
6.3133136333
 21
4.2340911668
 31
0.0
  0
LINE
  5
9B
330
1F
100
AcDbEntity
  8
0
  6
Continuous
 62
     7
370
    25
100
AcDbLine
 10
5.6807648994
 20
6.9798469362
 30
0.0
 11
5.6707709911
 21
6.9905640907
 31
0.0
  0
LINE
  5
9C
330
1F
100
AcDbEntity
  8
0
  6
Continuous
 62
     7
370
    25
100
AcDbLine
 10
5.6707709911
 20
4.2012849238
 30
0.0
 11
5.6807648994
 21
4.2120020783
 31
0.0
  0
LINE
  5
9D
330
1F
100
AcDbEntity
  8
0
  6
Continuous
 62
     7
370
    25
100
AcDbLine
 10
4.1583136333
 20
5.1349245072
 30
0.0
 11
4.1583136333
 21
4.9059245072
 31
0.0
  0
LINE
  5
9E
330
1F
100
AcDbEntity
  8
0
  6
Continuous
 62
     7
370
    25
100
AcDbLine
 10
4.1583136333
 20
4.9059245072
 30
0.0
 11
3.9293136333
 21
4.9059245072
 31
0.0
  0
LINE
  5
9F
330
1F
100
AcDbEntity
  8
0
  6
Continuous
 62
     7
370
    25
100
AcDbLine
 10
3.9293136333
 20
4.9059245072
 30
0.0
 11
3.9293136333
 21
4.8359245072
 31
0.0
  0
LINE
  5
A0
330
1F
100
AcDbEntity
  8
0
  6
Continuous
 62
     7
370
    25
100
AcDbLine
 10
4.1583136333
 20
4.6069245072
 30
0.0
 11
4.2283136333
 21
4.6069245072
 31
0.0
  0
LINE
  5
A1
330
1F
100
AcDbEntity
  8
0
  6
Continuous
 62
     7
370
    25
100
AcDbLine
 10
4.2283136333
 20
4.6069245072
 30
0.0
 11
4.2283136333
 21
4.8359245072
 31
0.0
  0
LINE
  5
A2
330
1F
100
AcDbEntity
  8
0
  6
Continuous
 62
     7
370
    25
100
AcDbLine
 10
4.2283136333
 20
4.8359245072
 30
0.0
 11
4.4573136333
 21
4.8359245072
 31
0.0
  0
LINE
  5
A3
330
1F
100
AcDbEntity
  8
0
  6
Continuous
 62
     7
370
    25
100
AcDbLine
 10
4.4573136333
 20
4.8359245072
 30
0.0
 11
4.4573136333
 21
4.9059245072
 31
0.0
  0
LINE
  5
A4
330
1F
100
AcDbEntity
  8
0
  6
Continuous
 62
     7
370
    25
100
AcDbLine
 10
4.2283136333
 20
4.9059245072
 30
0.0
 11
4.2283136333
 21
5.1349245072
 31
0.0
  0
LINE
  5
A5
330
1F
100
AcDbEntity
  8
0
  6
Continuous
 62
     7
370
    25
100
AcDbLine
 10
4.1583136333
 20
4.8359245072
 30
0.0
 11
4.1583136333
 21
4.6069245072
 31
0.0
  0
LINE
  5
A6
330
1F
100
AcDbEntity
  8
0
  6
Continuous
 62
     7
370
    25
100
AcDbLine
 10
4.2283136333
 20
5.1349245072
 30
0.0
 11
4.1583136333
 21
5.1349245072
 31
0.0
  0
LINE
  5
A7
330
1F
100
AcDbEntity
  8
0
  6
Continuous
 62
     7
370
    25
100
AcDbLine
 10
4.4573136333
 20
4.9059245072
 30
0.0
 11
4.2283136333
 21
4.9059245072
 31
0.0
  0
LINE
  5
A8
330
1F
100
AcDbEntity
  8
0
  6
Continuous
 62
     7
370
    25
100
AcDbLine
 10
3.9293136333
 20
4.8359245072
 30
0.0
 11
4.1583136333
 21
4.8359245072
 31
0.0
  0
LINE
  5
A9
330
1F
100
AcDbEntity
  8
0
  6
Continuous
 62
     7
370
    25
100
AcDbLine
 10
4.1583136333
 20
6.5849245072
 30
0.0
 11
4.1583136333
 21
6.3559245072
 31
0.0
  0
LINE
  5
AA
330
1F
100
AcDbEntity
  8
0
  6
Continuous
 62
     7
370
    25
100
AcDbLine
 10
4.1583136333
 20
6.3559245072
 30
0.0
 11
3.9293136333
 21
6.3559245072
 31
0.0
  0
LINE
  5
AB
330
1F
100
AcDbEntity
  8
0
  6
Continuous
 62
     7
370
    25
100
AcDbLine
 10
3.9293136333
 20
6.3559245072
 30
0.0
 11
3.9293136333
 21
6.2859245072
 31
0.0
  0
LINE
  5
AC
330
1F
100
AcDbEntity
  8
0
  6
Continuous
 62
     7
370
    25
100
AcDbLine
 10
3.9293136333
 20
6.2859245072
 30
0.0
 11
4.1583136333
 21
6.2859245072
 31
0.0
  0
LINE
  5
AD
330
1F
100
AcDbEntity
  8
0
  6
Continuous
 62
     7
370
    25
100
AcDbLine
 10
4.1583136333
 20
6.2859245072
 30
0.0
 11
4.1583136333
 21
6.0569245072
 31
0.0
  0
LINE
  5
AE
330
1F
100
AcDbEntity
  8
0
  6
Continuous
 62
     7
370
    25
100
AcDbLine
 10
4.1583136333
 20
6.0569245072
 30
0.0
 11
4.2283136333
 21
6.0569245072
 31
0.0
  0
LINE
  5
AF
330
1F
100
AcDbEntity
  8
0
  6
Continuous
 62
     7
370
    25
100
AcDbLine
 10
4.2283136333
 20
6.0569245072
 30
0.0
 11
4.2283136333
 21
6.2859245072
 31
0.0
  0
LINE
  5
B0
330
1F
100
AcDbEntity
  8
0
  6
Continuous
 62
     7
370
    25
100
AcDbLine
 10
4.2283136333
 20
6.2859245072
 30
0.0
 11
4.4573136333
 21
6.2859245072
 31
0.0
  0
LINE
  5
B1
330
1F
100
AcDbEntity
  8
0
  6
Continuous
 62
     7
370
    25
100
AcDbLine
 10
4.4573136333
 20
6.2859245072
 30
0.0
 11
4.4573136333
 21
6.3559245072
 31
0.0
  0
LINE
  5
B2
330
1F
100
AcDbEntity
  8
0
  6
Continuous
 62
     7
370
    25
100
AcDbLine
 10
4.4573136333
 20
6.3559245072
 30
0.0
 11
4.2283136333
 21
6.3559245072
 31
0.0
  0
LINE
  5
B3
330
1F
100
AcDbEntity
  8
0
  6
Continuous
 62
     7
370
    25
100
AcDbLine
 10
4.2283136333
 20
6.3559245072
 30
0.0
 11
4.2283136333
 21
6.5849245072
 31
0.0
  0
LINE
  5
B4
330
1F
100
AcDbEntity
  8
0
  6
Continuous
 62
     7
370
    25
100
AcDbLine
 10
4.2283136333
 20
6.5849245072
 30
0.0
 11
4.1583136333
 21
6.5849245072
 31
0.0
  0
LINE
  5
B5
330
1F
100
AcDbEntity
  8
0
  6
Continuous
 62
     7
370
    25
100
AcDbLine
 10
6.4888888175
 20
4.1259245072
 30
0.0
 11
6.3133136333
 21
4.1259245072
 31
0.0
  0
LINE
  5
B6
330
1F
100
AcDbEntity
  8
0
  6
Continuous
 62
     7
370
    25
100
AcDbLine
 10
6.3133136333
 20
4.3759245072
 30
0.0
 11
6.3133136333
 21
4.1259245072
 31
0.0
  0
LINE
  5
B7
330
1F
100
AcDbEntity
  8
0
  6
Continuous
 62
     7
370
    25
100
AcDbLine
 10
6.4888888175
 20
7.0659245072
 30
0.0
 11
6.3133136333
 21
7.0659245072
 31
0.0
  0
LINE
  5
B8
330
1F
100
AcDbEntity
  8
0
  6
Continuous
 62
     7
370
    25
100
AcDbLine
 10
6.3133136333
 20
7.0659245072
 30
0.0
 11
6.3133136333
 21
6.8159245072
 31
0.0
  0
LINE
  5
B9
330
1F
100
AcDbEntity
  8
0
  6
Continuous
 62
     7
370
    25
100
AcDbLine
 10
6.3133136333
 20
6.8159245072
 30
0.0
 11
6.3133136333
 21
4.3759245072
 31
0.0
  0
LINE
  5
BA
330
1F
100
AcDbEntity
  8
0
  6
Continuous
 62
     7
370
    25
100
AcDbLine
 10
3.7726384363
 20
6.9609245072
 30
0.0
 11
5.4758136333
 21
6.9609245072
 31
0.0
  0
LINE
  5
BB
330
1F
100
AcDbEntity
  8
0
  6
Continuous
 62
     7
370
    25
100
AcDbLine
 10
3.7726384363
 20
4.2309245072
 30
0.0
 11
5.4758136333
 21
4.2309245072
 31
0.0
  0
LINE
  5
BC
330
1F
100
AcDbEntity
  8
0
  6
Continuous
 62
     7
370
    25
100
AcDbLine
 10
6.4888888175
 20
4.3759245072
 30
0.0
 11
6.3133136333
 21
4.3759245072
 31
0.0
  0
LINE
  5
BD
330
1F
100
AcDbEntity
  8
0
  6
Continuous
 62
     7
370
    25
100
AcDbLine
 10
6.4888888175
 20
6.8159245072
 30
0.0
 11
6.3133136333
 21
6.8159245072
 31
0.0
  0
DIMENSION
  5
BE
330
1F
100
AcDbEntity
  8
0
  6
Continuous
 62
     7
370
    18
100
AcDbDimension
  2
_D
 10
3.4595636333
 20
8.008326082
 30
0.0
 11
4.9742262254
 21
8.008326082
 31
0.0
 70
   160
  1
<>
 71
     2
 42
-1.0
  3
SLDDIMSTYLE0
100
AcDbAlignedDimension
 13
6.4888888175
 23
7.1959245072
 33
0.0
 14
3.4595636333
 24
6.9510829683
 34
0.0
 50
0.0
100
AcDbRotatedDimension
  0
DIMENSION
  5
D4
330
1F
100
AcDbEntity
  8
0
  6
Continuous
 62
     7
370
    18
100
AcDbDimension
  2
_D_1
 10
2.2339653101
 20
4.2407660462
 30
0.0
 11
2.2339653101
 21
5.5959245072
 31
0.0
 70
   160
  1
<>
 71
     2
 42
-1.0
  3
SLDDIMSTYLE1
100
AcDbAlignedDimension
 13
3.4595636333
 23
6.9510829683
 33
0.0
 14
3.4595636333
 24
4.2407660462
 34
0.0
 50
90.0
100
AcDbRotatedDimension
  0
DIMENSION
  5
E9
330
1F
100
AcDbEntity
  8
0
  6
Continuous
 62
     7
370
    18
100
AcDbDimension
  2
_D_2
 10
8.1888888175
 20
8.008326082
 30
0.0
 11
9.2342453795
 21
8.008326082
 31
0.0
 70
   160
  1
<>
 71
     2
 42
-1.0
  3
SLDDIMSTYLE1
100
AcDbAlignedDimension
 13
6.4888888175
 23
7.1959245072
 33
0.0
 14
8.1888888175
 24
5.1259245072
 34
0.0
 50
0.0
100
AcDbRotatedDimension
  0
MTEXT
  5
FD
330
1F
100
AcDbEntity
  8
0
  6
Continuous
 62
     7
370
     0
100
AcDbMText
 10
5.615564629
 20
3.0483102768
 30
0.0
 40
0.25
 41
0.0
 71
     2
 72
     1
  1
5X 1/2" NPT
  7
SLDTEXTSTYLE0
 73
     1
 44
1.0
  0
MTEXT
  5
FE
330
1F
100
AcDbEntity
  8
0
  6
Continuous
 62
     7
370
     0
100
AcDbMText
 10
5.6252867496
 20
2.7195701277
 30
0.0
 40
0.25
 41
0.0
 71
     2
 72
     1
  1
CONDUIT ENTRIES
  7
SLDTEXTSTYLE0
 73
     1
 44
1.0
  0
LEADER
  5
100
330
1F
100
AcDbEntity
  8
0
  6
Continuous
 62
     7
370
     0
100
AcDbLeader
  3
SLDDIMSTYLE2
 76
     3
 10
4.2016323449
 20
4.4678652705
 30
0.0
 10
4.1986040122
 20
2.9359698129
 30
0.0
 10
4.6986040122
 20
2.9359698129
 30
0.0
  0
LINE
  5
101
330
1F
100
AcDbEntity
  8
0
  6
Continuous
 62
     7
370
    25
100
AcDbLine
 10
18.221069833
 20
4.6159245072
 30
0.0
 11
19.751069833
 21
4.6159245072
 31
0.0
  0
LINE
  5
102
330
1F
100
AcDbEntity
  8
0
  6
Continuous
 62
     7
370
    25
100
AcDbLine
 10
19.751069833
 20
5.2259245072
 30
0.0
 11
18.144146756
 21
5.2259245072
 31
0.0
  0
LINE
  5
103
330
1F
100
AcDbEntity
  8
0
  6
Continuous
 62
     7
370
    25
100
AcDbLine
 10
15.6230461274
 20
4.7254642073
 30
0.0
 11
15.6230461274
 21
5.1177838693
 31
0.0
  0
LINE
  5
104
330
1F
100
AcDbEntity
  8
0
  6
Continuous
 62
     7
370
    25
100
AcDbLine
 10
15.6855461274
 20
4.7277108908
 30
0.0
 11
15.6855461274
 21
5.1177838693
 31
0.0
  0
LINE
  5
105
330
1F
100
AcDbEntity
  8
0
  6
Continuous
 62
     7
370
    25
100
AcDbLine
 10
16.1230461274
 20
4.8833930105
 30
0.0
 11
16.1230461274
 21
5.1177838693
 31
0.0
  0
LINE
  5
106
330
1F
100
AcDbEntity
  8
0
  6
Continuous
 62
     7
370
    25
100
AcDbLine
 10
16.1855461274
 20
4.9316242108
 30
0.0
 11
16.1855461274
 21
5.1177838693
 31
0.0
  0
LINE
  5
107
330
1F
100
AcDbEntity
  8
0
  6
Continuous
 62
     7
370
    25
100
AcDbLine
 10
15.3730461274
 20
4.7621372839
 30
0.0
 11
15.3730461274
 21
5.1177838693
 31
0.0
  0
LINE
  5
108
330
1F
100
AcDbEntity
  8
0
  6
Continuous
 62
     7
370
    25
100
AcDbLine
 10
15.4355461274
 20
4.7458981054
 30
0.0
 11
15.4355461274
 21
5.1177838693
 31
0.0
  0
LINE
  5
109
330
1F
100
AcDbEntity
  8
0
  6
Continuous
 62
     7
370
    25
100
AcDbLine
 10
15.7480461274
 20
4.7344860975
 30
0.0
 11
15.7480461274
 21
5.1177838693
 31
0.0
  0
LINE
  5
10A
330
1F
100
AcDbEntity
  8
0
  6
Continuous
 62
     7
370
    25
100
AcDbLine
 10
15.8105461274
 20
4.7458981054
 30
0.0
 11
15.8105461274
 21
5.1177838693
 31
0.0
  0
LINE
  5
10B
330
1F
100
AcDbEntity
  8
0
  6
Continuous
 62
     7
370
    25
100
AcDbLine
 10
14.9980461274
 20
4.9900564244
 30
0.0
 11
14.9980461274
 21
5.1168105072
 31
0.0
  0
LINE
  5
10C
330
1F
100
AcDbEntity
  8
0
  6
Continuous
 62
     7
370
    25
100
AcDbLine
 10
15.0605461274
 20
4.9316242108
 30
0.0
 11
15.0605461274
 21
5.1177838693
 31
0.0
  0
LINE
  5
10D
330
1F
100
AcDbEntity
  8
0
  6
Continuous
 62
     7
370
    25
100
AcDbLine
 10
15.2480461274
 20
4.8103825709
 30
0.0
 11
15.2480461274
 21
5.1177838693
 31
0.0
  0
LINE
  5
10E
330
1F
100
AcDbEntity
  8
0
  6
Continuous
 62
     7
370
    25
100
AcDbLine
 10
15.3105461274
 20
4.7834930432
 30
0.0
 11
15.3105461274
 21
5.1177838693
 31
0.0
  0
LINE
  5
10F
330
1F
100
AcDbEntity
  8
0
  6
Continuous
 62
     7
370
    25
100
AcDbLine
 10
15.4980461274
 20
4.7344860975
 30
0.0
 11
15.4980461274
 21
5.1177838693
 31
0.0
  0
LINE
  5
110
330
1F
100
AcDbEntity
  8
0
  6
Continuous
 62
     7
370
    25
100
AcDbLine
 10
15.5605461274
 20
4.7277108908
 30
0.0
 11
15.5605461274
 21
5.1177838693
 31
0.0
  0
LINE
  5
111
330
1F
100
AcDbEntity
  8
0
  6
Continuous
 62
     7
370
    25
100
AcDbLine
 10
15.8730461274
 20
4.7621372839
 30
0.0
 11
15.8730461274
 21
5.1177838693
 31
0.0
  0
LINE
  5
112
330
1F
100
AcDbEntity
  8
0
  6
Continuous
 62
     7
370
    25
100
AcDbLine
 10
15.9355461274
 20
4.7834930432
 30
0.0
 11
15.9355461274
 21
5.1177838693
 31
0.0
  0
LINE
  5
113
330
1F
100
AcDbEntity
  8
0
  6
Continuous
 62
     7
370
    25
100
AcDbLine
 10
15.1230461274
 20
4.8833930105
 30
0.0
 11
15.1230461274
 21
5.1177838693
 31
0.0
  0
LINE
  5
114
330
1F
100
AcDbEntity
  8
0
  6
Continuous
 62
     7
370
    25
100
AcDbLine
 10
15.1855461274
 20
4.8433988374
 30
0.0
 11
15.1855461274
 21
5.1177838693
 31
0.0
  0
LINE
  5
115
330
1F
100
AcDbEntity
  8
0
  6
Continuous
 62
     7
370
    25
100
AcDbLine
 10
16.2480461274
 20
4.9900564244
 30
0.0
 11
16.2480461274
 21
5.1167455767
 31
0.0
  0
LINE
  5
116
330
1F
100
AcDbEntity
  8
0
  6
Continuous
 62
     7
370
    25
100
AcDbLine
 10
15.9980461274
 20
4.8103825709
 30
0.0
 11
15.9980461274
 21
5.1177838693
 31
0.0
  0
LINE
  5
117
330
1F
100
AcDbEntity
  8
0
  6
Continuous
 62
     7
370
    25
100
AcDbLine
 10
16.0605461274
 20
4.8433988374
 30
0.0
 11
16.0605461274
 21
5.1177838693
 31
0.0
  0
LINE
  5
118
330
1F
100
AcDbEntity
  8
0
  6
Continuous
 62
     7
370
    25
100
AcDbLine
 10
14.6895168574
 20
5.1145344882
 30
0.0
 11
14.6080205382
 21
6.2436341139
 31
0.0
  0
ELLIPSE
  5
119
330
1F
100
AcDbEntity
  8
0
  6
Continuous
 62
     7
370
    25
100
AcDbEllipse
 10
14.7976664714
 20
6.2040178672
 30
0.0
 11
-0.03391080412098901
 21
0.4698209269474001
 31
0.0
210
0.0
220
0.0
230
1.0
 40
0.3980527077
 41
6.237355505486648
 42
7.740871473673456
  0
LINE
  5
11A
330
1F
100
AcDbEntity
  8
0
  6
Continuous
 62
     7
370
    25
100
AcDbLine
 10
14.7723590649
 20
6.6739638887
 30
0.0
 11
14.8840936796
 21
5.1259245072
 31
0.0
  0
ELLIPSE
  5
11B
330
1F
100
AcDbEntity
  8
0
  6
Continuous
 62
     7
370
    25
100
AcDbEllipse
 10
14.8763626171
 20
5.1137135503
 30
0.0
 11
0.1879494542362785
 21
0.0005044077137172921
 31
0.0
210
0.0
220
0.0
230
1.0
 40
0.064913913
 41
1.529476774672309
 42
3.032992742859133
  0
LINE
  5
11C
330
1F
100
AcDbEntity
  8
0
  6
Continuous
 62
     7
370
    25
100
AcDbLine
 10
16.4737331899
 20
6.6739638887
 30
0.0
 11
14.7723590649
 21
6.6739638887
 31
0.0
  0
LINE
  5
11D
330
1F
100
AcDbEntity
  8
0
  6
Continuous
 62
     7
370
    25
100
AcDbLine
 10
16.3619985752
 20
5.1259245072
 30
0.0
 11
16.4737331899
 21
6.6739638887
 31
0.0
  0
LINE
  5
11E
330
1F
100
AcDbEntity
  8
0
  6
Continuous
 62
     7
370
    25
100
AcDbLine
 10
14.8840936796
 20
5.1259245072
 30
0.0
 11
16.3619985752
 21
5.1259245072
 31
0.0
  0
SPLINE
  5
11F
330
1F
100
AcDbEntity
  8
0
  6
Continuous
 62
     7
370
    25
100
AcDbSpline
210
0.0
220
0.0
230
1.0
 70
     8
 71
     3
 72
    12
 73
     8
 74
     0
 42
0.00000001
 43
0.00000001
 40
0.0
 40
0.0
 40
0.0
 40
0.0
 40
0.1136951600544258
 40
0.3084101736815796
 40
0.5596870108849081
 40
0.8077104287747712
 40
1.0
 40
1.0
 40
1.0
 40
1.0
 10
16.30181855890942
 20
5.112321011027286
 30
0.0
 10
16.30126579184165
 20
5.112648757187947
 30
0.0
 10
16.29976635257531
 20
5.113537803390833
 30
0.0
 10
16.28606846779054
 20
5.115030851276835
 30
0.0
 10
16.25995313889227
 20
5.116512929175003
 30
0.0
 10
16.22625526061074
 20
5.117566965073138
 30
0.0
 10
16.20199414486209
 20
5.117717937807599
 30
0.0
 10
16.19139904623888
 20
5.117783869277017
 30
0.0
  0
LINE
  5
120
330
1F
100
AcDbEntity
  8
0
  6
Continuous
 62
     7
370
    25
100
AcDbLine
 10
15.0546932086
 20
5.1177838693
 30
0.0
 11
16.1913990462
 21
5.1177838693
 31
0.0
  0
SPLINE
  5
121
330
1F
100
AcDbEntity
  8
0
  6
Continuous
 62
     7
370
    25
100
AcDbSpline
210
0.0
220
0.0
230
1.0
 70
     8
 71
     3
 72
    12
 73
     8
 74
     0
 42
0.00000001
 43
0.00000001
 40
0.0
 40
0.0
 40
0.0
 40
0.0
 40
0.0862419471497792
 40
0.3499188471355693
 40
0.580881342422111
 40
0.8066438175405652
 40
1.0
 40
1.0
 40
1.0
 40
1.0
 10
15.05469320857562
 20
5.117783869277017
 30
0.0
 10
15.04994698665454
 20
5.117769630653997
 30
0.0
 10
15.03068962341357
 20
5.117711858737699
 30
0.0
 10
15.00018538114796
 20
5.117030616050939
 30
0.0
 10
14.96987786482256
 20
5.115683191462982
 30
0.0
 10
14.94905153434174
 20
5.114085820379905
 30
0.0
 10
14.94578204292631
 20
5.112878155218157
 30
0.0
 10
14.94427369590515
 20
5.112321011027263
 30
0.0
  0
ELLIPSE
  5
122
330
1F
100
AcDbEntity
  8
0
  6
Continuous
 62
     7
370
    25
100
AcDbEllipse
 10
15.6230461274
 20
4.9833051146
 30
0.0
 11
0.0
 21
0.919396175480423
 31
0.0
210
0.0
220
0.0
230
1.0
 40
0.7456587883
 41
1.430004883296258
 42
1.487579429976944
  0
LINE
  5
123
330
1F
100
AcDbEntity
  8
0
  6
Continuous
 62
     7
370
    25
100
AcDbLine
 10
14.5557308697
 20
5.0597261367
 30
0.0
 11
14.9398626746
 21
5.0597261367
 31
0.0
  0
ELLIPSE
  5
124
330
1F
100
AcDbEntity
  8
0
  6
Continuous
 62
     7
370
    25
100
AcDbEllipse
 10
14.4212340323
 20
5.0665726972
 30
0.0
 11
0.1875
 21
0.0
 31
0.0
210
0.0
220
0.0
230
1.0
 40
0.0524077793
 41
5.512332107964205
 42
6.195918844580111
  0
LINE
  5
125
330
1F
100
AcDbEntity
  8
0
  6
Continuous
 62
     7
370
    25
100
AcDbLine
 10
14.6080205382
 20
5.0657162649
 30
0.0
 11
14.6895168574
 21
5.1145344882
 31
0.0
  0
ELLIPSE
  5
126
330
1F
100
AcDbEntity
  8
0
  6
Continuous
 62
     7
370
    25
100
AcDbEllipse
 10
16.3697296378
 20
5.1137135503
 30
0.0
 11
0.1879494542362785
 21
-0.0005044077137164038
 31
0.0
210
0.0
220
0.0
230
1.0
 40
0.064913913
 41
0.1085999107305867
 42
1.612115878917497
  0
LINE
  5
127
330
1F
100
AcDbEntity
  8
0
  6
Continuous
 62
     7
370
    25
100
AcDbLine
 10
16.6380717166
 20
5.0657162649
 30
0.0
 11
16.5565753974
 21
5.1145344882
 31
0.0
  0
ELLIPSE
  5
128
330
1F
100
AcDbEntity
  8
0
  6
Continuous
 62
     7
370
    25
100
AcDbEllipse
 10
16.8248582225
 20
5.0665726972
 30
0.0
 11
0.1875
 21
0.0
 31
0.0
210
0.0
220
0.0
230
1.0
 40
0.0524077793
 41
3.228859116189799
 42
3.91244585280542
  0
LINE
  5
129
330
1F
100
AcDbEntity
  8
0
  6
Continuous
 62
     7
370
    25
100
AcDbLine
 10
16.3062295802
 20
5.0597261367
 30
0.0
 11
16.6903613851
 21
5.0597261367
 31
0.0
  0
ELLIPSE
  5
12A
330
1F
100
AcDbEntity
  8
0
  6
Continuous
 62
     7
370
    25
100
AcDbEllipse
 10
15.6230461274
 20
4.9833051146
 30
0.0
 11
0.0
 21
0.919396175480423
 31
0.0
210
0.0
220
0.0
230
1.0
 40
0.7456587883
 41
4.795605877202652
 42
4.853180423883348
  0
ELLIPSE
  5
12B
330
1F
100
AcDbEntity
  8
0
  6
Continuous
 62
     7
370
    25
100
AcDbEllipse
 10
16.4484257835
 20
6.2040178672
 30
0.0
 11
0.03391080412098901
 21
0.4698209269474019
 31
0.0
210
0.0
220
0.0
230
1.0
 40
0.3980527077
 41
4.825499140685729
 42
6.329015108872586
  0
LINE
  5
12C
330
1F
100
AcDbEntity
  8
0
  6
Continuous
 62
     7
370
    25
100
AcDbLine
 10
16.6380717166
 20
6.2436341139
 30
0.0
 11
16.5565753974
 21
5.1145344882
 31
0.0
  0
LINE
  5
12D
330
1F
100
AcDbEntity
  8
0
  6
Continuous
 62
     7
370
    25
100
AcDbLine
 10
14.6080205382
 20
6.2436341139
 30
0.0
 11
14.6080205382
 21
5.0657162649
 31
0.0
  0
LINE
  5
12E
330
1F
100
AcDbEntity
  8
0
  6
Continuous
 62
     7
370
    25
100
AcDbLine
 10
16.6380717166
 20
5.0657162649
 30
0.0
 11
16.6380717166
 21
6.2436341139
 31
0.0
  0
LINE
  5
12F
330
1F
100
AcDbEntity
  8
0
  6
Continuous
 62
     7
370
    25
100
AcDbLine
 10
16.6380717166
 20
6.2436341139
 30
0.0
 11
16.8248582225
 21
6.2436341139
 31
0.0
  0
LINE
  5
130
330
1F
100
AcDbEntity
  8
0
  6
Continuous
 62
     7
370
    25
100
AcDbLine
 10
16.8248582225
 20
6.2436341139
 30
0.0
 11
16.8248582225
 21
4.9998083646
 31
0.0
  0
SPLINE
  5
131
330
1F
100
AcDbEntity
  8
0
  6
Continuous
 62
     7
370
    25
100
AcDbSpline
210
0.0
220
0.0
230
1.0
 70
     8
 71
     3
 72
    11
 73
     7
 74
     0
 42
0.00000001
 43
0.00000001
 40
0.0
 40
0.0
 40
0.0
 40
0.0
 40
0.2430944773810579
 40
0.6021774020405862
 40
0.9966531778212991
 40
1.0
 40
1.0
 40
1.0
 40
1.0
 10
16.69036138509632
 20
5.059726136669494
 30
0.0
 10
16.70010125275895
 20
5.05795128897394
 30
0.0
 10
16.7242282023651
 20
5.053554754812239
 30
0.0
 10
16.77027584940553
 20
5.030437685588939
 30
0.0
 10
16.80596091775697
 20
5.010498645221754
 30
0.0
 10
16.82470056864772
 20
4.999897550016953
 30
0.0
 10
16.82485822253551
 20
4.99980836458422
 30
0.0
  0
SPLINE
  5
132
330
1F
100
AcDbEntity
  8
0
  6
Continuous
 62
     7
370
    25
100
AcDbSpline
210
0.0
220
0.0
230
1.0
 70
     8
 71
     3
 72
    11
 73
     7
 74
     0
 42
0.00000001
 43
0.00000001
 40
0.0
 40
0.0
 40
0.0
 40
0.0
 40
0.0033468221787182
 40
0.3978225979594086
 40
0.7569055226189392
 40
1.0
 40
1.0
 40
1.0
 40
1.0
 10
14.42123403227898
 20
4.99980836458422
 30
0.0
 10
14.42139168616678
 20
4.999897550016956
 30
0.0
 10
14.44013133705733
 20
5.010498645222087
 30
0.0
 10
14.47581640540905
 20
5.030437685588797
 30
0.0
 10
14.52186405244938
 20
5.05355475481226
 30
0.0
 10
14.54599100205554
 20
5.057951288973945
 30
0.0
 10
14.55573086971818
 20
5.059726136669495
 30
0.0
  0
LINE
  5
133
330
1F
100
AcDbEntity
  8
0
  6
Continuous
 62
     7
370
    25
100
AcDbLine
 10
14.4212340323
 20
4.9998083646
 30
0.0
 11
14.4212340323
 21
6.2436341139
 31
0.0
  0
LINE
  5
134
330
1F
100
AcDbEntity
  8
0
  6
Continuous
 62
     7
370
    25
100
AcDbLine
 10
14.4212340323
 20
6.2436341139
 30
0.0
 11
14.6080205382
 21
6.2436341139
 31
0.0
  0
ELLIPSE
  5
135
330
1F
100
AcDbEntity
  8
0
  6
Continuous
 62
     7
370
    25
100
AcDbEllipse
 10
14.7976664714
 20
6.2040178672
 30
0.0
 11
0.04248760103774708
 21
-0.5886490934306893
 31
0.0
210
0.0
220
0.0
230
1.0
 40
0.6353988963
 41
3.095762851896816
 42
4.599278820083672
  0
LINE
  5
136
330
1F
100
AcDbEntity
  8
0
  6
Continuous
 62
     7
370
    25
100
AcDbLine
 10
14.7723590649
 20
6.7932856928
 30
0.0
 11
14.7723590649
 21
6.6739638887
 31
0.0
  0
LINE
  5
137
330
1F
100
AcDbEntity
  8
0
  6
Continuous
 62
     7
370
    25
100
AcDbLine
 10
16.4737331899
 20
6.7932856928
 30
0.0
 11
16.4737331899
 21
6.6739638887
 31
0.0
  0
ELLIPSE
  5
138
330
1F
100
AcDbEntity
  8
0
  6
Continuous
 62
     7
370
    25
100
AcDbEllipse
 10
16.4484257835
 20
6.2040178672
 30
0.0
 11
-0.04248760103774885
 21
-0.5886490934306875
 31
0.0
210
0.0
220
0.0
230
1.0
 40
0.6353988963
 41
1.683906487095929
 42
3.187422455282802
  0
LINE
  5
139
330
1F
100
AcDbEntity
  8
0
  6
Continuous
 62
     7
370
    25
100
AcDbLine
 10
14.9887380963
 20
4.9998083646
 30
0.0
 11
14.4212340323
 21
4.9998083646
 31
0.0
  0
SPLINE
  5
13A
330
1F
100
AcDbEntity
  8
0
  6
Continuous
 62
     7
370
    25
100
AcDbSpline
210
0.0
220
0.0
230
1.0
 70
     8
 71
     3
 72
    12
 73
     8
 74
     0
 42
0.00000001
 43
0.00000001
 40
0.0
 40
0.0
 40
0.0
 40
0.0
 40
0.160079080338481
 40
0.3196958662549153
 40
0.489840158522508
 40
0.7448367427095678
 40
1.0
 40
1.0
 40
1.0
 40
1.0
 10
14.93986267460023
 20
5.059726136669495
 30
0.0
 10
14.94021596194011
 20
5.058956249501678
 30
0.0
 10
14.94092151635685
 20
5.057418698533039
 30
0.0
 10
14.94655560400927
 20
5.04949974714898
 30
0.0
 10
14.95612987926452
 20
5.037065743493379
 30
0.0
 10
14.97047435816326
 20
5.019692341221567
 30
0.0
 10
14.98264885777792
 20
5.00643780024981
 30
0.0
 10
14.9887380963361
 20
4.99980836458422
 30
0.0
  0
LINE
  5
13B
330
1F
100
AcDbEntity
  8
0
  6
Continuous
 62
     7
370
    25
100
AcDbLine
 10
16.8248582225
 20
4.9998083646
 30
0.0
 11
16.2573541585
 21
4.9998083646
 31
0.0
  0
SPLINE
  5
13C
330
1F
100
AcDbEntity
  8
0
  6
Continuous
 62
     7
370
    25
100
AcDbSpline
210
0.0
220
0.0
230
1.0
 70
     8
 71
     3
 72
    12
 73
     8
 74
     0
 42
0.00000001
 43
0.00000001
 40
0.0
 40
0.0
 40
0.0
 40
0.0
 40
0.287200675025141
 40
0.5288528268930285
 40
0.7209229923002588
 40
0.883581797050945
 40
1.0
 40
1.0
 40
1.0
 40
1.0
 10
16.2573541584784
 20
4.99980836458422
 30
0.0
 10
16.26420904975444
 20
5.007292838889787
 30
0.0
 10
16.27683168244519
 20
5.021074789067866
 30
0.0
 10
16.29169855072936
 20
5.039237471209888
 30
0.0
 10
16.30103512250096
 20
5.051517368806095
 30
0.0
 10
16.30560369650738
 20
5.058142367192723
 30
0.0
 10
16.30604534471799
 20
5.059259937354289
 30
0.0
 10
16.30622958021427
 20
5.059726136669494
 30
0.0
  0
LINE
  5
13D
330
1F
100
AcDbEntity
  8
0
  6
Continuous
 62
     7
370
    25
100
AcDbLine
 10
14.7723590649
 20
6.7932856928
 30
0.0
 11
16.4737331899
 21
6.7932856928
 31
0.0
  0
LINE
  5
13E
330
1F
100
AcDbEntity
  8
0
  6
Continuous
 62
     7
370
    25
100
AcDbLine
 10
18.0940754642
 20
3.9959245072
 30
0.0
 11
18.0940754642
 21
7.1959245072
 31
0.0
  0
LINE
  5
13F
330
1F
100
AcDbEntity
  8
0
  6
Continuous
 62
     7
370
    25
100
AcDbLine
 10
18.124057189
 20
7.1959245072
 30
0.0
 11
18.0940754642
 21
7.1959245072
 31
0.0
  0
LINE
  5
140
330
1F
100
AcDbEntity
  8
0
  6
Continuous
 62
     7
370
    25
100
AcDbLine
 10
18.124057189
 20
7.1959245072
 30
0.0
 11
18.124057189
 21
3.9959245072
 31
0.0
  0
LINE
  5
141
330
1F
100
AcDbEntity
  8
0
  6
Continuous
 62
     7
370
    25
100
AcDbLine
 10
18.0940754642
 20
3.9959245072
 30
0.0
 11
18.124057189
 21
3.9959245072
 31
0.0
  0
LINE
  5
142
330
1F
100
AcDbEntity
  8
0
  6
Continuous
 62
     7
370
    25
100
AcDbLine
 10
13.1520167907
 20
7.1959245072
 30
0.0
 11
18.0940754642
 21
7.1959245072
 31
0.0
  0
LINE
  5
143
330
1F
100
AcDbEntity
  8
0
  6
Continuous
 62
     7
370
    25
100
AcDbLine
 10
13.1520167907
 20
7.1959245072
 30
0.0
 11
13.1520167907
 21
3.9959245072
 31
0.0
  0
CIRCLE
  5
144
330
1F
100
AcDbEntity
  8
0
  6
Continuous
 62
     7
370
    25
100
AcDbCircle
 10
17.2780461274
 20
5.5959245072
 30
0.0
 40
0.2050000000000018
  0
CIRCLE
  5
145
330
1F
100
AcDbEntity
  8
0
  6
Continuous
 62
     7
370
    25
100
AcDbCircle
 10
13.9680461274
 20
5.5959245072
 30
0.0
 40
0.2050000000000018
  0
LINE
  5
146
330
1F
100
AcDbEntity
  8
0
  6
Continuous
 62
     7
370
    25
100
AcDbLine
 10
18.0940754642
 20
3.9959245072
 30
0.0
 11
13.1520167907
 21
3.9959245072
 31
0.0
  0
ARC
  5
147
330
1F
100
AcDbEntity
  8
0
  6
Continuous
 62
     7
370
    25
100
AcDbCircle
 10
15.6230461274
 20
5.5959245072
 30
0.0
 40
0.8704602999660757
100
AcDbArc
 50
223.2221320796
 51
316.7778679204
  0
LINE
  5
148
330
1F
100
AcDbEntity
  8
0
  6
Continuous
 62
     7
370
    25
100
AcDbLine
 10
13.1220350658
 20
3.9959245072
 30
0.0
 11
13.1220350658
 21
7.1959245072
 31
0.0
  0
LINE
  5
149
330
1F
100
AcDbEntity
  8
0
  6
Continuous
 62
     7
370
    25
100
AcDbLine
 10
13.1520167907
 20
7.1959245072
 30
0.0
 11
13.1220350658
 21
7.1959245072
 31
0.0
  0
LINE
  5
14A
330
1F
100
AcDbEntity
  8
0
  6
Continuous
 62
     7
370
    25
100
AcDbLine
 10
13.1220350658
 20
3.9959245072
 30
0.0
 11
13.1520167907
 21
3.9959245072
 31
0.0
  0
LINE
  5
14B
330
1F
100
AcDbEntity
  8
0
  6
Continuous
 62
     7
370
    25
100
AcDbLine
 10
18.1363160198
 20
7.1959245072
 30
0.0
 11
18.1363160198
 21
3.9959245072
 31
0.0
  0
LINE
  5
14C
330
1F
100
AcDbEntity
  8
0
  6
Continuous
 62
     7
370
    25
100
AcDbLine
 10
18.124057189
 20
7.1959245072
 30
0.0
 11
18.1363160198
 21
7.1959245072
 31
0.0
  0
LINE
  5
14D
330
1F
100
AcDbEntity
  8
0
  6
Continuous
 62
     7
370
    25
100
AcDbLine
 10
18.1363160198
 20
3.9959245072
 30
0.0
 11
18.124057189
 21
3.9959245072
 31
0.0
  0
LINE
  5
14E
330
1F
100
AcDbEntity
  8
0
  6
Continuous
 62
     7
370
    25
100
AcDbLine
 10
13.109776235
 20
3.9959245072
 30
0.0
 11
13.109776235
 21
7.1959245072
 31
0.0
  0
LINE
  5
14F
330
1F
100
AcDbEntity
  8
0
  6
Continuous
 62
     7
370
    25
100
AcDbLine
 10
13.109776235
 20
7.1959245072
 30
0.0
 11
13.1220350658
 21
7.1959245072
 31
0.0
  0
LINE
  5
150
330
1F
100
AcDbEntity
  8
0
  6
Continuous
 62
     7
370
    25
100
AcDbLine
 10
13.1220350658
 20
3.9959245072
 30
0.0
 11
13.109776235
 21
3.9959245072
 31
0.0
  0
LINE
  5
151
330
1F
100
AcDbEntity
  8
0
  6
Continuous
 62
     7
370
    25
100
AcDbLine
 10
18.1363160198
 20
4.9109245072
 30
0.0
 11
18.2234981367
 21
4.9109245072
 31
0.0
  0
ELLIPSE
  5
152
330
1F
100
AcDbEntity
  8
0
  6
Continuous
 62
     7
370
    25
100
AcDbEllipse
 10
18.4172236791
 20
4.8709245072
 30
0.0
 11
0.0
 21
0.2549999999999999
 31
0.0
210
0.0
220
0.0
230
1.0
 40
0.7692307692
 41
1.413283060588059
 42
1.728309593001724
  0
LINE
  5
153
330
1F
100
AcDbEntity
  8
0
  6
Continuous
 62
     7
370
    25
100
AcDbLine
 10
18.1363160198
 20
4.8309245072
 30
0.0
 11
18.2234981367
 21
4.8309245072
 31
0.0
  0
LINE
  5
154
330
1F
100
AcDbEntity
  8
0
  6
Continuous
 62
     7
370
    25
100
AcDbLine
 10
18.1363160198
 20
4.6409875545
 30
0.0
 11
18.2234981367
 21
4.7211287403
 31
0.0
  0
LINE
  5
155
330
1F
100
AcDbEntity
  8
0
  6
Continuous
 62
     7
370
    25
100
AcDbLine
 10
18.1363160198
 20
4.7211287403
 30
0.0
 11
18.2234981367
 21
4.7211287403
 31
0.0
  0
ELLIPSE
  5
156
330
1F
100
AcDbEntity
  8
0
  6
Continuous
 62
     7
370
    25
100
AcDbEllipse
 10
18.4172236791
 20
4.8709245072
 30
0.0
 11
0.1703968446426956
 21
0.2459542240120776
 31
0.0
210
0.0
220
0.0
230
1.0
 40
0.3950575694
 41
2.465834243643595
 42
2.780860776057262
  0
LINE
  5
157
330
1F
100
AcDbEntity
  8
0
  6
Continuous
 62
     7
370
    25
100
AcDbLine
 10
18.1363160198
 20
4.584419012
 30
0.0
 11
18.2234981367
 21
4.6645601978
 31
0.0
  0
LINE
  5
158
330
1F
100
AcDbEntity
  8
0
  6
Continuous
 62
     7
370
    25
100
AcDbLine
 10
18.1363160198
 20
5.1574300025
 30
0.0
 11
18.2234981367
 21
5.0772888167
 31
0.0
  0
ELLIPSE
  5
159
330
1F
100
AcDbEntity
  8
0
  6
Continuous
 62
     7
370
    25
100
AcDbEllipse
 10
18.4172236791
 20
4.8709245072
 30
0.0
 11
-0.170396844642692
 21
0.2459542240120776
 31
0.0
210
0.0
220
0.0
230
1.0
 40
0.3950575694
 41
0.3607318775325461
 42
0.6757584099462012
  0
LINE
  5
15A
330
1F
100
AcDbEntity
  8
0
  6
Continuous
 62
     7
370
    25
100
AcDbLine
 10
18.1363160198
 20
5.10086146
 30
0.0
 11
18.2234981367
 21
5.0207202742
 31
0.0
  0
LINE
  5
15B
330
1F
100
AcDbEntity
  8
0
  6
Continuous
 62
     7
370
    25
100
AcDbLine
 10
18.1363160198
 20
5.0207202742
 30
0.0
 11
18.2234981367
 21
5.0207202742
 31
0.0
  0
LINE
  5
15C
330
1F
100
AcDbEntity
  8
0
  6
Continuous
 62
     7
370
    25
100
AcDbLine
 10
18.1740236204
 20
4.6190813021
 30
0.0
 11
18.2234981367
 21
4.6190813021
 31
0.0
  0
LINE
  5
15D
330
1F
100
AcDbEntity
  8
0
  6
Continuous
 62
     7
370
    25
100
AcDbLine
 10
19.751069833
 20
5.0933158116
 30
0.0
 11
18.2060630647
 21
5.0933158116
 31
0.0
  0
LINE
  5
15E
330
1F
100
AcDbEntity
  8
0
  6
Continuous
 62
     7
370
    25
100
AcDbLine
 10
19.751069833
 20
5.0933158116
 30
0.0
 11
19.751069833
 21
4.6159245072
 31
0.0
  0
LINE
  5
15F
330
1F
100
AcDbEntity
  8
0
  6
Continuous
 62
     7
370
    25
100
AcDbLine
 10
18.1492027616
 20
5.2193517001
 30
0.0
 11
18.1363160198
 21
5.2193517001
 31
0.0
  0
LINE
  5
160
330
1F
100
AcDbEntity
  8
0
  6
Continuous
 62
     7
370
    25
100
AcDbLine
 10
19.751069833
 20
5.2259245072
 30
0.0
 11
19.751069833
 21
5.0933158116
 31
0.0
  0
LINE
  5
161
330
1F
100
AcDbEntity
  8
0
  6
Continuous
 62
     7
370
    25
100
AcDbLine
 10
18.1363160198
 20
4.5057445501
 30
0.0
 11
18.2234981367
 21
4.6190813021
 31
0.0
  0
LINE
  5
162
330
1F
100
AcDbEntity
  8
0
  6
Continuous
 62
     7
370
    25
100
AcDbLine
 10
18.1363160198
 20
5.2361044643
 30
0.0
 11
18.1492027616
 21
5.2193517001
 31
0.0
  0
LINE
  5
163
330
1F
100
AcDbEntity
  8
0
  6
Continuous
 62
     7
370
    25
100
AcDbLine
 10
13.9304617356
 20
5.6584245072
 30
0.0
 11
14.0026305192
 21
5.6584245072
 31
0.0
  0
LINE
  5
164
330
1F
100
AcDbEntity
  8
0
  6
Continuous
 62
     7
370
    25
100
AcDbLine
 10
13.8943773438
 20
5.5959245072
 30
0.0
 11
13.9304617356
 21
5.6584245072
 31
0.0
  0
LINE
  5
165
330
1F
100
AcDbEntity
  8
0
  6
Continuous
 62
     7
370
    25
100
AcDbLine
 10
13.9304617356
 20
5.5334245072
 30
0.0
 11
13.8943773438
 21
5.5959245072
 31
0.0
  0
LINE
  5
166
330
1F
100
AcDbEntity
  8
0
  6
Continuous
 62
     7
370
    25
100
AcDbLine
 10
14.0026305192
 20
5.5334245072
 30
0.0
 11
13.9304617356
 21
5.5334245072
 31
0.0
  0
LINE
  5
167
330
1F
100
AcDbEntity
  8
0
  6
Continuous
 62
     7
370
    25
100
AcDbLine
 10
14.0387149111
 20
5.5959245072
 30
0.0
 11
14.0026305192
 21
5.5334245072
 31
0.0
  0
LINE
  5
168
330
1F
100
AcDbEntity
  8
0
  6
Continuous
 62
     7
370
    25
100
AcDbLine
 10
14.0026305192
 20
5.6584245072
 30
0.0
 11
14.0387149111
 21
5.5959245072
 31
0.0
  0
CIRCLE
  5
169
330
1F
100
AcDbEntity
  8
0
  6
Continuous
 62
     7
370
    25
100
AcDbCircle
 10
13.9665461274
 20
5.5959245072
 30
0.0
 40
0.2055000000000007
  0
ARC
  5
16A
330
1F
100
AcDbEntity
  8
0
  6
Continuous
 62
     7
370
    25
100
AcDbCircle
 10
13.9665461274
 20
5.5959245072
 30
0.0
 40
0.0625000000000065
100
AcDbArc
 50
30.0
 51
90.0
  0
ARC
  5
16B
330
1F
100
AcDbEntity
  8
0
  6
Continuous
 62
     7
370
    25
100
AcDbCircle
 10
13.9665461274
 20
5.5959245072
 30
0.0
 40
0.0625000000000065
100
AcDbArc
 50
330.0
 51
30.0
  0
ARC
  5
16C
330
1F
100
AcDbEntity
  8
0
  6
Continuous
 62
     7
370
    25
100
AcDbCircle
 10
13.9665461274
 20
5.5959245072
 30
0.0
 40
0.0624999999999998
100
AcDbArc
 50
270.0
 51
330.0
  0
ARC
  5
16D
330
1F
100
AcDbEntity
  8
0
  6
Continuous
 62
     7
370
    25
100
AcDbCircle
 10
13.9665461274
 20
5.5959245072
 30
0.0
 40
0.0624999999999981
100
AcDbArc
 50
210.0
 51
270.0
  0
ARC
  5
16E
330
1F
100
AcDbEntity
  8
0
  6
Continuous
 62
     7
370
    25
100
AcDbCircle
 10
13.9665461274
 20
5.5959245072
 30
0.0
 40
0.0624999999999981
100
AcDbArc
 50
150.0
 51
210.0
  0
ARC
  5
16F
330
1F
100
AcDbEntity
  8
0
  6
Continuous
 62
     7
370
    25
100
AcDbCircle
 10
13.9665461274
 20
5.5959245072
 30
0.0
 40
0.0625000000000036
100
AcDbArc
 50
90.0
 51
150.0
  0
LINE
  5
170
330
1F
100
AcDbEntity
  8
0
  6
Continuous
 62
     7
370
    25
100
AcDbLine
 10
17.2434617356
 20
5.6584245072
 30
0.0
 11
17.3156305192
 21
5.6584245072
 31
0.0
  0
LINE
  5
171
330
1F
100
AcDbEntity
  8
0
  6
Continuous
 62
     7
370
    25
100
AcDbLine
 10
17.2073773438
 20
5.5959245072
 30
0.0
 11
17.2434617356
 21
5.6584245072
 31
0.0
  0
LINE
  5
172
330
1F
100
AcDbEntity
  8
0
  6
Continuous
 62
     7
370
    25
100
AcDbLine
 10
17.2434617356
 20
5.5334245072
 30
0.0
 11
17.2073773438
 21
5.5959245072
 31
0.0
  0
LINE
  5
173
330
1F
100
AcDbEntity
  8
0
  6
Continuous
 62
     7
370
    25
100
AcDbLine
 10
17.3156305192
 20
5.5334245072
 30
0.0
 11
17.2434617356
 21
5.5334245072
 31
0.0
  0
LINE
  5
174
330
1F
100
AcDbEntity
  8
0
  6
Continuous
 62
     7
370
    25
100
AcDbLine
 10
17.3517149111
 20
5.5959245072
 30
0.0
 11
17.3156305192
 21
5.5334245072
 31
0.0
  0
LINE
  5
175
330
1F
100
AcDbEntity
  8
0
  6
Continuous
 62
     7
370
    25
100
AcDbLine
 10
17.3156305192
 20
5.6584245072
 30
0.0
 11
17.3517149111
 21
5.5959245072
 31
0.0
  0
CIRCLE
  5
176
330
1F
100
AcDbEntity
  8
0
  6
Continuous
 62
     7
370
    25
100
AcDbCircle
 10
17.2795461274
 20
5.5959245072
 30
0.0
 40
0.2055000000000016
  0
ARC
  5
177
330
1F
100
AcDbEntity
  8
0
  6
Continuous
 62
     7
370
    25
100
AcDbCircle
 10
17.2795461274
 20
5.5959245072
 30
0.0
 40
0.0624999999999973
100
AcDbArc
 50
210.0
 51
270.0
  0
ARC
  5
178
330
1F
100
AcDbEntity
  8
0
  6
Continuous
 62
     7
370
    25
100
AcDbCircle
 10
17.2795461274
 20
5.5959245072
 30
0.0
 40
0.0625000000000095
100
AcDbArc
 50
30.0
 51
90.0
  0
ARC
  5
179
330
1F
100
AcDbEntity
  8
0
  6
Continuous
 62
     7
370
    25
100
AcDbCircle
 10
17.2795461274
 20
5.5959245072
 30
0.0
 40
0.0625000000000095
100
AcDbArc
 50
330.0
 51
30.0
  0
ARC
  5
17A
330
1F
100
AcDbEntity
  8
0
  6
Continuous
 62
     7
370
    25
100
AcDbCircle
 10
17.2795461274
 20
5.5959245072
 30
0.0
 40
0.0624999999999998
100
AcDbArc
 50
270.0
 51
330.0
  0
ARC
  5
17B
330
1F
100
AcDbEntity
  8
0
  6
Continuous
 62
     7
370
    25
100
AcDbCircle
 10
17.2795461274
 20
5.5959245072
 30
0.0
 40
0.0624999999999946
100
AcDbArc
 50
150.0
 51
210.0
  0
ARC
  5
17C
330
1F
100
AcDbEntity
  8
0
  6
Continuous
 62
     7
370
    25
100
AcDbCircle
 10
17.2795461274
 20
5.5959245072
 30
0.0
 40
0.0625000000000044
100
AcDbArc
 50
90.0
 51
150.0
  0
DIMENSION
  5
17D
330
1F
100
AcDbEntity
  8
0
  6
Continuous
 62
     7
370
    18
100
AcDbDimension
  2
_D_3
 10
17.2795461274
 20
8.008326082
 30
0.0
 11
15.6230461274
 21
8.008326082
 31
0.0
 70
   160
  1
<> O.C.
 71
     2
 42
-1.0
  3
SLDDIMSTYLE1
100
AcDbAlignedDimension
 13
13.9665461274
 23
5.5959245072
 33
0.0
 14
17.2795461274
 24
5.5959245072
 34
0.0
100
AcDbRotatedDimension
  0
DIMENSION
  5
190
330
1F
100
AcDbEntity
  8
0
  6
Continuous
 62
     7
370
    18
100
AcDbDimension
  2
_D_4
 10
12.1832673409
 20
3.9959245072
 30
0.0
 11
12.1832673409
 21
5.5959245072
 31
0.0
 70
   160
  1
<>
 71
     2
 42
-1.0
  3
SLDDIMSTYLE1
100
AcDbAlignedDimension
 13
13.1220350658
 23
7.1959245072
 33
0.0
 14
13.1220350658
 24
3.9959245072
 34
0.0
 50
90.0
100
AcDbRotatedDimension
  0
DIMENSION
  5
1A4
330
1F
100
AcDbEntity
  8
0
  6
Continuous
 62
     7
370
    18
100
AcDbDimension
  2
_D_5
 10
18.124057189
 20
9.1476995869
 30
0.0
 11
15.6230461274
 21
9.1476995869
 31
0.0
 70
   160
  1
<>
 71
     2
 42
-1.0
  3
SLDDIMSTYLE0
100
AcDbAlignedDimension
 13
13.1220350658
 23
7.1959245072
 33
0.0
 14
18.124057189
 24
7.1959245072
 34
0.0
100
AcDbRotatedDimension
  0
MTEXT
  5
1B8
330
1F
100
AcDbEntity
  8
0
  6
Continuous
 62
     7
370
     0
100
AcDbMText
 10
16.6891049682
 20
3.3885444785
 30
0.0
 40
0.25
 41
0.0
 71
     2
 72
     1
  1
THERMAL PROTECTOR
  7
SLDTEXTSTYLE0
 73
     1
 44
1.0
  0
MTEXT
  5
1B9
330
1F
100
AcDbEntity
  8
0
  6
Continuous
 62
     7
370
     0
100
AcDbMText
 10
16.7088096875
 20
3.0598043295
 30
0.0
 40
0.25
 41
0.0
 71
     2
 72
     1
  1
(OPTIONAL)
  7
SLDTEXTSTYLE0
 73
     1
 44
1.0
  0
LEADER
  5
1BA
330
1F
100
AcDbEntity
  8
0
  6
Continuous
 62
     7
370
     0
100
AcDbLeader
  3
SLDDIMSTYLE2
 76
     3
 10
19.0007487324
 20
4.6159245072
 30
0.0
 10
18.9933814222
 20
3.1151931528
 30
0.0
 10
18.4933814222
 20
3.1151931528
 30
0.0
  0
LINE
  5
1BB
330
1F
100
AcDbEntity
  8
0
  6
Continuous
 62
     7
370
    25
100
AcDbLine
 10
15.1876126816
 20
14.2541999954
 30
0.0
 11
14.4620617506
 21
12.6421001782
 31
0.0
  0
LINE
  5
1BC
330
1F
100
AcDbEntity
  8
0
  6
Continuous
 62
     7
370
    25
100
AcDbLine
 10
14.2032545429
 20
15.4911291884
 30
0.0
 11
14.2032545429
 21
12.8781985903
 31
0.0
  0
LINE
  5
1BD
330
1F
100
AcDbEntity
  8
0
  6
Continuous
 62
     7
370
    25
100
AcDbLine
 10
20.8326887722
 20
12.2749065986
 30
0.0
 11
19.6558105174
 21
12.9543039538
 31
0.0
  0
LINE
  5
1BE
330
1F
100
AcDbEntity
  8
0
  6
Continuous
 62
     7
370
    25
100
AcDbLine
 10
19.5608308383
 20
12.3825558495
 30
0.0
 11
20.642704213
 21
11.7580036442
 31
0.0
  0
LINE
  5
1BF
330
1F
100
AcDbEntity
  8
0
  6
Continuous
 62
     7
370
    25
100
AcDbLine
 10
20.8976834899
 20
12.199688564
 30
0.0
 11
20.8584887108
 21
12.2223152283
 31
0.0
  0
LINE
  5
1C0
330
1F
100
AcDbEntity
  8
0
  6
Continuous
 62
     7
370
    25
100
AcDbLine
 10
19.2066387067
 20
12.2752659142
 30
0.0
 11
19.2844204527
 21
12.2303634681
 31
0.0
  0
LINE
  5
1C1
330
1F
100
AcDbEntity
  8
0
  6
Continuous
 62
     7
370
    25
100
AcDbLine
 10
19.8093777873
 20
13.1397147736
 30
0.0
 11
19.7315960414
 21
13.1846172197
 31
0.0
  0
LINE
  5
1C2
330
1F
100
AcDbEntity
  8
0
  6
Continuous
 62
     7
370
    25
100
AcDbLine
 10
18.6103756302
 20
11.6723195004
 30
0.0
 11
19.4783495196
 21
12.2241542415
 31
0.0
  0
LINE
  5
1C3
330
1F
100
AcDbEntity
  8
0
  6
Continuous
 62
     7
370
    25
100
AcDbLine
 10
16.5541767892
 20
16.4627138882
 30
0.0
 11
15.3713809011
 21
15.8457423064
 31
0.0
  0
LINE
  5
1C4
330
1F
100
AcDbEntity
  8
0
  6
Continuous
 62
     7
370
    25
100
AcDbLine
 10
14.8907422068
 20
13.6619505475
 30
0.0
 11
14.8911959578
 21
13.6622124925
 31
0.0
  0
LINE
  5
1C5
330
1F
100
AcDbEntity
  8
0
  6
Continuous
 62
     7
370
    25
100
AcDbLine
 10
17.0283574244
 20
12.6657785377
 30
0.0
 11
17.0279036733
 21
12.6655165927
 31
0.0
  0
LINE
  5
1C6
330
1F
100
AcDbEntity
  8
0
  6
Continuous
 62
     7
370
    25
100
AcDbLine
 10
15.206898102
 20
15.2270456866
 30
0.0
 11
15.060653444
 21
15.3114709306
 31
0.0
  0
LINE
  5
1C7
330
1F
100
AcDbEntity
  8
0
  6
Continuous
 62
     7
370
    25
100
AcDbLine
 10
15.1962915003
 20
15.2209226258
 30
0.0
 11
15.206898102
 21
15.2270456866
 31
0.0
  0
LINE
  5
1C8
330
1F
100
AcDbEntity
  8
0
  6
Continuous
 62
     7
370
    25
100
AcDbLine
 10
15.1962915003
 20
15.2209226258
 30
0.0
 11
17.2597555335
 21
14.0297101951
 31
0.0
  0
LINE
  5
1C9
330
1F
100
AcDbEntity
  8
0
  6
Continuous
 62
     7
370
    25
100
AcDbLine
 10
17.2703621352
 20
14.0358332559
 30
0.0
 11
17.2597555335
 21
14.0297101951
 31
0.0
  0
LINE
  5
1CA
330
1F
100
AcDbEntity
  8
0
  6
Continuous
 62
     7
370
    25
100
AcDbLine
 10
17.4166067932
 20
13.9514080119
 30
0.0
 11
17.2703621352
 21
14.0358332559
 31
0.0
  0
LINE
  5
1CB
330
1F
100
AcDbEntity
  8
0
  6
Continuous
 62
     7
370
    25
100
AcDbLine
 10
17.4060001915
 20
13.945284951
 30
0.0
 11
17.4166067932
 21
13.9514080119
 31
0.0
  0
LINE
  5
1CC
330
1F
100
AcDbEntity
  8
0
  6
Continuous
 62
     7
370
    25
100
AcDbLine
 10
17.4060001915
 20
13.945284951
 30
0.0
 11
18.0051737007
 21
13.5993894467
 31
0.0
  0
LINE
  5
1CD
330
1F
100
AcDbEntity
  8
0
  6
Continuous
 62
     7
370
    25
100
AcDbLine
 10
17.7482776948
 20
13.4610947481
 30
0.0
 11
18.0051737007
 21
13.5993894467
 31
0.0
  0
ARC
  5
1CE
330
1F
100
AcDbEntity
  8
0
  6
Continuous
 62
     7
370
    25
100
AcDbCircle
 10
17.727858157
 20
13.5026916473
 30
0.0
 40
0.0463385319619843
100
AcDbArc
 50
242.6993467637
 51
296.1459996425
  0
LINE
  5
1CF
330
1F
100
AcDbEntity
  8
0
  6
Continuous
 62
     7
370
    25
100
AcDbLine
 10
14.2120413395
 20
15.4788830667
 30
0.0
 11
17.7066045405
 21
13.4615146716
 31
0.0
  0
ARC
  5
1D0
330
1F
100
AcDbEntity
  8
0
  6
Continuous
 62
     7
370
    25
100
AcDbCircle
 10
14.2165531164
 20
15.4910591833
 30
0.0
 40
0.0129851432899342
100
AcDbArc
 50
113.7956164509
 51
249.6681570588
  0
LINE
  5
1D1
330
1F
100
AcDbEntity
  8
0
  6
Continuous
 62
     7
370
    25
100
AcDbLine
 10
14.450873333
 20
15.6512433741
 30
0.0
 11
14.2113139319
 21
15.5029404666
 31
0.0
  0
LINE
  5
1D2
330
1F
100
AcDbEntity
  8
0
  6
Continuous
 62
     7
370
    25
100
AcDbLine
 10
14.450873333
 20
15.6512433741
 30
0.0
 11
15.0500468422
 21
15.3053478698
 31
0.0
  0
LINE
  5
1D3
330
1F
100
AcDbEntity
  8
0
  6
Continuous
 62
     7
370
    25
100
AcDbLine
 10
15.060653444
 20
15.3114709306
 30
0.0
 11
15.0500468422
 21
15.3053478698
 31
0.0
  0
LINE
  5
1D4
330
1F
100
AcDbEntity
  8
0
  6
Continuous
 62
     7
370
    25
100
AcDbLine
 10
17.7066045405
 20
10.8485840736
 30
0.0
 11
17.7066045405
 21
13.4615146716
 31
0.0
  0
LINE
  5
1D5
330
1F
100
AcDbEntity
  8
0
  6
Continuous
 62
     7
370
    25
100
AcDbLine
 10
17.7482776948
 20
13.4610947481
 30
0.0
 11
17.7482776948
 21
10.8481641501
 31
0.0
  0
ARC
  5
1D6
330
1F
100
AcDbEntity
  8
0
  6
Continuous
 62
     7
370
    25
100
AcDbCircle
 10
17.727858157
 20
10.8897610493
 30
0.0
 40
0.0463385319619901
100
AcDbArc
 50
242.6993467637
 51
296.1459996425
  0
LINE
  5
1D7
330
1F
100
AcDbEntity
  8
0
  6
Continuous
 62
     7
370
    25
100
AcDbLine
 10
18.0051737007
 20
13.5993894467
 30
0.0
 11
18.0051737007
 21
10.9864588487
 31
0.0
  0
LINE
  5
1D8
330
1F
100
AcDbEntity
  8
0
  6
Continuous
 62
     7
370
    25
100
AcDbLine
 10
18.0051737007
 20
10.9864588487
 30
0.0
 11
17.7482776948
 21
10.8481641501
 31
0.0
  0
ELLIPSE
  5
1D9
330
1F
100
AcDbEntity
  8
0
  6
Continuous
 62
     7
370
    25
100
AcDbEllipse
 10
16.5429544919
 20
13.3233432927
 30
0.0
 11
-0.08840013007984027
 21
0.4931133015601877
 31
0.0
210
0.0
220
0.0
230
1.0
 40
0.5091526124
 41
4.373850200410337
 42
5.877366168597213
  0
LINE
  5
1DA
330
1F
100
AcDbEntity
  8
0
  6
Continuous
 62
     7
370
    25
100
AcDbLine
 10
15.3577963494
 20
14.4886817539
 30
0.0
 11
16.5608495306
 21
13.7941739355
 31
0.0
  0
ELLIPSE
  5
1DB
330
1F
100
AcDbEntity
  8
0
  6
Continuous
 62
     7
370
    25
100
AcDbEllipse
 10
15.3756913882
 20
13.9971899392
 30
0.0
 11
-0.1229227706222496
 21
0.5117155364485592
 31
0.0
210
0.0
220
0.0
230
1.0
 40
0.4613786991
 41
5.870434553913099
 42
7.373950522099932
  0
LINE
  5
1DC
330
1F
100
AcDbEntity
  8
0
  6
Continuous
 62
     7
370
    25
100
AcDbLine
 10
16.8091324222
 20
13.2020303265
 30
0.0
 11
16.8091324222
 21
12.1863958394
 31
0.0
  0
LINE
  5
1DD
330
1F
100
AcDbEntity
  8
0
  6
Continuous
 62
     7
370
    25
100
AcDbLine
 10
17.7066045405
 20
10.8485840736
 30
0.0
 11
15.8262800838
 21
11.9340722772
 31
0.0
  0
LINE
  5
1DE
330
1F
100
AcDbEntity
  8
0
  6
Continuous
 62
     7
370
    25
100
AcDbLine
 10
14.4904695095
 20
12.7052193074
 30
0.0
 11
14.2120413395
 21
12.8659524687
 31
0.0
  0
LINE
  5
1DF
330
1F
100
AcDbEntity
  8
0
  6
Continuous
 62
     7
370
    25
100
AcDbLine
 10
14.2120413395
 20
15.4788830667
 30
0.0
 11
14.2120413395
 21
12.8659524687
 31
0.0
  0
LWPOLYLINE
  5
1E0
330
1F
100
AcDbEntity
  8
0
  6
Continuous
 62
     7
370
    25
100
AcDbPolyline
 90
       30
 70
   128
 43
0.0
 10
17.274541553
 20
12.4044740261
 10
17.2711525415
 20
12.4424145491
 10
17.2611439733
 20
12.4824938848
 10
17.2449838379
 20
12.5228379681
 10
17.2234277654
 20
12.5615603544
 10
17.1974836938
 20
12.596850428
 10
17.1683647389
 20
12.6270580644
 10
17.1374324707
 20
12.6507707879
 10
17.1061332478
 20
12.666879818
 10
17.075930587
 20
12.6746319144
 10
17.0482367311
 20
12.6736645976
 10
17.0243466141
 20
12.6640230983
 10
17.0053773113
 20
12.6461582423
 10
16.9922158062
 20
12.6209053703
 10
16.9854775162
 20
12.5894452788
 10
16.9854775162
 20
12.5532490064
 10
16.9922158062
 20
12.5140090508
 10
17.0053773113
 20
12.4735602286
 10
17.0243466141
 20
12.4337938817
 10
17.0482367311
 20
12.3965694405
 10
17.075930587
 20
12.3636274783
 10
17.1061332478
 20
12.3365083247
 10
17.1374324707
 20
12.3164800413
 10
17.1683647389
 20
12.3044791282
 10
17.1974836938
 20
12.3010667348
 10
17.2234277654
 20
12.3064024209
 10
17.2449838379
 20
12.3202366956
 10
17.2611439733
 20
12.3419226838
 10
17.2711525415
 20
12.3704463726
 10
17.274541553
 20
12.4044740261
  0
LWPOLYLINE
  5
1E1
330
1F
100
AcDbEntity
  8
0
  6
Continuous
 62
     7
370
    25
100
AcDbPolyline
 90
       30
 70
   128
 43
0.0
 10
14.9340181073
 20
13.7556294512
 10
14.9306290958
 20
13.7935699742
 10
14.9206205276
 20
13.8336493099
 10
14.9044603922
 20
13.8739933931
 10
14.8829043197
 20
13.9127157795
 10
14.856960248
 20
13.9480058531
 10
14.8278412931
 20
13.9782134894
 10
14.796909025
 20
14.001926213
 10
14.765609802
 20
14.0180352431
 10
14.7354071412
 20
14.0257873394
 10
14.7077132854
 20
14.0248200226
 10
14.6838231684
 20
14.0151785233
 10
14.6648538656
 20
13.9973136673
 10
14.6516923605
 20
13.9720607954
 10
14.6449540705
 20
13.9406007038
 10
14.6449540705
 20
13.9044044315
 10
14.6516923605
 20
13.8651644758
 10
14.6648538656
 20
13.8247156536
 10
14.6838231684
 20
13.7849493068
 10
14.7077132854
 20
13.7477248656
 10
14.7354071412
 20
13.7147829034
 10
14.765609802
 20
13.6876637498
 10
14.796909025
 20
13.6676354663
 10
14.8278412931
 20
13.6556345532
 10
14.856960248
 20
13.6522221599
 10
14.8829043197
 20
13.6575578459
 10
14.9044603922
 20
13.6713921207
 10
14.9206205276
 20
13.6930781089
 10
14.9306290958
 20
13.7216017977
 10
14.9340181073
 20
13.7556294512
  0
LINE
  5
1E2
330
1F
100
AcDbEntity
  8
0
  6
Continuous
 62
     7
370
    25
100
AcDbLine
 10
15.5484602757
 20
11.9394866484
 30
0.0
 11
16.5305376234
 21
13.6792441212
 31
0.0
  0
ELLIPSE
  5
1E3
330
1F
100
AcDbEntity
  8
0
  6
Continuous
 62
     7
370
    25
100
AcDbEllipse
 10
16.4103719704
 20
13.2468050322
 30
0.0
 11
0.1101140289543707
 21
0.4361383188991628
 31
0.0
210
0.0
220
0.0
230
1.0
 40
0.3348498656
 41
4.708895207425696
 42
6.212411175612562
  0
LINE
  5
1E4
330
1F
100
AcDbEntity
  8
0
  6
Continuous
 62
     7
370
    25
100
AcDbLine
 10
16.5560272239
 20
13.2084098243
 30
0.0
 11
15.8397255723
 21
11.9394760137
 31
0.0
  0
ELLIPSE
  5
1E5
330
1F
100
AcDbEntity
  8
0
  6
Continuous
 62
     7
370
    25
100
AcDbEllipse
 10
15.7186820919
 20
12.0214711644
 30
0.0
 11
0.2155532466428873
 21
0.02364668110022983
 31
0.0
210
0.0
220
0.0
230
1.0
 40
0.5090174845
 41
3.748290699989834
 42
5.251806668176682
  0
LINE
  5
1E6
330
1F
100
AcDbEntity
  8
0
  6
Continuous
 62
     7
370
    25
100
AcDbLine
 10
15.3274844422
 20
14.3737519396
 30
0.0
 11
14.503423702
 21
12.5427734211
 31
0.0
  0
LINE
  5
1E7
330
1F
100
AcDbEntity
  8
0
  6
Continuous
 62
     7
370
    25
100
AcDbLine
 10
16.5305376234
 20
13.6792441212
 30
0.0
 11
15.3274844422
 21
14.3737519396
 31
0.0
  0
LINE
  5
1E8
330
1F
100
AcDbEntity
  8
0
  6
Continuous
 62
     7
370
    25
100
AcDbLine
 10
14.503423702
 20
12.5427734211
 30
0.0
 11
15.5484602757
 21
11.9394866484
 31
0.0
  0
LWPOLYLINE
  5
1E9
330
1F
100
AcDbEntity
  8
0
  6
Continuous
 62
     7
370
    25
100
AcDbPolyline
 90
        3
 70
   128
 43
0.0
 10
17.4166067932
 20
13.9514080119
 10
17.4192380767
 20
13.9396459636
 10
17.4196213156
 20
13.9374216434
  0
LINE
  5
1EA
330
1F
100
AcDbEntity
  8
0
  6
Continuous
 62
     7
370
    25
100
AcDbLine
 10
16.5560272239
 20
12.2465918276
 30
0.0
 11
15.8397255723
 21
11.9394760137
 31
0.0
  0
LINE
  5
1EB
330
1F
100
AcDbEntity
  8
0
  6
Continuous
 62
     7
370
    25
100
AcDbLine
 10
16.5560272239
 20
12.2465918276
 30
0.0
 11
16.5560272239
 21
13.2084098243
 31
0.0
  0
ARC
  5
1EC
330
1F
100
AcDbEntity
  8
0
  6
Continuous
 62
     7
370
    25
100
AcDbCircle
 10
16.6759670778
 20
12.9428608316
 30
0.0
 40
0.2913791963806144
100
AcDbArc
 50
62.8051914431
 51
114.3071482052
  0
ARC
  5
1ED
330
1F
100
AcDbEntity
  8
0
  6
Continuous
 62
     7
370
    25
100
AcDbCircle
 10
16.299164916
 20
13.8017291794
 30
0.0
 40
0.2617936576762639
100
AcDbArc
 50
332.1039620547
 51
358.3462406651
  0
ARC
  5
1EE
330
1F
100
AcDbEntity
  8
0
  6
Continuous
 62
     7
370
    25
100
AcDbCircle
 10
15.0961117349
 20
14.4962369979
 30
0.0
 40
0.2617936576762616
100
AcDbArc
 50
332.1039620547
 51
358.3462406651
  0
SPLINE
  5
1EF
330
1F
100
AcDbEntity
  8
0
  6
Continuous
 62
     7
370
    25
100
AcDbSpline
210
0.0
220
0.0
230
1.0
 70
     8
 71
     3
 72
    11
 73
     7
 74
     0
 42
0.00000001
 43
0.00000001
 40
0.0
 40
0.0
 40
0.0
 40
0.0
 40
0.2430944773810579
 40
0.6021774020405862
 40
0.9966531778212991
 40
1.0
 40
1.0
 40
1.0
 40
1.0
 10
16.67382281609038
 20
12.26701288180123
 30
0.0
 10
16.68694310829602
 20
12.26518612272436
 30
0.0
 10
16.71944381978698
 20
12.26066099715626
 30
0.0
 10
16.7666170916997
 20
12.23142384432417
 30
0.0
 10
16.79575893508632
 20
12.20283245293608
 30
0.0
 10
16.80902085166336
 20
12.18653296452937
 30
0.0
 10
16.80913242218941
 20
12.18639583936458
 30
0.0
  0
ELLIPSE
  5
1F0
330
1F
100
AcDbEntity
  8
0
  6
Continuous
 62
     7
370
    25
100
AcDbEllipse
 10
16.6765499007
 20
12.1643733812
 30
0.0
 11
0.1874479079146774
 21
-0.008089621709411075
 31
0.0
210
0.0
220
0.0
230
1.0
 40
0.5463150007
 41
1.60891404306045
 42
2.292500779676241
  0
ELLIPSE
  5
1F1
330
1F
100
AcDbEntity
  8
0
  6
Continuous
 62
     7
370
    25
100
AcDbEllipse
 10
14.6627121448
 20
12.6310696392
 30
0.0
 11
0.206847511855532
 21
0.02693468436084778
 31
0.0
210
0.0
220
0.0
230
1.0
 40
0.5500908635
 41
2.814679850955522
 42
3.764998797839883
  0
LWPOLYLINE
  5
1F2
330
1F
100
AcDbEntity
  8
0
  6
Continuous
 62
     7
370
    25
100
AcDbPolyline
 90
        3
 70
   128
 43
0.0
 10
15.206898102
 20
15.2270456866
 10
15.2095293855
 20
15.2152836383
 10
15.2099126244
 20
15.2130593182
  0
ARC
  5
1F3
330
1F
100
AcDbEntity
  8
0
  6
Continuous
 62
     7
370
    25
100
AcDbCircle
 10
14.2180349201
 20
12.8795283601
 30
0.0
 40
0.0148400753465412
100
AcDbArc
 50
185.1409795769
 51
246.1791613808
  0
LWPOLYLINE
  5
1F4
330
1F
100
AcDbEntity
  8
0
  6
Continuous
 62
     7
370
    25
100
AcDbPolyline
 90
       12
 70
   128
 43
0.0
 10
20.8584183031
 20
12.2113685722
 10
20.856136994
 20
12.2401061793
 10
20.8463467099
 20
12.2624258582
 10
20.8299028421
 20
12.2763775067
 10
20.8082421146
 20
12.2807421494
 10
20.7832570561
 20
12.2751384413
 10
20.7571306468
 20
12.2600559862
 10
20.7321455883
 20
12.2368125599
 10
20.7104848608
 20
12.2074389735
 10
20.694040993
 20
12.1745016393
 10
20.6842507089
 20
12.1408783391
 10
20.6819693998
 20
12.1095067884
  0
LWPOLYLINE
  5
1F5
330
1F
100
AcDbEntity
  8
0
  6
Continuous
 62
     7
370
    25
100
AcDbPolyline
 90
       28
 70
   128
 43
0.0
 10
20.6819693998
 20
12.1095067884
 10
20.653192967
 20
12.0697341255
 10
20.628844096
 20
12.026522067
 10
20.6098441995
 20
11.9815058489
 10
20.596912274
 20
11.9363889805
 10
20.5905376909
 20
11.8928787796
 10
20.5909616781
 20
11.8526217647
 10
20.5981681909
 20
11.8171413465
 10
20.6118845195
 20
11.7877801794
 10
20.6315916092
 20
11.7656493522
 10
20.6565437016
 20
11.7515863423
 10
20.6857965569
 20
11.7461233238
 10
20.7182431847
 20
11.749467029
 10
20.752655736
 20
11.761490925
 10
20.7877319668
 20
11.7817400021
 10
20.8221445181
 20
11.8094479921
 10
20.854591146
 20
11.843566366
 10
20.8838440012
 20
11.8828040122
 10
20.9087960937
 20
11.9256760948
 10
20.9285031833
 20
11.9705602434
 10
20.942219512
 20
12.0157579466
 10
20.9494260248
 20
12.0595588273
 10
20.949850012
 20
12.1003053674
 10
20.9434754289
 20
12.1364556313
 10
20.9305435034
 20
12.1666416163
 10
20.9115436069
 20
12.1897210209
 10
20.8871947358
 20
12.2048204712
 10
20.8584183031
 20
12.2113685722
  0
LINE
  5
1F6
330
1F
100
AcDbEntity
  8
0
  6
Continuous
 62
     7
370
    25
100
AcDbLine
 10
20.6819693998
 20
12.1095067884
 30
0.0
 11
19.4586746683
 21
12.8156998052
 31
0.0
  0
ARC
  5
1F7
330
1F
100
AcDbEntity
  8
0
  6
Continuous
 62
     7
370
    25
100
AcDbCircle
 10
19.6508181437
 20
12.8137701951
 30
0.0
 40
0.1921531642931927
100
AcDbArc
 50
133.4727873638
 51
179.4246237333
  0
LINE
  5
1F8
330
1F
100
AcDbEntity
  8
0
  6
Continuous
 62
     7
370
    25
100
AcDbLine
 10
19.6092185114
 20
12.9009116004
 30
0.0
 11
19.5186148487
 21
12.9532159815
 31
0.0
  0
ELLIPSE
  5
1F9
330
1F
100
AcDbEntity
  8
0
  6
Continuous
 62
     7
370
    25
100
AcDbEllipse
 10
19.7019186836
 20
12.7833526184
 30
0.0
 11
-0.06034204352399896
 21
0.1450980612726056
 31
0.0
210
0.0
220
0.0
230
1.0
 40
0.6463005949
 41
6.041385109394643
 42
6.692844083989526
  0
ELLIPSE
  5
1FA
330
1F
100
AcDbEntity
  8
0
  6
Continuous
 62
     7
370
    25
100
AcDbEllipse
 10
19.827022191
 20
12.5233275141
 30
0.0
 11
0.2919796755316533
 21
0.1127494522241292
 31
0.0
210
0.0
220
0.0
230
1.0
 40
0.3832768703
 41
3.283816221520758
 42
3.441410751789705
  0
LINE
  5
1FB
330
1F
100
AcDbEntity
  8
0
  6
Continuous
 62
     7
370
    25
100
AcDbLine
 10
19.4314725199
 20
12.4608816253
 30
0.0
 11
19.5441159436
 21
12.395853961
 31
0.0
  0
ELLIPSE
  5
1FC
330
1F
100
AcDbEntity
  8
0
  6
Continuous
 62
     7
370
    25
100
AcDbEllipse
 10
19.827022191
 20
12.5233275141
 30
0.0
 11
0.3178894977984577
 21
0.0414034178060625
 31
0.0
210
0.0
220
0.0
230
1.0
 40
0.6463532555
 41
2.900093338936029
 42
3.215119871349707
  0
LINE
  5
1FD
330
1F
100
AcDbEntity
  8
0
  6
Continuous
 62
     7
370
    25
100
AcDbLine
 10
19.3688190818
 20
12.6148973355
 30
0.0
 11
19.5119575081
 21
12.5322652809
 31
0.0
  0
ARC
  5
1FE
330
1F
100
AcDbEntity
  8
0
  6
Continuous
 62
     7
370
    25
100
AcDbCircle
 10
19.7399994378
 20
12.5634823583
 30
0.0
 40
0.3747243741485473
100
AcDbArc
 50
154.7860592252
 51
172.1137143324
  0
LINE
  5
1FF
330
1F
100
AcDbEntity
  8
0
  6
Continuous
 62
     7
370
    25
100
AcDbLine
 10
19.4009775174
 20
12.7231147299
 30
0.0
 11
19.5441159436
 21
12.6404826753
 31
0.0
  0
ELLIPSE
  5
200
330
1F
100
AcDbEntity
  8
0
  6
Continuous
 62
     7
370
    25
100
AcDbEllipse
 10
19.827022191
 20
12.5233275141
 30
0.0
 11
0.266194762413118
 21
-0.1537109472412492
 31
0.0
210
0.0
220
0.0
230
1.0
 40
0.829573409
 41
2.984133912578132
 42
3.299160444991803
  0
ARC
  5
201
330
1F
100
AcDbEntity
  8
0
  6
Continuous
 62
     7
370
    25
100
AcDbCircle
 10
19.7851073413
 20
12.5494239068
 30
0.0
 40
0.4212613725778849
100
AcDbArc
 50
140.7953722293
 51
144.7759972787
  0
LINE
  5
202
330
1F
100
AcDbEntity
  8
0
  6
Continuous
 62
     7
370
    25
100
AcDbLine
 10
19.9110591123
 20
12.8626025771
 30
0.0
 11
19.9110591123
 21
12.9279258421
 31
0.0
  0
LINE
  5
203
330
1F
100
AcDbEntity
  8
0
  6
Continuous
 62
     7
370
    25
100
AcDbLine
 10
19.9110591123
 20
12.9279258421
 30
0.0
 11
19.8332036214
 21
12.8829808239
 31
0.0
  0
LINE
  5
204
330
1F
100
AcDbEntity
  8
0
  6
Continuous
 62
     7
370
    25
100
AcDbLine
 10
19.82439912
 20
13.1194926949
 30
0.0
 11
19.78439912
 21
13.14259171
 31
0.0
  0
LINE
  5
205
330
1F
100
AcDbEntity
  8
0
  6
Continuous
 62
     7
370
    25
100
AcDbLine
 10
19.78439912
 20
13.14259171
 30
0.0
 11
19.6707213829
 21
12.9456960943
 31
0.0
  0
LINE
  5
206
330
1F
100
AcDbEntity
  8
0
  6
Continuous
 62
     7
370
    25
100
AcDbLine
 10
19.5751833912
 20
13.1218858012
 30
0.0
 11
19.5186148487
 21
13.0892294767
 31
0.0
  0
LINE
  5
207
330
1F
100
AcDbEntity
  8
0
  6
Continuous
 62
     7
370
    25
100
AcDbLine
 10
19.5186148487
 20
12.9532159815
 30
0.0
 11
19.5186148487
 21
13.0892294767
 31
0.0
  0
LINE
  5
208
330
1F
100
AcDbEntity
  8
0
  6
Continuous
 62
     7
370
    25
100
AcDbLine
 10
19.30939912
 20
12.8683800468
 30
0.0
 11
19.26939912
 21
12.7990980147
 31
0.0
  0
LINE
  5
209
330
1F
100
AcDbEntity
  8
0
  6
Continuous
 62
     7
370
    25
100
AcDbLine
 10
19.26939912
 20
12.7990980147
 30
0.0
 11
19.4009775174
 21
12.7231147299
 31
0.0
  0
LINE
  5
20A
330
1F
100
AcDbEntity
  8
0
  6
Continuous
 62
     7
370
    25
100
AcDbLine
 10
19.1827391277
 20
12.5074756645
 30
0.0
 11
19.3688190818
 21
12.6148973355
 31
0.0
  0
LINE
  5
20B
330
1F
100
AcDbEntity
  8
0
  6
Continuous
 62
     7
370
    25
100
AcDbLine
 10
19.1827391277
 20
12.5074756645
 30
0.0
 11
19.1827391277
 21
12.4421523996
 31
0.0
  0
LINE
  5
20C
330
1F
100
AcDbEntity
  8
0
  6
Continuous
 62
     7
370
    25
100
AcDbLine
 10
19.26939912
 20
12.2505855468
 30
0.0
 11
19.3889656954
 21
12.4576809296
 31
0.0
  0
LINE
  5
20D
330
1F
100
AcDbEntity
  8
0
  6
Continuous
 62
     7
370
    25
100
AcDbLine
 10
19.26939912
 20
12.2505855468
 30
0.0
 11
19.30939912
 21
12.2274865316
 31
0.0
  0
LINE
  5
20E
330
1F
100
AcDbEntity
  8
0
  6
Continuous
 62
     7
370
    25
100
AcDbLine
 10
19.5186148487
 20
12.2481924405
 30
0.0
 11
19.5186148487
 21
12.3381184061
 31
0.0
  0
LINE
  5
20F
330
1F
100
AcDbEntity
  8
0
  6
Continuous
 62
     7
370
    25
100
AcDbLine
 10
19.5186148487
 20
12.2481924405
 30
0.0
 11
19.5751833912
 21
12.2808487649
 31
0.0
  0
LWPOLYLINE
  5
210
330
1F
100
AcDbEntity
  8
0
  6
Continuous
 62
     7
370
    25
100
AcDbPolyline
 90
        3
 70
   128
 43
0.0
 10
19.9181301801
 20
12.8993462502
 10
19.9148178666
 20
12.8402961169
 10
19.9103218306
 20
12.8073777001
  0
LWPOLYLINE
  5
211
330
1F
100
AcDbEntity
  8
0
  6
Continuous
 62
     7
370
    25
100
AcDbPolyline
 90
       40
 70
   128
 43
0.0
 10
19.6519604854
 20
12.3345314816
 10
19.6329579601
 20
12.3177138285
 10
19.5840577497
 20
12.2799593449
 10
19.5344944427
 20
12.2494335194
 10
19.4851524974
 20
12.2266810863
 10
19.436912422
 20
12.2121080631
 10
19.3906350619
 20
12.2059745059
 10
19.3471462376
 20
12.2083898681
 10
19.3072220082
 20
12.2193110474
 10
19.2715748226
 20
12.2385431553
 10
19.2408408055
 20
12.2657429943
 10
19.2155684064
 20
12.3004251825
 10
19.1962086116
 20
12.3419708157
 10
19.1831068973
 20
12.3896385108
 10
19.1764970639
 20
12.4425776368
 10
19.1764970639
 20
12.4998434938
 10
19.1831068973
 20
12.5604141711
 10
19.1962086116
 20
12.6232087836
 10
19.2155684064
 20
12.6871067599
 10
19.2408408055
 20
12.7509678392
 10
19.2715748226
 20
12.8136524189
 10
19.3072220082
 20
12.8740418912
 10
19.3471462376
 20
12.9310586047
 10
19.3906350619
 20
12.9836850946
 10
19.436912422
 20
13.0309822401
 10
19.4851524974
 20
13.0721060223
 10
19.5344944427
 20
13.1063225866
 10
19.5840577497
 20
13.1330213375
 10
19.6329579601
 20
13.151725835
 10
19.6803224485
 20
13.1621022971
 10
19.7253059944
 20
13.1639655555
 10
19.7671058655
 20
13.1572823604
 10
19.8049761419
 20
13.1421719734
 10
19.8382410278
 20
13.1189040399
 10
19.8663069104
 20
13.0878937766
 10
19.8886729534
 20
13.0496945624
 10
19.9049400343
 20
13.0049880633
 10
19.9148178666
 20
12.9545720676
 10
19.9181301801
 20
12.8993462502
 10
19.9181301801
 20
12.8993462502
  0
LWPOLYLINE
  5
212
330
1F
100
AcDbEntity
  8
0
  6
Continuous
 62
     7
370
    25
100
AcDbPolyline
 90
       26
 70
   128
 43
0.0
 10
19.2066387067
 20
12.2752659142
 10
19.1937930766
 20
12.2834456015
 10
19.1630590596
 20
12.3106454404
 10
19.1377866604
 20
12.3453276287
 10
19.1184268657
 20
12.3868732618
 10
19.1053251514
 20
12.4345409569
 10
19.098715318
 20
12.487480083
 10
19.098715318
 20
12.5447459399
 10
19.1053251514
 20
12.6053166172
 10
19.1184268657
 20
12.6681112297
 10
19.1377866604
 20
12.7320092061
 10
19.1630590596
 20
12.7958702853
 10
19.1937930766
 20
12.858554865
 10
19.2294402623
 20
12.9189443374
 10
19.2693644917
 20
12.9759610508
 10
19.312853316
 20
13.0285875408
 10
19.3591306761
 20
13.0758846862
 10
19.4073707514
 20
13.1170084685
 10
19.4567126967
 20
13.1512250328
 10
19.5062760038
 20
13.1779237836
 10
19.5551762142
 20
13.1966282812
 10
19.6025407026
 20
13.2070047433
 10
19.6475242485
 20
13.2088680017
 10
19.6893241195
 20
13.2021848065
 10
19.727194396
 20
13.1870744196
 10
19.7315960414
 20
13.1846172197
  0
LINE
  5
213
330
1F
100
AcDbEntity
  8
0
  6
Continuous
 62
     7
370
    25
100
AcDbLine
 10
19.30939912
 20
12.8683800468
 30
0.0
 11
19.5841159436
 21
12.7097647074
 31
0.0
  0
LINE
  5
214
330
1F
100
AcDbEntity
  8
0
  6
Continuous
 62
     7
370
    25
100
AcDbLine
 10
19.26939912
 20
12.7990980147
 30
0.0
 11
19.5441159436
 21
12.6404826753
 31
0.0
  0
LINE
  5
215
330
1F
100
AcDbEntity
  8
0
  6
Continuous
 62
     7
370
    25
100
AcDbLine
 10
19.1827391277
 20
12.5074756645
 30
0.0
 11
19.5119575081
 21
12.5322652809
 31
0.0
  0
LINE
  5
216
330
1F
100
AcDbEntity
  8
0
  6
Continuous
 62
     7
370
    25
100
AcDbLine
 10
19.1827391277
 20
12.4421523996
 30
0.0
 11
19.5119575081
 21
12.4669420159
 31
0.0
  0
LINE
  5
217
330
1F
100
AcDbEntity
  8
0
  6
Continuous
 62
     7
370
    25
100
AcDbLine
 10
19.5186148487
 20
13.0892294767
 30
0.0
 11
19.6092185114
 21
12.9009116004
 31
0.0
  0
LINE
  5
218
330
1F
100
AcDbEntity
  8
0
  6
Continuous
 62
     7
370
    25
100
AcDbLine
 10
19.5751833912
 20
13.1218858012
 30
0.0
 11
19.6657870539
 21
12.9335679248
 31
0.0
  0
LINE
  5
219
330
1F
100
AcDbEntity
  8
0
  6
Continuous
 62
     7
370
    25
100
AcDbLine
 10
19.26939912
 20
12.2505855468
 30
0.0
 11
19.5441159436
 21
12.395853961
 31
0.0
  0
LINE
  5
21A
330
1F
100
AcDbEntity
  8
0
  6
Continuous
 62
     7
370
    25
100
AcDbLine
 10
19.30939912
 20
12.2274865316
 30
0.0
 11
19.5808238687
 21
12.3710141187
 31
0.0
  0
LINE
  5
21B
330
1F
100
AcDbEntity
  8
0
  6
Continuous
 62
     7
370
    25
100
AcDbLine
 10
19.82439912
 20
13.1194926949
 30
0.0
 11
19.8343861723
 21
12.8512144225
 31
0.0
  0
LINE
  5
21C
330
1F
100
AcDbEntity
  8
0
  6
Continuous
 62
     7
370
    25
100
AcDbLine
 10
19.78439912
 20
13.14259171
 30
0.0
 11
19.7943864579
 21
12.8743057661
 31
0.0
  0
LINE
  5
21D
330
1F
100
AcDbEntity
  8
0
  6
Continuous
 62
     7
370
    25
100
AcDbLine
 10
19.5186148487
 20
12.2481924405
 30
0.0
 11
19.6243536078
 21
12.3458849352
 31
0.0
  0
LINE
  5
21E
330
1F
100
AcDbEntity
  8
0
  6
Continuous
 62
     7
370
    25
100
AcDbLine
 10
19.5751833912
 20
12.2808487649
 30
0.0
 11
19.6374149585
 21
12.3383447779
 31
0.0
  0
LINE
  5
21F
330
1F
100
AcDbEntity
  8
0
  6
Continuous
 62
     7
370
    25
100
AcDbLine
 10
19.9110591123
 20
12.8626025771
 30
0.0
 11
19.8999360423
 21
12.813373288
 31
0.0
  0
LINE
  5
220
330
1F
100
AcDbEntity
  8
0
  6
Continuous
 62
     7
370
    25
100
AcDbLine
 10
19.9110591123
 20
12.9279258421
 30
0.0
 11
19.8868796414
 21
12.8209105878
 31
0.0
  0
LINE
  5
221
330
1F
100
AcDbEntity
  8
0
  6
Continuous
 62
     7
370
    25
100
AcDbLine
 10
19.9355495827
 20
14.7327369615
 30
0.0
 11
19.7432283724
 21
14.621713596
 31
0.0
  0
LINE
  5
222
330
1F
100
AcDbEntity
  8
0
  6
Continuous
 62
     7
370
    25
100
AcDbLine
 10
19.9355495827
 20
12.7928140288
 30
0.0
 11
19.9355495827
 21
14.7327369615
 31
0.0
  0
ELLIPSE
  5
223
330
1F
100
AcDbEntity
  8
0
  6
Continuous
 62
     7
370
    25
100
AcDbEllipse
 10
19.4558182198
 20
13.92120183
 30
0.0
 11
0.1913211139093534
 21
0.3549790466869993
 31
0.0
210
0.0
220
0.0
230
1.0
 40
0.5568908039
 41
0.0
 42
6.283185307179586
  0
LINE
  5
224
330
1F
100
AcDbEntity
  8
0
  6
Continuous
 62
     7
370
    25
100
AcDbLine
 10
16.7604160375
 20
16.5657025415
 30
0.0
 11
16.5541767892
 21
16.4627138882
 31
0.0
  0
LINE
  5
225
330
1F
100
AcDbEntity
  8
0
  6
Continuous
 62
     7
370
    25
100
AcDbLine
 10
17.0822616718
 20
16.3799050116
 30
0.0
 11
16.7604160375
 21
16.5657025415
 31
0.0
  0
LINE
  5
226
330
1F
100
AcDbEntity
  8
0
  6
Continuous
 62
     7
370
    25
100
AcDbLine
 10
17.0822616718
 20
16.3799050116
 30
0.0
 11
17.1264558456
 21
16.3543922581
 31
0.0
  0
LINE
  5
227
330
1F
100
AcDbEntity
  8
0
  6
Continuous
 62
     7
370
    25
100
AcDbLine
 10
19.5695097746
 20
14.9440472449
 30
0.0
 11
17.1264558456
 21
16.3543922581
 31
0.0
  0
LINE
  5
228
330
1F
100
AcDbEntity
  8
0
  6
Continuous
 62
     7
370
    25
100
AcDbLine
 10
19.5695097746
 20
14.9440472449
 30
0.0
 11
19.6137039484
 21
14.9185344914
 31
0.0
  0
LINE
  5
229
330
1F
100
AcDbEntity
  8
0
  6
Continuous
 62
     7
370
    25
100
AcDbLine
 10
19.9355495827
 20
14.7327369615
 30
0.0
 11
19.6137039484
 21
14.9185344914
 31
0.0
  0
LINE
  5
22A
330
1F
100
AcDbEntity
  8
0
  6
Continuous
 62
     7
370
    25
100
AcDbLine
 10
19.5916068615
 20
14.9568036217
 30
0.0
 11
19.5695097746
 21
14.9440472449
 31
0.0
  0
LINE
  5
22B
330
1F
100
AcDbEntity
  8
0
  6
Continuous
 62
     7
370
    25
100
AcDbLine
 10
19.5916068615
 20
14.9568036217
 30
0.0
 11
19.6358010354
 21
14.9312908682
 31
0.0
  0
LINE
  5
22C
330
1F
100
AcDbEntity
  8
0
  6
Continuous
 62
     7
370
    25
100
AcDbLine
 10
19.6358010354
 20
14.9312908682
 30
0.0
 11
19.6137039484
 21
14.9185344914
 31
0.0
  0
LINE
  5
22D
330
1F
100
AcDbEntity
  8
0
  6
Continuous
 62
     7
370
    25
100
AcDbLine
 10
19.6358010354
 20
14.9312908682
 30
0.0
 11
19.6358010354
 21
14.9057781147
 31
0.0
  0
LINE
  5
22E
330
1F
100
AcDbEntity
  8
0
  6
Continuous
 62
     7
370
    25
100
AcDbLine
 10
17.1043587587
 20
16.3926613883
 30
0.0
 11
17.0822616718
 21
16.3799050116
 31
0.0
  0
LINE
  5
22F
330
1F
100
AcDbEntity
  8
0
  6
Continuous
 62
     7
370
    25
100
AcDbLine
 10
17.1043587587
 20
16.3926613883
 30
0.0
 11
17.1485529325
 21
16.3671486348
 31
0.0
  0
LINE
  5
230
330
1F
100
AcDbEntity
  8
0
  6
Continuous
 62
     7
370
    25
100
AcDbLine
 10
17.1485529325
 20
16.3671486348
 30
0.0
 11
17.1264558456
 21
16.3543922581
 31
0.0
  0
LINE
  5
231
330
1F
100
AcDbEntity
  8
0
  6
Continuous
 62
     7
370
    25
100
AcDbLine
 10
17.1485529325
 20
16.3671486348
 30
0.0
 11
17.1485529325
 21
16.3416358813
 31
0.0
  0
LINE
  5
232
330
1F
100
AcDbEntity
  8
0
  6
Continuous
 62
     7
370
    25
100
AcDbLine
 10
18.4073593887
 20
11.5904770704
 30
0.0
 11
18.0051737007
 21
11.3896396317
 31
0.0
  0
LINE
  5
233
330
1F
100
AcDbEntity
  8
0
  6
Continuous
 62
     7
370
    25
100
AcDbLine
 10
18.4073593887
 20
13.8505353578
 30
0.0
 11
17.9887465326
 21
13.608872649
 31
0.0
  0
LINE
  5
234
330
1F
100
AcDbEntity
  8
0
  6
Continuous
 62
     7
370
    25
100
AcDbLine
 10
18.4146729258
 20
13.8632234446
 30
0.0
 11
18.4073593887
 21
13.8505353578
 31
0.0
  0
LINE
  5
235
330
1F
100
AcDbEntity
  8
0
  6
Continuous
 62
     7
370
    25
100
AcDbLine
 10
18.4146729258
 20
11.5856631691
 30
0.0
 11
18.4146729258
 21
13.8632234446
 31
0.0
  0
LINE
  5
236
330
1F
100
AcDbEntity
  8
0
  6
Continuous
 62
     7
370
    25
100
AcDbLine
 10
18.4073593887
 20
11.5904770704
 30
0.0
 11
18.4146729258
 21
11.5856631691
 31
0.0
  0
LINE
  5
237
330
1F
100
AcDbEntity
  8
0
  6
Continuous
 62
     7
370
    25
100
AcDbLine
 10
15.19154745
 20
15.7069840744
 30
0.0
 11
14.8145624525
 21
15.4578536758
 31
0.0
  0
LINE
  5
238
330
1F
100
AcDbEntity
  8
0
  6
Continuous
 62
     7
370
    25
100
AcDbLine
 10
18.4073593887
 20
13.8505353578
 30
0.0
 11
15.19154745
 21
15.7069840744
 31
0.0
  0
LINE
  5
239
330
1F
100
AcDbEntity
  8
0
  6
Continuous
 62
     7
370
    25
100
AcDbLine
 10
15.1947875473
 20
15.8403944207
 30
0.0
 11
15.1983674336
 21
15.7199570835
 31
0.0
  0
LINE
  5
23A
330
1F
100
AcDbEntity
  8
0
  6
Continuous
 62
     7
370
    25
100
AcDbLine
 10
15.1947875473
 20
15.8403944207
 30
0.0
 11
18.5171874564
 21
13.9224137786
 31
0.0
  0
LINE
  5
23B
330
1F
100
AcDbEntity
  8
0
  6
Continuous
 62
     7
370
    25
100
AcDbLine
 10
18.4146729258
 20
13.8632234446
 30
0.0
 11
18.5171874564
 21
13.9224137786
 31
0.0
  0
LINE
  5
23C
330
1F
100
AcDbEntity
  8
0
  6
Continuous
 62
     7
370
    25
100
AcDbLine
 10
15.19154745
 20
15.7069840744
 30
0.0
 11
15.1983674336
 21
15.7199570835
 31
0.0
  0
LINE
  5
23D
330
1F
100
AcDbEntity
  8
0
  6
Continuous
 62
     7
370
    25
100
AcDbLine
 10
18.5171874564
 20
13.9224137786
 30
0.0
 11
18.5171874564
 21
11.5223395863
 31
0.0
  0
LINE
  5
23E
330
1F
100
AcDbEntity
  8
0
  6
Continuous
 62
     7
370
    25
100
AcDbLine
 10
18.5171874564
 20
11.5223395863
 30
0.0
 11
18.4146729258
 21
11.5856631691
 31
0.0
  0
LINE
  5
23F
330
1F
100
AcDbEntity
  8
0
  6
Continuous
 62
     7
370
    25
100
AcDbLine
 10
15.2783760687
 20
15.8994328533
 30
0.0
 11
15.1930743102
 21
15.8430612171
 31
0.0
  0
LINE
  5
240
330
1F
100
AcDbEntity
  8
0
  6
Continuous
 62
     7
370
    25
100
AcDbLine
 10
15.2783760687
 20
15.8994328533
 30
0.0
 11
18.6103756302
 21
13.9759104497
 31
0.0
  0
LINE
  5
241
330
1F
100
AcDbEntity
  8
0
  6
Continuous
 62
     7
370
    25
100
AcDbLine
 10
18.6103756302
 20
13.9759104497
 30
0.0
 11
18.5189006935
 21
13.9231025135
 31
0.0
  0
LINE
  5
242
330
1F
100
AcDbEntity
  8
0
  6
Continuous
 62
     7
370
    25
100
AcDbLine
 10
15.1930743102
 20
15.8430612171
 30
0.0
 11
18.5189006935
 21
13.9231025135
 31
0.0
  0
LINE
  5
243
330
1F
100
AcDbEntity
  8
0
  6
Continuous
 62
     7
370
    25
100
AcDbLine
 10
18.6103756302
 20
13.9759104497
 30
0.0
 11
18.6103756302
 21
11.5653521678
 31
0.0
  0
LINE
  5
244
330
1F
100
AcDbEntity
  8
0
  6
Continuous
 62
     7
370
    25
100
AcDbLine
 10
18.6103756302
 20
11.5653521678
 30
0.0
 11
18.5189006935
 21
11.51967279
 31
0.0
  0
LINE
  5
245
330
1F
100
AcDbEntity
  8
0
  6
Continuous
 62
     7
370
    25
100
AcDbLine
 10
18.5189006935
 20
13.9231025135
 30
0.0
 11
18.5189006935
 21
11.51967279
 31
0.0
  0
LINE
  5
246
330
1F
100
AcDbEntity
  8
0
  6
Continuous
 62
     7
370
    25
100
AcDbLine
 10
15.1947875473
 20
15.7131474048
 30
0.0
 11
15.1947875473
 21
15.8403944207
 31
0.0
  0
LINE
  5
247
330
1F
100
AcDbEntity
  8
0
  6
Continuous
 62
     7
370
    25
100
AcDbLine
 10
18.5171874564
 20
11.5223395863
 30
0.0
 11
18.402961415
 21
11.5882808764
 31
0.0
  0
LINE
  5
248
330
1F
100
AcDbEntity
  8
0
  6
Continuous
 62
     7
370
    25
100
AcDbLine
 10
18.5189006935
 20
11.51967279
 30
0.0
 11
18.4014030984
 21
11.5875027078
 31
0.0
  0
LINE
  5
249
330
1F
100
AcDbEntity
  8
0
  6
Continuous
 62
     7
370
    25
100
AcDbLine
 10
15.1930743102
 20
15.7098884761
 30
0.0
 11
15.1930743102
 21
15.8430612171
 31
0.0
  0
LINE
  5
24A
330
1F
100
AcDbEntity
  8
0
  6
Continuous
 62
     7
370
    25
100
AcDbLine
 10
19.4085847212
 20
13.8686354459
 30
0.0
 11
19.4253839658
 21
13.8863483255
 31
0.0
  0
LINE
  5
24B
330
1F
100
AcDbEntity
  8
0
  6
Continuous
 62
     7
370
    25
100
AcDbLine
 10
19.4253839658
 20
13.8863483255
 30
0.0
 11
19.4405131567
 21
13.8527964656
 31
0.0
  0
LINE
  5
24C
330
1F
100
AcDbEntity
  8
0
  6
Continuous
 62
     7
370
    25
100
AcDbLine
 10
19.4829367939
 20
13.9084009194
 30
0.0
 11
19.4711307491
 21
13.9345830701
 31
0.0
  0
LINE
  5
24D
330
1F
100
AcDbEntity
  8
0
  6
Continuous
 62
     7
370
    25
100
AcDbLine
 10
19.4711307491
 20
13.9345830701
 30
0.0
 11
19.5015574636
 21
13.9666645564
 31
0.0
  0
LINE
  5
24E
330
1F
100
AcDbEntity
  8
0
  6
Continuous
 62
     7
370
    25
100
AcDbLine
 10
19.4808054147
 20
14.0066280173
 30
0.0
 11
19.4522301722
 21
13.9764986963
 31
0.0
  0
LINE
  5
24F
330
1F
100
AcDbEntity
  8
0
  6
Continuous
 62
     7
370
    25
100
AcDbLine
 10
19.4522301722
 20
13.9764986963
 30
0.0
 11
19.4424928482
 21
13.9980930651
 31
0.0
  0
LINE
  5
250
330
1F
100
AcDbEntity
  8
0
  6
Continuous
 62
     7
370
    25
100
AcDbLine
 10
19.3969857242
 20
13.9493268302
 30
0.0
 11
19.4064833888
 21
13.9282639516
 31
0.0
  0
LINE
  5
251
330
1F
100
AcDbEntity
  8
0
  6
Continuous
 62
     7
370
    25
100
AcDbLine
 10
19.4064833888
 20
13.9282639516
 30
0.0
 11
19.3698648336
 21
13.8896538784
 31
0.0
  0
LINE
  5
252
330
1F
100
AcDbEntity
  8
0
  6
Continuous
 62
     7
370
    25
100
AcDbLine
 10
19.438858611
 20
13.9842179342
 30
0.0
 11
19.4522301722
 21
13.9764986963
 31
0.0
  0
LINE
  5
253
330
1F
100
AcDbEntity
  8
0
  6
Continuous
 62
     7
370
    25
100
AcDbLine
 10
19.3874816945
 20
13.908228841
 30
0.0
 11
19.4253839658
 21
13.8863483255
 31
0.0
  0
LINE
  5
254
330
1F
100
AcDbEntity
  8
0
  6
Continuous
 62
     7
370
    25
100
AcDbLine
 10
19.4318043956
 20
13.9572856908
 30
0.0
 11
19.4711307491
 21
13.9345830701
 31
0.0
  0
LWPOLYLINE
  5
255
330
1F
100
AcDbEntity
  8
0
  6
Continuous
 62
     7
370
    25
100
AcDbPolyline
 90
        8
 70
   128
 43
0.0
 10
19.7309235751
 20
14.0183207768
 10
19.7360509687
 20
14.0566771395
 10
19.7376500448
 20
14.1091343055
 10
19.7324180445
 20
14.157325893
 10
19.7204776014
 20
14.2001223322
 10
19.7021085892
 20
14.2365205106
 10
19.6777415622
 20
14.265667286
 10
19.6524445677
 20
14.2843942783
  0
LINE
  5
256
330
1F
100
AcDbEntity
  8
0
  6
Continuous
 62
     7
370
    25
100
AcDbLine
 10
19.630364033
 20
13.9880203552
 30
0.0
 11
19.4778314973
 21
13.962730852
 31
0.0
  0
LINE
  5
257
330
1F
100
AcDbEntity
  8
0
  6
Continuous
 62
     7
370
    25
100
AcDbLine
 10
19.4778314973
 20
13.962730852
 30
0.0
 11
19.5321852049
 21
14.1702475219
 31
0.0
  0
LINE
  5
258
330
1F
100
AcDbEntity
  8
0
  6
Continuous
 62
     7
370
    25
100
AcDbLine
 10
19.5321852049
 20
14.1702475219
 30
0.0
 11
19.485559539
 21
14.1625171061
 31
0.0
  0
LINE
  5
259
330
1F
100
AcDbEntity
  8
0
  6
Continuous
 62
     7
370
    25
100
AcDbLine
 10
19.485559539
 20
14.1625171061
 30
0.0
 11
19.4312058313
 21
13.9550004362
 31
0.0
  0
LINE
  5
25A
330
1F
100
AcDbEntity
  8
0
  6
Continuous
 62
     7
370
    25
100
AcDbLine
 10
19.4312058313
 20
13.9550004362
 30
0.0
 11
19.2786732956
 21
13.9297109331
 31
0.0
  0
LINE
  5
25B
330
1F
100
AcDbEntity
  8
0
  6
Continuous
 62
     7
370
    25
100
AcDbLine
 10
19.2786732956
 20
13.9297109331
 30
0.0
 11
19.2620586251
 21
13.8662778899
 31
0.0
  0
LINE
  5
25C
330
1F
100
AcDbEntity
  8
0
  6
Continuous
 62
     7
370
    25
100
AcDbLine
 10
19.2620586251
 20
13.8662778899
 30
0.0
 11
19.4145911609
 21
13.891567393
 31
0.0
  0
LINE
  5
25D
330
1F
100
AcDbEntity
  8
0
  6
Continuous
 62
     7
370
    25
100
AcDbLine
 10
19.4145911609
 20
13.891567393
 30
0.0
 11
19.3602374532
 21
13.6840507231
 31
0.0
  0
LINE
  5
25E
330
1F
100
AcDbEntity
  8
0
  6
Continuous
 62
     7
370
    25
100
AcDbLine
 10
19.3602374532
 20
13.6840507231
 30
0.0
 11
19.4068631191
 21
13.6917811389
 31
0.0
  0
LINE
  5
25F
330
1F
100
AcDbEntity
  8
0
  6
Continuous
 62
     7
370
    25
100
AcDbLine
 10
19.4068631191
 20
13.6917811389
 30
0.0
 11
19.4612168268
 21
13.8992978088
 31
0.0
  0
LINE
  5
260
330
1F
100
AcDbEntity
  8
0
  6
Continuous
 62
     7
370
    25
100
AcDbLine
 10
19.4612168268
 20
13.8992978088
 30
0.0
 11
19.6137493626
 21
13.924587312
 31
0.0
  0
LINE
  5
261
330
1F
100
AcDbEntity
  8
0
  6
Continuous
 62
     7
370
    25
100
AcDbLine
 10
19.6137493626
 20
13.924587312
 30
0.0
 11
19.630364033
 21
13.9880203552
 31
0.0
  0
LINE
  5
262
330
1F
100
AcDbEntity
  8
0
  6
Continuous
 62
     7
370
    25
100
AcDbLine
 10
19.4117193521
 20
13.9278720927
 30
0.0
 11
19.4408435793
 21
13.9327008149
 31
0.0
  0
LINE
  5
263
330
1F
100
AcDbEntity
  8
0
  6
Continuous
 62
     7
370
    25
100
AcDbLine
 10
19.4040665725
 20
13.8986545947
 30
0.0
 11
19.4117193521
 21
13.9278720927
 31
0.0
  0
LINE
  5
264
330
1F
100
AcDbEntity
  8
0
  6
Continuous
 62
     7
370
    25
100
AcDbLine
 10
19.3868617872
 20
13.9075752197
 30
0.0
 11
19.4145911609
 21
13.891567393
 31
0.0
  0
LINE
  5
265
330
1F
100
AcDbEntity
  8
0
  6
Continuous
 62
     7
370
    25
100
AcDbLine
 10
19.4528500795
 20
13.9771523175
 30
0.0
 11
19.4778314973
 21
13.962730852
 31
0.0
  0
LINE
  5
266
330
1F
100
AcDbEntity
  8
0
  6
Continuous
 62
     7
370
    25
100
AcDbLine
 10
19.4117193521
 20
13.9278720927
 30
0.0
 11
19.4612168268
 21
13.8992978088
 31
0.0
  0
LINE
  5
267
330
1F
100
AcDbEntity
  8
0
  6
Continuous
 62
     7
370
    25
100
AcDbLine
 10
19.6063451025
 20
13.9288617003
 30
0.0
 11
19.6137493626
 21
13.924587312
 31
0.0
  0
LINE
  5
268
330
1F
100
AcDbEntity
  8
0
  6
Continuous
 62
     7
370
    25
100
AcDbLine
 10
19.399458859
 20
13.6960555273
 30
0.0
 11
19.4068631191
 21
13.6917811389
 31
0.0
  0
LINE
  5
269
330
1F
100
AcDbEntity
  8
0
  6
Continuous
 62
     7
370
    25
100
AcDbLine
 10
14.7624850388
 20
13.9056871846
 30
0.0
 11
14.8135160751
 21
13.8762275944
 31
0.0
  0
LINE
  5
26A
330
1F
100
AcDbEntity
  8
0
  6
Continuous
 62
     7
370
    25
100
AcDbLine
 10
14.7369695207
 20
13.869383179
 30
0.0
 11
14.7624850388
 21
13.9056871846
 31
0.0
  0
LINE
  5
26B
330
1F
100
AcDbEntity
  8
0
  6
Continuous
 62
     7
370
    25
100
AcDbLine
 10
14.7624850388
 20
13.8036195831
 30
0.0
 11
14.7369695207
 21
13.869383179
 31
0.0
  0
LINE
  5
26C
330
1F
100
AcDbEntity
  8
0
  6
Continuous
 62
     7
370
    25
100
AcDbLine
 10
14.8135160751
 20
13.7741599929
 30
0.0
 11
14.7624850388
 21
13.8036195831
 31
0.0
  0
LINE
  5
26D
330
1F
100
AcDbEntity
  8
0
  6
Continuous
 62
     7
370
    25
100
AcDbLine
 10
14.8390315933
 20
13.8104639986
 30
0.0
 11
14.8135160751
 21
13.7741599929
 31
0.0
  0
LINE
  5
26E
330
1F
100
AcDbEntity
  8
0
  6
Continuous
 62
     7
370
    25
100
AcDbLine
 10
14.8135160751
 20
13.8762275944
 30
0.0
 11
14.8390315933
 21
13.8104639986
 31
0.0
  0
LWPOLYLINE
  5
26F
330
1F
100
AcDbEntity
  8
0
  6
Continuous
 62
     7
370
    25
100
AcDbPolyline
 90
       30
 70
   128
 43
0.0
 10
14.788000557
 20
14.0077227256
 10
14.756763107
 20
14.0218326711
 10
14.7269862854
 20
14.02743675
 10
14.7000624234
 20
14.024272922
 10
14.6772504507
 20
14.012489124
 10
14.6596170299
 20
13.9926363534
 10
14.6479866802
 20
13.9656429036
 10
14.6429032237
 20
13.9327709584
 10
14.6446043573
 20
13.8955575734
 10
14.6530105378
 20
13.8557428051
 10
14.6677287015
 20
13.8151883478
 10
14.6880706436
 20
13.7757904829
 10
14.7130851973
 20
13.7393914108
 10
14.74160271
 20
13.7076931115
 10
14.7722897345
 20
13.6821777624
 10
14.8037113795
 20
13.6640384329
 10
14.8343984039
 20
13.6541232977
 10
14.8629159166
 20
13.6528959776
 10
14.8879304704
 20
13.6604138608
 10
14.9082724124
 20
13.6763254193
 10
14.9229905762
 20
13.6998866464
 10
14.9313967567
 20
13.7299958453
 10
14.9330978902
 20
13.7652451433
 10
14.9280144338
 20
13.8039863225
 10
14.916384084
 20
13.8444078882
 10
14.8987506633
 20
13.8846197731
 10
14.8759386906
 20
13.9227417141
 10
14.8490148286
 20
13.9569911716
 10
14.819238007
 20
13.985766679
 10
14.788000557
 20
14.0077227256
  0
ARC
  5
270
330
1F
100
AcDbEntity
  8
0
  6
Continuous
 62
     7
370
    25
100
AcDbCircle
 10
14.9109967509
 20
13.9109109115
 30
0.0
 40
0.1070662396195921
100
AcDbArc
 50
201.3022023724
 51
216.1900440244
  0
LINE
  5
271
330
1F
100
AcDbEntity
  8
0
  6
Continuous
 62
     7
370
    25
100
AcDbLine
 10
14.8088574857
 20
13.8789169409
 30
0.0
 11
14.8112455697
 21
13.8720151339
 31
0.0
  0
LINE
  5
272
330
1F
100
AcDbEntity
  8
0
  6
Continuous
 62
     7
370
    25
100
AcDbLine
 10
14.7811708779
 20
13.8949000793
 30
0.0
 11
14.7369695207
 21
13.869383179
 31
0.0
  0
LINE
  5
273
330
1F
100
AcDbEntity
  8
0
  6
Continuous
 62
     7
370
    25
100
AcDbLine
 10
14.8240033288
 20
13.839133336
 30
0.0
 11
14.7624850388
 21
13.8036195831
 31
0.0
  0
LINE
  5
274
330
1F
100
AcDbEntity
  8
0
  6
Continuous
 62
     7
370
    25
100
AcDbLine
 10
14.8290352823
 20
13.836228451
 30
0.0
 11
14.8240033288
 21
13.839133336
 31
0.0
  0
LINE
  5
275
330
1F
100
AcDbEntity
  8
0
  6
Continuous
 62
     7
370
    25
100
AcDbLine
 10
14.8112455697
 20
13.8720151339
 30
0.0
 11
14.8084841216
 21
13.8791324793
 31
0.0
  0
LINE
  5
276
330
1F
100
AcDbEntity
  8
0
  6
Continuous
 62
     7
370
    25
100
AcDbLine
 10
14.8240033288
 20
13.839133336
 30
0.0
 11
14.8112455697
 21
13.8720151339
 31
0.0
  0
LWPOLYLINE
  5
277
330
1F
100
AcDbEntity
  8
0
  6
Continuous
 62
     7
370
    25
100
AcDbPolyline
 90
       30
 70
   128
 43
0.0
 10
17.130645323
 20
12.6553426884
 10
17.099407873
 20
12.6694526338
 10
17.0696310515
 20
12.6750567128
 10
17.0427071894
 20
12.6718928848
 10
17.0198952168
 20
12.6601090868
 10
17.002261796
 20
12.6402563162
 10
16.9906314463
 20
12.6132628664
 10
16.9855479898
 20
12.5803909212
 10
16.9872491234
 20
12.5431775362
 10
16.9956553039
 20
12.5033627679
 10
17.0103734676
 20
12.4628083106
 10
17.0307154097
 20
12.4234104457
 10
17.0557299634
 20
12.3870113735
 10
17.0842474761
 20
12.3553130743
 10
17.1149345005
 20
12.3297977252
 10
17.1463561456
 20
12.3116583956
 10
17.17704317
 20
12.3017432605
 10
17.2055606827
 20
12.3005159404
 10
17.2305752364
 20
12.3080338236
 10
17.2509171785
 20
12.3239453821
 10
17.2656353422
 20
12.3475066092
 10
17.2740415227
 20
12.3776158081
 10
17.2757426563
 20
12.4128651061
 10
17.2706591998
 20
12.4516062852
 10
17.2590288501
 20
12.492027851
 10
17.2413954293
 20
12.5322397359
 10
17.2185834567
 20
12.5703616768
 10
17.1916595946
 20
12.6046111343
 10
17.1618827731
 20
12.6333866417
 10
17.130645323
 20
12.6553426884
  0
LINE
  5
278
330
1F
100
AcDbEntity
  8
0
  6
Continuous
 62
     7
370
    25
100
AcDbLine
 10
17.1051298049
 20
12.5533071474
 30
0.0
 11
17.1561608412
 21
12.5238475572
 31
0.0
  0
LINE
  5
279
330
1F
100
AcDbEntity
  8
0
  6
Continuous
 62
     7
370
    25
100
AcDbLine
 10
17.0796142867
 20
12.5170031417
 30
0.0
 11
17.1051298049
 21
12.5533071474
 31
0.0
  0
LINE
  5
27A
330
1F
100
AcDbEntity
  8
0
  6
Continuous
 62
     7
370
    25
100
AcDbLine
 10
17.1051298049
 20
12.4512395459
 30
0.0
 11
17.0796142867
 21
12.5170031417
 31
0.0
  0
LINE
  5
27B
330
1F
100
AcDbEntity
  8
0
  6
Continuous
 62
     7
370
    25
100
AcDbLine
 10
17.1561608412
 20
12.4217799557
 30
0.0
 11
17.1051298049
 21
12.4512395459
 31
0.0
  0
LINE
  5
27C
330
1F
100
AcDbEntity
  8
0
  6
Continuous
 62
     7
370
    25
100
AcDbLine
 10
17.1816763594
 20
12.4580839613
 30
0.0
 11
17.1561608412
 21
12.4217799557
 31
0.0
  0
LINE
  5
27D
330
1F
100
AcDbEntity
  8
0
  6
Continuous
 62
     7
370
    25
100
AcDbLine
 10
17.1561608412
 20
12.5238475572
 30
0.0
 11
17.1816763594
 21
12.4580839613
 31
0.0
  0
ARC
  5
27E
330
1F
100
AcDbEntity
  8
0
  6
Continuous
 62
     7
370
    25
100
AcDbCircle
 10
17.253641517
 20
12.5585308743
 30
0.0
 40
0.1070662396192333
100
AcDbArc
 50
201.3022023723
 51
216.1900440244
  0
LINE
  5
27F
330
1F
100
AcDbEntity
  8
0
  6
Continuous
 62
     7
370
    25
100
AcDbLine
 10
17.1515022517
 20
12.5265369036
 30
0.0
 11
17.1538903358
 21
12.5196350967
 31
0.0
  0
LINE
  5
280
330
1F
100
AcDbEntity
  8
0
  6
Continuous
 62
     7
370
    25
100
AcDbLine
 10
17.1238156439
 20
12.5425200421
 30
0.0
 11
17.0796142867
 21
12.5170031417
 31
0.0
  0
LINE
  5
281
330
1F
100
AcDbEntity
  8
0
  6
Continuous
 62
     7
370
    25
100
AcDbLine
 10
17.1666480949
 20
12.4867532987
 30
0.0
 11
17.1051298049
 21
12.4512395459
 31
0.0
  0
LINE
  5
282
330
1F
100
AcDbEntity
  8
0
  6
Continuous
 62
     7
370
    25
100
AcDbLine
 10
17.1716800484
 20
12.4838484138
 30
0.0
 11
17.1666480949
 21
12.4867532987
 31
0.0
  0
LINE
  5
283
330
1F
100
AcDbEntity
  8
0
  6
Continuous
 62
     7
370
    25
100
AcDbLine
 10
17.1538903358
 20
12.5196350967
 30
0.0
 11
17.1511288877
 21
12.5267524421
 31
0.0
  0
LINE
  5
284
330
1F
100
AcDbEntity
  8
0
  6
Continuous
 62
     7
370
    25
100
AcDbLine
 10
17.1666480949
 20
12.4867532987
 30
0.0
 11
17.1538903358
 21
12.5196350967
 31
0.0
  0
ARC
  5
285
330
1F
100
AcDbEntity
  8
0
  6
Continuous
 62
     7
370
    25
100
AcDbCircle
 10
17.6300120683
 20
13.452600072
 30
0.0
 40
0.347053515177123
100
AcDbArc
 50
35.0633219484
 51
58.3057101713
  0
LINE
  5
286
330
1F
100
AcDbEntity
  8
0
  6
Continuous
 62
     7
370
    25
100
AcDbLine
 10
17.8123494234
 20
13.7478952317
 30
0.0
 11
14.8919984171
 21
15.4337779826
 31
0.0
  0
ARC
  5
287
330
1F
100
AcDbEntity
  8
0
  6
Continuous
 62
     7
370
    25
100
AcDbCircle
 10
14.814945594
 20
15.3208567796
 30
0.0
 40
0.1367052874953772
100
AcDbArc
 50
55.6919670018
 51
100.4005645
  0
LINE
  5
288
330
1F
100
AcDbEntity
  8
0
  6
Continuous
 62
     7
370
    25
100
AcDbLine
 10
15.1095134578
 20
14.0806715235
 30
0.0
 11
15.1095134578
 21
14.1831994699
 31
0.0
  0
LINE
  5
289
330
1F
100
AcDbEntity
  8
0
  6
Continuous
 62
     7
370
    25
100
AcDbLine
 10
16.8091324222
 20
12.1863958394
 30
0.0
 11
16.6693624744
 21
12.2670833128
 31
0.0
  0
ELLIPSE
  5
28A
330
1F
100
AcDbEntity
  8
0
  6
Continuous
 62
     7
370
    25
100
AcDbEllipse
 10
15.2431088667
 20
13.9206516788
 30
0.0
 11
0.06486966595169541
 21
0.4608031458886366
 31
0.0
210
0.0
220
0.0
230
1.0
 40
0.3024614216
 41
6.137811832249424
 42
7.088130779133772
  0
LWPOLYLINE
  5
28B
330
1F
100
AcDbEntity
  8
0
  6
Continuous
 62
     7
370
    25
100
AcDbPolyline
 90
        3
 70
   128
 43
0.0
 10
15.1095134578
 20
14.1831994699
 10
15.1316859238
 20
14.1677750795
 10
15.1435515389
 20
14.1563006515
  0
LINE
  5
28C
330
1F
100
AcDbEntity
  8
0
  6
Continuous
 62
     7
370
    25
100
AcDbLine
 10
19.7432283724
 20
14.621713596
 30
0.0
 11
18.5767173823
 21
13.9953409427
 31
0.0
  0
LINE
  5
28D
330
1F
100
AcDbEntity
  8
0
  6
Continuous
 62
     7
370
    25
100
AcDbLine
 10
19.7432283724
 20
14.621713596
 30
0.0
 11
18.6103756302
 21
13.920403797
 31
0.0
  0
LINE
  5
28E
330
1F
100
AcDbEntity
  8
0
  6
Continuous
 62
     7
370
    25
100
AcDbLine
 10
19.4627909648
 20
12.2189481176
 30
0.0
 11
18.6103756302
 21
11.6912473805
 31
0.0
  0
LINE
  5
28F
330
1F
100
AcDbEntity
  8
0
  6
Continuous
 62
     7
370
    25
100
AcDbLine
 10
16.5541767892
 20
16.4627138882
 30
0.0
 11
15.3876657991
 21
15.8363412348
 31
0.0
  0
LINE
  5
290
330
1F
100
AcDbEntity
  8
0
  6
Continuous
 62
     7
370
    25
100
AcDbLine
 10
17.780137843
 20
13.7292998822
 30
0.0
 11
17.8123494234
 21
13.7478952317
 31
0.0
  0
LINE
  5
291
330
1F
100
AcDbEntity
  8
0
  6
Continuous
 62
     7
370
    25
100
AcDbLine
 10
14.8597868367
 20
15.4151826331
 30
0.0
 11
14.8919984171
 21
15.4337779826
 31
0.0
  0
ARC
  5
292
330
1F
100
AcDbEntity
  8
0
  6
Continuous
 62
     7
370
    25
100
AcDbCircle
 10
3.3233136333
 20
14.1602786382
 30
0.0
 40
0.1240000000000073
100
AcDbArc
 50
98.3466192632
 51
261.6533807368
  0
LINE
  5
293
330
1F
100
AcDbEntity
  8
0
  6
Continuous
 62
     7
370
    25
100
AcDbLine
 10
3.3053136333
 20
14.2829652308
 30
0.0
 11
3.3053136333
 21
14.0375920456
 31
0.0
  0
LINE
  5
294
330
1F
100
AcDbEntity
  8
0
  6
Continuous
 62
     7
370
    25
100
AcDbLine
 10
3.3413136333
 20
14.0375920456
 30
0.0
 11
3.3413136333
 21
14.2829652308
 31
0.0
  0
ARC
  5
295
330
1F
100
AcDbEntity
  8
0
  6
Continuous
 62
     7
370
    25
100
AcDbCircle
 10
3.3233136333
 20
14.1602786382
 30
0.0
 40
0.1240000000000035
100
AcDbArc
 50
278.3466192632
 51
81.6533807368
  0
ARC
  5
296
330
1F
100
AcDbEntity
  8
0
  6
Continuous
 62
     7
370
    25
100
AcDbCircle
 10
3.3233136333
 20
14.1602786382
 30
0.0
 40
0.0848820967982646
100
AcDbArc
 50
77.756966423
 51
102.243033577
  0
ARC
  5
297
330
1F
100
AcDbEntity
  8
0
  6
Continuous
 62
     7
370
    25
100
AcDbCircle
 10
3.3233136333
 20
14.1602786382
 30
0.0
 40
0.0848820967982733
100
AcDbArc
 50
257.756966423
 51
282.243033577
  0
ARC
  5
298
330
1F
100
AcDbEntity
  8
0
  6
Continuous
 62
     7
370
    25
100
AcDbCircle
 10
7.2233136333
 20
14.1602786382
 30
0.0
 40
0.1240000000000053
100
AcDbArc
 50
98.3466192632
 51
261.6533807368
  0
LINE
  5
299
330
1F
100
AcDbEntity
  8
0
  6
Continuous
 62
     7
370
    25
100
AcDbLine
 10
7.2053136333
 20
14.2829652308
 30
0.0
 11
7.2053136333
 21
14.0375920456
 31
0.0
  0
ARC
  5
29A
330
1F
100
AcDbEntity
  8
0
  6
Continuous
 62
     7
370
    25
100
AcDbCircle
 10
7.2233136333
 20
14.1602786382
 30
0.0
 40
0.1240000000000036
100
AcDbArc
 50
278.3466192632
 51
81.6533807368
  0
LINE
  5
29B
330
1F
100
AcDbEntity
  8
0
  6
Continuous
 62
     7
370
    25
100
AcDbLine
 10
7.2413136333
 20
14.0375920456
 30
0.0
 11
7.2413136333
 21
14.2829652308
 31
0.0
  0
ARC
  5
29C
330
1F
100
AcDbEntity
  8
0
  6
Continuous
 62
     7
370
    25
100
AcDbCircle
 10
7.2233136333
 20
14.1602786382
 30
0.0
 40
0.0848820967982662
100
AcDbArc
 50
77.756966423
 51
102.243033577
  0
ARC
  5
29D
330
1F
100
AcDbEntity
  8
0
  6
Continuous
 62
     7
370
    25
100
AcDbCircle
 10
7.2233136333
 20
14.1602786382
 30
0.0
 40
0.0848820967982732
100
AcDbArc
 50
257.756966423
 51
282.243033577
  0
ARC
  5
29E
330
1F
100
AcDbEntity
  8
0
  6
Continuous
 62
     7
370
    25
100
AcDbCircle
 10
3.3233136333
 20
12.1602786382
 30
0.0
 40
0.1240000000000035
100
AcDbArc
 50
278.3466192632
 51
81.6533807368
  0
LINE
  5
29F
330
1F
100
AcDbEntity
  8
0
  6
Continuous
 62
     7
370
    25
100
AcDbLine
 10
3.3413136333
 20
12.0375920456
 30
0.0
 11
3.3413136333
 21
12.2829652308
 31
0.0
  0
ARC
  5
2A0
330
1F
100
AcDbEntity
  8
0
  6
Continuous
 62
     7
370
    25
100
AcDbCircle
 10
3.3233136333
 20
12.1602786382
 30
0.0
 40
0.1240000000000037
100
AcDbArc
 50
98.3466192632
 51
261.6533807368
  0
LINE
  5
2A1
330
1F
100
AcDbEntity
  8
0
  6
Continuous
 62
     7
370
    25
100
AcDbLine
 10
3.3053136333
 20
12.2829652308
 30
0.0
 11
3.3053136333
 21
12.0375920456
 31
0.0
  0
ARC
  5
2A2
330
1F
100
AcDbEntity
  8
0
  6
Continuous
 62
     7
370
    25
100
AcDbCircle
 10
3.3233136333
 20
12.1602786382
 30
0.0
 40
0.0848820967982645
100
AcDbArc
 50
77.756966423
 51
102.243033577
  0
ARC
  5
2A3
330
1F
100
AcDbEntity
  8
0
  6
Continuous
 62
     7
370
    25
100
AcDbCircle
 10
3.3233136333
 20
12.1602786382
 30
0.0
 40
0.0848820967982732
100
AcDbArc
 50
257.756966423
 51
282.243033577
  0
ARC
  5
2A4
330
1F
100
AcDbEntity
  8
0
  6
Continuous
 62
     7
370
    25
100
AcDbCircle
 10
7.2233136333
 20
12.1602786382
 30
0.0
 40
0.1240000000000036
100
AcDbArc
 50
98.3466192632
 51
261.6533807368
  0
LINE
  5
2A5
330
1F
100
AcDbEntity
  8
0
  6
Continuous
 62
     7
370
    25
100
AcDbLine
 10
7.2053136333
 20
12.2829652308
 30
0.0
 11
7.2053136333
 21
12.0375920456
 31
0.0
  0
ARC
  5
2A6
330
1F
100
AcDbEntity
  8
0
  6
Continuous
 62
     7
370
    25
100
AcDbCircle
 10
7.2233136333
 20
12.1602786382
 30
0.0
 40
0.1240000000000036
100
AcDbArc
 50
278.3466192632
 51
81.6533807368
  0
LINE
  5
2A7
330
1F
100
AcDbEntity
  8
0
  6
Continuous
 62
     7
370
    25
100
AcDbLine
 10
7.2413136333
 20
12.0375920456
 30
0.0
 11
7.2413136333
 21
12.2829652308
 31
0.0
  0
ARC
  5
2A8
330
1F
100
AcDbEntity
  8
0
  6
Continuous
 62
     7
370
    25
100
AcDbCircle
 10
7.2233136333
 20
12.1602786382
 30
0.0
 40
0.0848820967982664
100
AcDbArc
 50
77.756966423
 51
102.243033577
  0
ARC
  5
2A9
330
1F
100
AcDbEntity
  8
0
  6
Continuous
 62
     7
370
    25
100
AcDbCircle
 10
7.2233136333
 20
12.1602786382
 30
0.0
 40
0.0848820967982734
100
AcDbArc
 50
257.756966423
 51
282.243033577
  0
LINE
  5
2AA
330
1F
100
AcDbEntity
  8
0
  6
Continuous
 62
     7
370
    25
100
AcDbLine
 10
3.0280279371
 20
14.5155643343
 30
0.0
 11
7.5185993294
 21
14.5155643343
 31
0.0
  0
LINE
  5
2AB
330
1F
100
AcDbEntity
  8
0
  6
Continuous
 62
     7
370
    25
100
AcDbLine
 10
2.9993912043
 20
14.5442010671
 30
0.0
 11
3.0280279371
 21
14.5155643343
 31
0.0
  0
LINE
  5
2AC
330
1F
100
AcDbEntity
  8
0
  6
Continuous
 62
     7
370
    25
100
AcDbLine
 10
7.5472360622
 20
14.5442010671
 30
0.0
 11
2.9993912043
 21
14.5442010671
 31
0.0
  0
LINE
  5
2AD
330
1F
100
AcDbEntity
  8
0
  6
Continuous
 62
     7
370
    25
100
AcDbLine
 10
7.5472360622
 20
14.5442010671
 30
0.0
 11
7.5185993294
 21
14.5155643343
 31
0.0
  0
LINE
  5
2AE
330
1F
100
AcDbEntity
  8
0
  6
Continuous
 62
     7
370
    25
100
AcDbLine
 10
3.0280279371
 20
11.8049929421
 30
0.0
 11
3.0280279371
 21
14.5155643343
 31
0.0
  0
LINE
  5
2AF
330
1F
100
AcDbEntity
  8
0
  6
Continuous
 62
     7
370
    25
100
AcDbLine
 10
2.9993912043
 20
11.7763562093
 30
0.0
 11
3.0280279371
 21
11.8049929421
 31
0.0
  0
LINE
  5
2B0
330
1F
100
AcDbEntity
  8
0
  6
Continuous
 62
     7
370
    25
100
AcDbLine
 10
2.9990422094
 20
11.7656390548
 30
0.0
 11
2.9993912043
 21
11.7763562093
 31
0.0
  0
LINE
  5
2B1
330
1F
100
AcDbEntity
  8
0
  6
Continuous
 62
     7
370
    25
100
AcDbLine
 10
2.9990422094
 20
14.5549182216
 30
0.0
 11
2.9990422094
 21
11.7656390548
 31
0.0
  0
LINE
  5
2B2
330
1F
100
AcDbEntity
  8
0
  6
Continuous
 62
     7
370
    25
100
AcDbLine
 10
2.9993912043
 20
14.5442010671
 30
0.0
 11
2.9990422094
 21
14.5549182216
 31
0.0
  0
LINE
  5
2B3
330
1F
100
AcDbEntity
  8
0
  6
Continuous
 62
     7
370
    25
100
AcDbLine
 10
7.5472360622
 20
11.7763562093
 30
0.0
 11
7.5185993294
 21
11.8049929421
 31
0.0
  0
LINE
  5
2B4
330
1F
100
AcDbEntity
  8
0
  6
Continuous
 62
     7
370
    25
100
AcDbLine
 10
7.5185993294
 20
14.5155643343
 30
0.0
 11
7.5185993294
 21
11.8049929421
 31
0.0
  0
LINE
  5
2B5
330
1F
100
AcDbEntity
  8
0
  6
Continuous
 62
     7
370
    25
100
AcDbLine
 10
7.5475850571
 20
14.5549182216
 30
0.0
 11
7.5472360622
 21
14.5442010671
 31
0.0
  0
LINE
  5
2B6
330
1F
100
AcDbEntity
  8
0
  6
Continuous
 62
     7
370
    25
100
AcDbLine
 10
7.5475850571
 20
11.7656390548
 30
0.0
 11
7.5475850571
 21
14.5549182216
 31
0.0
  0
LINE
  5
2B7
330
1F
100
AcDbEntity
  8
0
  6
Continuous
 62
     7
370
    25
100
AcDbLine
 10
7.5472360622
 20
11.7763562093
 30
0.0
 11
7.5475850571
 21
11.7656390548
 31
0.0
  0
LINE
  5
2B8
330
1F
100
AcDbEntity
  8
0
  6
Continuous
 62
     7
370
    25
100
AcDbLine
 10
7.5185993294
 20
11.8049929421
 30
0.0
 11
3.0280279371
 21
11.8049929421
 31
0.0
  0
LINE
  5
2B9
330
1F
100
AcDbEntity
  8
0
  6
Continuous
 62
     7
370
    25
100
AcDbLine
 10
2.9993912043
 20
11.7763562093
 30
0.0
 11
7.5472360622
 21
11.7763562093
 31
0.0
  0
LINE
  5
2BA
330
1F
100
AcDbEntity
  8
0
  6
Continuous
 62
     7
370
    25
100
AcDbLine
 10
7.4233136333
 20
14.4205643343
 30
0.0
 11
6.7383136333
 21
14.4205643343
 31
0.0
  0
LINE
  5
2BB
330
1F
100
AcDbEntity
  8
0
  6
Continuous
 62
     7
370
    25
100
AcDbLine
 10
3.8083136333
 20
14.4205643343
 30
0.0
 11
3.1233136333
 21
14.4205643343
 31
0.0
  0
LINE
  5
2BC
330
1F
100
AcDbEntity
  8
0
  6
Continuous
 62
     7
370
    25
100
AcDbLine
 10
7.4233136333
 20
11.8999929421
 30
0.0
 11
7.4233136333
 21
14.4205643343
 31
0.0
  0
LINE
  5
2BD
330
1F
100
AcDbEntity
  8
0
  6
Continuous
 62
     7
370
    25
100
AcDbLine
 10
6.7383136333
 20
11.8999929421
 30
0.0
 11
7.4233136333
 21
11.8999929421
 31
0.0
  0
LINE
  5
2BE
330
1F
100
AcDbEntity
  8
0
  6
Continuous
 62
     7
370
    25
100
AcDbLine
 10
3.1233136333
 20
14.4205643343
 30
0.0
 11
3.1233136333
 21
11.8999929421
 31
0.0
  0
LINE
  5
2BF
330
1F
100
AcDbEntity
  8
0
  6
Continuous
 62
     7
370
    25
100
AcDbLine
 10
3.1233136333
 20
11.8999929421
 30
0.0
 11
3.8083136333
 21
11.8999929421
 31
0.0
  0
LINE
  5
2C0
330
1F
100
AcDbEntity
  8
0
  6
Continuous
 62
     7
370
    25
100
AcDbLine
 10
3.8083136333
 20
14.4205643343
 30
0.0
 11
6.7383136333
 21
14.4205643343
 31
0.0
  0
LINE
  5
2C1
330
1F
100
AcDbEntity
  8
0
  6
Continuous
 62
     7
370
    25
100
AcDbLine
 10
6.7383136333
 20
11.8999929421
 30
0.0
 11
3.8083136333
 21
11.8999929421
 31
0.0
  0
CIRCLE
  5
2C2
330
1F
100
AcDbEntity
  8
0
  6
Continuous
 62
     7
370
    25
100
AcDbCircle
 10
3.3233136333
 20
12.1602786382
 30
0.0
 40
0.1395000000000017
  0
CIRCLE
  5
2C3
330
1F
100
AcDbEntity
  8
0
  6
Continuous
 62
     7
370
    25
100
AcDbCircle
 10
7.2233136333
 20
12.1602786382
 30
0.0
 40
0.1395
  0
CIRCLE
  5
2C4
330
1F
100
AcDbEntity
  8
0
  6
Continuous
 62
     7
370
    25
100
AcDbCircle
 10
3.3233136333
 20
14.1602786382
 30
0.0
 40
0.1395000000000017
  0
CIRCLE
  5
2C5
330
1F
100
AcDbEntity
  8
0
  6
Continuous
 62
     7
370
    25
100
AcDbCircle
 10
7.2233136333
 20
14.1602786382
 30
0.0
 40
0.1395000000000017
  0
CIRCLE
  5
2C6
330
1F
100
AcDbEntity
  8
0
  6
Continuous
 62
     7
370
    25
100
AcDbCircle
 10
3.3683136333
 20
13.1602786382
 30
0.0
 40
0.097999999999999
  0
CIRCLE
  5
2C7
330
1F
100
AcDbEntity
  8
0
  6
Continuous
 62
     7
370
    25
100
AcDbCircle
 10
3.6183136333
 20
12.2227786382
 30
0.0
 40
0.0689999999999991
  0
CIRCLE
  5
2C8
330
1F
100
AcDbEntity
  8
0
  6
Continuous
 62
     7
370
    25
100
AcDbCircle
 10
3.6183136333
 20
13.1602786382
 30
0.0
 40
0.0690000000000008
  0
CIRCLE
  5
2C9
330
1F
100
AcDbEntity
  8
0
  6
Continuous
 62
     7
370
    25
100
AcDbCircle
 10
3.6183136333
 20
14.0977786382
 30
0.0
 40
0.0689999999999991
  0
LINE
  5
2CA
330
1F
100
AcDbEntity
  8
0
  6
Continuous
 62
     7
370
    25
100
AcDbLine
 10
3.8083136333
 20
14.4205643343
 30
0.0
 11
3.8083136333
 21
11.8999929421
 31
0.0
  0
CIRCLE
  5
2CB
330
1F
100
AcDbEntity
  8
0
  6
Continuous
 62
     7
370
    25
100
AcDbCircle
 10
6.9283136333
 20
14.0977786382
 30
0.0
 40
0.0689999999999991
  0
CIRCLE
  5
2CC
330
1F
100
AcDbEntity
  8
0
  6
Continuous
 62
     7
370
    25
100
AcDbCircle
 10
6.9283136333
 20
13.1602786382
 30
0.0
 40
0.0690000000000008
  0
CIRCLE
  5
2CD
330
1F
100
AcDbEntity
  8
0
  6
Continuous
 62
     7
370
    25
100
AcDbCircle
 10
7.1783136333
 20
13.1602786382
 30
0.0
 40
0.097999999999999
  0
CIRCLE
  5
2CE
330
1F
100
AcDbEntity
  8
0
  6
Continuous
 62
     7
370
    25
100
AcDbCircle
 10
6.9283136333
 20
12.2227786382
 30
0.0
 40
0.0689999999999991
  0
LINE
  5
2CF
330
1F
100
AcDbEntity
  8
0
  6
Continuous
 62
     7
370
    25
100
AcDbLine
 10
6.7383136333
 20
11.8999929421
 30
0.0
 11
6.7383136333
 21
14.4205643343
 31
0.0
  0
LINE
  5
2D0
330
1F
100
AcDbEntity
  8
0
  6
Continuous
 62
     7
370
    25
100
AcDbLine
 10
7.6226051388
 20
11.6906189731
 30
0.0
 11
7.5475850571
 21
11.7656390548
 31
0.0
  0
LINE
  5
2D1
330
1F
100
AcDbEntity
  8
0
  6
Continuous
 62
     7
370
    25
100
AcDbLine
 10
7.6226051388
 20
11.6906189731
 30
0.0
 11
2.9240221277
 21
11.6906189731
 31
0.0
  0
LINE
  5
2D2
330
1F
100
AcDbEntity
  8
0
  6
Continuous
 62
     7
370
    25
100
AcDbLine
 10
2.9990422094
 20
11.7656390548
 30
0.0
 11
2.9240221277
 21
11.6906189731
 31
0.0
  0
LINE
  5
2D3
330
1F
100
AcDbEntity
  8
0
  6
Continuous
 62
     7
370
    25
100
AcDbLine
 10
2.9240221277
 20
14.6299383033
 30
0.0
 11
2.9990422094
 21
14.5549182216
 31
0.0
  0
LINE
  5
2D4
330
1F
100
AcDbEntity
  8
0
  6
Continuous
 62
     7
370
    25
100
AcDbLine
 10
2.9240221277
 20
14.6299383033
 30
0.0
 11
7.6226051388
 21
14.6299383033
 31
0.0
  0
LINE
  5
2D5
330
1F
100
AcDbEntity
  8
0
  6
Continuous
 62
     7
370
    25
100
AcDbLine
 10
7.5475850571
 20
14.5549182216
 30
0.0
 11
7.6226051388
 21
14.6299383033
 31
0.0
  0
LINE
  5
2D6
330
1F
100
AcDbEntity
  8
0
  6
Continuous
 62
     7
370
    25
100
AcDbLine
 10
2.9240221277
 20
11.6906189731
 30
0.0
 11
2.9240221277
 21
14.6299383033
 31
0.0
  0
LINE
  5
2D7
330
1F
100
AcDbEntity
  8
0
  6
Continuous
 62
     7
370
    25
100
AcDbLine
 10
7.6226051388
 20
14.6299383033
 30
0.0
 11
7.6226051388
 21
11.6906189731
 31
0.0
  0
LINE
  5
2D8
330
1F
100
AcDbEntity
  8
0
  6
Continuous
 62
     7
370
    25
100
AcDbLine
 10
7.6293931181
 20
14.636358123
 30
0.0
 11
7.6250280219
 21
14.6319930269
 31
0.0
  0
LINE
  5
2D9
330
1F
100
AcDbEntity
  8
0
  6
Continuous
 62
     7
370
    25
100
AcDbLine
 10
7.6293931181
 20
14.636358123
 30
0.0
 11
7.6293931181
 21
11.6841991534
 31
0.0
  0
LINE
  5
2DA
330
1F
100
AcDbEntity
  8
0
  6
Continuous
 62
     7
370
    25
100
AcDbLine
 10
7.6293931181
 20
11.6841991534
 30
0.0
 11
7.6250280219
 21
11.6885642495
 31
0.0
  0
LINE
  5
2DB
330
1F
100
AcDbEntity
  8
0
  6
Continuous
 62
     7
370
    25
100
AcDbLine
 10
7.6250280219
 20
14.6319930269
 30
0.0
 11
7.6250280219
 21
11.6885642495
 31
0.0
  0
LINE
  5
2DC
330
1F
100
AcDbEntity
  8
0
  6
Continuous
 62
     7
370
    25
100
AcDbLine
 10
7.6250280219
 20
11.6885642495
 30
0.0
 11
2.9215992446
 21
11.6885642495
 31
0.0
  0
LINE
  5
2DD
330
1F
100
AcDbEntity
  8
0
  6
Continuous
 62
     7
370
    25
100
AcDbLine
 10
2.9215992446
 20
11.6885642495
 30
0.0
 11
2.9215992446
 21
14.6319930269
 31
0.0
  0
LINE
  5
2DE
330
1F
100
AcDbEntity
  8
0
  6
Continuous
 62
     7
370
    25
100
AcDbLine
 10
2.9215992446
 20
14.6319930269
 30
0.0
 11
7.6250280219
 21
14.6319930269
 31
0.0
  0
LINE
  5
2DF
330
1F
100
AcDbEntity
  8
0
  6
Continuous
 62
     7
370
    25
100
AcDbLine
 10
2.9172341484
 20
11.6841991534
 30
0.0
 11
2.9215992446
 21
11.6885642495
 31
0.0
  0
LINE
  5
2E0
330
1F
100
AcDbEntity
  8
0
  6
Continuous
 62
     7
370
    25
100
AcDbLine
 10
2.9172341484
 20
11.6841991534
 30
0.0
 11
2.9172341484
 21
14.636358123
 31
0.0
  0
LINE
  5
2E1
330
1F
100
AcDbEntity
  8
0
  6
Continuous
 62
     7
370
    25
100
AcDbLine
 10
2.9172341484
 20
14.636358123
 30
0.0
 11
2.9215992446
 21
14.6319930269
 31
0.0
  0
LINE
  5
2E2
330
1F
100
AcDbEntity
  8
0
  6
Continuous
 62
     7
370
    25
100
AcDbLine
 10
7.6293931181
 20
11.6841991534
 30
0.0
 11
2.9172341484
 21
11.6841991534
 31
0.0
  0
LINE
  5
2E3
330
1F
100
AcDbEntity
  8
0
  6
Continuous
 62
     7
370
    25
100
AcDbLine
 10
2.9172341484
 20
14.636358123
 30
0.0
 11
7.6293931181
 21
14.636358123
 31
0.0
  0
CIRCLE
  5
2E4
330
1F
100
AcDbEntity
  8
0
  6
Continuous
 62
     7
370
    25
100
AcDbCircle
 10
3.3658136333
 20
13.1602786382
 30
0.0
 40
0.0700000000000003
  0
CIRCLE
  5
2E5
330
1F
100
AcDbEntity
  8
0
  6
Continuous
 62
     7
370
    25
100
AcDbCircle
 10
7.1783136333
 20
13.1602786382
 30
0.0
 40
0.0700000000000003
  0
ARC
  5
2E6
330
1F
100
AcDbEntity
  8
0
  6
Continuous
 62
     7
370
    25
100
AcDbCircle
 10
3.6158136333
 20
12.2227786382
 30
0.0
 40
0.0700000000000015
100
AcDbArc
 50
294.519313735
 51
65.4806856101
  0
ARC
  5
2E7
330
1F
100
AcDbEntity
  8
0
  6
Continuous
 62
     7
370
    25
100
AcDbCircle
 10
3.6158136333
 20
14.0977786382
 30
0.0
 40
0.0700000000000019
100
AcDbArc
 50
294.5193212481
 51
65.4806772617
  0
ARC
  5
2E8
330
1F
100
AcDbEntity
  8
0
  6
Continuous
 62
     7
370
    25
100
AcDbCircle
 10
3.6158136333
 20
13.1602786382
 30
0.0
 40
0.0700000000000011
100
AcDbArc
 50
294.5193164833
 51
65.4806835168
  0
LINE
  5
2E9
330
1F
100
AcDbEntity
  8
0
  6
Continuous
 62
     7
370
    25
100
AcDbLine
 10
3.9470636333
 20
11.9602786382
 30
0.0
 11
6.5970636333
 21
11.9602786382
 31
0.0
  0
LINE
  5
2EA
330
1F
100
AcDbEntity
  8
0
  6
Continuous
 62
     7
370
    25
100
AcDbLine
 10
6.5970636333
 20
11.9602786382
 30
0.0
 11
6.5970636333
 21
14.3602786382
 31
0.0
  0
LINE
  5
2EB
330
1F
100
AcDbEntity
  8
0
  6
Continuous
 62
     7
370
    25
100
AcDbLine
 10
6.5970636333
 20
14.3602786382
 30
0.0
 11
3.9470636333
 21
14.3602786382
 31
0.0
  0
LINE
  5
2EC
330
1F
100
AcDbEntity
  8
0
  6
Continuous
 62
     7
370
    25
100
AcDbLine
 10
3.9470636333
 20
14.3602786382
 30
0.0
 11
3.9470636333
 21
11.9602786382
 31
0.0
  0
ARC
  5
2ED
330
1F
100
AcDbEntity
  8
0
  6
Continuous
 62
     7
370
    25
100
AcDbCircle
 10
4.4932136333
 20
14.0600691146
 30
0.0
 40
0.1250000004097027
100
AcDbArc
 50
205.7814061433
 51
253.3072043244
  0
SPLINE
  5
2EE
330
1F
100
AcDbEntity
  8
0
  6
Continuous
 62
     7
370
    25
100
AcDbSpline
210
0.0
220
0.0
230
1.0
 70
    24
 71
     3
 72
     9
 73
     5
 74
     0
 42
0.00000001
 43
0.00000001
 40
0.0
 40
0.0
 40
0.0
 40
0.0
 40
0.4954579638440885
 40
1.0
 40
1.0
 40
1.0
 40
1.0
 10
4.388181131802227
 20
13.9610665539603
 30
0.0
 10
4.399407740276476
 20
13.95769994862882
 30
0.0
 10
4.422066793704833
 20
13.95090501227265
 30
0.0
 10
4.445490419211893
 20
13.9438807980858
 30
0.0
 10
4.457308622919378
 20
13.94033678675757
 30
0.0
  0
LINE
  5
2EF
330
1F
100
AcDbEntity
  8
0
  6
Continuous
 62
     7
370
    25
100
AcDbLine
 10
4.3777845378
 20
14.0050225533
 30
0.0
 11
4.3881811318
 21
13.961066554
 31
0.0
  0
LINE
  5
2F0
330
1F
100
AcDbEntity
  8
0
  6
Continuous
 62
     7
370
    25
100
AcDbLine
 10
4.3777845378
 20
14.0050225533
 30
0.0
 11
4.3806561374
 21
14.0057017519
 31
0.0
  0
ARC
  5
2F1
330
1F
100
AcDbEntity
  8
0
  6
Continuous
 62
     7
370
    25
100
AcDbCircle
 10
4.4932136333
 20
14.0600691146
 30
0.0
 40
0.1250000004096765
100
AcDbArc
 50
133.3072045412
 51
180.8330027223
  0
ARC
  5
2F2
330
1F
100
AcDbEntity
  8
0
  6
Continuous
 62
     7
370
    25
100
AcDbCircle
 10
4.4932136333
 20
14.0600691146
 30
0.0
 40
0.1250000004096765
100
AcDbArc
 50
73.3072043244
 51
133.3072045412
  0
ARC
  5
2F3
330
1F
100
AcDbEntity
  8
0
  6
Continuous
 62
     7
370
    25
100
AcDbCircle
 10
4.4932136333
 20
14.0600691146
 30
0.0
 40
0.1250000004096469
100
AcDbArc
 50
25.7814061433
 51
73.3072043244
  0
ARC
  5
2F4
330
1F
100
AcDbEntity
  8
0
  6
Continuous
 62
     7
370
    25
100
AcDbCircle
 10
4.4932136333
 20
14.0600691146
 30
0.0
 40
0.109375000000025
100
AcDbArc
 50
27.5988161346
 51
179.015592731
  0
LINE
  5
2F5
330
1F
100
AcDbEntity
  8
0
  6
Continuous
 62
     7
370
    25
100
AcDbLine
 10
4.6057711291
 20
14.1144364773
 30
0.0
 11
4.5901431967
 21
14.1107401157
 31
0.0
  0
LINE
  5
2F6
330
1F
100
AcDbEntity
  8
0
  6
Continuous
 62
     7
370
    25
100
AcDbLine
 10
4.3838547762
 20
14.0619482102
 30
0.0
 11
4.3682268438
 21
14.0582518486
 31
0.0
  0
LINE
  5
2F7
330
1F
100
AcDbEntity
  8
0
  6
Continuous
 62
     7
370
    25
100
AcDbLine
 10
4.6314686164
 20
14.0186095799
 30
0.0
 11
4.6210720224
 21
14.0625655793
 31
0.0
  0
SPLINE
  5
2F8
330
1F
100
AcDbEntity
  8
0
  6
Continuous
 62
     7
370
    25
100
AcDbSpline
210
0.0
220
0.0
230
1.0
 70
    24
 71
     3
 72
    10
 73
     6
 74
     0
 42
0.00000001
 43
0.00000001
 40
0.0
 40
0.0
 40
0.0
 40
0.0
 40
0.0700274472315509
 40
0.5307521380675436
 40
1.0
 40
1.0
 40
1.0
 40
1.0
 10
4.578952366014609
 20
13.96910829993676
 30
0.0
 10
4.580196058831588
 20
13.9702805920544
 30
0.0
 10
4.589622257383823
 20
13.97916563031408
 30
0.0
 10
4.607396006935151
 20
13.99591898469216
 30
0.0
 10
4.623395534842785
 20
14.01099997591139
 30
0.0
 10
4.631468616397973
 20
14.0186095799415
 30
0.0
  0
ARC
  5
2F9
330
1F
100
AcDbEntity
  8
0
  6
Continuous
 62
     7
370
    25
100
AcDbCircle
 10
4.4932136333
 20
14.0600691146
 30
0.0
 40
0.1250000004096851
100
AcDbArc
 50
313.3072045412
 51
0.8330027223
  0
LINE
  5
2FA
330
1F
100
AcDbEntity
  8
0
  6
Continuous
 62
     7
370
    25
100
AcDbLine
 10
4.6182004227
 20
14.0618863806
 30
0.0
 11
4.6210720224
 21
14.0625655793
 31
0.0
  0
SPLINE
  5
2FB
330
1F
100
AcDbEntity
  8
0
  6
Continuous
 62
     7
370
    25
100
AcDbSpline
210
0.0
220
0.0
230
1.0
 70
    24
 71
     3
 72
     9
 73
     5
 74
     0
 42
0.00000001
 43
0.00000001
 40
0.0
 40
0.0
 40
0.0
 40
0.0
 40
0.4078861665961805
 40
1.0
 40
1.0
 40
1.0
 40
1.0
 10
4.354958650116767
 20
14.1015286492959
 30
0.0
 10
4.35635288866825
 20
14.09563391601888
 30
0.0
 10
4.359771093710895
 20
14.08118200820792
 30
0.0
 10
4.363278475108806
 20
14.0663530696307
 30
0.0
 10
4.365355244153533
 20
14.05757264996444
 30
0.0
  0
SPLINE
  5
2FC
330
1F
100
AcDbEntity
  8
0
  6
Continuous
 62
     7
370
    25
100
AcDbSpline
210
0.0
220
0.0
230
1.0
 70
    24
 71
     3
 72
    10
 73
     6
 74
     0
 42
0.00000001
 43
0.00000001
 40
0.0
 40
0.0
 40
0.0
 40
0.0
 40
0.0700274472314692
 40
0.5307521380675455
 40
1.0
 40
1.0
 40
1.0
 40
1.0
 10
4.407474900500129
 20
14.15102992930065
 30
0.0
 10
4.406231207683152
 20
14.149857637183
 30
0.0
 10
4.39680500913092
 20
14.14097259892332
 30
0.0
 10
4.37903125957958
 20
14.12421924454527
 30
0.0
 10
4.363031731671951
 20
14.10913825332602
 30
0.0
 10
4.354958650116767
 20
14.1015286492959
 30
0.0
  0
LINE
  5
2FD
330
1F
100
AcDbEntity
  8
0
  6
Continuous
 62
     7
370
    25
100
AcDbLine
 10
4.3682268438
 20
14.0582518486
 30
0.0
 11
4.3653552442
 21
14.05757265
 31
0.0
  0
ARC
  5
2FE
330
1F
100
AcDbEntity
  8
0
  6
Continuous
 62
     7
370
    25
100
AcDbCircle
 10
4.4932136333
 20
14.0600691146
 30
0.0
 40
0.1250000004097027
100
AcDbArc
 50
253.3072043244
 51
313.3072045412
  0
ARC
  5
2FF
330
1F
100
AcDbEntity
  8
0
  6
Continuous
 62
     7
370
    25
100
AcDbCircle
 10
4.4932136333
 20
14.0600691146
 30
0.0
 40
0.1093750000000413
100
AcDbArc
 50
207.5988161346
 51
359.015592731
  0
LINE
  5
300
330
1F
100
AcDbEntity
  8
0
  6
Continuous
 62
     7
370
    25
100
AcDbLine
 10
4.3806561374
 20
14.0057017519
 30
0.0
 11
4.3962840698
 21
14.0093981136
 31
0.0
  0
LINE
  5
301
330
1F
100
AcDbEntity
  8
0
  6
Continuous
 62
     7
370
    25
100
AcDbLine
 10
4.6025724904
 20
14.058190019
 30
0.0
 11
4.6182004227
 21
14.0618863806
 31
0.0
  0
SPLINE
  5
302
330
1F
100
AcDbEntity
  8
0
  6
Continuous
 62
     7
370
    25
100
AcDbSpline
210
0.0
220
0.0
230
1.0
 70
    24
 71
     3
 72
     9
 73
     5
 74
     0
 42
0.00000001
 43
0.00000001
 40
0.0
 40
0.0
 40
0.0
 40
0.0
 40
0.4954579637694498
 40
1.0
 40
1.0
 40
1.0
 40
1.0
 10
4.526436114942797
 20
13.91960701928308
 30
0.0
 10
4.534964984998597
 20
13.927646244888
 30
0.0
 10
4.552179099372525
 20
13.94387209287672
 30
0.0
 10
4.569974060229293
 20
13.96064544081406
 30
0.0
 10
4.578952366014609
 20
13.96910829993676
 30
0.0
  0
SPLINE
  5
303
330
1F
100
AcDbEntity
  8
0
  6
Continuous
 62
     7
370
    25
100
AcDbSpline
210
0.0
220
0.0
230
1.0
 70
    24
 71
     3
 72
    10
 73
     6
 74
     0
 42
0.00000001
 43
0.00000001
 40
0.0
 40
0.0
 40
0.0
 40
0.0
 40
0.0700274563532697
 40
0.5307521426902454
 40
1.0
 40
1.0
 40
1.0
 40
1.0
 10
4.457308622919378
 20
13.94033678675757
 30
0.0
 10
4.458945704315797
 20
13.93984586316565
 30
0.0
 10
4.471353472699161
 20
13.93612505475877
 30
0.0
 10
4.494749178243555
 20
13.92910921313579
 30
0.0
 10
4.515809463744269
 20
13.92279371103091
 30
0.0
 10
4.526436114942797
 20
13.91960701928308
 30
0.0
  0
SPLINE
  5
304
330
1F
100
AcDbEntity
  8
0
  6
Continuous
 62
     7
370
    25
100
AcDbSpline
210
0.0
220
0.0
230
1.0
 70
    24
 71
     3
 72
     9
 73
     5
 74
     0
 42
0.00000001
 43
0.00000001
 40
0.0
 40
0.0
 40
0.0
 40
0.0
 40
0.4954579638440538
 40
0.9999999999999999
 40
0.9999999999999999
 40
0.9999999999999999
 40
0.9999999999999999
 10
4.598246134712553
 20
14.15907167527714
 30
0.0
 10
4.587019526238306
 20
14.16243828060863
 30
0.0
 10
4.56436047280995
 20
14.16923321696483
 30
0.0
 10
4.540936847302864
 20
14.17625743115164
 30
0.0
 10
4.529118643595364
 20
14.17980144247985
 30
0.0
  0
SPLINE
  5
305
330
1F
100
AcDbEntity
  8
0
  6
Continuous
 62
     7
370
    25
100
AcDbSpline
210
0.0
220
0.0
230
1.0
 70
    24
 71
     3
 72
     9
 73
     5
 74
     0
 42
0.00000001
 43
0.00000001
 40
0.0
 40
0.0
 40
0.0
 40
0.0
 40
0.5921138334028485
 40
1.0
 40
1.0
 40
1.0
 40
1.0
 10
4.608642728749293
 20
14.11511567594565
 30
0.0
 10
4.60656595970456
 20
14.1238960956119
 30
0.0
 10
4.603058578306633
 20
14.13872503418911
 30
0.0
 10
4.599640373264024
 20
14.1531769420001
 30
0.0
 10
4.598246134712553
 20
14.15907167527714
 30
0.0
  0
LINE
  5
306
330
1F
100
AcDbEntity
  8
0
  6
Continuous
 62
     7
370
    25
100
AcDbLine
 10
4.6086427287
 20
14.1151156759
 30
0.0
 11
4.6057711291
 21
14.1144364773
 31
0.0
  0
SPLINE
  5
307
330
1F
100
AcDbEntity
  8
0
  6
Continuous
 62
     7
370
    25
100
AcDbSpline
210
0.0
220
0.0
230
1.0
 70
    24
 71
     3
 72
     9
 73
     5
 74
     0
 42
0.00000001
 43
0.00000001
 40
0.0
 40
0.0
 40
0.0
 40
0.0
 40
0.495457963769428
 40
1.0
 40
1.0
 40
1.0
 40
1.0
 10
4.459991151571949
 20
14.20053120995434
 30
0.0
 10
4.451462281516146
 20
14.19249198434942
 30
0.0
 10
4.43424816714221
 20
14.1762661363607
 30
0.0
 10
4.416453206285444
 20
14.15949278842336
 30
0.0
 10
4.407474900500129
 20
14.15102992930065
 30
0.0
  0
SPLINE
  5
308
330
1F
100
AcDbEntity
  8
0
  6
Continuous
 62
     7
370
    25
100
AcDbSpline
210
0.0
220
0.0
230
1.0
 70
    24
 71
     3
 72
    10
 73
     6
 74
     0
 42
0.00000001
 43
0.00000001
 40
0.0
 40
0.0
 40
0.0
 40
0.0
 40
0.0700274563525828
 40
0.5307521426899461
 40
1.0
 40
1.0
 40
1.0
 40
1.0
 10
4.529118643595364
 20
14.17980144247985
 30
0.0
 10
4.527481562198961
 20
14.18029236607177
 30
0.0
 10
4.515073793815597
 20
14.18401317447862
 30
0.0
 10
4.491678088271247
 20
14.19102901610172
 30
0.0
 10
4.470617802770495
 20
14.19734451820654
 30
0.0
 10
4.459991151571949
 20
14.20053120995434
 30
0.0
  0
LINE
  5
309
330
1F
100
AcDbEntity
  8
0
  6
Continuous
 62
     7
370
    25
100
AcDbLine
 10
4.6025724904
 20
14.058190019
 30
0.0
 11
4.3962840698
 21
14.0093981136
 31
0.0
  0
LINE
  5
30A
330
1F
100
AcDbEntity
  8
0
  6
Continuous
 62
     7
370
    25
100
AcDbLine
 10
4.3838547762
 20
14.0619482102
 30
0.0
 11
4.5901431967
 21
14.1107401157
 31
0.0
  0
LINE
  5
30B
330
1F
100
AcDbEntity
  8
0
  6
Continuous
 62
     7
370
    25
100
AcDbLine
 10
4.6210720224
 20
14.0625655793
 30
0.0
 11
4.6086427287
 21
14.1151156759
 31
0.0
  0
LINE
  5
30C
330
1F
100
AcDbEntity
  8
0
  6
Continuous
 62
     7
370
    25
100
AcDbLine
 10
4.3653552442
 20
14.05757265
 30
0.0
 11
4.3777845378
 21
14.0050225533
 31
0.0
  0
CIRCLE
  5
30D
330
1F
100
AcDbEntity
  8
0
  6
Continuous
 62
     7
370
    25
100
AcDbCircle
 10
4.4932136333
 20
14.0600691146
 30
0.0
 40
0.1740000000000107
  0
CIRCLE
  5
30E
330
1F
100
AcDbEntity
  8
0
  6
Continuous
 62
     7
370
    25
100
AcDbCircle
 10
5.2733136333
 20
13.1602786382
 30
0.0
 40
0.3500000000000014
  0
CIRCLE
  5
30F
330
1F
100
AcDbEntity
  8
0
  6
Continuous
 62
     7
370
    25
100
AcDbCircle
 10
5.2733136333
 20
13.1602786382
 30
0.0
 40
0.3125
  0
LINE
  5
310
330
1F
100
AcDbEntity
  8
0
  6
Continuous
 62
     7
370
    25
100
AcDbLine
 10
5.2733136333
 20
13.5102786382
 30
0.0
 11
5.2733136333
 21
13.5702786382
 31
0.0
  0
LWPOLYLINE
  5
311
330
1F
100
AcDbEntity
  8
0
  6
Continuous
 62
     7
370
    25
100
AcDbPolyline
 90
       34
 70
   128
 43
0.0
 10
5.2733136333
 20
13.5702786382
 10
5.351446947
 20
13.562764893
 10
5.4291241533
 20
13.5395187756
 10
5.5016127555
 20
13.500836285
 10
5.5645474678
 20
13.4488663261
 10
5.6147716191
 20
13.3872289498
 10
5.6514828799
 20
13.3186706231
 10
5.6751173217
 20
13.2418494417
 10
5.6833136333
 20
13.1602786382
 10
5.6751173217
 20
13.0787078347
 10
5.6514828799
 20
13.0018866533
 10
5.6147716191
 20
12.9333283267
 10
5.5645474678
 20
12.8716909503
 10
5.5016127555
 20
12.8197209914
 10
5.4291241533
 20
12.7810385008
 10
5.351446947
 20
12.7577923834
 10
5.2733136333
 20
12.7502786382
 10
5.1951803195
 20
12.7577923834
 10
5.1175031132
 20
12.7810385008
 10
5.0450145111
 20
12.8197209914
 10
4.9820797987
 20
12.8716909503
 10
4.9318556474
 20
12.9333283267
 10
4.8951443866
 20
13.0018866533
 10
4.8715099449
 20
13.0787078347
 10
4.8633136333
 20
13.1602786382
 10
4.8715099449
 20
13.2418494417
 10
4.8951443866
 20
13.3186706231
 10
4.9318556474
 20
13.3872289498
 10
4.9820797987
 20
13.4488663261
 10
5.0450145111
 20
13.500836285
 10
5.1175031132
 20
13.5395187756
 10
5.1951803195
 20
13.562764893
 10
5.2733136333
 20
13.5702786382
 10
5.2733136333
 20
13.5702786382
  0
CIRCLE
  5
312
330
1F
100
AcDbEntity
  8
0
  6
Continuous
 62
     7
370
    25
100
AcDbCircle
 10
5.2733136333
 20
13.1602786382
 30
0.0
 40
0.4125000000000014
  0
CIRCLE
  5
313
330
1F
100
AcDbEntity
  8
0
  6
Continuous
 62
     7
370
    25
100
AcDbCircle
 10
6.9295636333
 20
13.1602786382
 30
0.0
 40
0.0625000000000018
  0
ARC
  5
314
330
1F
100
AcDbEntity
  8
0
  6
Continuous
 62
     7
370
    25
100
AcDbCircle
 10
6.9295636333
 20
12.2227786382
 30
0.0
 40
0.07
100
AcDbArc
 50
143.4381217125
 51
216.5618837305
  0
ARC
  5
315
330
1F
100
AcDbEntity
  8
0
  6
Continuous
 62
     7
370
    25
100
AcDbCircle
 10
6.9295636333
 20
14.0977786382
 30
0.0
 40
0.0700000000000015
100
AcDbArc
 50
143.438165137
 51
216.5618373895
  0
ELLIPSE
  5
316
330
1F
100
AcDbEntity
  8
0
  6
Continuous
 62
     7
370
    25
100
AcDbEllipse
 10
3.6735783851
 20
13.8852786382
 30
0.0
 11
0.0
 21
0.3124999999999982
 31
0.0
210
0.0
220
0.0
230
1.0
 40
0.0349207695
 41
5.367521780887217
 42
5.583046380915395
  0
ELLIPSE
  5
317
330
1F
100
AcDbEntity
  8
0
  6
Continuous
 62
     7
370
    25
100
AcDbEllipse
 10
3.6735783851
 20
13.8852786382
 30
0.0
 11
0.0
 21
0.3124999999999982
 31
0.0
210
0.0
220
0.0
230
1.0
 40
0.0349207695
 41
0.5898334252476808
 42
1.030422299014558
  0
ELLIPSE
  5
318
330
1F
100
AcDbEntity
  8
0
  6
Continuous
 62
     7
370
    25
100
AcDbEllipse
 10
3.6735783851
 20
12.4352786382
 30
0.0
 11
0.0
 21
0.3125
 31
0.0
210
0.0
220
0.0
230
1.0
 40
0.0349207695
 41
2.111170354575254
 42
2.55175922834216
  0
ELLIPSE
  5
319
330
1F
100
AcDbEntity
  8
0
  6
Continuous
 62
     7
370
    25
100
AcDbEllipse
 10
3.6735783851
 20
12.4352786382
 30
0.0
 11
0.0
 21
0.3125
 31
0.0
210
0.0
220
0.0
230
1.0
 40
0.0349207695
 41
3.841731579854434
 42
4.057256179882422
  0
ELLIPSE
  5
31A
330
1F
100
AcDbEntity
  8
0
  6
Continuous
 62
     7
370
    25
100
AcDbEllipse
 10
3.6735264049
 20
13.8852786382
 30
0.0
 11
0.0
 21
0.5680388654535022
 31
0.0
210
0.0
220
0.0
230
1.0
 40
0.0349207955
 41
1.074239411602524
 42
1.29752299545664
  0
ELLIPSE
  5
31B
330
1F
100
AcDbEntity
  8
0
  6
Continuous
 62
     7
370
    25
100
AcDbEllipse
 10
3.6735264049
 20
12.4352786382
 30
0.0
 11
0.0
 21
0.5680388654535022
 31
0.0
210
0.0
220
0.0
230
1.0
 40
0.0349207955
 41
1.844069658138488
 42
2.067353241981492
  0
ELLIPSE
  5
31C
330
1F
100
AcDbEntity
  8
0
  6
Continuous
 62
     7
370
    25
100
AcDbEllipse
 10
6.8730488815
 20
13.8852786382
 30
0.0
 11
0.0
 21
0.3124999999999982
 31
0.0
210
0.0
220
0.0
230
1.0
 40
0.0349207695
 41
0.6842996622907273
 42
0.9286413182927146
  0
ELLIPSE
  5
31D
330
1F
100
AcDbEntity
  8
0
  6
Continuous
 62
     7
370
    25
100
AcDbEllipse
 10
6.8730488815
 20
13.8852786382
 30
0.0
 11
0.0
 21
0.3124999999999982
 31
0.0
210
0.0
220
0.0
230
1.0
 40
0.0349207695
 41
5.252763008165244
 42
5.700666625610843
  0
ELLIPSE
  5
31E
330
1F
100
AcDbEntity
  8
0
  6
Continuous
 62
     7
370
    25
100
AcDbEllipse
 10
6.8730488815
 20
12.4352786382
 30
0.0
 11
0.0
 21
0.3125
 31
0.0
210
0.0
220
0.0
230
1.0
 40
0.0349207695
 41
3.724111335158833
 42
4.172014952604449
  0
ELLIPSE
  5
31F
330
1F
100
AcDbEntity
  8
0
  6
Continuous
 62
     7
370
    25
100
AcDbEllipse
 10
6.8730488815
 20
12.4352786382
 30
0.0
 11
0.0
 21
0.3125
 31
0.0
210
0.0
220
0.0
230
1.0
 40
0.0349207695
 41
2.212951335296856
 42
2.457292991299438
  0
ELLIPSE
  5
320
330
1F
100
AcDbEntity
  8
0
  6
Continuous
 62
     7
370
    25
100
AcDbEllipse
 10
6.8731008616
 20
13.8852786382
 30
0.0
 11
0.0
 21
0.5680388654535022
 31
0.0
210
0.0
220
0.0
230
1.0
 40
0.0349207955
 41
4.985662311727933
 42
5.208945895571706
  0
ELLIPSE
  5
321
330
1F
100
AcDbEntity
  8
0
  6
Continuous
 62
     7
370
    25
100
AcDbEllipse
 10
6.8731008616
 20
12.4352786382
 30
0.0
 11
0.0
 21
0.5680388654535022
 31
0.0
210
0.0
220
0.0
230
1.0
 40
0.0349207955
 41
4.215832065192334
 42
4.439115649046481
  0
LINE
  5
322
330
1F
100
AcDbEntity
  8
0
  6
Continuous
 62
     7
370
    25
100
AcDbLine
 10
4.6183136333
 20
14.1810070739
 30
0.0
 11
4.6183136333
 21
14.3602786382
 31
0.0
  0
LINE
  5
323
330
1F
100
AcDbEntity
  8
0
  6
Continuous
 62
     7
370
    25
100
AcDbLine
 10
4.3683136333
 20
14.3602786382
 30
0.0
 11
4.3683136333
 21
14.1812136151
 31
0.0
  0
CIRCLE
  5
324
330
1F
100
AcDbEntity
  8
0
  6
Continuous
 62
     7
370
    25
100
AcDbCircle
 10
5.2733136333
 20
13.1602786382
 30
0.0
 40
0.5250000000000004
  0
CIRCLE
  5
325
330
1F
100
AcDbEntity
  8
0
  6
Continuous
 62
     7
370
    25
100
AcDbCircle
 10
5.2733136333
 20
13.1602786382
 30
0.0
 40
0.5197618845762371
  0
CIRCLE
  5
326
330
1F
100
AcDbEntity
  8
0
  6
Continuous
 62
     7
370
    25
100
AcDbCircle
 10
5.2733136333
 20
13.1602786382
 30
0.0
 40
0.4250000000000007
  0
CIRCLE
  5
327
330
1F
100
AcDbEntity
  8
0
  6
Continuous
 62
     7
370
    25
100
AcDbCircle
 10
3.6170636333
 20
13.1602786382
 30
0.0
 40
0.0625000000000018
  0
SPLINE
  5
328
330
1F
100
AcDbEntity
  8
0
  6
Continuous
 62
     7
370
    25
100
AcDbSpline
210
0.0
220
0.0
230
1.0
 70
     8
 71
     3
 72
    11
 73
     7
 74
     0
 42
0.00000001
 43
0.00000001
 40
0.0
 40
0.0
 40
0.0
 40
0.0
 40
0.0155630702889711
 40
0.4094443507067391
 40
0.9013483182710033
 40
1.0
 40
1.0
 40
1.0
 40
1.0
 10
6.957015657732688
 20
12.28627463708283
 30
0.0
 10
6.957011270575332
 20
12.28557854194476
 30
0.0
 10
6.956895850111263
 20
12.26726517468859
 30
0.0
 10
6.956486908882812
 20
12.22816367357492
 30
0.0
 10
6.956011621340118
 20
12.18569725644621
 30
0.0
 10
6.955607518267435
 20
12.16201025506861
 30
0.0
 10
6.955540013286729
 20
12.15805336713805
 30
0.0
  0
SPLINE
  5
329
330
1F
100
AcDbEntity
  8
0
  6
Continuous
 62
     7
370
    25
100
AcDbSpline
210
0.0
220
0.0
230
1.0
 70
     8
 71
     3
 72
    11
 73
     7
 74
     0
 42
0.00000001
 43
0.00000001
 40
0.0
 40
0.0
 40
0.0
 40
0.0
 40
0.012098513417151
 40
0.4096683761390508
 40
0.9061788796325336
 40
1.0
 40
1.0
 40
1.0
 40
1.0
 10
3.589614656993744
 20
14.03476239945053
 30
0.0
 10
3.589618041633507
 20
14.03529846854404
 30
0.0
 10
3.589732649092096
 20
14.05345033129482
 30
0.0
 10
3.590140797529941
 20
14.09238866291514
 30
0.0
 10
3.590612285693397
 20
14.13462314672586
 30
0.0
 10
3.591012185940868
 20
14.15808607551288
 30
0.0
 10
3.591075741894397
 20
14.16181502747297
 30
0.0
  0
SPLINE
  5
32A
330
1F
100
AcDbEntity
  8
0
  6
Continuous
 62
     7
370
    25
100
AcDbSpline
210
0.0
220
0.0
230
1.0
 70
     8
 71
     3
 72
    11
 73
     7
 74
     0
 42
0.00000001
 43
0.00000001
 40
0.0
 40
0.0
 40
0.0
 40
0.0
 40
0.0542904942833012
 40
0.5152190599336424
 40
0.8972039596702824
 40
1.0
 40
1.0
 40
1.0
 40
1.0
 10
6.955554617216444
 20
14.16214495509854
 30
0.0
 10
6.955591884816614
 20
14.1599642721777
 30
0.0
 10
6.955945555899905
 20
14.1392695001128
 30
0.0
 10
6.956396751328133
 20
14.10067958890307
 30
0.0
 10
6.956835167785334
 20
14.05969936782064
 30
0.0
 10
6.956980436455161
 20
14.03801932947695
 30
0.0
 10
6.957011240149796
 20
14.03342215596674
 30
0.0
  0
SPLINE
  5
32B
330
1F
100
AcDbEntity
  8
0
  6
Continuous
 62
     7
370
    25
100
AcDbSpline
210
0.0
220
0.0
230
1.0
 70
     8
 71
     3
 72
    11
 73
     7
 74
     0
 42
0.00000001
 43
0.00000001
 40
0.0
 40
0.0
 40
0.0
 40
0.0
 40
0.0497704376214493
 40
0.5155268526892186
 40
0.9015127315646912
 40
1.0
 40
1.0
 40
1.0
 40
1.0
 10
3.591062375935558
 20
12.15902066767869
 30
0.0
 10
3.591028591028904
 20
12.16099947371727
 30
0.0
 10
3.590678643802639
 20
12.18149613193258
 30
0.0
 10
3.590230921893696
 20
12.21988250687641
 30
0.0
 10
3.589794139962601
 20
12.26062325761396
 30
0.0
 10
3.589650253207642
 20
12.28206317772685
 30
0.0
 10
3.589621002848693
 20
12.28642164254396
 30
0.0
  0
LINE
  5
32C
330
1F
100
AcDbEntity
  8
0
  6
Continuous
 62
     7
370
    25
100
AcDbLine
 10
6.9263329741
 20
13.2226950851
 30
0.0
 11
6.9263329741
 21
13.0978621913
 31
0.0
  0
DIMENSION
  5
32D
330
1F
100
AcDbEntity
  8
0
  6
Continuous
 62
     7
370
    18
100
AcDbDimension
  2
_D_6
 10
7.6293931181
 20
15.4237596979
 30
0.0
 11
5.2733136333
 21
15.4237596979
 31
0.0
 70
   160
  1
<>
 71
     2
 42
-1.0
  3
SLDDIMSTYLE1
100
AcDbAlignedDimension
 13
2.9172341484
 23
14.636358123
 33
0.0
 14
7.6293931181
 24
14.636358123
 34
0.0
100
AcDbRotatedDimension
  0
DIMENSION
  5
341
330
1F
100
AcDbEntity
  8
0
  6
Continuous
 62
     7
370
    18
100
AcDbDimension
  2
_D_7
 10
2.1298325736
 20
11.6841991534
 30
0.0
 11
2.1298325736
 21
13.1602786382
 31
0.0
 70
   160
  1
<>
 71
     2
 42
-1.0
  3
SLDDIMSTYLE1
100
AcDbAlignedDimension
 13
2.9172341484
 23
14.636358123
 33
0.0
 14
2.9172341484
 24
11.6841991534
 34
0.0
 50
90.0
100
AcDbRotatedDimension
  0
MTEXT
  5
355
330
1F
100
AcDbEntity
  8
0
  6
Continuous
 62
     7
370
     0
100
AcDbMText
 10
5.2706686817
 20
11.3331408321
 30
0.0
 40
0.25
 41
0.0
 71
     2
 72
     1
  1
BACK BOX DETAIL
  7
SLDTEXTSTYLE0
 73
     1
 44
1.0
  0
ENDSEC
  0
SECTION
  2
OBJECTS
  0
DICTIONARY
  5
C
330
0
100
AcDbDictionary
281
     1
  3
ACAD_GROUP
350
D
  3
ACAD_LAYOUT
350
1A
  3
ACAD_MLINESTYLE
350
17
  3
ACAD_PLOTSETTINGS
350
19
  3
ACAD_PLOTSTYLENAME
350
E
  3
ACAD_SCALELIST
350
47
  3
DWGPROPS
350
356
  0
DICTIONARY
  5
D
102
{ACAD_REACTORS
330
C
102
}
330
C
100
AcDbDictionary
281
     1
  0
DICTIONARY
  5
1A
102
{ACAD_REACTORS
330
C
102
}
330
C
100
AcDbDictionary
281
     1
  3
Layout1
350
1E
  3
Layout2
350
26
  3
Model
350
22
  0
DICTIONARY
  5
17
102
{ACAD_REACTORS
330
C
102
}
330
C
100
AcDbDictionary
281
     1
  3
Standard
350
18
  0
DICTIONARY
  5
19
102
{ACAD_REACTORS
330
C
102
}
330
C
100
AcDbDictionary
281
     1
  0
ACDBDICTIONARYWDFLT
  5
E
102
{ACAD_REACTORS
330
C
102
}
330
C
100
AcDbDictionary
281
     1
  3
Normal
350
F
100
AcDbDictionaryWithDefault
340
F
  0
DICTIONARY
  5
47
102
{ACAD_REACTORS
330
C
102
}
330
C
100
AcDbDictionary
281
     1
  3
A0
350
48
  3
A1
350
49
  3
A2
350
4A
  3
A3
350
4B
  3
A4
350
4C
  3
A5
350
4D
  3
A6
350
4E
  3
A7
350
4F
  3
A8
350
50
  3
A9
350
51
  3
B1
350
52
  3
B2
350
53
  3
B3
350
54
  3
B4
350
55
  3
B5
350
56
  3
B6
350
57
  3
B7
350
58
  0
XRECORD
  5
356
102
{ACAD_REACTORS
330
C
102
}
330
C
100
AcDbXrecord
280
     1
  1
DWGPROPS COOKIE
  2

  3

  4

  6

  7

  8
stevend
  9

300
=
301
=
302
=
303
=
304
=
305
=
306
=
307
=
308
=
309
=
 40
0.0
 41
2460508.238961436
 42
2460508.238962245
  1

 90
        0
  0
LAYOUT
  5
1E
102
{ACAD_REACTORS
330
1A
102
}
330
1A
100
AcDbPlotSettings
  1

  2
none_device
  4

  6

 40
0.0
 41
0.0
 42
0.0
 43
0.0
 44
0.0
 45
0.0
 46
0.0
 47
0.0
 48
0.0
 49
0.0
140
0.0
141
0.0
142
1.0
143
1.0
 70
   688
 72
     0
 73
     0
 74
     5
  7

 75
    16
147
1.0
148
0.0
149
0.0
100
AcDbLayout
  1
Layout1
 70
     1
 71
     1
 10
0.0
 20
0.0
 11
12.0
 21
9.0
 12
0.0
 22
0.0
 32
0.0
 14
1.0000000000E+20
 24
1.0000000000E+20
 34
1.0000000000E+20
 15
-1.0000000000E+20
 25
-1.0000000000E+20
 35
-1.0000000000E+20
146
0.0
 13
0.0
 23
0.0
 33
0.0
 16
1.0
 26
0.0
 36
0.0
 17
0.0
 27
1.0
 37
0.0
 76
     0
330
1B
  0
LAYOUT
  5
26
102
{ACAD_REACTORS
330
1A
102
}
330
1A
100
AcDbPlotSettings
  1

  2
none_device
  4

  6

 40
0.0
 41
0.0
 42
0.0
 43
0.0
 44
0.0
 45
0.0
 46
0.0
 47
0.0
 48
0.0
 49
0.0
140
0.0
141
0.0
142
1.0
143
1.0
 70
   688
 72
     0
 73
     0
 74
     5
  7

 75
    16
147
1.0
148
0.0
149
0.0
100
AcDbLayout
  1
Layout2
 70
     1
 71
     2
 10
0.0
 20
0.0
 11
0.0
 21
0.0
 12
0.0
 22
0.0
 32
0.0
 14
0.0
 24
0.0
 34
0.0
 15
0.0
 25
0.0
 35
0.0
146
0.0
 13
0.0
 23
0.0
 33
0.0
 16
1.0
 26
0.0
 36
0.0
 17
0.0
 27
1.0
 37
0.0
 76
     0
330
23
  0
LAYOUT
  5
22
102
{ACAD_REACTORS
330
1A
102
}
330
1A
100
AcDbPlotSettings
  1

  2
none_device
  4
Letter_(8.50_x_11.00_Inches)
  6

 40
6.35
 41
6.35
 42
6.35000508
 43
6.35000508
 44
215.9
 45
279.4
 46
0.0
 47
0.0
 48
0.0
 49
0.0
140
0.0
141
0.0
142
1.0
143
1.0
 70
  1712
 72
     0
 73
     0
 74
     0
  7

 75
     0
147
1.0
148
0.0
149
0.0
100
AcDbLayout
  1
Model
 70
     1
 71
     0
 10
0.0
 20
0.0
 11
22.0
 21
17.0
 12
0.0
 22
0.0
 32
0.0
 14
0.0
 24
0.0
 34
0.0
 15
22.0
 25
17.0
 35
0.0
146
0.0
 13
0.0
 23
0.0
 33
0.0
 16
1.0
 26
0.0
 36
0.0
 17
0.0
 27
1.0
 37
0.0
 76
     0
330
1F
331
29
  0
MLINESTYLE
  5
18
102
{ACAD_REACTORS
330
17
102
}
330
17
100
AcDbMlineStyle
  2
Standard
 70
     0
  3

 62
   256
 51
90.0
 52
90.0
 71
     2
 49
0.5
 62
   256
  6
BYLAYER
 49
-0.5
 62
   256
  6
BYLAYER
  0
ACDBPLACEHOLDER
  5
F
102
{ACAD_REACTORS
330
E
102
}
330
E
  0
SCALE
  5
48
102
{ACAD_REACTORS
330
47
102
}
330
47
100
AcDbScale
 70
     0
300
1:1
140
1.0
141
1.0
290
     1
  0
SCALE
  5
49
102
{ACAD_REACTORS
330
47
102
}
330
47
100
AcDbScale
 70
     0
300
1/128" = 1'-0"
140
0.0078125
141
12.0
290
     0
  0
SCALE
  5
4A
102
{ACAD_REACTORS
330
47
102
}
330
47
100
AcDbScale
 70
     0
300
1/64" = 1'-0"
140
0.015625
141
12.0
290
     0
  0
SCALE
  5
4B
102
{ACAD_REACTORS
330
47
102
}
330
47
100
AcDbScale
 70
     0
300
1/32" = 1'-0"
140
0.03125
141
12.0
290
     0
  0
SCALE
  5
4C
102
{ACAD_REACTORS
330
47
102
}
330
47
100
AcDbScale
 70
     0
300
1/16" = 1'-0"
140
0.0625
141
12.0
290
     0
  0
SCALE
  5
4D
102
{ACAD_REACTORS
330
47
102
}
330
47
100
AcDbScale
 70
     0
300
3/32" = 1'-0"
140
0.09375
141
12.0
290
     0
  0
SCALE
  5
4E
102
{ACAD_REACTORS
330
47
102
}
330
47
100
AcDbScale
 70
     0
300
1/8" = 1'-0"
140
0.125
141
12.0
290
     0
  0
SCALE
  5
4F
102
{ACAD_REACTORS
330
47
102
}
330
47
100
AcDbScale
 70
     0
300
3/16" = 1'-0"
140
0.1875
141
12.0
290
     0
  0
SCALE
  5
50
102
{ACAD_REACTORS
330
47
102
}
330
47
100
AcDbScale
 70
     0
300
1/4" = 1'-0"
140
0.25
141
12.0
290
     0
  0
SCALE
  5
51
102
{ACAD_REACTORS
330
47
102
}
330
47
100
AcDbScale
 70
     0
300
3/8" = 1'-0"
140
0.375
141
12.0
290
     0
  0
SCALE
  5
52
102
{ACAD_REACTORS
330
47
102
}
330
47
100
AcDbScale
 70
     0
300
1/2" = 1'-0"
140
0.5
141
12.0
290
     0
  0
SCALE
  5
53
102
{ACAD_REACTORS
330
47
102
}
330
47
100
AcDbScale
 70
     0
300
3/4" = 1'-0"
140
0.75
141
12.0
290
     0
  0
SCALE
  5
54
102
{ACAD_REACTORS
330
47
102
}
330
47
100
AcDbScale
 70
     0
300
1" = 1'-0"
140
1.0
141
12.0
290
     0
  0
SCALE
  5
55
102
{ACAD_REACTORS
330
47
102
}
330
47
100
AcDbScale
 70
     0
300
1-1/2" = 1'-0"
140
1.5
141
12.0
290
     0
  0
SCALE
  5
56
102
{ACAD_REACTORS
330
47
102
}
330
47
100
AcDbScale
 70
     0
300
3" = 1'-0"
140
3.0
141
12.0
290
     0
  0
SCALE
  5
57
102
{ACAD_REACTORS
330
47
102
}
330
47
100
AcDbScale
 70
     0
300
6" = 1'-0"
140
6.0
141
12.0
290
     0
  0
SCALE
  5
58
102
{ACAD_REACTORS
330
47
102
}
330
47
100
AcDbScale
 70
     0
300
1'-0" = 1'-0"
140
12.0
141
12.0
290
     0
  0
ENDSEC
  0
EOF
