  0
SECTION
  2
HEADER
  9
$ACADVER
  1
AC1015
  9
$ACADMAINTVER
 70
     6
  9
$DWGCODEPAGE
  3
ANSI_1252
  9
$INSBASE
 10
0.0
 20
0.0
 30
0.0
  9
$EXTMIN
 10
0.0
 20
0.0
 30
0.0
  9
$EXTMAX
 10
22.0
 20
17.0
 30
0.0
  9
$LIMMIN
 10
0.0
 20
0.0
  9
$LIMMAX
 10
22.0
 20
17.0
  9
$ORTHOMODE
 70
     0
  9
$REGENMODE
 70
     1
  9
$FILLMODE
 70
     1
  9
$QTEXTMODE
 70
     0
  9
$MIRRTEXT
 70
     1
  9
$LTSCALE
 40
2.0
  9
$ATTMODE
 70
     1
  9
$TEXTSIZE
 40
0.25
  9
$TRACEWID
 40
0.05
  9
$TEXTSTYLE
  7
Standard
  9
$CLAYER
  8
0
  9
$CELTYPE
  6
ByLayer
  9
$CECOLOR
 62
   256
  9
$CELTSCALE
 40
1.0
  9
$DISPSILH
 70
     0
  9
$DIMSCALE
 40
1.0
  9
$DIMASZ
 40
0.26
  9
$DIMEXO
 40
0.1
  9
$DIMDLI
 40
0.38
  9
$DIMRND
 40
0.0
  9
$DIMDLE
 40
0.0
  9
$DIMEXE
 40
0.25
  9
$DIMTP
 40
0.0
  9
$DIMTM
 40
0.0
  9
$DIMTXT
 40
0.25
  9
$DIMCEN
 40
0.09
  9
$DIMTSZ
 40
0.0
  9
$DIMTOL
 70
     0
  9
$DIMLIM
 70
     0
  9
$DIMTIH
 70
     1
  9
$DIMTOH
 70
     1
  9
$DIMSE1
 70
     0
  9
$DIMSE2
 70
     0
  9
$DIMTAD
 70
     0
  9
$DIMZIN
 70
     1
  9
$DIMBLK
  1

  9
$DIMASO
 70
     1
  9
$DIMSHO
 70
     1
  9
$DIMPOST
  1

  9
$DIMAPOST
  1

  9
$DIMALT
 70
     0
  9
$DIMALTD
 70
     2
  9
$DIMALTF
 40
25.4
  9
$DIMLFAC
 40
1.0
  9
$DIMTOFL
 70
     0
  9
$DIMTVP
 40
0.0
  9
$DIMTIX
 70
     0
  9
$DIMSOXD
 70
     0
  9
$DIMSAH
 70
     0
  9
$DIMBLK1
  1

  9
$DIMBLK2
  1

  9
$DIMSTYLE
  2
Standard
  9
$DIMCLRD
 70
     0
  9
$DIMCLRE
 70
     0
  9
$DIMCLRT
 70
     0
  9
$DIMTFAC
 40
1.0
  9
$DIMGAP
 40
0.12
  9
$DIMJUST
 70
     0
  9
$DIMSD1
 70
     0
  9
$DIMSD2
 70
     0
  9
$DIMTOLJ
 70
     1
  9
$DIMTZIN
 70
     1
  9
$DIMALTZ
 70
     0
  9
$DIMALTTZ
 70
     0
  9
$DIMUPT
 70
     0
  9
$DIMDEC
 70
     0
  9
$DIMTDEC
 70
     0
  9
$DIMALTU
 70
     2
  9
$DIMALTTD
 70
     2
  9
$DIMTXSTY
  7
Standard
  9
$DIMAUNIT
 70
     0
  9
$DIMADEC
 70
     0
  9
$DIMALTRND
 40
0.0
  9
$DIMAZIN
 70
     0
  9
$DIMDSEP
 70
    46
  9
$DIMATFIT
 70
     3
  9
$DIMFRAC
 70
     0
  9
$DIMLDRBLK
  1

  9
$DIMLUNIT
 70
     2
  9
$DIMLWD
 70
    -2
  9
$DIMLWE
 70
    -2
  9
$DIMTMOVE
 70
     0
  9
$LUNITS
 70
     2
  9
$LUPREC
 70
     6
  9
$SKETCHINC
 40
0.1
  9
$FILLETRAD
 40
0.0
  9
$AUNITS
 70
     0
  9
$AUPREC
 70
     2
  9
$MENU
  1
.
  9
$ELEVATION
 40
0.0
  9
$PELEVATION
 40
0.0
  9
$THICKNESS
 40
0.0
  9
$LIMCHECK
 70
     0
  9
$CHAMFERA
 40
0.0
  9
$CHAMFERB
 40
0.0
  9
$CHAMFERC
 40
0.0
  9
$CHAMFERD
 40
0.0
  9
$SKPOLY
 70
     0
  9
$TDCREATE
 40
2460476.181245903
  9
$TDUCREATE
 40
2460476.47291257
  9
$TDUPDATE
 40
2460476.181247107
  9
$TDUUPDATE
 40
2460476.472913774
  9
$TDINDWG
 40
0.0000000116
  9
$TDUSRTIMER
 40
0.0000000116
  9
$USRTIMER
 70
     1
  9
$ANGBASE
 50
0.0
  9
$ANGDIR
 70
     0
  9
$PDMODE
 70
     0
  9
$PDSIZE
 40
-1.0
  9
$PLINEWID
 40
0.0
  9
$SPLFRAME
 70
     0
  9
$SPLINETYPE
 70
     6
  9
$SPLINESEGS
 70
     8
  9
$HANDSEED
  5
3D8
  9
$SURFTAB1
 70
     6
  9
$SURFTAB2
 70
     6
  9
$SURFTYPE
 70
     6
  9
$SURFU
 70
     6
  9
$SURFV
 70
     6
  9
$UCSBASE
  2

  9
$UCSNAME
  2

  9
$UCSORG
 10
0.0
 20
0.0
 30
0.0
  9
$UCSXDIR
 10
1.0
 20
0.0
 30
0.0
  9
$UCSYDIR
 10
0.0
 20
1.0
 30
0.0
  9
$UCSORTHOREF
  2

  9
$UCSORTHOVIEW
 70
     0
  9
$UCSORGTOP
 10
0.0
 20
0.0
 30
0.0
  9
$UCSORGBOTTOM
 10
0.0
 20
0.0
 30
0.0
  9
$UCSORGLEFT
 10
0.0
 20
0.0
 30
0.0
  9
$UCSORGRIGHT
 10
0.0
 20
0.0
 30
0.0
  9
$UCSORGFRONT
 10
0.0
 20
0.0
 30
0.0
  9
$UCSORGBACK
 10
0.0
 20
0.0
 30
0.0
  9
$PUCSBASE
  2

  9
$PUCSNAME
  2

  9
$PUCSORG
 10
0.0
 20
0.0
 30
0.0
  9
$PUCSXDIR
 10
1.0
 20
0.0
 30
0.0
  9
$PUCSYDIR
 10
0.0
 20
1.0
 30
0.0
  9
$PUCSORTHOREF
  2

  9
$PUCSORTHOVIEW
 70
     0
  9
$PUCSORGTOP
 10
0.0
 20
0.0
 30
0.0
  9
$PUCSORGBOTTOM
 10
0.0
 20
0.0
 30
0.0
  9
$PUCSORGLEFT
 10
0.0
 20
0.0
 30
0.0
  9
$PUCSORGRIGHT
 10
0.0
 20
0.0
 30
0.0
  9
$PUCSORGFRONT
 10
0.0
 20
0.0
 30
0.0
  9
$PUCSORGBACK
 10
0.0
 20
0.0
 30
0.0
  9
$USERI1
 70
     0
  9
$USERI2
 70
     0
  9
$USERI3
 70
     0
  9
$USERI4
 70
     0
  9
$USERI5
 70
     0
  9
$USERR1
 40
0.0
  9
$USERR2
 40
0.0
  9
$USERR3
 40
0.0
  9
$USERR4
 40
0.0
  9
$USERR5
 40
0.0
  9
$WORLDVIEW
 70
     1
  9
$SHADEDGE
 70
     3
  9
$SHADEDIF
 70
    70
  9
$TILEMODE
 70
     1
  9
$MAXACTVP
 70
    64
  9
$PINSBASE
 10
0.0
 20
0.0
 30
0.0
  9
$PLIMCHECK
 70
     0
  9
$PEXTMIN
 10
1.0000000000E+20
 20
1.0000000000E+20
 30
1.0000000000E+20
  9
$PEXTMAX
 10
-1.0000000000E+20
 20
-1.0000000000E+20
 30
-1.0000000000E+20
  9
$PLIMMIN
 10
0.0
 20
0.0
  9
$PLIMMAX
 10
12.0
 20
9.0
  9
$UNITMODE
 70
     0
  9
$VISRETAIN
 70
     1
  9
$PLINEGEN
 70
     0
  9
$PSLTSCALE
 70
     1
  9
$TREEDEPTH
 70
  3020
  9
$CMLSTYLE
  2
Standard
  9
$CMLJUST
 70
     0
  9
$CMLSCALE
 40
1.0
  9
$PROXYGRAPHICS
 70
     1
  9
$MEASUREMENT
 70
     0
  9
$CELWEIGHT
370
    -1
  9
$ENDCAPS
280
     0
  9
$JOINSTYLE
280
     0
  9
$LWDISPLAY
290
     1
  9
$INSUNITS
 70
     1
  9
$HYPERLINKBASE
  1

  9
$STYLESHEET
  1

  9
$XEDIT
290
     1
  9
$CEPSNTYPE
380
     0
  9
$PSTYLEMODE
290
     1
  9
$FINGERPRINTGUID
  2
{94594dbd-ba46-4a43-92f7-f4e756c01935}
  9
$VERSIONGUID
  2
{FAEB1C32-E019-11D5-929B-00C0DF256EC4}
  9
$EXTNAMES
290
     1
  9
$PSVPSCALE
 40
0.0
  9
$OLESTARTUP
290
     0
  0
ENDSEC
  0
SECTION
  2
CLASSES
  0
CLASS
  1
ACDBDICTIONARYWDFLT
  2
AcDbDictionaryWithDefault
  3
ObjectDBX Classes
 90
        0
280
     0
281
     0
  0
CLASS
  1
VISUALSTYLE
  2
AcDbVisualStyle
  3
ObjectDBX Classes
 90
     4095
280
     0
281
     0
  0
CLASS
  1
MATERIAL
  2
AcDbMaterial
  3
ObjectDBX Classes
 90
     1153
280
     0
281
     0
  0
CLASS
  1
SCALE
  2
AcDbScale
  3
ObjectDBX Classes
 90
     1153
280
     0
281
     0
  0
CLASS
  1
TABLESTYLE
  2
AcDbTableStyle
  3
ObjectDBX Classes
 90
     4095
280
     0
281
     0
  0
CLASS
  1
MLEADERSTYLE
  2
AcDbMLeaderStyle
  3
ACDB_MLEADERSTYLE_CLASS
 90
     4095
280
     0
281
     0
  0
CLASS
  1
SUN
  2
AcDbSun
  3
SCENEOE
 90
     1153
280
     0
281
     0
  0
CLASS
  1
ACDBPLACEHOLDER
  2
AcDbPlaceHolder
  3
ObjectDBX Classes
 90
        0
280
     0
281
     0
  0
CLASS
  1
LAYOUT
  2
AcDbLayout
  3
ObjectDBX Classes
 90
        0
280
     0
281
     0
  0
ENDSEC
  0
SECTION
  2
TABLES
  0
TABLE
  2
VPORT
  5
8
330
0
100
AcDbSymbolTable
 70
     1
  0
VPORT
  5
29
330
8
100
AcDbSymbolTableRecord
100
AcDbViewportTableRecord
  2
*Active
 70
     0
 10
0.0
 20
0.0
 11
1.0
 21
1.0
 12
11.0
 22
8.5
 13
0.0
 23
0.0
 14
0.5
 24
0.5
 15
0.5
 25
0.5
 16
0.0
 26
0.0
 36
1.0
 17
0.0
 27
0.0
 37
0.0
 40
17.0
 41
1.2941176471
 42
50.0
 43
0.0
 44
0.0
 50
0.0
 51
0.0
 71
     0
 72
  2000
 73
     1
 74
     3
 75
     0
 76
     0
 77
     0
 78
     0
281
     0
 65
     1
110
0.0
120
0.0
130
0.0
111
1.0
121
0.0
131
0.0
112
0.0
122
1.0
132
0.0
 79
     0
146
0.0
  0
ENDTAB
  0
TABLE
  2
LTYPE
  5
5
330
0
100
AcDbSymbolTable
 70
     6
  0
LTYPE
  5
14
330
5
100
AcDbSymbolTableRecord
100
AcDbLinetypeTableRecord
  2
ByBlock
 70
     0
  3

 72
    65
 73
     0
 40
0.0
  0
LTYPE
  5
15
330
5
100
AcDbSymbolTableRecord
100
AcDbLinetypeTableRecord
  2
ByLayer
 70
     0
  3

 72
    65
 73
     0
 40
0.0
  0
LTYPE
  5
16
330
5
100
AcDbSymbolTableRecord
100
AcDbLinetypeTableRecord
  2
Continuous
 70
     0
  3
Solid line
 72
    65
 73
     0
 40
0.0
  0
LTYPE
  5
5E
330
5
100
AcDbSymbolTableRecord
100
AcDbLinetypeTableRecord
  2
HIDDEN
 70
     0
  3
Hidden __ __ __ __ __ __ __ __ __ __ __ __ __ __
 72
    65
 73
     2
 40
0.075
 49
0.05
 74
     0
 49
-0.025
 74
     0
  0
LTYPE
  5
5F
330
5
100
AcDbSymbolTableRecord
100
AcDbLinetypeTableRecord
  2
PHANTOM
 70
     0
  3
Phantom ______  __  __  ______  __  __  ______
 72
    65
 73
     6
 40
0.5
 49
0.25
 74
     0
 49
-0.05
 74
     0
 49
0.05
 74
     0
 49
-0.05
 74
     0
 49
0.05
 74
     0
 49
-0.05
 74
     0
  0
LTYPE
  5
60
330
5
100
AcDbSymbolTableRecord
100
AcDbLinetypeTableRecord
  2
CENTER
 70
     0
  3
Center ____ _ ____ _ ____ _ ____ _ ____ _ ____
 72
    65
 73
     4
 40
0.4
 49
0.25
 74
     0
 49
-0.05
 74
     0
 49
0.05
 74
     0
 49
-0.05
 74
     0
  0
LTYPE
  5
61
330
5
100
AcDbSymbolTableRecord
100
AcDbLinetypeTableRecord
  2
CENTERX2
 70
     0
  3
Center (2x) ________  __  ________  __  _____
 72
    65
 73
     4
 40
0.8
 49
0.5
 74
     0
 49
-0.1
 74
     0
 49
0.1
 74
     0
 49
-0.1
 74
     0
  0
LTYPE
  5
62
330
5
100
AcDbSymbolTableRecord
100
AcDbLinetypeTableRecord
  2
DOT2
 70
     0
  3
Dot (.5x) ........................................
 72
    65
 73
     2
 40
0.025
 49
0.0
 74
     0
 49
-0.025
 74
     0
  0
ENDTAB
  0
TABLE
  2
LAYER
  5
2
330
0
100
AcDbSymbolTable
 70
    12
  0
LAYER
  5
10
330
2
100
AcDbSymbolTableRecord
100
AcDbLayerTableRecord
  2
0
 70
     0
 62
     7
  6
Continuous
370
    -3
390
F
  0
LAYER
  5
63
330
2
100
AcDbSymbolTableRecord
100
AcDbLayerTableRecord
  2
SLD-0
 70
     0
 62
     7
  6
Continuous
370
    -3
390
F
  0
LAYER
  5
64
330
2
100
AcDbSymbolTableRecord
100
AcDbLayerTableRecord
  2
DIM
 70
     0
 62
     7
  6
Continuous
370
    -3
390
F
  0
LAYER
  5
65
330
2
100
AcDbSymbolTableRecord
100
AcDbLayerTableRecord
  2
CEN
 70
     0
 62
     1
  6
CENTER
370
    -3
390
F
  0
LAYER
  5
66
330
2
100
AcDbSymbolTableRecord
100
AcDbLayerTableRecord
  2
HAT
 70
     0
 62
     4
  6
Continuous
370
    -3
390
F
  0
LAYER
  5
67
330
2
100
AcDbSymbolTableRecord
100
AcDbLayerTableRecord
  2
OBJ
 70
     0
 62
     5
  6
Continuous
370
    -3
390
F
  0
LAYER
  5
68
330
2
100
AcDbSymbolTableRecord
100
AcDbLayerTableRecord
  2
SLD-DEFPOINTS
 70
     0
 62
     7
  6
Continuous
370
    -3
390
F
  0
LAYER
  5
69
330
2
100
AcDbSymbolTableRecord
100
AcDbLayerTableRecord
  2
HID
 70
     0
 62
     4
  6
HIDDEN
370
    -3
390
F
  0
LAYER
  5
6A
330
2
100
AcDbSymbolTableRecord
100
AcDbLayerTableRecord
  2
NOTE
 70
     0
 62
     7
  6
Continuous
370
    -3
390
F
  0
LAYER
  5
6B
330
2
100
AcDbSymbolTableRecord
100
AcDbLayerTableRecord
  2
VP
 70
     0
 62
    -5
  6
Continuous
290
     0
370
    -3
390
F
  0
LAYER
  5
6C
330
2
100
AcDbSymbolTableRecord
100
AcDbLayerTableRecord
  2
TITLE
 70
     0
 62
     7
  6
Continuous
370
    -3
390
F
  0
LAYER
  5
6D
330
2
100
AcDbSymbolTableRecord
100
AcDbLayerTableRecord
  2
THICK_TITLE
 70
     0
 62
     7
  6
Continuous
370
   100
390
F
  0
ENDTAB
  0
TABLE
  2
STYLE
  5
3
330
0
100
AcDbSymbolTable
 70
     2
  0
STYLE
  5
11
330
3
100
AcDbSymbolTableRecord
100
AcDbTextStyleTableRecord
  2
Standard
 70
     0
 40
0.0
 41
1.0
 50
0.0
 71
     0
 42
0.25
  3
txt
  4

  0
STYLE
  5
11F
330
3
100
AcDbSymbolTableRecord
100
AcDbTextStyleTableRecord
  2
SLDTEXTSTYLE0
 70
     0
 40
0.0
 41
0.75
 50
0.0
 71
     0
 42
0.25
  3
TXT
  4

  0
ENDTAB
  0
TABLE
  2
VIEW
  5
6
330
0
100
AcDbSymbolTable
 70
     0
  0
ENDTAB
  0
TABLE
  2
UCS
  5
7
330
0
100
AcDbSymbolTable
 70
     0
  0
ENDTAB
  0
TABLE
  2
APPID
  5
9
330
0
100
AcDbSymbolTable
 70
     1
  0
APPID
  5
12
330
9
100
AcDbSymbolTableRecord
100
AcDbRegAppTableRecord
  2
ACAD
 70
     0
  0
ENDTAB
  0
TABLE
  2
DIMSTYLE
  5
A
330
0
100
AcDbSymbolTable
 70
     6
100
AcDbDimStyleTable
  0
DIMSTYLE
105
27
330
A
100
AcDbSymbolTableRecord
100
AcDbDimStyleTableRecord
  2
Standard
 70
     0
178
     0
340
11
  0
DIMSTYLE
105
120
102
{ACAD_REACTORS
330
11E
102
}
330
A
100
AcDbSymbolTableRecord
100
AcDbDimStyleTableRecord
  2
SLDDIMSTYLE0
 70
     0
 41
0.26
 44
0.0
 45
0.000000001
 78
    12
 79
     3
140
0.25
147
0.0625
148
0.000000001
170
     1
172
     1
173
     1
178
     0
271
     6
272
     0
276
     2
277
     5
284
    12
289
     0
340
11F
  0
DIMSTYLE
105
135
102
{ACAD_REACTORS
330
134
330
1EF
102
}
330
A
100
AcDbSymbolTableRecord
100
AcDbDimStyleTableRecord
  2
SLDDIMSTYLE1
 70
     0
 41
0.26
 44
0.0
 45
0.000000001
 78
    12
 79
     3
140
0.25
147
0.0625
148
0.000000001
170
     1
173
     1
178
     0
271
     0
272
     0
276
     2
277
     5
284
    12
340
11F
  0
DIMSTYLE
105
14A
102
{ACAD_REACTORS
330
149
330
1DC
330
203
330
3AE
330
3C2
102
}
330
A
100
AcDbSymbolTableRecord
100
AcDbDimStyleTableRecord
  2
SLDDIMSTYLE2
 70
     0
 41
0.26
 44
0.0
 45
0.000000001
 78
    12
 79
     3
140
0.25
147
0.0625
148
0.000000001
170
     1
173
     1
178
     0
271
     6
272
     0
276
     2
277
     5
284
    12
340
11F
  0
DIMSTYLE
105
15F
102
{ACAD_REACTORS
330
15E
102
}
330
A
100
AcDbSymbolTableRecord
100
AcDbDimStyleTableRecord
  2
SLDDIMSTYLE3
 70
     0
 41
0.26
 44
0.0
 78
    12
 79
     3
140
0.25
144
2.0
147
0.0625
148
0.000000001
170
     1
173
     1
178
     0
179
     2
272
     2
276
     2
277
     5
284
    12
340
11F
  0
DIMSTYLE
105
16E
330
A
100
AcDbSymbolTableRecord
100
AcDbDimStyleTableRecord
  2
SLDDIMSTYLE4
 70
     0
 41
0.26
 44
0.0
 45
0.000000001
146
0.26
147
0.0
173
     1
178
     0
271
     0
272
     0
276
     2
277
     5
340
11
  0
ENDTAB
  0
TABLE
  2
BLOCK_RECORD
  5
1
330
0
100
AcDbSymbolTable
 70
    10
  0
BLOCK_RECORD
  5
1F
330
1
100
AcDbSymbolTableRecord
100
AcDbBlockTableRecord
  2
*Model_Space
340
22
  0
BLOCK_RECORD
  5
1B
330
1
100
AcDbSymbolTableRecord
100
AcDbBlockTableRecord
  2
*Paper_Space
340
1E
  0
BLOCK_RECORD
  5
23
330
1
100
AcDbSymbolTableRecord
100
AcDbBlockTableRecord
  2
*Paper_Space0
340
26
  0
BLOCK_RECORD
  5
121
330
1
100
AcDbSymbolTableRecord
100
AcDbBlockTableRecord
  2
_D
340
0
  0
BLOCK_RECORD
  5
136
330
1
100
AcDbSymbolTableRecord
100
AcDbBlockTableRecord
  2
_D_1
340
0
  0
BLOCK_RECORD
  5
14B
330
1
100
AcDbSymbolTableRecord
100
AcDbBlockTableRecord
  2
_D_2
340
0
  0
BLOCK_RECORD
  5
160
330
1
100
AcDbSymbolTableRecord
100
AcDbBlockTableRecord
  2
_D_3
340
0
  0
BLOCK_RECORD
  5
1DD
330
1
100
AcDbSymbolTableRecord
100
AcDbBlockTableRecord
  2
_D_4
340
0
  0
BLOCK_RECORD
  5
1F0
330
1
100
AcDbSymbolTableRecord
100
AcDbBlockTableRecord
  2
_D_5
340
0
  0
BLOCK_RECORD
  5
204
330
1
100
AcDbSymbolTableRecord
100
AcDbBlockTableRecord
  2
_D_6
340
0
  0
BLOCK_RECORD
  5
3AF
330
1
100
AcDbSymbolTableRecord
100
AcDbBlockTableRecord
  2
_D_7
340
0
  0
BLOCK_RECORD
  5
3C3
330
1
100
AcDbSymbolTableRecord
100
AcDbBlockTableRecord
  2
_D_8
340
0
  0
ENDTAB
  0
ENDSEC
  0
SECTION
  2
BLOCKS
  0
BLOCK
  5
20
330
1F
100
AcDbEntity
  8
0
100
AcDbBlockBegin
  2
*Model_Space
 70
     0
 10
0.0
 20
0.0
 30
0.0
  3
*Model_Space
  1

  0
ENDBLK
  5
21
330
1F
100
AcDbEntity
  8
0
100
AcDbBlockEnd
  0
BLOCK
  5
1C
330
1B
100
AcDbEntity
 67
     1
  8
0
100
AcDbBlockBegin
  2
*Paper_Space
 70
     0
 10
0.0
 20
0.0
 30
0.0
  3
*Paper_Space
  1

  0
ENDBLK
  5
1D
330
1B
100
AcDbEntity
 67
     1
  8
0
100
AcDbBlockEnd
  0
BLOCK
  5
24
330
23
100
AcDbEntity
  8
0
100
AcDbBlockBegin
  2
*Paper_Space0
 70
     0
 10
0.0
 20
0.0
 30
0.0
  3
*Paper_Space0
  1

  0
ENDBLK
  5
25
330
23
100
AcDbEntity
  8
0
100
AcDbBlockEnd
  0
BLOCK
  5
122
330
121
100
AcDbEntity
  8
0
100
AcDbBlockBegin
  2
_D
 70
     0
 10
0.0
 20
0.0
 30
0.0
  3
_D
  1

  0
SOLID
  5
124
330
121
100
AcDbEntity
  8
0
  6
Continuous
 62
     7
370
    18
100
AcDbTrace
 10
6.4833136333
 20
8.008326082
 30
0.0
 11
6.2233136333
 21
8.048326082
 31
0.0
 12
6.2233136333
 22
7.968326082
 32
0.0
 13
6.2233136333
 23
7.968326082
 33
0.0
  0
SOLID
  5
125
330
121
100
AcDbEntity
  8
0
  6
Continuous
 62
     7
370
    18
100
AcDbTrace
 10
6.8633136333
 20
8.008326082
 30
0.0
 11
7.1233136333
 21
7.968326082
 31
0.0
 12
7.1233136333
 22
8.048326082
 32
0.0
 13
7.1233136333
 23
8.048326082
 33
0.0
  0
LINE
  5
126
330
121
100
AcDbEntity
  8
0
  6
Continuous
 62
     7
370
     0
100
AcDbLine
 10
7.6080184931
 20
8.0064163208
 30
0.0
 11
7.5318466189
 21
8.0064163208
 31
0.0
  0
LINE
  5
127
330
121
100
AcDbEntity
  8
0
  6
Continuous
 62
     7
370
     0
100
AcDbLine
 10
7.5318466189
 20
8.0064163208
 30
0.0
 11
7.5318466189
 21
7.6095413088
 31
0.0
  0
LINE
  5
128
330
121
100
AcDbEntity
  8
0
  6
Continuous
 62
     7
370
     0
100
AcDbLine
 10
7.5318466189
 20
7.6095413088
 30
0.0
 11
7.6080184931
 21
7.6095413088
 31
0.0
  0
LINE
  5
129
330
121
100
AcDbEntity
  8
0
  6
Continuous
 62
     7
370
     0
100
AcDbLine
 10
8.6024629585
 20
8.0064163208
 30
0.0
 11
8.6786348327
 21
8.0064163208
 31
0.0
  0
LINE
  5
12A
330
121
100
AcDbEntity
  8
0
  6
Continuous
 62
     7
370
     0
100
AcDbLine
 10
8.6786348327
 20
8.0064163208
 30
0.0
 11
8.6786348327
 21
7.6095413088
 31
0.0
  0
LINE
  5
12B
330
121
100
AcDbEntity
  8
0
  6
Continuous
 62
     7
370
     0
100
AcDbLine
 10
8.6786348327
 20
7.6095413088
 30
0.0
 11
8.6024629585
 21
7.6095413088
 31
0.0
  0
LINE
  5
12C
330
121
100
AcDbEntity
  8
0
  6
Continuous
 62
     7
370
     0
100
AcDbLine
 10
6.4833136333
 20
7.3209245072
 30
0.0
 11
6.4833136333
 21
8.258326082
 31
0.0
  0
LINE
  5
12D
330
121
100
AcDbEntity
  8
0
  6
Continuous
 62
     7
370
     0
100
AcDbLine
 10
6.8633136333
 20
7.3209245072
 30
0.0
 11
6.8633136333
 21
8.258326082
 31
0.0
  0
LINE
  5
12E
330
121
100
AcDbEntity
  8
0
  6
Continuous
 62
     7
370
     0
100
AcDbLine
 10
6.4833136333
 20
8.008326082
 30
0.0
 11
5.9833136333
 21
8.008326082
 31
0.0
  0
LINE
  5
12F
330
121
100
AcDbEntity
  8
0
  6
Continuous
 62
     7
370
     0
100
AcDbLine
 10
6.8633136333
 20
8.008326082
 30
0.0
 11
7.3126084331
 21
8.008326082
 31
0.0
  0
MTEXT
  5
130
330
121
100
AcDbEntity
  8
0
  6
Continuous
 62
     7
370
    18
100
AcDbMText
 10
7.4570636333
 20
8.3832839758
 30
0.0
 40
0.25
 41
0.0
 71
     1
 72
     1
  1

  7
SLDTEXTSTYLE0
 73
     1
 44
1.0
  0
MTEXT
  5
131
330
121
100
AcDbEntity
  8
0
  6
Continuous
 62
     7
370
    18
100
AcDbMText
 10
7.7960393027
 20
8.3794645128
 30
0.0
 40
0.25
 41
0.0
 71
     1
 72
     1
  1
3/8"
  7
SLDTEXTSTYLE0
 73
     1
 44
1.0
  0
MTEXT
  5
132
330
121
100
AcDbEntity
  8
0
  6
Continuous
 62
     7
370
    18
100
AcDbMText
 10
7.6080184931
 20
7.9318082713
 30
0.0
 40
0.25
 41
0.0
 71
     1
 72
     1
  1
10mm
  7
SLDTEXTSTYLE0
 73
     1
 44
1.0
  0
MTEXT
  5
133
330
121
100
AcDbEntity
  8
0
  6
Continuous
 62
     7
370
    18
100
AcDbMText
 10
8.8485566519
 20
8.3832839758
 30
0.0
 40
0.25
 41
0.0
 71
     1
 72
     1
  1

  7
SLDTEXTSTYLE0
 73
     1
 44
1.0
  0
ENDBLK
  5
123
330
121
100
AcDbEntity
  8
0
100
AcDbBlockEnd
  0
BLOCK
  5
137
330
136
100
AcDbEntity
  8
0
100
AcDbBlockBegin
  2
_D_1
 70
     0
 10
0.0
 20
0.0
 30
0.0
  3
_D_1
  1

  0
SOLID
  5
139
330
136
100
AcDbEntity
  8
0
  6
Continuous
 62
     7
370
    18
100
AcDbTrace
 10
6.4833136333
 20
8.008326082
 30
0.0
 11
6.2233136333
 21
8.048326082
 31
0.0
 12
6.2233136333
 22
7.968326082
 32
0.0
 13
6.2233136333
 23
7.968326082
 33
0.0
  0
SOLID
  5
13A
330
136
100
AcDbEntity
  8
0
  6
Continuous
 62
     7
370
    18
100
AcDbTrace
 10
3.4595636333
 20
8.008326082
 30
0.0
 11
3.7195636333
 21
7.968326082
 31
0.0
 12
3.7195636333
 22
8.048326082
 32
0.0
 13
3.7195636333
 23
8.048326082
 33
0.0
  0
LINE
  5
13B
330
136
100
AcDbEntity
  8
0
  6
Continuous
 62
     7
370
     0
100
AcDbLine
 10
4.4742164372
 20
8.0064163208
 30
0.0
 11
4.398044563
 21
8.0064163208
 31
0.0
  0
LINE
  5
13C
330
136
100
AcDbEntity
  8
0
  6
Continuous
 62
     7
370
     0
100
AcDbLine
 10
4.398044563
 20
8.0064163208
 30
0.0
 11
4.398044563
 21
7.6095413088
 31
0.0
  0
LINE
  5
13D
330
136
100
AcDbEntity
  8
0
  6
Continuous
 62
     7
370
     0
100
AcDbLine
 10
4.398044563
 20
7.6095413088
 30
0.0
 11
4.4742164372
 21
7.6095413088
 31
0.0
  0
LINE
  5
13E
330
136
100
AcDbEntity
  8
0
  6
Continuous
 62
     7
370
     0
100
AcDbLine
 10
5.4686609026
 20
8.0064163208
 30
0.0
 11
5.5448327769
 21
8.0064163208
 31
0.0
  0
LINE
  5
13F
330
136
100
AcDbEntity
  8
0
  6
Continuous
 62
     7
370
     0
100
AcDbLine
 10
5.5448327769
 20
8.0064163208
 30
0.0
 11
5.5448327769
 21
7.6095413088
 31
0.0
  0
LINE
  5
140
330
136
100
AcDbEntity
  8
0
  6
Continuous
 62
     7
370
     0
100
AcDbLine
 10
5.5448327769
 20
7.6095413088
 30
0.0
 11
5.4686609026
 21
7.6095413088
 31
0.0
  0
LINE
  5
141
330
136
100
AcDbEntity
  8
0
  6
Continuous
 62
     7
370
     0
100
AcDbLine
 10
6.4833136333
 20
7.3209245072
 30
0.0
 11
6.4833136333
 21
8.258326082
 31
0.0
  0
LINE
  5
142
330
136
100
AcDbEntity
  8
0
  6
Continuous
 62
     7
370
     0
100
AcDbLine
 10
3.4595636333
 20
7.0510829683
 30
0.0
 11
3.4595636333
 21
8.258326082
 31
0.0
  0
LINE
  5
143
330
136
100
AcDbEntity
  8
0
  6
Continuous
 62
     7
370
     0
100
AcDbLine
 10
6.4833136333
 20
8.008326082
 30
0.0
 11
5.7640708893
 21
8.008326082
 31
0.0
  0
LINE
  5
144
330
136
100
AcDbEntity
  8
0
  6
Continuous
 62
     7
370
     0
100
AcDbLine
 10
3.4595636333
 20
8.008326082
 30
0.0
 11
4.1788063773
 21
8.008326082
 31
0.0
  0
MTEXT
  5
145
330
136
100
AcDbEntity
  8
0
  6
Continuous
 62
     7
370
    18
100
AcDbMText
 10
4.3232615774
 20
8.3832839758
 30
0.0
 40
0.25
 41
0.0
 71
     1
 72
     1
  1

  7
SLDTEXTSTYLE0
 73
     1
 44
1.0
  0
MTEXT
  5
146
330
136
100
AcDbEntity
  8
0
  6
Continuous
 62
     7
370
    18
100
AcDbMText
 10
4.82751504
 20
8.3794645128
 30
0.0
 40
0.25
 41
0.0
 71
     1
 72
     1
  1
3"
  7
SLDTEXTSTYLE0
 73
     1
 44
1.0
  0
MTEXT
  5
147
330
136
100
AcDbEntity
  8
0
  6
Continuous
 62
     7
370
    18
100
AcDbMText
 10
4.4742164372
 20
7.9318082713
 30
0.0
 40
0.25
 41
0.0
 71
     1
 72
     1
  1
77mm
  7
SLDTEXTSTYLE0
 73
     1
 44
1.0
  0
MTEXT
  5
148
330
136
100
AcDbEntity
  8
0
  6
Continuous
 62
     7
370
    18
100
AcDbMText
 10
5.7147545961
 20
8.3832839758
 30
0.0
 40
0.25
 41
0.0
 71
     1
 72
     1
  1

  7
SLDTEXTSTYLE0
 73
     1
 44
1.0
  0
ENDBLK
  5
138
330
136
100
AcDbEntity
  8
0
100
AcDbBlockEnd
  0
BLOCK
  5
14C
330
14B
100
AcDbEntity
  8
0
100
AcDbBlockBegin
  2
_D_2
 70
     0
 10
0.0
 20
0.0
 30
0.0
  3
_D_2
  1

  0
SOLID
  5
14E
330
14B
100
AcDbEntity
  8
0
  6
Continuous
 62
     7
370
    18
100
AcDbTrace
 10
2.2339653101
 20
6.9510829683
 30
0.0
 11
2.1939653101
 21
6.6910829683
 31
0.0
 12
2.2739653101
 22
6.6910829683
 32
0.0
 13
2.2739653101
 23
6.6910829683
 33
0.0
  0
SOLID
  5
14F
330
14B
100
AcDbEntity
  8
0
  6
Continuous
 62
     7
370
    18
100
AcDbTrace
 10
2.2339653101
 20
4.2407660462
 30
0.0
 11
2.2739653101
 21
4.5007660462
 31
0.0
 12
2.1939653101
 22
4.5007660462
 32
0.0
 13
2.1939653101
 23
4.5007660462
 33
0.0
  0
LINE
  5
150
330
14B
100
AcDbEntity
  8
0
  6
Continuous
 62
     7
370
     0
100
AcDbLine
 10
1.736743114
 20
5.594014746
 30
0.0
 11
1.6605712398
 21
5.594014746
 31
0.0
  0
LINE
  5
151
330
14B
100
AcDbEntity
  8
0
  6
Continuous
 62
     7
370
     0
100
AcDbLine
 10
1.6605712398
 20
5.594014746
 30
0.0
 11
1.6605712398
 21
5.197139734
 31
0.0
  0
LINE
  5
152
330
14B
100
AcDbEntity
  8
0
  6
Continuous
 62
     7
370
     0
100
AcDbLine
 10
1.6605712398
 20
5.197139734
 30
0.0
 11
1.736743114
 21
5.197139734
 31
0.0
  0
LINE
  5
153
330
14B
100
AcDbEntity
  8
0
  6
Continuous
 62
     7
370
     0
100
AcDbLine
 10
2.7311875795
 20
5.594014746
 30
0.0
 11
2.8073594537
 21
5.594014746
 31
0.0
  0
LINE
  5
154
330
14B
100
AcDbEntity
  8
0
  6
Continuous
 62
     7
370
     0
100
AcDbLine
 10
2.8073594537
 20
5.594014746
 30
0.0
 11
2.8073594537
 21
5.197139734
 31
0.0
  0
LINE
  5
155
330
14B
100
AcDbEntity
  8
0
  6
Continuous
 62
     7
370
     0
100
AcDbLine
 10
2.8073594537
 20
5.197139734
 30
0.0
 11
2.7311875795
 21
5.197139734
 31
0.0
  0
LINE
  5
156
330
14B
100
AcDbEntity
  8
0
  6
Continuous
 62
     7
370
     0
100
AcDbLine
 10
3.3595636333
 20
6.9510829683
 30
0.0
 11
1.9839653101
 21
6.9510829683
 31
0.0
  0
LINE
  5
157
330
14B
100
AcDbEntity
  8
0
  6
Continuous
 62
     7
370
     0
100
AcDbLine
 10
3.3595636333
 20
4.2407660462
 30
0.0
 11
1.9839653101
 21
4.2407660462
 31
0.0
  0
LINE
  5
158
330
14B
100
AcDbEntity
  8
0
  6
Continuous
 62
     7
370
     0
100
AcDbLine
 10
2.2339653101
 20
6.9510829683
 30
0.0
 11
2.2339653101
 21
6.0454904505
 31
0.0
  0
LINE
  5
159
330
14B
100
AcDbEntity
  8
0
  6
Continuous
 62
     7
370
     0
100
AcDbLine
 10
2.2339653101
 20
4.2407660462
 30
0.0
 11
2.2339653101
 21
5.146358564
 31
0.0
  0
MTEXT
  5
15A
330
14B
100
AcDbEntity
  8
0
  6
Continuous
 62
     7
370
    18
100
AcDbMText
 10
1.5857882542
 20
5.970882401
 30
0.0
 40
0.25
 41
0.0
 71
     1
 72
     1
  1

  7
SLDTEXTSTYLE0
 73
     1
 44
1.0
  0
MTEXT
  5
15B
330
14B
100
AcDbEntity
  8
0
  6
Continuous
 62
     7
370
    18
100
AcDbMText
 10
1.6015000614
 20
5.967062938
 30
0.0
 40
0.25
 41
0.0
 71
     1
 72
     1
  1
2 11/16"
  7
SLDTEXTSTYLE0
 73
     1
 44
1.0
  0
MTEXT
  5
15C
330
14B
100
AcDbEntity
  8
0
  6
Continuous
 62
     7
370
    18
100
AcDbMText
 10
1.736743114
 20
5.5194066965
 30
0.0
 40
0.25
 41
0.0
 71
     1
 72
     1
  1
69mm
  7
SLDTEXTSTYLE0
 73
     1
 44
1.0
  0
MTEXT
  5
15D
330
14B
100
AcDbEntity
  8
0
  6
Continuous
 62
     7
370
    18
100
AcDbMText
 10
2.9772812729
 20
5.970882401
 30
0.0
 40
0.25
 41
0.0
 71
     1
 72
     1
  1

  7
SLDTEXTSTYLE0
 73
     1
 44
1.0
  0
ENDBLK
  5
14D
330
14B
100
AcDbEntity
  8
0
100
AcDbBlockEnd
  0
BLOCK
  5
161
330
160
100
AcDbEntity
  8
0
100
AcDbBlockBegin
  2
_D_3
 70
     0
 10
0.0
 20
0.0
 30
0.0
  3
_D_3
  1

  0
ARC
  5
163
330
160
100
AcDbEntity
  8
0
  6
Continuous
 62
     7
370
    18
100
AcDbCircle
 10
6.6824875289
 20
5.6964245072
 30
0.0
 40
2.297256253411722
100
AcDbArc
 50
317.592456716
 51
330.0
  0
ARC
  5
164
330
160
100
AcDbEntity
  8
0
  6
Continuous
 62
     7
370
    18
100
AcDbCircle
 10
6.6824875289
 20
5.6964245072
 30
0.0
 40
2.297256253411721
100
AcDbArc
 50
0.0
 51
12.407543284
  0
SOLID
  5
165
330
160
100
AcDbEntity
  8
0
  6
Continuous
 62
     7
370
    18
100
AcDbTrace
 10
8.6719698034
 20
4.5477963805
 30
0.0
 11
8.4960351966
 21
4.352227942
 31
0.0
 12
8.5629544779
 22
4.3083894909
 32
0.0
 13
8.5629544779
 23
4.3083894909
 33
0.0
  0
SOLID
  5
166
330
160
100
AcDbEntity
  8
0
  6
Continuous
 62
     7
370
    18
100
AcDbTrace
 10
8.9797437824
 20
5.6964245072
 30
0.0
 11
9.0050371859
 21
5.9582646183
 31
0.0
 12
8.9251641627
 22
5.9537590466
 32
0.0
 13
8.9251641627
 23
5.9537590466
 33
0.0
  0
LINE
  5
167
330
160
100
AcDbEntity
  8
0
  6
Continuous
 62
     7
370
     0
100
AcDbLine
 10
6.9499161736
 20
5.5420245072
 30
0.0
 11
8.8884761544
 21
4.4227963805
 31
0.0
  0
LINE
  5
168
330
160
100
AcDbEntity
  8
0
  6
Continuous
 62
     7
370
     0
100
AcDbLine
 10
6.9566357488
 20
5.6964245072
 30
0.0
 11
9.2297437824
 21
5.6964245072
 31
0.0
  0
MTEXT
  5
169
330
160
100
AcDbEntity
  8
0
  6
Continuous
 62
     7
370
    18
100
AcDbMText
 10
7.9653556344
 20
5.4241177998
 30
0.0
 40
0.25
 41
0.0
 71
     1
 72
     1
  1
30°
  7
SLDTEXTSTYLE0
 73
     1
 44
1.0
  0
MTEXT
  5
16A
330
160
100
AcDbEntity
  8
0
  6
Continuous
 62
     7
370
    18
100
AcDbMText
 10
8.5618834263
 20
5.4241177998
 30
0.0
 40
0.25
 41
0.0
 71
     1
 72
     1
  1
LOUVER
  7
SLDTEXTSTYLE0
 73
     1
 44
1.0
  0
MTEXT
  5
16B
330
160
100
AcDbEntity
  8
0
  6
Continuous
 62
     7
370
    18
100
AcDbMText
 10
8.3433069783
 20
5.0272427879
 30
0.0
 40
0.25
 41
0.0
 71
     1
 72
     1
  1
ANGLE
  7
SLDTEXTSTYLE0
 73
     1
 44
1.0
  0
ENDBLK
  5
162
330
160
100
AcDbEntity
  8
0
100
AcDbBlockEnd
  0
BLOCK
  5
1DE
330
1DD
100
AcDbEntity
  8
0
100
AcDbBlockBegin
  2
_D_4
 70
     0
 10
0.0
 20
0.0
 30
0.0
  3
_D_4
  1

  0
SOLID
  5
1E0
330
1DD
100
AcDbEntity
  8
0
  6
Continuous
 62
     7
370
    18
100
AcDbTrace
 10
13.9665461274
 20
8.008326082
 30
0.0
 11
14.2265461274
 21
7.968326082
 31
0.0
 12
14.2265461274
 22
8.048326082
 32
0.0
 13
14.2265461274
 23
8.048326082
 33
0.0
  0
SOLID
  5
1E1
330
1DD
100
AcDbEntity
  8
0
  6
Continuous
 62
     7
370
    18
100
AcDbTrace
 10
17.2795461274
 20
8.008326082
 30
0.0
 11
17.0195461274
 21
8.048326082
 31
0.0
 12
17.0195461274
 22
7.968326082
 32
0.0
 13
17.0195461274
 23
7.968326082
 33
0.0
  0
LINE
  5
1E2
330
1DD
100
AcDbEntity
  8
0
  6
Continuous
 62
     7
370
     0
100
AcDbLine
 10
14.7070739305
 20
8.0064163208
 30
0.0
 11
14.6309020562
 21
8.0064163208
 31
0.0
  0
LINE
  5
1E3
330
1DD
100
AcDbEntity
  8
0
  6
Continuous
 62
     7
370
     0
100
AcDbLine
 10
14.6309020562
 20
8.0064163208
 30
0.0
 11
14.6309020562
 21
7.6095413088
 31
0.0
  0
LINE
  5
1E4
330
1DD
100
AcDbEntity
  8
0
  6
Continuous
 62
     7
370
     0
100
AcDbLine
 10
14.6309020562
 20
7.6095413088
 30
0.0
 11
14.7070739305
 21
7.6095413088
 31
0.0
  0
LINE
  5
1E5
330
1DD
100
AcDbEntity
  8
0
  6
Continuous
 62
     7
370
     0
100
AcDbLine
 10
15.7015183959
 20
8.0064163208
 30
0.0
 11
15.7776902701
 21
8.0064163208
 31
0.0
  0
LINE
  5
1E6
330
1DD
100
AcDbEntity
  8
0
  6
Continuous
 62
     7
370
     0
100
AcDbLine
 10
15.7776902701
 20
8.0064163208
 30
0.0
 11
15.7776902701
 21
7.6095413088
 31
0.0
  0
LINE
  5
1E7
330
1DD
100
AcDbEntity
  8
0
  6
Continuous
 62
     7
370
     0
100
AcDbLine
 10
15.7776902701
 20
7.6095413088
 30
0.0
 11
15.7015183959
 21
7.6095413088
 31
0.0
  0
LINE
  5
1E8
330
1DD
100
AcDbEntity
  8
0
  6
Continuous
 62
     7
370
     0
100
AcDbLine
 10
13.9665461274
 20
5.6959245072
 30
0.0
 11
13.9665461274
 21
8.258326082
 31
0.0
  0
LINE
  5
1E9
330
1DD
100
AcDbEntity
  8
0
  6
Continuous
 62
     7
370
     0
100
AcDbLine
 10
17.2795461274
 20
5.6959245072
 30
0.0
 11
17.2795461274
 21
8.258326082
 31
0.0
  0
LINE
  5
1EA
330
1DD
100
AcDbEntity
  8
0
  6
Continuous
 62
     7
370
     0
100
AcDbLine
 10
13.9665461274
 20
8.008326082
 30
0.0
 11
14.5040249819
 21
8.008326082
 31
0.0
  0
LINE
  5
1EB
330
1DD
100
AcDbEntity
  8
0
  6
Continuous
 62
     7
370
     0
100
AcDbLine
 10
17.2795461274
 20
8.008326082
 30
0.0
 11
16.7420672729
 21
8.008326082
 31
0.0
  0
MTEXT
  5
1EC
330
1DD
100
AcDbEntity
  8
0
  6
Continuous
 62
     7
370
    18
100
AcDbMText
 10
14.6641919708
 20
8.3794645128
 30
0.0
 40
0.25
 41
0.0
 71
     1
 72
     1
  1
3 5/16"
  7
SLDTEXTSTYLE0
 73
     1
 44
1.0
  0
MTEXT
  5
1ED
330
1DD
100
AcDbEntity
  8
0
  6
Continuous
 62
     7
370
    18
100
AcDbMText
 10
14.7070739305
 20
7.9318082713
 30
0.0
 40
0.25
 41
0.0
 71
     1
 72
     1
  1
84mm
  7
SLDTEXTSTYLE0
 73
     1
 44
1.0
  0
MTEXT
  5
1EE
330
1DD
100
AcDbEntity
  8
0
  6
Continuous
 62
     7
370
    18
100
AcDbMText
 10
15.9476121077
 20
8.3832839758
 30
0.0
 40
0.25
 41
0.0
 71
     1
 72
     1
  1
O.C.
  7
SLDTEXTSTYLE0
 73
     1
 44
1.0
  0
ENDBLK
  5
1DF
330
1DD
100
AcDbEntity
  8
0
100
AcDbBlockEnd
  0
BLOCK
  5
1F1
330
1F0
100
AcDbEntity
  8
0
100
AcDbBlockBegin
  2
_D_5
 70
     0
 10
0.0
 20
0.0
 30
0.0
  3
_D_5
  1

  0
SOLID
  5
1F3
330
1F0
100
AcDbEntity
  8
0
  6
Continuous
 62
     7
370
    18
100
AcDbTrace
 10
13.1230461274
 20
8.9532079718
 30
0.0
 11
13.3830461274
 21
8.9132079718
 31
0.0
 12
13.3830461274
 22
8.9932079718
 32
0.0
 13
13.3830461274
 23
8.9932079718
 33
0.0
  0
SOLID
  5
1F4
330
1F0
100
AcDbEntity
  8
0
  6
Continuous
 62
     7
370
    18
100
AcDbTrace
 10
18.1230461274
 20
8.9532079718
 30
0.0
 11
17.8630461274
 21
8.9932079718
 31
0.0
 12
17.8630461274
 22
8.9132079718
 32
0.0
 13
17.8630461274
 23
8.9132079718
 33
0.0
  0
LINE
  5
1F5
330
1F0
100
AcDbEntity
  8
0
  6
Continuous
 62
     7
370
     0
100
AcDbLine
 10
15.0334628383
 20
8.9512982105
 30
0.0
 11
14.9572909641
 21
8.9512982105
 31
0.0
  0
LINE
  5
1F6
330
1F0
100
AcDbEntity
  8
0
  6
Continuous
 62
     7
370
     0
100
AcDbLine
 10
14.9572909641
 20
8.9512982105
 30
0.0
 11
14.9572909641
 21
8.5544231986
 31
0.0
  0
LINE
  5
1F7
330
1F0
100
AcDbEntity
  8
0
  6
Continuous
 62
     7
370
     0
100
AcDbLine
 10
14.9572909641
 20
8.5544231986
 30
0.0
 11
15.0334628383
 21
8.5544231986
 31
0.0
  0
LINE
  5
1F8
330
1F0
100
AcDbEntity
  8
0
  6
Continuous
 62
     7
370
     0
100
AcDbLine
 10
16.2126294898
 20
8.9512982105
 30
0.0
 11
16.288801364
 21
8.9512982105
 31
0.0
  0
LINE
  5
1F9
330
1F0
100
AcDbEntity
  8
0
  6
Continuous
 62
     7
370
     0
100
AcDbLine
 10
16.288801364
 20
8.9512982105
 30
0.0
 11
16.288801364
 21
8.5544231986
 31
0.0
  0
LINE
  5
1FA
330
1F0
100
AcDbEntity
  8
0
  6
Continuous
 62
     7
370
     0
100
AcDbLine
 10
16.288801364
 20
8.5544231986
 30
0.0
 11
16.2126294898
 21
8.5544231986
 31
0.0
  0
LINE
  5
1FB
330
1F0
100
AcDbEntity
  8
0
  6
Continuous
 62
     7
370
     0
100
AcDbLine
 10
13.1230461274
 20
7.2909245072
 30
0.0
 11
13.1230461274
 21
9.2032079718
 31
0.0
  0
LINE
  5
1FC
330
1F0
100
AcDbEntity
  8
0
  6
Continuous
 62
     7
370
     0
100
AcDbLine
 10
18.1230461274
 20
7.2909245072
 30
0.0
 11
18.1230461274
 21
9.2032079718
 31
0.0
  0
LINE
  5
1FD
330
1F0
100
AcDbEntity
  8
0
  6
Continuous
 62
     7
370
     0
100
AcDbLine
 10
13.1230461274
 20
8.9532079718
 30
0.0
 11
14.7380527784
 21
8.9532079718
 31
0.0
  0
LINE
  5
1FE
330
1F0
100
AcDbEntity
  8
0
  6
Continuous
 62
     7
370
     0
100
AcDbLine
 10
18.1230461274
 20
8.9532079718
 30
0.0
 11
16.5080394764
 21
8.9532079718
 31
0.0
  0
MTEXT
  5
1FF
330
1F0
100
AcDbEntity
  8
0
  6
Continuous
 62
     7
370
    18
100
AcDbMText
 10
14.8825079785
 20
9.3281658656
 30
0.0
 40
0.25
 41
0.0
 71
     1
 72
     1
  1

  7
SLDTEXTSTYLE0
 73
     1
 44
1.0
  0
MTEXT
  5
200
330
1F0
100
AcDbEntity
  8
0
  6
Continuous
 62
     7
370
    18
100
AcDbMText
 10
15.4791225342
 20
9.3243464026
 30
0.0
 40
0.25
 41
0.0
 71
     1
 72
     1
  1
5"
  7
SLDTEXTSTYLE0
 73
     1
 44
1.0
  0
MTEXT
  5
201
330
1F0
100
AcDbEntity
  8
0
  6
Continuous
 62
     7
370
    18
100
AcDbMText
 10
15.0334628383
 20
8.876690161
 30
0.0
 40
0.25
 41
0.0
 71
     1
 72
     1
  1
127mm
  7
SLDTEXTSTYLE0
 73
     1
 44
1.0
  0
MTEXT
  5
202
330
1F0
100
AcDbEntity
  8
0
  6
Continuous
 62
     7
370
    18
100
AcDbMText
 10
16.4587231833
 20
9.3281658656
 30
0.0
 40
0.25
 41
0.0
 71
     1
 72
     1
  1

  7
SLDTEXTSTYLE0
 73
     1
 44
1.0
  0
ENDBLK
  5
1F2
330
1F0
100
AcDbEntity
  8
0
100
AcDbBlockEnd
  0
BLOCK
  5
205
330
204
100
AcDbEntity
  8
0
100
AcDbBlockBegin
  2
_D_6
 70
     0
 10
0.0
 20
0.0
 30
0.0
  3
_D_6
  1

  0
SOLID
  5
207
330
204
100
AcDbEntity
  8
0
  6
Continuous
 62
     7
370
    18
100
AcDbTrace
 10
12.3356445526
 20
7.2209245072
 30
0.0
 11
12.2956445526
 21
6.9609245072
 31
0.0
 12
12.3756445526
 22
6.9609245072
 32
0.0
 13
12.3756445526
 23
6.9609245072
 33
0.0
  0
SOLID
  5
208
330
204
100
AcDbEntity
  8
0
  6
Continuous
 62
     7
370
    18
100
AcDbTrace
 10
12.3356445526
 20
3.9709245072
 30
0.0
 11
12.3756445526
 21
4.2309245072
 31
0.0
 12
12.2956445526
 22
4.2309245072
 32
0.0
 13
12.2956445526
 23
4.2309245072
 33
0.0
  0
LINE
  5
209
330
204
100
AcDbEntity
  8
0
  6
Continuous
 62
     7
370
     0
100
AcDbLine
 10
11.8384223566
 20
5.594014746
 30
0.0
 11
11.7622504823
 21
5.594014746
 31
0.0
  0
LINE
  5
20A
330
204
100
AcDbEntity
  8
0
  6
Continuous
 62
     7
370
     0
100
AcDbLine
 10
11.7622504823
 20
5.594014746
 30
0.0
 11
11.7622504823
 21
5.197139734
 31
0.0
  0
LINE
  5
20B
330
204
100
AcDbEntity
  8
0
  6
Continuous
 62
     7
370
     0
100
AcDbLine
 10
11.7622504823
 20
5.197139734
 30
0.0
 11
11.8384223566
 21
5.197139734
 31
0.0
  0
LINE
  5
20C
330
204
100
AcDbEntity
  8
0
  6
Continuous
 62
     7
370
     0
100
AcDbLine
 10
12.832866822
 20
5.594014746
 30
0.0
 11
12.9090386962
 21
5.594014746
 31
0.0
  0
LINE
  5
20D
330
204
100
AcDbEntity
  8
0
  6
Continuous
 62
     7
370
     0
100
AcDbLine
 10
12.9090386962
 20
5.594014746
 30
0.0
 11
12.9090386962
 21
5.197139734
 31
0.0
  0
LINE
  5
20E
330
204
100
AcDbEntity
  8
0
  6
Continuous
 62
     7
370
     0
100
AcDbLine
 10
12.9090386962
 20
5.197139734
 30
0.0
 11
12.832866822
 21
5.197139734
 31
0.0
  0
LINE
  5
20F
330
204
100
AcDbEntity
  8
0
  6
Continuous
 62
     7
370
     0
100
AcDbLine
 10
13.0530461274
 20
7.2209245072
 30
0.0
 11
12.0856445526
 21
7.2209245072
 31
0.0
  0
LINE
  5
210
330
204
100
AcDbEntity
  8
0
  6
Continuous
 62
     7
370
     0
100
AcDbLine
 10
13.0530461274
 20
3.9709245072
 30
0.0
 11
12.0856445526
 21
3.9709245072
 31
0.0
  0
LINE
  5
211
330
204
100
AcDbEntity
  8
0
  6
Continuous
 62
     7
370
     0
100
AcDbLine
 10
12.3356445526
 20
7.2209245072
 30
0.0
 11
12.3356445526
 21
6.0454904505
 31
0.0
  0
LINE
  5
212
330
204
100
AcDbEntity
  8
0
  6
Continuous
 62
     7
370
     0
100
AcDbLine
 10
12.3356445526
 20
3.9709245072
 30
0.0
 11
12.3356445526
 21
5.146358564
 31
0.0
  0
MTEXT
  5
213
330
204
100
AcDbEntity
  8
0
  6
Continuous
 62
     7
370
    18
100
AcDbMText
 10
11.6874674967
 20
5.970882401
 30
0.0
 40
0.25
 41
0.0
 71
     1
 72
     1
  1

  7
SLDTEXTSTYLE0
 73
     1
 44
1.0
  0
MTEXT
  5
214
330
204
100
AcDbEntity
  8
0
  6
Continuous
 62
     7
370
    18
100
AcDbMText
 10
11.8879015266
 20
5.967062938
 30
0.0
 40
0.25
 41
0.0
 71
     1
 72
     1
  1
3 1/4"
  7
SLDTEXTSTYLE0
 73
     1
 44
1.0
  0
MTEXT
  5
215
330
204
100
AcDbEntity
  8
0
  6
Continuous
 62
     7
370
    18
100
AcDbMText
 10
11.8384223566
 20
5.5194066965
 30
0.0
 40
0.25
 41
0.0
 71
     1
 72
     1
  1
83mm
  7
SLDTEXTSTYLE0
 73
     1
 44
1.0
  0
MTEXT
  5
216
330
204
100
AcDbEntity
  8
0
  6
Continuous
 62
     7
370
    18
100
AcDbMText
 10
13.0789605154
 20
5.970882401
 30
0.0
 40
0.25
 41
0.0
 71
     1
 72
     1
  1

  7
SLDTEXTSTYLE0
 73
     1
 44
1.0
  0
ENDBLK
  5
206
330
204
100
AcDbEntity
  8
0
100
AcDbBlockEnd
  0
BLOCK
  5
3B0
330
3AF
100
AcDbEntity
  8
0
100
AcDbBlockBegin
  2
_D_7
 70
     0
 10
0.0
 20
0.0
 30
0.0
  3
_D_7
  1

  0
SOLID
  5
3B2
330
3AF
100
AcDbEntity
  8
0
  6
Continuous
 62
     7
370
    18
100
AcDbTrace
 10
2.9172341484
 20
15.4237596979
 30
0.0
 11
3.1772341484
 21
15.3837596979
 31
0.0
 12
3.1772341484
 22
15.4637596979
 32
0.0
 13
3.1772341484
 23
15.4637596979
 33
0.0
  0
SOLID
  5
3B3
330
3AF
100
AcDbEntity
  8
0
  6
Continuous
 62
     7
370
    18
100
AcDbTrace
 10
7.6293931181
 20
15.4237596979
 30
0.0
 11
7.3693931181
 21
15.4637596979
 31
0.0
 12
7.3693931181
 22
15.3837596979
 32
0.0
 13
7.3693931181
 23
15.3837596979
 33
0.0
  0
LINE
  5
3B4
330
3AF
100
AcDbEntity
  8
0
  6
Continuous
 62
     7
370
     0
100
AcDbLine
 10
4.6837303442
 20
15.4218499366
 30
0.0
 11
4.60755847
 21
15.4218499366
 31
0.0
  0
LINE
  5
3B5
330
3AF
100
AcDbEntity
  8
0
  6
Continuous
 62
     7
370
     0
100
AcDbLine
 10
4.60755847
 20
15.4218499366
 30
0.0
 11
4.60755847
 21
15.0249749246
 31
0.0
  0
LINE
  5
3B6
330
3AF
100
AcDbEntity
  8
0
  6
Continuous
 62
     7
370
     0
100
AcDbLine
 10
4.60755847
 20
15.0249749246
 30
0.0
 11
4.6837303442
 21
15.0249749246
 31
0.0
  0
LINE
  5
3B7
330
3AF
100
AcDbEntity
  8
0
  6
Continuous
 62
     7
370
     0
100
AcDbLine
 10
5.8628969957
 20
15.4218499366
 30
0.0
 11
5.9390688699
 21
15.4218499366
 31
0.0
  0
LINE
  5
3B8
330
3AF
100
AcDbEntity
  8
0
  6
Continuous
 62
     7
370
     0
100
AcDbLine
 10
5.9390688699
 20
15.4218499366
 30
0.0
 11
5.9390688699
 21
15.0249749246
 31
0.0
  0
LINE
  5
3B9
330
3AF
100
AcDbEntity
  8
0
  6
Continuous
 62
     7
370
     0
100
AcDbLine
 10
5.9390688699
 20
15.0249749246
 30
0.0
 11
5.8628969957
 21
15.0249749246
 31
0.0
  0
LINE
  5
3BA
330
3AF
100
AcDbEntity
  8
0
  6
Continuous
 62
     7
370
     0
100
AcDbLine
 10
2.9172341484
 20
14.736358123
 30
0.0
 11
2.9172341484
 21
15.6737596979
 31
0.0
  0
LINE
  5
3BB
330
3AF
100
AcDbEntity
  8
0
  6
Continuous
 62
     7
370
     0
100
AcDbLine
 10
7.6293931181
 20
14.736358123
 30
0.0
 11
7.6293931181
 21
15.6737596979
 31
0.0
  0
LINE
  5
3BC
330
3AF
100
AcDbEntity
  8
0
  6
Continuous
 62
     7
370
     0
100
AcDbLine
 10
2.9172341484
 20
15.4237596979
 30
0.0
 11
4.3883202842
 21
15.4237596979
 31
0.0
  0
LINE
  5
3BD
330
3AF
100
AcDbEntity
  8
0
  6
Continuous
 62
     7
370
     0
100
AcDbLine
 10
7.6293931181
 20
15.4237596979
 30
0.0
 11
6.1583069823
 21
15.4237596979
 31
0.0
  0
MTEXT
  5
3BE
330
3AF
100
AcDbEntity
  8
0
  6
Continuous
 62
     7
370
    18
100
AcDbMText
 10
4.5327754844
 20
15.7987175916
 30
0.0
 40
0.25
 41
0.0
 71
     1
 72
     1
  1

  7
SLDTEXTSTYLE0
 73
     1
 44
1.0
  0
MTEXT
  5
3BF
330
3AF
100
AcDbEntity
  8
0
  6
Continuous
 62
     7
370
    18
100
AcDbMText
 10
4.6408483845
 20
15.7948981286
 30
0.0
 40
0.25
 41
0.0
 71
     1
 72
     1
  1
4 11/16"
  7
SLDTEXTSTYLE0
 73
     1
 44
1.0
  0
MTEXT
  5
3C0
330
3AF
100
AcDbEntity
  8
0
  6
Continuous
 62
     7
370
    18
100
AcDbMText
 10
4.6837303442
 20
15.3472418871
 30
0.0
 40
0.25
 41
0.0
 71
     1
 72
     1
  1
120mm
  7
SLDTEXTSTYLE0
 73
     1
 44
1.0
  0
MTEXT
  5
3C1
330
3AF
100
AcDbEntity
  8
0
  6
Continuous
 62
     7
370
    18
100
AcDbMText
 10
6.1089906891
 20
15.7987175916
 30
0.0
 40
0.25
 41
0.0
 71
     1
 72
     1
  1

  7
SLDTEXTSTYLE0
 73
     1
 44
1.0
  0
ENDBLK
  5
3B1
330
3AF
100
AcDbEntity
  8
0
100
AcDbBlockEnd
  0
BLOCK
  5
3C4
330
3C3
100
AcDbEntity
  8
0
100
AcDbBlockBegin
  2
_D_8
 70
     0
 10
0.0
 20
0.0
 30
0.0
  3
_D_8
  1

  0
SOLID
  5
3C6
330
3C3
100
AcDbEntity
  8
0
  6
Continuous
 62
     7
370
    18
100
AcDbTrace
 10
2.1298325736
 20
14.636358123
 30
0.0
 11
2.0898325736
 21
14.376358123
 31
0.0
 12
2.1698325736
 22
14.376358123
 32
0.0
 13
2.1698325736
 23
14.376358123
 33
0.0
  0
SOLID
  5
3C7
330
3C3
100
AcDbEntity
  8
0
  6
Continuous
 62
     7
370
    18
100
AcDbTrace
 10
2.1298325736
 20
11.6841991534
 30
0.0
 11
2.1698325736
 21
11.9441991534
 31
0.0
 12
2.0898325736
 22
11.9441991534
 32
0.0
 13
2.0898325736
 23
11.9441991534
 33
0.0
  0
LINE
  5
3C8
330
3C3
100
AcDbEntity
  8
0
  6
Continuous
 62
     7
370
     0
100
AcDbLine
 10
1.6326103776
 20
13.1583688769
 30
0.0
 11
1.5564385033
 21
13.1583688769
 31
0.0
  0
LINE
  5
3C9
330
3C3
100
AcDbEntity
  8
0
  6
Continuous
 62
     7
370
     0
100
AcDbLine
 10
1.5564385033
 20
13.1583688769
 30
0.0
 11
1.5564385033
 21
12.761493865
 31
0.0
  0
LINE
  5
3CA
330
3C3
100
AcDbEntity
  8
0
  6
Continuous
 62
     7
370
     0
100
AcDbLine
 10
1.5564385033
 20
12.761493865
 30
0.0
 11
1.6326103776
 21
12.761493865
 31
0.0
  0
LINE
  5
3CB
330
3C3
100
AcDbEntity
  8
0
  6
Continuous
 62
     7
370
     0
100
AcDbLine
 10
2.627054843
 20
13.1583688769
 30
0.0
 11
2.7032267172
 21
13.1583688769
 31
0.0
  0
LINE
  5
3CC
330
3C3
100
AcDbEntity
  8
0
  6
Continuous
 62
     7
370
     0
100
AcDbLine
 10
2.7032267172
 20
13.1583688769
 30
0.0
 11
2.7032267172
 21
12.761493865
 31
0.0
  0
LINE
  5
3CD
330
3C3
100
AcDbEntity
  8
0
  6
Continuous
 62
     7
370
     0
100
AcDbLine
 10
2.7032267172
 20
12.761493865
 30
0.0
 11
2.627054843
 21
12.761493865
 31
0.0
  0
LINE
  5
3CE
330
3C3
100
AcDbEntity
  8
0
  6
Continuous
 62
     7
370
     0
100
AcDbLine
 10
2.8172341484
 20
14.636358123
 30
0.0
 11
1.8798325736
 21
14.636358123
 31
0.0
  0
LINE
  5
3CF
330
3C3
100
AcDbEntity
  8
0
  6
Continuous
 62
     7
370
     0
100
AcDbLine
 10
2.8172341484
 20
11.6841991534
 30
0.0
 11
1.8798325736
 21
11.6841991534
 31
0.0
  0
LINE
  5
3D0
330
3C3
100
AcDbEntity
  8
0
  6
Continuous
 62
     7
370
     0
100
AcDbLine
 10
2.1298325736
 20
14.636358123
 30
0.0
 11
2.1298325736
 21
13.6098445814
 31
0.0
  0
LINE
  5
3D1
330
3C3
100
AcDbEntity
  8
0
  6
Continuous
 62
     7
370
     0
100
AcDbLine
 10
2.1298325736
 20
11.6841991534
 30
0.0
 11
2.1298325736
 21
12.710712695
 31
0.0
  0
MTEXT
  5
3D2
330
3C3
100
AcDbEntity
  8
0
  6
Continuous
 62
     7
370
    18
100
AcDbMText
 10
1.4816555177
 20
13.535236532
 30
0.0
 40
0.25
 41
0.0
 71
     1
 72
     1
  1

  7
SLDTEXTSTYLE0
 73
     1
 44
1.0
  0
MTEXT
  5
3D3
330
3C3
100
AcDbEntity
  8
0
  6
Continuous
 62
     7
370
    18
100
AcDbMText
 10
1.4973673249
 20
13.531417069
 30
0.0
 40
0.25
 41
0.0
 71
     1
 72
     1
  1
2 15/16"
  7
SLDTEXTSTYLE0
 73
     1
 44
1.0
  0
MTEXT
  5
3D4
330
3C3
100
AcDbEntity
  8
0
  6
Continuous
 62
     7
370
    18
100
AcDbMText
 10
1.6326103776
 20
13.0837608274
 30
0.0
 40
0.25
 41
0.0
 71
     1
 72
     1
  1
75mm
  7
SLDTEXTSTYLE0
 73
     1
 44
1.0
  0
MTEXT
  5
3D5
330
3C3
100
AcDbEntity
  8
0
  6
Continuous
 62
     7
370
    18
100
AcDbMText
 10
2.8731485364
 20
13.535236532
 30
0.0
 40
0.25
 41
0.0
 71
     1
 72
     1
  1

  7
SLDTEXTSTYLE0
 73
     1
 44
1.0
  0
ENDBLK
  5
3C5
330
3C3
100
AcDbEntity
  8
0
100
AcDbBlockEnd
  0
ENDSEC
  0
SECTION
  2
ENTITIES
  0
LINE
  5
6E
330
1F
100
AcDbEntity
  8
0
  6
Continuous
 62
     7
370
    25
100
AcDbLine
 10
6.8638888175
 20
5.8014245072
 30
0.0
 11
6.8633136333
 21
5.8009245072
 31
0.0
  0
LINE
  5
6F
330
1F
100
AcDbEntity
  8
0
  6
Continuous
 62
     7
370
    25
100
AcDbLine
 10
6.8633136333
 20
5.3909245072
 30
0.0
 11
6.8638888175
 21
5.3904245072
 31
0.0
  0
LINE
  5
70
330
1F
100
AcDbEntity
  8
0
  6
Continuous
 62
     7
370
    25
100
AcDbLine
 10
6.8688888175
 20
5.8014245072
 30
0.0
 11
6.8638888175
 21
5.8014245072
 31
0.0
  0
LINE
  5
71
330
1F
100
AcDbEntity
  8
0
  6
Continuous
 62
     7
370
    25
100
AcDbLine
 10
6.8638888175
 20
5.3904245072
 30
0.0
 11
6.8688888175
 21
5.3904245072
 31
0.0
  0
LINE
  5
72
330
1F
100
AcDbEntity
  8
0
  6
Continuous
 62
     7
370
    25
100
AcDbLine
 10
6.4833136333
 20
4.0009245072
 30
0.0
 11
6.8633136333
 21
4.0009245072
 31
0.0
  0
LINE
  5
73
330
1F
100
AcDbEntity
  8
0
  6
Continuous
 62
     7
370
    25
100
AcDbLine
 10
6.8633136333
 20
4.0009245072
 30
0.0
 11
6.8633136333
 21
3.9709245072
 31
0.0
  0
LINE
  5
74
330
1F
100
AcDbEntity
  8
0
  6
Continuous
 62
     7
370
    25
100
AcDbLine
 10
6.8633136333
 20
3.9709245072
 30
0.0
 11
6.4833136333
 21
3.9709245072
 31
0.0
  0
LINE
  5
75
330
1F
100
AcDbEntity
  8
0
  6
Continuous
 62
     7
370
    25
100
AcDbLine
 10
6.4833136333
 20
3.9709245072
 30
0.0
 11
6.4833136333
 21
4.0009245072
 31
0.0
  0
LINE
  5
76
330
1F
100
AcDbEntity
  8
0
  6
Continuous
 62
     7
370
    25
100
AcDbLine
 10
6.4833136333
 20
7.2209245072
 30
0.0
 11
6.8633136333
 21
7.2209245072
 31
0.0
  0
LINE
  5
77
330
1F
100
AcDbEntity
  8
0
  6
Continuous
 62
     7
370
    25
100
AcDbLine
 10
6.8633136333
 20
7.2209245072
 30
0.0
 11
6.8633136333
 21
7.1909245072
 31
0.0
  0
LINE
  5
78
330
1F
100
AcDbEntity
  8
0
  6
Continuous
 62
     7
370
    25
100
AcDbLine
 10
6.8633136333
 20
7.1909245072
 30
0.0
 11
6.4833136333
 21
7.1909245072
 31
0.0
  0
LINE
  5
79
330
1F
100
AcDbEntity
  8
0
  6
Continuous
 62
     7
370
    25
100
AcDbLine
 10
6.4833136333
 20
7.1909245072
 30
0.0
 11
6.4833136333
 21
7.2209245072
 31
0.0
  0
LINE
  5
7A
330
1F
100
AcDbEntity
  8
0
  6
Continuous
 62
     7
370
    25
100
AcDbLine
 10
6.8633136333
 20
4.0009245072
 30
0.0
 11
6.8633136333
 21
7.1909245072
 31
0.0
  0
LINE
  5
7B
330
1F
100
AcDbEntity
  8
0
  6
Continuous
 62
     7
370
    25
100
AcDbLine
 10
6.4833136333
 20
4.0009245072
 30
0.0
 11
6.4833136333
 21
7.1909245072
 31
0.0
  0
LINE
  5
7C
330
1F
100
AcDbEntity
  8
0
  6
Continuous
 62
     7
370
    25
100
AcDbLine
 10
6.8638888175
 20
5.8014245072
 30
0.0
 11
6.8638888175
 21
5.3904245072
 31
0.0
  0
LINE
  5
7D
330
1F
100
AcDbEntity
  8
0
  6
Continuous
 62
     7
370
    25
100
AcDbLine
 10
6.8688888175
 20
5.8014245072
 30
0.0
 11
6.8688888175
 21
5.3904245072
 31
0.0
  0
LINE
  5
7E
330
1F
100
AcDbEntity
  8
0
  6
Continuous
 62
     7
370
    25
100
AcDbLine
 10
6.4833136333
 20
4.1259245072
 30
0.0
 11
6.3133136333
 21
4.1259245072
 31
0.0
  0
LINE
  5
7F
330
1F
100
AcDbEntity
  8
0
  6
Continuous
 62
     7
370
    25
100
AcDbLine
 10
6.3133136333
 20
4.3759245072
 30
0.0
 11
6.3133136333
 21
4.1259245072
 31
0.0
  0
LINE
  5
80
330
1F
100
AcDbEntity
  8
0
  6
Continuous
 62
     7
370
    25
100
AcDbLine
 10
6.4833136333
 20
7.0659245072
 30
0.0
 11
6.3133136333
 21
7.0659245072
 31
0.0
  0
LINE
  5
81
330
1F
100
AcDbEntity
  8
0
  6
Continuous
 62
     7
370
    25
100
AcDbLine
 10
6.3133136333
 20
7.0659245072
 30
0.0
 11
6.3133136333
 21
6.8159245072
 31
0.0
  0
LINE
  5
82
330
1F
100
AcDbEntity
  8
0
  6
Continuous
 62
     7
370
    25
100
AcDbLine
 10
6.3133136333
 20
6.8159245072
 30
0.0
 11
6.3133136333
 21
4.3759245072
 31
0.0
  0
LINE
  5
83
330
1F
100
AcDbEntity
  8
0
  6
Continuous
 62
     7
370
    25
100
AcDbLine
 10
5.4758136333
 20
4.1198450224
 30
0.0
 11
5.4758136333
 21
7.0720039921
 31
0.0
  0
LINE
  5
84
330
1F
100
AcDbEntity
  8
0
  6
Continuous
 62
     7
370
    25
100
AcDbLine
 10
5.4758136333
 20
7.0720039921
 30
0.0
 11
5.6008136333
 21
7.0676388959
 31
0.0
  0
LINE
  5
85
330
1F
100
AcDbEntity
  8
0
  6
Continuous
 62
     7
370
    25
100
AcDbLine
 10
5.6008136333
 20
4.1242101186
 30
0.0
 11
5.6008136333
 21
7.0676388959
 31
0.0
  0
LINE
  5
86
330
1F
100
AcDbEntity
  8
0
  6
Continuous
 62
     7
370
    25
100
AcDbLine
 10
5.4758136333
 20
4.1198450224
 30
0.0
 11
5.6008136333
 21
4.1242101186
 31
0.0
  0
LINE
  5
87
330
1F
100
AcDbEntity
  8
0
  6
Continuous
 62
     7
370
    25
100
AcDbLine
 10
5.6008136333
 20
7.0655841723
 30
0.0
 11
5.6707709911
 21
6.9905640907
 31
0.0
  0
LINE
  5
88
330
1F
100
AcDbEntity
  8
0
  6
Continuous
 62
     7
370
    25
100
AcDbLine
 10
5.6707709911
 20
6.9905640907
 30
0.0
 11
5.6707709911
 21
4.2012849238
 31
0.0
  0
LINE
  5
89
330
1F
100
AcDbEntity
  8
0
  6
Continuous
 62
     7
370
    25
100
AcDbLine
 10
5.6707709911
 20
4.2012849238
 30
0.0
 11
5.6008136333
 21
4.1262648422
 31
0.0
  0
LINE
  5
8A
330
1F
100
AcDbEntity
  8
0
  6
Continuous
 62
     7
370
    25
100
AcDbLine
 10
5.6807648994
 20
6.9798469362
 30
0.0
 11
6.3133136333
 21
6.9577578476
 31
0.0
  0
LINE
  5
8B
330
1F
100
AcDbEntity
  8
0
  6
Continuous
 62
     7
370
    25
100
AcDbLine
 10
5.6807648994
 20
4.2120020783
 30
0.0
 11
6.3133136333
 21
4.2340911668
 31
0.0
  0
LINE
  5
8C
330
1F
100
AcDbEntity
  8
0
  6
Continuous
 62
     7
370
    25
100
AcDbLine
 10
5.6807648994
 20
6.9798469362
 30
0.0
 11
5.6707709911
 21
6.9905640907
 31
0.0
  0
LINE
  5
8D
330
1F
100
AcDbEntity
  8
0
  6
Continuous
 62
     7
370
    25
100
AcDbLine
 10
5.6707709911
 20
4.2012849238
 30
0.0
 11
5.6807648994
 21
4.2120020783
 31
0.0
  0
LINE
  5
8E
330
1F
100
AcDbEntity
  8
0
  6
Continuous
 62
     7
370
    25
100
AcDbLine
 10
4.1583136333
 20
6.3559245072
 30
0.0
 11
3.9293136333
 21
6.3559245072
 31
0.0
  0
LINE
  5
8F
330
1F
100
AcDbEntity
  8
0
  6
Continuous
 62
     7
370
    25
100
AcDbLine
 10
3.9293136333
 20
6.3559245072
 30
0.0
 11
3.9293136333
 21
6.2859245072
 31
0.0
  0
LINE
  5
90
330
1F
100
AcDbEntity
  8
0
  6
Continuous
 62
     7
370
    25
100
AcDbLine
 10
4.2283136333
 20
6.5849245072
 30
0.0
 11
4.1583136333
 21
6.5849245072
 31
0.0
  0
LINE
  5
91
330
1F
100
AcDbEntity
  8
0
  6
Continuous
 62
     7
370
    25
100
AcDbLine
 10
4.2283136333
 20
6.3559245072
 30
0.0
 11
4.2283136333
 21
6.5849245072
 31
0.0
  0
LINE
  5
92
330
1F
100
AcDbEntity
  8
0
  6
Continuous
 62
     7
370
    25
100
AcDbLine
 10
4.2283136333
 20
6.2859245072
 30
0.0
 11
4.4573136333
 21
6.2859245072
 31
0.0
  0
LINE
  5
93
330
1F
100
AcDbEntity
  8
0
  6
Continuous
 62
     7
370
    25
100
AcDbLine
 10
4.4573136333
 20
6.2859245072
 30
0.0
 11
4.4573136333
 21
6.3559245072
 31
0.0
  0
LINE
  5
94
330
1F
100
AcDbEntity
  8
0
  6
Continuous
 62
     7
370
    25
100
AcDbLine
 10
4.1583136333
 20
6.5849245072
 30
0.0
 11
4.1583136333
 21
6.3559245072
 31
0.0
  0
LINE
  5
95
330
1F
100
AcDbEntity
  8
0
  6
Continuous
 62
     7
370
    25
100
AcDbLine
 10
4.1583136333
 20
6.0569245072
 30
0.0
 11
4.2283136333
 21
6.0569245072
 31
0.0
  0
LINE
  5
96
330
1F
100
AcDbEntity
  8
0
  6
Continuous
 62
     7
370
    25
100
AcDbLine
 10
4.4573136333
 20
6.3559245072
 30
0.0
 11
4.2283136333
 21
6.3559245072
 31
0.0
  0
LINE
  5
97
330
1F
100
AcDbEntity
  8
0
  6
Continuous
 62
     7
370
    25
100
AcDbLine
 10
4.2283136333
 20
6.0569245072
 30
0.0
 11
4.2283136333
 21
6.2859245072
 31
0.0
  0
LINE
  5
98
330
1F
100
AcDbEntity
  8
0
  6
Continuous
 62
     7
370
    25
100
AcDbLine
 10
4.1583136333
 20
6.2859245072
 30
0.0
 11
4.1583136333
 21
6.0569245072
 31
0.0
  0
LINE
  5
99
330
1F
100
AcDbEntity
  8
0
  6
Continuous
 62
     7
370
    25
100
AcDbLine
 10
3.9293136333
 20
6.2859245072
 30
0.0
 11
4.1583136333
 21
6.2859245072
 31
0.0
  0
LINE
  5
9A
330
1F
100
AcDbEntity
  8
0
  6
Continuous
 62
     7
370
    25
100
AcDbLine
 10
4.1583136333
 20
4.9059245072
 30
0.0
 11
3.9293136333
 21
4.9059245072
 31
0.0
  0
LINE
  5
9B
330
1F
100
AcDbEntity
  8
0
  6
Continuous
 62
     7
370
    25
100
AcDbLine
 10
3.9293136333
 20
4.9059245072
 30
0.0
 11
3.9293136333
 21
4.8359245072
 31
0.0
  0
LINE
  5
9C
330
1F
100
AcDbEntity
  8
0
  6
Continuous
 62
     7
370
    25
100
AcDbLine
 10
3.9293136333
 20
4.8359245072
 30
0.0
 11
4.1583136333
 21
4.8359245072
 31
0.0
  0
LINE
  5
9D
330
1F
100
AcDbEntity
  8
0
  6
Continuous
 62
     7
370
    25
100
AcDbLine
 10
4.1583136333
 20
4.6069245072
 30
0.0
 11
4.2283136333
 21
4.6069245072
 31
0.0
  0
LINE
  5
9E
330
1F
100
AcDbEntity
  8
0
  6
Continuous
 62
     7
370
    25
100
AcDbLine
 10
4.2283136333
 20
4.6069245072
 30
0.0
 11
4.2283136333
 21
4.8359245072
 31
0.0
  0
LINE
  5
9F
330
1F
100
AcDbEntity
  8
0
  6
Continuous
 62
     7
370
    25
100
AcDbLine
 10
4.2283136333
 20
4.9059245072
 30
0.0
 11
4.2283136333
 21
5.1349245072
 31
0.0
  0
LINE
  5
A0
330
1F
100
AcDbEntity
  8
0
  6
Continuous
 62
     7
370
    25
100
AcDbLine
 10
4.2283136333
 20
5.1349245072
 30
0.0
 11
4.1583136333
 21
5.1349245072
 31
0.0
  0
LINE
  5
A1
330
1F
100
AcDbEntity
  8
0
  6
Continuous
 62
     7
370
    25
100
AcDbLine
 10
4.1583136333
 20
4.8359245072
 30
0.0
 11
4.1583136333
 21
4.6069245072
 31
0.0
  0
LINE
  5
A2
330
1F
100
AcDbEntity
  8
0
  6
Continuous
 62
     7
370
    25
100
AcDbLine
 10
4.4573136333
 20
4.9059245072
 30
0.0
 11
4.2283136333
 21
4.9059245072
 31
0.0
  0
LINE
  5
A3
330
1F
100
AcDbEntity
  8
0
  6
Continuous
 62
     7
370
    25
100
AcDbLine
 10
4.2283136333
 20
4.8359245072
 30
0.0
 11
4.4573136333
 21
4.8359245072
 31
0.0
  0
LINE
  5
A4
330
1F
100
AcDbEntity
  8
0
  6
Continuous
 62
     7
370
    25
100
AcDbLine
 10
4.1583136333
 20
5.1349245072
 30
0.0
 11
4.1583136333
 21
4.9059245072
 31
0.0
  0
LINE
  5
A5
330
1F
100
AcDbEntity
  8
0
  6
Continuous
 62
     7
370
    25
100
AcDbLine
 10
4.4573136333
 20
4.8359245072
 30
0.0
 11
4.4573136333
 21
4.9059245072
 31
0.0
  0
CIRCLE
  5
A6
330
1F
100
AcDbEntity
  8
0
  6
Continuous
 62
     7
370
    25
100
AcDbCircle
 10
4.193805241
 20
6.3209245072
 30
0.0
 40
0.4031355274203667
  0
LINE
  5
A7
330
1F
100
AcDbEntity
  8
0
  6
Continuous
 62
     7
370
    25
100
AcDbLine
 10
3.4908136333
 20
4.2407660462
 30
0.0
 11
3.7726384363
 21
4.2309245072
 31
0.0
  0
LINE
  5
A8
330
1F
100
AcDbEntity
  8
0
  6
Continuous
 62
     7
370
    25
100
AcDbLine
 10
3.4908136333
 20
6.9510829683
 30
0.0
 11
3.4908136333
 21
4.2407660462
 31
0.0
  0
LINE
  5
A9
330
1F
100
AcDbEntity
  8
0
  6
Continuous
 62
     7
370
    25
100
AcDbLine
 10
3.4908136333
 20
6.9510829683
 30
0.0
 11
3.7726384363
 21
6.9609245072
 31
0.0
  0
CIRCLE
  5
AA
330
1F
100
AcDbEntity
  8
0
  6
Continuous
 62
     7
370
    25
100
AcDbCircle
 10
4.193805241
 20
4.8709245072
 30
0.0
 40
0.4031355274203676
  0
LINE
  5
AB
330
1F
100
AcDbEntity
  8
0
  6
Continuous
 62
     7
370
    25
100
AcDbLine
 10
3.7726384363
 20
6.9609245072
 30
0.0
 11
5.4758136333
 21
7.0204006957
 31
0.0
  0
LINE
  5
AC
330
1F
100
AcDbEntity
  8
0
  6
Continuous
 62
     7
370
    25
100
AcDbLine
 10
3.7726384363
 20
4.2309245072
 30
0.0
 11
5.4758136333
 21
4.1714483188
 31
0.0
  0
LINE
  5
AD
330
1F
100
AcDbEntity
  8
0
  6
Continuous
 62
     7
370
    25
100
AcDbLine
 10
3.4595636333
 20
4.2407660462
 30
0.0
 11
3.4595636333
 21
4.7459245072
 31
0.0
  0
LINE
  5
AE
330
1F
100
AcDbEntity
  8
0
  6
Continuous
 62
     7
370
    25
100
AcDbLine
 10
3.4595636333
 20
4.7459245072
 30
0.0
 11
3.4908136333
 21
4.7459245072
 31
0.0
  0
LINE
  5
AF
330
1F
100
AcDbEntity
  8
0
  6
Continuous
 62
     7
370
    25
100
AcDbLine
 10
3.4595636333
 20
4.2407660462
 30
0.0
 11
3.4908136333
 21
4.2407660462
 31
0.0
  0
LINE
  5
B0
330
1F
100
AcDbEntity
  8
0
  6
Continuous
 62
     7
370
    25
100
AcDbLine
 10
3.4595636333
 20
6.4459245072
 30
0.0
 11
3.4595636333
 21
6.9510829683
 31
0.0
  0
LINE
  5
B1
330
1F
100
AcDbEntity
  8
0
  6
Continuous
 62
     7
370
    25
100
AcDbLine
 10
3.4595636333
 20
6.9510829683
 30
0.0
 11
3.4908136333
 21
6.9510829683
 31
0.0
  0
LINE
  5
B2
330
1F
100
AcDbEntity
  8
0
  6
Continuous
 62
     7
370
    25
100
AcDbLine
 10
3.4595636333
 20
6.4459245072
 30
0.0
 11
3.4908136333
 21
6.4459245072
 31
0.0
  0
LINE
  5
B3
330
1F
100
AcDbEntity
  8
0
  6
Continuous
 62
     7
370
    25
100
AcDbLine
 10
6.4833136333
 20
4.3759245072
 30
0.0
 11
6.3133136333
 21
4.3759245072
 31
0.0
  0
LINE
  5
B4
330
1F
100
AcDbEntity
  8
0
  6
Continuous
 62
     7
370
    25
100
AcDbLine
 10
6.4833136333
 20
6.8159245072
 30
0.0
 11
6.3133136333
 21
6.8159245072
 31
0.0
  0
LINE
  5
B5
330
1F
100
AcDbEntity
  8
0
  6
Continuous
 62
     7
370
    25
100
AcDbLine
 10
3.7726384363
 20
4.2309245072
 30
0.0
 11
5.4758136333
 21
4.2309245072
 31
0.0
  0
LINE
  5
B6
330
1F
100
AcDbEntity
  8
0
  6
Continuous
 62
     7
370
    25
100
AcDbLine
 10
3.7726384363
 20
6.9609245072
 30
0.0
 11
5.4758136333
 21
6.9609245072
 31
0.0
  0
LINE
  5
B7
330
1F
100
AcDbEntity
  8
0
  6
HIDDEN
 62
     7
370
    18
100
AcDbLine
 10
6.6883136333
 20
4.1209245072
 30
0.0
 11
6.4833136333
 21
4.1209245072
 31
0.0
  0
LINE
  5
B8
330
1F
100
AcDbEntity
  8
0
  6
HIDDEN
 62
     7
370
    18
100
AcDbLine
 10
6.6883136333
 20
4.1209245072
 30
0.0
 11
6.6883136333
 21
4.1809245072
 31
0.0
  0
LINE
  5
B9
330
1F
100
AcDbEntity
  8
0
  6
HIDDEN
 62
     7
370
    18
100
AcDbLine
 10
6.6883136333
 20
4.1809245072
 30
0.0
 11
6.4833136333
 21
4.1809245072
 31
0.0
  0
LINE
  5
BA
330
1F
100
AcDbEntity
  8
0
  6
HIDDEN
 62
     7
370
    18
100
AcDbLine
 10
6.4833136333
 20
4.1209245072
 30
0.0
 11
6.4833136333
 21
4.1809245072
 31
0.0
  0
LINE
  5
BB
330
1F
100
AcDbEntity
  8
0
  6
HIDDEN
 62
     7
370
    18
100
AcDbLine
 10
6.4833136333
 20
4.1809245072
 30
0.0
 11
6.4833136333
 21
7.0109245072
 31
0.0
  0
LINE
  5
BC
330
1F
100
AcDbEntity
  8
0
  6
HIDDEN
 62
     7
370
    18
100
AcDbLine
 10
6.6883136333
 20
4.1809245072
 30
0.0
 11
6.6883136333
 21
7.0109245072
 31
0.0
  0
LINE
  5
BD
330
1F
100
AcDbEntity
  8
0
  6
HIDDEN
 62
     7
370
    18
100
AcDbLine
 10
6.6883136333
 20
7.0709245072
 30
0.0
 11
6.4833136333
 21
7.0709245072
 31
0.0
  0
LINE
  5
BE
330
1F
100
AcDbEntity
  8
0
  6
HIDDEN
 62
     7
370
    18
100
AcDbLine
 10
6.6883136333
 20
7.0109245072
 30
0.0
 11
6.6883136333
 21
7.0709245072
 31
0.0
  0
LINE
  5
BF
330
1F
100
AcDbEntity
  8
0
  6
HIDDEN
 62
     7
370
    18
100
AcDbLine
 10
6.6883136333
 20
7.0109245072
 30
0.0
 11
6.4833136333
 21
7.0109245072
 31
0.0
  0
LINE
  5
C0
330
1F
100
AcDbEntity
  8
0
  6
HIDDEN
 62
     7
370
    18
100
AcDbLine
 10
6.4833136333
 20
7.0109245072
 30
0.0
 11
6.4833136333
 21
7.0709245072
 31
0.0
  0
LINE
  5
C1
330
1F
100
AcDbEntity
  8
0
  6
HIDDEN
 62
     7
370
    18
100
AcDbLine
 10
6.7431001347
 20
5.4954245072
 30
0.0
 11
6.7431001347
 21
5.6964245072
 31
0.0
  0
LINE
  5
C2
330
1F
100
AcDbEntity
  8
0
  6
HIDDEN
 62
     7
370
    18
100
AcDbLine
 10
6.8633136333
 20
5.3917990011
 30
0.0
 11
6.8633136333
 21
5.8000500134
 31
0.0
  0
LINE
  5
C3
330
1F
100
AcDbEntity
  8
0
  6
HIDDEN
 62
     7
370
    18
100
AcDbLine
 10
6.6883136333
 20
5.4954245072
 30
0.0
 11
6.6883136333
 21
5.6964245072
 31
0.0
  0
LINE
  5
C4
330
1F
100
AcDbEntity
  8
0
  6
HIDDEN
 62
     7
370
    18
100
AcDbLine
 10
6.3633136333
 20
4.3709245072
 30
0.0
 11
6.3633136333
 21
6.8209245072
 31
0.0
  0
LINE
  5
C5
330
1F
100
AcDbEntity
  8
0
  6
HIDDEN
 62
     7
370
    18
100
AcDbLine
 10
6.6883136333
 20
4.3709245072
 30
0.0
 11
6.6883136333
 21
6.8209245072
 31
0.0
  0
LINE
  5
C6
330
1F
100
AcDbEntity
  8
0
  6
HIDDEN
 62
     7
370
    18
100
AcDbLine
 10
6.4233136333
 20
4.4869245072
 30
0.0
 11
6.4233136333
 21
6.7049245072
 31
0.0
  0
LINE
  5
C7
330
1F
100
AcDbEntity
  8
0
  6
HIDDEN
 62
     7
370
    18
100
AcDbLine
 10
6.3633136333
 20
6.7393504851
 30
0.0
 11
6.3633136333
 21
4.4524985294
 31
0.0
  0
LINE
  5
C8
330
1F
100
AcDbEntity
  8
0
  6
HIDDEN
 62
     7
370
    18
100
AcDbLine
 10
6.6333136333
 20
4.4869245072
 30
0.0
 11
6.6333136333
 21
6.7049245072
 31
0.0
  0
LINE
  5
C9
330
1F
100
AcDbEntity
  8
0
  6
HIDDEN
 62
     7
370
    18
100
AcDbLine
 10
6.6333136333
 20
4.9123150692
 30
0.0
 11
6.8633136333
 21
4.7795245072
 31
0.0
  0
LINE
  5
CA
330
1F
100
AcDbEntity
  8
0
  6
HIDDEN
 62
     7
370
    18
100
AcDbLine
 10
6.6333136333
 20
4.7873150692
 30
0.0
 11
6.8633136333
 21
4.6545245072
 31
0.0
  0
SPLINE
  5
CB
330
1F
100
AcDbEntity
  8
0
  6
HIDDEN
 62
     7
370
    18
100
AcDbSpline
210
0.0
220
0.0
230
1.0
 70
    24
 71
     3
 72
    21
 73
    17
 74
     0
 42
0.00000001
 43
0.00000001
 40
0.0
 40
0.0
 40
0.0
 40
0.0
 40
0.0601342648697341
 40
0.1131609370804396
 40
0.1661876092911441
 40
0.2192142815018485
 40
0.2722409537125529
 40
0.3252676259232574
 40
0.3782942981339616
 40
0.4313209703446655
 40
0.5385297159152028
 40
0.6457384614857412
 40
0.7529472070562817
 40
0.8601559526268203
 40
0.9673646981973595
 40
1.0
 40
1.0
 40
1.0
 40
1.0
 10
6.633313633258051
 20
4.912315069154336
 30
0.0
 10
6.633313633258051
 20
4.912102265232633
 30
0.0
 10
6.633313633258051
 20
4.911701809830933
 30
0.0
 10
6.633313633258051
 20
4.908669170903297
 30
0.0
 10
6.633313633258051
 20
4.904274147657958
 30
0.0
 10
6.633313633258051
 20
4.898341974317035
 30
0.0
 10
6.633313633258051
 20
4.891080551653417
 30
0.0
 10
6.633313633258051
 20
4.882679311173102
 30
0.0
 10
6.633313633258051
 20
4.873369080695597
 30
0.0
 10
6.633313633258051
 20
4.860032795918765
 30
0.0
 10
6.633313633258051
 20
4.842241014724742
 30
0.0
 10
6.63331363325805
 20
4.821745574213718
 30
0.0
 10
6.633313633258051
 20
4.80438625241111
 30
0.0
 10
6.633313633258051
 20
4.792215803027413
 30
0.0
 10
6.63331363325805
 20
4.787671096150033
 30
0.0
 10
6.633313633258051
 20
4.78738243402155
 30
0.0
 10
6.633313633258051
 20
4.787315069154337
 30
0.0
  0
SPLINE
  5
CC
330
1F
100
AcDbEntity
  8
0
  6
HIDDEN
 62
     7
370
    18
100
AcDbSpline
210
0.0
220
0.0
230
1.0
 70
    24
 71
     3
 72
    20
 73
    16
 74
     0
 42
0.00000001
 43
0.00000001
 40
0.0
 40
0.0
 40
0.0
 40
0.0
 40
0.1220208336415365
 40
0.2292653365593437
 40
0.336509839477151
 40
0.4437543423949576
 40
0.5509988453127639
 40
0.6040432035165529
 40
0.6570875617203422
 40
0.7101319199241304
 40
0.7631762781279184
 40
0.8162206363317055
 40
0.8692649945354928
 40
0.9223093527392806
 40
1.0
 40
1.0
 40
1.0
 40
1.0
 10
6.86331363325805
 20
4.654524507240723
 30
0.0
 10
6.86331363325805
 20
4.655418248276765
 30
0.0
 10
6.86331363325805
 20
4.657097501182276
 30
0.0
 10
6.863313633258049
 20
4.669302351844896
 30
0.0
 10
6.86331363325805
 20
4.685814135732305
 30
0.0
 10
6.863313633258049
 20
4.705978168682523
 30
0.0
 10
6.863313633258049
 20
4.723783719152027
 30
0.0
 10
6.863313633258049
 20
4.737329991962963
 30
0.0
 10
6.863313633258049
 20
4.746885278822313
 30
0.0
 10
6.863313633258049
 20
4.755614803793164
 30
0.0
 10
6.86331363325805
 20
4.763277923127442
 30
0.0
 10
6.863313633258049
 20
4.769675603072343
 30
0.0
 10
6.863313633258049
 20
4.774581956575346
 30
0.0
 10
6.863313633258049
 20
4.778583724946793
 30
0.0
 10
6.86331363325805
 20
4.779173830707431
 30
0.0
 10
6.86331363325805
 20
4.779524507240723
 30
0.0
  0
LINE
  5
CD
330
1F
100
AcDbEntity
  8
0
  6
HIDDEN
 62
     7
370
    18
100
AcDbLine
 10
6.6333136333
 20
5.2873150692
 30
0.0
 11
6.8633136333
 21
5.1545245072
 31
0.0
  0
LINE
  5
CE
330
1F
100
AcDbEntity
  8
0
  6
HIDDEN
 62
     7
370
    18
100
AcDbLine
 10
6.6333136333
 20
5.1623150692
 30
0.0
 11
6.8633136333
 21
5.0295245072
 31
0.0
  0
SPLINE
  5
CF
330
1F
100
AcDbEntity
  8
0
  6
HIDDEN
 62
     7
370
    18
100
AcDbSpline
210
0.0
220
0.0
230
1.0
 70
    24
 71
     3
 72
    21
 73
    17
 74
     0
 42
0.00000001
 43
0.00000001
 40
0.0
 40
0.0
 40
0.0
 40
0.0
 40
0.0601342648697342
 40
0.113160937080439
 40
0.1661876092911441
 40
0.2192142815018486
 40
0.2722409537125529
 40
0.3252676259232574
 40
0.3782942981339615
 40
0.431320970344666
 40
0.5385297159152048
 40
0.6457384614857443
 40
0.752947207056284
 40
0.8601559526268224
 40
0.9673646981973609
 40
1.0
 40
1.0
 40
1.0
 40
1.0
 10
6.633313633258051
 20
5.287315069154338
 30
0.0
 10
6.633313633258051
 20
5.287102265232635
 30
0.0
 10
6.63331363325805
 20
5.286701809830935
 30
0.0
 10
6.633313633258051
 20
5.283669170903298
 30
0.0
 10
6.63331363325805
 20
5.279274147657959
 30
0.0
 10
6.633313633258051
 20
5.273341974317036
 30
0.0
 10
6.633313633258051
 20
5.266080551653418
 30
0.0
 10
6.633313633258051
 20
5.257679311173103
 30
0.0
 10
6.633313633258051
 20
5.248369080695598
 30
0.0
 10
6.633313633258052
 20
5.235032795918765
 30
0.0
 10
6.633313633258051
 20
5.217241014724742
 30
0.0
 10
6.633313633258051
 20
5.196745574213718
 30
0.0
 10
6.63331363325805
 20
5.17938625241111
 30
0.0
 10
6.633313633258051
 20
5.167215803027414
 30
0.0
 10
6.63331363325805
 20
5.162671096150034
 30
0.0
 10
6.633313633258051
 20
5.162382434021552
 30
0.0
 10
6.633313633258051
 20
5.162315069154337
 30
0.0
  0
SPLINE
  5
D0
330
1F
100
AcDbEntity
  8
0
  6
HIDDEN
 62
     7
370
    18
100
AcDbSpline
210
0.0
220
0.0
230
1.0
 70
    24
 71
     3
 72
    20
 73
    16
 74
     0
 42
0.00000001
 43
0.00000001
 40
0.0
 40
0.0
 40
0.0
 40
0.0
 40
0.1220208336415364
 40
0.2292653365593435
 40
0.3365098394771502
 40
0.4437543423949571
 40
0.5509988453127639
 40
0.6040432035165533
 40
0.6570875617203412
 40
0.7101319199241293
 40
0.7631762781279172
 40
0.8162206363317052
 40
0.8692649945354931
 40
0.9223093527392808
 40
1.0
 40
1.0
 40
1.0
 40
1.0
 10
6.86331363325805
 20
5.029524507240724
 30
0.0
 10
6.86331363325805
 20
5.030418248276766
 30
0.0
 10
6.863313633258049
 20
5.032097501182277
 30
0.0
 10
6.86331363325805
 20
5.044302351844896
 30
0.0
 10
6.86331363325805
 20
5.060814135732306
 30
0.0
 10
6.86331363325805
 20
5.080978168682523
 30
0.0
 10
6.86331363325805
 20
5.098783719152028
 30
0.0
 10
6.863313633258049
 20
5.112329991962963
 30
0.0
 10
6.86331363325805
 20
5.121885278822315
 30
0.0
 10
6.863313633258049
 20
5.130614803793165
 30
0.0
 10
6.86331363325805
 20
5.138277923127443
 30
0.0
 10
6.863313633258049
 20
5.144675603072344
 30
0.0
 10
6.86331363325805
 20
5.149581956575346
 30
0.0
 10
6.86331363325805
 20
5.153583724946793
 30
0.0
 10
6.86331363325805
 20
5.154173830707431
 30
0.0
 10
6.863313633258049
 20
5.154524507240724
 30
0.0
  0
LINE
  5
D1
330
1F
100
AcDbEntity
  8
0
  6
HIDDEN
 62
     7
370
    18
100
AcDbLine
 10
6.6333136333
 20
5.6623150692
 30
0.0
 11
6.8633136333
 21
5.5295245072
 31
0.0
  0
LINE
  5
D2
330
1F
100
AcDbEntity
  8
0
  6
HIDDEN
 62
     7
370
    18
100
AcDbLine
 10
6.6333136333
 20
5.5373150692
 30
0.0
 11
6.8633136333
 21
5.4045245072
 31
0.0
  0
SPLINE
  5
D3
330
1F
100
AcDbEntity
  8
0
  6
HIDDEN
 62
     7
370
    18
100
AcDbSpline
210
0.0
220
0.0
230
1.0
 70
    24
 71
     3
 72
    21
 73
    17
 74
     0
 42
0.00000001
 43
0.00000001
 40
0.0
 40
0.0
 40
0.0
 40
0.0
 40
0.060134264869734
 40
0.1131609370804391
 40
0.166187609291144
 40
0.2192142815018483
 40
0.2722409537125527
 40
0.3252676259232578
 40
0.3782942981339617
 40
0.4313209703446655
 40
0.5385297159152029
 40
0.6457384614857413
 40
0.7529472070562807
 40
0.8601559526268188
 40
0.9673646981973584
 40
0.9999999999999999
 40
0.9999999999999999
 40
0.9999999999999999
 40
0.9999999999999999
 10
6.633313633258051
 20
5.662315069154338
 30
0.0
 10
6.633313633258051
 20
5.662102265232634
 30
0.0
 10
6.63331363325805
 20
5.661701809830934
 30
0.0
 10
6.633313633258051
 20
5.658669170903299
 30
0.0
 10
6.633313633258051
 20
5.654274147657959
 30
0.0
 10
6.633313633258051
 20
5.648341974317036
 30
0.0
 10
6.633313633258051
 20
5.641080551653418
 30
0.0
 10
6.633313633258052
 20
5.632679311173103
 30
0.0
 10
6.633313633258051
 20
5.623369080695599
 30
0.0
 10
6.633313633258051
 20
5.610032795918766
 30
0.0
 10
6.633313633258051
 20
5.592241014724743
 30
0.0
 10
6.633313633258052
 20
5.571745574213719
 30
0.0
 10
6.63331363325805
 20
5.554386252411112
 30
0.0
 10
6.633313633258052
 20
5.542215803027416
 30
0.0
 10
6.633313633258051
 20
5.537671096150034
 30
0.0
 10
6.633313633258051
 20
5.537382434021552
 30
0.0
 10
6.633313633258051
 20
5.537315069154338
 30
0.0
  0
SPLINE
  5
D4
330
1F
100
AcDbEntity
  8
0
  6
HIDDEN
 62
     7
370
    18
100
AcDbSpline
210
0.0
220
0.0
230
1.0
 70
    24
 71
     3
 72
    20
 73
    16
 74
     0
 42
0.00000001
 43
0.00000001
 40
0.0
 40
0.0
 40
0.0
 40
0.0
 40
0.1220208336415356
 40
0.2292653365593423
 40
0.336509839477149
 40
0.443754342394956
 40
0.5509988453127622
 40
0.6040432035165512
 40
0.6570875617203403
 40
0.7101319199241279
 40
0.7631762781279157
 40
0.8162206363317028
 40
0.8692649945354902
 40
0.9223093527392775
 40
1.0
 40
1.0
 40
1.0
 40
1.0
 10
6.86331363325805
 20
5.404524507240724
 30
0.0
 10
6.86331363325805
 20
5.405418248276766
 30
0.0
 10
6.86331363325805
 20
5.407097501182277
 30
0.0
 10
6.86331363325805
 20
5.419302351844896
 30
0.0
 10
6.86331363325805
 20
5.435814135732306
 30
0.0
 10
6.863313633258051
 20
5.455978168682523
 30
0.0
 10
6.863313633258049
 20
5.473783719152028
 30
0.0
 10
6.86331363325805
 20
5.487329991962963
 30
0.0
 10
6.86331363325805
 20
5.496885278822314
 30
0.0
 10
6.86331363325805
 20
5.505614803793166
 30
0.0
 10
6.863313633258049
 20
5.513277923127442
 30
0.0
 10
6.86331363325805
 20
5.519675603072344
 30
0.0
 10
6.86331363325805
 20
5.524581956575346
 30
0.0
 10
6.863313633258048
 20
5.528583724946793
 30
0.0
 10
6.863313633258049
 20
5.529173830707431
 30
0.0
 10
6.86331363325805
 20
5.529524507240724
 30
0.0
  0
LINE
  5
D5
330
1F
100
AcDbEntity
  8
0
  6
HIDDEN
 62
     7
370
    18
100
AcDbLine
 10
6.6333136333
 20
6.0373150692
 30
0.0
 11
6.8633136333
 21
5.9045245072
 31
0.0
  0
LINE
  5
D6
330
1F
100
AcDbEntity
  8
0
  6
HIDDEN
 62
     7
370
    18
100
AcDbLine
 10
6.6333136333
 20
5.9123150692
 30
0.0
 11
6.8633136333
 21
5.7795245072
 31
0.0
  0
SPLINE
  5
D7
330
1F
100
AcDbEntity
  8
0
  6
HIDDEN
 62
     7
370
    18
100
AcDbSpline
210
0.0
220
0.0
230
1.0
 70
    24
 71
     3
 72
    21
 73
    17
 74
     0
 42
0.00000001
 43
0.00000001
 40
0.0
 40
0.0
 40
0.0
 40
0.0
 40
0.0601342648697346
 40
0.1131609370804398
 40
0.1661876092911443
 40
0.2192142815018491
 40
0.2722409537125531
 40
0.3252676259232575
 40
0.3782942981339613
 40
0.4313209703446659
 40
0.5385297159152042
 40
0.6457384614857429
 40
0.7529472070562822
 40
0.8601559526268215
 40
0.9673646981973605
 40
1.0
 40
1.0
 40
1.0
 40
1.0
 10
6.633313633258051
 20
6.037315069154337
 30
0.0
 10
6.633313633258051
 20
6.037102265232633
 30
0.0
 10
6.63331363325805
 20
6.036701809830933
 30
0.0
 10
6.633313633258051
 20
6.033669170903297
 30
0.0
 10
6.633313633258051
 20
6.029274147657958
 30
0.0
 10
6.633313633258051
 20
6.023341974317035
 30
0.0
 10
6.633313633258051
 20
6.016080551653417
 30
0.0
 10
6.633313633258051
 20
6.007679311173102
 30
0.0
 10
6.633313633258051
 20
5.998369080695598
 30
0.0
 10
6.633313633258051
 20
5.985032795918765
 30
0.0
 10
6.633313633258051
 20
5.967241014724742
 30
0.0
 10
6.633313633258051
 20
5.946745574213718
 30
0.0
 10
6.633313633258051
 20
5.929386252411111
 30
0.0
 10
6.633313633258051
 20
5.917215803027413
 30
0.0
 10
6.63331363325805
 20
5.912671096150033
 30
0.0
 10
6.633313633258051
 20
5.912382434021551
 30
0.0
 10
6.633313633258051
 20
5.912315069154337
 30
0.0
  0
SPLINE
  5
D8
330
1F
100
AcDbEntity
  8
0
  6
HIDDEN
 62
     7
370
    18
100
AcDbSpline
210
0.0
220
0.0
230
1.0
 70
    24
 71
     3
 72
    20
 73
    16
 74
     0
 42
0.00000001
 43
0.00000001
 40
0.0
 40
0.0
 40
0.0
 40
0.0
 40
0.122020833641536
 40
0.2292653365593426
 40
0.3365098394771495
 40
0.4437543423949558
 40
0.550998845312763
 40
0.6040432035165518
 40
0.6570875617203404
 40
0.7101319199241286
 40
0.7631762781279162
 40
0.8162206363317037
 40
0.8692649945354916
 40
0.9223093527392789
 40
1.0
 40
1.0
 40
1.0
 40
1.0
 10
6.86331363325805
 20
5.779524507240723
 30
0.0
 10
6.86331363325805
 20
5.780418248276766
 30
0.0
 10
6.86331363325805
 20
5.782097501182276
 30
0.0
 10
6.863313633258051
 20
5.794302351844896
 30
0.0
 10
6.863313633258049
 20
5.810814135732305
 30
0.0
 10
6.863313633258049
 20
5.830978168682522
 30
0.0
 10
6.863313633258051
 20
5.848783719152026
 30
0.0
 10
6.863313633258048
 20
5.862329991962962
 30
0.0
 10
6.86331363325805
 20
5.871885278822313
 30
0.0
 10
6.863313633258049
 20
5.880614803793163
 30
0.0
 10
6.863313633258049
 20
5.888277923127442
 30
0.0
 10
6.863313633258051
 20
5.894675603072343
 30
0.0
 10
6.863313633258049
 20
5.899581956575345
 30
0.0
 10
6.863313633258049
 20
5.903583724946792
 30
0.0
 10
6.863313633258049
 20
5.90417383070743
 30
0.0
 10
6.86331363325805
 20
5.904524507240724
 30
0.0
  0
LINE
  5
D9
330
1F
100
AcDbEntity
  8
0
  6
HIDDEN
 62
     7
370
    18
100
AcDbLine
 10
6.6333136333
 20
5.4748150692
 30
0.0
 11
6.8633136333
 21
5.3420245072
 31
0.0
  0
LINE
  5
DA
330
1F
100
AcDbEntity
  8
0
  6
HIDDEN
 62
     7
370
    18
100
AcDbLine
 10
6.6333136333
 20
5.3498150692
 30
0.0
 11
6.8633136333
 21
5.2170245072
 31
0.0
  0
SPLINE
  5
DB
330
1F
100
AcDbEntity
  8
0
  6
HIDDEN
 62
     7
370
    18
100
AcDbSpline
210
0.0
220
0.0
230
1.0
 70
    24
 71
     3
 72
    21
 73
    17
 74
     0
 42
0.00000001
 43
0.00000001
 40
0.0
 40
0.0
 40
0.0
 40
0.0
 40
0.0601342648697343
 40
0.1131609370804393
 40
0.1661876092911442
 40
0.2192142815018489
 40
0.2722409537125535
 40
0.325267625923258
 40
0.3782942981339623
 40
0.4313209703446663
 40
0.5385297159152045
 40
0.6457384614857433
 40
0.752947207056282
 40
0.8601559526268215
 40
0.9673646981973608
 40
1.0
 40
1.0
 40
1.0
 40
1.0
 10
6.633313633258051
 20
5.474815069154337
 30
0.0
 10
6.633313633258051
 20
5.474602265232633
 30
0.0
 10
6.633313633258051
 20
5.474201809830934
 30
0.0
 10
6.633313633258051
 20
5.471169170903298
 30
0.0
 10
6.633313633258051
 20
5.466774147657958
 30
0.0
 10
6.633313633258051
 20
5.460841974317036
 30
0.0
 10
6.633313633258051
 20
5.453580551653418
 30
0.0
 10
6.633313633258051
 20
5.445179311173103
 30
0.0
 10
6.633313633258051
 20
5.435869080695597
 30
0.0
 10
6.633313633258051
 20
5.422532795918765
 30
0.0
 10
6.633313633258051
 20
5.404741014724743
 30
0.0
 10
6.633313633258051
 20
5.384245574213719
 30
0.0
 10
6.633313633258051
 20
5.366886252411111
 30
0.0
 10
6.633313633258051
 20
5.354715803027414
 30
0.0
 10
6.633313633258051
 20
5.350171096150034
 30
0.0
 10
6.633313633258051
 20
5.349882434021552
 30
0.0
 10
6.633313633258051
 20
5.349815069154338
 30
0.0
  0
SPLINE
  5
DC
330
1F
100
AcDbEntity
  8
0
  6
HIDDEN
 62
     7
370
    18
100
AcDbSpline
210
0.0
220
0.0
230
1.0
 70
    24
 71
     3
 72
    20
 73
    16
 74
     0
 42
0.00000001
 43
0.00000001
 40
0.0
 40
0.0
 40
0.0
 40
0.0
 40
0.1220208336415366
 40
0.2292653365593436
 40
0.3365098394771506
 40
0.4437543423949581
 40
0.5509988453127631
 40
0.6040432035165515
 40
0.6570875617203394
 40
0.7101319199241278
 40
0.7631762781279159
 40
0.8162206363317032
 40
0.8692649945354908
 40
0.9223093527392785
 40
1.0
 40
1.0
 40
1.0
 40
1.0
 10
6.86331363325805
 20
5.217024507240724
 30
0.0
 10
6.86331363325805
 20
5.217918248276766
 30
0.0
 10
6.86331363325805
 20
5.219597501182277
 30
0.0
 10
6.86331363325805
 20
5.231802351844896
 30
0.0
 10
6.863313633258049
 20
5.248314135732306
 30
0.0
 10
6.86331363325805
 20
5.268478168682523
 30
0.0
 10
6.863313633258049
 20
5.286283719152027
 30
0.0
 10
6.863313633258051
 20
5.299829991962963
 30
0.0
 10
6.863313633258049
 20
5.309385278822314
 30
0.0
 10
6.863313633258049
 20
5.318114803793164
 30
0.0
 10
6.86331363325805
 20
5.325777923127442
 30
0.0
 10
6.86331363325805
 20
5.332175603072344
 30
0.0
 10
6.863313633258049
 20
5.337081956575346
 30
0.0
 10
6.863313633258049
 20
5.341083724946792
 30
0.0
 10
6.86331363325805
 20
5.34167383070743
 30
0.0
 10
6.86331363325805
 20
5.342024507240723
 30
0.0
  0
LINE
  5
DD
330
1F
100
AcDbEntity
  8
0
  6
HIDDEN
 62
     7
370
    18
100
AcDbLine
 10
6.6333136333
 20
5.8498150692
 30
0.0
 11
6.8633136333
 21
5.7170245072
 31
0.0
  0
LINE
  5
DE
330
1F
100
AcDbEntity
  8
0
  6
HIDDEN
 62
     7
370
    18
100
AcDbLine
 10
6.6333136333
 20
5.7248150692
 30
0.0
 11
6.8633136333
 21
5.5920245072
 31
0.0
  0
SPLINE
  5
DF
330
1F
100
AcDbEntity
  8
0
  6
HIDDEN
 62
     7
370
    18
100
AcDbSpline
210
0.0
220
0.0
230
1.0
 70
    24
 71
     3
 72
    21
 73
    17
 74
     0
 42
0.00000001
 43
0.00000001
 40
0.0
 40
0.0
 40
0.0
 40
0.0
 40
0.0601342648697341
 40
0.1131609370804393
 40
0.1661876092911445
 40
0.2192142815018492
 40
0.2722409537125538
 40
0.3252676259232584
 40
0.3782942981339623
 40
0.4313209703446668
 40
0.5385297159152047
 40
0.6457384614857441
 40
0.7529472070562832
 40
0.8601559526268222
 40
0.9673646981973613
 40
1.0
 40
1.0
 40
1.0
 40
1.0
 10
6.633313633258051
 20
5.849815069154337
 30
0.0
 10
6.633313633258051
 20
5.849602265232634
 30
0.0
 10
6.63331363325805
 20
5.849201809830934
 30
0.0
 10
6.633313633258051
 20
5.846169170903298
 30
0.0
 10
6.633313633258051
 20
5.841774147657958
 30
0.0
 10
6.63331363325805
 20
5.835841974317035
 30
0.0
 10
6.633313633258052
 20
5.828580551653417
 30
0.0
 10
6.633313633258051
 20
5.820179311173102
 30
0.0
 10
6.633313633258051
 20
5.810869080695597
 30
0.0
 10
6.633313633258051
 20
5.797532795918766
 30
0.0
 10
6.633313633258051
 20
5.779741014724742
 30
0.0
 10
6.633313633258051
 20
5.759245574213718
 30
0.0
 10
6.633313633258051
 20
5.741886252411111
 30
0.0
 10
6.633313633258051
 20
5.729715803027415
 30
0.0
 10
6.633313633258051
 20
5.725171096150034
 30
0.0
 10
6.633313633258051
 20
5.724882434021551
 30
0.0
 10
6.633313633258051
 20
5.724815069154338
 30
0.0
  0
SPLINE
  5
E0
330
1F
100
AcDbEntity
  8
0
  6
HIDDEN
 62
     7
370
    18
100
AcDbSpline
210
0.0
220
0.0
230
1.0
 70
    24
 71
     3
 72
    20
 73
    16
 74
     0
 42
0.00000001
 43
0.00000001
 40
0.0
 40
0.0
 40
0.0
 40
0.0
 40
0.1220208336415362
 40
0.2292653365593431
 40
0.3365098394771499
 40
0.4437543423949562
 40
0.5509988453127632
 40
0.6040432035165519
 40
0.6570875617203398
 40
0.7101319199241279
 40
0.7631762781279162
 40
0.8162206363317048
 40
0.8692649945354932
 40
0.9223093527392816
 40
1.0
 40
1.0
 40
1.0
 40
1.0
 10
6.86331363325805
 20
5.592024507240723
 30
0.0
 10
6.86331363325805
 20
5.592918248276765
 30
0.0
 10
6.86331363325805
 20
5.594597501182276
 30
0.0
 10
6.863313633258051
 20
5.606802351844896
 30
0.0
 10
6.863313633258049
 20
5.623314135732306
 30
0.0
 10
6.863313633258051
 20
5.643478168682523
 30
0.0
 10
6.863313633258049
 20
5.661283719152027
 30
0.0
 10
6.86331363325805
 20
5.674829991962963
 30
0.0
 10
6.863313633258049
 20
5.684385278822314
 30
0.0
 10
6.86331363325805
 20
5.693114803793165
 30
0.0
 10
6.863313633258049
 20
5.700777923127442
 30
0.0
 10
6.863313633258051
 20
5.707175603072343
 30
0.0
 10
6.863313633258049
 20
5.712081956575346
 30
0.0
 10
6.863313633258049
 20
5.716083724946792
 30
0.0
 10
6.863313633258049
 20
5.71667383070743
 30
0.0
 10
6.86331363325805
 20
5.717024507240723
 30
0.0
  0
LINE
  5
E1
330
1F
100
AcDbEntity
  8
0
  6
HIDDEN
 62
     7
370
    18
100
AcDbLine
 10
6.6333136333
 20
6.4123150692
 30
0.0
 11
6.8633136333
 21
6.2795245072
 31
0.0
  0
LINE
  5
E2
330
1F
100
AcDbEntity
  8
0
  6
HIDDEN
 62
     7
370
    18
100
AcDbLine
 10
6.6333136333
 20
6.2873150692
 30
0.0
 11
6.8633136333
 21
6.1545245072
 31
0.0
  0
SPLINE
  5
E3
330
1F
100
AcDbEntity
  8
0
  6
HIDDEN
 62
     7
370
    18
100
AcDbSpline
210
0.0
220
0.0
230
1.0
 70
    24
 71
     3
 72
    21
 73
    17
 74
     0
 42
0.00000001
 43
0.00000001
 40
0.0
 40
0.0
 40
0.0
 40
0.0
 40
0.0601342648697346
 40
0.113160937080439
 40
0.1661876092911435
 40
0.219214281501848
 40
0.2722409537125525
 40
0.3252676259232577
 40
0.3782942981339609
 40
0.4313209703446648
 40
0.5385297159152023
 40
0.6457384614857408
 40
0.75294720705628
 40
0.8601559526268185
 40
0.967364698197358
 40
1.0
 40
1.0
 40
1.0
 40
1.0
 10
6.633313633258051
 20
6.412315069154337
 30
0.0
 10
6.633313633258051
 20
6.412102265232633
 30
0.0
 10
6.633313633258051
 20
6.411701809830933
 30
0.0
 10
6.633313633258051
 20
6.408669170903297
 30
0.0
 10
6.633313633258051
 20
6.404274147657957
 30
0.0
 10
6.633313633258051
 20
6.398341974317034
 30
0.0
 10
6.633313633258051
 20
6.391080551653417
 30
0.0
 10
6.633313633258051
 20
6.382679311173102
 30
0.0
 10
6.633313633258051
 20
6.373369080695597
 30
0.0
 10
6.633313633258051
 20
6.360032795918766
 30
0.0
 10
6.633313633258051
 20
6.342241014724742
 30
0.0
 10
6.633313633258051
 20
6.321745574213719
 30
0.0
 10
6.63331363325805
 20
6.30438625241111
 30
0.0
 10
6.633313633258051
 20
6.292215803027414
 30
0.0
 10
6.633313633258051
 20
6.287671096150033
 30
0.0
 10
6.633313633258051
 20
6.28738243402155
 30
0.0
 10
6.633313633258051
 20
6.287315069154336
 30
0.0
  0
SPLINE
  5
E4
330
1F
100
AcDbEntity
  8
0
  6
HIDDEN
 62
     7
370
    18
100
AcDbSpline
210
0.0
220
0.0
230
1.0
 70
    24
 71
     3
 72
    20
 73
    16
 74
     0
 42
0.00000001
 43
0.00000001
 40
0.0
 40
0.0
 40
0.0
 40
0.0
 40
0.1220208336415365
 40
0.2292653365593426
 40
0.3365098394771496
 40
0.4437543423949574
 40
0.550998845312764
 40
0.6040432035165525
 40
0.6570875617203411
 40
0.7101319199241289
 40
0.7631762781279167
 40
0.8162206363317052
 40
0.869264994535493
 40
0.9223093527392806
 40
1.0
 40
1.0
 40
1.0
 40
1.0
 10
6.86331363325805
 20
6.154524507240723
 30
0.0
 10
6.863313633258051
 20
6.155418248276766
 30
0.0
 10
6.863313633258051
 20
6.157097501182276
 30
0.0
 10
6.863313633258049
 20
6.169302351844896
 30
0.0
 10
6.863313633258049
 20
6.185814135732305
 30
0.0
 10
6.863313633258049
 20
6.205978168682523
 30
0.0
 10
6.86331363325805
 20
6.223783719152027
 30
0.0
 10
6.86331363325805
 20
6.237329991962962
 30
0.0
 10
6.863313633258049
 20
6.246885278822313
 30
0.0
 10
6.863313633258051
 20
6.255614803793165
 30
0.0
 10
6.863313633258049
 20
6.263277923127442
 30
0.0
 10
6.86331363325805
 20
6.269675603072343
 30
0.0
 10
6.863313633258049
 20
6.274581956575346
 30
0.0
 10
6.863313633258051
 20
6.278583724946792
 30
0.0
 10
6.86331363325805
 20
6.27917383070743
 30
0.0
 10
6.86331363325805
 20
6.279524507240723
 30
0.0
  0
LINE
  5
E5
330
1F
100
AcDbEntity
  8
0
  6
HIDDEN
 62
     7
370
    18
100
AcDbLine
 10
6.6333136333
 20
5.0998150692
 30
0.0
 11
6.8633136333
 21
4.9670245072
 31
0.0
  0
LINE
  5
E6
330
1F
100
AcDbEntity
  8
0
  6
HIDDEN
 62
     7
370
    18
100
AcDbLine
 10
6.6333136333
 20
4.9748150692
 30
0.0
 11
6.8633136333
 21
4.8420245072
 31
0.0
  0
SPLINE
  5
E7
330
1F
100
AcDbEntity
  8
0
  6
HIDDEN
 62
     7
370
    18
100
AcDbSpline
210
0.0
220
0.0
230
1.0
 70
    24
 71
     3
 72
    21
 73
    17
 74
     0
 42
0.00000001
 43
0.00000001
 40
0.0
 40
0.0
 40
0.0
 40
0.0
 40
0.0601342648697341
 40
0.1131609370804388
 40
0.1661876092911436
 40
0.2192142815018479
 40
0.2722409537125521
 40
0.3252676259232562
 40
0.3782942981339603
 40
0.4313209703446643
 40
0.5385297159152019
 40
0.6457384614857401
 40
0.7529472070562793
 40
0.8601559526268192
 40
0.9673646981973588
 40
1.0
 40
1.0
 40
1.0
 40
1.0
 10
6.633313633258051
 20
5.099815069154337
 30
0.0
 10
6.633313633258051
 20
5.099602265232633
 30
0.0
 10
6.633313633258051
 20
5.099201809830934
 30
0.0
 10
6.633313633258051
 20
5.096169170903298
 30
0.0
 10
6.633313633258051
 20
5.091774147657958
 30
0.0
 10
6.633313633258051
 20
5.085841974317035
 30
0.0
 10
6.633313633258051
 20
5.078580551653417
 30
0.0
 10
6.63331363325805
 20
5.070179311173103
 30
0.0
 10
6.633313633258051
 20
5.060869080695598
 30
0.0
 10
6.633313633258051
 20
5.047532795918765
 30
0.0
 10
6.63331363325805
 20
5.029741014724742
 30
0.0
 10
6.633313633258051
 20
5.009245574213719
 30
0.0
 10
6.633313633258051
 20
4.991886252411112
 30
0.0
 10
6.633313633258051
 20
4.979715803027414
 30
0.0
 10
6.633313633258051
 20
4.975171096150033
 30
0.0
 10
6.633313633258051
 20
4.974882434021552
 30
0.0
 10
6.633313633258051
 20
4.974815069154337
 30
0.0
  0
SPLINE
  5
E8
330
1F
100
AcDbEntity
  8
0
  6
HIDDEN
 62
     7
370
    18
100
AcDbSpline
210
0.0
220
0.0
230
1.0
 70
    24
 71
     3
 72
    20
 73
    16
 74
     0
 42
0.00000001
 43
0.00000001
 40
0.0
 40
0.0
 40
0.0
 40
0.0
 40
0.1220208336415362
 40
0.2292653365593436
 40
0.33650983947715
 40
0.443754342394957
 40
0.5509988453127636
 40
0.6040432035165518
 40
0.6570875617203402
 40
0.7101319199241279
 40
0.7631762781279159
 40
0.8162206363317039
 40
0.869264994535492
 40
0.9223093527392807
 40
1.0
 40
1.0
 40
1.0
 40
1.0
 10
6.86331363325805
 20
4.842024507240724
 30
0.0
 10
6.86331363325805
 20
4.842918248276766
 30
0.0
 10
6.863313633258051
 20
4.844597501182276
 30
0.0
 10
6.863313633258049
 20
4.856802351844896
 30
0.0
 10
6.863313633258049
 20
4.873314135732306
 30
0.0
 10
6.86331363325805
 20
4.893478168682523
 30
0.0
 10
6.863313633258051
 20
4.911283719152027
 30
0.0
 10
6.863313633258049
 20
4.924829991962962
 30
0.0
 10
6.86331363325805
 20
4.934385278822314
 30
0.0
 10
6.86331363325805
 20
4.943114803793165
 30
0.0
 10
6.863313633258049
 20
4.950777923127442
 30
0.0
 10
6.863313633258051
 20
4.957175603072344
 30
0.0
 10
6.863313633258049
 20
4.962081956575346
 30
0.0
 10
6.863313633258049
 20
4.966083724946793
 30
0.0
 10
6.86331363325805
 20
4.96667383070743
 30
0.0
 10
6.86331363325805
 20
4.967024507240723
 30
0.0
  0
LINE
  5
E9
330
1F
100
AcDbEntity
  8
0
  6
HIDDEN
 62
     7
370
    18
100
AcDbLine
 10
6.6333136333
 20
6.2248150692
 30
0.0
 11
6.8633136333
 21
6.0920245072
 31
0.0
  0
LINE
  5
EA
330
1F
100
AcDbEntity
  8
0
  6
HIDDEN
 62
     7
370
    18
100
AcDbLine
 10
6.6333136333
 20
6.0998150692
 30
0.0
 11
6.8633136333
 21
5.9670245072
 31
0.0
  0
SPLINE
  5
EB
330
1F
100
AcDbEntity
  8
0
  6
HIDDEN
 62
     7
370
    18
100
AcDbSpline
210
0.0
220
0.0
230
1.0
 70
    24
 71
     3
 72
    21
 73
    17
 74
     0
 42
0.00000001
 43
0.00000001
 40
0.0
 40
0.0
 40
0.0
 40
0.0
 40
0.0601342648697346
 40
0.1131609370804391
 40
0.1661876092911437
 40
0.2192142815018473
 40
0.2722409537125519
 40
0.3252676259232572
 40
0.3782942981339611
 40
0.4313209703446659
 40
0.5385297159152048
 40
0.645738461485743
 40
0.7529472070562826
 40
0.8601559526268215
 40
0.9673646981973605
 40
1.0
 40
1.0
 40
1.0
 40
1.0
 10
6.633313633258051
 20
6.224815069154337
 30
0.0
 10
6.633313633258051
 20
6.224602265232633
 30
0.0
 10
6.633313633258051
 20
6.224201809830933
 30
0.0
 10
6.63331363325805
 20
6.221169170903297
 30
0.0
 10
6.633313633258052
 20
6.216774147657958
 30
0.0
 10
6.63331363325805
 20
6.210841974317035
 30
0.0
 10
6.633313633258051
 20
6.203580551653417
 30
0.0
 10
6.633313633258051
 20
6.195179311173102
 30
0.0
 10
6.633313633258051
 20
6.185869080695598
 30
0.0
 10
6.633313633258051
 20
6.172532795918765
 30
0.0
 10
6.633313633258051
 20
6.154741014724742
 30
0.0
 10
6.63331363325805
 20
6.134245574213718
 30
0.0
 10
6.633313633258051
 20
6.116886252411111
 30
0.0
 10
6.633313633258051
 20
6.104715803027414
 30
0.0
 10
6.63331363325805
 20
6.100171096150033
 30
0.0
 10
6.633313633258051
 20
6.099882434021551
 30
0.0
 10
6.633313633258051
 20
6.099815069154337
 30
0.0
  0
SPLINE
  5
EC
330
1F
100
AcDbEntity
  8
0
  6
HIDDEN
 62
     7
370
    18
100
AcDbSpline
210
0.0
220
0.0
230
1.0
 70
    24
 71
     3
 72
    20
 73
    16
 74
     0
 42
0.00000001
 43
0.00000001
 40
0.0
 40
0.0
 40
0.0
 40
0.0
 40
0.1220208336415365
 40
0.2292653365593429
 40
0.3365098394771504
 40
0.4437543423949579
 40
0.5509988453127644
 40
0.6040432035165528
 40
0.6570875617203407
 40
0.7101319199241288
 40
0.763176278127916
 40
0.8162206363317042
 40
0.8692649945354919
 40
0.9223093527392795
 40
1.0
 40
1.0
 40
1.0
 40
1.0
 10
6.86331363325805
 20
5.967024507240723
 30
0.0
 10
6.86331363325805
 20
5.967918248276766
 30
0.0
 10
6.863313633258051
 20
5.969597501182276
 30
0.0
 10
6.863313633258049
 20
5.981802351844896
 30
0.0
 10
6.863313633258051
 20
5.998314135732306
 30
0.0
 10
6.863313633258048
 20
6.018478168682522
 30
0.0
 10
6.863313633258051
 20
6.036283719152027
 30
0.0
 10
6.863313633258049
 20
6.049829991962963
 30
0.0
 10
6.86331363325805
 20
6.059385278822314
 30
0.0
 10
6.86331363325805
 20
6.068114803793165
 30
0.0
 10
6.863313633258049
 20
6.075777923127442
 30
0.0
 10
6.863313633258049
 20
6.082175603072344
 30
0.0
 10
6.86331363325805
 20
6.087081956575346
 30
0.0
 10
6.863313633258049
 20
6.091083724946792
 30
0.0
 10
6.86331363325805
 20
6.09167383070743
 30
0.0
 10
6.86331363325805
 20
6.092024507240724
 30
0.0
  0
SPLINE
  5
ED
330
1F
100
AcDbEntity
  8
0
  6
HIDDEN
 62
     7
370
    18
100
AcDbSpline
210
0.0
220
0.0
230
1.0
 70
    24
 71
     3
 72
    26
 73
    22
 74
     0
 42
0.00000001
 43
0.00000001
 40
0.0
 40
0.0
 40
0.0
 40
0.0
 40
0.0600183537897844
 40
0.1129428150753973
 40
0.165867276361011
 40
0.2187917376466231
 40
0.2717161989322355
 40
0.3246406602178469
 40
0.377565121503459
 40
0.430489582789071
 40
0.4834140440746826
 40
0.5363385053602943
 40
0.5892629666459064
 40
0.6421874279315176
 40
0.6951118892171297
 40
0.7480363505027415
 40
0.8009608117883533
 40
0.8538852730739646
 40
0.9068097343595763
 40
0.9529041592361296
 40
1.0
 40
1.0
 40
1.0
 40
1.0
 10
6.633313633258051
 20
4.974815069154337
 30
0.0
 10
6.633313633258051
 20
4.975027872799076
 30
0.0
 10
6.633313633258051
 20
4.975428327679585
 30
0.0
 10
6.633313633258052
 20
4.978460970162912
 30
0.0
 10
6.633313633258051
 20
4.982855980266653
 30
0.0
 10
6.633313633258051
 20
4.988788202770355
 30
0.0
 10
6.633313633258051
 20
4.996049441924457
 30
0.0
 10
6.633313633258052
 20
5.004451367280057
 30
0.0
 10
6.633313633258051
 20
5.013759041765938
 30
0.0
 10
6.633313633258051
 20
5.023716604925509
 30
0.0
 10
6.633313633258051
 20
5.034049182814493
 30
0.0
 10
6.633313633258051
 20
5.044471854368978
 30
0.0
 10
6.633313633258051
 20
5.054697117111123
 30
0.0
 10
6.633313633258051
 20
5.064443003103406
 30
0.0
 10
6.633313633258051
 20
5.073440503829744
 30
0.0
 10
6.633313633258051
 20
5.081442212280474
 30
0.0
 10
6.633313633258051
 20
5.088224609092211
 30
0.0
 10
6.633313633258051
 20
5.093611155776641
 30
0.0
 10
6.633313633258051
 20
5.097250400113901
 30
0.0
 10
6.633313633258051
 20
5.099422592702098
 30
0.0
 10
6.633313633258051
 20
5.099683309787911
 30
0.0
 10
6.633313633258051
 20
5.099815069154337
 30
0.0
  0
SPLINE
  5
EE
330
1F
100
AcDbEntity
  8
0
  6
HIDDEN
 62
     7
370
    18
100
AcDbSpline
210
0.0
220
0.0
230
1.0
 70
    24
 71
     3
 72
    25
 73
    21
 74
     0
 42
0.00000001
 43
0.00000001
 40
0.0
 40
0.0
 40
0.0
 40
0.0
 40
0.0600333226356734
 40
0.1129709835186552
 40
0.1659086444016361
 40
0.218846305284617
 40
0.271783966167598
 40
0.3247216270505788
 40
0.3776592879335593
 40
0.4305969488165407
 40
0.4835346096995212
 40
0.5364722705824995
 40
0.5894099314654783
 40
0.6423475923484574
 40
0.6952852532314366
 40
0.7482229141144163
 40
0.8011605749973961
 40
0.8540982358803756
 40
0.9070358967633549
 40
1.0
 40
1.0
 40
1.0
 40
1.0
 10
6.863313633258049
 20
4.967024507240723
 30
0.0
 10
6.863313633258049
 20
4.966811703595952
 30
0.0
 10
6.863313633258049
 20
4.966411248715386
 30
0.0
 10
6.86331363325805
 20
4.963378606232452
 30
0.0
 10
6.86331363325805
 20
4.958983596127253
 30
0.0
 10
6.86331363325805
 20
4.953051373629013
 30
0.0
 10
6.863313633258049
 20
4.945790134454524
 30
0.0
 10
6.863313633258049
 20
4.937388209175012
 30
0.0
 10
6.863313633258051
 20
4.928080534405166
 30
0.0
 10
6.86331363325805
 20
4.918122972305365
 30
0.0
 10
6.863313633258051
 20
4.907790390461265
 30
0.0
 10
6.863313633258049
 20
4.89736773366747
 30
0.0
 10
6.86331363325805
 20
4.887142415837687
 30
0.0
 10
6.863313633258049
 20
4.877396735435268
 30
0.0
 10
6.86331363325805
 20
4.868398467437111
 30
0.0
 10
6.863313633258049
 20
4.860399622483793
 30
0.0
 10
6.863313633258051
 20
4.853606538954227
 30
0.0
 10
6.863313633258049
 20
4.848259875643699
 30
0.0
 10
6.863313633258051
 20
4.843312234258399
 30
0.0
 10
6.86331363325805
 20
4.842525677159795
 30
0.0
 10
6.86331363325805
 20
4.842024507240724
 30
0.0
  0
SPLINE
  5
EF
330
1F
100
AcDbEntity
  8
0
  6
HIDDEN
 62
     7
370
    18
100
AcDbSpline
210
0.0
220
0.0
230
1.0
 70
    24
 71
     3
 72
    26
 73
    22
 74
     0
 42
0.00000001
 43
0.00000001
 40
0.0
 40
0.0
 40
0.0
 40
0.0
 40
0.0600183537897852
 40
0.1129428150753984
 40
0.1658672763610105
 40
0.2187917376466223
 40
0.2717161989322344
 40
0.3246406602178455
 40
0.3775651215034568
 40
0.4304895827890683
 40
0.4834140440746796
 40
0.5363385053602907
 40
0.5892629666459029
 40
0.6421874279315146
 40
0.6951118892171263
 40
0.7480363505027379
 40
0.8009608117883489
 40
0.8538852730739592
 40
0.9068097343595709
 40
0.9529041592361268
 40
1.0
 40
1.0
 40
1.0
 40
1.0
 10
6.633313633258051
 20
4.787315069154337
 30
0.0
 10
6.633313633258051
 20
4.787527872799076
 30
0.0
 10
6.633313633258051
 20
4.787928327679584
 30
0.0
 10
6.633313633258051
 20
4.790960970162912
 30
0.0
 10
6.633313633258051
 20
4.795355980266653
 30
0.0
 10
6.633313633258051
 20
4.801288202770353
 30
0.0
 10
6.633313633258051
 20
4.808549441924456
 30
0.0
 10
6.633313633258051
 20
4.816951367280055
 30
0.0
 10
6.633313633258051
 20
4.826259041765937
 30
0.0
 10
6.633313633258051
 20
4.836216604925508
 30
0.0
 10
6.63331363325805
 20
4.846549182814493
 30
0.0
 10
6.633313633258051
 20
4.856971854368976
 30
0.0
 10
6.633313633258051
 20
4.867197117111122
 30
0.0
 10
6.633313633258051
 20
4.876943003103405
 30
0.0
 10
6.633313633258051
 20
4.885940503829743
 30
0.0
 10
6.633313633258051
 20
4.893942212280473
 30
0.0
 10
6.633313633258051
 20
4.90072460909221
 30
0.0
 10
6.633313633258051
 20
4.90611115577664
 30
0.0
 10
6.633313633258051
 20
4.909750400113901
 30
0.0
 10
6.633313633258051
 20
4.911922592702098
 30
0.0
 10
6.633313633258051
 20
4.912183309787911
 30
0.0
 10
6.633313633258051
 20
4.912315069154336
 30
0.0
  0
SPLINE
  5
F0
330
1F
100
AcDbEntity
  8
0
  6
HIDDEN
 62
     7
370
    18
100
AcDbSpline
210
0.0
220
0.0
230
1.0
 70
    24
 71
     3
 72
    25
 73
    21
 74
     0
 42
0.00000001
 43
0.00000001
 40
0.0
 40
0.0
 40
0.0
 40
0.0
 40
0.0600333226356726
 40
0.1129709835186536
 40
0.165908644401635
 40
0.2188463052846152
 40
0.2717839661675959
 40
0.3247216270505759
 40
0.3776592879335569
 40
0.4305969488165368
 40
0.4835346096995165
 40
0.5364722705824974
 40
0.5894099314654774
 40
0.6423475923484567
 40
0.6952852532314368
 40
0.7482229141144172
 40
0.8011605749973966
 40
0.8540982358803764
 40
0.9070358967633558
 40
1.0
 40
1.0
 40
1.0
 40
1.0
 10
6.86331363325805
 20
4.779524507240723
 30
0.0
 10
6.86331363325805
 20
4.779311703595952
 30
0.0
 10
6.863313633258049
 20
4.778911248715386
 30
0.0
 10
6.863313633258049
 20
4.775878606232454
 30
0.0
 10
6.86331363325805
 20
4.771483596127252
 30
0.0
 10
6.86331363325805
 20
4.765551373629013
 30
0.0
 10
6.863313633258049
 20
4.758290134454524
 30
0.0
 10
6.86331363325805
 20
4.749888209175012
 30
0.0
 10
6.863313633258049
 20
4.740580534405167
 30
0.0
 10
6.86331363325805
 20
4.730622972305365
 30
0.0
 10
6.86331363325805
 20
4.720290390461265
 30
0.0
 10
6.863313633258049
 20
4.70986773366747
 30
0.0
 10
6.863313633258049
 20
4.699642415837687
 30
0.0
 10
6.863313633258051
 20
4.689896735435267
 30
0.0
 10
6.863313633258049
 20
4.680898467437111
 30
0.0
 10
6.863313633258051
 20
4.672899622483792
 30
0.0
 10
6.863313633258049
 20
4.666106538954227
 30
0.0
 10
6.86331363325805
 20
4.660759875643699
 30
0.0
 10
6.863313633258049
 20
4.655812234258399
 30
0.0
 10
6.863313633258049
 20
4.655025677159794
 30
0.0
 10
6.863313633258049
 20
4.654524507240723
 30
0.0
  0
SPLINE
  5
F1
330
1F
100
AcDbEntity
  8
0
  6
HIDDEN
 62
     7
370
    18
100
AcDbSpline
210
0.0
220
0.0
230
1.0
 70
    24
 71
     3
 72
    26
 73
    22
 74
     0
 42
0.00000001
 43
0.00000001
 40
0.0
 40
0.0
 40
0.0
 40
0.0
 40
0.0600183537897855
 40
0.1129428150753984
 40
0.1658672763610106
 40
0.2187917376466226
 40
0.2717161989322343
 40
0.324640660217846
 40
0.3775651215034568
 40
0.4304895827890685
 40
0.4834140440746805
 40
0.5363385053602917
 40
0.5892629666459027
 40
0.642187427931514
 40
0.6951118892171263
 40
0.7480363505027365
 40
0.8009608117883454
 40
0.8538852730739566
 40
0.9068097343595674
 40
0.9529041592361251
 40
1.0
 40
1.0
 40
1.0
 40
1.0
 10
6.633313633258051
 20
6.099815069154337
 30
0.0
 10
6.633313633258051
 20
6.100027872799076
 30
0.0
 10
6.633313633258051
 20
6.100428327679586
 30
0.0
 10
6.633313633258051
 20
6.103460970162913
 30
0.0
 10
6.633313633258051
 20
6.107855980266653
 30
0.0
 10
6.633313633258051
 20
6.113788202770354
 30
0.0
 10
6.633313633258051
 20
6.121049441924457
 30
0.0
 10
6.633313633258051
 20
6.129451367280056
 30
0.0
 10
6.633313633258051
 20
6.138759041765937
 30
0.0
 10
6.633313633258052
 20
6.148716604925508
 30
0.0
 10
6.63331363325805
 20
6.159049182814493
 30
0.0
 10
6.633313633258051
 20
6.169471854368977
 30
0.0
 10
6.633313633258051
 20
6.179697117111123
 30
0.0
 10
6.633313633258051
 20
6.189443003103406
 30
0.0
 10
6.633313633258051
 20
6.198440503829744
 30
0.0
 10
6.633313633258051
 20
6.206442212280473
 30
0.0
 10
6.633313633258051
 20
6.21322460909221
 30
0.0
 10
6.633313633258051
 20
6.218611155776641
 30
0.0
 10
6.633313633258051
 20
6.222250400113901
 30
0.0
 10
6.633313633258051
 20
6.224422592702097
 30
0.0
 10
6.633313633258051
 20
6.22468330978791
 30
0.0
 10
6.633313633258051
 20
6.224815069154337
 30
0.0
  0
SPLINE
  5
F2
330
1F
100
AcDbEntity
  8
0
  6
HIDDEN
 62
     7
370
    18
100
AcDbSpline
210
0.0
220
0.0
230
1.0
 70
    24
 71
     3
 72
    25
 73
    21
 74
     0
 42
0.00000001
 43
0.00000001
 40
0.0
 40
0.0
 40
0.0
 40
0.0
 40
0.0600333226356724
 40
0.1129709835186533
 40
0.1659086444016344
 40
0.2188463052846155
 40
0.2717839661675965
 40
0.3247216270505768
 40
0.3776592879335587
 40
0.4305969488165386
 40
0.483534609699519
 40
0.5364722705824985
 40
0.5894099314654793
 40
0.6423475923484576
 40
0.6952852532314361
 40
0.7482229141144152
 40
0.8011605749973942
 40
0.8540982358803735
 40
0.907035896763353
 40
0.9999999999999999
 40
0.9999999999999999
 40
0.9999999999999999
 40
0.9999999999999999
 10
6.86331363325805
 20
6.092024507240722
 30
0.0
 10
6.86331363325805
 20
6.091811703595952
 30
0.0
 10
6.86331363325805
 20
6.091411248715386
 30
0.0
 10
6.86331363325805
 20
6.088378606232453
 30
0.0
 10
6.863313633258049
 20
6.083983596127254
 30
0.0
 10
6.86331363325805
 20
6.078051373629013
 30
0.0
 10
6.863313633258051
 20
6.070790134454525
 30
0.0
 10
6.863313633258049
 20
6.062388209175012
 30
0.0
 10
6.863313633258051
 20
6.053080534405166
 30
0.0
 10
6.863313633258049
 20
6.043122972305365
 30
0.0
 10
6.86331363325805
 20
6.032790390461265
 30
0.0
 10
6.86331363325805
 20
6.02236773366747
 30
0.0
 10
6.86331363325805
 20
6.012142415837687
 30
0.0
 10
6.86331363325805
 20
6.002396735435267
 30
0.0
 10
6.86331363325805
 20
5.99339846743711
 30
0.0
 10
6.86331363325805
 20
5.985399622483793
 30
0.0
 10
6.86331363325805
 20
5.978606538954228
 30
0.0
 10
6.863313633258049
 20
5.973259875643699
 30
0.0
 10
6.86331363325805
 20
5.968312234258399
 30
0.0
 10
6.86331363325805
 20
5.967525677159795
 30
0.0
 10
6.863313633258049
 20
5.967024507240723
 30
0.0
  0
SPLINE
  5
F3
330
1F
100
AcDbEntity
  8
0
  6
HIDDEN
 62
     7
370
    18
100
AcDbSpline
210
0.0
220
0.0
230
1.0
 70
    24
 71
     3
 72
    26
 73
    22
 74
     0
 42
0.00000001
 43
0.00000001
 40
0.0
 40
0.0
 40
0.0
 40
0.0
 40
0.0600183537897848
 40
0.112942815075398
 40
0.16586727636101
 40
0.2187917376466217
 40
0.271716198932234
 40
0.3246406602178464
 40
0.3775651215034579
 40
0.4304895827890696
 40
0.4834140440746811
 40
0.5363385053602924
 40
0.5892629666459049
 40
0.6421874279315163
 40
0.6951118892171291
 40
0.748036350502741
 40
0.8009608117883531
 40
0.8538852730739652
 40
0.9068097343595772
 40
0.9529041592361306
 40
1.0
 40
1.0
 40
1.0
 40
1.0
 10
6.633313633258051
 20
5.912315069154337
 30
0.0
 10
6.633313633258051
 20
5.912527872799076
 30
0.0
 10
6.633313633258052
 20
5.912928327679586
 30
0.0
 10
6.633313633258051
 20
5.915960970162913
 30
0.0
 10
6.633313633258051
 20
5.920355980266653
 30
0.0
 10
6.633313633258051
 20
5.926288202770354
 30
0.0
 10
6.633313633258051
 20
5.933549441924457
 30
0.0
 10
6.633313633258051
 20
5.941951367280056
 30
0.0
 10
6.633313633258051
 20
5.951259041765938
 30
0.0
 10
6.633313633258051
 20
5.961216604925508
 30
0.0
 10
6.633313633258051
 20
5.971549182814493
 30
0.0
 10
6.633313633258051
 20
5.981971854368977
 30
0.0
 10
6.63331363325805
 20
5.992197117111123
 30
0.0
 10
6.633313633258051
 20
6.001943003103405
 30
0.0
 10
6.633313633258051
 20
6.010940503829744
 30
0.0
 10
6.633313633258051
 20
6.018942212280474
 30
0.0
 10
6.633313633258051
 20
6.025724609092211
 30
0.0
 10
6.633313633258051
 20
6.031111155776641
 30
0.0
 10
6.633313633258052
 20
6.034750400113901
 30
0.0
 10
6.633313633258051
 20
6.036922592702097
 30
0.0
 10
6.633313633258051
 20
6.03718330978791
 30
0.0
 10
6.633313633258051
 20
6.037315069154336
 30
0.0
  0
SPLINE
  5
F4
330
1F
100
AcDbEntity
  8
0
  6
HIDDEN
 62
     7
370
    18
100
AcDbSpline
210
0.0
220
0.0
230
1.0
 70
    24
 71
     3
 72
    25
 73
    21
 74
     0
 42
0.00000001
 43
0.00000001
 40
0.0
 40
0.0
 40
0.0
 40
0.0
 40
0.0600333226356736
 40
0.1129709835186546
 40
0.1659086444016358
 40
0.2188463052846169
 40
0.2717839661675974
 40
0.3247216270505774
 40
0.3776592879335582
 40
0.4305969488165383
 40
0.4835346096995181
 40
0.5364722705824977
 40
0.5894099314654772
 40
0.6423475923484568
 40
0.6952852532314366
 40
0.7482229141144168
 40
0.8011605749973967
 40
0.8540982358803766
 40
0.9070358967633569
 40
1.0
 40
1.0
 40
1.0
 40
1.0
 10
6.86331363325805
 20
5.904524507240724
 30
0.0
 10
6.863313633258049
 20
5.904311703595952
 30
0.0
 10
6.863313633258048
 20
5.903911248715386
 30
0.0
 10
6.863313633258049
 20
5.900878606232453
 30
0.0
 10
6.863313633258051
 20
5.896483596127252
 30
0.0
 10
6.863313633258049
 20
5.890551373629013
 30
0.0
 10
6.863313633258051
 20
5.883290134454523
 30
0.0
 10
6.863313633258049
 20
5.874888209175012
 30
0.0
 10
6.863313633258051
 20
5.865580534405166
 30
0.0
 10
6.86331363325805
 20
5.855622972305365
 30
0.0
 10
6.863313633258049
 20
5.845290390461265
 30
0.0
 10
6.86331363325805
 20
5.834867733667469
 30
0.0
 10
6.863313633258049
 20
5.824642415837686
 30
0.0
 10
6.863313633258049
 20
5.814896735435267
 30
0.0
 10
6.86331363325805
 20
5.80589846743711
 30
0.0
 10
6.863313633258051
 20
5.797899622483792
 30
0.0
 10
6.863313633258049
 20
5.791106538954228
 30
0.0
 10
6.863313633258051
 20
5.785759875643698
 30
0.0
 10
6.863313633258049
 20
5.780812234258399
 30
0.0
 10
6.86331363325805
 20
5.780025677159793
 30
0.0
 10
6.86331363325805
 20
5.779524507240723
 30
0.0
  0
SPLINE
  5
F5
330
1F
100
AcDbEntity
  8
0
  6
HIDDEN
 62
     7
370
    18
100
AcDbSpline
210
0.0
220
0.0
230
1.0
 70
    24
 71
     3
 72
    26
 73
    22
 74
     0
 42
0.00000001
 43
0.00000001
 40
0.0
 40
0.0
 40
0.0
 40
0.0
 40
0.060018353789785
 40
0.1129428150753976
 40
0.1658672763610103
 40
0.2187917376466223
 40
0.2717161989322345
 40
0.3246406602178462
 40
0.3775651215034573
 40
0.4304895827890688
 40
0.4834140440746804
 40
0.5363385053602918
 40
0.5892629666459036
 40
0.6421874279315147
 40
0.6951118892171263
 40
0.7480363505027373
 40
0.8009608117883485
 40
0.8538852730739596
 40
0.9068097343595708
 40
0.9529041592361268
 40
1.0
 40
1.0
 40
1.0
 40
1.0
 10
6.633313633258051
 20
5.162315069154337
 30
0.0
 10
6.633313633258051
 20
5.162527872799077
 30
0.0
 10
6.63331363325805
 20
5.162928327679585
 30
0.0
 10
6.633313633258052
 20
5.165960970162913
 30
0.0
 10
6.633313633258051
 20
5.170355980266653
 30
0.0
 10
6.633313633258051
 20
5.176288202770355
 30
0.0
 10
6.633313633258051
 20
5.183549441924458
 30
0.0
 10
6.633313633258051
 20
5.191951367280057
 30
0.0
 10
6.633313633258051
 20
5.201259041765938
 30
0.0
 10
6.633313633258051
 20
5.211216604925509
 30
0.0
 10
6.633313633258051
 20
5.221549182814493
 30
0.0
 10
6.633313633258051
 20
5.231971854368978
 30
0.0
 10
6.63331363325805
 20
5.242197117111123
 30
0.0
 10
6.633313633258051
 20
5.251943003103406
 30
0.0
 10
6.633313633258051
 20
5.260940503829744
 30
0.0
 10
6.63331363325805
 20
5.268942212280475
 30
0.0
 10
6.633313633258051
 20
5.275724609092212
 30
0.0
 10
6.633313633258051
 20
5.281111155776641
 30
0.0
 10
6.633313633258051
 20
5.284750400113901
 30
0.0
 10
6.633313633258051
 20
5.286922592702098
 30
0.0
 10
6.633313633258051
 20
5.287183309787911
 30
0.0
 10
6.633313633258051
 20
5.287315069154338
 30
0.0
  0
SPLINE
  5
F6
330
1F
100
AcDbEntity
  8
0
  6
HIDDEN
 62
     7
370
    18
100
AcDbSpline
210
0.0
220
0.0
230
1.0
 70
    24
 71
     3
 72
    25
 73
    21
 74
     0
 42
0.00000001
 43
0.00000001
 40
0.0
 40
0.0
 40
0.0
 40
0.0
 40
0.0600333226356728
 40
0.1129709835186543
 40
0.165908644401635
 40
0.2188463052846157
 40
0.2717839661675958
 40
0.3247216270505763
 40
0.3776592879335575
 40
0.4305969488165377
 40
0.4835346096995176
 40
0.5364722705824974
 40
0.5894099314654778
 40
0.6423475923484577
 40
0.6952852532314373
 40
0.7482229141144175
 40
0.8011605749973977
 40
0.8540982358803775
 40
0.9070358967633577
 40
1.0
 40
1.0
 40
1.0
 40
1.0
 10
6.863313633258049
 20
5.154524507240724
 30
0.0
 10
6.863313633258049
 20
5.154311703595954
 30
0.0
 10
6.863313633258048
 20
5.153911248715388
 30
0.0
 10
6.863313633258051
 20
5.150878606232454
 30
0.0
 10
6.86331363325805
 20
5.146483596127253
 30
0.0
 10
6.863313633258051
 20
5.140551373629014
 30
0.0
 10
6.863313633258049
 20
5.133290134454525
 30
0.0
 10
6.863313633258051
 20
5.124888209175013
 30
0.0
 10
6.86331363325805
 20
5.115580534405167
 30
0.0
 10
6.86331363325805
 20
5.105622972305365
 30
0.0
 10
6.863313633258049
 20
5.095290390461266
 30
0.0
 10
6.863313633258051
 20
5.08486773366747
 30
0.0
 10
6.86331363325805
 20
5.074642415837687
 30
0.0
 10
6.863313633258049
 20
5.064896735435268
 30
0.0
 10
6.863313633258051
 20
5.055898467437111
 30
0.0
 10
6.86331363325805
 20
5.047899622483792
 30
0.0
 10
6.863313633258049
 20
5.041106538954228
 30
0.0
 10
6.86331363325805
 20
5.035759875643699
 30
0.0
 10
6.86331363325805
 20
5.0308122342584
 30
0.0
 10
6.86331363325805
 20
5.030025677159794
 30
0.0
 10
6.86331363325805
 20
5.029524507240724
 30
0.0
  0
SPLINE
  5
F7
330
1F
100
AcDbEntity
  8
0
  6
HIDDEN
 62
     7
370
    18
100
AcDbSpline
210
0.0
220
0.0
230
1.0
 70
    24
 71
     3
 72
    26
 73
    22
 74
     0
 42
0.00000001
 43
0.00000001
 40
0.0
 40
0.0
 40
0.0
 40
0.0
 40
0.0600183537897855
 40
0.1129428150753981
 40
0.1658672763610105
 40
0.2187917376466228
 40
0.2717161989322348
 40
0.3246406602178474
 40
0.3775651215034593
 40
0.4304895827890716
 40
0.4834140440746835
 40
0.5363385053602946
 40
0.5892629666459062
 40
0.6421874279315181
 40
0.69511188921713
 40
0.7480363505027416
 40
0.8009608117883533
 40
0.8538852730739646
 40
0.906809734359576
 40
0.9529041592361299
 40
1.0
 40
1.0
 40
1.0
 40
1.0
 10
6.633313633258051
 20
5.724815069154337
 30
0.0
 10
6.633313633258051
 20
5.725027872799076
 30
0.0
 10
6.633313633258051
 20
5.725428327679586
 30
0.0
 10
6.633313633258051
 20
5.728460970162914
 30
0.0
 10
6.633313633258051
 20
5.732855980266653
 30
0.0
 10
6.633313633258051
 20
5.738788202770354
 30
0.0
 10
6.633313633258051
 20
5.746049441924457
 30
0.0
 10
6.633313633258051
 20
5.754451367280057
 30
0.0
 10
6.63331363325805
 20
5.763759041765938
 30
0.0
 10
6.633313633258052
 20
5.773716604925509
 30
0.0
 10
6.633313633258051
 20
5.784049182814494
 30
0.0
 10
6.633313633258051
 20
5.794471854368978
 30
0.0
 10
6.633313633258051
 20
5.804697117111123
 30
0.0
 10
6.63331363325805
 20
5.814443003103406
 30
0.0
 10
6.633313633258052
 20
5.823440503829745
 30
0.0
 10
6.633313633258051
 20
5.831442212280475
 30
0.0
 10
6.633313633258051
 20
5.838224609092211
 30
0.0
 10
6.633313633258051
 20
5.843611155776641
 30
0.0
 10
6.633313633258051
 20
5.847250400113902
 30
0.0
 10
6.633313633258051
 20
5.849422592702098
 30
0.0
 10
6.633313633258051
 20
5.849683309787911
 30
0.0
 10
6.633313633258051
 20
5.849815069154337
 30
0.0
  0
SPLINE
  5
F8
330
1F
100
AcDbEntity
  8
0
  6
HIDDEN
 62
     7
370
    18
100
AcDbSpline
210
0.0
220
0.0
230
1.0
 70
    24
 71
     3
 72
    25
 73
    21
 74
     0
 42
0.00000001
 43
0.00000001
 40
0.0
 40
0.0
 40
0.0
 40
0.0
 40
0.0600333226356726
 40
0.1129709835186537
 40
0.1659086444016352
 40
0.2188463052846155
 40
0.271783966167596
 40
0.3247216270505767
 40
0.377659287933557
 40
0.4305969488165369
 40
0.4835346096995166
 40
0.5364722705824968
 40
0.589409931465477
 40
0.6423475923484573
 40
0.6952852532314374
 40
0.7482229141144181
 40
0.8011605749973981
 40
0.8540982358803778
 40
0.9070358967633575
 40
1.0
 40
1.0
 40
1.0
 40
1.0
 10
6.86331363325805
 20
5.717024507240723
 30
0.0
 10
6.86331363325805
 20
5.716811703595953
 30
0.0
 10
6.863313633258049
 20
5.716411248715386
 30
0.0
 10
6.863313633258049
 20
5.713378606232453
 30
0.0
 10
6.863313633258051
 20
5.708983596127253
 30
0.0
 10
6.86331363325805
 20
5.703051373629014
 30
0.0
 10
6.86331363325805
 20
5.695790134454524
 30
0.0
 10
6.86331363325805
 20
5.687388209175013
 30
0.0
 10
6.86331363325805
 20
5.678080534405166
 30
0.0
 10
6.86331363325805
 20
5.668122972305365
 30
0.0
 10
6.86331363325805
 20
5.657790390461266
 30
0.0
 10
6.86331363325805
 20
5.647367733667471
 30
0.0
 10
6.863313633258049
 20
5.637142415837687
 30
0.0
 10
6.863313633258049
 20
5.627396735435267
 30
0.0
 10
6.86331363325805
 20
5.61839846743711
 30
0.0
 10
6.86331363325805
 20
5.610399622483793
 30
0.0
 10
6.86331363325805
 20
5.603606538954227
 30
0.0
 10
6.86331363325805
 20
5.598259875643699
 30
0.0
 10
6.863313633258049
 20
5.593312234258399
 30
0.0
 10
6.863313633258049
 20
5.592525677159795
 30
0.0
 10
6.86331363325805
 20
5.592024507240723
 30
0.0
  0
SPLINE
  5
F9
330
1F
100
AcDbEntity
  8
0
  6
HIDDEN
 62
     7
370
    18
100
AcDbSpline
210
0.0
220
0.0
230
1.0
 70
    24
 71
     3
 72
    26
 73
    22
 74
     0
 42
0.00000001
 43
0.00000001
 40
0.0
 40
0.0
 40
0.0
 40
0.0
 40
0.0600183537897848
 40
0.1129428150753976
 40
0.1658672763610098
 40
0.2187917376466226
 40
0.2717161989322352
 40
0.3246406602178476
 40
0.3775651215034597
 40
0.4304895827890707
 40
0.483414044074682
 40
0.5363385053602933
 40
0.5892629666459045
 40
0.6421874279315156
 40
0.6951118892171274
 40
0.7480363505027388
 40
0.8009608117883503
 40
0.8538852730739618
 40
0.906809734359573
 40
0.9529041592361284
 40
0.9999999999999999
 40
0.9999999999999999
 40
0.9999999999999999
 40
0.9999999999999999
 10
6.633313633258051
 20
5.537315069154338
 30
0.0
 10
6.633313633258051
 20
5.537527872799077
 30
0.0
 10
6.633313633258052
 20
5.537928327679586
 30
0.0
 10
6.63331363325805
 20
5.540960970162914
 30
0.0
 10
6.633313633258052
 20
5.545355980266653
 30
0.0
 10
6.63331363325805
 20
5.551288202770355
 30
0.0
 10
6.633313633258051
 20
5.558549441924458
 30
0.0
 10
6.633313633258051
 20
5.566951367280057
 30
0.0
 10
6.633313633258051
 20
5.576259041765939
 30
0.0
 10
6.633313633258052
 20
5.586216604925509
 30
0.0
 10
6.633313633258051
 20
5.596549182814495
 30
0.0
 10
6.633313633258051
 20
5.606971854368978
 30
0.0
 10
6.633313633258051
 20
5.617197117111123
 30
0.0
 10
6.633313633258051
 20
5.626943003103406
 30
0.0
 10
6.633313633258051
 20
5.635940503829744
 30
0.0
 10
6.633313633258051
 20
5.643942212280475
 30
0.0
 10
6.633313633258051
 20
5.650724609092212
 30
0.0
 10
6.633313633258051
 20
5.656111155776641
 30
0.0
 10
6.633313633258051
 20
5.659750400113902
 30
0.0
 10
6.63331363325805
 20
5.661922592702098
 30
0.0
 10
6.633313633258051
 20
5.662183309787911
 30
0.0
 10
6.633313633258051
 20
5.662315069154338
 30
0.0
  0
SPLINE
  5
FA
330
1F
100
AcDbEntity
  8
0
  6
HIDDEN
 62
     7
370
    18
100
AcDbSpline
210
0.0
220
0.0
230
1.0
 70
    24
 71
     3
 72
    25
 73
    21
 74
     0
 42
0.00000001
 43
0.00000001
 40
0.0
 40
0.0
 40
0.0
 40
0.0
 40
0.0600333226356737
 40
0.1129709835186543
 40
0.1659086444016352
 40
0.2188463052846163
 40
0.2717839661675963
 40
0.3247216270505761
 40
0.3776592879335565
 40
0.4305969488165365
 40
0.4835346096995169
 40
0.5364722705824965
 40
0.5894099314654774
 40
0.6423475923484574
 40
0.6952852532314379
 40
0.7482229141144175
 40
0.8011605749973978
 40
0.8540982358803776
 40
0.9070358967633572
 40
1.0
 40
1.0
 40
1.0
 40
1.0
 10
6.86331363325805
 20
5.529524507240723
 30
0.0
 10
6.863313633258049
 20
5.529311703595953
 30
0.0
 10
6.863313633258048
 20
5.528911248715387
 30
0.0
 10
6.86331363325805
 20
5.525878606232454
 30
0.0
 10
6.86331363325805
 20
5.521483596127253
 30
0.0
 10
6.86331363325805
 20
5.515551373629014
 30
0.0
 10
6.86331363325805
 20
5.508290134454524
 30
0.0
 10
6.863313633258049
 20
5.499888209175013
 30
0.0
 10
6.863313633258051
 20
5.490580534405167
 30
0.0
 10
6.86331363325805
 20
5.480622972305365
 30
0.0
 10
6.86331363325805
 20
5.470290390461266
 30
0.0
 10
6.863313633258049
 20
5.45986773366747
 30
0.0
 10
6.863313633258051
 20
5.449642415837688
 30
0.0
 10
6.863313633258049
 20
5.439896735435268
 30
0.0
 10
6.86331363325805
 20
5.430898467437111
 30
0.0
 10
6.863313633258051
 20
5.422899622483793
 30
0.0
 10
6.86331363325805
 20
5.416106538954228
 30
0.0
 10
6.86331363325805
 20
5.410759875643699
 30
0.0
 10
6.863313633258048
 20
5.4058122342584
 30
0.0
 10
6.863313633258049
 20
5.405025677159794
 30
0.0
 10
6.86331363325805
 20
5.404524507240724
 30
0.0
  0
SPLINE
  5
FB
330
1F
100
AcDbEntity
  8
0
  6
HIDDEN
 62
     7
370
    18
100
AcDbSpline
210
0.0
220
0.0
230
1.0
 70
    24
 71
     3
 72
    26
 73
    22
 74
     0
 42
0.00000001
 43
0.00000001
 40
0.0
 40
0.0
 40
0.0
 40
0.0
 40
0.060018353789785
 40
0.1129428150753976
 40
0.1658672763610104
 40
0.2187917376466231
 40
0.2717161989322353
 40
0.3246406602178472
 40
0.3775651215034599
 40
0.4304895827890715
 40
0.4834140440746835
 40
0.5363385053602955
 40
0.5892629666459074
 40
0.6421874279315187
 40
0.6951118892171296
 40
0.7480363505027413
 40
0.8009608117883528
 40
0.8538852730739641
 40
0.9068097343595757
 40
0.9529041592361295
 40
1.0
 40
1.0
 40
1.0
 40
1.0
 10
6.633313633258051
 20
5.349815069154338
 30
0.0
 10
6.633313633258051
 20
5.350027872799077
 30
0.0
 10
6.633313633258051
 20
5.350428327679585
 30
0.0
 10
6.633313633258051
 20
5.353460970162913
 30
0.0
 10
6.633313633258051
 20
5.357855980266653
 30
0.0
 10
6.633313633258051
 20
5.363788202770355
 30
0.0
 10
6.633313633258051
 20
5.371049441924458
 30
0.0
 10
6.633313633258051
 20
5.379451367280057
 30
0.0
 10
6.633313633258051
 20
5.388759041765938
 30
0.0
 10
6.633313633258051
 20
5.398716604925509
 30
0.0
 10
6.633313633258051
 20
5.409049182814494
 30
0.0
 10
6.633313633258051
 20
5.419471854368978
 30
0.0
 10
6.633313633258051
 20
5.429697117111123
 30
0.0
 10
6.633313633258051
 20
5.439443003103406
 30
0.0
 10
6.633313633258051
 20
5.448440503829744
 30
0.0
 10
6.633313633258051
 20
5.456442212280475
 30
0.0
 10
6.633313633258051
 20
5.463224609092212
 30
0.0
 10
6.63331363325805
 20
5.468611155776641
 30
0.0
 10
6.633313633258052
 20
5.472250400113902
 30
0.0
 10
6.63331363325805
 20
5.474422592702098
 30
0.0
 10
6.633313633258051
 20
5.474683309787911
 30
0.0
 10
6.633313633258051
 20
5.474815069154337
 30
0.0
  0
SPLINE
  5
FC
330
1F
100
AcDbEntity
  8
0
  6
HIDDEN
 62
     7
370
    18
100
AcDbSpline
210
0.0
220
0.0
230
1.0
 70
    24
 71
     3
 72
    25
 73
    21
 74
     0
 42
0.00000001
 43
0.00000001
 40
0.0
 40
0.0
 40
0.0
 40
0.0
 40
0.0600333226356728
 40
0.1129709835186538
 40
0.1659086444016351
 40
0.2188463052846163
 40
0.2717839661675969
 40
0.3247216270505771
 40
0.3776592879335576
 40
0.4305969488165377
 40
0.4835346096995168
 40
0.5364722705824971
 40
0.5894099314654775
 40
0.6423475923484575
 40
0.6952852532314372
 40
0.7482229141144179
 40
0.8011605749973988
 40
0.8540982358803787
 40
0.907035896763359
 40
1.0
 40
1.0
 40
1.0
 40
1.0
 10
6.86331363325805
 20
5.342024507240723
 30
0.0
 10
6.86331363325805
 20
5.341811703595953
 30
0.0
 10
6.863313633258049
 20
5.341411248715387
 30
0.0
 10
6.86331363325805
 20
5.338378606232453
 30
0.0
 10
6.86331363325805
 20
5.333983596127253
 30
0.0
 10
6.86331363325805
 20
5.328051373629014
 30
0.0
 10
6.863313633258049
 20
5.320790134454524
 30
0.0
 10
6.86331363325805
 20
5.312388209175013
 30
0.0
 10
6.86331363325805
 20
5.303080534405167
 30
0.0
 10
6.86331363325805
 20
5.293122972305365
 30
0.0
 10
6.863313633258049
 20
5.282790390461266
 30
0.0
 10
6.863313633258049
 20
5.27236773366747
 30
0.0
 10
6.86331363325805
 20
5.262142415837687
 30
0.0
 10
6.86331363325805
 20
5.252396735435268
 30
0.0
 10
6.863313633258049
 20
5.243398467437111
 30
0.0
 10
6.86331363325805
 20
5.235399622483793
 30
0.0
 10
6.863313633258049
 20
5.228606538954228
 30
0.0
 10
6.86331363325805
 20
5.223259875643699
 30
0.0
 10
6.863313633258049
 20
5.2183122342584
 30
0.0
 10
6.863313633258049
 20
5.217525677159794
 30
0.0
 10
6.86331363325805
 20
5.217024507240724
 30
0.0
  0
SPLINE
  5
FD
330
1F
100
AcDbEntity
  8
0
  6
HIDDEN
 62
     7
370
    18
100
AcDbSpline
210
0.0
220
0.0
230
1.0
 70
    24
 71
     3
 72
    26
 73
    22
 74
     0
 42
0.00000001
 43
0.00000001
 40
0.0
 40
0.0
 40
0.0
 40
0.0
 40
0.0600183537897846
 40
0.1129428150753977
 40
0.1658672763610098
 40
0.2187917376466228
 40
0.2717161989322339
 40
0.3246406602178452
 40
0.3775651215034564
 40
0.430489582789068
 40
0.48341404407468
 40
0.5363385053602904
 40
0.5892629666459026
 40
0.6421874279315144
 40
0.6951118892171256
 40
0.7480363505027378
 40
0.8009608117883499
 40
0.8538852730739613
 40
0.9068097343595733
 40
0.9529041592361284
 40
1.0
 40
1.0
 40
1.0
 40
1.0
 10
6.633313633258051
 20
6.287315069154336
 30
0.0
 10
6.633313633258051
 20
6.287527872799076
 30
0.0
 10
6.633313633258051
 20
6.287928327679584
 30
0.0
 10
6.633313633258051
 20
6.290960970162913
 30
0.0
 10
6.633313633258051
 20
6.295355980266653
 30
0.0
 10
6.633313633258051
 20
6.301288202770355
 30
0.0
 10
6.633313633258051
 20
6.308549441924456
 30
0.0
 10
6.633313633258051
 20
6.316951367280055
 30
0.0
 10
6.633313633258051
 20
6.326259041765936
 30
0.0
 10
6.633313633258051
 20
6.336216604925507
 30
0.0
 10
6.633313633258051
 20
6.346549182814492
 30
0.0
 10
6.633313633258051
 20
6.356971854368976
 30
0.0
 10
6.633313633258051
 20
6.367197117111122
 30
0.0
 10
6.633313633258051
 20
6.376943003103404
 30
0.0
 10
6.633313633258051
 20
6.385940503829743
 30
0.0
 10
6.633313633258051
 20
6.393942212280473
 30
0.0
 10
6.633313633258051
 20
6.40072460909221
 30
0.0
 10
6.633313633258051
 20
6.40611115577664
 30
0.0
 10
6.633313633258051
 20
6.409750400113901
 30
0.0
 10
6.633313633258051
 20
6.411922592702097
 30
0.0
 10
6.633313633258051
 20
6.412183309787911
 30
0.0
 10
6.633313633258051
 20
6.412315069154336
 30
0.0
  0
SPLINE
  5
FE
330
1F
100
AcDbEntity
  8
0
  6
HIDDEN
 62
     7
370
    18
100
AcDbSpline
210
0.0
220
0.0
230
1.0
 70
    24
 71
     3
 72
    25
 73
    21
 74
     0
 42
0.00000001
 43
0.00000001
 40
0.0
 40
0.0
 40
0.0
 40
0.0
 40
0.0600333226356733
 40
0.1129709835186542
 40
0.1659086444016353
 40
0.2188463052846173
 40
0.2717839661675978
 40
0.3247216270505769
 40
0.3776592879335567
 40
0.430596948816538
 40
0.4835346096995171
 40
0.5364722705824959
 40
0.589409931465476
 40
0.6423475923484563
 40
0.6952852532314371
 40
0.7482229141144167
 40
0.8011605749973969
 40
0.8540982358803773
 40
0.9070358967633572
 40
1.0
 40
1.0
 40
1.0
 40
1.0
 10
6.86331363325805
 20
6.279524507240723
 30
0.0
 10
6.86331363325805
 20
6.279311703595952
 30
0.0
 10
6.863313633258051
 20
6.278911248715386
 30
0.0
 10
6.86331363325805
 20
6.275878606232453
 30
0.0
 10
6.863313633258049
 20
6.271483596127252
 30
0.0
 10
6.86331363325805
 20
6.265551373629013
 30
0.0
 10
6.86331363325805
 20
6.258290134454524
 30
0.0
 10
6.863313633258049
 20
6.249888209175012
 30
0.0
 10
6.863313633258049
 20
6.240580534405166
 30
0.0
 10
6.863313633258051
 20
6.230622972305365
 30
0.0
 10
6.863313633258049
 20
6.220290390461265
 30
0.0
 10
6.86331363325805
 20
6.20986773366747
 30
0.0
 10
6.863313633258049
 20
6.199642415837687
 30
0.0
 10
6.863313633258049
 20
6.189896735435267
 30
0.0
 10
6.86331363325805
 20
6.18089846743711
 30
0.0
 10
6.863313633258051
 20
6.172899622483793
 30
0.0
 10
6.86331363325805
 20
6.166106538954228
 30
0.0
 10
6.86331363325805
 20
6.160759875643699
 30
0.0
 10
6.86331363325805
 20
6.155812234258399
 30
0.0
 10
6.86331363325805
 20
6.155025677159794
 30
0.0
 10
6.86331363325805
 20
6.154524507240723
 30
0.0
  0
LINE
  5
FF
330
1F
100
AcDbEntity
  8
0
  6
HIDDEN
 62
     7
370
    18
100
AcDbLine
 10
6.7431001347
 20
5.4954245072
 30
0.0
 11
6.7431001347
 21
5.6964245072
 31
0.0
  0
LINE
  5
100
330
1F
100
AcDbEntity
  8
0
  6
HIDDEN
 62
     7
370
    18
100
AcDbLine
 10
6.8633136333
 20
5.3917990011
 30
0.0
 11
6.8633136333
 21
5.8000500134
 31
0.0
  0
LINE
  5
101
330
1F
100
AcDbEntity
  8
0
  6
HIDDEN
 62
     7
370
    18
100
AcDbLine
 10
6.6883136333
 20
5.4954245072
 30
0.0
 11
6.6883136333
 21
5.6964245072
 31
0.0
  0
LINE
  5
102
330
1F
100
AcDbEntity
  8
0
  6
HIDDEN
 62
     7
370
    18
100
AcDbLine
 10
6.6883136333
 20
4.1809245072
 30
0.0
 11
6.6883136333
 21
4.1209245072
 31
0.0
  0
LINE
  5
103
330
1F
100
AcDbEntity
  8
0
  6
HIDDEN
 62
     7
370
    18
100
AcDbLine
 10
6.4833136333
 20
4.1809245072
 30
0.0
 11
6.4833136333
 21
4.1209245072
 31
0.0
  0
LINE
  5
104
330
1F
100
AcDbEntity
  8
0
  6
HIDDEN
 62
     7
370
    18
100
AcDbLine
 10
6.6883136333
 20
7.0709245072
 30
0.0
 11
6.6883136333
 21
7.0109245072
 31
0.0
  0
LINE
  5
105
330
1F
100
AcDbEntity
  8
0
  6
HIDDEN
 62
     7
370
    18
100
AcDbLine
 10
6.4833136333
 20
7.0709245072
 30
0.0
 11
6.4833136333
 21
7.0109245072
 31
0.0
  0
LINE
  5
106
330
1F
100
AcDbEntity
  8
0
  6
HIDDEN
 62
     7
370
    18
100
AcDbLine
 10
6.4833136333
 20
7.1909245072
 30
0.0
 11
6.8633136333
 21
7.1909245072
 31
0.0
  0
LINE
  5
107
330
1F
100
AcDbEntity
  8
0
  6
HIDDEN
 62
     7
370
    18
100
AcDbLine
 10
6.8633136333
 20
7.2209245072
 30
0.0
 11
6.4833136333
 21
7.2209245072
 31
0.0
  0
LINE
  5
108
330
1F
100
AcDbEntity
  8
0
  6
HIDDEN
 62
     7
370
    18
100
AcDbLine
 10
6.8633136333
 20
7.1909245072
 30
0.0
 11
6.8633136333
 21
7.2209245072
 31
0.0
  0
LINE
  5
109
330
1F
100
AcDbEntity
  8
0
  6
HIDDEN
 62
     7
370
    18
100
AcDbLine
 10
6.4833136333
 20
7.2209245072
 30
0.0
 11
6.4833136333
 21
7.1909245072
 31
0.0
  0
LINE
  5
10A
330
1F
100
AcDbEntity
  8
0
  6
HIDDEN
 62
     7
370
    18
100
AcDbLine
 10
6.8633136333
 20
4.0009245072
 30
0.0
 11
6.4833136333
 21
4.0009245072
 31
0.0
  0
LINE
  5
10B
330
1F
100
AcDbEntity
  8
0
  6
HIDDEN
 62
     7
370
    18
100
AcDbLine
 10
6.4833136333
 20
3.9709245072
 30
0.0
 11
6.8633136333
 21
3.9709245072
 31
0.0
  0
LINE
  5
10C
330
1F
100
AcDbEntity
  8
0
  6
HIDDEN
 62
     7
370
    18
100
AcDbLine
 10
6.8633136333
 20
3.9709245072
 30
0.0
 11
6.8633136333
 21
4.0009245072
 31
0.0
  0
LINE
  5
10D
330
1F
100
AcDbEntity
  8
0
  6
HIDDEN
 62
     7
370
    18
100
AcDbLine
 10
6.4833136333
 20
4.0009245072
 30
0.0
 11
6.4833136333
 21
3.9709245072
 31
0.0
  0
LINE
  5
10E
330
1F
100
AcDbEntity
  8
0
  6
HIDDEN
 62
     7
370
    18
100
AcDbLine
 10
6.8633136333
 20
7.1909245072
 30
0.0
 11
6.8633136333
 21
4.0009245072
 31
0.0
  0
LINE
  5
10F
330
1F
100
AcDbEntity
  8
0
  6
HIDDEN
 62
     7
370
    18
100
AcDbLine
 10
6.4833136333
 20
7.1909245072
 30
0.0
 11
6.4833136333
 21
4.0009245072
 31
0.0
  0
LINE
  5
110
330
1F
100
AcDbEntity
  8
0
  6
HIDDEN
 62
     7
370
    18
100
AcDbLine
 10
6.8633136333
 20
5.8009245072
 30
0.0
 11
6.7431001347
 21
5.6964245072
 31
0.0
  0
LINE
  5
111
330
1F
100
AcDbEntity
  8
0
  6
HIDDEN
 62
     7
370
    18
100
AcDbLine
 10
6.7431001347
 20
5.4954245072
 30
0.0
 11
6.8633136333
 21
5.3909245072
 31
0.0
  0
LINE
  5
112
330
1F
100
AcDbEntity
  8
0
  6
HIDDEN
 62
     7
370
    18
100
AcDbLine
 10
6.7431001347
 20
5.6964245072
 30
0.0
 11
6.6883136333
 21
5.6964245072
 31
0.0
  0
LINE
  5
113
330
1F
100
AcDbEntity
  8
0
  6
HIDDEN
 62
     7
370
    18
100
AcDbLine
 10
6.6883136333
 20
5.4954245072
 30
0.0
 11
6.7431001347
 21
5.4954245072
 31
0.0
  0
LINE
  5
114
330
1F
100
AcDbEntity
  8
0
  6
HIDDEN
 62
     7
370
    18
100
AcDbLine
 10
6.3633136333
 20
4.3709245072
 30
0.0
 11
6.6883136333
 21
4.3709245072
 31
0.0
  0
LINE
  5
115
330
1F
100
AcDbEntity
  8
0
  6
HIDDEN
 62
     7
370
    18
100
AcDbLine
 10
6.6883136333
 20
6.8209245072
 30
0.0
 11
6.3633136333
 21
6.8209245072
 31
0.0
  0
LINE
  5
116
330
1F
100
AcDbEntity
  8
0
  6
HIDDEN
 62
     7
370
    18
100
AcDbLine
 10
6.3633136333
 20
4.4522834911
 30
0.0
 11
6.4233136333
 21
4.4869245072
 31
0.0
  0
LINE
  5
117
330
1F
100
AcDbEntity
  8
0
  6
HIDDEN
 62
     7
370
    18
100
AcDbLine
 10
6.4233136333
 20
6.7049245072
 30
0.0
 11
6.3633136333
 21
6.7395655234
 31
0.0
  0
LINE
  5
118
330
1F
100
AcDbEntity
  8
0
  6
HIDDEN
 62
     7
370
    18
100
AcDbLine
 10
6.4233136333
 20
4.4869245072
 30
0.0
 11
6.6333136333
 21
4.4869245072
 31
0.0
  0
LINE
  5
119
330
1F
100
AcDbEntity
  8
0
  6
HIDDEN
 62
     7
370
    18
100
AcDbLine
 10
6.6333136333
 20
6.7049245072
 30
0.0
 11
6.4233136333
 21
6.7049245072
 31
0.0
  0
LINE
  5
11A
330
1F
100
AcDbEntity
  8
0
  6
HIDDEN
 62
     7
370
    18
100
AcDbLine
 10
6.8633136333
 20
5.8009245072
 30
0.0
 11
6.7431001347
 21
5.6964245072
 31
0.0
  0
LINE
  5
11B
330
1F
100
AcDbEntity
  8
0
  6
HIDDEN
 62
     7
370
    18
100
AcDbLine
 10
6.7431001347
 20
5.4954245072
 30
0.0
 11
6.8633136333
 21
5.3909245072
 31
0.0
  0
LINE
  5
11C
330
1F
100
AcDbEntity
  8
0
  6
HIDDEN
 62
     7
370
    18
100
AcDbLine
 10
6.7431001347
 20
5.6964245072
 30
0.0
 11
6.6883136333
 21
5.6964245072
 31
0.0
  0
LINE
  5
11D
330
1F
100
AcDbEntity
  8
0
  6
HIDDEN
 62
     7
370
    18
100
AcDbLine
 10
6.6883136333
 20
5.4954245072
 30
0.0
 11
6.7431001347
 21
5.4954245072
 31
0.0
  0
DIMENSION
  5
11E
330
1F
100
AcDbEntity
  8
0
  6
Continuous
 62
     7
370
    18
100
AcDbDimension
  2
_D
 10
6.8633136333
 20
8.008326082
 30
0.0
 11
8.1052406891
 21
8.008326082
 31
0.0
 70
   160
  1
<>
 71
     2
 42
-1.0
  3
SLDDIMSTYLE0
100
AcDbAlignedDimension
 13
6.4833136333
 23
7.2209245072
 33
0.0
 14
6.8633136333
 24
7.2209245072
 34
0.0
100
AcDbRotatedDimension
  0
DIMENSION
  5
134
330
1F
100
AcDbEntity
  8
0
  6
Continuous
 62
     7
370
    18
100
AcDbDimension
  2
_D_1
 10
3.4595636333
 20
8.008326082
 30
0.0
 11
4.9714386333
 21
8.008326082
 31
0.0
 70
   160
  1
<>
 71
     2
 42
-1.0
  3
SLDDIMSTYLE1
100
AcDbAlignedDimension
 13
6.4833136333
 23
7.2209245072
 33
0.0
 14
3.4595636333
 24
6.9510829683
 34
0.0
100
AcDbRotatedDimension
  0
DIMENSION
  5
149
330
1F
100
AcDbEntity
  8
0
  6
Continuous
 62
     7
370
    18
100
AcDbDimension
  2
_D_2
 10
2.2339653101
 20
4.2407660462
 30
0.0
 11
2.2339653101
 21
5.5959245072
 31
0.0
 70
   160
  1
<>
 71
     2
 42
-1.0
  3
SLDDIMSTYLE2
100
AcDbAlignedDimension
 13
3.4595636333
 23
6.9510829683
 33
0.0
 14
3.4595636333
 24
4.2407660462
 34
0.0
 50
90.0
100
AcDbRotatedDimension
  0
DIMENSION
  5
15E
330
1F
100
AcDbEntity
  8
0
  6
Continuous
 62
     7
370
    18
100
AcDbDimension
  2
_D_3
 10
6.8633136333
 20
5.5920245072
 30
0.0
 11
8.9014666737
 21
5.1018508374
 31
0.0
 70
   162
  1
<> LOUVER\PANGLE
 71
     1
 42
-1.0
  3
SLDDIMSTYLE3
100
AcDb2LineAngularDimension
 13
6.7431001347
 23
5.6964245072
 33
0.0
 14
6.6883136333
 24
5.6964245072
 34
0.0
 15
6.6333136333
 25
5.7248150692
 35
0.0
 16
8.5361928352
 26
4.3395299161
 36
0.0
  0
MTEXT
  5
16C
330
1F
100
AcDbEntity
  8
0
  6
Continuous
 62
     7
370
     0
100
AcDbMText
 10
5.615564629
 20
3.0512412742
 30
0.0
 40
0.25
 41
0.0
 71
     2
 72
     1
  1
5X 1/2" NPT
  7
SLDTEXTSTYLE0
 73
     1
 44
1.0
  0
MTEXT
  5
16D
330
1F
100
AcDbEntity
  8
0
  6
Continuous
 62
     7
370
     0
100
AcDbMText
 10
5.6252867496
 20
2.7225011252
 30
0.0
 40
0.25
 41
0.0
 71
     2
 72
     1
  1
CONDUIT ENTRIES
  7
SLDTEXTSTYLE0
 73
     1
 44
1.0
  0
LEADER
  5
16F
330
1F
100
AcDbEntity
  8
0
  6
Continuous
 62
     7
370
     0
100
AcDbLeader
  3
SLDDIMSTYLE4
 76
     3
 10
4.2016323449
 20
4.4678652705
 30
0.0
 10
4.1993993673
 20
2.9343791027
 30
0.0
 10
4.6993993673
 20
2.9343791027
 30
0.0
  0
LINE
  5
170
330
1F
100
AcDbEntity
  8
0
  6
Continuous
 62
     7
370
    25
100
AcDbLine
 10
18.221069833
 20
4.6159245072
 30
0.0
 11
19.751069833
 21
4.6159245072
 31
0.0
  0
LINE
  5
171
330
1F
100
AcDbEntity
  8
0
  6
Continuous
 62
     7
370
    25
100
AcDbLine
 10
19.751069833
 20
5.2259245072
 30
0.0
 11
18.144146756
 21
5.2259245072
 31
0.0
  0
SPLINE
  5
172
330
1F
100
AcDbEntity
  8
0
  6
Continuous
 62
     7
370
    25
100
AcDbSpline
210
0.0
220
0.0
230
1.0
 70
     8
 71
     3
 72
    25
 73
    21
 74
     0
 42
0.00000001
 43
0.00000001
 40
0.0
 40
0.0
 40
0.0
 40
0.0
 40
0.0600333226356736
 40
0.1129709835186546
 40
0.1659086444016358
 40
0.2188463052846169
 40
0.2717839661675974
 40
0.3247216270505774
 40
0.3776592879335582
 40
0.4305969488165383
 40
0.4835346096995181
 40
0.5364722705824977
 40
0.5894099314654772
 40
0.6423475923484568
 40
0.6952852532314366
 40
0.7482229141144168
 40
0.8011605749973967
 40
0.8540982358803766
 40
0.9070358967633569
 40
1.0
 40
1.0
 40
1.0
 40
1.0
 10
16.15554612740725
 20
5.904524507240722
 30
0.0
 10
16.15947595309597
 20
5.904311703595951
 30
0.0
 10
16.16687111720851
 20
5.903911248715385
 30
0.0
 10
16.17736379850281
 20
5.900878606232452
 30
0.0
 10
16.18680736662214
 20
5.896483596127251
 30
0.0
 10
16.19538833112399
 20
5.890551373629012
 30
0.0
 10
16.20287049433489
 20
5.883290134454522
 30
0.0
 10
16.20904736021992
 20
5.874888209175011
 30
0.0
 10
16.21374859669416
 20
5.865580534405165
 30
0.0
 10
16.21684452802141
 20
5.855622972305364
 30
0.0
 10
16.21824976694295
 20
5.845290390461265
 30
0.0
 10
16.21792555338211
 20
5.834867733667468
 30
0.0
 10
16.21588083357202
 20
5.824642415837685
 30
0.0
 10
16.21217198940956
 20
5.814896735435267
 30
0.0
 10
16.20690136888109
 20
5.805898467437109
 30
0.0
 10
16.20021414500264
 20
5.797899622483791
 30
0.0
 10
16.19229549888932
 20
5.791106538954226
 30
0.0
 10
16.18336108181858
 20
5.785759875643697
 30
0.0
 10
16.17122450468562
 20
5.780812234258397
 30
0.0
 10
16.16164798825502
 20
5.780025677159792
 30
0.0
 10
16.15554612740725
 20
5.779524507240722
 30
0.0
  0
ARC
  5
173
330
1F
100
AcDbEntity
  8
0
  6
Continuous
 62
     7
370
    25
100
AcDbCircle
 10
13.1530461274
 20
4.0009245072
 30
0.0
 40
0.0299999999999998
100
AcDbArc
 50
180.0
 51
270.0
  0
LINE
  5
174
330
1F
100
AcDbEntity
  8
0
  6
Continuous
 62
     7
370
    25
100
AcDbLine
 10
13.1230461274
 20
4.0009245072
 30
0.0
 11
13.1230461274
 21
7.1909245072
 31
0.0
  0
ARC
  5
175
330
1F
100
AcDbEntity
  8
0
  6
Continuous
 62
     7
370
    25
100
AcDbCircle
 10
13.1530461274
 20
7.1909245072
 30
0.0
 40
0.0300000000000002
100
AcDbArc
 50
90.0
 51
180.0
  0
LINE
  5
176
330
1F
100
AcDbEntity
  8
0
  6
Continuous
 62
     7
370
    25
100
AcDbLine
 10
13.1530461274
 20
7.2209245072
 30
0.0
 11
18.0930461274
 21
7.2209245072
 31
0.0
  0
ARC
  5
177
330
1F
100
AcDbEntity
  8
0
  6
Continuous
 62
     7
370
    25
100
AcDbCircle
 10
18.0930461274
 20
7.1909245072
 30
0.0
 40
0.0300000000000002
100
AcDbArc
 50
0.0
 51
90.0
  0
LINE
  5
178
330
1F
100
AcDbEntity
  8
0
  6
Continuous
 62
     7
370
    25
100
AcDbLine
 10
18.1230461274
 20
7.1909245072
 30
0.0
 11
18.1230461274
 21
4.0009245072
 31
0.0
  0
ARC
  5
179
330
1F
100
AcDbEntity
  8
0
  6
Continuous
 62
     7
370
    25
100
AcDbCircle
 10
18.0930461274
 20
4.0009245072
 30
0.0
 40
0.0299999999999994
100
AcDbArc
 50
270.0
 51
0.0
  0
LINE
  5
17A
330
1F
100
AcDbEntity
  8
0
  6
Continuous
 62
     7
370
    25
100
AcDbLine
 10
18.0930461274
 20
3.9709245072
 30
0.0
 11
13.1530461274
 21
3.9709245072
 31
0.0
  0
SPLINE
  5
17B
330
1F
100
AcDbEntity
  8
0
  6
Continuous
 62
     7
370
    25
100
AcDbSpline
210
0.0
220
0.0
230
1.0
 70
     8
 71
     3
 72
    20
 73
    16
 74
     0
 42
0.00000001
 43
0.00000001
 40
0.0
 40
0.0
 40
0.0
 40
0.0
 40
0.1220208336415365
 40
0.2292653365593426
 40
0.3365098394771496
 40
0.4437543423949574
 40
0.550998845312764
 40
0.6040432035165525
 40
0.6570875617203411
 40
0.7101319199241289
 40
0.7631762781279167
 40
0.8162206363317052
 40
0.869264994535493
 40
0.9223093527392806
 40
1.0
 40
1.0
 40
1.0
 40
1.0
 10
15.09054612740725
 20
6.154524507240722
 30
0.0
 10
15.08253646573344
 20
6.155418248276765
 30
0.0
 10
15.06748708666783
 20
6.157097501182276
 30
0.0
 10
15.04846285937859
 20
6.169302351844895
 30
0.0
 10
15.03500690720492
 20
6.185814135732304
 30
0.0
 10
15.02781169734203
 20
6.205978168682521
 30
0.0
 10
15.02772256770514
 20
6.223783719152026
 30
0.0
 10
15.03113253255703
 20
6.237329991962961
 30
0.0
 10
15.03531225382314
 20
6.246885278822313
 30
0.0
 10
15.04101607463009
 20
6.255614803793164
 30
0.0
 10
15.04808590864603
 20
6.263277923127441
 30
0.0
 10
15.05632655053206
 20
6.269675603072342
 30
0.0
 10
15.06551231826
 20
6.274581956575344
 30
0.0
 10
15.07691249686089
 20
6.27858372494679
 30
0.0
 10
15.08546419258871
 20
6.279173830707428
 30
0.0
 10
15.09054612740725
 20
6.279524507240721
 30
0.0
  0
LINE
  5
17C
330
1F
100
AcDbEntity
  8
0
  6
Continuous
 62
     7
370
    25
100
AcDbLine
 10
16.1555461274
 20
6.1545245072
 30
0.0
 11
15.0905461274
 21
6.1545245072
 31
0.0
  0
SPLINE
  5
17D
330
1F
100
AcDbEntity
  8
0
  6
Continuous
 62
     7
370
    25
100
AcDbSpline
210
0.0
220
0.0
230
1.0
 70
     8
 71
     3
 72
    25
 73
    21
 74
     0
 42
0.00000001
 43
0.00000001
 40
0.0
 40
0.0
 40
0.0
 40
0.0
 40
0.0600333226356733
 40
0.1129709835186542
 40
0.1659086444016353
 40
0.2188463052846173
 40
0.2717839661675978
 40
0.3247216270505769
 40
0.3776592879335567
 40
0.430596948816538
 40
0.4835346096995171
 40
0.5364722705824959
 40
0.589409931465476
 40
0.6423475923484563
 40
0.6952852532314371
 40
0.7482229141144167
 40
0.8011605749973969
 40
0.8540982358803773
 40
0.9070358967633572
 40
1.0
 40
1.0
 40
1.0
 40
1.0
 10
16.15554612740725
 20
6.279524507240721
 30
0.0
 10
16.15947595309597
 20
6.279311703595951
 30
0.0
 10
16.16687111720851
 20
6.278911248715385
 30
0.0
 10
16.17736379850281
 20
6.275878606232452
 30
0.0
 10
16.18680736662214
 20
6.271483596127251
 30
0.0
 10
16.19538833112399
 20
6.265551373629012
 30
0.0
 10
16.20287049433489
 20
6.258290134454522
 30
0.0
 10
16.20904736021992
 20
6.249888209175011
 30
0.0
 10
16.21374859669416
 20
6.240580534405165
 30
0.0
 10
16.21684452802141
 20
6.230622972305364
 30
0.0
 10
16.21824976694295
 20
6.220290390461265
 30
0.0
 10
16.21792555338211
 20
6.209867733667468
 30
0.0
 10
16.21588083357202
 20
6.199642415837686
 30
0.0
 10
16.21217198940956
 20
6.189896735435267
 30
0.0
 10
16.20690136888109
 20
6.180898467437109
 30
0.0
 10
16.20021414500264
 20
6.172899622483792
 30
0.0
 10
16.19229549888932
 20
6.166106538954227
 30
0.0
 10
16.18336108181858
 20
6.160759875643698
 30
0.0
 10
16.17122450468562
 20
6.155812234258398
 30
0.0
 10
16.16164798825502
 20
6.155025677159792
 30
0.0
 10
16.15554612740725
 20
6.154524507240722
 30
0.0
  0
LINE
  5
17E
330
1F
100
AcDbEntity
  8
0
  6
Continuous
 62
     7
370
    25
100
AcDbLine
 10
16.1555461274
 20
5.9670245072
 30
0.0
 11
15.0905461274
 21
5.9670245072
 31
0.0
  0
SPLINE
  5
17F
330
1F
100
AcDbEntity
  8
0
  6
Continuous
 62
     7
370
    25
100
AcDbSpline
210
0.0
220
0.0
230
1.0
 70
     8
 71
     3
 72
    25
 73
    21
 74
     0
 42
0.00000001
 43
0.00000001
 40
0.0
 40
0.0
 40
0.0
 40
0.0
 40
0.0600333226356724
 40
0.1129709835186533
 40
0.1659086444016344
 40
0.2188463052846155
 40
0.2717839661675965
 40
0.3247216270505768
 40
0.3776592879335587
 40
0.4305969488165386
 40
0.483534609699519
 40
0.5364722705824985
 40
0.5894099314654793
 40
0.6423475923484576
 40
0.6952852532314361
 40
0.7482229141144152
 40
0.8011605749973942
 40
0.8540982358803735
 40
0.907035896763353
 40
0.9999999999999999
 40
0.9999999999999999
 40
0.9999999999999999
 40
0.9999999999999999
 10
16.15554612740725
 20
6.092024507240721
 30
0.0
 10
16.15947595309597
 20
6.091811703595951
 30
0.0
 10
16.16687111720851
 20
6.091411248715385
 30
0.0
 10
16.17736379850281
 20
6.088378606232452
 30
0.0
 10
16.18680736662214
 20
6.083983596127252
 30
0.0
 10
16.19538833112399
 20
6.078051373629012
 30
0.0
 10
16.20287049433489
 20
6.070790134454523
 30
0.0
 10
16.20904736021992
 20
6.062388209175011
 30
0.0
 10
16.21374859669416
 20
6.053080534405165
 30
0.0
 10
16.21684452802141
 20
6.043122972305364
 30
0.0
 10
16.21824976694295
 20
6.032790390461265
 30
0.0
 10
16.21792555338211
 20
6.022367733667468
 30
0.0
 10
16.21588083357202
 20
6.012142415837685
 30
0.0
 10
16.21217198940956
 20
6.002396735435267
 30
0.0
 10
16.20690136888109
 20
5.993398467437109
 30
0.0
 10
16.20021414500264
 20
5.985399622483792
 30
0.0
 10
16.19229549888932
 20
5.978606538954226
 30
0.0
 10
16.18336108181858
 20
5.973259875643698
 30
0.0
 10
16.17122450468562
 20
5.968312234258399
 30
0.0
 10
16.16164798825502
 20
5.967525677159794
 30
0.0
 10
16.15554612740725
 20
5.967024507240722
 30
0.0
  0
LINE
  5
180
330
1F
100
AcDbEntity
  8
0
  6
Continuous
 62
     7
370
    25
100
AcDbLine
 10
15.0905461274
 20
6.0920245072
 30
0.0
 11
16.1555461274
 21
6.0920245072
 31
0.0
  0
SPLINE
  5
181
330
1F
100
AcDbEntity
  8
0
  6
Continuous
 62
     7
370
    25
100
AcDbSpline
210
0.0
220
0.0
230
1.0
 70
     8
 71
     3
 72
    20
 73
    16
 74
     0
 42
0.00000001
 43
0.00000001
 40
0.0
 40
0.0
 40
0.0
 40
0.0
 40
0.1220208336415365
 40
0.2292653365593429
 40
0.3365098394771504
 40
0.4437543423949579
 40
0.5509988453127644
 40
0.6040432035165528
 40
0.6570875617203407
 40
0.7101319199241288
 40
0.763176278127916
 40
0.8162206363317042
 40
0.8692649945354919
 40
0.9223093527392795
 40
1.0
 40
1.0
 40
1.0
 40
1.0
 10
15.09054612740725
 20
5.967024507240722
 30
0.0
 10
15.08253646573344
 20
5.967918248276765
 30
0.0
 10
15.06748708666783
 20
5.969597501182276
 30
0.0
 10
15.04846285937859
 20
5.981802351844896
 30
0.0
 10
15.03500690720492
 20
5.998314135732305
 30
0.0
 10
15.02781169734203
 20
6.018478168682522
 30
0.0
 10
15.02772256770514
 20
6.036283719152026
 30
0.0
 10
15.03113253255703
 20
6.049829991962962
 30
0.0
 10
15.03531225382314
 20
6.059385278822313
 30
0.0
 10
15.04101607463009
 20
6.068114803793164
 30
0.0
 10
15.04808590864603
 20
6.075777923127441
 30
0.0
 10
15.05632655053206
 20
6.082175603072343
 30
0.0
 10
15.06551231826
 20
6.087081956575345
 30
0.0
 10
15.07691249686089
 20
6.091083724946791
 30
0.0
 10
15.08546419258871
 20
6.091673830707429
 30
0.0
 10
15.09054612740725
 20
6.092024507240722
 30
0.0
  0
LINE
  5
182
330
1F
100
AcDbEntity
  8
0
  6
Continuous
 62
     7
370
    25
100
AcDbLine
 10
15.0905461274
 20
5.9045245072
 30
0.0
 11
16.1555461274
 21
5.9045245072
 31
0.0
  0
SPLINE
  5
183
330
1F
100
AcDbEntity
  8
0
  6
Continuous
 62
     7
370
    25
100
AcDbSpline
210
0.0
220
0.0
230
1.0
 70
     8
 71
     3
 72
    20
 73
    16
 74
     0
 42
0.00000001
 43
0.00000001
 40
0.0
 40
0.0
 40
0.0
 40
0.0
 40
0.122020833641536
 40
0.2292653365593426
 40
0.3365098394771495
 40
0.4437543423949558
 40
0.550998845312763
 40
0.6040432035165518
 40
0.6570875617203404
 40
0.7101319199241286
 40
0.7631762781279162
 40
0.8162206363317037
 40
0.8692649945354916
 40
0.9223093527392789
 40
1.0
 40
1.0
 40
1.0
 40
1.0
 10
15.09054612740725
 20
5.779524507240722
 30
0.0
 10
15.08253646573344
 20
5.780418248276765
 30
0.0
 10
15.06748708666783
 20
5.782097501182274
 30
0.0
 10
15.04846285937859
 20
5.794302351844895
 30
0.0
 10
15.03500690720492
 20
5.810814135732304
 30
0.0
 10
15.02781169734203
 20
5.830978168682521
 30
0.0
 10
15.02772256770514
 20
5.848783719152024
 30
0.0
 10
15.03113253255703
 20
5.862329991962961
 30
0.0
 10
15.03531225382314
 20
5.871885278822313
 30
0.0
 10
15.04101607463009
 20
5.880614803793162
 30
0.0
 10
15.04808590864603
 20
5.888277923127441
 30
0.0
 10
15.05632655053206
 20
5.894675603072342
 30
0.0
 10
15.06551231826
 20
5.899581956575344
 30
0.0
 10
15.07691249686089
 20
5.903583724946791
 30
0.0
 10
15.08546419258871
 20
5.904173830707429
 30
0.0
 10
15.09054612740725
 20
5.904524507240722
 30
0.0
  0
LINE
  5
184
330
1F
100
AcDbEntity
  8
0
  6
Continuous
 62
     7
370
    25
100
AcDbLine
 10
16.1555461274
 20
5.7795245072
 30
0.0
 11
15.0905461274
 21
5.7795245072
 31
0.0
  0
LINE
  5
185
330
1F
100
AcDbEntity
  8
0
  6
Continuous
 62
     7
370
    25
100
AcDbLine
 10
16.1555461274
 20
5.5920245072
 30
0.0
 11
15.0905461274
 21
5.5920245072
 31
0.0
  0
SPLINE
  5
186
330
1F
100
AcDbEntity
  8
0
  6
Continuous
 62
     7
370
    25
100
AcDbSpline
210
0.0
220
0.0
230
1.0
 70
     8
 71
     3
 72
    25
 73
    21
 74
     0
 42
0.00000001
 43
0.00000001
 40
0.0
 40
0.0
 40
0.0
 40
0.0
 40
0.0600333226356726
 40
0.1129709835186537
 40
0.1659086444016352
 40
0.2188463052846155
 40
0.271783966167596
 40
0.3247216270505767
 40
0.377659287933557
 40
0.4305969488165369
 40
0.4835346096995166
 40
0.5364722705824968
 40
0.589409931465477
 40
0.6423475923484573
 40
0.6952852532314374
 40
0.7482229141144181
 40
0.8011605749973981
 40
0.8540982358803778
 40
0.9070358967633575
 40
1.0
 40
1.0
 40
1.0
 40
1.0
 10
16.15554612740725
 20
5.717024507240722
 30
0.0
 10
16.15947595309597
 20
5.716811703595952
 30
0.0
 10
16.16687111720851
 20
5.716411248715384
 30
0.0
 10
16.17736379850281
 20
5.713378606232452
 30
0.0
 10
16.18680736662214
 20
5.708983596127252
 30
0.0
 10
16.19538833112399
 20
5.703051373629013
 30
0.0
 10
16.20287049433489
 20
5.695790134454523
 30
0.0
 10
16.20904736021992
 20
5.687388209175012
 30
0.0
 10
16.21374859669416
 20
5.678080534405165
 30
0.0
 10
16.21684452802141
 20
5.668122972305365
 30
0.0
 10
16.21824976694295
 20
5.657790390461265
 30
0.0
 10
16.21792555338211
 20
5.647367733667469
 30
0.0
 10
16.21588083357202
 20
5.637142415837686
 30
0.0
 10
16.21217198940956
 20
5.627396735435267
 30
0.0
 10
16.20690136888109
 20
5.618398467437109
 30
0.0
 10
16.20021414500264
 20
5.610399622483792
 30
0.0
 10
16.19229549888932
 20
5.603606538954226
 30
0.0
 10
16.18336108181858
 20
5.598259875643698
 30
0.0
 10
16.17122450468562
 20
5.593312234258399
 30
0.0
 10
16.16164798825502
 20
5.592525677159793
 30
0.0
 10
16.15554612740725
 20
5.592024507240722
 30
0.0
  0
LINE
  5
187
330
1F
100
AcDbEntity
  8
0
  6
Continuous
 62
     7
370
    25
100
AcDbLine
 10
15.0905461274
 20
5.7170245072
 30
0.0
 11
16.1555461274
 21
5.7170245072
 31
0.0
  0
SPLINE
  5
188
330
1F
100
AcDbEntity
  8
0
  6
Continuous
 62
     7
370
    25
100
AcDbSpline
210
0.0
220
0.0
230
1.0
 70
     8
 71
     3
 72
    20
 73
    16
 74
     0
 42
0.00000001
 43
0.00000001
 40
0.0
 40
0.0
 40
0.0
 40
0.0
 40
0.1220208336415362
 40
0.2292653365593431
 40
0.3365098394771499
 40
0.4437543423949562
 40
0.5509988453127632
 40
0.6040432035165519
 40
0.6570875617203398
 40
0.7101319199241279
 40
0.7631762781279162
 40
0.8162206363317048
 40
0.8692649945354932
 40
0.9223093527392816
 40
1.0
 40
1.0
 40
1.0
 40
1.0
 10
15.09054612740725
 20
5.592024507240722
 30
0.0
 10
15.08253646573344
 20
5.592918248276765
 30
0.0
 10
15.06748708666783
 20
5.594597501182276
 30
0.0
 10
15.04846285937859
 20
5.606802351844896
 30
0.0
 10
15.03500690720492
 20
5.623314135732305
 30
0.0
 10
15.02781169734203
 20
5.643478168682522
 30
0.0
 10
15.02772256770514
 20
5.661283719152026
 30
0.0
 10
15.03113253255703
 20
5.674829991962962
 30
0.0
 10
15.03531225382314
 20
5.684385278822313
 30
0.0
 10
15.04101607463009
 20
5.693114803793163
 30
0.0
 10
15.04808590864603
 20
5.700777923127442
 30
0.0
 10
15.05632655053206
 20
5.707175603072343
 30
0.0
 10
15.06551231826
 20
5.712081956575345
 30
0.0
 10
15.07691249686089
 20
5.716083724946791
 30
0.0
 10
15.08546419258871
 20
5.716673830707429
 30
0.0
 10
15.09054612740725
 20
5.717024507240722
 30
0.0
  0
LINE
  5
189
330
1F
100
AcDbEntity
  8
0
  6
Continuous
 62
     7
370
    25
100
AcDbLine
 10
15.0905461274
 20
5.5295245072
 30
0.0
 11
16.1555461274
 21
5.5295245072
 31
0.0
  0
SPLINE
  5
18A
330
1F
100
AcDbEntity
  8
0
  6
Continuous
 62
     7
370
    25
100
AcDbSpline
210
0.0
220
0.0
230
1.0
 70
     8
 71
     3
 72
    20
 73
    16
 74
     0
 42
0.00000001
 43
0.00000001
 40
0.0
 40
0.0
 40
0.0
 40
0.0
 40
0.1220208336415356
 40
0.2292653365593423
 40
0.336509839477149
 40
0.443754342394956
 40
0.5509988453127622
 40
0.6040432035165512
 40
0.6570875617203403
 40
0.7101319199241279
 40
0.7631762781279157
 40
0.8162206363317028
 40
0.8692649945354902
 40
0.9223093527392775
 40
1.0
 40
1.0
 40
1.0
 40
1.0
 10
15.09054612740725
 20
5.404524507240723
 30
0.0
 10
15.08253646573344
 20
5.405418248276765
 30
0.0
 10
15.06748708666783
 20
5.407097501182276
 30
0.0
 10
15.04846285937859
 20
5.419302351844896
 30
0.0
 10
15.03500690720492
 20
5.435814135732305
 30
0.0
 10
15.02781169734203
 20
5.455978168682522
 30
0.0
 10
15.02772256770514
 20
5.473783719152027
 30
0.0
 10
15.03113253255702
 20
5.487329991962962
 30
0.0
 10
15.03531225382314
 20
5.496885278822313
 30
0.0
 10
15.04101607463009
 20
5.505614803793164
 30
0.0
 10
15.04808590864603
 20
5.513277923127442
 30
0.0
 10
15.05632655053206
 20
5.519675603072343
 30
0.0
 10
15.06551231826
 20
5.524581956575346
 30
0.0
 10
15.07691249686089
 20
5.528583724946792
 30
0.0
 10
15.08546419258871
 20
5.52917383070743
 30
0.0
 10
15.09054612740725
 20
5.529524507240723
 30
0.0
  0
LINE
  5
18B
330
1F
100
AcDbEntity
  8
0
  6
Continuous
 62
     7
370
    25
100
AcDbLine
 10
16.1555461274
 20
5.4045245072
 30
0.0
 11
15.0905461274
 21
5.4045245072
 31
0.0
  0
SPLINE
  5
18C
330
1F
100
AcDbEntity
  8
0
  6
Continuous
 62
     7
370
    25
100
AcDbSpline
210
0.0
220
0.0
230
1.0
 70
     8
 71
     3
 72
    25
 73
    21
 74
     0
 42
0.00000001
 43
0.00000001
 40
0.0
 40
0.0
 40
0.0
 40
0.0
 40
0.0600333226356737
 40
0.1129709835186543
 40
0.1659086444016352
 40
0.2188463052846163
 40
0.2717839661675963
 40
0.3247216270505761
 40
0.3776592879335565
 40
0.4305969488165365
 40
0.4835346096995169
 40
0.5364722705824965
 40
0.5894099314654774
 40
0.6423475923484574
 40
0.6952852532314379
 40
0.7482229141144175
 40
0.8011605749973978
 40
0.8540982358803776
 40
0.9070358967633572
 40
1.0
 40
1.0
 40
1.0
 40
1.0
 10
16.15554612740725
 20
5.529524507240722
 30
0.0
 10
16.15947595309597
 20
5.529311703595951
 30
0.0
 10
16.16687111720851
 20
5.528911248715386
 30
0.0
 10
16.17736379850281
 20
5.525878606232453
 30
0.0
 10
16.18680736662214
 20
5.521483596127252
 30
0.0
 10
16.19538833112399
 20
5.515551373629013
 30
0.0
 10
16.20287049433489
 20
5.508290134454523
 30
0.0
 10
16.20904736021992
 20
5.499888209175012
 30
0.0
 10
16.21374859669416
 20
5.490580534405166
 30
0.0
 10
16.21684452802141
 20
5.480622972305365
 30
0.0
 10
16.21824976694295
 20
5.470290390461265
 30
0.0
 10
16.21792555338211
 20
5.459867733667469
 30
0.0
 10
16.21588083357202
 20
5.449642415837687
 30
0.0
 10
16.21217198940956
 20
5.439896735435267
 30
0.0
 10
16.20690136888109
 20
5.43089846743711
 30
0.0
 10
16.20021414500264
 20
5.422899622483792
 30
0.0
 10
16.19229549888932
 20
5.416106538954227
 30
0.0
 10
16.18336108181858
 20
5.410759875643699
 30
0.0
 10
16.17122450468562
 20
5.405812234258399
 30
0.0
 10
16.16164798825502
 20
5.405025677159793
 30
0.0
 10
16.15554612740725
 20
5.404524507240723
 30
0.0
  0
LINE
  5
18D
330
1F
100
AcDbEntity
  8
0
  6
Continuous
 62
     7
370
    25
100
AcDbLine
 10
16.1555461274
 20
5.0295245072
 30
0.0
 11
15.0905461274
 21
5.0295245072
 31
0.0
  0
SPLINE
  5
18E
330
1F
100
AcDbEntity
  8
0
  6
Continuous
 62
     7
370
    25
100
AcDbSpline
210
0.0
220
0.0
230
1.0
 70
     8
 71
     3
 72
    25
 73
    21
 74
     0
 42
0.00000001
 43
0.00000001
 40
0.0
 40
0.0
 40
0.0
 40
0.0
 40
0.0600333226356728
 40
0.1129709835186543
 40
0.165908644401635
 40
0.2188463052846157
 40
0.2717839661675958
 40
0.3247216270505763
 40
0.3776592879335575
 40
0.4305969488165377
 40
0.4835346096995176
 40
0.5364722705824974
 40
0.5894099314654778
 40
0.6423475923484577
 40
0.6952852532314373
 40
0.7482229141144175
 40
0.8011605749973977
 40
0.8540982358803775
 40
0.9070358967633577
 40
1.0
 40
1.0
 40
1.0
 40
1.0
 10
16.15554612740725
 20
5.154524507240723
 30
0.0
 10
16.15947595309597
 20
5.154311703595952
 30
0.0
 10
16.16687111720851
 20
5.153911248715387
 30
0.0
 10
16.17736379850281
 20
5.150878606232453
 30
0.0
 10
16.18680736662214
 20
5.146483596127253
 30
0.0
 10
16.19538833112399
 20
5.140551373629012
 30
0.0
 10
16.20287049433489
 20
5.133290134454524
 30
0.0
 10
16.20904736021992
 20
5.124888209175013
 30
0.0
 10
16.21374859669416
 20
5.115580534405166
 30
0.0
 10
16.21684452802141
 20
5.105622972305364
 30
0.0
 10
16.21824976694295
 20
5.095290390461265
 30
0.0
 10
16.21792555338211
 20
5.084867733667469
 30
0.0
 10
16.21588083357202
 20
5.074642415837687
 30
0.0
 10
16.21217198940956
 20
5.064896735435267
 30
0.0
 10
16.20690136888109
 20
5.05589846743711
 30
0.0
 10
16.20021414500264
 20
5.047899622483791
 30
0.0
 10
16.19229549888932
 20
5.041106538954227
 30
0.0
 10
16.18336108181858
 20
5.035759875643698
 30
0.0
 10
16.17122450468562
 20
5.030812234258399
 30
0.0
 10
16.16164798825502
 20
5.030025677159793
 30
0.0
 10
16.15554612740725
 20
5.029524507240723
 30
0.0
  0
LINE
  5
18F
330
1F
100
AcDbEntity
  8
0
  6
Continuous
 62
     7
370
    25
100
AcDbLine
 10
15.0905461274
 20
5.1545245072
 30
0.0
 11
16.1555461274
 21
5.1545245072
 31
0.0
  0
SPLINE
  5
190
330
1F
100
AcDbEntity
  8
0
  6
Continuous
 62
     7
370
    25
100
AcDbSpline
210
0.0
220
0.0
230
1.0
 70
     8
 71
     3
 72
    20
 73
    16
 74
     0
 42
0.00000001
 43
0.00000001
 40
0.0
 40
0.0
 40
0.0
 40
0.0
 40
0.1220208336415364
 40
0.2292653365593435
 40
0.3365098394771502
 40
0.4437543423949571
 40
0.5509988453127639
 40
0.6040432035165533
 40
0.6570875617203412
 40
0.7101319199241293
 40
0.7631762781279172
 40
0.8162206363317052
 40
0.8692649945354931
 40
0.9223093527392808
 40
1.0
 40
1.0
 40
1.0
 40
1.0
 10
15.09054612740725
 20
5.029524507240723
 30
0.0
 10
15.08253646573344
 20
5.030418248276765
 30
0.0
 10
15.06748708666783
 20
5.032097501182276
 30
0.0
 10
15.04846285937859
 20
5.044302351844896
 30
0.0
 10
15.03500690720492
 20
5.060814135732304
 30
0.0
 10
15.02781169734203
 20
5.080978168682522
 30
0.0
 10
15.02772256770514
 20
5.098783719152026
 30
0.0
 10
15.03113253255703
 20
5.112329991962961
 30
0.0
 10
15.03531225382314
 20
5.121885278822314
 30
0.0
 10
15.04101607463009
 20
5.130614803793164
 30
0.0
 10
15.04808590864603
 20
5.138277923127442
 30
0.0
 10
15.05632655053206
 20
5.144675603072342
 30
0.0
 10
15.06551231826
 20
5.149581956575346
 30
0.0
 10
15.07691249686089
 20
5.153583724946792
 30
0.0
 10
15.08546419258871
 20
5.15417383070743
 30
0.0
 10
15.09054612740725
 20
5.154524507240723
 30
0.0
  0
LINE
  5
191
330
1F
100
AcDbEntity
  8
0
  6
Continuous
 62
     7
370
    25
100
AcDbLine
 10
16.1555461274
 20
5.2170245072
 30
0.0
 11
15.0905461274
 21
5.2170245072
 31
0.0
  0
SPLINE
  5
192
330
1F
100
AcDbEntity
  8
0
  6
Continuous
 62
     7
370
    25
100
AcDbSpline
210
0.0
220
0.0
230
1.0
 70
     8
 71
     3
 72
    25
 73
    21
 74
     0
 42
0.00000001
 43
0.00000001
 40
0.0
 40
0.0
 40
0.0
 40
0.0
 40
0.0600333226356728
 40
0.1129709835186538
 40
0.1659086444016351
 40
0.2188463052846163
 40
0.2717839661675969
 40
0.3247216270505771
 40
0.3776592879335576
 40
0.4305969488165377
 40
0.4835346096995168
 40
0.5364722705824971
 40
0.5894099314654775
 40
0.6423475923484575
 40
0.6952852532314372
 40
0.7482229141144179
 40
0.8011605749973988
 40
0.8540982358803787
 40
0.907035896763359
 40
1.0
 40
1.0
 40
1.0
 40
1.0
 10
16.15554612740725
 20
5.342024507240722
 30
0.0
 10
16.15947595309597
 20
5.341811703595951
 30
0.0
 10
16.16687111720851
 20
5.341411248715385
 30
0.0
 10
16.17736379850281
 20
5.338378606232452
 30
0.0
 10
16.18680736662214
 20
5.333983596127252
 30
0.0
 10
16.19538833112399
 20
5.328051373629012
 30
0.0
 10
16.20287049433489
 20
5.320790134454523
 30
0.0
 10
16.20904736021992
 20
5.312388209175011
 30
0.0
 10
16.21374859669416
 20
5.303080534405166
 30
0.0
 10
16.21684452802141
 20
5.293122972305365
 30
0.0
 10
16.21824976694295
 20
5.282790390461265
 30
0.0
 10
16.21792555338211
 20
5.272367733667469
 30
0.0
 10
16.21588083357202
 20
5.262142415837686
 30
0.0
 10
16.21217198940956
 20
5.252396735435267
 30
0.0
 10
16.20690136888109
 20
5.24339846743711
 30
0.0
 10
16.20021414500264
 20
5.235399622483791
 30
0.0
 10
16.19229549888932
 20
5.228606538954227
 30
0.0
 10
16.18336108181858
 20
5.223259875643698
 30
0.0
 10
16.17122450468562
 20
5.218312234258399
 30
0.0
 10
16.16164798825502
 20
5.217525677159793
 30
0.0
 10
16.15554612740725
 20
5.217024507240723
 30
0.0
  0
LINE
  5
193
330
1F
100
AcDbEntity
  8
0
  6
Continuous
 62
     7
370
    25
100
AcDbLine
 10
15.0905461274
 20
5.3420245072
 30
0.0
 11
16.1555461274
 21
5.3420245072
 31
0.0
  0
SPLINE
  5
194
330
1F
100
AcDbEntity
  8
0
  6
Continuous
 62
     7
370
    25
100
AcDbSpline
210
0.0
220
0.0
230
1.0
 70
     8
 71
     3
 72
    20
 73
    16
 74
     0
 42
0.00000001
 43
0.00000001
 40
0.0
 40
0.0
 40
0.0
 40
0.0
 40
0.1220208336415366
 40
0.2292653365593436
 40
0.3365098394771506
 40
0.4437543423949581
 40
0.5509988453127631
 40
0.6040432035165515
 40
0.6570875617203394
 40
0.7101319199241278
 40
0.7631762781279159
 40
0.8162206363317032
 40
0.8692649945354908
 40
0.9223093527392785
 40
1.0
 40
1.0
 40
1.0
 40
1.0
 10
15.09054612740725
 20
5.217024507240723
 30
0.0
 10
15.08253646573344
 20
5.217918248276765
 30
0.0
 10
15.06748708666783
 20
5.219597501182276
 30
0.0
 10
15.04846285937859
 20
5.231802351844896
 30
0.0
 10
15.03500690720492
 20
5.248314135732304
 30
0.0
 10
15.02781169734203
 20
5.268478168682522
 30
0.0
 10
15.02772256770514
 20
5.286283719152025
 30
0.0
 10
15.03113253255703
 20
5.299829991962961
 30
0.0
 10
15.03531225382314
 20
5.309385278822313
 30
0.0
 10
15.04101607463009
 20
5.318114803793163
 30
0.0
 10
15.04808590864603
 20
5.325777923127442
 30
0.0
 10
15.05632655053206
 20
5.332175603072343
 30
0.0
 10
15.06551231826
 20
5.337081956575345
 30
0.0
 10
15.07691249686089
 20
5.34108372494679
 30
0.0
 10
15.08546419258871
 20
5.34167383070743
 30
0.0
 10
15.09054612740725
 20
5.342024507240722
 30
0.0
  0
LINE
  5
195
330
1F
100
AcDbEntity
  8
0
  6
Continuous
 62
     7
370
    25
100
AcDbLine
 10
15.0905461274
 20
4.9670245072
 30
0.0
 11
16.1555461274
 21
4.9670245072
 31
0.0
  0
SPLINE
  5
196
330
1F
100
AcDbEntity
  8
0
  6
Continuous
 62
     7
370
    25
100
AcDbSpline
210
0.0
220
0.0
230
1.0
 70
     8
 71
     3
 72
    20
 73
    16
 74
     0
 42
0.00000001
 43
0.00000001
 40
0.0
 40
0.0
 40
0.0
 40
0.0
 40
0.1220208336415362
 40
0.2292653365593436
 40
0.33650983947715
 40
0.443754342394957
 40
0.5509988453127636
 40
0.6040432035165518
 40
0.6570875617203402
 40
0.7101319199241279
 40
0.7631762781279159
 40
0.8162206363317039
 40
0.869264994535492
 40
0.9223093527392807
 40
1.0
 40
1.0
 40
1.0
 40
1.0
 10
15.09054612740725
 20
4.842024507240722
 30
0.0
 10
15.08253646573344
 20
4.842918248276765
 30
0.0
 10
15.06748708666783
 20
4.844597501182275
 30
0.0
 10
15.04846285937859
 20
4.856802351844896
 30
0.0
 10
15.03500690720492
 20
4.873314135732305
 30
0.0
 10
15.02781169734203
 20
4.893478168682522
 30
0.0
 10
15.02772256770514
 20
4.911283719152026
 30
0.0
 10
15.03113253255703
 20
4.924829991962961
 30
0.0
 10
15.03531225382314
 20
4.934385278822313
 30
0.0
 10
15.04101607463009
 20
4.943114803793164
 30
0.0
 10
15.04808590864603
 20
4.950777923127442
 30
0.0
 10
15.05632655053206
 20
4.957175603072342
 30
0.0
 10
15.06551231826
 20
4.962081956575345
 30
0.0
 10
15.07691249686089
 20
4.966083724946791
 30
0.0
 10
15.08546419258871
 20
4.96667383070743
 30
0.0
 10
15.09054612740725
 20
4.967024507240722
 30
0.0
  0
LINE
  5
197
330
1F
100
AcDbEntity
  8
0
  6
Continuous
 62
     7
370
    25
100
AcDbLine
 10
16.1555461274
 20
4.8420245072
 30
0.0
 11
15.0905461274
 21
4.8420245072
 31
0.0
  0
SPLINE
  5
198
330
1F
100
AcDbEntity
  8
0
  6
Continuous
 62
     7
370
    25
100
AcDbSpline
210
0.0
220
0.0
230
1.0
 70
     8
 71
     3
 72
    25
 73
    21
 74
     0
 42
0.00000001
 43
0.00000001
 40
0.0
 40
0.0
 40
0.0
 40
0.0
 40
0.0600333226356734
 40
0.1129709835186552
 40
0.1659086444016361
 40
0.218846305284617
 40
0.271783966167598
 40
0.3247216270505788
 40
0.3776592879335593
 40
0.4305969488165407
 40
0.4835346096995212
 40
0.5364722705824995
 40
0.5894099314654783
 40
0.6423475923484574
 40
0.6952852532314366
 40
0.7482229141144163
 40
0.8011605749973961
 40
0.8540982358803756
 40
0.9070358967633549
 40
1.0
 40
1.0
 40
1.0
 40
1.0
 10
16.15554612740725
 20
4.967024507240722
 30
0.0
 10
16.15947595309597
 20
4.966811703595951
 30
0.0
 10
16.16687111720851
 20
4.966411248715385
 30
0.0
 10
16.17736379850281
 20
4.963378606232452
 30
0.0
 10
16.18680736662214
 20
4.958983596127252
 30
0.0
 10
16.19538833112399
 20
4.953051373629012
 30
0.0
 10
16.20287049433489
 20
4.945790134454523
 30
0.0
 10
16.20904736021992
 20
4.937388209175011
 30
0.0
 10
16.21374859669416
 20
4.928080534405164
 30
0.0
 10
16.21684452802141
 20
4.918122972305364
 30
0.0
 10
16.21824976694295
 20
4.907790390461265
 30
0.0
 10
16.21792555338211
 20
4.897367733667469
 30
0.0
 10
16.21588083357202
 20
4.887142415837685
 30
0.0
 10
16.21217198940956
 20
4.877396735435267
 30
0.0
 10
16.20690136888109
 20
4.868398467437109
 30
0.0
 10
16.20021414500264
 20
4.860399622483792
 30
0.0
 10
16.19229549888932
 20
4.853606538954226
 30
0.0
 10
16.18336108181858
 20
4.848259875643698
 30
0.0
 10
16.17122450468562
 20
4.843312234258399
 30
0.0
 10
16.16164798825502
 20
4.842525677159793
 30
0.0
 10
16.15554612740725
 20
4.842024507240722
 30
0.0
  0
LINE
  5
199
330
1F
100
AcDbEntity
  8
0
  6
Continuous
 62
     7
370
    25
100
AcDbLine
 10
16.1555461274
 20
4.6545245072
 30
0.0
 11
15.0905461274
 21
4.6545245072
 31
0.0
  0
SPLINE
  5
19A
330
1F
100
AcDbEntity
  8
0
  6
Continuous
 62
     7
370
    25
100
AcDbSpline
210
0.0
220
0.0
230
1.0
 70
     8
 71
     3
 72
    25
 73
    21
 74
     0
 42
0.00000001
 43
0.00000001
 40
0.0
 40
0.0
 40
0.0
 40
0.0
 40
0.0600333226356726
 40
0.1129709835186536
 40
0.165908644401635
 40
0.2188463052846152
 40
0.2717839661675959
 40
0.3247216270505759
 40
0.3776592879335569
 40
0.4305969488165368
 40
0.4835346096995165
 40
0.5364722705824974
 40
0.5894099314654774
 40
0.6423475923484567
 40
0.6952852532314368
 40
0.7482229141144172
 40
0.8011605749973966
 40
0.8540982358803764
 40
0.9070358967633558
 40
1.0
 40
1.0
 40
1.0
 40
1.0
 10
16.15554612740725
 20
4.779524507240722
 30
0.0
 10
16.15947595309597
 20
4.779311703595951
 30
0.0
 10
16.16687111720851
 20
4.778911248715385
 30
0.0
 10
16.17736379850281
 20
4.775878606232452
 30
0.0
 10
16.18680736662214
 20
4.771483596127251
 30
0.0
 10
16.19538833112399
 20
4.765551373629012
 30
0.0
 10
16.20287049433489
 20
4.758290134454523
 30
0.0
 10
16.20904736021992
 20
4.74988820917501
 30
0.0
 10
16.21374859669416
 20
4.740580534405165
 30
0.0
 10
16.21684452802141
 20
4.730622972305364
 30
0.0
 10
16.21824976694295
 20
4.720290390461265
 30
0.0
 10
16.21792555338211
 20
4.709867733667469
 30
0.0
 10
16.21588083357202
 20
4.699642415837686
 30
0.0
 10
16.21217198940956
 20
4.689896735435267
 30
0.0
 10
16.20690136888109
 20
4.680898467437109
 30
0.0
 10
16.20021414500264
 20
4.672899622483791
 30
0.0
 10
16.19229549888932
 20
4.666106538954226
 30
0.0
 10
16.18336108181858
 20
4.660759875643697
 30
0.0
 10
16.17122450468562
 20
4.655812234258399
 30
0.0
 10
16.16164798825502
 20
4.655025677159793
 30
0.0
 10
16.15554612740725
 20
4.654524507240722
 30
0.0
  0
LINE
  5
19B
330
1F
100
AcDbEntity
  8
0
  6
Continuous
 62
     7
370
    25
100
AcDbLine
 10
15.0905461274
 20
4.7795245072
 30
0.0
 11
16.1555461274
 21
4.7795245072
 31
0.0
  0
SPLINE
  5
19C
330
1F
100
AcDbEntity
  8
0
  6
Continuous
 62
     7
370
    25
100
AcDbSpline
210
0.0
220
0.0
230
1.0
 70
     8
 71
     3
 72
    20
 73
    16
 74
     0
 42
0.00000001
 43
0.00000001
 40
0.0
 40
0.0
 40
0.0
 40
0.0
 40
0.1220208336415365
 40
0.2292653365593437
 40
0.336509839477151
 40
0.4437543423949576
 40
0.5509988453127639
 40
0.6040432035165529
 40
0.6570875617203422
 40
0.7101319199241304
 40
0.7631762781279184
 40
0.8162206363317055
 40
0.8692649945354928
 40
0.9223093527392806
 40
1.0
 40
1.0
 40
1.0
 40
1.0
 10
15.09054612740725
 20
4.654524507240722
 30
0.0
 10
15.08253646573344
 20
4.655418248276765
 30
0.0
 10
15.06748708666783
 20
4.657097501182275
 30
0.0
 10
15.04846285937859
 20
4.669302351844896
 30
0.0
 10
15.03500690720492
 20
4.685814135732304
 30
0.0
 10
15.02781169734203
 20
4.705978168682522
 30
0.0
 10
15.02772256770514
 20
4.723783719152026
 30
0.0
 10
15.03113253255703
 20
4.737329991962962
 30
0.0
 10
15.03531225382314
 20
4.746885278822313
 30
0.0
 10
15.04101607463009
 20
4.755614803793163
 30
0.0
 10
15.04808590864603
 20
4.763277923127442
 30
0.0
 10
15.05632655053206
 20
4.769675603072342
 30
0.0
 10
15.06551231826
 20
4.774581956575344
 30
0.0
 10
15.07691249686089
 20
4.778583724946791
 30
0.0
 10
15.08546419258871
 20
4.779173830707429
 30
0.0
 10
15.09054612740725
 20
4.779524507240722
 30
0.0
  0
LINE
  5
19D
330
1F
100
AcDbEntity
  8
0
  6
Continuous
 62
     7
370
    25
100
AcDbLine
 10
15.0905461274
 20
6.2795245072
 30
0.0
 11
16.1555461274
 21
6.2795245072
 31
0.0
  0
LINE
  5
19E
330
1F
100
AcDbEntity
  8
0
  6
Continuous
 62
     7
370
    25
100
AcDbLine
 10
13.9304617356
 20
5.6584245072
 30
0.0
 11
14.0026305192
 21
5.6584245072
 31
0.0
  0
LINE
  5
19F
330
1F
100
AcDbEntity
  8
0
  6
Continuous
 62
     7
370
    25
100
AcDbLine
 10
13.8943773438
 20
5.5959245072
 30
0.0
 11
13.9304617356
 21
5.6584245072
 31
0.0
  0
LINE
  5
1A0
330
1F
100
AcDbEntity
  8
0
  6
Continuous
 62
     7
370
    25
100
AcDbLine
 10
13.9304617356
 20
5.5334245072
 30
0.0
 11
13.8943773438
 21
5.5959245072
 31
0.0
  0
LINE
  5
1A1
330
1F
100
AcDbEntity
  8
0
  6
Continuous
 62
     7
370
    25
100
AcDbLine
 10
14.0026305192
 20
5.5334245072
 30
0.0
 11
13.9304617356
 21
5.5334245072
 31
0.0
  0
LINE
  5
1A2
330
1F
100
AcDbEntity
  8
0
  6
Continuous
 62
     7
370
    25
100
AcDbLine
 10
14.0387149111
 20
5.5959245072
 30
0.0
 11
14.0026305192
 21
5.5334245072
 31
0.0
  0
LINE
  5
1A3
330
1F
100
AcDbEntity
  8
0
  6
Continuous
 62
     7
370
    25
100
AcDbLine
 10
14.0026305192
 20
5.6584245072
 30
0.0
 11
14.0387149111
 21
5.5959245072
 31
0.0
  0
CIRCLE
  5
1A4
330
1F
100
AcDbEntity
  8
0
  6
Continuous
 62
     7
370
    25
100
AcDbCircle
 10
13.9665461274
 20
5.5959245072
 30
0.0
 40
0.2055000000000007
  0
ARC
  5
1A5
330
1F
100
AcDbEntity
  8
0
  6
Continuous
 62
     7
370
    25
100
AcDbCircle
 10
13.9665461274
 20
5.5959245072
 30
0.0
 40
0.0625000000000036
100
AcDbArc
 50
90.0
 51
150.0
  0
ARC
  5
1A6
330
1F
100
AcDbEntity
  8
0
  6
Continuous
 62
     7
370
    25
100
AcDbCircle
 10
13.9665461274
 20
5.5959245072
 30
0.0
 40
0.0625000000000065
100
AcDbArc
 50
330.0
 51
30.0
  0
ARC
  5
1A7
330
1F
100
AcDbEntity
  8
0
  6
Continuous
 62
     7
370
    25
100
AcDbCircle
 10
13.9665461274
 20
5.5959245072
 30
0.0
 40
0.0625000000000065
100
AcDbArc
 50
30.0
 51
90.0
  0
ARC
  5
1A8
330
1F
100
AcDbEntity
  8
0
  6
Continuous
 62
     7
370
    25
100
AcDbCircle
 10
13.9665461274
 20
5.5959245072
 30
0.0
 40
0.0624999999999998
100
AcDbArc
 50
270.0
 51
330.0
  0
ARC
  5
1A9
330
1F
100
AcDbEntity
  8
0
  6
Continuous
 62
     7
370
    25
100
AcDbCircle
 10
13.9665461274
 20
5.5959245072
 30
0.0
 40
0.0624999999999981
100
AcDbArc
 50
210.0
 51
270.0
  0
ARC
  5
1AA
330
1F
100
AcDbEntity
  8
0
  6
Continuous
 62
     7
370
    25
100
AcDbCircle
 10
13.9665461274
 20
5.5959245072
 30
0.0
 40
0.0624999999999981
100
AcDbArc
 50
150.0
 51
210.0
  0
LINE
  5
1AB
330
1F
100
AcDbEntity
  8
0
  6
Continuous
 62
     7
370
    25
100
AcDbLine
 10
17.2434617356
 20
5.6584245072
 30
0.0
 11
17.3156305192
 21
5.6584245072
 31
0.0
  0
LINE
  5
1AC
330
1F
100
AcDbEntity
  8
0
  6
Continuous
 62
     7
370
    25
100
AcDbLine
 10
17.2073773438
 20
5.5959245072
 30
0.0
 11
17.2434617356
 21
5.6584245072
 31
0.0
  0
LINE
  5
1AD
330
1F
100
AcDbEntity
  8
0
  6
Continuous
 62
     7
370
    25
100
AcDbLine
 10
17.2434617356
 20
5.5334245072
 30
0.0
 11
17.2073773438
 21
5.5959245072
 31
0.0
  0
LINE
  5
1AE
330
1F
100
AcDbEntity
  8
0
  6
Continuous
 62
     7
370
    25
100
AcDbLine
 10
17.3156305192
 20
5.5334245072
 30
0.0
 11
17.2434617356
 21
5.5334245072
 31
0.0
  0
LINE
  5
1AF
330
1F
100
AcDbEntity
  8
0
  6
Continuous
 62
     7
370
    25
100
AcDbLine
 10
17.3517149111
 20
5.5959245072
 30
0.0
 11
17.3156305192
 21
5.5334245072
 31
0.0
  0
LINE
  5
1B0
330
1F
100
AcDbEntity
  8
0
  6
Continuous
 62
     7
370
    25
100
AcDbLine
 10
17.3156305192
 20
5.6584245072
 30
0.0
 11
17.3517149111
 21
5.5959245072
 31
0.0
  0
CIRCLE
  5
1B1
330
1F
100
AcDbEntity
  8
0
  6
Continuous
 62
     7
370
    25
100
AcDbCircle
 10
17.2795461274
 20
5.5959245072
 30
0.0
 40
0.2055000000000016
  0
ARC
  5
1B2
330
1F
100
AcDbEntity
  8
0
  6
Continuous
 62
     7
370
    25
100
AcDbCircle
 10
17.2795461274
 20
5.5959245072
 30
0.0
 40
0.0625000000000095
100
AcDbArc
 50
30.0
 51
90.0
  0
ARC
  5
1B3
330
1F
100
AcDbEntity
  8
0
  6
Continuous
 62
     7
370
    25
100
AcDbCircle
 10
17.2795461274
 20
5.5959245072
 30
0.0
 40
0.0624999999999973
100
AcDbArc
 50
210.0
 51
270.0
  0
ARC
  5
1B4
330
1F
100
AcDbEntity
  8
0
  6
Continuous
 62
     7
370
    25
100
AcDbCircle
 10
17.2795461274
 20
5.5959245072
 30
0.0
 40
0.0625000000000044
100
AcDbArc
 50
90.0
 51
150.0
  0
ARC
  5
1B5
330
1F
100
AcDbEntity
  8
0
  6
Continuous
 62
     7
370
    25
100
AcDbCircle
 10
17.2795461274
 20
5.5959245072
 30
0.0
 40
0.0624999999999946
100
AcDbArc
 50
150.0
 51
210.0
  0
ARC
  5
1B6
330
1F
100
AcDbEntity
  8
0
  6
Continuous
 62
     7
370
    25
100
AcDbCircle
 10
17.2795461274
 20
5.5959245072
 30
0.0
 40
0.0625000000000095
100
AcDbArc
 50
330.0
 51
30.0
  0
ARC
  5
1B7
330
1F
100
AcDbEntity
  8
0
  6
Continuous
 62
     7
370
    25
100
AcDbCircle
 10
17.2795461274
 20
5.5959245072
 30
0.0
 40
0.0624999999999998
100
AcDbArc
 50
270.0
 51
330.0
  0
LINE
  5
1B8
330
1F
100
AcDbEntity
  8
0
  6
Continuous
 62
     7
370
    25
100
AcDbLine
 10
18.1230461274
 20
4.9109245072
 30
0.0
 11
18.2234981367
 21
4.9109245072
 31
0.0
  0
ELLIPSE
  5
1B9
330
1F
100
AcDbEntity
  8
0
  6
Continuous
 62
     7
370
    25
100
AcDbEllipse
 10
18.4172236791
 20
4.8709245072
 30
0.0
 11
0.0
 21
0.2550000000000008
 31
0.0
210
0.0
220
0.0
230
1.0
 40
0.7692307692
 41
1.413283060588057
 42
1.728309593001726
  0
LINE
  5
1BA
330
1F
100
AcDbEntity
  8
0
  6
Continuous
 62
     7
370
    25
100
AcDbLine
 10
18.1230461274
 20
4.8309245072
 30
0.0
 11
18.2234981367
 21
4.8309245072
 31
0.0
  0
LINE
  5
1BB
330
1F
100
AcDbEntity
  8
0
  6
Continuous
 62
     7
370
    25
100
AcDbLine
 10
18.1230461274
 20
4.6287893543
 30
0.0
 11
18.2234981367
 21
4.7211287403
 31
0.0
  0
LINE
  5
1BC
330
1F
100
AcDbEntity
  8
0
  6
Continuous
 62
     7
370
    25
100
AcDbLine
 10
18.1230461274
 20
4.7211287403
 30
0.0
 11
18.2234981367
 21
4.7211287403
 31
0.0
  0
ELLIPSE
  5
1BD
330
1F
100
AcDbEntity
  8
0
  6
Continuous
 62
     7
370
    25
100
AcDbEllipse
 10
18.4172236791
 20
4.8709245072
 30
0.0
 11
0.1703968446426956
 21
0.2459542240120784
 31
0.0
210
0.0
220
0.0
230
1.0
 40
0.3950575694
 41
2.465834243643591
 42
2.780860776057253
  0
LINE
  5
1BE
330
1F
100
AcDbEntity
  8
0
  6
Continuous
 62
     7
370
    25
100
AcDbLine
 10
18.1230461274
 20
4.5722208118
 30
0.0
 11
18.2234981367
 21
4.6645601978
 31
0.0
  0
LINE
  5
1BF
330
1F
100
AcDbEntity
  8
0
  6
Continuous
 62
     7
370
    25
100
AcDbLine
 10
18.1230461274
 20
5.1130596602
 30
0.0
 11
18.2234981367
 21
5.0207202742
 31
0.0
  0
LINE
  5
1C0
330
1F
100
AcDbEntity
  8
0
  6
Continuous
 62
     7
370
    25
100
AcDbLine
 10
18.1230461274
 20
5.0207202742
 30
0.0
 11
18.2234981367
 21
5.0207202742
 31
0.0
  0
LINE
  5
1C1
330
1F
100
AcDbEntity
  8
0
  6
Continuous
 62
     7
370
    25
100
AcDbLine
 10
18.1230461274
 20
5.1696282027
 30
0.0
 11
18.2234981367
 21
5.0772888167
 31
0.0
  0
ELLIPSE
  5
1C2
330
1F
100
AcDbEntity
  8
0
  6
Continuous
 62
     7
370
    25
100
AcDbEllipse
 10
18.4172236791
 20
4.8709245072
 30
0.0
 11
-0.170396844642692
 21
0.2459542240120784
 31
0.0
210
0.0
220
0.0
230
1.0
 40
0.3950575694
 41
0.3607318775325508
 42
0.6757584099462053
  0
LINE
  5
1C3
330
1F
100
AcDbEntity
  8
0
  6
Continuous
 62
     7
370
    25
100
AcDbLine
 10
18.1740236204
 20
4.6190813021
 30
0.0
 11
18.2234981367
 21
4.6190813021
 31
0.0
  0
LINE
  5
1C4
330
1F
100
AcDbEntity
  8
0
  6
Continuous
 62
     7
370
    25
100
AcDbLine
 10
19.751069833
 20
5.0933158116
 30
0.0
 11
18.2060630647
 21
5.0933158116
 31
0.0
  0
LINE
  5
1C5
330
1F
100
AcDbEntity
  8
0
  6
Continuous
 62
     7
370
    25
100
AcDbLine
 10
19.751069833
 20
5.0933158116
 30
0.0
 11
19.751069833
 21
4.6159245072
 31
0.0
  0
LINE
  5
1C6
330
1F
100
AcDbEntity
  8
0
  6
Continuous
 62
     7
370
    25
100
AcDbLine
 10
18.1492027616
 20
5.2193517001
 30
0.0
 11
18.1230461274
 21
5.2193517001
 31
0.0
  0
LINE
  5
1C7
330
1F
100
AcDbEntity
  8
0
  6
Continuous
 62
     7
370
    25
100
AcDbLine
 10
19.751069833
 20
5.2259245072
 30
0.0
 11
19.751069833
 21
5.0933158116
 31
0.0
  0
LINE
  5
1C8
330
1F
100
AcDbEntity
  8
0
  6
Continuous
 62
     7
370
    25
100
AcDbLine
 10
18.1230461274
 20
4.48849369
 30
0.0
 11
18.2234981367
 21
4.6190813021
 31
0.0
  0
LINE
  5
1C9
330
1F
100
AcDbEntity
  8
0
  6
Continuous
 62
     7
370
    25
100
AcDbLine
 10
18.1230461274
 20
5.2533553245
 30
0.0
 11
18.1492027616
 21
5.2193517001
 31
0.0
  0
LINE
  5
1CA
330
1F
100
AcDbEntity
  8
0
  6
Continuous
 62
     7
370
    25
100
AcDbLine
 10
16.1555461274
 20
5.9045245072
 30
0.0
 11
16.1555461274
 21
5.7795245072
 31
0.0
  0
LINE
  5
1CB
330
1F
100
AcDbEntity
  8
0
  6
Continuous
 62
     7
370
    25
100
AcDbLine
 10
15.0905461274
 20
6.2795245072
 30
0.0
 11
15.0905461274
 21
6.1545245072
 31
0.0
  0
LINE
  5
1CC
330
1F
100
AcDbEntity
  8
0
  6
Continuous
 62
     7
370
    25
100
AcDbLine
 10
16.1555461274
 20
6.2795245072
 30
0.0
 11
16.1555461274
 21
6.1545245072
 31
0.0
  0
LINE
  5
1CD
330
1F
100
AcDbEntity
  8
0
  6
Continuous
 62
     7
370
    25
100
AcDbLine
 10
15.0905461274
 20
4.9670245072
 30
0.0
 11
15.0905461274
 21
4.8420245072
 31
0.0
  0
LINE
  5
1CE
330
1F
100
AcDbEntity
  8
0
  6
Continuous
 62
     7
370
    25
100
AcDbLine
 10
16.1555461274
 20
4.9670245072
 30
0.0
 11
16.1555461274
 21
4.8420245072
 31
0.0
  0
LINE
  5
1CF
330
1F
100
AcDbEntity
  8
0
  6
Continuous
 62
     7
370
    25
100
AcDbLine
 10
15.0905461274
 20
5.9045245072
 30
0.0
 11
15.0905461274
 21
5.7795245072
 31
0.0
  0
LINE
  5
1D0
330
1F
100
AcDbEntity
  8
0
  6
Continuous
 62
     7
370
    25
100
AcDbLine
 10
15.0905461274
 20
5.3420245072
 30
0.0
 11
15.0905461274
 21
5.2170245072
 31
0.0
  0
LINE
  5
1D1
330
1F
100
AcDbEntity
  8
0
  6
Continuous
 62
     7
370
    25
100
AcDbLine
 10
16.1555461274
 20
5.3420245072
 30
0.0
 11
16.1555461274
 21
5.2170245072
 31
0.0
  0
LINE
  5
1D2
330
1F
100
AcDbEntity
  8
0
  6
Continuous
 62
     7
370
    25
100
AcDbLine
 10
15.0905461274
 20
5.7170245072
 30
0.0
 11
15.0905461274
 21
5.5920245072
 31
0.0
  0
LINE
  5
1D3
330
1F
100
AcDbEntity
  8
0
  6
Continuous
 62
     7
370
    25
100
AcDbLine
 10
16.1555461274
 20
5.7170245072
 30
0.0
 11
16.1555461274
 21
5.5920245072
 31
0.0
  0
LINE
  5
1D4
330
1F
100
AcDbEntity
  8
0
  6
Continuous
 62
     7
370
    25
100
AcDbLine
 10
15.0905461274
 20
5.5295245072
 30
0.0
 11
15.0905461274
 21
5.4045245072
 31
0.0
  0
LINE
  5
1D5
330
1F
100
AcDbEntity
  8
0
  6
Continuous
 62
     7
370
    25
100
AcDbLine
 10
16.1555461274
 20
5.5295245072
 30
0.0
 11
16.1555461274
 21
5.4045245072
 31
0.0
  0
LINE
  5
1D6
330
1F
100
AcDbEntity
  8
0
  6
Continuous
 62
     7
370
    25
100
AcDbLine
 10
15.0905461274
 20
4.7795245072
 30
0.0
 11
15.0905461274
 21
4.6545245072
 31
0.0
  0
LINE
  5
1D7
330
1F
100
AcDbEntity
  8
0
  6
Continuous
 62
     7
370
    25
100
AcDbLine
 10
16.1555461274
 20
4.7795245072
 30
0.0
 11
16.1555461274
 21
4.6545245072
 31
0.0
  0
LINE
  5
1D8
330
1F
100
AcDbEntity
  8
0
  6
Continuous
 62
     7
370
    25
100
AcDbLine
 10
15.0905461274
 20
5.1545245072
 30
0.0
 11
15.0905461274
 21
5.0295245072
 31
0.0
  0
LINE
  5
1D9
330
1F
100
AcDbEntity
  8
0
  6
Continuous
 62
     7
370
    25
100
AcDbLine
 10
16.1555461274
 20
5.1545245072
 30
0.0
 11
16.1555461274
 21
5.0295245072
 31
0.0
  0
LINE
  5
1DA
330
1F
100
AcDbEntity
  8
0
  6
Continuous
 62
     7
370
    25
100
AcDbLine
 10
15.0905461274
 20
6.0920245072
 30
0.0
 11
15.0905461274
 21
5.9670245072
 31
0.0
  0
LINE
  5
1DB
330
1F
100
AcDbEntity
  8
0
  6
Continuous
 62
     7
370
    25
100
AcDbLine
 10
16.1555461274
 20
6.0920245072
 30
0.0
 11
16.1555461274
 21
5.9670245072
 31
0.0
  0
DIMENSION
  5
1DC
330
1F
100
AcDbEntity
  8
0
  6
Continuous
 62
     7
370
    18
100
AcDbDimension
  2
_D_4
 10
17.2795461274
 20
8.008326082
 30
0.0
 11
15.6230461274
 21
8.008326082
 31
0.0
 70
   160
  1
<> O.C.
 71
     2
 42
-1.0
  3
SLDDIMSTYLE2
100
AcDbAlignedDimension
 13
13.9665461274
 23
5.5959245072
 33
0.0
 14
17.2795461274
 24
5.5959245072
 34
0.0
100
AcDbRotatedDimension
  0
DIMENSION
  5
1EF
330
1F
100
AcDbEntity
  8
0
  6
Continuous
 62
     7
370
    18
100
AcDbDimension
  2
_D_5
 10
18.1230461274
 20
8.9532079718
 30
0.0
 11
15.6230461274
 21
8.9532079718
 31
0.0
 70
   160
  1
<>
 71
     2
 42
-1.0
  3
SLDDIMSTYLE1
100
AcDbAlignedDimension
 13
13.1230461274
 23
7.1909245072
 33
0.0
 14
18.1230461274
 24
7.1909245072
 34
0.0
100
AcDbRotatedDimension
  0
DIMENSION
  5
203
330
1F
100
AcDbEntity
  8
0
  6
Continuous
 62
     7
370
    18
100
AcDbDimension
  2
_D_6
 10
12.3356445526
 20
3.9709245072
 30
0.0
 11
12.3356445526
 21
5.5959245072
 31
0.0
 70
   160
  1
<>
 71
     2
 42
-1.0
  3
SLDDIMSTYLE2
100
AcDbAlignedDimension
 13
13.1530461274
 23
7.2209245072
 33
0.0
 14
13.1530461274
 24
3.9709245072
 34
0.0
 50
90.0
100
AcDbRotatedDimension
  0
MTEXT
  5
217
330
1F
100
AcDbEntity
  8
0
  6
Continuous
 62
     7
370
     0
100
AcDbMText
 10
16.6891049682
 20
3.391475476
 30
0.0
 40
0.25
 41
0.0
 71
     2
 72
     1
  1
THERMAL PROTECTOR
  7
SLDTEXTSTYLE0
 73
     1
 44
1.0
  0
MTEXT
  5
218
330
1F
100
AcDbEntity
  8
0
  6
Continuous
 62
     7
370
     0
100
AcDbMText
 10
16.7088096875
 20
3.062735327
 30
0.0
 40
0.25
 41
0.0
 71
     2
 72
     1
  1
(OPTIONAL)
  7
SLDTEXTSTYLE0
 73
     1
 44
1.0
  0
LEADER
  5
219
330
1F
100
AcDbEntity
  8
0
  6
Continuous
 62
     7
370
     0
100
AcDbLeader
  3
SLDDIMSTYLE4
 76
     3
 10
19.0007487324
 20
4.6159245072
 30
0.0
 10
18.9941767773
 20
3.1080349567
 30
0.0
 10
18.4941767773
 20
3.1080349567
 30
0.0
  0
LINE
  5
21A
330
1F
100
AcDbEntity
  8
0
  6
Continuous
 62
     7
370
    25
100
AcDbLine
 10
17.7248177211
 20
10.829381304
 30
0.0
 11
17.9935182979
 21
10.9844988453
 31
0.0
  0
LINE
  5
21B
330
1F
100
AcDbEntity
  8
0
  6
Continuous
 62
     7
370
    25
100
AcDbLine
 10
14.4704132369
 20
15.6577550031
 30
0.0
 11
14.20171266
 21
15.5026374619
 31
0.0
  0
LINE
  5
21C
330
1F
100
AcDbEntity
  8
0
  6
Continuous
 62
     7
370
    25
100
AcDbLine
 10
14.8907422068
 20
13.6619505475
 30
0.0
 11
14.8942777407
 21
13.6639915678
 31
0.0
  0
LINE
  5
21D
330
1F
100
AcDbEntity
  8
0
  6
Continuous
 62
     7
370
    25
100
AcDbLine
 10
14.6887944411
 20
14.0199376503
 30
0.0
 11
14.6852589072
 21
14.01789663
 31
0.0
  0
LINE
  5
21E
330
1F
100
AcDbEntity
  8
0
  6
Continuous
 62
     7
370
    25
100
AcDbLine
 10
14.9357409009
 20
13.7380567588
 30
0.0
 11
14.9357967543
 21
13.7385443685
 31
0.0
  0
LINE
  5
21F
330
1F
100
AcDbEntity
  8
0
  6
Continuous
 62
     7
370
    25
100
AcDbLine
 10
14.774118443
 20
14.0186097638
 30
0.0
 11
14.7736682523
 21
14.0188052405
 31
0.0
  0
LINE
  5
220
330
1F
100
AcDbEntity
  8
0
  6
Continuous
 62
     7
370
    25
100
AcDbLine
 10
17.2333869728
 20
12.3095705103
 30
0.0
 11
17.2369225067
 21
12.3116115306
 31
0.0
  0
LINE
  5
221
330
1F
100
AcDbEntity
  8
0
  6
Continuous
 62
     7
370
    25
100
AcDbLine
 10
17.0314392072
 20
12.667557613
 30
0.0
 11
17.0279036733
 21
12.6655165927
 31
0.0
  0
LINE
  5
222
330
1F
100
AcDbEntity
  8
0
  6
Continuous
 62
     7
370
    25
100
AcDbLine
 10
17.278385667
 20
12.3856767216
 30
0.0
 11
17.2784415204
 21
12.3861643312
 31
0.0
  0
LINE
  5
223
330
1F
100
AcDbEntity
  8
0
  6
Continuous
 62
     7
370
    25
100
AcDbLine
 10
17.116763209
 20
12.6662297266
 30
0.0
 11
17.1163130183
 21
12.6664252032
 31
0.0
  0
LINE
  5
224
330
1F
100
AcDbEntity
  8
0
  6
Continuous
 62
     7
370
    25
100
AcDbLine
 10
20.8326887722
 20
12.2749065986
 30
0.0
 11
19.6558105174
 21
12.9543039538
 31
0.0
  0
LINE
  5
225
330
1F
100
AcDbEntity
  8
0
  6
Continuous
 62
     7
370
    25
100
AcDbLine
 10
19.5608308383
 20
12.3825558495
 30
0.0
 11
20.642704213
 21
11.7580036442
 31
0.0
  0
LINE
  5
226
330
1F
100
AcDbEntity
  8
0
  6
Continuous
 62
     7
370
    25
100
AcDbLine
 10
20.8976834899
 20
12.199688564
 30
0.0
 11
20.8584887108
 21
12.2223152283
 31
0.0
  0
LINE
  5
227
330
1F
100
AcDbEntity
  8
0
  6
Continuous
 62
     7
370
    25
100
AcDbLine
 10
19.2066387067
 20
12.2752659142
 30
0.0
 11
19.2844204527
 21
12.2303634681
 31
0.0
  0
LINE
  5
228
330
1F
100
AcDbEntity
  8
0
  6
Continuous
 62
     7
370
    25
100
AcDbLine
 10
19.8093777873
 20
13.1397147736
 30
0.0
 11
19.7315960414
 21
13.1846172197
 31
0.0
  0
LINE
  5
229
330
1F
100
AcDbEntity
  8
0
  6
Continuous
 62
     7
370
    25
100
AcDbLine
 10
18.6103756302
 20
11.6723195004
 30
0.0
 11
19.4783495196
 21
12.2241542415
 31
0.0
  0
LINE
  5
22A
330
1F
100
AcDbEntity
  8
0
  6
Continuous
 62
     7
370
    25
100
AcDbLine
 10
16.5541767892
 20
16.4627138882
 30
0.0
 11
15.3713809011
 21
15.8457423064
 31
0.0
  0
LINE
  5
22B
330
1F
100
AcDbEntity
  8
0
  6
Continuous
 62
     7
370
    25
100
AcDbLine
 10
17.9997327204
 20
13.6029993794
 30
0.0
 11
17.7310321435
 21
13.4478818381
 31
0.0
  0
ARC
  5
22C
330
1F
100
AcDbEntity
  8
0
  6
Continuous
 62
     7
370
    25
100
AcDbCircle
 10
17.6849756605
 20
13.4457860126
 30
0.0
 40
0.0461041442271644
100
AcDbArc
 50
2.6054784856
 51
57.39452166
  0
LINE
  5
22D
330
1F
100
AcDbEntity
  8
0
  6
Continuous
 62
     7
370
    25
100
AcDbLine
 10
17.7098189401
 20
13.4846241842
 30
0.0
 11
17.978519517
 21
13.6397417254
 31
0.0
  0
ARC
  5
22E
330
1F
100
AcDbEntity
  8
0
  6
Continuous
 62
     7
370
    25
100
AcDbCircle
 10
17.9536762373
 20
13.6009035538
 30
0.0
 40
0.0461041442271545
100
AcDbArc
 50
2.6054784857
 51
57.39452166
  0
ARC
  5
22F
330
1F
100
AcDbEntity
  8
0
  6
Continuous
 62
     7
370
    25
100
AcDbCircle
 10
14.2415547206
 20
12.8862327533
 30
0.0
 40
0.0461041442271609
100
AcDbArc
 50
182.6054784857
 51
237.39452166
  0
LINE
  5
230
330
1F
100
AcDbEntity
  8
0
  6
Continuous
 62
     7
370
    25
100
AcDbLine
 10
14.1954982376
 20
12.8841369278
 30
0.0
 11
14.1954982376
 21
15.4889021177
 31
0.0
  0
ARC
  5
231
330
1F
100
AcDbEntity
  8
0
  6
Continuous
 62
     7
370
    25
100
AcDbCircle
 10
14.2084304686
 20
15.4909999336
 30
0.0
 40
0.0131012759228547
100
AcDbArc
 50
50.7967147643
 51
189.2140369905
  0
LINE
  5
232
330
1F
100
AcDbEntity
  8
0
  6
Continuous
 62
     7
370
    25
100
AcDbLine
 10
14.216711441
 20
15.5011522204
 30
0.0
 11
17.7098189401
 21
13.4846241842
 31
0.0
  0
LINE
  5
233
330
1F
100
AcDbEntity
  8
0
  6
Continuous
 62
     7
370
    25
100
AcDbLine
 10
17.7310321435
 20
13.4478818381
 30
0.0
 11
17.7310321435
 21
10.8431166482
 31
0.0
  0
ARC
  5
234
330
1F
100
AcDbEntity
  8
0
  6
Continuous
 62
     7
370
    25
100
AcDbCircle
 10
17.7180999125
 20
10.8410188323
 30
0.0
 40
0.0131012759228548
100
AcDbArc
 50
230.7967147643
 51
9.2140369905
  0
LINE
  5
235
330
1F
100
AcDbEntity
  8
0
  6
Continuous
 62
     7
370
    25
100
AcDbLine
 10
17.7098189401
 20
10.8308665455
 30
0.0
 11
14.216711441
 21
12.8473945817
 31
0.0
  0
ARC
  5
236
330
1F
100
AcDbEntity
  8
0
  6
Continuous
 62
     7
370
    25
100
AcDbCircle
 10
14.6371347069
 20
13.7528305873
 30
0.0
 40
0.2990035361181252
100
AcDbArc
 50
357.261397595
 51
62.7332258723
  0
LWPOLYLINE
  5
237
330
1F
100
AcDbEntity
  8
0
  6
Continuous
 62
     7
370
    25
100
AcDbPolyline
 90
       11
 70
   128
 43
0.0
 10
17.2795444637
 20
12.4061375329
 10
17.2759100919
 20
12.445483583
 10
17.2651892188
 20
12.4870528144
 10
17.2479194339
 20
12.5287607721
 10
17.2249667163
 20
12.5685160451
 10
17.1974820111
 20
12.6043251378
 10
17.1668435162
 20
12.634392433
 10
17.1345875736
 20
12.6572102308
 10
17.102331631
 20
12.6716343516
 10
17.0716931361
 20
12.6769415097
 10
17.0570199933
 20
12.6760072519
  0
ARC
  5
238
330
1F
100
AcDbEntity
  8
0
  6
Continuous
 62
     7
370
    25
100
AcDbCircle
 10
17.1746601659
 20
12.3959031738
 30
0.0
 40
0.1053824370557852
100
AcDbArc
 50
313.1297803937
 51
5.5731418883
  0
LINE
  5
239
330
1F
100
AcDbEntity
  8
0
  6
Continuous
 62
     7
370
    25
100
AcDbLine
 10
15.5867308296
 20
13.9415653417
 30
0.0
 11
16.3397995516
 21
13.5068280222
 31
0.0
  0
SPLINE
  5
23A
330
1F
100
AcDbEntity
  8
0
  6
Continuous
 62
     7
370
    25
100
AcDbSpline
210
0.0
220
0.0
230
1.0
 70
     8
 71
     3
 72
    20
 73
    16
 74
     0
 42
0.00000001
 43
0.00000001
 40
0.0
 40
0.0
 40
0.0
 40
0.0
 40
0.1220208336415365
 40
0.2292653365593426
 40
0.3365098394771496
 40
0.4437543423949574
 40
0.550998845312764
 40
0.6040432035165525
 40
0.6570875617203411
 40
0.7101319199241289
 40
0.7631762781279167
 40
0.8162206363317052
 40
0.869264994535493
 40
0.9223093527392806
 40
1.0
 40
1.0
 40
1.0
 40
1.0
 10
15.5867308295871
 20
13.83949774023875
 30
0.0
 10
15.58106714350254
 20
13.84349709265167
 30
0.0
 10
15.5704256255126
 20
13.85101148875602
 30
0.0
 10
15.55697346538955
 20
13.86874301416507
 30
0.0
 10
15.54745867036023
 20
13.88771833383962
 30
0.0
 10
15.54237088867411
 20
13.90712020352484
 30
0.0
 10
15.54230786450347
 20
13.92169554524056
 30
0.0
 10
15.54471907377384
 20
13.93136466835658
 30
0.0
 10
15.54767458302458
 20
13.93746077087311
 30
0.0
 10
15.55170779339585
 20
13.94226046149259
 30
0.0
 10
15.55670692097038
 20
13.94563177625546
 30
0.0
 10
15.56253393472933
 20
13.94749187959066
 30
0.0
 10
15.56902925338016
 20
13.94774844982019
 30
0.0
 10
15.57709039697558
 20
13.94636245787219
 30
0.0
 10
15.58313735901537
 20
13.94335346642807
 30
0.0
 10
15.5867308295871
 20
13.94156534172447
 30
0.0
  0
LINE
  5
23B
330
1F
100
AcDbEntity
  8
0
  6
Continuous
 62
     7
370
    25
100
AcDbLine
 10
16.3397995516
 20
13.4047604207
 30
0.0
 11
15.5867308296
 21
13.8394977402
 31
0.0
  0
SPLINE
  5
23C
330
1F
100
AcDbEntity
  8
0
  6
Continuous
 62
     7
370
    25
100
AcDbSpline
210
0.0
220
0.0
230
1.0
 70
     8
 71
     3
 72
    25
 73
    21
 74
     0
 42
0.00000001
 43
0.00000001
 40
0.0
 40
0.0
 40
0.0
 40
0.0
 40
0.0600333226356733
 40
0.1129709835186542
 40
0.1659086444016353
 40
0.2188463052846173
 40
0.2717839661675978
 40
0.3247216270505769
 40
0.3776592879335567
 40
0.430596948816538
 40
0.4835346096995171
 40
0.5364722705824959
 40
0.589409931465476
 40
0.6423475923484563
 40
0.6952852532314371
 40
0.7482229141144167
 40
0.8011605749973969
 40
0.8540982358803773
 40
0.9070358967633572
 40
1.0
 40
1.0
 40
1.0
 40
1.0
 10
16.33979955155078
 20
13.50682802217888
 30
0.0
 10
16.34257835794415
 20
13.50505008853284
 30
0.0
 10
16.34780752863611
 20
13.50170436479467
 30
0.0
 10
16.35522697473214
 20
13.49494493337778
 30
0.0
 10
16.36190458578792
 20
13.48750132544965
 30
0.0
 10
16.3679722439763
 20
13.47915463916136
 30
0.0
 10
16.37326293232067
 20
13.47017129166085
 30
0.0
 10
16.37763063607446
 20
13.46078935506462
 30
0.0
 10
16.38095491226536
 20
13.4512701949547
 30
0.0
 10
16.38314406630094
 20
13.44187566738872
 30
0.0
 10
16.38413772027155
 20
13.43286506839357
 30
0.0
 10
16.38390846666412
 20
13.42448688904367
 30
0.0
 10
16.38246263142078
 20
13.41697216264083
 30
0.0
 10
16.37984008256314
 20
13.41052838208252
 30
0.0
 10
16.3761131910464
 20
13.40533241770263
 30
0.0
 10
16.37138460969464
 20
13.40153078626027
 30
0.0
 10
16.36578528133009
 20
13.39921637978061
 30
0.0
 10
16.35946769443343
 20
13.39849767626563
 30
0.0
 10
16.35088583844231
 20
13.39941192516252
 30
0.0
 10
16.34411421873409
 20
13.4026788420391
 30
0.0
 10
16.33979955155078
 20
13.40476042069316
 30
0.0
  0
LINE
  5
23D
330
1F
100
AcDbEntity
  8
0
  6
Continuous
 62
     7
370
    25
100
AcDbLine
 10
16.3397995516
 20
13.2516590185
 30
0.0
 11
15.5867308296
 21
13.686396338
 31
0.0
  0
SPLINE
  5
23E
330
1F
100
AcDbEntity
  8
0
  6
Continuous
 62
     7
370
    25
100
AcDbSpline
210
0.0
220
0.0
230
1.0
 70
     8
 71
     3
 72
    25
 73
    21
 74
     0
 42
0.00000001
 43
0.00000001
 40
0.0
 40
0.0
 40
0.0
 40
0.0
 40
0.0600333226356724
 40
0.1129709835186533
 40
0.1659086444016344
 40
0.2188463052846155
 40
0.2717839661675965
 40
0.3247216270505768
 40
0.3776592879335587
 40
0.4305969488165386
 40
0.483534609699519
 40
0.5364722705824985
 40
0.5894099314654793
 40
0.6423475923484576
 40
0.6952852532314361
 40
0.7482229141144152
 40
0.8011605749973942
 40
0.8540982358803735
 40
0.907035896763353
 40
0.9999999999999999
 40
0.9999999999999999
 40
0.9999999999999999
 40
0.9999999999999999
 10
16.33979955155078
 20
13.3537266199503
 30
0.0
 10
16.34257835794415
 20
13.35194868630426
 30
0.0
 10
16.34780752863612
 20
13.34860296256609
 30
0.0
 10
16.35522697473214
 20
13.3418435311492
 30
0.0
 10
16.36190458578792
 20
13.33439992322107
 30
0.0
 10
16.3679722439763
 20
13.32605323693278
 30
0.0
 10
16.37326293232067
 20
13.31706988943227
 30
0.0
 10
16.37763063607446
 20
13.30768795283605
 30
0.0
 10
16.38095491226536
 20
13.29816879272612
 30
0.0
 10
16.38314406630094
 20
13.28877426516014
 30
0.0
 10
16.38413772027155
 20
13.27976366616499
 30
0.0
 10
16.38390846666412
 20
13.27138548681509
 30
0.0
 10
16.38246263142078
 20
13.26387076041225
 30
0.0
 10
16.37984008256314
 20
13.25742697985394
 30
0.0
 10
16.3761131910464
 20
13.25223101547405
 30
0.0
 10
16.37138460969464
 20
13.24842938403169
 30
0.0
 10
16.36578528133009
 20
13.24611497755203
 30
0.0
 10
16.35946769443343
 20
13.24539627403706
 30
0.0
 10
16.35088583844231
 20
13.24631052293394
 30
0.0
 10
16.34411421873409
 20
13.24957743981052
 30
0.0
 10
16.33979955155078
 20
13.25165901846458
 30
0.0
  0
LINE
  5
23F
330
1F
100
AcDbEntity
  8
0
  6
Continuous
 62
     7
370
    25
100
AcDbLine
 10
15.5867308296
 20
13.7884639395
 30
0.0
 11
16.3397995516
 21
13.35372662
 31
0.0
  0
SPLINE
  5
240
330
1F
100
AcDbEntity
  8
0
  6
Continuous
 62
     7
370
    25
100
AcDbSpline
210
0.0
220
0.0
230
1.0
 70
     8
 71
     3
 72
    20
 73
    16
 74
     0
 42
0.00000001
 43
0.00000001
 40
0.0
 40
0.0
 40
0.0
 40
0.0
 40
0.1220208336415365
 40
0.2292653365593429
 40
0.3365098394771504
 40
0.4437543423949579
 40
0.5509988453127644
 40
0.6040432035165528
 40
0.6570875617203407
 40
0.7101319199241288
 40
0.763176278127916
 40
0.8162206363317042
 40
0.8692649945354919
 40
0.9223093527392795
 40
1.0
 40
1.0
 40
1.0
 40
1.0
 10
15.5867308295871
 20
13.68639633801017
 30
0.0
 10
15.58106714350254
 20
13.69039569042309
 30
0.0
 10
15.5704256255126
 20
13.69791008652744
 30
0.0
 10
15.55697346538955
 20
13.71564161193649
 30
0.0
 10
15.54745867036022
 20
13.73461693161104
 30
0.0
 10
15.54237088867412
 20
13.75401880129627
 30
0.0
 10
15.54230786450347
 20
13.76859414301198
 30
0.0
 10
15.54471907377384
 20
13.778263266128
 30
0.0
 10
15.54767458302458
 20
13.78435936864453
 30
0.0
 10
15.55170779339585
 20
13.78915905926401
 30
0.0
 10
15.55670692097038
 20
13.79253037402688
 30
0.0
 10
15.56253393472933
 20
13.79439047736208
 30
0.0
 10
15.56902925338016
 20
13.79464704759161
 30
0.0
 10
15.57709039697558
 20
13.79326105564362
 30
0.0
 10
15.58313735901537
 20
13.79025206419949
 30
0.0
 10
15.5867308295871
 20
13.78846393949589
 30
0.0
  0
LINE
  5
241
330
1F
100
AcDbEntity
  8
0
  6
Continuous
 62
     7
370
    25
100
AcDbLine
 10
15.5867308296
 20
13.6353625373
 30
0.0
 11
16.3397995516
 21
13.2006252177
 31
0.0
  0
SPLINE
  5
242
330
1F
100
AcDbEntity
  8
0
  6
Continuous
 62
     7
370
    25
100
AcDbSpline
210
0.0
220
0.0
230
1.0
 70
     8
 71
     3
 72
    20
 73
    16
 74
     0
 42
0.00000001
 43
0.00000001
 40
0.0
 40
0.0
 40
0.0
 40
0.0
 40
0.122020833641536
 40
0.2292653365593426
 40
0.3365098394771495
 40
0.4437543423949558
 40
0.550998845312763
 40
0.6040432035165518
 40
0.6570875617203404
 40
0.7101319199241286
 40
0.7631762781279162
 40
0.8162206363317037
 40
0.8692649945354916
 40
0.9223093527392789
 40
1.0
 40
1.0
 40
1.0
 40
1.0
 10
15.5867308295871
 20
13.5332949357816
 30
0.0
 10
15.58106714350254
 20
13.53729428819451
 30
0.0
 10
15.5704256255126
 20
13.54480868429886
 30
0.0
 10
15.55697346538955
 20
13.56254020970791
 30
0.0
 10
15.54745867036023
 20
13.58151552938246
 30
0.0
 10
15.54237088867411
 20
13.60091739906769
 30
0.0
 10
15.54230786450346
 20
13.61549274078341
 30
0.0
 10
15.54471907377384
 20
13.62516186389942
 30
0.0
 10
15.54767458302458
 20
13.63125796641595
 30
0.0
 10
15.55170779339585
 20
13.63605765703544
 30
0.0
 10
15.55670692097038
 20
13.6394289717983
 30
0.0
 10
15.56253393472933
 20
13.6412890751335
 30
0.0
 10
15.56902925338016
 20
13.64154564536304
 30
0.0
 10
15.57709039697558
 20
13.64015965341504
 30
0.0
 10
15.58313735901537
 20
13.63715066197091
 30
0.0
 10
15.5867308295871
 20
13.63536253726731
 30
0.0
  0
LINE
  5
243
330
1F
100
AcDbEntity
  8
0
  6
Continuous
 62
     7
370
    25
100
AcDbLine
 10
16.3397995516
 20
13.0985576162
 30
0.0
 11
15.5867308296
 21
13.5332949358
 31
0.0
  0
SPLINE
  5
244
330
1F
100
AcDbEntity
  8
0
  6
Continuous
 62
     7
370
    25
100
AcDbSpline
210
0.0
220
0.0
230
1.0
 70
     8
 71
     3
 72
    25
 73
    21
 74
     0
 42
0.00000001
 43
0.00000001
 40
0.0
 40
0.0
 40
0.0
 40
0.0
 40
0.0600333226356736
 40
0.1129709835186546
 40
0.1659086444016358
 40
0.2188463052846169
 40
0.2717839661675974
 40
0.3247216270505774
 40
0.3776592879335582
 40
0.4305969488165383
 40
0.4835346096995181
 40
0.5364722705824977
 40
0.5894099314654772
 40
0.6423475923484568
 40
0.6952852532314366
 40
0.7482229141144168
 40
0.8011605749973967
 40
0.8540982358803766
 40
0.9070358967633569
 40
1.0
 40
1.0
 40
1.0
 40
1.0
 10
16.33979955155078
 20
13.20062521772172
 30
0.0
 10
16.34257835794415
 20
13.19884728407568
 30
0.0
 10
16.34780752863612
 20
13.19550156033752
 30
0.0
 10
16.35522697473214
 20
13.18874212892062
 30
0.0
 10
16.36190458578792
 20
13.18129852099249
 30
0.0
 10
16.3679722439763
 20
13.17295183470421
 30
0.0
 10
16.37326293232067
 20
13.16396848720369
 30
0.0
 10
16.37763063607446
 20
13.15458655060747
 30
0.0
 10
16.38095491226536
 20
13.14506739049754
 30
0.0
 10
16.38314406630094
 20
13.13567286293156
 30
0.0
 10
16.38413772027155
 20
13.12666226393641
 30
0.0
 10
16.38390846666412
 20
13.11828408458651
 30
0.0
 10
16.38246263142078
 20
13.11076935818368
 30
0.0
 10
16.37984008256314
 20
13.10432557762536
 30
0.0
 10
16.3761131910464
 20
13.09912961324547
 30
0.0
 10
16.37138460969464
 20
13.09532798180311
 30
0.0
 10
16.36578528133009
 20
13.09301357532346
 30
0.0
 10
16.35946769443343
 20
13.09229487180848
 30
0.0
 10
16.35088583844231
 20
13.09320912070536
 30
0.0
 10
16.34411421873409
 20
13.09647603758195
 30
0.0
 10
16.33979955155078
 20
13.098557616236
 30
0.0
  0
LINE
  5
245
330
1F
100
AcDbEntity
  8
0
  6
Continuous
 62
     7
370
    25
100
AcDbLine
 10
16.3397995516
 20
12.945456214
 30
0.0
 11
15.5867308296
 21
13.3801935336
 31
0.0
  0
SPLINE
  5
246
330
1F
100
AcDbEntity
  8
0
  6
Continuous
 62
     7
370
    25
100
AcDbSpline
210
0.0
220
0.0
230
1.0
 70
     8
 71
     3
 72
    25
 73
    21
 74
     0
 42
0.00000001
 43
0.00000001
 40
0.0
 40
0.0
 40
0.0
 40
0.0
 40
0.0600333226356726
 40
0.1129709835186537
 40
0.1659086444016352
 40
0.2188463052846155
 40
0.271783966167596
 40
0.3247216270505767
 40
0.377659287933557
 40
0.4305969488165369
 40
0.4835346096995166
 40
0.5364722705824968
 40
0.589409931465477
 40
0.6423475923484573
 40
0.6952852532314374
 40
0.7482229141144181
 40
0.8011605749973981
 40
0.8540982358803778
 40
0.9070358967633575
 40
1.0
 40
1.0
 40
1.0
 40
1.0
 10
16.33979955155078
 20
13.04752381549314
 30
0.0
 10
16.34257835794415
 20
13.04574588184711
 30
0.0
 10
16.34780752863612
 20
13.04240015810894
 30
0.0
 10
16.35522697473214
 20
13.03564072669205
 30
0.0
 10
16.36190458578792
 20
13.02819711876391
 30
0.0
 10
16.3679722439763
 20
13.01985043247563
 30
0.0
 10
16.37326293232067
 20
13.01086708497511
 30
0.0
 10
16.37763063607446
 20
13.00148514837889
 30
0.0
 10
16.38095491226536
 20
12.99196598826897
 30
0.0
 10
16.38314406630094
 20
12.98257146070299
 30
0.0
 10
16.38413772027155
 20
12.97356086170783
 30
0.0
 10
16.38390846666412
 20
12.96518268235794
 30
0.0
 10
16.38246263142078
 20
12.9576679559551
 30
0.0
 10
16.37984008256314
 20
12.95122417539678
 30
0.0
 10
16.3761131910464
 20
12.94602821101689
 30
0.0
 10
16.37138460969464
 20
12.94222657957453
 30
0.0
 10
16.36578528133009
 20
12.93991217309488
 30
0.0
 10
16.35946769443343
 20
12.9391934695799
 30
0.0
 10
16.35088583844231
 20
12.94010771847678
 30
0.0
 10
16.34411421873409
 20
12.94337463535337
 30
0.0
 10
16.33979955155078
 20
12.94545621400742
 30
0.0
  0
LINE
  5
247
330
1F
100
AcDbEntity
  8
0
  6
Continuous
 62
     7
370
    25
100
AcDbLine
 10
15.5867308296
 20
13.482261135
 30
0.0
 11
16.3397995516
 21
13.0475238155
 31
0.0
  0
SPLINE
  5
248
330
1F
100
AcDbEntity
  8
0
  6
Continuous
 62
     7
370
    25
100
AcDbSpline
210
0.0
220
0.0
230
1.0
 70
     8
 71
     3
 72
    20
 73
    16
 74
     0
 42
0.00000001
 43
0.00000001
 40
0.0
 40
0.0
 40
0.0
 40
0.0
 40
0.1220208336415362
 40
0.2292653365593431
 40
0.3365098394771499
 40
0.4437543423949562
 40
0.5509988453127632
 40
0.6040432035165519
 40
0.6570875617203398
 40
0.7101319199241279
 40
0.7631762781279162
 40
0.8162206363317048
 40
0.8692649945354932
 40
0.9223093527392816
 40
1.0
 40
1.0
 40
1.0
 40
1.0
 10
15.5867308295871
 20
13.38019353355302
 30
0.0
 10
15.58106714350254
 20
13.38419288596593
 30
0.0
 10
15.5704256255126
 20
13.39170728207029
 30
0.0
 10
15.55697346538955
 20
13.40943880747933
 30
0.0
 10
15.54745867036023
 20
13.42841412715388
 30
0.0
 10
15.54237088867411
 20
13.44781599683911
 30
0.0
 10
15.54230786450347
 20
13.46239133855483
 30
0.0
 10
15.54471907377384
 20
13.47206046167084
 30
0.0
 10
15.54767458302458
 20
13.47815656418737
 30
0.0
 10
15.55170779339585
 20
13.48295625480686
 30
0.0
 10
15.55670692097038
 20
13.48632756956972
 30
0.0
 10
15.56253393472933
 20
13.48818767290492
 30
0.0
 10
15.56902925338016
 20
13.48844424313446
 30
0.0
 10
15.57709039697558
 20
13.48705825118646
 30
0.0
 10
15.58313735901537
 20
13.48404925974233
 30
0.0
 10
15.5867308295871
 20
13.48226113503874
 30
0.0
  0
LINE
  5
249
330
1F
100
AcDbEntity
  8
0
  6
Continuous
 62
     7
370
    25
100
AcDbLine
 10
15.5867308296
 20
13.3291597328
 30
0.0
 11
16.3397995516
 21
12.8944224133
 31
0.0
  0
SPLINE
  5
24A
330
1F
100
AcDbEntity
  8
0
  6
Continuous
 62
     7
370
    25
100
AcDbSpline
210
0.0
220
0.0
230
1.0
 70
     8
 71
     3
 72
    20
 73
    16
 74
     0
 42
0.00000001
 43
0.00000001
 40
0.0
 40
0.0
 40
0.0
 40
0.0
 40
0.1220208336415356
 40
0.2292653365593423
 40
0.336509839477149
 40
0.443754342394956
 40
0.5509988453127622
 40
0.6040432035165512
 40
0.6570875617203403
 40
0.7101319199241279
 40
0.7631762781279157
 40
0.8162206363317028
 40
0.8692649945354902
 40
0.9223093527392775
 40
1.0
 40
1.0
 40
1.0
 40
1.0
 10
15.5867308295871
 20
13.22709213132444
 30
0.0
 10
15.58106714350254
 20
13.23109148373735
 30
0.0
 10
15.5704256255126
 20
13.23860587984171
 30
0.0
 10
15.55697346538955
 20
13.25633740525075
 30
0.0
 10
15.54745867036023
 20
13.27531272492531
 30
0.0
 10
15.54237088867411
 20
13.29471459461053
 30
0.0
 10
15.54230786450347
 20
13.30928993632625
 30
0.0
 10
15.54471907377384
 20
13.31895905944227
 30
0.0
 10
15.54767458302458
 20
13.32505516195879
 30
0.0
 10
15.55170779339585
 20
13.32985485257828
 30
0.0
 10
15.55670692097038
 20
13.33322616734114
 30
0.0
 10
15.56253393472933
 20
13.33508627067634
 30
0.0
 10
15.56902925338016
 20
13.33534284090588
 30
0.0
 10
15.57709039697559
 20
13.33395684895788
 30
0.0
 10
15.58313735901537
 20
13.33094785751376
 30
0.0
 10
15.5867308295871
 20
13.32915973281016
 30
0.0
  0
LINE
  5
24B
330
1F
100
AcDbEntity
  8
0
  6
Continuous
 62
     7
370
    25
100
AcDbLine
 10
16.3397995516
 20
12.7923548118
 30
0.0
 11
15.5867308296
 21
13.2270921313
 31
0.0
  0
SPLINE
  5
24C
330
1F
100
AcDbEntity
  8
0
  6
Continuous
 62
     7
370
    25
100
AcDbSpline
210
0.0
220
0.0
230
1.0
 70
     8
 71
     3
 72
    25
 73
    21
 74
     0
 42
0.00000001
 43
0.00000001
 40
0.0
 40
0.0
 40
0.0
 40
0.0
 40
0.0600333226356737
 40
0.1129709835186543
 40
0.1659086444016352
 40
0.2188463052846163
 40
0.2717839661675963
 40
0.3247216270505761
 40
0.3776592879335565
 40
0.4305969488165365
 40
0.4835346096995169
 40
0.5364722705824965
 40
0.5894099314654774
 40
0.6423475923484574
 40
0.6952852532314379
 40
0.7482229141144175
 40
0.8011605749973978
 40
0.8540982358803776
 40
0.9070358967633572
 40
1.0
 40
1.0
 40
1.0
 40
1.0
 10
16.33979955155078
 20
12.89442241326456
 30
0.0
 10
16.34257835794416
 20
12.89264447961853
 30
0.0
 10
16.34780752863612
 20
12.88929875588036
 30
0.0
 10
16.35522697473214
 20
12.88253932446347
 30
0.0
 10
16.36190458578792
 20
12.87509571653534
 30
0.0
 10
16.3679722439763
 20
12.86674903024705
 30
0.0
 10
16.37326293232067
 20
12.85776568274654
 30
0.0
 10
16.37763063607446
 20
12.84838374615031
 30
0.0
 10
16.38095491226536
 20
12.83886458604039
 30
0.0
 10
16.38314406630094
 20
12.82947005847441
 30
0.0
 10
16.38413772027155
 20
12.82045945947925
 30
0.0
 10
16.38390846666412
 20
12.81208128012936
 30
0.0
 10
16.38246263142078
 20
12.80456655372652
 30
0.0
 10
16.37984008256314
 20
12.79812277316821
 30
0.0
 10
16.3761131910464
 20
12.79292680878832
 30
0.0
 10
16.37138460969464
 20
12.78912517734596
 30
0.0
 10
16.36578528133009
 20
12.7868107708663
 30
0.0
 10
16.35946769443343
 20
12.78609206735132
 30
0.0
 10
16.35088583844231
 20
12.78700631624821
 30
0.0
 10
16.34411421873409
 20
12.79027323312479
 30
0.0
 10
16.33979955155078
 20
12.79235481177885
 30
0.0
  0
LINE
  5
24D
330
1F
100
AcDbEntity
  8
0
  6
Continuous
 62
     7
370
    25
100
AcDbLine
 10
16.3397995516
 20
12.4861520073
 30
0.0
 11
15.5867308296
 21
12.9208893269
 31
0.0
  0
SPLINE
  5
24E
330
1F
100
AcDbEntity
  8
0
  6
Continuous
 62
     7
370
    25
100
AcDbSpline
210
0.0
220
0.0
230
1.0
 70
     8
 71
     3
 72
    25
 73
    21
 74
     0
 42
0.00000001
 43
0.00000001
 40
0.0
 40
0.0
 40
0.0
 40
0.0
 40
0.0600333226356728
 40
0.1129709835186543
 40
0.165908644401635
 40
0.2188463052846157
 40
0.2717839661675958
 40
0.3247216270505763
 40
0.3776592879335575
 40
0.4305969488165377
 40
0.4835346096995176
 40
0.5364722705824974
 40
0.5894099314654778
 40
0.6423475923484577
 40
0.6952852532314373
 40
0.7482229141144175
 40
0.8011605749973977
 40
0.8540982358803775
 40
0.9070358967633577
 40
1.0
 40
1.0
 40
1.0
 40
1.0
 10
16.33979955155078
 20
12.58821960880741
 30
0.0
 10
16.34257835794415
 20
12.58644167516137
 30
0.0
 10
16.34780752863612
 20
12.58309595142321
 30
0.0
 10
16.35522697473214
 20
12.57633652000631
 30
0.0
 10
16.36190458578792
 20
12.56889291207818
 30
0.0
 10
16.3679722439763
 20
12.56054622578989
 30
0.0
 10
16.37326293232067
 20
12.55156287828938
 30
0.0
 10
16.37763063607446
 20
12.54218094169316
 30
0.0
 10
16.38095491226536
 20
12.53266178158323
 30
0.0
 10
16.38314406630094
 20
12.52326725401725
 30
0.0
 10
16.38413772027155
 20
12.5142566550221
 30
0.0
 10
16.38390846666412
 20
12.5058784756722
 30
0.0
 10
16.38246263142078
 20
12.49836374926936
 30
0.0
 10
16.37984008256314
 20
12.49191996871105
 30
0.0
 10
16.3761131910464
 20
12.48672400433116
 30
0.0
 10
16.37138460969464
 20
12.4829223728888
 30
0.0
 10
16.36578528133009
 20
12.48060796640915
 30
0.0
 10
16.35946769443343
 20
12.47988926289417
 30
0.0
 10
16.35088583844231
 20
12.48080351179105
 30
0.0
 10
16.34411421873409
 20
12.48407042866764
 30
0.0
 10
16.33979955155078
 20
12.48615200732169
 30
0.0
  0
LINE
  5
24F
330
1F
100
AcDbEntity
  8
0
  6
Continuous
 62
     7
370
    25
100
AcDbLine
 10
15.5867308296
 20
13.0229569284
 30
0.0
 11
16.3397995516
 21
12.5882196088
 31
0.0
  0
SPLINE
  5
250
330
1F
100
AcDbEntity
  8
0
  6
Continuous
 62
     7
370
    25
100
AcDbSpline
210
0.0
220
0.0
230
1.0
 70
     8
 71
     3
 72
    20
 73
    16
 74
     0
 42
0.00000001
 43
0.00000001
 40
0.0
 40
0.0
 40
0.0
 40
0.0
 40
0.1220208336415364
 40
0.2292653365593435
 40
0.3365098394771502
 40
0.4437543423949571
 40
0.5509988453127639
 40
0.6040432035165533
 40
0.6570875617203412
 40
0.7101319199241293
 40
0.7631762781279172
 40
0.8162206363317052
 40
0.8692649945354931
 40
0.9223093527392808
 40
1.0
 40
1.0
 40
1.0
 40
1.0
 10
15.5867308295871
 20
12.92088932686728
 30
0.0
 10
15.58106714350254
 20
12.9248886792802
 30
0.0
 10
15.57042562551261
 20
12.93240307538455
 30
0.0
 10
15.55697346538955
 20
12.9501346007936
 30
0.0
 10
15.54745867036023
 20
12.96910992046815
 30
0.0
 10
15.54237088867411
 20
12.98851179015337
 30
0.0
 10
15.54230786450347
 20
13.0030871318691
 30
0.0
 10
15.54471907377384
 20
13.01275625498511
 30
0.0
 10
15.54767458302458
 20
13.01885235750164
 30
0.0
 10
15.55170779339585
 20
13.02365204812112
 30
0.0
 10
15.55670692097038
 20
13.02702336288399
 30
0.0
 10
15.56253393472933
 20
13.02888346621919
 30
0.0
 10
15.56902925338016
 20
13.02914003644872
 30
0.0
 10
15.57709039697558
 20
13.02775404450072
 30
0.0
 10
15.58313735901537
 20
13.0247450530566
 30
0.0
 10
15.5867308295871
 20
13.022956928353
 30
0.0
  0
LINE
  5
251
330
1F
100
AcDbEntity
  8
0
  6
Continuous
 62
     7
370
    25
100
AcDbLine
 10
16.3397995516
 20
12.6392534096
 30
0.0
 11
15.5867308296
 21
13.0739907291
 31
0.0
  0
SPLINE
  5
252
330
1F
100
AcDbEntity
  8
0
  6
Continuous
 62
     7
370
    25
100
AcDbSpline
210
0.0
220
0.0
230
1.0
 70
     8
 71
     3
 72
    25
 73
    21
 74
     0
 42
0.00000001
 43
0.00000001
 40
0.0
 40
0.0
 40
0.0
 40
0.0
 40
0.0600333226356728
 40
0.1129709835186538
 40
0.1659086444016351
 40
0.2188463052846163
 40
0.2717839661675969
 40
0.3247216270505771
 40
0.3776592879335576
 40
0.4305969488165377
 40
0.4835346096995168
 40
0.5364722705824971
 40
0.5894099314654775
 40
0.6423475923484575
 40
0.6952852532314372
 40
0.7482229141144179
 40
0.8011605749973988
 40
0.8540982358803787
 40
0.907035896763359
 40
1.0
 40
1.0
 40
1.0
 40
1.0
 10
16.33979955155078
 20
12.74132101103599
 30
0.0
 10
16.34257835794415
 20
12.73954307738995
 30
0.0
 10
16.34780752863612
 20
12.73619735365178
 30
0.0
 10
16.35522697473214
 20
12.72943792223489
 30
0.0
 10
16.36190458578792
 20
12.72199431430676
 30
0.0
 10
16.3679722439763
 20
12.71364762801847
 30
0.0
 10
16.37326293232067
 20
12.70466428051795
 30
0.0
 10
16.37763063607446
 20
12.69528234392173
 30
0.0
 10
16.38095491226536
 20
12.68576318381181
 30
0.0
 10
16.38314406630094
 20
12.67636865624583
 30
0.0
 10
16.38413772027155
 20
12.66735805725068
 30
0.0
 10
16.38390846666412
 20
12.65897987790078
 30
0.0
 10
16.38246263142078
 20
12.65146515149794
 30
0.0
 10
16.37984008256314
 20
12.64502137093963
 30
0.0
 10
16.3761131910464
 20
12.63982540655974
 30
0.0
 10
16.37138460969464
 20
12.63602377511738
 30
0.0
 10
16.36578528133009
 20
12.63370936863772
 30
0.0
 10
16.35946769443343
 20
12.63299066512274
 30
0.0
 10
16.35088583844231
 20
12.63390491401963
 30
0.0
 10
16.34411421873409
 20
12.63717183089621
 30
0.0
 10
16.33979955155078
 20
12.63925340955027
 30
0.0
  0
LINE
  5
253
330
1F
100
AcDbEntity
  8
0
  6
Continuous
 62
     7
370
    25
100
AcDbLine
 10
15.5867308296
 20
13.1760583306
 30
0.0
 11
16.3397995516
 21
12.741321011
 31
0.0
  0
SPLINE
  5
254
330
1F
100
AcDbEntity
  8
0
  6
Continuous
 62
     7
370
    25
100
AcDbSpline
210
0.0
220
0.0
230
1.0
 70
     8
 71
     3
 72
    20
 73
    16
 74
     0
 42
0.00000001
 43
0.00000001
 40
0.0
 40
0.0
 40
0.0
 40
0.0
 40
0.1220208336415366
 40
0.2292653365593436
 40
0.3365098394771506
 40
0.4437543423949581
 40
0.5509988453127631
 40
0.6040432035165515
 40
0.6570875617203394
 40
0.7101319199241278
 40
0.7631762781279159
 40
0.8162206363317032
 40
0.8692649945354908
 40
0.9223093527392785
 40
1.0
 40
1.0
 40
1.0
 40
1.0
 10
15.5867308295871
 20
13.07399072909586
 30
0.0
 10
15.58106714350254
 20
13.07799008150878
 30
0.0
 10
15.5704256255126
 20
13.08550447761313
 30
0.0
 10
15.55697346538955
 20
13.10323600302218
 30
0.0
 10
15.54745867036023
 20
13.12221132269673
 30
0.0
 10
15.54237088867411
 20
13.14161319238195
 30
0.0
 10
15.54230786450347
 20
13.15618853409767
 30
0.0
 10
15.54471907377384
 20
13.16585765721369
 30
0.0
 10
15.54767458302458
 20
13.17195375973021
 30
0.0
 10
15.55170779339585
 20
13.1767534503497
 30
0.0
 10
15.55670692097038
 20
13.18012476511256
 30
0.0
 10
15.56253393472933
 20
13.18198486844777
 30
0.0
 10
15.56902925338016
 20
13.1822414386773
 30
0.0
 10
15.57709039697558
 20
13.18085544672931
 30
0.0
 10
15.58313735901537
 20
13.17784645528518
 30
0.0
 10
15.5867308295871
 20
13.17605833058158
 30
0.0
  0
LINE
  5
255
330
1F
100
AcDbEntity
  8
0
  6
Continuous
 62
     7
370
    25
100
AcDbLine
 10
15.5867308296
 20
12.8698555261
 30
0.0
 11
16.3397995516
 21
12.4351182066
 31
0.0
  0
SPLINE
  5
256
330
1F
100
AcDbEntity
  8
0
  6
Continuous
 62
     7
370
    25
100
AcDbSpline
210
0.0
220
0.0
230
1.0
 70
     8
 71
     3
 72
    20
 73
    16
 74
     0
 42
0.00000001
 43
0.00000001
 40
0.0
 40
0.0
 40
0.0
 40
0.0
 40
0.1220208336415362
 40
0.2292653365593436
 40
0.33650983947715
 40
0.443754342394957
 40
0.5509988453127636
 40
0.6040432035165518
 40
0.6570875617203402
 40
0.7101319199241279
 40
0.7631762781279159
 40
0.8162206363317039
 40
0.869264994535492
 40
0.9223093527392807
 40
1.0
 40
1.0
 40
1.0
 40
1.0
 10
15.5867308295871
 20
12.7677879246387
 30
0.0
 10
15.58106714350254
 20
12.77178727705162
 30
0.0
 10
15.5704256255126
 20
12.77930167315597
 30
0.0
 10
15.55697346538955
 20
12.79703319856502
 30
0.0
 10
15.54745867036023
 20
12.81600851823957
 30
0.0
 10
15.54237088867411
 20
12.8354103879248
 30
0.0
 10
15.54230786450347
 20
12.84998572964052
 30
0.0
 10
15.54471907377384
 20
12.85965485275653
 30
0.0
 10
15.54767458302458
 20
12.86575095527306
 30
0.0
 10
15.55170779339585
 20
12.87055064589255
 30
0.0
 10
15.55670692097038
 20
12.87392196065541
 30
0.0
 10
15.56253393472933
 20
12.87578206399061
 30
0.0
 10
15.56902925338016
 20
12.87603863422015
 30
0.0
 10
15.57709039697558
 20
12.87465264227215
 30
0.0
 10
15.58313735901537
 20
12.87164365082802
 30
0.0
 10
15.5867308295871
 20
12.86985552612442
 30
0.0
  0
LINE
  5
257
330
1F
100
AcDbEntity
  8
0
  6
Continuous
 62
     7
370
    25
100
AcDbLine
 10
16.3397995516
 20
12.3330506051
 30
0.0
 11
15.5867308296
 21
12.7677879246
 31
0.0
  0
SPLINE
  5
258
330
1F
100
AcDbEntity
  8
0
  6
Continuous
 62
     7
370
    25
100
AcDbSpline
210
0.0
220
0.0
230
1.0
 70
     8
 71
     3
 72
    25
 73
    21
 74
     0
 42
0.00000001
 43
0.00000001
 40
0.0
 40
0.0
 40
0.0
 40
0.0
 40
0.0600333226356734
 40
0.1129709835186552
 40
0.1659086444016361
 40
0.218846305284617
 40
0.271783966167598
 40
0.3247216270505788
 40
0.3776592879335593
 40
0.4305969488165407
 40
0.4835346096995212
 40
0.5364722705824995
 40
0.5894099314654783
 40
0.6423475923484574
 40
0.6952852532314366
 40
0.7482229141144163
 40
0.8011605749973961
 40
0.8540982358803756
 40
0.9070358967633549
 40
1.0
 40
1.0
 40
1.0
 40
1.0
 10
16.33979955155078
 20
12.43511820657883
 30
0.0
 10
16.34257835794415
 20
12.4333402729328
 30
0.0
 10
16.34780752863612
 20
12.42999454919463
 30
0.0
 10
16.35522697473214
 20
12.42323511777774
 30
0.0
 10
16.36190458578792
 20
12.4157915098496
 30
0.0
 10
16.3679722439763
 20
12.40744482356132
 30
0.0
 10
16.37326293232067
 20
12.3984614760608
 30
0.0
 10
16.37763063607446
 20
12.38907953946458
 30
0.0
 10
16.38095491226536
 20
12.37956037935465
 30
0.0
 10
16.38314406630094
 20
12.37016585178867
 30
0.0
 10
16.38413772027155
 20
12.36115525279352
 30
0.0
 10
16.38390846666412
 20
12.35277707344363
 30
0.0
 10
16.38246263142078
 20
12.34526234704078
 30
0.0
 10
16.37984008256314
 20
12.33881856648247
 30
0.0
 10
16.3761131910464
 20
12.33362260210258
 30
0.0
 10
16.37138460969464
 20
12.32982097066022
 30
0.0
 10
16.36578528133009
 20
12.32750656418057
 30
0.0
 10
16.35946769443343
 20
12.32678786066559
 30
0.0
 10
16.35088583844231
 20
12.32770210956247
 30
0.0
 10
16.34411421873409
 20
12.33096902643906
 30
0.0
 10
16.33979955155078
 20
12.33305060509311
 30
0.0
  0
LINE
  5
259
330
1F
100
AcDbEntity
  8
0
  6
Continuous
 62
     7
370
    25
100
AcDbLine
 10
16.3397995516
 20
12.1799492029
 30
0.0
 11
15.5867308296
 21
12.6146865224
 31
0.0
  0
SPLINE
  5
25A
330
1F
100
AcDbEntity
  8
0
  6
Continuous
 62
     7
370
    25
100
AcDbSpline
210
0.0
220
0.0
230
1.0
 70
     8
 71
     3
 72
    25
 73
    21
 74
     0
 42
0.00000001
 43
0.00000001
 40
0.0
 40
0.0
 40
0.0
 40
0.0
 40
0.0600333226356726
 40
0.1129709835186536
 40
0.165908644401635
 40
0.2188463052846152
 40
0.2717839661675959
 40
0.3247216270505759
 40
0.3776592879335569
 40
0.4305969488165368
 40
0.4835346096995165
 40
0.5364722705824974
 40
0.5894099314654774
 40
0.6423475923484567
 40
0.6952852532314368
 40
0.7482229141144172
 40
0.8011605749973966
 40
0.8540982358803764
 40
0.9070358967633558
 40
1.0
 40
1.0
 40
1.0
 40
1.0
 10
16.33979955155078
 20
12.28201680435025
 30
0.0
 10
16.34257835794415
 20
12.28023887070422
 30
0.0
 10
16.34780752863612
 20
12.27689314696605
 30
0.0
 10
16.35522697473214
 20
12.27013371554916
 30
0.0
 10
16.36190458578792
 20
12.26269010762102
 30
0.0
 10
16.3679722439763
 20
12.25434342133274
 30
0.0
 10
16.37326293232067
 20
12.24536007383222
 30
0.0
 10
16.37763063607446
 20
12.235978137236
 30
0.0
 10
16.38095491226536
 20
12.22645897712608
 30
0.0
 10
16.38314406630094
 20
12.21706444956009
 30
0.0
 10
16.38413772027155
 20
12.20805385056494
 30
0.0
 10
16.38390846666412
 20
12.19967567121505
 30
0.0
 10
16.38246263142078
 20
12.1921609448122
 30
0.0
 10
16.37984008256314
 20
12.18571716425389
 30
0.0
 10
16.3761131910464
 20
12.180521199874
 30
0.0
 10
16.37138460969464
 20
12.17671956843164
 30
0.0
 10
16.36578528133009
 20
12.17440516195199
 30
0.0
 10
16.35946769443343
 20
12.17368645843701
 30
0.0
 10
16.35088583844231
 20
12.17460070733389
 30
0.0
 10
16.34411421873409
 20
12.17786762421048
 30
0.0
 10
16.33979955155078
 20
12.17994920286453
 30
0.0
  0
LINE
  5
25B
330
1F
100
AcDbEntity
  8
0
  6
Continuous
 62
     7
370
    25
100
AcDbLine
 10
15.5867308296
 20
12.7167541239
 30
0.0
 11
16.3397995516
 21
12.2820168044
 31
0.0
  0
SPLINE
  5
25C
330
1F
100
AcDbEntity
  8
0
  6
Continuous
 62
     7
370
    25
100
AcDbSpline
210
0.0
220
0.0
230
1.0
 70
     8
 71
     3
 72
    20
 73
    16
 74
     0
 42
0.00000001
 43
0.00000001
 40
0.0
 40
0.0
 40
0.0
 40
0.0
 40
0.1220208336415365
 40
0.2292653365593437
 40
0.336509839477151
 40
0.4437543423949576
 40
0.5509988453127639
 40
0.6040432035165529
 40
0.6570875617203422
 40
0.7101319199241304
 40
0.7631762781279184
 40
0.8162206363317055
 40
0.8692649945354928
 40
0.9223093527392806
 40
1.0
 40
1.0
 40
1.0
 40
1.0
 10
15.5867308295871
 20
12.61468652241013
 30
0.0
 10
15.58106714350254
 20
12.61868587482304
 30
0.0
 10
15.5704256255126
 20
12.6262002709274
 30
0.0
 10
15.55697346538955
 20
12.64393179633644
 30
0.0
 10
15.54745867036023
 20
12.66290711601099
 30
0.0
 10
15.54237088867411
 20
12.68230898569622
 30
0.0
 10
15.54230786450347
 20
12.69688432741194
 30
0.0
 10
15.54471907377384
 20
12.70655345052795
 30
0.0
 10
15.54767458302458
 20
12.71264955304448
 30
0.0
 10
15.55170779339585
 20
12.71744924366397
 30
0.0
 10
15.55670692097038
 20
12.72082055842683
 30
0.0
 10
15.56253393472933
 20
12.72268066176203
 30
0.0
 10
15.56902925338016
 20
12.72293723199157
 30
0.0
 10
15.57709039697558
 20
12.72155124004357
 30
0.0
 10
15.58313735901537
 20
12.71854224859944
 30
0.0
 10
15.5867308295871
 20
12.71675412389585
 30
0.0
  0
LINE
  5
25D
330
1F
100
AcDbEntity
  8
0
  6
Continuous
 62
     7
370
    25
100
AcDbLine
 10
17.9997327204
 20
13.6029993794
 30
0.0
 11
17.9997327204
 21
10.9982341895
 31
0.0
  0
LINE
  5
25E
330
1F
100
AcDbEntity
  8
0
  6
Continuous
 62
     7
370
    25
100
AcDbLine
 10
17.7310321435
 20
10.8431166482
 30
0.0
 11
17.9997327204
 21
10.9982341895
 31
0.0
  0
LINE
  5
25F
330
1F
100
AcDbEntity
  8
0
  6
Continuous
 62
     7
370
    25
100
AcDbLine
 10
14.4854120179
 20
15.6562697616
 30
0.0
 11
14.216711441
 21
15.5011522204
 31
0.0
  0
LINE
  5
260
330
1F
100
AcDbEntity
  8
0
  6
Continuous
 62
     7
370
    25
100
AcDbLine
 10
14.4854120179
 20
15.6562697616
 30
0.0
 11
17.978519517
 21
13.6397417254
 31
0.0
  0
ARC
  5
261
330
1F
100
AcDbEntity
  8
0
  6
Continuous
 62
     7
370
    25
100
AcDbCircle
 10
17.9854621537
 20
10.9964172686
 30
0.0
 40
0.0143857663891136
100
AcDbArc
 50
304.0563508234
 51
7.25582957
  0
ARC
  5
262
330
1F
100
AcDbEntity
  8
0
  6
Continuous
 62
     7
370
    25
100
AcDbCircle
 10
14.4766244162
 20
15.6440033217
 30
0.0
 40
0.0150893170770545
100
AcDbArc
 50
54.3824225248
 51
114.3071190461
  0
LWPOLYLINE
  5
263
330
1F
100
AcDbEntity
  8
0
  6
Continuous
 62
     7
370
    25
100
AcDbPolyline
 90
       29
 70
   128
 43
0.0
 10
14.788000557
 20
14.0077227256
 10
14.7556659414
 20
14.0221820272
 10
14.7249527184
 20
14.0275021296
 10
14.6974009773
 20
14.0234162607
 10
14.6743922775
 20
14.0101293031
 10
14.6570803712
 20
13.9883075202
 10
14.6463333496
 20
13.9590451474
 10
14.6426901134
 20
13.9238095222
 10
14.6463333496
 20
13.8843675061
 10
14.6570803712
 20
13.8426968864
 10
14.6743922775
 20
13.8008872019
 10
14.6974009773
 20
13.7610349649
 10
14.7249527184
 20
13.7251385329
 10
14.7556659414
 20
13.6949979029
 10
14.788000557
 20
13.6721244519
 10
14.8203351726
 20
13.6576651503
 10
14.8510483955
 20
13.6523450479
 10
14.8786001366
 20
13.6564309168
 10
14.9016088365
 20
13.6697178744
 10
14.9189207428
 20
13.6915396573
 10
14.9296677643
 20
13.7208020301
 10
14.9333110005
 20
13.7560376553
 10
14.9296677643
 20
13.7954796714
 10
14.9189207428
 20
13.8371502911
 10
14.9016088365
 20
13.8789599756
 10
14.8786001366
 20
13.9188122126
 10
14.8510483955
 20
13.9547086446
 10
14.8203351726
 20
13.9848492746
 10
14.788000557
 20
14.0077227256
  0
ARC
  5
264
330
1F
100
AcDbEntity
  8
0
  6
Continuous
 62
     7
370
    25
100
AcDbCircle
 10
14.7316105871
 20
13.928460873
 30
0.0
 40
0.1010011046812853
100
AcDbArc
 50
53.6073712523
 51
115.0821703186
  0
LWPOLYLINE
  5
265
330
1F
100
AcDbEntity
  8
0
  6
Continuous
 62
     7
370
    25
100
AcDbPolyline
 90
       12
 70
   128
 43
0.0
 10
14.8942777407
 20
13.6639915678
 10
14.9051443704
 20
13.6717588947
 10
14.9224562767
 20
13.6935806776
 10
14.9332032982
 20
13.7228430504
 10
14.9368465344
 20
13.7580786755
 10
14.9332032982
 20
13.7975206917
 10
14.9224562767
 20
13.8391913114
 10
14.9051443704
 20
13.8810009959
 10
14.8821356705
 20
13.9208532329
 10
14.8545839295
 20
13.9567496649
 10
14.8238707065
 20
13.9868902949
 10
14.7915360909
 20
14.0097637459
  0
LINE
  5
266
330
1F
100
AcDbEntity
  8
0
  6
Continuous
 62
     7
370
    25
100
AcDbLine
 10
14.7624850388
 20
13.9056871846
 30
0.0
 11
14.8135160751
 21
13.8762275944
 31
0.0
  0
LINE
  5
267
330
1F
100
AcDbEntity
  8
0
  6
Continuous
 62
     7
370
    25
100
AcDbLine
 10
14.7369695207
 20
13.869383179
 30
0.0
 11
14.7624850388
 21
13.9056871846
 31
0.0
  0
LINE
  5
268
330
1F
100
AcDbEntity
  8
0
  6
Continuous
 62
     7
370
    25
100
AcDbLine
 10
14.7624850388
 20
13.8036195831
 30
0.0
 11
14.7369695207
 21
13.869383179
 31
0.0
  0
LINE
  5
269
330
1F
100
AcDbEntity
  8
0
  6
Continuous
 62
     7
370
    25
100
AcDbLine
 10
14.8135160751
 20
13.7741599929
 30
0.0
 11
14.7624850388
 21
13.8036195831
 31
0.0
  0
LINE
  5
26A
330
1F
100
AcDbEntity
  8
0
  6
Continuous
 62
     7
370
    25
100
AcDbLine
 10
14.8390315933
 20
13.8104639986
 30
0.0
 11
14.8135160751
 21
13.7741599929
 31
0.0
  0
LINE
  5
26B
330
1F
100
AcDbEntity
  8
0
  6
Continuous
 62
     7
370
    25
100
AcDbLine
 10
14.8135160751
 20
13.8762275944
 30
0.0
 11
14.8390315933
 21
13.8104639986
 31
0.0
  0
ARC
  5
26C
330
1F
100
AcDbEntity
  8
0
  6
Continuous
 62
     7
370
    25
100
AcDbCircle
 10
14.9109967509
 20
13.9109109115
 30
0.0
 40
0.1070662396195921
100
AcDbArc
 50
201.3022023724
 51
216.1900440244
  0
LINE
  5
26D
330
1F
100
AcDbEntity
  8
0
  6
Continuous
 62
     7
370
    25
100
AcDbLine
 10
14.8088574857
 20
13.8789169409
 30
0.0
 11
14.8112455697
 21
13.8720151339
 31
0.0
  0
LINE
  5
26E
330
1F
100
AcDbEntity
  8
0
  6
Continuous
 62
     7
370
    25
100
AcDbLine
 10
14.7811708779
 20
13.8949000793
 30
0.0
 11
14.7369695207
 21
13.869383179
 31
0.0
  0
LINE
  5
26F
330
1F
100
AcDbEntity
  8
0
  6
Continuous
 62
     7
370
    25
100
AcDbLine
 10
14.8240033288
 20
13.839133336
 30
0.0
 11
14.7624850388
 21
13.8036195831
 31
0.0
  0
LINE
  5
270
330
1F
100
AcDbEntity
  8
0
  6
Continuous
 62
     7
370
    25
100
AcDbLine
 10
14.8290352823
 20
13.836228451
 30
0.0
 11
14.8240033288
 21
13.839133336
 31
0.0
  0
LINE
  5
271
330
1F
100
AcDbEntity
  8
0
  6
Continuous
 62
     7
370
    25
100
AcDbLine
 10
14.8112455697
 20
13.8720151339
 30
0.0
 11
14.8084841216
 21
13.8791324793
 31
0.0
  0
LINE
  5
272
330
1F
100
AcDbEntity
  8
0
  6
Continuous
 62
     7
370
    25
100
AcDbLine
 10
14.8240033288
 20
13.839133336
 30
0.0
 11
14.8112455697
 21
13.8720151339
 31
0.0
  0
LWPOLYLINE
  5
273
330
1F
100
AcDbEntity
  8
0
  6
Continuous
 62
     7
370
    25
100
AcDbPolyline
 90
       29
 70
   128
 43
0.0
 10
17.130645323
 20
12.6553426884
 10
17.0983107074
 20
12.6698019899
 10
17.0675974845
 20
12.6751220924
 10
17.0400457434
 20
12.6710362235
 10
17.0170370436
 20
12.6577492658
 10
16.9997251372
 20
12.635927483
 10
16.9889781157
 20
12.6066651102
 10
16.9853348795
 20
12.571429485
 10
16.9889781157
 20
12.5319874689
 10
16.9997251372
 20
12.4903168491
 10
17.0170370436
 20
12.4485071647
 10
17.0400457434
 20
12.4086549277
 10
17.0675974845
 20
12.3727584957
 10
17.0983107074
 20
12.3426178656
 10
17.130645323
 20
12.3197444147
 10
17.1629799387
 20
12.3052851131
 10
17.1936931616
 20
12.2999650107
 10
17.2212449027
 20
12.3040508796
 10
17.2442536025
 20
12.3173378372
 10
17.2615655089
 20
12.3391596201
 10
17.2723125304
 20
12.3684219929
 10
17.2759557666
 20
12.403657618
 10
17.2723125304
 20
12.4430996342
 10
17.2615655089
 20
12.4847702539
 10
17.2442536025
 20
12.5265799384
 10
17.2212449027
 20
12.5664321754
 10
17.1936931616
 20
12.6023286074
 10
17.1629799387
 20
12.6324692374
 10
17.130645323
 20
12.6553426884
  0
ARC
  5
274
330
1F
100
AcDbEntity
  8
0
  6
Continuous
 62
     7
370
    25
100
AcDbCircle
 10
17.0742553532
 20
12.5760808357
 30
0.0
 40
0.1010011046812957
100
AcDbArc
 50
53.6073712523
 51
115.0821703186
  0
LWPOLYLINE
  5
275
330
1F
100
AcDbEntity
  8
0
  6
Continuous
 62
     7
370
    25
100
AcDbPolyline
 90
       12
 70
   128
 43
0.0
 10
17.2369225067
 20
12.3116115306
 10
17.2477891364
 20
12.3193788575
 10
17.2651010428
 20
12.3412006404
 10
17.2758480643
 20
12.3704630132
 10
17.2794913005
 20
12.4056986383
 10
17.2758480643
 20
12.4451406545
 10
17.2651010428
 20
12.4868112742
 10
17.2477891364
 20
12.5286209586
 10
17.2247804366
 20
12.5684731957
 10
17.1972286955
 20
12.6043696277
 10
17.1665154726
 20
12.6345102577
 10
17.134180857
 20
12.6573837086
  0
LINE
  5
276
330
1F
100
AcDbEntity
  8
0
  6
Continuous
 62
     7
370
    25
100
AcDbLine
 10
17.1051298049
 20
12.5533071474
 30
0.0
 11
17.1561608412
 21
12.5238475572
 31
0.0
  0
LINE
  5
277
330
1F
100
AcDbEntity
  8
0
  6
Continuous
 62
     7
370
    25
100
AcDbLine
 10
17.0796142867
 20
12.5170031417
 30
0.0
 11
17.1051298049
 21
12.5533071474
 31
0.0
  0
LINE
  5
278
330
1F
100
AcDbEntity
  8
0
  6
Continuous
 62
     7
370
    25
100
AcDbLine
 10
17.1051298049
 20
12.4512395459
 30
0.0
 11
17.0796142867
 21
12.5170031417
 31
0.0
  0
LINE
  5
279
330
1F
100
AcDbEntity
  8
0
  6
Continuous
 62
     7
370
    25
100
AcDbLine
 10
17.1561608412
 20
12.4217799557
 30
0.0
 11
17.1051298049
 21
12.4512395459
 31
0.0
  0
LINE
  5
27A
330
1F
100
AcDbEntity
  8
0
  6
Continuous
 62
     7
370
    25
100
AcDbLine
 10
17.1816763594
 20
12.4580839613
 30
0.0
 11
17.1561608412
 21
12.4217799557
 31
0.0
  0
LINE
  5
27B
330
1F
100
AcDbEntity
  8
0
  6
Continuous
 62
     7
370
    25
100
AcDbLine
 10
17.1561608412
 20
12.5238475572
 30
0.0
 11
17.1816763594
 21
12.4580839613
 31
0.0
  0
ARC
  5
27C
330
1F
100
AcDbEntity
  8
0
  6
Continuous
 62
     7
370
    25
100
AcDbCircle
 10
17.253641517
 20
12.5585308743
 30
0.0
 40
0.1070662396192333
100
AcDbArc
 50
201.3022023723
 51
216.1900440244
  0
LINE
  5
27D
330
1F
100
AcDbEntity
  8
0
  6
Continuous
 62
     7
370
    25
100
AcDbLine
 10
17.1515022517
 20
12.5265369036
 30
0.0
 11
17.1538903358
 21
12.5196350967
 31
0.0
  0
LINE
  5
27E
330
1F
100
AcDbEntity
  8
0
  6
Continuous
 62
     7
370
    25
100
AcDbLine
 10
17.1238156439
 20
12.5425200421
 30
0.0
 11
17.0796142867
 21
12.5170031417
 31
0.0
  0
LINE
  5
27F
330
1F
100
AcDbEntity
  8
0
  6
Continuous
 62
     7
370
    25
100
AcDbLine
 10
17.1666480949
 20
12.4867532987
 30
0.0
 11
17.1051298049
 21
12.4512395459
 31
0.0
  0
LINE
  5
280
330
1F
100
AcDbEntity
  8
0
  6
Continuous
 62
     7
370
    25
100
AcDbLine
 10
17.1716800484
 20
12.4838484138
 30
0.0
 11
17.1666480949
 21
12.4867532987
 31
0.0
  0
LINE
  5
281
330
1F
100
AcDbEntity
  8
0
  6
Continuous
 62
     7
370
    25
100
AcDbLine
 10
17.1538903358
 20
12.5196350967
 30
0.0
 11
17.1511288877
 21
12.5267524421
 31
0.0
  0
LINE
  5
282
330
1F
100
AcDbEntity
  8
0
  6
Continuous
 62
     7
370
    25
100
AcDbLine
 10
17.1666480949
 20
12.4867532987
 30
0.0
 11
17.1538903358
 21
12.5196350967
 31
0.0
  0
LWPOLYLINE
  5
283
330
1F
100
AcDbEntity
  8
0
  6
Continuous
 62
     7
370
    25
100
AcDbPolyline
 90
        3
 70
   128
 43
0.0
 10
17.8726072623
 20
13.7008835686
 10
17.8468368458
 20
13.7240636658
 10
17.8123494234
 20
13.7478952317
  0
LINE
  5
284
330
1F
100
AcDbEntity
  8
0
  6
Continuous
 62
     7
370
    25
100
AcDbLine
 10
17.8123494234
 20
13.7478952317
 30
0.0
 11
14.8919984171
 21
15.4337779826
 31
0.0
  0
LWPOLYLINE
  5
285
330
1F
100
AcDbEntity
  8
0
  6
Continuous
 62
     7
370
    25
100
AcDbPolyline
 90
        3
 70
   128
 43
0.0
 10
14.8919984171
 20
15.4337779826
 10
14.8575109947
 20
15.4497647471
 10
14.8317405782
 20
15.4563385394
  0
LWPOLYLINE
  5
286
330
1F
100
AcDbEntity
  8
0
  6
Continuous
 62
     7
370
    25
100
AcDbPolyline
 90
       12
 70
   128
 43
0.0
 10
20.8584183031
 20
12.2113685722
 10
20.856136994
 20
12.2401061793
 10
20.8463467099
 20
12.2624258582
 10
20.8299028421
 20
12.2763775067
 10
20.8082421146
 20
12.2807421494
 10
20.7832570561
 20
12.2751384413
 10
20.7571306468
 20
12.2600559862
 10
20.7321455883
 20
12.2368125599
 10
20.7104848608
 20
12.2074389735
 10
20.694040993
 20
12.1745016393
 10
20.6842507089
 20
12.1408783391
 10
20.6819693998
 20
12.1095067884
  0
LWPOLYLINE
  5
287
330
1F
100
AcDbEntity
  8
0
  6
Continuous
 62
     7
370
    25
100
AcDbPolyline
 90
       27
 70
   128
 43
0.0
 10
20.6819693998
 20
12.1095067884
 10
20.6521681287
 20
12.0681255866
 10
20.627182178
 20
12.0231018795
 10
20.6080309472
 20
11.9762725852
 10
20.5954957854
 20
11.9295482876
 10
20.5900881136
 20
11.884835287
 10
20.5920285589
 20
11.843957825
 10
20.6012379532
 20
11.8085836571
 10
20.6173405633
 20
11.7801560108
 10
20.6396794203
 20
11.7598347029
 10
20.6673431233
 20
11.7484488206
 10
20.6992030236
 20
11.7464628955
 10
20.7339592719
 20
11.753957951
 10
20.7701938514
 20
11.7706281971
 10
20.806428431
 20
11.795793506
 10
20.8411846793
 20
11.8284271607
 10
20.8730445795
 20
11.8671977437
 10
20.9007082826
 20
11.9105234576
 10
20.9230471396
 20
11.9566366608
 10
20.9391497497
 20
12.003655985
 10
20.948359144
 20
12.0496630932
 10
20.9502995893
 20
12.0927809457
 10
20.9448919175
 20
12.1312503813
 10
20.9323567557
 20
12.1635018891
 10
20.9132055248
 20
12.188219643
 10
20.8882195742
 20
12.2043951854
 10
20.8584183031
 20
12.2113685722
  0
LINE
  5
288
330
1F
100
AcDbEntity
  8
0
  6
Continuous
 62
     7
370
    25
100
AcDbLine
 10
20.6819693998
 20
12.1095067884
 30
0.0
 11
19.4586746683
 21
12.8156998052
 31
0.0
  0
ARC
  5
289
330
1F
100
AcDbEntity
  8
0
  6
Continuous
 62
     7
370
    25
100
AcDbCircle
 10
19.6508181437
 20
12.8137701951
 30
0.0
 40
0.1921531642931927
100
AcDbArc
 50
133.4727873638
 51
179.4246237333
  0
LINE
  5
28A
330
1F
100
AcDbEntity
  8
0
  6
Continuous
 62
     7
370
    25
100
AcDbLine
 10
19.6092185114
 20
12.9009116004
 30
0.0
 11
19.5186148487
 21
12.9532159815
 31
0.0
  0
ELLIPSE
  5
28B
330
1F
100
AcDbEntity
  8
0
  6
Continuous
 62
     7
370
    25
100
AcDbEllipse
 10
19.7019186836
 20
12.7833526184
 30
0.0
 11
-0.06034204352400254
 21
0.1450980612726039
 31
0.0
210
0.0
220
0.0
230
1.0
 40
0.6463005949
 41
6.041385109394617
 42
6.692844083989478
  0
ELLIPSE
  5
28C
330
1F
100
AcDbEntity
  8
0
  6
Continuous
 62
     7
370
    25
100
AcDbEllipse
 10
19.827022191
 20
12.5233275141
 30
0.0
 11
0.2919796755316568
 21
0.1127494522241257
 31
0.0
210
0.0
220
0.0
230
1.0
 40
0.3832768703
 41
3.283816221520834
 42
3.441410751789765
  0
LINE
  5
28D
330
1F
100
AcDbEntity
  8
0
  6
Continuous
 62
     7
370
    25
100
AcDbLine
 10
19.4314725199
 20
12.4608816253
 30
0.0
 11
19.5441159436
 21
12.395853961
 31
0.0
  0
ELLIPSE
  5
28E
330
1F
100
AcDbEntity
  8
0
  6
Continuous
 62
     7
370
    25
100
AcDbEllipse
 10
19.827022191
 20
12.5233275141
 30
0.0
 11
0.3178894977984613
 21
0.04140341780605895
 31
0.0
210
0.0
220
0.0
230
1.0
 40
0.6463532555
 41
2.900093338936064
 42
3.215119871349746
  0
LINE
  5
28F
330
1F
100
AcDbEntity
  8
0
  6
Continuous
 62
     7
370
    25
100
AcDbLine
 10
19.3688190818
 20
12.6148973355
 30
0.0
 11
19.5119575081
 21
12.5322652809
 31
0.0
  0
ARC
  5
290
330
1F
100
AcDbEntity
  8
0
  6
Continuous
 62
     7
370
    25
100
AcDbCircle
 10
19.7399994378
 20
12.5634823583
 30
0.0
 40
0.3747243741487504
100
AcDbArc
 50
154.7860592252
 51
172.1137143324
  0
LINE
  5
291
330
1F
100
AcDbEntity
  8
0
  6
Continuous
 62
     7
370
    25
100
AcDbLine
 10
19.4009775174
 20
12.7231147299
 30
0.0
 11
19.5441159436
 21
12.6404826753
 31
0.0
  0
ELLIPSE
  5
292
330
1F
100
AcDbEntity
  8
0
  6
Continuous
 62
     7
370
    25
100
AcDbEllipse
 10
19.827022191
 20
12.5233275141
 30
0.0
 11
0.2661947624131145
 21
-0.1537109472412528
 31
0.0
210
0.0
220
0.0
230
1.0
 40
0.829573409
 41
2.984133912578155
 42
3.299160444991833
  0
ARC
  5
293
330
1F
100
AcDbEntity
  8
0
  6
Continuous
 62
     7
370
    25
100
AcDbCircle
 10
19.7851073413
 20
12.5494239068
 30
0.0
 40
0.4212613725788055
100
AcDbArc
 50
140.7953722293
 51
144.7759972787
  0
LINE
  5
294
330
1F
100
AcDbEntity
  8
0
  6
Continuous
 62
     7
370
    25
100
AcDbLine
 10
19.9110591123
 20
12.8626025771
 30
0.0
 11
19.9110591123
 21
12.9279258421
 31
0.0
  0
LINE
  5
295
330
1F
100
AcDbEntity
  8
0
  6
Continuous
 62
     7
370
    25
100
AcDbLine
 10
19.9110591123
 20
12.9279258421
 30
0.0
 11
19.8332036214
 21
12.8829808239
 31
0.0
  0
LINE
  5
296
330
1F
100
AcDbEntity
  8
0
  6
Continuous
 62
     7
370
    25
100
AcDbLine
 10
19.82439912
 20
13.1194926949
 30
0.0
 11
19.78439912
 21
13.14259171
 31
0.0
  0
LINE
  5
297
330
1F
100
AcDbEntity
  8
0
  6
Continuous
 62
     7
370
    25
100
AcDbLine
 10
19.78439912
 20
13.14259171
 30
0.0
 11
19.6707213829
 21
12.9456960943
 31
0.0
  0
LINE
  5
298
330
1F
100
AcDbEntity
  8
0
  6
Continuous
 62
     7
370
    25
100
AcDbLine
 10
19.5751833912
 20
13.1218858012
 30
0.0
 11
19.5186148487
 21
13.0892294767
 31
0.0
  0
LINE
  5
299
330
1F
100
AcDbEntity
  8
0
  6
Continuous
 62
     7
370
    25
100
AcDbLine
 10
19.5186148487
 20
12.9532159815
 30
0.0
 11
19.5186148487
 21
13.0892294767
 31
0.0
  0
LINE
  5
29A
330
1F
100
AcDbEntity
  8
0
  6
Continuous
 62
     7
370
    25
100
AcDbLine
 10
19.30939912
 20
12.8683800468
 30
0.0
 11
19.26939912
 21
12.7990980147
 31
0.0
  0
LINE
  5
29B
330
1F
100
AcDbEntity
  8
0
  6
Continuous
 62
     7
370
    25
100
AcDbLine
 10
19.26939912
 20
12.7990980147
 30
0.0
 11
19.4009775174
 21
12.7231147299
 31
0.0
  0
LINE
  5
29C
330
1F
100
AcDbEntity
  8
0
  6
Continuous
 62
     7
370
    25
100
AcDbLine
 10
19.1827391277
 20
12.5074756645
 30
0.0
 11
19.3688190818
 21
12.6148973355
 31
0.0
  0
LINE
  5
29D
330
1F
100
AcDbEntity
  8
0
  6
Continuous
 62
     7
370
    25
100
AcDbLine
 10
19.1827391277
 20
12.5074756645
 30
0.0
 11
19.1827391277
 21
12.4421523996
 31
0.0
  0
LINE
  5
29E
330
1F
100
AcDbEntity
  8
0
  6
Continuous
 62
     7
370
    25
100
AcDbLine
 10
19.26939912
 20
12.2505855468
 30
0.0
 11
19.3889656954
 21
12.4576809296
 31
0.0
  0
LINE
  5
29F
330
1F
100
AcDbEntity
  8
0
  6
Continuous
 62
     7
370
    25
100
AcDbLine
 10
19.26939912
 20
12.2505855468
 30
0.0
 11
19.30939912
 21
12.2274865316
 31
0.0
  0
LINE
  5
2A0
330
1F
100
AcDbEntity
  8
0
  6
Continuous
 62
     7
370
    25
100
AcDbLine
 10
19.5186148487
 20
12.2481924405
 30
0.0
 11
19.5186148487
 21
12.3381184061
 31
0.0
  0
LINE
  5
2A1
330
1F
100
AcDbEntity
  8
0
  6
Continuous
 62
     7
370
    25
100
AcDbLine
 10
19.5186148487
 20
12.2481924405
 30
0.0
 11
19.5751833912
 21
12.2808487649
 31
0.0
  0
LWPOLYLINE
  5
2A2
330
1F
100
AcDbEntity
  8
0
  6
Continuous
 62
     7
370
    25
100
AcDbPolyline
 90
        3
 70
   128
 43
0.0
 10
19.9181301801
 20
12.8993462502
 10
19.914517385
 20
12.8375993566
 10
19.9103218306
 20
12.8073777001
  0
LWPOLYLINE
  5
2A3
330
1F
100
AcDbEntity
  8
0
  6
Continuous
 62
     7
370
    25
100
AcDbPolyline
 90
       38
 70
   128
 43
0.0
 10
19.6519604854
 20
12.3345314816
 10
19.6113627171
 20
12.3000819091
 10
19.5598548971
 20
12.2640955482
 10
19.5080949078
 20
12.2363023751
 10
19.4570901982
 20
12.2172433523
 10
19.4078335172
 20
12.207289442
 10
19.3612835899
 20
12.2066343858
 10
19.3183464578
 20
12.2152909336
 10
19.2798578433
 20
12.2330905955
 10
19.2465668835
 20
12.2596869214
 10
19.2191215491
 20
12.294562244
 10
19.1980560322
 20
12.3370377549
 10
19.1837803492
 20
12.3862867165
 10
19.1765723601
 20
12.4413505538
 10
19.1765723601
 20
12.5011575119
 10
19.1837803492
 20
12.5645435164
 10
19.1980560322
 20
12.6302748307
 10
19.2191215491
 20
12.6970720696
 10
19.2465668835
 20
12.7636351009
 10
19.2798578433
 20
12.8286683508
 10
19.3183464578
 20
12.8909060212
 10
19.3612835899
 20
12.9491367265
 10
19.4078335172
 20
13.0022270723
 10
19.4570901982
 20
13.0491437154
 10
19.5080949078
 20
13.0889734768
 10
19.5598548971
 20
13.1209411154
 10
19.6113627171
 20
13.1444244175
 10
19.6616158264
 20
13.1589663073
 10
19.7096361055
 20
13.1642837435
 10
19.7544888944
 20
13.1602732283
 10
19.7953011843
 20
13.1470128218
 10
19.8312786107
 20
13.1247606226
 10
19.8617209138
 20
13.0939497447
 10
19.8860355687
 20
13.0551798865
 10
19.9037493184
 20
13.0092056594
 10
19.914517385
 20
12.9569218993
 10
19.9181301801
 20
12.8993462502
 10
19.9181301801
 20
12.8993462502
  0
LWPOLYLINE
  5
2A4
330
1F
100
AcDbEntity
  8
0
  6
Continuous
 62
     7
370
    25
100
AcDbPolyline
 90
       25
 70
   128
 43
0.0
 10
19.2066387067
 20
12.2752659142
 10
19.2020760974
 20
12.2779930417
 10
19.1687851376
 20
12.3045893676
 10
19.1413398031
 20
12.3394646902
 10
19.1202742863
 20
12.381940201
 10
19.1059986033
 20
12.4311891627
 10
19.0987906141
 20
12.486253
 10
19.0987906141
 20
12.5460599581
 10
19.1059986033
 20
12.6094459625
 10
19.1202742863
 20
12.6751772768
 10
19.1413398031
 20
12.7419745158
 10
19.1687851376
 20
12.8085375471
 10
19.2020760974
 20
12.873570797
 10
19.2405647119
 20
12.9358084673
 10
19.283501844
 20
12.9940391726
 10
19.3300517713
 20
13.0471295184
 10
19.3793084523
 20
13.0940461616
 10
19.4303131618
 20
13.1338759229
 10
19.4820731512
 20
13.1658435615
 10
19.5335809711
 20
13.1893268636
 10
19.5838340805
 20
13.2038687534
 10
19.6318543596
 20
13.2091861897
 10
19.6767071484
 20
13.2051756745
 10
19.7175194384
 20
13.1919152679
 10
19.7315960414
 20
13.1846172197
  0
LINE
  5
2A5
330
1F
100
AcDbEntity
  8
0
  6
Continuous
 62
     7
370
    25
100
AcDbLine
 10
19.30939912
 20
12.8683800468
 30
0.0
 11
19.5841159436
 21
12.7097647074
 31
0.0
  0
LINE
  5
2A6
330
1F
100
AcDbEntity
  8
0
  6
Continuous
 62
     7
370
    25
100
AcDbLine
 10
19.26939912
 20
12.7990980147
 30
0.0
 11
19.5441159436
 21
12.6404826753
 31
0.0
  0
LINE
  5
2A7
330
1F
100
AcDbEntity
  8
0
  6
Continuous
 62
     7
370
    25
100
AcDbLine
 10
19.1827391277
 20
12.5074756645
 30
0.0
 11
19.5119575081
 21
12.5322652809
 31
0.0
  0
LINE
  5
2A8
330
1F
100
AcDbEntity
  8
0
  6
Continuous
 62
     7
370
    25
100
AcDbLine
 10
19.1827391277
 20
12.4421523996
 30
0.0
 11
19.5119575081
 21
12.4669420159
 31
0.0
  0
LINE
  5
2A9
330
1F
100
AcDbEntity
  8
0
  6
Continuous
 62
     7
370
    25
100
AcDbLine
 10
19.5186148487
 20
13.0892294767
 30
0.0
 11
19.6092185114
 21
12.9009116004
 31
0.0
  0
LINE
  5
2AA
330
1F
100
AcDbEntity
  8
0
  6
Continuous
 62
     7
370
    25
100
AcDbLine
 10
19.5751833912
 20
13.1218858012
 30
0.0
 11
19.6657870539
 21
12.9335679248
 31
0.0
  0
LINE
  5
2AB
330
1F
100
AcDbEntity
  8
0
  6
Continuous
 62
     7
370
    25
100
AcDbLine
 10
19.26939912
 20
12.2505855468
 30
0.0
 11
19.5441159436
 21
12.395853961
 31
0.0
  0
LINE
  5
2AC
330
1F
100
AcDbEntity
  8
0
  6
Continuous
 62
     7
370
    25
100
AcDbLine
 10
19.30939912
 20
12.2274865316
 30
0.0
 11
19.5808238687
 21
12.3710141187
 31
0.0
  0
LINE
  5
2AD
330
1F
100
AcDbEntity
  8
0
  6
Continuous
 62
     7
370
    25
100
AcDbLine
 10
19.78439912
 20
13.14259171
 30
0.0
 11
19.7943864579
 21
12.8743057661
 31
0.0
  0
LINE
  5
2AE
330
1F
100
AcDbEntity
  8
0
  6
Continuous
 62
     7
370
    25
100
AcDbLine
 10
19.82439912
 20
13.1194926949
 30
0.0
 11
19.8343861723
 21
12.8512144225
 31
0.0
  0
LINE
  5
2AF
330
1F
100
AcDbEntity
  8
0
  6
Continuous
 62
     7
370
    25
100
AcDbLine
 10
19.5186148487
 20
12.2481924405
 30
0.0
 11
19.6243536078
 21
12.3458849352
 31
0.0
  0
LINE
  5
2B0
330
1F
100
AcDbEntity
  8
0
  6
Continuous
 62
     7
370
    25
100
AcDbLine
 10
19.5751833912
 20
12.2808487649
 30
0.0
 11
19.6374149585
 21
12.3383447779
 31
0.0
  0
LINE
  5
2B1
330
1F
100
AcDbEntity
  8
0
  6
Continuous
 62
     7
370
    25
100
AcDbLine
 10
19.9110591123
 20
12.8626025771
 30
0.0
 11
19.8999360423
 21
12.813373288
 31
0.0
  0
LINE
  5
2B2
330
1F
100
AcDbEntity
  8
0
  6
Continuous
 62
     7
370
    25
100
AcDbLine
 10
19.9110591123
 20
12.9279258421
 30
0.0
 11
19.8868796414
 21
12.8209105878
 31
0.0
  0
LINE
  5
2B3
330
1F
100
AcDbEntity
  8
0
  6
Continuous
 62
     7
370
    25
100
AcDbLine
 10
18.4073593887
 20
11.5904770704
 30
0.0
 11
17.9997327204
 21
11.3869225968
 31
0.0
  0
LINE
  5
2B4
330
1F
100
AcDbEntity
  8
0
  6
Continuous
 62
     7
370
    25
100
AcDbLine
 10
18.4073593887
 20
13.8505353578
 30
0.0
 11
17.9978627091
 21
13.6141353635
 31
0.0
  0
LINE
  5
2B5
330
1F
100
AcDbEntity
  8
0
  6
Continuous
 62
     7
370
    25
100
AcDbLine
 10
18.4146729258
 20
13.8632234446
 30
0.0
 11
18.4073593887
 21
13.8505353578
 31
0.0
  0
LINE
  5
2B6
330
1F
100
AcDbEntity
  8
0
  6
Continuous
 62
     7
370
    25
100
AcDbLine
 10
18.4146729258
 20
11.5856631691
 30
0.0
 11
18.4146729258
 21
13.8632234446
 31
0.0
  0
LINE
  5
2B7
330
1F
100
AcDbEntity
  8
0
  6
Continuous
 62
     7
370
    25
100
AcDbLine
 10
18.4073593887
 20
11.5904770704
 30
0.0
 11
18.4146729258
 21
11.5856631691
 31
0.0
  0
LINE
  5
2B8
330
1F
100
AcDbEntity
  8
0
  6
Continuous
 62
     7
370
    25
100
AcDbLine
 10
15.19154745
 20
15.7069840744
 30
0.0
 11
14.8213481169
 21
15.4623379796
 31
0.0
  0
LINE
  5
2B9
330
1F
100
AcDbEntity
  8
0
  6
Continuous
 62
     7
370
    25
100
AcDbLine
 10
18.4073593887
 20
13.8505353578
 30
0.0
 11
15.19154745
 21
15.7069840744
 31
0.0
  0
LINE
  5
2BA
330
1F
100
AcDbEntity
  8
0
  6
Continuous
 62
     7
370
    25
100
AcDbLine
 10
15.1947875473
 20
15.8403944207
 30
0.0
 11
15.1983674336
 21
15.7199570835
 31
0.0
  0
LINE
  5
2BB
330
1F
100
AcDbEntity
  8
0
  6
Continuous
 62
     7
370
    25
100
AcDbLine
 10
15.1947875473
 20
15.8403944207
 30
0.0
 11
18.5171874564
 21
13.9224137786
 31
0.0
  0
LINE
  5
2BC
330
1F
100
AcDbEntity
  8
0
  6
Continuous
 62
     7
370
    25
100
AcDbLine
 10
18.4146729258
 20
13.8632234446
 30
0.0
 11
18.5171874564
 21
13.9224137786
 31
0.0
  0
LINE
  5
2BD
330
1F
100
AcDbEntity
  8
0
  6
Continuous
 62
     7
370
    25
100
AcDbLine
 10
15.19154745
 20
15.7069840744
 30
0.0
 11
15.1983674336
 21
15.7199570835
 31
0.0
  0
LINE
  5
2BE
330
1F
100
AcDbEntity
  8
0
  6
Continuous
 62
     7
370
    25
100
AcDbLine
 10
18.5171874564
 20
13.9224137786
 30
0.0
 11
18.5171874564
 21
11.5223395863
 31
0.0
  0
LINE
  5
2BF
330
1F
100
AcDbEntity
  8
0
  6
Continuous
 62
     7
370
    25
100
AcDbLine
 10
18.5171874564
 20
11.5223395863
 30
0.0
 11
18.4146729258
 21
11.5856631691
 31
0.0
  0
LINE
  5
2C0
330
1F
100
AcDbEntity
  8
0
  6
Continuous
 62
     7
370
    25
100
AcDbLine
 10
18.6103756302
 20
13.9759104497
 30
0.0
 11
18.5189006935
 21
13.9231025135
 31
0.0
  0
LINE
  5
2C1
330
1F
100
AcDbEntity
  8
0
  6
Continuous
 62
     7
370
    25
100
AcDbLine
 10
18.6103756302
 20
13.9759104497
 30
0.0
 11
18.6103756302
 21
11.5653521678
 31
0.0
  0
LINE
  5
2C2
330
1F
100
AcDbEntity
  8
0
  6
Continuous
 62
     7
370
    25
100
AcDbLine
 10
18.6103756302
 20
11.5653521678
 30
0.0
 11
18.5189006935
 21
11.51967279
 31
0.0
  0
LINE
  5
2C3
330
1F
100
AcDbEntity
  8
0
  6
Continuous
 62
     7
370
    25
100
AcDbLine
 10
18.5189006935
 20
13.9231025135
 30
0.0
 11
18.5189006935
 21
11.51967279
 31
0.0
  0
LINE
  5
2C4
330
1F
100
AcDbEntity
  8
0
  6
Continuous
 62
     7
370
    25
100
AcDbLine
 10
15.2783760687
 20
15.8994328533
 30
0.0
 11
15.1930743102
 21
15.8430612171
 31
0.0
  0
LINE
  5
2C5
330
1F
100
AcDbEntity
  8
0
  6
Continuous
 62
     7
370
    25
100
AcDbLine
 10
15.2783760687
 20
15.8994328533
 30
0.0
 11
18.6103756302
 21
13.9759104497
 31
0.0
  0
LINE
  5
2C6
330
1F
100
AcDbEntity
  8
0
  6
Continuous
 62
     7
370
    25
100
AcDbLine
 10
15.1930743102
 20
15.8430612171
 30
0.0
 11
18.5189006935
 21
13.9231025135
 31
0.0
  0
LINE
  5
2C7
330
1F
100
AcDbEntity
  8
0
  6
Continuous
 62
     7
370
    25
100
AcDbLine
 10
15.1947875473
 20
15.7131474048
 30
0.0
 11
15.1947875473
 21
15.8403944207
 31
0.0
  0
LINE
  5
2C8
330
1F
100
AcDbEntity
  8
0
  6
Continuous
 62
     7
370
    25
100
AcDbLine
 10
18.5171874564
 20
11.5223395863
 30
0.0
 11
18.402961415
 21
11.5882808764
 31
0.0
  0
LINE
  5
2C9
330
1F
100
AcDbEntity
  8
0
  6
Continuous
 62
     7
370
    25
100
AcDbLine
 10
18.5189006935
 20
11.51967279
 30
0.0
 11
18.4014030984
 21
11.5875027078
 31
0.0
  0
LINE
  5
2CA
330
1F
100
AcDbEntity
  8
0
  6
Continuous
 62
     7
370
    25
100
AcDbLine
 10
15.1930743102
 20
15.7098884761
 30
0.0
 11
15.1930743102
 21
15.8430612171
 31
0.0
  0
LWPOLYLINE
  5
2CB
330
1F
100
AcDbEntity
  8
0
  6
Continuous
 62
     7
370
    25
100
AcDbPolyline
 90
        9
 70
   128
 43
0.0
 10
19.7309235751
 20
14.0183207768
 10
19.7329031528
 20
14.0306180046
 10
19.7377772836
 20
14.0859849033
 10
19.7354720931
 20
14.137440738
 10
19.7260443425
 20
14.1837184952
 10
19.7097261744
 20
14.223678663
 10
19.6869193963
 20
14.2563372893
 10
19.6581855867
 20
14.2808902105
 10
19.6524445677
 20
14.2843942783
  0
LINE
  5
2CC
330
1F
100
AcDbEntity
  8
0
  6
Continuous
 62
     7
370
    25
100
AcDbLine
 10
19.630364033
 20
13.9880203552
 30
0.0
 11
19.4778314973
 21
13.962730852
 31
0.0
  0
LINE
  5
2CD
330
1F
100
AcDbEntity
  8
0
  6
Continuous
 62
     7
370
    25
100
AcDbLine
 10
19.4778314973
 20
13.962730852
 30
0.0
 11
19.5321852049
 21
14.1702475219
 31
0.0
  0
LINE
  5
2CE
330
1F
100
AcDbEntity
  8
0
  6
Continuous
 62
     7
370
    25
100
AcDbLine
 10
19.5321852049
 20
14.1702475219
 30
0.0
 11
19.485559539
 21
14.1625171061
 31
0.0
  0
LINE
  5
2CF
330
1F
100
AcDbEntity
  8
0
  6
Continuous
 62
     7
370
    25
100
AcDbLine
 10
19.485559539
 20
14.1625171061
 30
0.0
 11
19.4312058313
 21
13.9550004362
 31
0.0
  0
LINE
  5
2D0
330
1F
100
AcDbEntity
  8
0
  6
Continuous
 62
     7
370
    25
100
AcDbLine
 10
19.4312058313
 20
13.9550004362
 30
0.0
 11
19.2786732956
 21
13.9297109331
 31
0.0
  0
LINE
  5
2D1
330
1F
100
AcDbEntity
  8
0
  6
Continuous
 62
     7
370
    25
100
AcDbLine
 10
19.2786732956
 20
13.9297109331
 30
0.0
 11
19.2620586251
 21
13.8662778899
 31
0.0
  0
LINE
  5
2D2
330
1F
100
AcDbEntity
  8
0
  6
Continuous
 62
     7
370
    25
100
AcDbLine
 10
19.2620586251
 20
13.8662778899
 30
0.0
 11
19.4145911609
 21
13.891567393
 31
0.0
  0
LINE
  5
2D3
330
1F
100
AcDbEntity
  8
0
  6
Continuous
 62
     7
370
    25
100
AcDbLine
 10
19.4145911609
 20
13.891567393
 30
0.0
 11
19.3602374532
 21
13.6840507231
 31
0.0
  0
LINE
  5
2D4
330
1F
100
AcDbEntity
  8
0
  6
Continuous
 62
     7
370
    25
100
AcDbLine
 10
19.3602374532
 20
13.6840507231
 30
0.0
 11
19.4068631191
 21
13.6917811389
 31
0.0
  0
LINE
  5
2D5
330
1F
100
AcDbEntity
  8
0
  6
Continuous
 62
     7
370
    25
100
AcDbLine
 10
19.4068631191
 20
13.6917811389
 30
0.0
 11
19.4612168268
 21
13.8992978088
 31
0.0
  0
LINE
  5
2D6
330
1F
100
AcDbEntity
  8
0
  6
Continuous
 62
     7
370
    25
100
AcDbLine
 10
19.4612168268
 20
13.8992978088
 30
0.0
 11
19.6137493626
 21
13.924587312
 31
0.0
  0
LINE
  5
2D7
330
1F
100
AcDbEntity
  8
0
  6
Continuous
 62
     7
370
    25
100
AcDbLine
 10
19.6137493626
 20
13.924587312
 30
0.0
 11
19.630364033
 21
13.9880203552
 31
0.0
  0
LINE
  5
2D8
330
1F
100
AcDbEntity
  8
0
  6
Continuous
 62
     7
370
    25
100
AcDbLine
 10
19.4117193521
 20
13.9278720927
 30
0.0
 11
19.4408435793
 21
13.9327008149
 31
0.0
  0
LINE
  5
2D9
330
1F
100
AcDbEntity
  8
0
  6
Continuous
 62
     7
370
    25
100
AcDbLine
 10
19.4040665725
 20
13.8986545947
 30
0.0
 11
19.4117193521
 21
13.9278720927
 31
0.0
  0
LINE
  5
2DA
330
1F
100
AcDbEntity
  8
0
  6
Continuous
 62
     7
370
    25
100
AcDbLine
 10
19.3868617872
 20
13.9075752197
 30
0.0
 11
19.4145911609
 21
13.891567393
 31
0.0
  0
LINE
  5
2DB
330
1F
100
AcDbEntity
  8
0
  6
Continuous
 62
     7
370
    25
100
AcDbLine
 10
19.4528500795
 20
13.9771523175
 30
0.0
 11
19.4778314973
 21
13.962730852
 31
0.0
  0
LINE
  5
2DC
330
1F
100
AcDbEntity
  8
0
  6
Continuous
 62
     7
370
    25
100
AcDbLine
 10
19.4117193521
 20
13.9278720927
 30
0.0
 11
19.4612168268
 21
13.8992978088
 31
0.0
  0
LINE
  5
2DD
330
1F
100
AcDbEntity
  8
0
  6
Continuous
 62
     7
370
    25
100
AcDbLine
 10
19.6063451025
 20
13.9288617003
 30
0.0
 11
19.6137493626
 21
13.924587312
 31
0.0
  0
LINE
  5
2DE
330
1F
100
AcDbEntity
  8
0
  6
Continuous
 62
     7
370
    25
100
AcDbLine
 10
19.399458859
 20
13.6960555273
 30
0.0
 11
19.4068631191
 21
13.6917811389
 31
0.0
  0
LINE
  5
2DF
330
1F
100
AcDbEntity
  8
0
  6
Continuous
 62
     7
370
    25
100
AcDbLine
 10
19.4085847212
 20
13.8686354459
 30
0.0
 11
19.4253839658
 21
13.8863483255
 31
0.0
  0
LINE
  5
2E0
330
1F
100
AcDbEntity
  8
0
  6
Continuous
 62
     7
370
    25
100
AcDbLine
 10
19.4253839658
 20
13.8863483255
 30
0.0
 11
19.4405131567
 21
13.8527964656
 31
0.0
  0
LINE
  5
2E1
330
1F
100
AcDbEntity
  8
0
  6
Continuous
 62
     7
370
    25
100
AcDbLine
 10
19.4829367939
 20
13.9084009194
 30
0.0
 11
19.4711307491
 21
13.9345830701
 31
0.0
  0
LINE
  5
2E2
330
1F
100
AcDbEntity
  8
0
  6
Continuous
 62
     7
370
    25
100
AcDbLine
 10
19.4711307491
 20
13.9345830701
 30
0.0
 11
19.5015574636
 21
13.9666645564
 31
0.0
  0
LINE
  5
2E3
330
1F
100
AcDbEntity
  8
0
  6
Continuous
 62
     7
370
    25
100
AcDbLine
 10
19.4808054147
 20
14.0066280173
 30
0.0
 11
19.4522301722
 21
13.9764986963
 31
0.0
  0
LINE
  5
2E4
330
1F
100
AcDbEntity
  8
0
  6
Continuous
 62
     7
370
    25
100
AcDbLine
 10
19.4522301722
 20
13.9764986963
 30
0.0
 11
19.4424928482
 21
13.9980930651
 31
0.0
  0
LINE
  5
2E5
330
1F
100
AcDbEntity
  8
0
  6
Continuous
 62
     7
370
    25
100
AcDbLine
 10
19.3969857242
 20
13.9493268302
 30
0.0
 11
19.4064833888
 21
13.9282639516
 31
0.0
  0
LINE
  5
2E6
330
1F
100
AcDbEntity
  8
0
  6
Continuous
 62
     7
370
    25
100
AcDbLine
 10
19.4064833888
 20
13.9282639516
 30
0.0
 11
19.3698648336
 21
13.8896538784
 31
0.0
  0
LINE
  5
2E7
330
1F
100
AcDbEntity
  8
0
  6
Continuous
 62
     7
370
    25
100
AcDbLine
 10
19.438858611
 20
13.9842179342
 30
0.0
 11
19.4522301722
 21
13.9764986963
 31
0.0
  0
LINE
  5
2E8
330
1F
100
AcDbEntity
  8
0
  6
Continuous
 62
     7
370
    25
100
AcDbLine
 10
19.3874816945
 20
13.908228841
 30
0.0
 11
19.4253839658
 21
13.8863483255
 31
0.0
  0
LINE
  5
2E9
330
1F
100
AcDbEntity
  8
0
  6
Continuous
 62
     7
370
    25
100
AcDbLine
 10
19.4318043956
 20
13.9572856908
 30
0.0
 11
19.4711307491
 21
13.9345830701
 31
0.0
  0
LINE
  5
2EA
330
1F
100
AcDbEntity
  8
0
  6
Continuous
 62
     7
370
    25
100
AcDbLine
 10
19.9355495827
 20
14.7327369615
 30
0.0
 11
19.7432283724
 21
14.621713596
 31
0.0
  0
LINE
  5
2EB
330
1F
100
AcDbEntity
  8
0
  6
Continuous
 62
     7
370
    25
100
AcDbLine
 10
19.9355495827
 20
12.7928140288
 30
0.0
 11
19.9355495827
 21
14.7327369615
 31
0.0
  0
ELLIPSE
  5
2EC
330
1F
100
AcDbEntity
  8
0
  6
Continuous
 62
     7
370
    25
100
AcDbEllipse
 10
19.4558182198
 20
13.92120183
 30
0.0
 11
0.1913211139093534
 21
0.3549790466869993
 31
0.0
210
0.0
220
0.0
230
1.0
 40
0.5568908039
 41
0.0
 42
6.283185307179586
  0
LINE
  5
2ED
330
1F
100
AcDbEntity
  8
0
  6
Continuous
 62
     7
370
    25
100
AcDbLine
 10
16.7604160375
 20
16.5657025415
 30
0.0
 11
16.5541767892
 21
16.4627138882
 31
0.0
  0
LINE
  5
2EE
330
1F
100
AcDbEntity
  8
0
  6
Continuous
 62
     7
370
    25
100
AcDbLine
 10
17.0822616718
 20
16.3799050116
 30
0.0
 11
16.7604160375
 21
16.5657025415
 31
0.0
  0
LINE
  5
2EF
330
1F
100
AcDbEntity
  8
0
  6
Continuous
 62
     7
370
    25
100
AcDbLine
 10
17.0822616718
 20
16.3799050116
 30
0.0
 11
17.1264558456
 21
16.3543922581
 31
0.0
  0
LINE
  5
2F0
330
1F
100
AcDbEntity
  8
0
  6
Continuous
 62
     7
370
    25
100
AcDbLine
 10
19.5695097746
 20
14.9440472449
 30
0.0
 11
17.1264558456
 21
16.3543922581
 31
0.0
  0
LINE
  5
2F1
330
1F
100
AcDbEntity
  8
0
  6
Continuous
 62
     7
370
    25
100
AcDbLine
 10
19.5695097746
 20
14.9440472449
 30
0.0
 11
19.6137039484
 21
14.9185344914
 31
0.0
  0
LINE
  5
2F2
330
1F
100
AcDbEntity
  8
0
  6
Continuous
 62
     7
370
    25
100
AcDbLine
 10
19.9355495827
 20
14.7327369615
 30
0.0
 11
19.6137039484
 21
14.9185344914
 31
0.0
  0
LINE
  5
2F3
330
1F
100
AcDbEntity
  8
0
  6
Continuous
 62
     7
370
    25
100
AcDbLine
 10
19.5916068615
 20
14.9568036217
 30
0.0
 11
19.5695097746
 21
14.9440472449
 31
0.0
  0
LINE
  5
2F4
330
1F
100
AcDbEntity
  8
0
  6
Continuous
 62
     7
370
    25
100
AcDbLine
 10
19.5916068615
 20
14.9568036217
 30
0.0
 11
19.6358010354
 21
14.9312908682
 31
0.0
  0
LINE
  5
2F5
330
1F
100
AcDbEntity
  8
0
  6
Continuous
 62
     7
370
    25
100
AcDbLine
 10
19.6358010354
 20
14.9312908682
 30
0.0
 11
19.6137039484
 21
14.9185344914
 31
0.0
  0
LINE
  5
2F6
330
1F
100
AcDbEntity
  8
0
  6
Continuous
 62
     7
370
    25
100
AcDbLine
 10
19.6358010354
 20
14.9312908682
 30
0.0
 11
19.6358010354
 21
14.9057781147
 31
0.0
  0
LINE
  5
2F7
330
1F
100
AcDbEntity
  8
0
  6
Continuous
 62
     7
370
    25
100
AcDbLine
 10
17.1043587587
 20
16.3926613883
 30
0.0
 11
17.0822616718
 21
16.3799050116
 31
0.0
  0
LINE
  5
2F8
330
1F
100
AcDbEntity
  8
0
  6
Continuous
 62
     7
370
    25
100
AcDbLine
 10
17.1043587587
 20
16.3926613883
 30
0.0
 11
17.1485529325
 21
16.3671486348
 31
0.0
  0
LINE
  5
2F9
330
1F
100
AcDbEntity
  8
0
  6
Continuous
 62
     7
370
    25
100
AcDbLine
 10
17.1485529325
 20
16.3671486348
 30
0.0
 11
17.1264558456
 21
16.3543922581
 31
0.0
  0
LINE
  5
2FA
330
1F
100
AcDbEntity
  8
0
  6
Continuous
 62
     7
370
    25
100
AcDbLine
 10
17.1485529325
 20
16.3671486348
 30
0.0
 11
17.1485529325
 21
16.3416358813
 31
0.0
  0
LINE
  5
2FB
330
1F
100
AcDbEntity
  8
0
  6
Continuous
 62
     7
370
    25
100
AcDbLine
 10
16.3796869852
 20
13.4543800089
 30
0.0
 11
16.3397995516
 21
13.4047604207
 31
0.0
  0
LINE
  5
2FC
330
1F
100
AcDbEntity
  8
0
  6
Continuous
 62
     7
370
    25
100
AcDbLine
 10
16.3796869852
 20
13.3012786067
 30
0.0
 11
16.3397995516
 21
13.2516590185
 31
0.0
  0
LINE
  5
2FD
330
1F
100
AcDbEntity
  8
0
  6
Continuous
 62
     7
370
    25
100
AcDbLine
 10
15.6427725706
 20
13.9092131333
 30
0.0
 11
15.5867308296
 21
13.8394977402
 31
0.0
  0
LINE
  5
2FE
330
1F
100
AcDbEntity
  8
0
  6
Continuous
 62
     7
370
    25
100
AcDbLine
 10
16.3796869852
 20
13.1481772045
 30
0.0
 11
16.3397995516
 21
13.0985576162
 31
0.0
  0
LINE
  5
2FF
330
1F
100
AcDbEntity
  8
0
  6
Continuous
 62
     7
370
    25
100
AcDbLine
 10
15.6427725706
 20
13.756111731
 30
0.0
 11
15.5867308296
 21
13.686396338
 31
0.0
  0
LINE
  5
300
330
1F
100
AcDbEntity
  8
0
  6
Continuous
 62
     7
370
    25
100
AcDbLine
 10
16.3796869852
 20
12.9950758022
 30
0.0
 11
16.3397995516
 21
12.945456214
 31
0.0
  0
LINE
  5
301
330
1F
100
AcDbEntity
  8
0
  6
Continuous
 62
     7
370
    25
100
AcDbLine
 10
15.6427725706
 20
13.6030103288
 30
0.0
 11
15.5867308296
 21
13.5332949358
 31
0.0
  0
LINE
  5
302
330
1F
100
AcDbEntity
  8
0
  6
Continuous
 62
     7
370
    25
100
AcDbLine
 10
16.3796869852
 20
12.8419744
 30
0.0
 11
16.3397995516
 21
12.7923548118
 31
0.0
  0
LINE
  5
303
330
1F
100
AcDbEntity
  8
0
  6
Continuous
 62
     7
370
    25
100
AcDbLine
 10
15.6427725706
 20
13.4499089266
 30
0.0
 11
15.5867308296
 21
13.3801935336
 31
0.0
  0
LINE
  5
304
330
1F
100
AcDbEntity
  8
0
  6
Continuous
 62
     7
370
    25
100
AcDbLine
 10
16.3796869852
 20
12.6888729978
 30
0.0
 11
16.3397995516
 21
12.6392534096
 31
0.0
  0
LINE
  5
305
330
1F
100
AcDbEntity
  8
0
  6
Continuous
 62
     7
370
    25
100
AcDbLine
 10
15.6427725706
 20
13.2968075244
 30
0.0
 11
15.5867308296
 21
13.2270921313
 31
0.0
  0
LINE
  5
306
330
1F
100
AcDbEntity
  8
0
  6
Continuous
 62
     7
370
    25
100
AcDbLine
 10
16.3796869852
 20
12.5357715955
 30
0.0
 11
16.3397995516
 21
12.4861520073
 31
0.0
  0
LINE
  5
307
330
1F
100
AcDbEntity
  8
0
  6
Continuous
 62
     7
370
    25
100
AcDbLine
 10
15.6427725706
 20
13.1437061221
 30
0.0
 11
15.5867308296
 21
13.0739907291
 31
0.0
  0
LINE
  5
308
330
1F
100
AcDbEntity
  8
0
  6
Continuous
 62
     7
370
    25
100
AcDbLine
 10
16.3796869852
 20
12.3826701933
 30
0.0
 11
16.3397995516
 21
12.3330506051
 31
0.0
  0
LINE
  5
309
330
1F
100
AcDbEntity
  8
0
  6
Continuous
 62
     7
370
    25
100
AcDbLine
 10
15.6427725706
 20
12.9906047199
 30
0.0
 11
15.5867308296
 21
12.9208893269
 31
0.0
  0
LINE
  5
30A
330
1F
100
AcDbEntity
  8
0
  6
Continuous
 62
     7
370
    25
100
AcDbLine
 10
16.3796869852
 20
12.2295687911
 30
0.0
 11
16.3397995516
 21
12.1799492029
 31
0.0
  0
LINE
  5
30B
330
1F
100
AcDbEntity
  8
0
  6
Continuous
 62
     7
370
    25
100
AcDbLine
 10
15.6427725706
 20
12.8375033177
 30
0.0
 11
15.5867308296
 21
12.7677879246
 31
0.0
  0
LINE
  5
30C
330
1F
100
AcDbEntity
  8
0
  6
Continuous
 62
     7
370
    25
100
AcDbLine
 10
15.6427725706
 20
12.6844019154
 30
0.0
 11
15.5867308296
 21
12.6146865224
 31
0.0
  0
LINE
  5
30D
330
1F
100
AcDbEntity
  8
0
  6
Continuous
 62
     7
370
    25
100
AcDbLine
 10
17.8017606364
 20
13.7417824551
 30
0.0
 11
17.8123494234
 21
13.7478952317
 31
0.0
  0
LINE
  5
30E
330
1F
100
AcDbEntity
  8
0
  6
Continuous
 62
     7
370
    25
100
AcDbLine
 10
14.8814096301
 20
15.427665206
 30
0.0
 11
14.8919984171
 21
15.4337779826
 31
0.0
  0
LINE
  5
30F
330
1F
100
AcDbEntity
  8
0
  6
Continuous
 62
     7
370
    25
100
AcDbLine
 10
19.7432283724
 20
14.621713596
 30
0.0
 11
18.5767173823
 21
13.9953409427
 31
0.0
  0
LINE
  5
310
330
1F
100
AcDbEntity
  8
0
  6
Continuous
 62
     7
370
    25
100
AcDbLine
 10
19.7432283724
 20
14.621713596
 30
0.0
 11
18.6103756302
 21
13.920403797
 31
0.0
  0
LINE
  5
311
330
1F
100
AcDbEntity
  8
0
  6
Continuous
 62
     7
370
    25
100
AcDbLine
 10
19.4627909648
 20
12.2189481176
 30
0.0
 11
18.6103756302
 21
11.6912473805
 31
0.0
  0
LINE
  5
312
330
1F
100
AcDbEntity
  8
0
  6
Continuous
 62
     7
370
    25
100
AcDbLine
 10
16.5541767892
 20
16.4627138882
 30
0.0
 11
15.3876657991
 21
15.8363412348
 31
0.0
  0
ARC
  5
313
330
1F
100
AcDbEntity
  8
0
  6
Continuous
 62
     7
370
    25
100
AcDbCircle
 10
3.3233136333
 20
14.1602786382
 30
0.0
 40
0.1240000000000073
100
AcDbArc
 50
98.3466192632
 51
261.6533807368
  0
LINE
  5
314
330
1F
100
AcDbEntity
  8
0
  6
Continuous
 62
     7
370
    25
100
AcDbLine
 10
3.3053136333
 20
14.2829652308
 30
0.0
 11
3.3053136333
 21
14.0375920456
 31
0.0
  0
LINE
  5
315
330
1F
100
AcDbEntity
  8
0
  6
Continuous
 62
     7
370
    25
100
AcDbLine
 10
3.3413136333
 20
14.0375920456
 30
0.0
 11
3.3413136333
 21
14.2829652308
 31
0.0
  0
ARC
  5
316
330
1F
100
AcDbEntity
  8
0
  6
Continuous
 62
     7
370
    25
100
AcDbCircle
 10
3.3233136333
 20
14.1602786382
 30
0.0
 40
0.1240000000000035
100
AcDbArc
 50
278.3466192632
 51
81.6533807368
  0
ARC
  5
317
330
1F
100
AcDbEntity
  8
0
  6
Continuous
 62
     7
370
    25
100
AcDbCircle
 10
3.3233136333
 20
14.1602786382
 30
0.0
 40
0.0848820967982646
100
AcDbArc
 50
77.756966423
 51
102.243033577
  0
ARC
  5
318
330
1F
100
AcDbEntity
  8
0
  6
Continuous
 62
     7
370
    25
100
AcDbCircle
 10
3.3233136333
 20
14.1602786382
 30
0.0
 40
0.0848820967982733
100
AcDbArc
 50
257.756966423
 51
282.243033577
  0
ARC
  5
319
330
1F
100
AcDbEntity
  8
0
  6
Continuous
 62
     7
370
    25
100
AcDbCircle
 10
7.2233136333
 20
14.1602786382
 30
0.0
 40
0.1240000000000053
100
AcDbArc
 50
98.3466192632
 51
261.6533807368
  0
LINE
  5
31A
330
1F
100
AcDbEntity
  8
0
  6
Continuous
 62
     7
370
    25
100
AcDbLine
 10
7.2053136333
 20
14.2829652308
 30
0.0
 11
7.2053136333
 21
14.0375920456
 31
0.0
  0
ARC
  5
31B
330
1F
100
AcDbEntity
  8
0
  6
Continuous
 62
     7
370
    25
100
AcDbCircle
 10
7.2233136333
 20
14.1602786382
 30
0.0
 40
0.1240000000000036
100
AcDbArc
 50
278.3466192632
 51
81.6533807368
  0
LINE
  5
31C
330
1F
100
AcDbEntity
  8
0
  6
Continuous
 62
     7
370
    25
100
AcDbLine
 10
7.2413136333
 20
14.0375920456
 30
0.0
 11
7.2413136333
 21
14.2829652308
 31
0.0
  0
ARC
  5
31D
330
1F
100
AcDbEntity
  8
0
  6
Continuous
 62
     7
370
    25
100
AcDbCircle
 10
7.2233136333
 20
14.1602786382
 30
0.0
 40
0.0848820967982662
100
AcDbArc
 50
77.756966423
 51
102.243033577
  0
ARC
  5
31E
330
1F
100
AcDbEntity
  8
0
  6
Continuous
 62
     7
370
    25
100
AcDbCircle
 10
7.2233136333
 20
14.1602786382
 30
0.0
 40
0.0848820967982732
100
AcDbArc
 50
257.756966423
 51
282.243033577
  0
ARC
  5
31F
330
1F
100
AcDbEntity
  8
0
  6
Continuous
 62
     7
370
    25
100
AcDbCircle
 10
3.3233136333
 20
12.1602786382
 30
0.0
 40
0.1240000000000035
100
AcDbArc
 50
278.3466192632
 51
81.6533807368
  0
LINE
  5
320
330
1F
100
AcDbEntity
  8
0
  6
Continuous
 62
     7
370
    25
100
AcDbLine
 10
3.3413136333
 20
12.0375920456
 30
0.0
 11
3.3413136333
 21
12.2829652308
 31
0.0
  0
ARC
  5
321
330
1F
100
AcDbEntity
  8
0
  6
Continuous
 62
     7
370
    25
100
AcDbCircle
 10
3.3233136333
 20
12.1602786382
 30
0.0
 40
0.1240000000000037
100
AcDbArc
 50
98.3466192632
 51
261.6533807368
  0
LINE
  5
322
330
1F
100
AcDbEntity
  8
0
  6
Continuous
 62
     7
370
    25
100
AcDbLine
 10
3.3053136333
 20
12.2829652308
 30
0.0
 11
3.3053136333
 21
12.0375920456
 31
0.0
  0
ARC
  5
323
330
1F
100
AcDbEntity
  8
0
  6
Continuous
 62
     7
370
    25
100
AcDbCircle
 10
3.3233136333
 20
12.1602786382
 30
0.0
 40
0.0848820967982645
100
AcDbArc
 50
77.756966423
 51
102.243033577
  0
ARC
  5
324
330
1F
100
AcDbEntity
  8
0
  6
Continuous
 62
     7
370
    25
100
AcDbCircle
 10
3.3233136333
 20
12.1602786382
 30
0.0
 40
0.0848820967982732
100
AcDbArc
 50
257.756966423
 51
282.243033577
  0
ARC
  5
325
330
1F
100
AcDbEntity
  8
0
  6
Continuous
 62
     7
370
    25
100
AcDbCircle
 10
7.2233136333
 20
12.1602786382
 30
0.0
 40
0.1240000000000036
100
AcDbArc
 50
98.3466192632
 51
261.6533807368
  0
LINE
  5
326
330
1F
100
AcDbEntity
  8
0
  6
Continuous
 62
     7
370
    25
100
AcDbLine
 10
7.2053136333
 20
12.2829652308
 30
0.0
 11
7.2053136333
 21
12.0375920456
 31
0.0
  0
ARC
  5
327
330
1F
100
AcDbEntity
  8
0
  6
Continuous
 62
     7
370
    25
100
AcDbCircle
 10
7.2233136333
 20
12.1602786382
 30
0.0
 40
0.1240000000000036
100
AcDbArc
 50
278.3466192632
 51
81.6533807368
  0
LINE
  5
328
330
1F
100
AcDbEntity
  8
0
  6
Continuous
 62
     7
370
    25
100
AcDbLine
 10
7.2413136333
 20
12.0375920456
 30
0.0
 11
7.2413136333
 21
12.2829652308
 31
0.0
  0
ARC
  5
329
330
1F
100
AcDbEntity
  8
0
  6
Continuous
 62
     7
370
    25
100
AcDbCircle
 10
7.2233136333
 20
12.1602786382
 30
0.0
 40
0.0848820967982664
100
AcDbArc
 50
77.756966423
 51
102.243033577
  0
ARC
  5
32A
330
1F
100
AcDbEntity
  8
0
  6
Continuous
 62
     7
370
    25
100
AcDbCircle
 10
7.2233136333
 20
12.1602786382
 30
0.0
 40
0.0848820967982734
100
AcDbArc
 50
257.756966423
 51
282.243033577
  0
LINE
  5
32B
330
1F
100
AcDbEntity
  8
0
  6
Continuous
 62
     7
370
    25
100
AcDbLine
 10
3.0280279371
 20
14.5155643343
 30
0.0
 11
7.5185993294
 21
14.5155643343
 31
0.0
  0
LINE
  5
32C
330
1F
100
AcDbEntity
  8
0
  6
Continuous
 62
     7
370
    25
100
AcDbLine
 10
2.9993912043
 20
14.5442010671
 30
0.0
 11
3.0280279371
 21
14.5155643343
 31
0.0
  0
LINE
  5
32D
330
1F
100
AcDbEntity
  8
0
  6
Continuous
 62
     7
370
    25
100
AcDbLine
 10
7.5472360622
 20
14.5442010671
 30
0.0
 11
2.9993912043
 21
14.5442010671
 31
0.0
  0
LINE
  5
32E
330
1F
100
AcDbEntity
  8
0
  6
Continuous
 62
     7
370
    25
100
AcDbLine
 10
7.5472360622
 20
14.5442010671
 30
0.0
 11
7.5185993294
 21
14.5155643343
 31
0.0
  0
LINE
  5
32F
330
1F
100
AcDbEntity
  8
0
  6
Continuous
 62
     7
370
    25
100
AcDbLine
 10
3.0280279371
 20
11.8049929421
 30
0.0
 11
3.0280279371
 21
14.5155643343
 31
0.0
  0
LINE
  5
330
330
1F
100
AcDbEntity
  8
0
  6
Continuous
 62
     7
370
    25
100
AcDbLine
 10
2.9993912043
 20
11.7763562093
 30
0.0
 11
3.0280279371
 21
11.8049929421
 31
0.0
  0
LINE
  5
331
330
1F
100
AcDbEntity
  8
0
  6
Continuous
 62
     7
370
    25
100
AcDbLine
 10
2.9990422094
 20
11.7656390548
 30
0.0
 11
2.9993912043
 21
11.7763562093
 31
0.0
  0
LINE
  5
332
330
1F
100
AcDbEntity
  8
0
  6
Continuous
 62
     7
370
    25
100
AcDbLine
 10
2.9990422094
 20
14.5549182216
 30
0.0
 11
2.9990422094
 21
11.7656390548
 31
0.0
  0
LINE
  5
333
330
1F
100
AcDbEntity
  8
0
  6
Continuous
 62
     7
370
    25
100
AcDbLine
 10
2.9993912043
 20
14.5442010671
 30
0.0
 11
2.9990422094
 21
14.5549182216
 31
0.0
  0
LINE
  5
334
330
1F
100
AcDbEntity
  8
0
  6
Continuous
 62
     7
370
    25
100
AcDbLine
 10
7.5472360622
 20
11.7763562093
 30
0.0
 11
7.5185993294
 21
11.8049929421
 31
0.0
  0
LINE
  5
335
330
1F
100
AcDbEntity
  8
0
  6
Continuous
 62
     7
370
    25
100
AcDbLine
 10
7.5185993294
 20
14.5155643343
 30
0.0
 11
7.5185993294
 21
11.8049929421
 31
0.0
  0
LINE
  5
336
330
1F
100
AcDbEntity
  8
0
  6
Continuous
 62
     7
370
    25
100
AcDbLine
 10
7.5475850571
 20
14.5549182216
 30
0.0
 11
7.5472360622
 21
14.5442010671
 31
0.0
  0
LINE
  5
337
330
1F
100
AcDbEntity
  8
0
  6
Continuous
 62
     7
370
    25
100
AcDbLine
 10
7.5475850571
 20
11.7656390548
 30
0.0
 11
7.5475850571
 21
14.5549182216
 31
0.0
  0
LINE
  5
338
330
1F
100
AcDbEntity
  8
0
  6
Continuous
 62
     7
370
    25
100
AcDbLine
 10
7.5472360622
 20
11.7763562093
 30
0.0
 11
7.5475850571
 21
11.7656390548
 31
0.0
  0
LINE
  5
339
330
1F
100
AcDbEntity
  8
0
  6
Continuous
 62
     7
370
    25
100
AcDbLine
 10
7.5185993294
 20
11.8049929421
 30
0.0
 11
3.0280279371
 21
11.8049929421
 31
0.0
  0
LINE
  5
33A
330
1F
100
AcDbEntity
  8
0
  6
Continuous
 62
     7
370
    25
100
AcDbLine
 10
2.9993912043
 20
11.7763562093
 30
0.0
 11
7.5472360622
 21
11.7763562093
 31
0.0
  0
LINE
  5
33B
330
1F
100
AcDbEntity
  8
0
  6
Continuous
 62
     7
370
    25
100
AcDbLine
 10
7.4233136333
 20
14.4205643343
 30
0.0
 11
6.7383136333
 21
14.4205643343
 31
0.0
  0
LINE
  5
33C
330
1F
100
AcDbEntity
  8
0
  6
Continuous
 62
     7
370
    25
100
AcDbLine
 10
3.8083136333
 20
14.4205643343
 30
0.0
 11
3.1233136333
 21
14.4205643343
 31
0.0
  0
LINE
  5
33D
330
1F
100
AcDbEntity
  8
0
  6
Continuous
 62
     7
370
    25
100
AcDbLine
 10
7.4233136333
 20
11.8999929421
 30
0.0
 11
7.4233136333
 21
14.4205643343
 31
0.0
  0
LINE
  5
33E
330
1F
100
AcDbEntity
  8
0
  6
Continuous
 62
     7
370
    25
100
AcDbLine
 10
6.7383136333
 20
11.8999929421
 30
0.0
 11
7.4233136333
 21
11.8999929421
 31
0.0
  0
LINE
  5
33F
330
1F
100
AcDbEntity
  8
0
  6
Continuous
 62
     7
370
    25
100
AcDbLine
 10
3.1233136333
 20
14.4205643343
 30
0.0
 11
3.1233136333
 21
11.8999929421
 31
0.0
  0
LINE
  5
340
330
1F
100
AcDbEntity
  8
0
  6
Continuous
 62
     7
370
    25
100
AcDbLine
 10
3.1233136333
 20
11.8999929421
 30
0.0
 11
3.8083136333
 21
11.8999929421
 31
0.0
  0
LINE
  5
341
330
1F
100
AcDbEntity
  8
0
  6
Continuous
 62
     7
370
    25
100
AcDbLine
 10
3.8083136333
 20
14.4205643343
 30
0.0
 11
6.7383136333
 21
14.4205643343
 31
0.0
  0
LINE
  5
342
330
1F
100
AcDbEntity
  8
0
  6
Continuous
 62
     7
370
    25
100
AcDbLine
 10
6.7383136333
 20
11.8999929421
 30
0.0
 11
3.8083136333
 21
11.8999929421
 31
0.0
  0
CIRCLE
  5
343
330
1F
100
AcDbEntity
  8
0
  6
Continuous
 62
     7
370
    25
100
AcDbCircle
 10
3.3233136333
 20
12.1602786382
 30
0.0
 40
0.1395000000000017
  0
CIRCLE
  5
344
330
1F
100
AcDbEntity
  8
0
  6
Continuous
 62
     7
370
    25
100
AcDbCircle
 10
7.2233136333
 20
12.1602786382
 30
0.0
 40
0.1395
  0
CIRCLE
  5
345
330
1F
100
AcDbEntity
  8
0
  6
Continuous
 62
     7
370
    25
100
AcDbCircle
 10
3.3233136333
 20
14.1602786382
 30
0.0
 40
0.1395000000000017
  0
CIRCLE
  5
346
330
1F
100
AcDbEntity
  8
0
  6
Continuous
 62
     7
370
    25
100
AcDbCircle
 10
7.2233136333
 20
14.1602786382
 30
0.0
 40
0.1395000000000017
  0
CIRCLE
  5
347
330
1F
100
AcDbEntity
  8
0
  6
Continuous
 62
     7
370
    25
100
AcDbCircle
 10
3.3683136333
 20
13.1602786382
 30
0.0
 40
0.097999999999999
  0
CIRCLE
  5
348
330
1F
100
AcDbEntity
  8
0
  6
Continuous
 62
     7
370
    25
100
AcDbCircle
 10
3.6183136333
 20
12.2227786382
 30
0.0
 40
0.0689999999999991
  0
CIRCLE
  5
349
330
1F
100
AcDbEntity
  8
0
  6
Continuous
 62
     7
370
    25
100
AcDbCircle
 10
3.6183136333
 20
13.1602786382
 30
0.0
 40
0.0690000000000008
  0
CIRCLE
  5
34A
330
1F
100
AcDbEntity
  8
0
  6
Continuous
 62
     7
370
    25
100
AcDbCircle
 10
3.6183136333
 20
14.0977786382
 30
0.0
 40
0.0689999999999991
  0
LINE
  5
34B
330
1F
100
AcDbEntity
  8
0
  6
Continuous
 62
     7
370
    25
100
AcDbLine
 10
3.8083136333
 20
14.4205643343
 30
0.0
 11
3.8083136333
 21
11.8999929421
 31
0.0
  0
CIRCLE
  5
34C
330
1F
100
AcDbEntity
  8
0
  6
Continuous
 62
     7
370
    25
100
AcDbCircle
 10
6.9283136333
 20
14.0977786382
 30
0.0
 40
0.0689999999999991
  0
CIRCLE
  5
34D
330
1F
100
AcDbEntity
  8
0
  6
Continuous
 62
     7
370
    25
100
AcDbCircle
 10
6.9283136333
 20
13.1602786382
 30
0.0
 40
0.0690000000000008
  0
CIRCLE
  5
34E
330
1F
100
AcDbEntity
  8
0
  6
Continuous
 62
     7
370
    25
100
AcDbCircle
 10
7.1783136333
 20
13.1602786382
 30
0.0
 40
0.097999999999999
  0
CIRCLE
  5
34F
330
1F
100
AcDbEntity
  8
0
  6
Continuous
 62
     7
370
    25
100
AcDbCircle
 10
6.9283136333
 20
12.2227786382
 30
0.0
 40
0.0689999999999991
  0
LINE
  5
350
330
1F
100
AcDbEntity
  8
0
  6
Continuous
 62
     7
370
    25
100
AcDbLine
 10
6.7383136333
 20
11.8999929421
 30
0.0
 11
6.7383136333
 21
14.4205643343
 31
0.0
  0
LINE
  5
351
330
1F
100
AcDbEntity
  8
0
  6
Continuous
 62
     7
370
    25
100
AcDbLine
 10
7.6226051388
 20
11.6906189731
 30
0.0
 11
7.5475850571
 21
11.7656390548
 31
0.0
  0
LINE
  5
352
330
1F
100
AcDbEntity
  8
0
  6
Continuous
 62
     7
370
    25
100
AcDbLine
 10
7.6226051388
 20
11.6906189731
 30
0.0
 11
2.9240221277
 21
11.6906189731
 31
0.0
  0
LINE
  5
353
330
1F
100
AcDbEntity
  8
0
  6
Continuous
 62
     7
370
    25
100
AcDbLine
 10
2.9990422094
 20
11.7656390548
 30
0.0
 11
2.9240221277
 21
11.6906189731
 31
0.0
  0
LINE
  5
354
330
1F
100
AcDbEntity
  8
0
  6
Continuous
 62
     7
370
    25
100
AcDbLine
 10
2.9240221277
 20
14.6299383033
 30
0.0
 11
2.9990422094
 21
14.5549182216
 31
0.0
  0
LINE
  5
355
330
1F
100
AcDbEntity
  8
0
  6
Continuous
 62
     7
370
    25
100
AcDbLine
 10
2.9240221277
 20
14.6299383033
 30
0.0
 11
7.6226051388
 21
14.6299383033
 31
0.0
  0
LINE
  5
356
330
1F
100
AcDbEntity
  8
0
  6
Continuous
 62
     7
370
    25
100
AcDbLine
 10
7.5475850571
 20
14.5549182216
 30
0.0
 11
7.6226051388
 21
14.6299383033
 31
0.0
  0
LINE
  5
357
330
1F
100
AcDbEntity
  8
0
  6
Continuous
 62
     7
370
    25
100
AcDbLine
 10
2.9240221277
 20
11.6906189731
 30
0.0
 11
2.9240221277
 21
14.6299383033
 31
0.0
  0
LINE
  5
358
330
1F
100
AcDbEntity
  8
0
  6
Continuous
 62
     7
370
    25
100
AcDbLine
 10
7.6226051388
 20
14.6299383033
 30
0.0
 11
7.6226051388
 21
11.6906189731
 31
0.0
  0
LINE
  5
359
330
1F
100
AcDbEntity
  8
0
  6
Continuous
 62
     7
370
    25
100
AcDbLine
 10
7.6293931181
 20
14.636358123
 30
0.0
 11
7.6250280219
 21
14.6319930269
 31
0.0
  0
LINE
  5
35A
330
1F
100
AcDbEntity
  8
0
  6
Continuous
 62
     7
370
    25
100
AcDbLine
 10
7.6293931181
 20
14.636358123
 30
0.0
 11
7.6293931181
 21
11.6841991534
 31
0.0
  0
LINE
  5
35B
330
1F
100
AcDbEntity
  8
0
  6
Continuous
 62
     7
370
    25
100
AcDbLine
 10
7.6293931181
 20
11.6841991534
 30
0.0
 11
7.6250280219
 21
11.6885642495
 31
0.0
  0
LINE
  5
35C
330
1F
100
AcDbEntity
  8
0
  6
Continuous
 62
     7
370
    25
100
AcDbLine
 10
7.6250280219
 20
14.6319930269
 30
0.0
 11
7.6250280219
 21
11.6885642495
 31
0.0
  0
LINE
  5
35D
330
1F
100
AcDbEntity
  8
0
  6
Continuous
 62
     7
370
    25
100
AcDbLine
 10
7.6250280219
 20
11.6885642495
 30
0.0
 11
2.9215992446
 21
11.6885642495
 31
0.0
  0
LINE
  5
35E
330
1F
100
AcDbEntity
  8
0
  6
Continuous
 62
     7
370
    25
100
AcDbLine
 10
2.9215992446
 20
11.6885642495
 30
0.0
 11
2.9215992446
 21
14.6319930269
 31
0.0
  0
LINE
  5
35F
330
1F
100
AcDbEntity
  8
0
  6
Continuous
 62
     7
370
    25
100
AcDbLine
 10
2.9215992446
 20
14.6319930269
 30
0.0
 11
7.6250280219
 21
14.6319930269
 31
0.0
  0
LINE
  5
360
330
1F
100
AcDbEntity
  8
0
  6
Continuous
 62
     7
370
    25
100
AcDbLine
 10
2.9172341484
 20
11.6841991534
 30
0.0
 11
2.9215992446
 21
11.6885642495
 31
0.0
  0
LINE
  5
361
330
1F
100
AcDbEntity
  8
0
  6
Continuous
 62
     7
370
    25
100
AcDbLine
 10
2.9172341484
 20
11.6841991534
 30
0.0
 11
2.9172341484
 21
14.636358123
 31
0.0
  0
LINE
  5
362
330
1F
100
AcDbEntity
  8
0
  6
Continuous
 62
     7
370
    25
100
AcDbLine
 10
2.9172341484
 20
14.636358123
 30
0.0
 11
2.9215992446
 21
14.6319930269
 31
0.0
  0
LINE
  5
363
330
1F
100
AcDbEntity
  8
0
  6
Continuous
 62
     7
370
    25
100
AcDbLine
 10
7.6293931181
 20
11.6841991534
 30
0.0
 11
2.9172341484
 21
11.6841991534
 31
0.0
  0
LINE
  5
364
330
1F
100
AcDbEntity
  8
0
  6
Continuous
 62
     7
370
    25
100
AcDbLine
 10
2.9172341484
 20
14.636358123
 30
0.0
 11
7.6293931181
 21
14.636358123
 31
0.0
  0
CIRCLE
  5
365
330
1F
100
AcDbEntity
  8
0
  6
Continuous
 62
     7
370
    25
100
AcDbCircle
 10
3.3658136333
 20
13.1602786382
 30
0.0
 40
0.0700000000000003
  0
CIRCLE
  5
366
330
1F
100
AcDbEntity
  8
0
  6
Continuous
 62
     7
370
    25
100
AcDbCircle
 10
7.1783136333
 20
13.1602786382
 30
0.0
 40
0.0700000000000003
  0
ARC
  5
367
330
1F
100
AcDbEntity
  8
0
  6
Continuous
 62
     7
370
    25
100
AcDbCircle
 10
3.6158136333
 20
12.2227786382
 30
0.0
 40
0.0700000000000015
100
AcDbArc
 50
294.519313735
 51
65.4806856101
  0
ARC
  5
368
330
1F
100
AcDbEntity
  8
0
  6
Continuous
 62
     7
370
    25
100
AcDbCircle
 10
3.6158136333
 20
14.0977786382
 30
0.0
 40
0.0700000000000019
100
AcDbArc
 50
294.5193212481
 51
65.4806772617
  0
ARC
  5
369
330
1F
100
AcDbEntity
  8
0
  6
Continuous
 62
     7
370
    25
100
AcDbCircle
 10
3.6158136333
 20
13.1602786382
 30
0.0
 40
0.0700000000000011
100
AcDbArc
 50
294.5193164833
 51
65.4806835168
  0
LINE
  5
36A
330
1F
100
AcDbEntity
  8
0
  6
Continuous
 62
     7
370
    25
100
AcDbLine
 10
3.9470636333
 20
11.9602786382
 30
0.0
 11
6.5970636333
 21
11.9602786382
 31
0.0
  0
LINE
  5
36B
330
1F
100
AcDbEntity
  8
0
  6
Continuous
 62
     7
370
    25
100
AcDbLine
 10
6.5970636333
 20
11.9602786382
 30
0.0
 11
6.5970636333
 21
14.3602786382
 31
0.0
  0
LINE
  5
36C
330
1F
100
AcDbEntity
  8
0
  6
Continuous
 62
     7
370
    25
100
AcDbLine
 10
6.5970636333
 20
14.3602786382
 30
0.0
 11
3.9470636333
 21
14.3602786382
 31
0.0
  0
LINE
  5
36D
330
1F
100
AcDbEntity
  8
0
  6
Continuous
 62
     7
370
    25
100
AcDbLine
 10
3.9470636333
 20
14.3602786382
 30
0.0
 11
3.9470636333
 21
11.9602786382
 31
0.0
  0
ARC
  5
36E
330
1F
100
AcDbEntity
  8
0
  6
Continuous
 62
     7
370
    25
100
AcDbCircle
 10
4.4932136333
 20
14.0600691146
 30
0.0
 40
0.1250000004097027
100
AcDbArc
 50
205.7814061433
 51
253.3072043244
  0
SPLINE
  5
36F
330
1F
100
AcDbEntity
  8
0
  6
Continuous
 62
     7
370
    25
100
AcDbSpline
210
0.0
220
0.0
230
1.0
 70
    24
 71
     3
 72
     9
 73
     5
 74
     0
 42
0.00000001
 43
0.00000001
 40
0.0
 40
0.0
 40
0.0
 40
0.0
 40
0.4954579638440885
 40
1.0
 40
1.0
 40
1.0
 40
1.0
 10
4.388181131802227
 20
13.9610665539603
 30
0.0
 10
4.399407740276476
 20
13.95769994862882
 30
0.0
 10
4.422066793704833
 20
13.95090501227265
 30
0.0
 10
4.445490419211893
 20
13.9438807980858
 30
0.0
 10
4.457308622919378
 20
13.94033678675757
 30
0.0
  0
LINE
  5
370
330
1F
100
AcDbEntity
  8
0
  6
Continuous
 62
     7
370
    25
100
AcDbLine
 10
4.3777845378
 20
14.0050225533
 30
0.0
 11
4.3881811318
 21
13.961066554
 31
0.0
  0
LINE
  5
371
330
1F
100
AcDbEntity
  8
0
  6
Continuous
 62
     7
370
    25
100
AcDbLine
 10
4.3777845378
 20
14.0050225533
 30
0.0
 11
4.3806561374
 21
14.0057017519
 31
0.0
  0
ARC
  5
372
330
1F
100
AcDbEntity
  8
0
  6
Continuous
 62
     7
370
    25
100
AcDbCircle
 10
4.4932136333
 20
14.0600691146
 30
0.0
 40
0.1250000004096765
100
AcDbArc
 50
133.3072045412
 51
180.8330027223
  0
ARC
  5
373
330
1F
100
AcDbEntity
  8
0
  6
Continuous
 62
     7
370
    25
100
AcDbCircle
 10
4.4932136333
 20
14.0600691146
 30
0.0
 40
0.1250000004096765
100
AcDbArc
 50
73.3072043244
 51
133.3072045412
  0
ARC
  5
374
330
1F
100
AcDbEntity
  8
0
  6
Continuous
 62
     7
370
    25
100
AcDbCircle
 10
4.4932136333
 20
14.0600691146
 30
0.0
 40
0.1250000004096469
100
AcDbArc
 50
25.7814061433
 51
73.3072043244
  0
ARC
  5
375
330
1F
100
AcDbEntity
  8
0
  6
Continuous
 62
     7
370
    25
100
AcDbCircle
 10
4.4932136333
 20
14.0600691146
 30
0.0
 40
0.109375000000025
100
AcDbArc
 50
27.5988161346
 51
179.015592731
  0
LINE
  5
376
330
1F
100
AcDbEntity
  8
0
  6
Continuous
 62
     7
370
    25
100
AcDbLine
 10
4.6057711291
 20
14.1144364773
 30
0.0
 11
4.5901431967
 21
14.1107401157
 31
0.0
  0
LINE
  5
377
330
1F
100
AcDbEntity
  8
0
  6
Continuous
 62
     7
370
    25
100
AcDbLine
 10
4.3838547762
 20
14.0619482102
 30
0.0
 11
4.3682268438
 21
14.0582518486
 31
0.0
  0
LINE
  5
378
330
1F
100
AcDbEntity
  8
0
  6
Continuous
 62
     7
370
    25
100
AcDbLine
 10
4.6314686164
 20
14.0186095799
 30
0.0
 11
4.6210720224
 21
14.0625655793
 31
0.0
  0
SPLINE
  5
379
330
1F
100
AcDbEntity
  8
0
  6
Continuous
 62
     7
370
    25
100
AcDbSpline
210
0.0
220
0.0
230
1.0
 70
    24
 71
     3
 72
    10
 73
     6
 74
     0
 42
0.00000001
 43
0.00000001
 40
0.0
 40
0.0
 40
0.0
 40
0.0
 40
0.0700274472315509
 40
0.5307521380675436
 40
1.0
 40
1.0
 40
1.0
 40
1.0
 10
4.578952366014609
 20
13.96910829993676
 30
0.0
 10
4.580196058831588
 20
13.9702805920544
 30
0.0
 10
4.589622257383823
 20
13.97916563031408
 30
0.0
 10
4.607396006935151
 20
13.99591898469216
 30
0.0
 10
4.623395534842785
 20
14.01099997591139
 30
0.0
 10
4.631468616397973
 20
14.0186095799415
 30
0.0
  0
ARC
  5
37A
330
1F
100
AcDbEntity
  8
0
  6
Continuous
 62
     7
370
    25
100
AcDbCircle
 10
4.4932136333
 20
14.0600691146
 30
0.0
 40
0.1250000004096851
100
AcDbArc
 50
313.3072045412
 51
0.8330027223
  0
LINE
  5
37B
330
1F
100
AcDbEntity
  8
0
  6
Continuous
 62
     7
370
    25
100
AcDbLine
 10
4.6182004227
 20
14.0618863806
 30
0.0
 11
4.6210720224
 21
14.0625655793
 31
0.0
  0
SPLINE
  5
37C
330
1F
100
AcDbEntity
  8
0
  6
Continuous
 62
     7
370
    25
100
AcDbSpline
210
0.0
220
0.0
230
1.0
 70
    24
 71
     3
 72
     9
 73
     5
 74
     0
 42
0.00000001
 43
0.00000001
 40
0.0
 40
0.0
 40
0.0
 40
0.0
 40
0.4078861665961805
 40
1.0
 40
1.0
 40
1.0
 40
1.0
 10
4.354958650116767
 20
14.1015286492959
 30
0.0
 10
4.35635288866825
 20
14.09563391601888
 30
0.0
 10
4.359771093710895
 20
14.08118200820792
 30
0.0
 10
4.363278475108806
 20
14.0663530696307
 30
0.0
 10
4.365355244153533
 20
14.05757264996444
 30
0.0
  0
SPLINE
  5
37D
330
1F
100
AcDbEntity
  8
0
  6
Continuous
 62
     7
370
    25
100
AcDbSpline
210
0.0
220
0.0
230
1.0
 70
    24
 71
     3
 72
    10
 73
     6
 74
     0
 42
0.00000001
 43
0.00000001
 40
0.0
 40
0.0
 40
0.0
 40
0.0
 40
0.0700274472314692
 40
0.5307521380675455
 40
1.0
 40
1.0
 40
1.0
 40
1.0
 10
4.407474900500129
 20
14.15102992930065
 30
0.0
 10
4.406231207683152
 20
14.149857637183
 30
0.0
 10
4.39680500913092
 20
14.14097259892332
 30
0.0
 10
4.37903125957958
 20
14.12421924454527
 30
0.0
 10
4.363031731671951
 20
14.10913825332602
 30
0.0
 10
4.354958650116767
 20
14.1015286492959
 30
0.0
  0
LINE
  5
37E
330
1F
100
AcDbEntity
  8
0
  6
Continuous
 62
     7
370
    25
100
AcDbLine
 10
4.3682268438
 20
14.0582518486
 30
0.0
 11
4.3653552442
 21
14.05757265
 31
0.0
  0
ARC
  5
37F
330
1F
100
AcDbEntity
  8
0
  6
Continuous
 62
     7
370
    25
100
AcDbCircle
 10
4.4932136333
 20
14.0600691146
 30
0.0
 40
0.1250000004097027
100
AcDbArc
 50
253.3072043244
 51
313.3072045412
  0
ARC
  5
380
330
1F
100
AcDbEntity
  8
0
  6
Continuous
 62
     7
370
    25
100
AcDbCircle
 10
4.4932136333
 20
14.0600691146
 30
0.0
 40
0.1093750000000413
100
AcDbArc
 50
207.5988161346
 51
359.015592731
  0
LINE
  5
381
330
1F
100
AcDbEntity
  8
0
  6
Continuous
 62
     7
370
    25
100
AcDbLine
 10
4.3806561374
 20
14.0057017519
 30
0.0
 11
4.3962840698
 21
14.0093981136
 31
0.0
  0
LINE
  5
382
330
1F
100
AcDbEntity
  8
0
  6
Continuous
 62
     7
370
    25
100
AcDbLine
 10
4.6025724904
 20
14.058190019
 30
0.0
 11
4.6182004227
 21
14.0618863806
 31
0.0
  0
SPLINE
  5
383
330
1F
100
AcDbEntity
  8
0
  6
Continuous
 62
     7
370
    25
100
AcDbSpline
210
0.0
220
0.0
230
1.0
 70
    24
 71
     3
 72
     9
 73
     5
 74
     0
 42
0.00000001
 43
0.00000001
 40
0.0
 40
0.0
 40
0.0
 40
0.0
 40
0.4954579637694498
 40
1.0
 40
1.0
 40
1.0
 40
1.0
 10
4.526436114942797
 20
13.91960701928308
 30
0.0
 10
4.534964984998597
 20
13.927646244888
 30
0.0
 10
4.552179099372525
 20
13.94387209287672
 30
0.0
 10
4.569974060229293
 20
13.96064544081406
 30
0.0
 10
4.578952366014609
 20
13.96910829993676
 30
0.0
  0
SPLINE
  5
384
330
1F
100
AcDbEntity
  8
0
  6
Continuous
 62
     7
370
    25
100
AcDbSpline
210
0.0
220
0.0
230
1.0
 70
    24
 71
     3
 72
    10
 73
     6
 74
     0
 42
0.00000001
 43
0.00000001
 40
0.0
 40
0.0
 40
0.0
 40
0.0
 40
0.0700274563532697
 40
0.5307521426902454
 40
1.0
 40
1.0
 40
1.0
 40
1.0
 10
4.457308622919378
 20
13.94033678675757
 30
0.0
 10
4.458945704315797
 20
13.93984586316565
 30
0.0
 10
4.471353472699161
 20
13.93612505475877
 30
0.0
 10
4.494749178243555
 20
13.92910921313579
 30
0.0
 10
4.515809463744269
 20
13.92279371103091
 30
0.0
 10
4.526436114942797
 20
13.91960701928308
 30
0.0
  0
SPLINE
  5
385
330
1F
100
AcDbEntity
  8
0
  6
Continuous
 62
     7
370
    25
100
AcDbSpline
210
0.0
220
0.0
230
1.0
 70
    24
 71
     3
 72
     9
 73
     5
 74
     0
 42
0.00000001
 43
0.00000001
 40
0.0
 40
0.0
 40
0.0
 40
0.0
 40
0.4954579638440538
 40
0.9999999999999999
 40
0.9999999999999999
 40
0.9999999999999999
 40
0.9999999999999999
 10
4.598246134712553
 20
14.15907167527714
 30
0.0
 10
4.587019526238306
 20
14.16243828060863
 30
0.0
 10
4.56436047280995
 20
14.16923321696483
 30
0.0
 10
4.540936847302864
 20
14.17625743115164
 30
0.0
 10
4.529118643595364
 20
14.17980144247985
 30
0.0
  0
SPLINE
  5
386
330
1F
100
AcDbEntity
  8
0
  6
Continuous
 62
     7
370
    25
100
AcDbSpline
210
0.0
220
0.0
230
1.0
 70
    24
 71
     3
 72
     9
 73
     5
 74
     0
 42
0.00000001
 43
0.00000001
 40
0.0
 40
0.0
 40
0.0
 40
0.0
 40
0.5921138334028485
 40
1.0
 40
1.0
 40
1.0
 40
1.0
 10
4.608642728749293
 20
14.11511567594565
 30
0.0
 10
4.60656595970456
 20
14.1238960956119
 30
0.0
 10
4.603058578306633
 20
14.13872503418911
 30
0.0
 10
4.599640373264024
 20
14.1531769420001
 30
0.0
 10
4.598246134712553
 20
14.15907167527714
 30
0.0
  0
LINE
  5
387
330
1F
100
AcDbEntity
  8
0
  6
Continuous
 62
     7
370
    25
100
AcDbLine
 10
4.6086427287
 20
14.1151156759
 30
0.0
 11
4.6057711291
 21
14.1144364773
 31
0.0
  0
SPLINE
  5
388
330
1F
100
AcDbEntity
  8
0
  6
Continuous
 62
     7
370
    25
100
AcDbSpline
210
0.0
220
0.0
230
1.0
 70
    24
 71
     3
 72
     9
 73
     5
 74
     0
 42
0.00000001
 43
0.00000001
 40
0.0
 40
0.0
 40
0.0
 40
0.0
 40
0.495457963769428
 40
1.0
 40
1.0
 40
1.0
 40
1.0
 10
4.459991151571949
 20
14.20053120995434
 30
0.0
 10
4.451462281516146
 20
14.19249198434942
 30
0.0
 10
4.43424816714221
 20
14.1762661363607
 30
0.0
 10
4.416453206285444
 20
14.15949278842336
 30
0.0
 10
4.407474900500129
 20
14.15102992930065
 30
0.0
  0
SPLINE
  5
389
330
1F
100
AcDbEntity
  8
0
  6
Continuous
 62
     7
370
    25
100
AcDbSpline
210
0.0
220
0.0
230
1.0
 70
    24
 71
     3
 72
    10
 73
     6
 74
     0
 42
0.00000001
 43
0.00000001
 40
0.0
 40
0.0
 40
0.0
 40
0.0
 40
0.0700274563525828
 40
0.5307521426899461
 40
1.0
 40
1.0
 40
1.0
 40
1.0
 10
4.529118643595364
 20
14.17980144247985
 30
0.0
 10
4.527481562198961
 20
14.18029236607177
 30
0.0
 10
4.515073793815597
 20
14.18401317447862
 30
0.0
 10
4.491678088271247
 20
14.19102901610172
 30
0.0
 10
4.470617802770495
 20
14.19734451820654
 30
0.0
 10
4.459991151571949
 20
14.20053120995434
 30
0.0
  0
LINE
  5
38A
330
1F
100
AcDbEntity
  8
0
  6
Continuous
 62
     7
370
    25
100
AcDbLine
 10
4.6025724904
 20
14.058190019
 30
0.0
 11
4.3962840698
 21
14.0093981136
 31
0.0
  0
LINE
  5
38B
330
1F
100
AcDbEntity
  8
0
  6
Continuous
 62
     7
370
    25
100
AcDbLine
 10
4.3838547762
 20
14.0619482102
 30
0.0
 11
4.5901431967
 21
14.1107401157
 31
0.0
  0
LINE
  5
38C
330
1F
100
AcDbEntity
  8
0
  6
Continuous
 62
     7
370
    25
100
AcDbLine
 10
4.6210720224
 20
14.0625655793
 30
0.0
 11
4.6086427287
 21
14.1151156759
 31
0.0
  0
LINE
  5
38D
330
1F
100
AcDbEntity
  8
0
  6
Continuous
 62
     7
370
    25
100
AcDbLine
 10
4.3653552442
 20
14.05757265
 30
0.0
 11
4.3777845378
 21
14.0050225533
 31
0.0
  0
CIRCLE
  5
38E
330
1F
100
AcDbEntity
  8
0
  6
Continuous
 62
     7
370
    25
100
AcDbCircle
 10
4.4932136333
 20
14.0600691146
 30
0.0
 40
0.1740000000000107
  0
CIRCLE
  5
38F
330
1F
100
AcDbEntity
  8
0
  6
Continuous
 62
     7
370
    25
100
AcDbCircle
 10
5.2733136333
 20
13.1602786382
 30
0.0
 40
0.3500000000000014
  0
CIRCLE
  5
390
330
1F
100
AcDbEntity
  8
0
  6
Continuous
 62
     7
370
    25
100
AcDbCircle
 10
5.2733136333
 20
13.1602786382
 30
0.0
 40
0.3125
  0
LINE
  5
391
330
1F
100
AcDbEntity
  8
0
  6
Continuous
 62
     7
370
    25
100
AcDbLine
 10
5.2733136333
 20
13.5102786382
 30
0.0
 11
5.2733136333
 21
13.5702786382
 31
0.0
  0
LWPOLYLINE
  5
392
330
1F
100
AcDbEntity
  8
0
  6
Continuous
 62
     7
370
    25
100
AcDbPolyline
 90
       34
 70
   128
 43
0.0
 10
5.2733136333
 20
13.5702786382
 10
5.351446947
 20
13.562764893
 10
5.4291241533
 20
13.5395187756
 10
5.5016127555
 20
13.500836285
 10
5.5645474678
 20
13.4488663261
 10
5.6147716191
 20
13.3872289498
 10
5.6514828799
 20
13.3186706231
 10
5.6751173217
 20
13.2418494417
 10
5.6833136333
 20
13.1602786382
 10
5.6751173217
 20
13.0787078347
 10
5.6514828799
 20
13.0018866533
 10
5.6147716191
 20
12.9333283267
 10
5.5645474678
 20
12.8716909503
 10
5.5016127555
 20
12.8197209914
 10
5.4291241533
 20
12.7810385008
 10
5.351446947
 20
12.7577923834
 10
5.2733136333
 20
12.7502786382
 10
5.1951803195
 20
12.7577923834
 10
5.1175031132
 20
12.7810385008
 10
5.0450145111
 20
12.8197209914
 10
4.9820797987
 20
12.8716909503
 10
4.9318556474
 20
12.9333283267
 10
4.8951443866
 20
13.0018866533
 10
4.8715099449
 20
13.0787078347
 10
4.8633136333
 20
13.1602786382
 10
4.8715099449
 20
13.2418494417
 10
4.8951443866
 20
13.3186706231
 10
4.9318556474
 20
13.3872289498
 10
4.9820797987
 20
13.4488663261
 10
5.0450145111
 20
13.500836285
 10
5.1175031132
 20
13.5395187756
 10
5.1951803195
 20
13.562764893
 10
5.2733136333
 20
13.5702786382
 10
5.2733136333
 20
13.5702786382
  0
CIRCLE
  5
393
330
1F
100
AcDbEntity
  8
0
  6
Continuous
 62
     7
370
    25
100
AcDbCircle
 10
5.2733136333
 20
13.1602786382
 30
0.0
 40
0.4125000000000014
  0
CIRCLE
  5
394
330
1F
100
AcDbEntity
  8
0
  6
Continuous
 62
     7
370
    25
100
AcDbCircle
 10
6.9295636333
 20
13.1602786382
 30
0.0
 40
0.0625000000000018
  0
ARC
  5
395
330
1F
100
AcDbEntity
  8
0
  6
Continuous
 62
     7
370
    25
100
AcDbCircle
 10
6.9295636333
 20
12.2227786382
 30
0.0
 40
0.07
100
AcDbArc
 50
143.4381217125
 51
216.5618837305
  0
ARC
  5
396
330
1F
100
AcDbEntity
  8
0
  6
Continuous
 62
     7
370
    25
100
AcDbCircle
 10
6.9295636333
 20
14.0977786382
 30
0.0
 40
0.0700000000000015
100
AcDbArc
 50
143.438165137
 51
216.5618373895
  0
ELLIPSE
  5
397
330
1F
100
AcDbEntity
  8
0
  6
Continuous
 62
     7
370
    25
100
AcDbEllipse
 10
3.6735783851
 20
13.8852786382
 30
0.0
 11
0.0
 21
0.3124999999999982
 31
0.0
210
0.0
220
0.0
230
1.0
 40
0.0349207695
 41
5.367521780887217
 42
5.583046380915395
  0
ELLIPSE
  5
398
330
1F
100
AcDbEntity
  8
0
  6
Continuous
 62
     7
370
    25
100
AcDbEllipse
 10
3.6735783851
 20
13.8852786382
 30
0.0
 11
0.0
 21
0.3124999999999982
 31
0.0
210
0.0
220
0.0
230
1.0
 40
0.0349207695
 41
0.5898334252476808
 42
1.030422299014558
  0
ELLIPSE
  5
399
330
1F
100
AcDbEntity
  8
0
  6
Continuous
 62
     7
370
    25
100
AcDbEllipse
 10
3.6735783851
 20
12.4352786382
 30
0.0
 11
0.0
 21
0.3125
 31
0.0
210
0.0
220
0.0
230
1.0
 40
0.0349207695
 41
2.111170354575254
 42
2.55175922834216
  0
ELLIPSE
  5
39A
330
1F
100
AcDbEntity
  8
0
  6
Continuous
 62
     7
370
    25
100
AcDbEllipse
 10
3.6735783851
 20
12.4352786382
 30
0.0
 11
0.0
 21
0.3125
 31
0.0
210
0.0
220
0.0
230
1.0
 40
0.0349207695
 41
3.841731579854434
 42
4.057256179882422
  0
ELLIPSE
  5
39B
330
1F
100
AcDbEntity
  8
0
  6
Continuous
 62
     7
370
    25
100
AcDbEllipse
 10
3.6735264049
 20
13.8852786382
 30
0.0
 11
0.0
 21
0.5680388654535022
 31
0.0
210
0.0
220
0.0
230
1.0
 40
0.0349207955
 41
1.074239411602524
 42
1.29752299545664
  0
ELLIPSE
  5
39C
330
1F
100
AcDbEntity
  8
0
  6
Continuous
 62
     7
370
    25
100
AcDbEllipse
 10
3.6735264049
 20
12.4352786382
 30
0.0
 11
0.0
 21
0.5680388654535022
 31
0.0
210
0.0
220
0.0
230
1.0
 40
0.0349207955
 41
1.844069658138488
 42
2.067353241981492
  0
ELLIPSE
  5
39D
330
1F
100
AcDbEntity
  8
0
  6
Continuous
 62
     7
370
    25
100
AcDbEllipse
 10
6.8730488815
 20
13.8852786382
 30
0.0
 11
0.0
 21
0.3124999999999982
 31
0.0
210
0.0
220
0.0
230
1.0
 40
0.0349207695
 41
0.6842996622907273
 42
0.9286413182927146
  0
ELLIPSE
  5
39E
330
1F
100
AcDbEntity
  8
0
  6
Continuous
 62
     7
370
    25
100
AcDbEllipse
 10
6.8730488815
 20
13.8852786382
 30
0.0
 11
0.0
 21
0.3124999999999982
 31
0.0
210
0.0
220
0.0
230
1.0
 40
0.0349207695
 41
5.252763008165244
 42
5.700666625610843
  0
ELLIPSE
  5
39F
330
1F
100
AcDbEntity
  8
0
  6
Continuous
 62
     7
370
    25
100
AcDbEllipse
 10
6.8730488815
 20
12.4352786382
 30
0.0
 11
0.0
 21
0.3125
 31
0.0
210
0.0
220
0.0
230
1.0
 40
0.0349207695
 41
3.724111335158833
 42
4.172014952604449
  0
ELLIPSE
  5
3A0
330
1F
100
AcDbEntity
  8
0
  6
Continuous
 62
     7
370
    25
100
AcDbEllipse
 10
6.8730488815
 20
12.4352786382
 30
0.0
 11
0.0
 21
0.3125
 31
0.0
210
0.0
220
0.0
230
1.0
 40
0.0349207695
 41
2.212951335296856
 42
2.457292991299438
  0
ELLIPSE
  5
3A1
330
1F
100
AcDbEntity
  8
0
  6
Continuous
 62
     7
370
    25
100
AcDbEllipse
 10
6.8731008616
 20
13.8852786382
 30
0.0
 11
0.0
 21
0.5680388654535022
 31
0.0
210
0.0
220
0.0
230
1.0
 40
0.0349207955
 41
4.985662311727933
 42
5.208945895571706
  0
ELLIPSE
  5
3A2
330
1F
100
AcDbEntity
  8
0
  6
Continuous
 62
     7
370
    25
100
AcDbEllipse
 10
6.8731008616
 20
12.4352786382
 30
0.0
 11
0.0
 21
0.5680388654535022
 31
0.0
210
0.0
220
0.0
230
1.0
 40
0.0349207955
 41
4.215832065192334
 42
4.439115649046481
  0
LINE
  5
3A3
330
1F
100
AcDbEntity
  8
0
  6
Continuous
 62
     7
370
    25
100
AcDbLine
 10
4.6183136333
 20
14.1810070739
 30
0.0
 11
4.6183136333
 21
14.3602786382
 31
0.0
  0
LINE
  5
3A4
330
1F
100
AcDbEntity
  8
0
  6
Continuous
 62
     7
370
    25
100
AcDbLine
 10
4.3683136333
 20
14.3602786382
 30
0.0
 11
4.3683136333
 21
14.1812136151
 31
0.0
  0
CIRCLE
  5
3A5
330
1F
100
AcDbEntity
  8
0
  6
Continuous
 62
     7
370
    25
100
AcDbCircle
 10
5.2733136333
 20
13.1602786382
 30
0.0
 40
0.5250000000000004
  0
CIRCLE
  5
3A6
330
1F
100
AcDbEntity
  8
0
  6
Continuous
 62
     7
370
    25
100
AcDbCircle
 10
5.2733136333
 20
13.1602786382
 30
0.0
 40
0.5197618845762371
  0
CIRCLE
  5
3A7
330
1F
100
AcDbEntity
  8
0
  6
Continuous
 62
     7
370
    25
100
AcDbCircle
 10
5.2733136333
 20
13.1602786382
 30
0.0
 40
0.4250000000000007
  0
CIRCLE
  5
3A8
330
1F
100
AcDbEntity
  8
0
  6
Continuous
 62
     7
370
    25
100
AcDbCircle
 10
3.6170636333
 20
13.1602786382
 30
0.0
 40
0.0625000000000018
  0
SPLINE
  5
3A9
330
1F
100
AcDbEntity
  8
0
  6
Continuous
 62
     7
370
    25
100
AcDbSpline
210
0.0
220
0.0
230
1.0
 70
     8
 71
     3
 72
    11
 73
     7
 74
     0
 42
0.00000001
 43
0.00000001
 40
0.0
 40
0.0
 40
0.0
 40
0.0
 40
0.0155630702889711
 40
0.4094443507067391
 40
0.9013483182710033
 40
1.0
 40
1.0
 40
1.0
 40
1.0
 10
6.957015657732688
 20
12.28627463708283
 30
0.0
 10
6.957011270575332
 20
12.28557854194476
 30
0.0
 10
6.956895850111263
 20
12.26726517468859
 30
0.0
 10
6.956486908882812
 20
12.22816367357492
 30
0.0
 10
6.956011621340118
 20
12.18569725644621
 30
0.0
 10
6.955607518267435
 20
12.16201025506861
 30
0.0
 10
6.955540013286729
 20
12.15805336713805
 30
0.0
  0
SPLINE
  5
3AA
330
1F
100
AcDbEntity
  8
0
  6
Continuous
 62
     7
370
    25
100
AcDbSpline
210
0.0
220
0.0
230
1.0
 70
     8
 71
     3
 72
    11
 73
     7
 74
     0
 42
0.00000001
 43
0.00000001
 40
0.0
 40
0.0
 40
0.0
 40
0.0
 40
0.012098513417151
 40
0.4096683761390508
 40
0.9061788796325336
 40
1.0
 40
1.0
 40
1.0
 40
1.0
 10
3.589614656993744
 20
14.03476239945053
 30
0.0
 10
3.589618041633507
 20
14.03529846854404
 30
0.0
 10
3.589732649092096
 20
14.05345033129482
 30
0.0
 10
3.590140797529941
 20
14.09238866291514
 30
0.0
 10
3.590612285693397
 20
14.13462314672586
 30
0.0
 10
3.591012185940868
 20
14.15808607551288
 30
0.0
 10
3.591075741894397
 20
14.16181502747297
 30
0.0
  0
SPLINE
  5
3AB
330
1F
100
AcDbEntity
  8
0
  6
Continuous
 62
     7
370
    25
100
AcDbSpline
210
0.0
220
0.0
230
1.0
 70
     8
 71
     3
 72
    11
 73
     7
 74
     0
 42
0.00000001
 43
0.00000001
 40
0.0
 40
0.0
 40
0.0
 40
0.0
 40
0.0542904942833012
 40
0.5152190599336424
 40
0.8972039596702824
 40
1.0
 40
1.0
 40
1.0
 40
1.0
 10
6.955554617216444
 20
14.16214495509854
 30
0.0
 10
6.955591884816614
 20
14.1599642721777
 30
0.0
 10
6.955945555899905
 20
14.1392695001128
 30
0.0
 10
6.956396751328133
 20
14.10067958890307
 30
0.0
 10
6.956835167785334
 20
14.05969936782064
 30
0.0
 10
6.956980436455161
 20
14.03801932947695
 30
0.0
 10
6.957011240149796
 20
14.03342215596674
 30
0.0
  0
SPLINE
  5
3AC
330
1F
100
AcDbEntity
  8
0
  6
Continuous
 62
     7
370
    25
100
AcDbSpline
210
0.0
220
0.0
230
1.0
 70
     8
 71
     3
 72
    11
 73
     7
 74
     0
 42
0.00000001
 43
0.00000001
 40
0.0
 40
0.0
 40
0.0
 40
0.0
 40
0.0497704376214493
 40
0.5155268526892186
 40
0.9015127315646912
 40
1.0
 40
1.0
 40
1.0
 40
1.0
 10
3.591062375935558
 20
12.15902066767869
 30
0.0
 10
3.591028591028904
 20
12.16099947371727
 30
0.0
 10
3.590678643802639
 20
12.18149613193258
 30
0.0
 10
3.590230921893696
 20
12.21988250687641
 30
0.0
 10
3.589794139962601
 20
12.26062325761396
 30
0.0
 10
3.589650253207642
 20
12.28206317772685
 30
0.0
 10
3.589621002848693
 20
12.28642164254396
 30
0.0
  0
LINE
  5
3AD
330
1F
100
AcDbEntity
  8
0
  6
Continuous
 62
     7
370
    25
100
AcDbLine
 10
6.9263329741
 20
13.2226950851
 30
0.0
 11
6.9263329741
 21
13.0978621913
 31
0.0
  0
DIMENSION
  5
3AE
330
1F
100
AcDbEntity
  8
0
  6
Continuous
 62
     7
370
    18
100
AcDbDimension
  2
_D_7
 10
7.6293931181
 20
15.4237596979
 30
0.0
 11
5.2733136333
 21
15.4237596979
 31
0.0
 70
   160
  1
<>
 71
     2
 42
-1.0
  3
SLDDIMSTYLE2
100
AcDbAlignedDimension
 13
2.9172341484
 23
14.636358123
 33
0.0
 14
7.6293931181
 24
14.636358123
 34
0.0
100
AcDbRotatedDimension
  0
DIMENSION
  5
3C2
330
1F
100
AcDbEntity
  8
0
  6
Continuous
 62
     7
370
    18
100
AcDbDimension
  2
_D_8
 10
2.1298325736
 20
11.6841991534
 30
0.0
 11
2.1298325736
 21
13.1602786382
 31
0.0
 70
   160
  1
<>
 71
     2
 42
-1.0
  3
SLDDIMSTYLE2
100
AcDbAlignedDimension
 13
2.9172341484
 23
14.636358123
 33
0.0
 14
2.9172341484
 24
11.6841991534
 34
0.0
 50
90.0
100
AcDbRotatedDimension
  0
MTEXT
  5
3D6
330
1F
100
AcDbEntity
  8
0
  6
Continuous
 62
     7
370
     0
100
AcDbMText
 10
5.2706686817
 20
11.3360718296
 30
0.0
 40
0.25
 41
0.0
 71
     2
 72
     1
  1
BACK BOX DETAIL
  7
SLDTEXTSTYLE0
 73
     1
 44
1.0
  0
ENDSEC
  0
SECTION
  2
OBJECTS
  0
DICTIONARY
  5
C
330
0
100
AcDbDictionary
281
     1
  3
ACAD_GROUP
350
D
  3
ACAD_LAYOUT
350
1A
  3
ACAD_MLINESTYLE
350
17
  3
ACAD_PLOTSETTINGS
350
19
  3
ACAD_PLOTSTYLENAME
350
E
  3
ACAD_SCALELIST
350
47
  3
DWGPROPS
350
3D7
  0
DICTIONARY
  5
D
102
{ACAD_REACTORS
330
C
102
}
330
C
100
AcDbDictionary
281
     1
  0
DICTIONARY
  5
1A
102
{ACAD_REACTORS
330
C
102
}
330
C
100
AcDbDictionary
281
     1
  3
Layout1
350
1E
  3
Layout2
350
26
  3
Model
350
22
  0
DICTIONARY
  5
17
102
{ACAD_REACTORS
330
C
102
}
330
C
100
AcDbDictionary
281
     1
  3
Standard
350
18
  0
DICTIONARY
  5
19
102
{ACAD_REACTORS
330
C
102
}
330
C
100
AcDbDictionary
281
     1
  0
ACDBDICTIONARYWDFLT
  5
E
102
{ACAD_REACTORS
330
C
102
}
330
C
100
AcDbDictionary
281
     1
  3
Normal
350
F
100
AcDbDictionaryWithDefault
340
F
  0
DICTIONARY
  5
47
102
{ACAD_REACTORS
330
C
102
}
330
C
100
AcDbDictionary
281
     1
  3
A0
350
48
  3
A1
350
49
  3
A2
350
4A
  3
A3
350
4B
  3
A4
350
4C
  3
A5
350
4D
  3
A6
350
4E
  3
A7
350
4F
  3
A8
350
50
  3
A9
350
51
  3
B1
350
52
  3
B2
350
53
  3
B3
350
54
  3
B4
350
55
  3
B5
350
56
  3
B6
350
57
  3
B7
350
58
  0
XRECORD
  5
3D7
102
{ACAD_REACTORS
330
C
102
}
330
C
100
AcDbXrecord
280
     1
  1
DWGPROPS COOKIE
  2

  3

  4

  6

  7

  8
alekseyb
  9

300
=
301
=
302
=
303
=
304
=
305
=
306
=
307
=
308
=
309
=
 40
0.0
 41
2460476.47291257
 42
2460476.472913774
  1

 90
        0
  0
LAYOUT
  5
1E
102
{ACAD_REACTORS
330
1A
102
}
330
1A
100
AcDbPlotSettings
  1

  2
none_device
  4

  6

 40
0.0
 41
0.0
 42
0.0
 43
0.0
 44
0.0
 45
0.0
 46
0.0
 47
0.0
 48
0.0
 49
0.0
140
0.0
141
0.0
142
1.0
143
1.0
 70
   688
 72
     0
 73
     0
 74
     5
  7

 75
    16
147
1.0
148
0.0
149
0.0
100
AcDbLayout
  1
Layout1
 70
     1
 71
     1
 10
0.0
 20
0.0
 11
12.0
 21
9.0
 12
0.0
 22
0.0
 32
0.0
 14
1.0000000000E+20
 24
1.0000000000E+20
 34
1.0000000000E+20
 15
-1.0000000000E+20
 25
-1.0000000000E+20
 35
-1.0000000000E+20
146
0.0
 13
0.0
 23
0.0
 33
0.0
 16
1.0
 26
0.0
 36
0.0
 17
0.0
 27
1.0
 37
0.0
 76
     0
330
1B
  0
LAYOUT
  5
26
102
{ACAD_REACTORS
330
1A
102
}
330
1A
100
AcDbPlotSettings
  1

  2
none_device
  4

  6

 40
0.0
 41
0.0
 42
0.0
 43
0.0
 44
0.0
 45
0.0
 46
0.0
 47
0.0
 48
0.0
 49
0.0
140
0.0
141
0.0
142
1.0
143
1.0
 70
   688
 72
     0
 73
     0
 74
     5
  7

 75
    16
147
1.0
148
0.0
149
0.0
100
AcDbLayout
  1
Layout2
 70
     1
 71
     2
 10
0.0
 20
0.0
 11
0.0
 21
0.0
 12
0.0
 22
0.0
 32
0.0
 14
0.0
 24
0.0
 34
0.0
 15
0.0
 25
0.0
 35
0.0
146
0.0
 13
0.0
 23
0.0
 33
0.0
 16
1.0
 26
0.0
 36
0.0
 17
0.0
 27
1.0
 37
0.0
 76
     0
330
23
  0
LAYOUT
  5
22
102
{ACAD_REACTORS
330
1A
102
}
330
1A
100
AcDbPlotSettings
  1

  2
none_device
  4
Letter_(8.50_x_11.00_Inches)
  6

 40
6.35
 41
6.35
 42
6.35000508
 43
6.35000508
 44
215.9
 45
279.4
 46
0.0
 47
0.0
 48
0.0
 49
0.0
140
0.0
141
0.0
142
1.0
143
1.0
 70
  1712
 72
     0
 73
     0
 74
     0
  7

 75
     0
147
1.0
148
0.0
149
0.0
100
AcDbLayout
  1
Model
 70
     1
 71
     0
 10
0.0
 20
0.0
 11
22.0
 21
17.0
 12
0.0
 22
0.0
 32
0.0
 14
0.0
 24
0.0
 34
0.0
 15
22.0
 25
17.0
 35
0.0
146
0.0
 13
0.0
 23
0.0
 33
0.0
 16
1.0
 26
0.0
 36
0.0
 17
0.0
 27
1.0
 37
0.0
 76
     0
330
1F
331
29
  0
MLINESTYLE
  5
18
102
{ACAD_REACTORS
330
17
102
}
330
17
100
AcDbMlineStyle
  2
Standard
 70
     0
  3

 62
   256
 51
90.0
 52
90.0
 71
     2
 49
0.5
 62
   256
  6
BYLAYER
 49
-0.5
 62
   256
  6
BYLAYER
  0
ACDBPLACEHOLDER
  5
F
102
{ACAD_REACTORS
330
E
102
}
330
E
  0
SCALE
  5
48
102
{ACAD_REACTORS
330
47
102
}
330
47
100
AcDbScale
 70
     0
300
1:1
140
1.0
141
1.0
290
     1
  0
SCALE
  5
49
102
{ACAD_REACTORS
330
47
102
}
330
47
100
AcDbScale
 70
     0
300
1/128" = 1'-0"
140
0.0078125
141
12.0
290
     0
  0
SCALE
  5
4A
102
{ACAD_REACTORS
330
47
102
}
330
47
100
AcDbScale
 70
     0
300
1/64" = 1'-0"
140
0.015625
141
12.0
290
     0
  0
SCALE
  5
4B
102
{ACAD_REACTORS
330
47
102
}
330
47
100
AcDbScale
 70
     0
300
1/32" = 1'-0"
140
0.03125
141
12.0
290
     0
  0
SCALE
  5
4C
102
{ACAD_REACTORS
330
47
102
}
330
47
100
AcDbScale
 70
     0
300
1/16" = 1'-0"
140
0.0625
141
12.0
290
     0
  0
SCALE
  5
4D
102
{ACAD_REACTORS
330
47
102
}
330
47
100
AcDbScale
 70
     0
300
3/32" = 1'-0"
140
0.09375
141
12.0
290
     0
  0
SCALE
  5
4E
102
{ACAD_REACTORS
330
47
102
}
330
47
100
AcDbScale
 70
     0
300
1/8" = 1'-0"
140
0.125
141
12.0
290
     0
  0
SCALE
  5
4F
102
{ACAD_REACTORS
330
47
102
}
330
47
100
AcDbScale
 70
     0
300
3/16" = 1'-0"
140
0.1875
141
12.0
290
     0
  0
SCALE
  5
50
102
{ACAD_REACTORS
330
47
102
}
330
47
100
AcDbScale
 70
     0
300
1/4" = 1'-0"
140
0.25
141
12.0
290
     0
  0
SCALE
  5
51
102
{ACAD_REACTORS
330
47
102
}
330
47
100
AcDbScale
 70
     0
300
3/8" = 1'-0"
140
0.375
141
12.0
290
     0
  0
SCALE
  5
52
102
{ACAD_REACTORS
330
47
102
}
330
47
100
AcDbScale
 70
     0
300
1/2" = 1'-0"
140
0.5
141
12.0
290
     0
  0
SCALE
  5
53
102
{ACAD_REACTORS
330
47
102
}
330
47
100
AcDbScale
 70
     0
300
3/4" = 1'-0"
140
0.75
141
12.0
290
     0
  0
SCALE
  5
54
102
{ACAD_REACTORS
330
47
102
}
330
47
100
AcDbScale
 70
     0
300
1" = 1'-0"
140
1.0
141
12.0
290
     0
  0
SCALE
  5
55
102
{ACAD_REACTORS
330
47
102
}
330
47
100
AcDbScale
 70
     0
300
1-1/2" = 1'-0"
140
1.5
141
12.0
290
     0
  0
SCALE
  5
56
102
{ACAD_REACTORS
330
47
102
}
330
47
100
AcDbScale
 70
     0
300
3" = 1'-0"
140
3.0
141
12.0
290
     0
  0
SCALE
  5
57
102
{ACAD_REACTORS
330
47
102
}
330
47
100
AcDbScale
 70
     0
300
6" = 1'-0"
140
6.0
141
12.0
290
     0
  0
SCALE
  5
58
102
{ACAD_REACTORS
330
47
102
}
330
47
100
AcDbScale
 70
     0
300
1'-0" = 1'-0"
140
12.0
141
12.0
290
     0
  0
ENDSEC
  0
EOF
