  0
SECTION
  2
HEADER
  9
$ACADVER
  1
AC1015
  9
$ACADMAINTVER
 70
     6
  9
$DWGCODEPAGE
  3
ANSI_1252
  9
$INSBASE
 10
0.0
 20
0.0
 30
0.0
  9
$EXTMIN
 10
0.0
 20
0.0
 30
0.0
  9
$EXTMAX
 10
22.0
 20
17.0
 30
0.0
  9
$LIMMIN
 10
0.0
 20
0.0
  9
$LIMMAX
 10
22.0
 20
17.0
  9
$ORTHOMODE
 70
     0
  9
$REGENMODE
 70
     1
  9
$FILLMODE
 70
     1
  9
$QTEXTMODE
 70
     0
  9
$MIRRTEXT
 70
     1
  9
$LTSCALE
 40
2.0
  9
$ATTMODE
 70
     1
  9
$TEXTSIZE
 40
0.25
  9
$TRACEWID
 40
0.05
  9
$TEXTSTYLE
  7
Standard
  9
$CLAYER
  8
0
  9
$CELTYPE
  6
ByLayer
  9
$CECOLOR
 62
   256
  9
$CELTSCALE
 40
1.0
  9
$DISPSILH
 70
     0
  9
$DIMSCALE
 40
1.0
  9
$DIMASZ
 40
0.26
  9
$DIMEXO
 40
0.1
  9
$DIMDLI
 40
0.38
  9
$DIMRND
 40
0.0
  9
$DIMDLE
 40
0.0
  9
$DIMEXE
 40
0.25
  9
$DIMTP
 40
0.0
  9
$DIMTM
 40
0.0
  9
$DIMTXT
 40
0.25
  9
$DIMCEN
 40
0.09
  9
$DIMTSZ
 40
0.0
  9
$DIMTOL
 70
     0
  9
$DIMLIM
 70
     0
  9
$DIMTIH
 70
     1
  9
$DIMTOH
 70
     1
  9
$DIMSE1
 70
     0
  9
$DIMSE2
 70
     0
  9
$DIMTAD
 70
     0
  9
$DIMZIN
 70
     1
  9
$DIMBLK
  1

  9
$DIMASO
 70
     1
  9
$DIMSHO
 70
     1
  9
$DIMPOST
  1

  9
$DIMAPOST
  1

  9
$DIMALT
 70
     0
  9
$DIMALTD
 70
     2
  9
$DIMALTF
 40
25.4
  9
$DIMLFAC
 40
1.0
  9
$DIMTOFL
 70
     0
  9
$DIMTVP
 40
0.0
  9
$DIMTIX
 70
     0
  9
$DIMSOXD
 70
     0
  9
$DIMSAH
 70
     0
  9
$DIMBLK1
  1

  9
$DIMBLK2
  1

  9
$DIMSTYLE
  2
Standard
  9
$DIMCLRD
 70
     0
  9
$DIMCLRE
 70
     0
  9
$DIMCLRT
 70
     0
  9
$DIMTFAC
 40
1.0
  9
$DIMGAP
 40
0.12
  9
$DIMJUST
 70
     0
  9
$DIMSD1
 70
     0
  9
$DIMSD2
 70
     0
  9
$DIMTOLJ
 70
     1
  9
$DIMTZIN
 70
     1
  9
$DIMALTZ
 70
     0
  9
$DIMALTTZ
 70
     0
  9
$DIMUPT
 70
     0
  9
$DIMDEC
 70
     0
  9
$DIMTDEC
 70
     0
  9
$DIMALTU
 70
     2
  9
$DIMALTTD
 70
     2
  9
$DIMTXSTY
  7
Standard
  9
$DIMAUNIT
 70
     0
  9
$DIMADEC
 70
     0
  9
$DIMALTRND
 40
0.0
  9
$DIMAZIN
 70
     0
  9
$DIMDSEP
 70
    46
  9
$DIMATFIT
 70
     3
  9
$DIMFRAC
 70
     0
  9
$DIMLDRBLK
  1

  9
$DIMLUNIT
 70
     2
  9
$DIMLWD
 70
    -2
  9
$DIMLWE
 70
    -2
  9
$DIMTMOVE
 70
     0
  9
$LUNITS
 70
     2
  9
$LUPREC
 70
     6
  9
$SKETCHINC
 40
0.1
  9
$FILLETRAD
 40
0.0
  9
$AUNITS
 70
     0
  9
$AUPREC
 70
     2
  9
$MENU
  1
.
  9
$ELEVATION
 40
0.0
  9
$PELEVATION
 40
0.0
  9
$THICKNESS
 40
0.0
  9
$LIMCHECK
 70
     0
  9
$CHAMFERA
 40
0.0
  9
$CHAMFERB
 40
0.0
  9
$CHAMFERC
 40
0.0
  9
$CHAMFERD
 40
0.0
  9
$SKPOLY
 70
     0
  9
$TDCREATE
 40
2460538.130946516
  9
$TDUCREATE
 40
2460538.422613183
  9
$TDUPDATE
 40
2460538.130947384
  9
$TDUUPDATE
 40
2460538.422614051
  9
$TDINDWG
 40
0.0000000116
  9
$TDUSRTIMER
 40
0.0000000116
  9
$USRTIMER
 70
     1
  9
$ANGBASE
 50
0.0
  9
$ANGDIR
 70
     0
  9
$PDMODE
 70
     0
  9
$PDSIZE
 40
-1.0
  9
$PLINEWID
 40
0.0
  9
$SPLFRAME
 70
     0
  9
$SPLINETYPE
 70
     6
  9
$SPLINESEGS
 70
     8
  9
$HANDSEED
  5
352
  9
$SURFTAB1
 70
     6
  9
$SURFTAB2
 70
     6
  9
$SURFTYPE
 70
     6
  9
$SURFU
 70
     6
  9
$SURFV
 70
     6
  9
$UCSBASE
  2

  9
$UCSNAME
  2

  9
$UCSORG
 10
0.0
 20
0.0
 30
0.0
  9
$UCSXDIR
 10
1.0
 20
0.0
 30
0.0
  9
$UCSYDIR
 10
0.0
 20
1.0
 30
0.0
  9
$UCSORTHOREF
  2

  9
$UCSORTHOVIEW
 70
     0
  9
$UCSORGTOP
 10
0.0
 20
0.0
 30
0.0
  9
$UCSORGBOTTOM
 10
0.0
 20
0.0
 30
0.0
  9
$UCSORGLEFT
 10
0.0
 20
0.0
 30
0.0
  9
$UCSORGRIGHT
 10
0.0
 20
0.0
 30
0.0
  9
$UCSORGFRONT
 10
0.0
 20
0.0
 30
0.0
  9
$UCSORGBACK
 10
0.0
 20
0.0
 30
0.0
  9
$PUCSBASE
  2

  9
$PUCSNAME
  2

  9
$PUCSORG
 10
0.0
 20
0.0
 30
0.0
  9
$PUCSXDIR
 10
1.0
 20
0.0
 30
0.0
  9
$PUCSYDIR
 10
0.0
 20
1.0
 30
0.0
  9
$PUCSORTHOREF
  2

  9
$PUCSORTHOVIEW
 70
     0
  9
$PUCSORGTOP
 10
0.0
 20
0.0
 30
0.0
  9
$PUCSORGBOTTOM
 10
0.0
 20
0.0
 30
0.0
  9
$PUCSORGLEFT
 10
0.0
 20
0.0
 30
0.0
  9
$PUCSORGRIGHT
 10
0.0
 20
0.0
 30
0.0
  9
$PUCSORGFRONT
 10
0.0
 20
0.0
 30
0.0
  9
$PUCSORGBACK
 10
0.0
 20
0.0
 30
0.0
  9
$USERI1
 70
     0
  9
$USERI2
 70
     0
  9
$USERI3
 70
     0
  9
$USERI4
 70
     0
  9
$USERI5
 70
     0
  9
$USERR1
 40
0.0
  9
$USERR2
 40
0.0
  9
$USERR3
 40
0.0
  9
$USERR4
 40
0.0
  9
$USERR5
 40
0.0
  9
$WORLDVIEW
 70
     1
  9
$SHADEDGE
 70
     3
  9
$SHADEDIF
 70
    70
  9
$TILEMODE
 70
     1
  9
$MAXACTVP
 70
    64
  9
$PINSBASE
 10
0.0
 20
0.0
 30
0.0
  9
$PLIMCHECK
 70
     0
  9
$PEXTMIN
 10
1.0000000000E+20
 20
1.0000000000E+20
 30
1.0000000000E+20
  9
$PEXTMAX
 10
-1.0000000000E+20
 20
-1.0000000000E+20
 30
-1.0000000000E+20
  9
$PLIMMIN
 10
0.0
 20
0.0
  9
$PLIMMAX
 10
12.0
 20
9.0
  9
$UNITMODE
 70
     0
  9
$VISRETAIN
 70
     1
  9
$PLINEGEN
 70
     0
  9
$PSLTSCALE
 70
     1
  9
$TREEDEPTH
 70
  3020
  9
$CMLSTYLE
  2
Standard
  9
$CMLJUST
 70
     0
  9
$CMLSCALE
 40
1.0
  9
$PROXYGRAPHICS
 70
     1
  9
$MEASUREMENT
 70
     0
  9
$CELWEIGHT
370
    -1
  9
$ENDCAPS
280
     0
  9
$JOINSTYLE
280
     0
  9
$LWDISPLAY
290
     1
  9
$INSUNITS
 70
     1
  9
$HYPERLINKBASE
  1

  9
$STYLESHEET
  1

  9
$XEDIT
290
     1
  9
$CEPSNTYPE
380
     0
  9
$PSTYLEMODE
290
     1
  9
$FINGERPRINTGUID
  2
{5dc22b13-4dab-44e4-ac7a-6dee2b103825}
  9
$VERSIONGUID
  2
{FAEB1C32-E019-11D5-929B-00C0DF256EC4}
  9
$EXTNAMES
290
     1
  9
$PSVPSCALE
 40
0.0
  9
$OLESTARTUP
290
     0
  0
ENDSEC
  0
SECTION
  2
CLASSES
  0
CLASS
  1
ACDBDICTIONARYWDFLT
  2
AcDbDictionaryWithDefault
  3
ObjectDBX Classes
 90
        0
280
     0
281
     0
  0
CLASS
  1
VISUALSTYLE
  2
AcDbVisualStyle
  3
ObjectDBX Classes
 90
     4095
280
     0
281
     0
  0
CLASS
  1
MATERIAL
  2
AcDbMaterial
  3
ObjectDBX Classes
 90
     1153
280
     0
281
     0
  0
CLASS
  1
SCALE
  2
AcDbScale
  3
ObjectDBX Classes
 90
     1153
280
     0
281
     0
  0
CLASS
  1
TABLESTYLE
  2
AcDbTableStyle
  3
ObjectDBX Classes
 90
     4095
280
     0
281
     0
  0
CLASS
  1
MLEADERSTYLE
  2
AcDbMLeaderStyle
  3
ACDB_MLEADERSTYLE_CLASS
 90
     4095
280
     0
281
     0
  0
CLASS
  1
SUN
  2
AcDbSun
  3
SCENEOE
 90
     1153
280
     0
281
     0
  0
CLASS
  1
ACDBPLACEHOLDER
  2
AcDbPlaceHolder
  3
ObjectDBX Classes
 90
        0
280
     0
281
     0
  0
CLASS
  1
LAYOUT
  2
AcDbLayout
  3
ObjectDBX Classes
 90
        0
280
     0
281
     0
  0
ENDSEC
  0
SECTION
  2
TABLES
  0
TABLE
  2
VPORT
  5
8
330
0
100
AcDbSymbolTable
 70
     1
  0
VPORT
  5
29
330
8
100
AcDbSymbolTableRecord
100
AcDbViewportTableRecord
  2
*Active
 70
     0
 10
0.0
 20
0.0
 11
1.0
 21
1.0
 12
11.0
 22
8.5
 13
0.0
 23
0.0
 14
0.5
 24
0.5
 15
0.5
 25
0.5
 16
0.0
 26
0.0
 36
1.0
 17
0.0
 27
0.0
 37
0.0
 40
17.0
 41
1.2941176471
 42
50.0
 43
0.0
 44
0.0
 50
0.0
 51
0.0
 71
     0
 72
  2000
 73
     1
 74
     3
 75
     0
 76
     0
 77
     0
 78
     0
281
     0
 65
     1
110
0.0
120
0.0
130
0.0
111
1.0
121
0.0
131
0.0
112
0.0
122
1.0
132
0.0
 79
     0
146
0.0
  0
ENDTAB
  0
TABLE
  2
LTYPE
  5
5
330
0
100
AcDbSymbolTable
 70
     6
  0
LTYPE
  5
14
330
5
100
AcDbSymbolTableRecord
100
AcDbLinetypeTableRecord
  2
ByBlock
 70
     0
  3

 72
    65
 73
     0
 40
0.0
  0
LTYPE
  5
15
330
5
100
AcDbSymbolTableRecord
100
AcDbLinetypeTableRecord
  2
ByLayer
 70
     0
  3

 72
    65
 73
     0
 40
0.0
  0
LTYPE
  5
16
330
5
100
AcDbSymbolTableRecord
100
AcDbLinetypeTableRecord
  2
Continuous
 70
     0
  3
Solid line
 72
    65
 73
     0
 40
0.0
  0
LTYPE
  5
5E
330
5
100
AcDbSymbolTableRecord
100
AcDbLinetypeTableRecord
  2
HIDDEN
 70
     0
  3
Hidden __ __ __ __ __ __ __ __ __ __ __ __ __ __
 72
    65
 73
     2
 40
0.075
 49
0.05
 74
     0
 49
-0.025
 74
     0
  0
LTYPE
  5
5F
330
5
100
AcDbSymbolTableRecord
100
AcDbLinetypeTableRecord
  2
PHANTOM
 70
     0
  3
Phantom ______  __  __  ______  __  __  ______
 72
    65
 73
     6
 40
0.5
 49
0.25
 74
     0
 49
-0.05
 74
     0
 49
0.05
 74
     0
 49
-0.05
 74
     0
 49
0.05
 74
     0
 49
-0.05
 74
     0
  0
LTYPE
  5
60
330
5
100
AcDbSymbolTableRecord
100
AcDbLinetypeTableRecord
  2
CENTER
 70
     0
  3
Center ____ _ ____ _ ____ _ ____ _ ____ _ ____
 72
    65
 73
     4
 40
0.4
 49
0.25
 74
     0
 49
-0.05
 74
     0
 49
0.05
 74
     0
 49
-0.05
 74
     0
  0
LTYPE
  5
61
330
5
100
AcDbSymbolTableRecord
100
AcDbLinetypeTableRecord
  2
CENTERX2
 70
     0
  3
Center (2x) ________  __  ________  __  _____
 72
    65
 73
     4
 40
0.8
 49
0.5
 74
     0
 49
-0.1
 74
     0
 49
0.1
 74
     0
 49
-0.1
 74
     0
  0
LTYPE
  5
62
330
5
100
AcDbSymbolTableRecord
100
AcDbLinetypeTableRecord
  2
DOT2
 70
     0
  3
Dot (.5x) ........................................
 72
    65
 73
     2
 40
0.025
 49
0.0
 74
     0
 49
-0.025
 74
     0
  0
ENDTAB
  0
TABLE
  2
LAYER
  5
2
330
0
100
AcDbSymbolTable
 70
    12
  0
LAYER
  5
10
330
2
100
AcDbSymbolTableRecord
100
AcDbLayerTableRecord
  2
0
 70
     0
 62
     7
  6
Continuous
370
    -3
390
F
  0
LAYER
  5
63
330
2
100
AcDbSymbolTableRecord
100
AcDbLayerTableRecord
  2
SLD-0
 70
     0
 62
     7
  6
Continuous
370
    -3
390
F
  0
LAYER
  5
64
330
2
100
AcDbSymbolTableRecord
100
AcDbLayerTableRecord
  2
DIM
 70
     0
 62
     7
  6
Continuous
370
    -3
390
F
  0
LAYER
  5
65
330
2
100
AcDbSymbolTableRecord
100
AcDbLayerTableRecord
  2
CEN
 70
     0
 62
     1
  6
CENTER
370
    -3
390
F
  0
LAYER
  5
66
330
2
100
AcDbSymbolTableRecord
100
AcDbLayerTableRecord
  2
HAT
 70
     0
 62
     4
  6
Continuous
370
    -3
390
F
  0
LAYER
  5
67
330
2
100
AcDbSymbolTableRecord
100
AcDbLayerTableRecord
  2
OBJ
 70
     0
 62
     5
  6
Continuous
370
    -3
390
F
  0
LAYER
  5
68
330
2
100
AcDbSymbolTableRecord
100
AcDbLayerTableRecord
  2
SLD-DEFPOINTS
 70
     0
 62
     7
  6
Continuous
370
    -3
390
F
  0
LAYER
  5
69
330
2
100
AcDbSymbolTableRecord
100
AcDbLayerTableRecord
  2
HID
 70
     0
 62
     4
  6
HIDDEN
370
    -3
390
F
  0
LAYER
  5
6A
330
2
100
AcDbSymbolTableRecord
100
AcDbLayerTableRecord
  2
NOTE
 70
     0
 62
     7
  6
Continuous
370
    -3
390
F
  0
LAYER
  5
6B
330
2
100
AcDbSymbolTableRecord
100
AcDbLayerTableRecord
  2
VP
 70
     0
 62
    -5
  6
Continuous
290
     0
370
    -3
390
F
  0
LAYER
  5
6C
330
2
100
AcDbSymbolTableRecord
100
AcDbLayerTableRecord
  2
TITLE
 70
     0
 62
     7
  6
Continuous
370
    -3
390
F
  0
LAYER
  5
6D
330
2
100
AcDbSymbolTableRecord
100
AcDbLayerTableRecord
  2
THICK_TITLE
 70
     0
 62
     7
  6
Continuous
370
   100
390
F
  0
ENDTAB
  0
TABLE
  2
STYLE
  5
3
330
0
100
AcDbSymbolTable
 70
     2
  0
STYLE
  5
11
330
3
100
AcDbSymbolTableRecord
100
AcDbTextStyleTableRecord
  2
Standard
 70
     0
 40
0.0
 41
1.0
 50
0.0
 71
     0
 42
0.25
  3
txt
  4

  0
STYLE
  5
B2
330
3
100
AcDbSymbolTableRecord
100
AcDbTextStyleTableRecord
  2
SLDTEXTSTYLE0
 70
     0
 40
0.0
 41
0.75
 50
0.0
 71
     0
 42
0.25
  3
TXT
  4

  0
ENDTAB
  0
TABLE
  2
VIEW
  5
6
330
0
100
AcDbSymbolTable
 70
     0
  0
ENDTAB
  0
TABLE
  2
UCS
  5
7
330
0
100
AcDbSymbolTable
 70
     0
  0
ENDTAB
  0
TABLE
  2
APPID
  5
9
330
0
100
AcDbSymbolTable
 70
     1
  0
APPID
  5
12
330
9
100
AcDbSymbolTableRecord
100
AcDbRegAppTableRecord
  2
ACAD
 70
     0
  0
ENDTAB
  0
TABLE
  2
DIMSTYLE
  5
A
330
0
100
AcDbSymbolTable
 70
     6
100
AcDbDimStyleTable
  0
DIMSTYLE
105
27
330
A
100
AcDbSymbolTableRecord
100
AcDbDimStyleTableRecord
  2
Standard
 70
     0
178
     0
340
11
  0
DIMSTYLE
105
B3
102
{ACAD_REACTORS
330
B1
102
}
330
A
100
AcDbSymbolTableRecord
100
AcDbDimStyleTableRecord
  2
SLDDIMSTYLE0
 70
     0
 41
0.26
 44
0.0
 45
0.000000001
 78
    12
 79
     3
140
0.25
147
0.0625
148
0.000000001
170
     1
172
     1
173
     1
178
     0
271
     6
272
     0
276
     2
277
     5
284
    12
289
     0
340
B2
  0
DIMSTYLE
105
C8
102
{ACAD_REACTORS
330
C7
330
17E
330
192
102
}
330
A
100
AcDbSymbolTableRecord
100
AcDbDimStyleTableRecord
  2
SLDDIMSTYLE1
 70
     0
 41
0.26
 44
0.0
 45
0.000000001
 78
    12
 79
     3
140
0.25
147
0.0625
148
0.000000001
170
     1
173
     1
178
     0
271
     0
272
     0
276
     2
277
     5
284
    12
340
B2
  0
DIMSTYLE
105
DD
102
{ACAD_REACTORS
330
DC
330
16B
330
328
330
33C
102
}
330
A
100
AcDbSymbolTableRecord
100
AcDbDimStyleTableRecord
  2
SLDDIMSTYLE2
 70
     0
 41
0.26
 44
0.0
 45
0.000000001
 78
    12
 79
     3
140
0.25
147
0.0625
148
0.000000001
170
     1
173
     1
178
     0
271
     6
272
     0
276
     2
277
     5
284
    12
340
B2
  0
DIMSTYLE
105
F2
102
{ACAD_REACTORS
330
F1
102
}
330
A
100
AcDbSymbolTableRecord
100
AcDbDimStyleTableRecord
  2
SLDDIMSTYLE3
 70
     0
 41
0.26
 44
0.0
 78
    12
 79
     3
140
0.25
144
2.0
147
0.0625
148
0.000000001
170
     1
173
     1
178
     0
179
     2
272
     2
276
     2
277
     5
284
    12
340
B2
  0
DIMSTYLE
105
101
330
A
100
AcDbSymbolTableRecord
100
AcDbDimStyleTableRecord
  2
SLDDIMSTYLE4
 70
     0
 41
0.26
 44
0.0
 45
0.000000001
146
0.26
147
0.0
173
     1
178
     0
271
     0
272
     0
276
     2
277
     5
340
11
  0
ENDTAB
  0
TABLE
  2
BLOCK_RECORD
  5
1
330
0
100
AcDbSymbolTable
 70
    10
  0
BLOCK_RECORD
  5
1F
330
1
100
AcDbSymbolTableRecord
100
AcDbBlockTableRecord
  2
*Model_Space
340
22
  0
BLOCK_RECORD
  5
1B
330
1
100
AcDbSymbolTableRecord
100
AcDbBlockTableRecord
  2
*Paper_Space
340
1E
  0
BLOCK_RECORD
  5
23
330
1
100
AcDbSymbolTableRecord
100
AcDbBlockTableRecord
  2
*Paper_Space0
340
26
  0
BLOCK_RECORD
  5
B4
330
1
100
AcDbSymbolTableRecord
100
AcDbBlockTableRecord
  2
_D
340
0
  0
BLOCK_RECORD
  5
C9
330
1
100
AcDbSymbolTableRecord
100
AcDbBlockTableRecord
  2
_D_1
340
0
  0
BLOCK_RECORD
  5
DE
330
1
100
AcDbSymbolTableRecord
100
AcDbBlockTableRecord
  2
_D_2
340
0
  0
BLOCK_RECORD
  5
F3
330
1
100
AcDbSymbolTableRecord
100
AcDbBlockTableRecord
  2
_D_3
340
0
  0
BLOCK_RECORD
  5
16C
330
1
100
AcDbSymbolTableRecord
100
AcDbBlockTableRecord
  2
_D_4
340
0
  0
BLOCK_RECORD
  5
17F
330
1
100
AcDbSymbolTableRecord
100
AcDbBlockTableRecord
  2
_D_5
340
0
  0
BLOCK_RECORD
  5
193
330
1
100
AcDbSymbolTableRecord
100
AcDbBlockTableRecord
  2
_D_6
340
0
  0
BLOCK_RECORD
  5
329
330
1
100
AcDbSymbolTableRecord
100
AcDbBlockTableRecord
  2
_D_7
340
0
  0
BLOCK_RECORD
  5
33D
330
1
100
AcDbSymbolTableRecord
100
AcDbBlockTableRecord
  2
_D_8
340
0
  0
ENDTAB
  0
ENDSEC
  0
SECTION
  2
BLOCKS
  0
BLOCK
  5
20
330
1F
100
AcDbEntity
  8
0
100
AcDbBlockBegin
  2
*Model_Space
 70
     0
 10
0.0
 20
0.0
 30
0.0
  3
*Model_Space
  1

  0
ENDBLK
  5
21
330
1F
100
AcDbEntity
  8
0
100
AcDbBlockEnd
  0
BLOCK
  5
1C
330
1B
100
AcDbEntity
 67
     1
  8
0
100
AcDbBlockBegin
  2
*Paper_Space
 70
     0
 10
0.0
 20
0.0
 30
0.0
  3
*Paper_Space
  1

  0
ENDBLK
  5
1D
330
1B
100
AcDbEntity
 67
     1
  8
0
100
AcDbBlockEnd
  0
BLOCK
  5
24
330
23
100
AcDbEntity
  8
0
100
AcDbBlockBegin
  2
*Paper_Space0
 70
     0
 10
0.0
 20
0.0
 30
0.0
  3
*Paper_Space0
  1

  0
ENDBLK
  5
25
330
23
100
AcDbEntity
  8
0
100
AcDbBlockEnd
  0
BLOCK
  5
B5
330
B4
100
AcDbEntity
  8
0
100
AcDbBlockBegin
  2
_D
 70
     0
 10
0.0
 20
0.0
 30
0.0
  3
_D
  1

  0
SOLID
  5
B7
330
B4
100
AcDbEntity
  8
0
  6
Continuous
 62
     7
370
    18
100
AcDbTrace
 10
6.4833136333
 20
8.0959245072
 30
0.0
 11
6.2233136333
 21
8.1359245072
 31
0.0
 12
6.2233136333
 22
8.0559245072
 32
0.0
 13
6.2233136333
 23
8.0559245072
 33
0.0
  0
SOLID
  5
B8
330
B4
100
AcDbEntity
  8
0
  6
Continuous
 62
     7
370
    18
100
AcDbTrace
 10
6.8633136333
 20
8.0959245072
 30
0.0
 11
7.1233136333
 21
8.0559245072
 31
0.0
 12
7.1233136333
 22
8.1359245072
 32
0.0
 13
7.1233136333
 23
8.1359245072
 33
0.0
  0
LINE
  5
B9
330
B4
100
AcDbEntity
  8
0
  6
Continuous
 62
     7
370
     0
100
AcDbLine
 10
7.6080184931
 20
8.094014746
 30
0.0
 11
7.5318466189
 21
8.094014746
 31
0.0
  0
LINE
  5
BA
330
B4
100
AcDbEntity
  8
0
  6
Continuous
 62
     7
370
     0
100
AcDbLine
 10
7.5318466189
 20
8.094014746
 30
0.0
 11
7.5318466189
 21
7.697139734
 31
0.0
  0
LINE
  5
BB
330
B4
100
AcDbEntity
  8
0
  6
Continuous
 62
     7
370
     0
100
AcDbLine
 10
7.5318466189
 20
7.697139734
 30
0.0
 11
7.6080184931
 21
7.697139734
 31
0.0
  0
LINE
  5
BC
330
B4
100
AcDbEntity
  8
0
  6
Continuous
 62
     7
370
     0
100
AcDbLine
 10
8.6024629585
 20
8.094014746
 30
0.0
 11
8.6786348327
 21
8.094014746
 31
0.0
  0
LINE
  5
BD
330
B4
100
AcDbEntity
  8
0
  6
Continuous
 62
     7
370
     0
100
AcDbLine
 10
8.6786348327
 20
8.094014746
 30
0.0
 11
8.6786348327
 21
7.697139734
 31
0.0
  0
LINE
  5
BE
330
B4
100
AcDbEntity
  8
0
  6
Continuous
 62
     7
370
     0
100
AcDbLine
 10
8.6786348327
 20
7.697139734
 30
0.0
 11
8.6024629585
 21
7.697139734
 31
0.0
  0
LINE
  5
BF
330
B4
100
AcDbEntity
  8
0
  6
Continuous
 62
     7
370
     0
100
AcDbLine
 10
6.4833136333
 20
7.4085229324
 30
0.0
 11
6.4833136333
 21
8.3459245072
 31
0.0
  0
LINE
  5
C0
330
B4
100
AcDbEntity
  8
0
  6
Continuous
 62
     7
370
     0
100
AcDbLine
 10
6.8633136333
 20
7.4085229324
 30
0.0
 11
6.8633136333
 21
8.3459245072
 31
0.0
  0
LINE
  5
C1
330
B4
100
AcDbEntity
  8
0
  6
Continuous
 62
     7
370
     0
100
AcDbLine
 10
6.4833136333
 20
8.0959245072
 30
0.0
 11
5.9833136333
 21
8.0959245072
 31
0.0
  0
LINE
  5
C2
330
B4
100
AcDbEntity
  8
0
  6
Continuous
 62
     7
370
     0
100
AcDbLine
 10
6.8633136333
 20
8.0959245072
 30
0.0
 11
7.3126069011
 21
8.0959245072
 31
0.0
  0
MTEXT
  5
C3
330
B4
100
AcDbEntity
  8
0
  6
Continuous
 62
     7
370
    18
100
AcDbMText
 10
7.4570636333
 20
8.470882401
 30
0.0
 40
0.25
 41
0.0
 71
     1
 72
     1
  1

  7
SLDTEXTSTYLE0
 73
     1
 44
1.0
  0
MTEXT
  5
C4
330
B4
100
AcDbEntity
  8
0
  6
Continuous
 62
     7
370
    18
100
AcDbMText
 10
7.7960393027
 20
8.467062938
 30
0.0
 40
0.25
 41
0.0
 71
     1
 72
     1
  1
3/8"
  7
SLDTEXTSTYLE0
 73
     1
 44
1.0
  0
MTEXT
  5
C5
330
B4
100
AcDbEntity
  8
0
  6
Continuous
 62
     7
370
    18
100
AcDbMText
 10
7.6080184931
 20
8.0194066965
 30
0.0
 40
0.25
 41
0.0
 71
     1
 72
     1
  1
10mm
  7
SLDTEXTSTYLE0
 73
     1
 44
1.0
  0
MTEXT
  5
C6
330
B4
100
AcDbEntity
  8
0
  6
Continuous
 62
     7
370
    18
100
AcDbMText
 10
8.8485566519
 20
8.470882401
 30
0.0
 40
0.25
 41
0.0
 71
     1
 72
     1
  1

  7
SLDTEXTSTYLE0
 73
     1
 44
1.0
  0
ENDBLK
  5
B6
330
B4
100
AcDbEntity
  8
0
100
AcDbBlockEnd
  0
BLOCK
  5
CA
330
C9
100
AcDbEntity
  8
0
100
AcDbBlockBegin
  2
_D_1
 70
     0
 10
0.0
 20
0.0
 30
0.0
  3
_D_1
  1

  0
SOLID
  5
CC
330
C9
100
AcDbEntity
  8
0
  6
Continuous
 62
     7
370
    18
100
AcDbTrace
 10
6.4833136333
 20
8.0959245072
 30
0.0
 11
6.2233136333
 21
8.1359245072
 31
0.0
 12
6.2233136333
 22
8.0559245072
 32
0.0
 13
6.2233136333
 23
8.0559245072
 33
0.0
  0
SOLID
  5
CD
330
C9
100
AcDbEntity
  8
0
  6
Continuous
 62
     7
370
    18
100
AcDbTrace
 10
3.4595636333
 20
8.0959245072
 30
0.0
 11
3.7195636333
 21
8.0559245072
 31
0.0
 12
3.7195636333
 22
8.1359245072
 32
0.0
 13
3.7195636333
 23
8.1359245072
 33
0.0
  0
LINE
  5
CE
330
C9
100
AcDbEntity
  8
0
  6
Continuous
 62
     7
370
     0
100
AcDbLine
 10
4.4742164372
 20
8.094014746
 30
0.0
 11
4.398044563
 21
8.094014746
 31
0.0
  0
LINE
  5
CF
330
C9
100
AcDbEntity
  8
0
  6
Continuous
 62
     7
370
     0
100
AcDbLine
 10
4.398044563
 20
8.094014746
 30
0.0
 11
4.398044563
 21
7.697139734
 31
0.0
  0
LINE
  5
D0
330
C9
100
AcDbEntity
  8
0
  6
Continuous
 62
     7
370
     0
100
AcDbLine
 10
4.398044563
 20
7.697139734
 30
0.0
 11
4.4742164372
 21
7.697139734
 31
0.0
  0
LINE
  5
D1
330
C9
100
AcDbEntity
  8
0
  6
Continuous
 62
     7
370
     0
100
AcDbLine
 10
5.4686609026
 20
8.094014746
 30
0.0
 11
5.5448327769
 21
8.094014746
 31
0.0
  0
LINE
  5
D2
330
C9
100
AcDbEntity
  8
0
  6
Continuous
 62
     7
370
     0
100
AcDbLine
 10
5.5448327769
 20
8.094014746
 30
0.0
 11
5.5448327769
 21
7.697139734
 31
0.0
  0
LINE
  5
D3
330
C9
100
AcDbEntity
  8
0
  6
Continuous
 62
     7
370
     0
100
AcDbLine
 10
5.5448327769
 20
7.697139734
 30
0.0
 11
5.4686609026
 21
7.697139734
 31
0.0
  0
LINE
  5
D4
330
C9
100
AcDbEntity
  8
0
  6
Continuous
 62
     7
370
     0
100
AcDbLine
 10
6.4833136333
 20
7.4085229324
 30
0.0
 11
6.4833136333
 21
8.3459245072
 31
0.0
  0
LINE
  5
D5
330
C9
100
AcDbEntity
  8
0
  6
Continuous
 62
     7
370
     0
100
AcDbLine
 10
3.4595636333
 20
6.2636813935
 30
0.0
 11
3.4595636333
 21
8.3459245072
 31
0.0
  0
LINE
  5
D6
330
C9
100
AcDbEntity
  8
0
  6
Continuous
 62
     7
370
     0
100
AcDbLine
 10
6.4833136333
 20
8.0959245072
 30
0.0
 11
5.7640724212
 21
8.0959245072
 31
0.0
  0
LINE
  5
D7
330
C9
100
AcDbEntity
  8
0
  6
Continuous
 62
     7
370
     0
100
AcDbLine
 10
3.4595636333
 20
8.0959245072
 30
0.0
 11
4.1788048453
 21
8.0959245072
 31
0.0
  0
MTEXT
  5
D8
330
C9
100
AcDbEntity
  8
0
  6
Continuous
 62
     7
370
    18
100
AcDbMText
 10
4.3232615774
 20
8.470882401
 30
0.0
 40
0.25
 41
0.0
 71
     1
 72
     1
  1

  7
SLDTEXTSTYLE0
 73
     1
 44
1.0
  0
MTEXT
  5
D9
330
C9
100
AcDbEntity
  8
0
  6
Continuous
 62
     7
370
    18
100
AcDbMText
 10
4.82751504
 20
8.467062938
 30
0.0
 40
0.25
 41
0.0
 71
     1
 72
     1
  1
3"
  7
SLDTEXTSTYLE0
 73
     1
 44
1.0
  0
MTEXT
  5
DA
330
C9
100
AcDbEntity
  8
0
  6
Continuous
 62
     7
370
    18
100
AcDbMText
 10
4.4742164372
 20
8.0194066965
 30
0.0
 40
0.25
 41
0.0
 71
     1
 72
     1
  1
77mm
  7
SLDTEXTSTYLE0
 73
     1
 44
1.0
  0
MTEXT
  5
DB
330
C9
100
AcDbEntity
  8
0
  6
Continuous
 62
     7
370
    18
100
AcDbMText
 10
5.7147545961
 20
8.470882401
 30
0.0
 40
0.25
 41
0.0
 71
     1
 72
     1
  1

  7
SLDTEXTSTYLE0
 73
     1
 44
1.0
  0
ENDBLK
  5
CB
330
C9
100
AcDbEntity
  8
0
100
AcDbBlockEnd
  0
BLOCK
  5
DF
330
DE
100
AcDbEntity
  8
0
100
AcDbBlockBegin
  2
_D_2
 70
     0
 10
0.0
 20
0.0
 30
0.0
  3
_D_2
  1

  0
SOLID
  5
E1
330
DE
100
AcDbEntity
  8
0
  6
Continuous
 62
     7
370
    18
100
AcDbTrace
 10
2.2339653101
 20
6.1636813935
 30
0.0
 11
2.1939653101
 21
5.9036813935
 31
0.0
 12
2.2739653101
 22
5.9036813935
 32
0.0
 13
2.2739653101
 23
5.9036813935
 33
0.0
  0
SOLID
  5
E2
330
DE
100
AcDbEntity
  8
0
  6
Continuous
 62
     7
370
    18
100
AcDbTrace
 10
2.2339653101
 20
3.4533644714
 30
0.0
 11
2.2739653101
 21
3.7133644714
 31
0.0
 12
2.1939653101
 22
3.7133644714
 32
0.0
 13
2.1939653101
 23
3.7133644714
 33
0.0
  0
LINE
  5
E3
330
DE
100
AcDbEntity
  8
0
  6
Continuous
 62
     7
370
     0
100
AcDbLine
 10
1.736743114
 20
4.8066131712
 30
0.0
 11
1.6605712398
 21
4.8066131712
 31
0.0
  0
LINE
  5
E4
330
DE
100
AcDbEntity
  8
0
  6
Continuous
 62
     7
370
     0
100
AcDbLine
 10
1.6605712398
 20
4.8066131712
 30
0.0
 11
1.6605712398
 21
4.4097381592
 31
0.0
  0
LINE
  5
E5
330
DE
100
AcDbEntity
  8
0
  6
Continuous
 62
     7
370
     0
100
AcDbLine
 10
1.6605712398
 20
4.4097381592
 30
0.0
 11
1.736743114
 21
4.4097381592
 31
0.0
  0
LINE
  5
E6
330
DE
100
AcDbEntity
  8
0
  6
Continuous
 62
     7
370
     0
100
AcDbLine
 10
2.7311875795
 20
4.8066131712
 30
0.0
 11
2.8073594537
 21
4.8066131712
 31
0.0
  0
LINE
  5
E7
330
DE
100
AcDbEntity
  8
0
  6
Continuous
 62
     7
370
     0
100
AcDbLine
 10
2.8073594537
 20
4.8066131712
 30
0.0
 11
2.8073594537
 21
4.4097381592
 31
0.0
  0
LINE
  5
E8
330
DE
100
AcDbEntity
  8
0
  6
Continuous
 62
     7
370
     0
100
AcDbLine
 10
2.8073594537
 20
4.4097381592
 30
0.0
 11
2.7311875795
 21
4.4097381592
 31
0.0
  0
LINE
  5
E9
330
DE
100
AcDbEntity
  8
0
  6
Continuous
 62
     7
370
     0
100
AcDbLine
 10
3.3595636333
 20
6.1636813935
 30
0.0
 11
1.9839653101
 21
6.1636813935
 31
0.0
  0
LINE
  5
EA
330
DE
100
AcDbEntity
  8
0
  6
Continuous
 62
     7
370
     0
100
AcDbLine
 10
3.3595636333
 20
3.4533644714
 30
0.0
 11
1.9839653101
 21
3.4533644714
 31
0.0
  0
LINE
  5
EB
330
DE
100
AcDbEntity
  8
0
  6
Continuous
 62
     7
370
     0
100
AcDbLine
 10
2.2339653101
 20
6.1636813935
 30
0.0
 11
2.2339653101
 21
5.2580888757
 31
0.0
  0
LINE
  5
EC
330
DE
100
AcDbEntity
  8
0
  6
Continuous
 62
     7
370
     0
100
AcDbLine
 10
2.2339653101
 20
3.4533644714
 30
0.0
 11
2.2339653101
 21
4.3589569892
 31
0.0
  0
MTEXT
  5
ED
330
DE
100
AcDbEntity
  8
0
  6
Continuous
 62
     7
370
    18
100
AcDbMText
 10
1.5857882542
 20
5.1834808262
 30
0.0
 40
0.25
 41
0.0
 71
     1
 72
     1
  1

  7
SLDTEXTSTYLE0
 73
     1
 44
1.0
  0
MTEXT
  5
EE
330
DE
100
AcDbEntity
  8
0
  6
Continuous
 62
     7
370
    18
100
AcDbMText
 10
1.6015000614
 20
5.1796613632
 30
0.0
 40
0.25
 41
0.0
 71
     1
 72
     1
  1
2 11/16"
  7
SLDTEXTSTYLE0
 73
     1
 44
1.0
  0
MTEXT
  5
EF
330
DE
100
AcDbEntity
  8
0
  6
Continuous
 62
     7
370
    18
100
AcDbMText
 10
1.736743114
 20
4.7320051217
 30
0.0
 40
0.25
 41
0.0
 71
     1
 72
     1
  1
69mm
  7
SLDTEXTSTYLE0
 73
     1
 44
1.0
  0
MTEXT
  5
F0
330
DE
100
AcDbEntity
  8
0
  6
Continuous
 62
     7
370
    18
100
AcDbMText
 10
2.9772812729
 20
5.1834808262
 30
0.0
 40
0.25
 41
0.0
 71
     1
 72
     1
  1

  7
SLDTEXTSTYLE0
 73
     1
 44
1.0
  0
ENDBLK
  5
E0
330
DE
100
AcDbEntity
  8
0
100
AcDbBlockEnd
  0
BLOCK
  5
F4
330
F3
100
AcDbEntity
  8
0
100
AcDbBlockBegin
  2
_D_3
 70
     0
 10
0.0
 20
0.0
 30
0.0
  3
_D_3
  1

  0
ARC
  5
F6
330
F3
100
AcDbEntity
  8
0
  6
Continuous
 62
     7
370
    18
100
AcDbCircle
 10
6.6757325308
 20
4.9090229324
 30
0.0
 40
2.297256253411719
100
AcDbArc
 50
317.592456716
 51
330.0
  0
ARC
  5
F7
330
F3
100
AcDbEntity
  8
0
  6
Continuous
 62
     7
370
    18
100
AcDbCircle
 10
6.6757325308
 20
4.9090229324
 30
0.0
 40
2.297256253411718
100
AcDbArc
 50
0.0
 51
12.407543284
  0
SOLID
  5
F8
330
F3
100
AcDbEntity
  8
0
  6
Continuous
 62
     7
370
    18
100
AcDbTrace
 10
8.6652148053
 20
3.7603948057
 30
0.0
 11
8.4892801985
 21
3.5648263672
 31
0.0
 12
8.5561994797
 22
3.5209879161
 32
0.0
 13
8.5561994797
 23
3.5209879161
 33
0.0
  0
SOLID
  5
F9
330
F3
100
AcDbEntity
  8
0
  6
Continuous
 62
     7
370
    18
100
AcDbTrace
 10
8.9729887842
 20
4.9090229324
 30
0.0
 11
8.9982821877
 21
5.1708630435
 31
0.0
 12
8.9184091646
 22
5.1663574718
 32
0.0
 13
8.9184091646
 23
5.1663574718
 33
0.0
  0
LINE
  5
FA
330
F3
100
AcDbEntity
  8
0
  6
Continuous
 62
     7
370
     0
100
AcDbLine
 10
6.9499161736
 20
4.7507229324
 30
0.0
 11
8.8817211562
 21
3.6353948057
 31
0.0
  0
LINE
  5
FB
330
F3
100
AcDbEntity
  8
0
  6
Continuous
 62
     7
370
     0
100
AcDbLine
 10
6.9566357488
 20
4.9090229324
 30
0.0
 11
9.2229887842
 21
4.9090229324
 31
0.0
  0
MTEXT
  5
FC
330
F3
100
AcDbEntity
  8
0
  6
Continuous
 62
     7
370
    18
100
AcDbMText
 10
7.9586006363
 20
4.636716225
 30
0.0
 40
0.25
 41
0.0
 71
     1
 72
     1
  1
30°
  7
SLDTEXTSTYLE0
 73
     1
 44
1.0
  0
MTEXT
  5
FD
330
F3
100
AcDbEntity
  8
0
  6
Continuous
 62
     7
370
    18
100
AcDbMText
 10
8.5551284281
 20
4.636716225
 30
0.0
 40
0.25
 41
0.0
 71
     1
 72
     1
  1
LOUVER
  7
SLDTEXTSTYLE0
 73
     1
 44
1.0
  0
MTEXT
  5
FE
330
F3
100
AcDbEntity
  8
0
  6
Continuous
 62
     7
370
    18
100
AcDbMText
 10
8.3365519801
 20
4.2398412131
 30
0.0
 40
0.25
 41
0.0
 71
     1
 72
     1
  1
ANGLE
  7
SLDTEXTSTYLE0
 73
     1
 44
1.0
  0
ENDBLK
  5
F5
330
F3
100
AcDbEntity
  8
0
100
AcDbBlockEnd
  0
BLOCK
  5
16D
330
16C
100
AcDbEntity
  8
0
100
AcDbBlockBegin
  2
_D_4
 70
     0
 10
0.0
 20
0.0
 30
0.0
  3
_D_4
  1

  0
SOLID
  5
16F
330
16C
100
AcDbEntity
  8
0
  6
Continuous
 62
     7
370
    18
100
AcDbTrace
 10
13.9665461274
 20
8.0959245072
 30
0.0
 11
14.2265461274
 21
8.0559245072
 31
0.0
 12
14.2265461274
 22
8.1359245072
 32
0.0
 13
14.2265461274
 23
8.1359245072
 33
0.0
  0
SOLID
  5
170
330
16C
100
AcDbEntity
  8
0
  6
Continuous
 62
     7
370
    18
100
AcDbTrace
 10
17.2795461274
 20
8.0959245072
 30
0.0
 11
17.0195461274
 21
8.1359245072
 31
0.0
 12
17.0195461274
 22
8.0559245072
 32
0.0
 13
17.0195461274
 23
8.0559245072
 33
0.0
  0
LINE
  5
171
330
16C
100
AcDbEntity
  8
0
  6
Continuous
 62
     7
370
     0
100
AcDbLine
 10
14.7070739305
 20
8.094014746
 30
0.0
 11
14.6309020562
 21
8.094014746
 31
0.0
  0
LINE
  5
172
330
16C
100
AcDbEntity
  8
0
  6
Continuous
 62
     7
370
     0
100
AcDbLine
 10
14.6309020562
 20
8.094014746
 30
0.0
 11
14.6309020562
 21
7.697139734
 31
0.0
  0
LINE
  5
173
330
16C
100
AcDbEntity
  8
0
  6
Continuous
 62
     7
370
     0
100
AcDbLine
 10
14.6309020562
 20
7.697139734
 30
0.0
 11
14.7070739305
 21
7.697139734
 31
0.0
  0
LINE
  5
174
330
16C
100
AcDbEntity
  8
0
  6
Continuous
 62
     7
370
     0
100
AcDbLine
 10
15.7015183959
 20
8.094014746
 30
0.0
 11
15.7776902701
 21
8.094014746
 31
0.0
  0
LINE
  5
175
330
16C
100
AcDbEntity
  8
0
  6
Continuous
 62
     7
370
     0
100
AcDbLine
 10
15.7776902701
 20
8.094014746
 30
0.0
 11
15.7776902701
 21
7.697139734
 31
0.0
  0
LINE
  5
176
330
16C
100
AcDbEntity
  8
0
  6
Continuous
 62
     7
370
     0
100
AcDbLine
 10
15.7776902701
 20
7.697139734
 30
0.0
 11
15.7015183959
 21
7.697139734
 31
0.0
  0
LINE
  5
177
330
16C
100
AcDbEntity
  8
0
  6
Continuous
 62
     7
370
     0
100
AcDbLine
 10
13.9665461274
 20
4.9085229324
 30
0.0
 11
13.9665461274
 21
8.3459245072
 31
0.0
  0
LINE
  5
178
330
16C
100
AcDbEntity
  8
0
  6
Continuous
 62
     7
370
     0
100
AcDbLine
 10
17.2795461274
 20
4.9085229324
 30
0.0
 11
17.2795461274
 21
8.3459245072
 31
0.0
  0
LINE
  5
179
330
16C
100
AcDbEntity
  8
0
  6
Continuous
 62
     7
370
     0
100
AcDbLine
 10
13.9665461274
 20
8.0959245072
 30
0.0
 11
14.5040234499
 21
8.0959245072
 31
0.0
  0
LINE
  5
17A
330
16C
100
AcDbEntity
  8
0
  6
Continuous
 62
     7
370
     0
100
AcDbLine
 10
17.2795461274
 20
8.0959245072
 30
0.0
 11
16.7420688049
 21
8.0959245072
 31
0.0
  0
MTEXT
  5
17B
330
16C
100
AcDbEntity
  8
0
  6
Continuous
 62
     7
370
    18
100
AcDbMText
 10
14.6641919708
 20
8.467062938
 30
0.0
 40
0.25
 41
0.0
 71
     1
 72
     1
  1
3 5/16"
  7
SLDTEXTSTYLE0
 73
     1
 44
1.0
  0
MTEXT
  5
17C
330
16C
100
AcDbEntity
  8
0
  6
Continuous
 62
     7
370
    18
100
AcDbMText
 10
14.7070739305
 20
8.0194066965
 30
0.0
 40
0.25
 41
0.0
 71
     1
 72
     1
  1
84mm
  7
SLDTEXTSTYLE0
 73
     1
 44
1.0
  0
MTEXT
  5
17D
330
16C
100
AcDbEntity
  8
0
  6
Continuous
 62
     7
370
    18
100
AcDbMText
 10
15.9476121077
 20
8.470882401
 30
0.0
 40
0.25
 41
0.0
 71
     1
 72
     1
  1
O.C.
  7
SLDTEXTSTYLE0
 73
     1
 44
1.0
  0
ENDBLK
  5
16E
330
16C
100
AcDbEntity
  8
0
100
AcDbBlockEnd
  0
BLOCK
  5
180
330
17F
100
AcDbEntity
  8
0
100
AcDbBlockBegin
  2
_D_5
 70
     0
 10
0.0
 20
0.0
 30
0.0
  3
_D_5
  1

  0
SOLID
  5
182
330
17F
100
AcDbEntity
  8
0
  6
Continuous
 62
     7
370
    18
100
AcDbTrace
 10
13.1230461274
 20
9.070806397
 30
0.0
 11
13.3830461274
 21
9.030806397
 31
0.0
 12
13.3830461274
 22
9.110806397
 32
0.0
 13
13.3830461274
 23
9.110806397
 33
0.0
  0
SOLID
  5
183
330
17F
100
AcDbEntity
  8
0
  6
Continuous
 62
     7
370
    18
100
AcDbTrace
 10
18.1230461274
 20
9.070806397
 30
0.0
 11
17.8630461274
 21
9.110806397
 31
0.0
 12
17.8630461274
 22
9.030806397
 32
0.0
 13
17.8630461274
 23
9.030806397
 33
0.0
  0
LINE
  5
184
330
17F
100
AcDbEntity
  8
0
  6
Continuous
 62
     7
370
     0
100
AcDbLine
 10
15.0334628383
 20
9.0688966357
 30
0.0
 11
14.9572909641
 21
9.0688966357
 31
0.0
  0
LINE
  5
185
330
17F
100
AcDbEntity
  8
0
  6
Continuous
 62
     7
370
     0
100
AcDbLine
 10
14.9572909641
 20
9.0688966357
 30
0.0
 11
14.9572909641
 21
8.6720216238
 31
0.0
  0
LINE
  5
186
330
17F
100
AcDbEntity
  8
0
  6
Continuous
 62
     7
370
     0
100
AcDbLine
 10
14.9572909641
 20
8.6720216238
 30
0.0
 11
15.0334628383
 21
8.6720216238
 31
0.0
  0
LINE
  5
187
330
17F
100
AcDbEntity
  8
0
  6
Continuous
 62
     7
370
     0
100
AcDbLine
 10
16.2126294898
 20
9.0688966357
 30
0.0
 11
16.288801364
 21
9.0688966357
 31
0.0
  0
LINE
  5
188
330
17F
100
AcDbEntity
  8
0
  6
Continuous
 62
     7
370
     0
100
AcDbLine
 10
16.288801364
 20
9.0688966357
 30
0.0
 11
16.288801364
 21
8.6720216238
 31
0.0
  0
LINE
  5
189
330
17F
100
AcDbEntity
  8
0
  6
Continuous
 62
     7
370
     0
100
AcDbLine
 10
16.288801364
 20
8.6720216238
 30
0.0
 11
16.2126294898
 21
8.6720216238
 31
0.0
  0
LINE
  5
18A
330
17F
100
AcDbEntity
  8
0
  6
Continuous
 62
     7
370
     0
100
AcDbLine
 10
13.1230461274
 20
7.4085229324
 30
0.0
 11
13.1230461274
 21
9.320806397
 31
0.0
  0
LINE
  5
18B
330
17F
100
AcDbEntity
  8
0
  6
Continuous
 62
     7
370
     0
100
AcDbLine
 10
18.1230461274
 20
7.4085229324
 30
0.0
 11
18.1230461274
 21
9.320806397
 31
0.0
  0
LINE
  5
18C
330
17F
100
AcDbEntity
  8
0
  6
Continuous
 62
     7
370
     0
100
AcDbLine
 10
13.1230461274
 20
9.070806397
 30
0.0
 11
14.7380512464
 21
9.070806397
 31
0.0
  0
LINE
  5
18D
330
17F
100
AcDbEntity
  8
0
  6
Continuous
 62
     7
370
     0
100
AcDbLine
 10
18.1230461274
 20
9.070806397
 30
0.0
 11
16.5080410084
 21
9.070806397
 31
0.0
  0
MTEXT
  5
18E
330
17F
100
AcDbEntity
  8
0
  6
Continuous
 62
     7
370
    18
100
AcDbMText
 10
14.8825079785
 20
9.4457642908
 30
0.0
 40
0.25
 41
0.0
 71
     1
 72
     1
  1

  7
SLDTEXTSTYLE0
 73
     1
 44
1.0
  0
MTEXT
  5
18F
330
17F
100
AcDbEntity
  8
0
  6
Continuous
 62
     7
370
    18
100
AcDbMText
 10
15.4791225342
 20
9.4419448278
 30
0.0
 40
0.25
 41
0.0
 71
     1
 72
     1
  1
5"
  7
SLDTEXTSTYLE0
 73
     1
 44
1.0
  0
MTEXT
  5
190
330
17F
100
AcDbEntity
  8
0
  6
Continuous
 62
     7
370
    18
100
AcDbMText
 10
15.0334628383
 20
8.9942885862
 30
0.0
 40
0.25
 41
0.0
 71
     1
 72
     1
  1
127mm
  7
SLDTEXTSTYLE0
 73
     1
 44
1.0
  0
MTEXT
  5
191
330
17F
100
AcDbEntity
  8
0
  6
Continuous
 62
     7
370
    18
100
AcDbMText
 10
16.4587231833
 20
9.4457642908
 30
0.0
 40
0.25
 41
0.0
 71
     1
 72
     1
  1

  7
SLDTEXTSTYLE0
 73
     1
 44
1.0
  0
ENDBLK
  5
181
330
17F
100
AcDbEntity
  8
0
100
AcDbBlockEnd
  0
BLOCK
  5
194
330
193
100
AcDbEntity
  8
0
100
AcDbBlockBegin
  2
_D_6
 70
     0
 10
0.0
 20
0.0
 30
0.0
  3
_D_6
  1

  0
SOLID
  5
196
330
193
100
AcDbEntity
  8
0
  6
Continuous
 62
     7
370
    18
100
AcDbTrace
 10
12.3056445526
 20
7.3085229324
 30
0.0
 11
12.2656445526
 21
7.0485229324
 31
0.0
 12
12.3456445526
 22
7.0485229324
 32
0.0
 13
12.3456445526
 23
7.0485229324
 33
0.0
  0
SOLID
  5
197
330
193
100
AcDbEntity
  8
0
  6
Continuous
 62
     7
370
    18
100
AcDbTrace
 10
12.3056445526
 20
2.3085229324
 30
0.0
 11
12.3456445526
 21
2.5685229324
 31
0.0
 12
12.2656445526
 22
2.5685229324
 32
0.0
 13
12.2656445526
 23
2.5685229324
 33
0.0
  0
LINE
  5
198
330
193
100
AcDbEntity
  8
0
  6
Continuous
 62
     7
370
     0
100
AcDbLine
 10
11.7160612635
 20
4.8066131712
 30
0.0
 11
11.6398893893
 21
4.8066131712
 31
0.0
  0
LINE
  5
199
330
193
100
AcDbEntity
  8
0
  6
Continuous
 62
     7
370
     0
100
AcDbLine
 10
11.6398893893
 20
4.8066131712
 30
0.0
 11
11.6398893893
 21
4.4097381592
 31
0.0
  0
LINE
  5
19A
330
193
100
AcDbEntity
  8
0
  6
Continuous
 62
     7
370
     0
100
AcDbLine
 10
11.6398893893
 20
4.4097381592
 30
0.0
 11
11.7160612635
 21
4.4097381592
 31
0.0
  0
LINE
  5
19B
330
193
100
AcDbEntity
  8
0
  6
Continuous
 62
     7
370
     0
100
AcDbLine
 10
12.895227915
 20
4.8066131712
 30
0.0
 11
12.9713997892
 21
4.8066131712
 31
0.0
  0
LINE
  5
19C
330
193
100
AcDbEntity
  8
0
  6
Continuous
 62
     7
370
     0
100
AcDbLine
 10
12.9713997892
 20
4.8066131712
 30
0.0
 11
12.9713997892
 21
4.4097381592
 31
0.0
  0
LINE
  5
19D
330
193
100
AcDbEntity
  8
0
  6
Continuous
 62
     7
370
     0
100
AcDbLine
 10
12.9713997892
 20
4.4097381592
 30
0.0
 11
12.895227915
 21
4.4097381592
 31
0.0
  0
LINE
  5
19E
330
193
100
AcDbEntity
  8
0
  6
Continuous
 62
     7
370
     0
100
AcDbLine
 10
13.0230461274
 20
7.3085229324
 30
0.0
 11
12.0556445526
 21
7.3085229324
 31
0.0
  0
LINE
  5
19F
330
193
100
AcDbEntity
  8
0
  6
Continuous
 62
     7
370
     0
100
AcDbLine
 10
13.0230461274
 20
2.3085229324
 30
0.0
 11
12.0556445526
 21
2.3085229324
 31
0.0
  0
LINE
  5
1A0
330
193
100
AcDbEntity
  8
0
  6
Continuous
 62
     7
370
     0
100
AcDbLine
 10
12.3056445526
 20
7.3085229324
 30
0.0
 11
12.3056445526
 21
5.2580888757
 31
0.0
  0
LINE
  5
1A1
330
193
100
AcDbEntity
  8
0
  6
Continuous
 62
     7
370
     0
100
AcDbLine
 10
12.3056445526
 20
2.3085229324
 30
0.0
 11
12.3056445526
 21
4.3589569892
 31
0.0
  0
MTEXT
  5
1A2
330
193
100
AcDbEntity
  8
0
  6
Continuous
 62
     7
370
    18
100
AcDbMText
 10
11.5651064037
 20
5.1834808262
 30
0.0
 40
0.25
 41
0.0
 71
     1
 72
     1
  1

  7
SLDTEXTSTYLE0
 73
     1
 44
1.0
  0
MTEXT
  5
1A3
330
193
100
AcDbEntity
  8
0
  6
Continuous
 62
     7
370
    18
100
AcDbMText
 10
12.1617209594
 20
5.1796613632
 30
0.0
 40
0.25
 41
0.0
 71
     1
 72
     1
  1
5"
  7
SLDTEXTSTYLE0
 73
     1
 44
1.0
  0
MTEXT
  5
1A4
330
193
100
AcDbEntity
  8
0
  6
Continuous
 62
     7
370
    18
100
AcDbMText
 10
11.7160612635
 20
4.7320051217
 30
0.0
 40
0.25
 41
0.0
 71
     1
 72
     1
  1
127mm
  7
SLDTEXTSTYLE0
 73
     1
 44
1.0
  0
MTEXT
  5
1A5
330
193
100
AcDbEntity
  8
0
  6
Continuous
 62
     7
370
    18
100
AcDbMText
 10
13.1413216085
 20
5.1834808262
 30
0.0
 40
0.25
 41
0.0
 71
     1
 72
     1
  1

  7
SLDTEXTSTYLE0
 73
     1
 44
1.0
  0
ENDBLK
  5
195
330
193
100
AcDbEntity
  8
0
100
AcDbBlockEnd
  0
BLOCK
  5
32A
330
329
100
AcDbEntity
  8
0
100
AcDbBlockBegin
  2
_D_7
 70
     0
 10
0.0
 20
0.0
 30
0.0
  3
_D_7
  1

  0
SOLID
  5
32C
330
329
100
AcDbEntity
  8
0
  6
Continuous
 62
     7
370
    18
100
AcDbTrace
 10
2.9172341484
 20
15.4237596979
 30
0.0
 11
3.1772341484
 21
15.3837596979
 31
0.0
 12
3.1772341484
 22
15.4637596979
 32
0.0
 13
3.1772341484
 23
15.4637596979
 33
0.0
  0
SOLID
  5
32D
330
329
100
AcDbEntity
  8
0
  6
Continuous
 62
     7
370
    18
100
AcDbTrace
 10
7.6293931181
 20
15.4237596979
 30
0.0
 11
7.3693931181
 21
15.4637596979
 31
0.0
 12
7.3693931181
 22
15.3837596979
 32
0.0
 13
7.3693931181
 23
15.3837596979
 33
0.0
  0
LINE
  5
32E
330
329
100
AcDbEntity
  8
0
  6
Continuous
 62
     7
370
     0
100
AcDbLine
 10
4.6837303442
 20
15.4218499366
 30
0.0
 11
4.60755847
 21
15.4218499366
 31
0.0
  0
LINE
  5
32F
330
329
100
AcDbEntity
  8
0
  6
Continuous
 62
     7
370
     0
100
AcDbLine
 10
4.60755847
 20
15.4218499366
 30
0.0
 11
4.60755847
 21
15.0249749246
 31
0.0
  0
LINE
  5
330
330
329
100
AcDbEntity
  8
0
  6
Continuous
 62
     7
370
     0
100
AcDbLine
 10
4.60755847
 20
15.0249749246
 30
0.0
 11
4.6837303442
 21
15.0249749246
 31
0.0
  0
LINE
  5
331
330
329
100
AcDbEntity
  8
0
  6
Continuous
 62
     7
370
     0
100
AcDbLine
 10
5.8628969957
 20
15.4218499366
 30
0.0
 11
5.9390688699
 21
15.4218499366
 31
0.0
  0
LINE
  5
332
330
329
100
AcDbEntity
  8
0
  6
Continuous
 62
     7
370
     0
100
AcDbLine
 10
5.9390688699
 20
15.4218499366
 30
0.0
 11
5.9390688699
 21
15.0249749246
 31
0.0
  0
LINE
  5
333
330
329
100
AcDbEntity
  8
0
  6
Continuous
 62
     7
370
     0
100
AcDbLine
 10
5.9390688699
 20
15.0249749246
 30
0.0
 11
5.8628969957
 21
15.0249749246
 31
0.0
  0
LINE
  5
334
330
329
100
AcDbEntity
  8
0
  6
Continuous
 62
     7
370
     0
100
AcDbLine
 10
2.9172341484
 20
14.736358123
 30
0.0
 11
2.9172341484
 21
15.6737596979
 31
0.0
  0
LINE
  5
335
330
329
100
AcDbEntity
  8
0
  6
Continuous
 62
     7
370
     0
100
AcDbLine
 10
7.6293931181
 20
14.736358123
 30
0.0
 11
7.6293931181
 21
15.6737596979
 31
0.0
  0
LINE
  5
336
330
329
100
AcDbEntity
  8
0
  6
Continuous
 62
     7
370
     0
100
AcDbLine
 10
2.9172341484
 20
15.4237596979
 30
0.0
 11
4.3883187522
 21
15.4237596979
 31
0.0
  0
LINE
  5
337
330
329
100
AcDbEntity
  8
0
  6
Continuous
 62
     7
370
     0
100
AcDbLine
 10
7.6293931181
 20
15.4237596979
 30
0.0
 11
6.1583085143
 21
15.4237596979
 31
0.0
  0
MTEXT
  5
338
330
329
100
AcDbEntity
  8
0
  6
Continuous
 62
     7
370
    18
100
AcDbMText
 10
4.5327754844
 20
15.7987175916
 30
0.0
 40
0.25
 41
0.0
 71
     1
 72
     1
  1

  7
SLDTEXTSTYLE0
 73
     1
 44
1.0
  0
MTEXT
  5
339
330
329
100
AcDbEntity
  8
0
  6
Continuous
 62
     7
370
    18
100
AcDbMText
 10
4.6408483845
 20
15.7948981286
 30
0.0
 40
0.25
 41
0.0
 71
     1
 72
     1
  1
4 11/16"
  7
SLDTEXTSTYLE0
 73
     1
 44
1.0
  0
MTEXT
  5
33A
330
329
100
AcDbEntity
  8
0
  6
Continuous
 62
     7
370
    18
100
AcDbMText
 10
4.6837303442
 20
15.3472418871
 30
0.0
 40
0.25
 41
0.0
 71
     1
 72
     1
  1
120mm
  7
SLDTEXTSTYLE0
 73
     1
 44
1.0
  0
MTEXT
  5
33B
330
329
100
AcDbEntity
  8
0
  6
Continuous
 62
     7
370
    18
100
AcDbMText
 10
6.1089906891
 20
15.7987175916
 30
0.0
 40
0.25
 41
0.0
 71
     1
 72
     1
  1

  7
SLDTEXTSTYLE0
 73
     1
 44
1.0
  0
ENDBLK
  5
32B
330
329
100
AcDbEntity
  8
0
100
AcDbBlockEnd
  0
BLOCK
  5
33E
330
33D
100
AcDbEntity
  8
0
100
AcDbBlockBegin
  2
_D_8
 70
     0
 10
0.0
 20
0.0
 30
0.0
  3
_D_8
  1

  0
SOLID
  5
340
330
33D
100
AcDbEntity
  8
0
  6
Continuous
 62
     7
370
    18
100
AcDbTrace
 10
2.1298325736
 20
14.636358123
 30
0.0
 11
2.0898325736
 21
14.376358123
 31
0.0
 12
2.1698325736
 22
14.376358123
 32
0.0
 13
2.1698325736
 23
14.376358123
 33
0.0
  0
SOLID
  5
341
330
33D
100
AcDbEntity
  8
0
  6
Continuous
 62
     7
370
    18
100
AcDbTrace
 10
2.1298325736
 20
11.6841991534
 30
0.0
 11
2.1698325736
 21
11.9441991534
 31
0.0
 12
2.0898325736
 22
11.9441991534
 32
0.0
 13
2.0898325736
 23
11.9441991534
 33
0.0
  0
LINE
  5
342
330
33D
100
AcDbEntity
  8
0
  6
Continuous
 62
     7
370
     0
100
AcDbLine
 10
1.6326103776
 20
13.1583688769
 30
0.0
 11
1.5564385033
 21
13.1583688769
 31
0.0
  0
LINE
  5
343
330
33D
100
AcDbEntity
  8
0
  6
Continuous
 62
     7
370
     0
100
AcDbLine
 10
1.5564385033
 20
13.1583688769
 30
0.0
 11
1.5564385033
 21
12.761493865
 31
0.0
  0
LINE
  5
344
330
33D
100
AcDbEntity
  8
0
  6
Continuous
 62
     7
370
     0
100
AcDbLine
 10
1.5564385033
 20
12.761493865
 30
0.0
 11
1.6326103776
 21
12.761493865
 31
0.0
  0
LINE
  5
345
330
33D
100
AcDbEntity
  8
0
  6
Continuous
 62
     7
370
     0
100
AcDbLine
 10
2.627054843
 20
13.1583688769
 30
0.0
 11
2.7032267172
 21
13.1583688769
 31
0.0
  0
LINE
  5
346
330
33D
100
AcDbEntity
  8
0
  6
Continuous
 62
     7
370
     0
100
AcDbLine
 10
2.7032267172
 20
13.1583688769
 30
0.0
 11
2.7032267172
 21
12.761493865
 31
0.0
  0
LINE
  5
347
330
33D
100
AcDbEntity
  8
0
  6
Continuous
 62
     7
370
     0
100
AcDbLine
 10
2.7032267172
 20
12.761493865
 30
0.0
 11
2.627054843
 21
12.761493865
 31
0.0
  0
LINE
  5
348
330
33D
100
AcDbEntity
  8
0
  6
Continuous
 62
     7
370
     0
100
AcDbLine
 10
2.8172341484
 20
14.636358123
 30
0.0
 11
1.8798325736
 21
14.636358123
 31
0.0
  0
LINE
  5
349
330
33D
100
AcDbEntity
  8
0
  6
Continuous
 62
     7
370
     0
100
AcDbLine
 10
2.8172341484
 20
11.6841991534
 30
0.0
 11
1.8798325736
 21
11.6841991534
 31
0.0
  0
LINE
  5
34A
330
33D
100
AcDbEntity
  8
0
  6
Continuous
 62
     7
370
     0
100
AcDbLine
 10
2.1298325736
 20
14.636358123
 30
0.0
 11
2.1298325736
 21
13.6098445814
 31
0.0
  0
LINE
  5
34B
330
33D
100
AcDbEntity
  8
0
  6
Continuous
 62
     7
370
     0
100
AcDbLine
 10
2.1298325736
 20
11.6841991534
 30
0.0
 11
2.1298325736
 21
12.710712695
 31
0.0
  0
MTEXT
  5
34C
330
33D
100
AcDbEntity
  8
0
  6
Continuous
 62
     7
370
    18
100
AcDbMText
 10
1.4816555177
 20
13.535236532
 30
0.0
 40
0.25
 41
0.0
 71
     1
 72
     1
  1

  7
SLDTEXTSTYLE0
 73
     1
 44
1.0
  0
MTEXT
  5
34D
330
33D
100
AcDbEntity
  8
0
  6
Continuous
 62
     7
370
    18
100
AcDbMText
 10
1.4973673249
 20
13.531417069
 30
0.0
 40
0.25
 41
0.0
 71
     1
 72
     1
  1
2 15/16"
  7
SLDTEXTSTYLE0
 73
     1
 44
1.0
  0
MTEXT
  5
34E
330
33D
100
AcDbEntity
  8
0
  6
Continuous
 62
     7
370
    18
100
AcDbMText
 10
1.6326103776
 20
13.0837608274
 30
0.0
 40
0.25
 41
0.0
 71
     1
 72
     1
  1
75mm
  7
SLDTEXTSTYLE0
 73
     1
 44
1.0
  0
MTEXT
  5
34F
330
33D
100
AcDbEntity
  8
0
  6
Continuous
 62
     7
370
    18
100
AcDbMText
 10
2.8731485364
 20
13.535236532
 30
0.0
 40
0.25
 41
0.0
 71
     1
 72
     1
  1

  7
SLDTEXTSTYLE0
 73
     1
 44
1.0
  0
ENDBLK
  5
33F
330
33D
100
AcDbEntity
  8
0
100
AcDbBlockEnd
  0
ENDSEC
  0
SECTION
  2
ENTITIES
  0
LINE
  5
6E
330
1F
100
AcDbEntity
  8
0
  6
Continuous
 62
     7
370
    25
100
AcDbLine
 10
6.8688888175
 20
5.0140229324
 30
0.0
 11
6.8638888175
 21
5.0140229324
 31
0.0
  0
LINE
  5
6F
330
1F
100
AcDbEntity
  8
0
  6
Continuous
 62
     7
370
    25
100
AcDbLine
 10
6.8638888175
 20
4.6030229324
 30
0.0
 11
6.8688888175
 21
4.6030229324
 31
0.0
  0
LINE
  5
70
330
1F
100
AcDbEntity
  8
0
  6
Continuous
 62
     7
370
    25
100
AcDbLine
 10
6.8638888175
 20
5.0140229324
 30
0.0
 11
6.8633136333
 21
5.0135229324
 31
0.0
  0
LINE
  5
71
330
1F
100
AcDbEntity
  8
0
  6
Continuous
 62
     7
370
    25
100
AcDbLine
 10
6.8633136333
 20
4.6035229324
 30
0.0
 11
6.8638888175
 21
4.6030229324
 31
0.0
  0
CIRCLE
  5
72
330
1F
100
AcDbEntity
  8
0
  6
Continuous
 62
     7
370
    25
100
AcDbCircle
 10
4.193805241
 20
5.5335229324
 30
0.0
 40
0.4031355274203676
  0
LINE
  5
73
330
1F
100
AcDbEntity
  8
0
  6
Continuous
 62
     7
370
    25
100
AcDbLine
 10
3.4908136333
 20
3.4533644714
 30
0.0
 11
3.7726384363
 21
3.4435229324
 31
0.0
  0
LINE
  5
74
330
1F
100
AcDbEntity
  8
0
  6
Continuous
 62
     7
370
    25
100
AcDbLine
 10
3.4908136333
 20
6.1636813935
 30
0.0
 11
3.4908136333
 21
3.4533644714
 31
0.0
  0
LINE
  5
75
330
1F
100
AcDbEntity
  8
0
  6
Continuous
 62
     7
370
    25
100
AcDbLine
 10
3.4908136333
 20
6.1636813935
 30
0.0
 11
3.7726384363
 21
6.1735229324
 31
0.0
  0
CIRCLE
  5
76
330
1F
100
AcDbEntity
  8
0
  6
Continuous
 62
     7
370
    25
100
AcDbCircle
 10
4.193805241
 20
4.0835229324
 30
0.0
 40
0.4031355274203676
  0
LINE
  5
77
330
1F
100
AcDbEntity
  8
0
  6
Continuous
 62
     7
370
    25
100
AcDbLine
 10
3.7726384363
 20
6.1735229324
 30
0.0
 11
5.4758136333
 21
6.2329991209
 31
0.0
  0
LINE
  5
78
330
1F
100
AcDbEntity
  8
0
  6
Continuous
 62
     7
370
    25
100
AcDbLine
 10
3.7726384363
 20
3.4435229324
 30
0.0
 11
5.4758136333
 21
3.384046744
 31
0.0
  0
LINE
  5
79
330
1F
100
AcDbEntity
  8
0
  6
Continuous
 62
     7
370
    25
100
AcDbLine
 10
3.4595636333
 20
3.4533644714
 30
0.0
 11
3.4908136333
 21
3.4533644714
 31
0.0
  0
LINE
  5
7A
330
1F
100
AcDbEntity
  8
0
  6
Continuous
 62
     7
370
    25
100
AcDbLine
 10
3.4595636333
 20
3.4533644714
 30
0.0
 11
3.4595636333
 21
3.9585229324
 31
0.0
  0
LINE
  5
7B
330
1F
100
AcDbEntity
  8
0
  6
Continuous
 62
     7
370
    25
100
AcDbLine
 10
3.4595636333
 20
3.9585229324
 30
0.0
 11
3.4908136333
 21
3.9585229324
 31
0.0
  0
LINE
  5
7C
330
1F
100
AcDbEntity
  8
0
  6
Continuous
 62
     7
370
    25
100
AcDbLine
 10
3.4595636333
 20
6.1636813935
 30
0.0
 11
3.4908136333
 21
6.1636813935
 31
0.0
  0
LINE
  5
7D
330
1F
100
AcDbEntity
  8
0
  6
Continuous
 62
     7
370
    25
100
AcDbLine
 10
3.4595636333
 20
5.6585229324
 30
0.0
 11
3.4595636333
 21
6.1636813935
 31
0.0
  0
LINE
  5
7E
330
1F
100
AcDbEntity
  8
0
  6
Continuous
 62
     7
370
    25
100
AcDbLine
 10
3.4595636333
 20
5.6585229324
 30
0.0
 11
3.4908136333
 21
5.6585229324
 31
0.0
  0
LINE
  5
7F
330
1F
100
AcDbEntity
  8
0
  6
Continuous
 62
     7
370
    25
100
AcDbLine
 10
5.4758136333
 20
3.3324434476
 30
0.0
 11
5.6008136333
 21
3.3368085438
 31
0.0
  0
LINE
  5
80
330
1F
100
AcDbEntity
  8
0
  6
Continuous
 62
     7
370
    25
100
AcDbLine
 10
5.4758136333
 20
6.2846024173
 30
0.0
 11
5.6008136333
 21
6.2802373211
 31
0.0
  0
LINE
  5
81
330
1F
100
AcDbEntity
  8
0
  6
Continuous
 62
     7
370
    25
100
AcDbLine
 10
5.6008136333
 20
3.3368085438
 30
0.0
 11
5.6008136333
 21
6.2802373211
 31
0.0
  0
LINE
  5
82
330
1F
100
AcDbEntity
  8
0
  6
Continuous
 62
     7
370
    25
100
AcDbLine
 10
5.4758136333
 20
3.3324434476
 30
0.0
 11
5.4758136333
 21
6.2846024173
 31
0.0
  0
LINE
  5
83
330
1F
100
AcDbEntity
  8
0
  6
Continuous
 62
     7
370
    25
100
AcDbLine
 10
5.6008136333
 20
6.2781825975
 30
0.0
 11
5.6707709911
 21
6.2031625159
 31
0.0
  0
LINE
  5
84
330
1F
100
AcDbEntity
  8
0
  6
Continuous
 62
     7
370
    25
100
AcDbLine
 10
5.6707709911
 20
6.2031625159
 30
0.0
 11
5.6707709911
 21
3.413883349
 31
0.0
  0
LINE
  5
85
330
1F
100
AcDbEntity
  8
0
  6
Continuous
 62
     7
370
    25
100
AcDbLine
 10
5.6707709911
 20
3.413883349
 30
0.0
 11
5.6008136333
 21
3.3388632674
 31
0.0
  0
LINE
  5
86
330
1F
100
AcDbEntity
  8
0
  6
Continuous
 62
     7
370
    25
100
AcDbLine
 10
5.6807648994
 20
6.1924453614
 30
0.0
 11
6.3133136333
 21
6.1703562728
 31
0.0
  0
LINE
  5
87
330
1F
100
AcDbEntity
  8
0
  6
Continuous
 62
     7
370
    25
100
AcDbLine
 10
5.6807648994
 20
3.4246005035
 30
0.0
 11
6.3133136333
 21
3.446689592
 31
0.0
  0
LINE
  5
88
330
1F
100
AcDbEntity
  8
0
  6
Continuous
 62
     7
370
    25
100
AcDbLine
 10
5.6807648994
 20
6.1924453614
 30
0.0
 11
5.6707709911
 21
6.2031625159
 31
0.0
  0
LINE
  5
89
330
1F
100
AcDbEntity
  8
0
  6
Continuous
 62
     7
370
    25
100
AcDbLine
 10
5.6707709911
 20
3.413883349
 30
0.0
 11
5.6807648994
 21
3.4246005035
 31
0.0
  0
LINE
  5
8A
330
1F
100
AcDbEntity
  8
0
  6
Continuous
 62
     7
370
    25
100
AcDbLine
 10
4.1583136333
 20
4.3475229324
 30
0.0
 11
4.1583136333
 21
4.1185229324
 31
0.0
  0
LINE
  5
8B
330
1F
100
AcDbEntity
  8
0
  6
Continuous
 62
     7
370
    25
100
AcDbLine
 10
4.1583136333
 20
4.1185229324
 30
0.0
 11
3.9293136333
 21
4.1185229324
 31
0.0
  0
LINE
  5
8C
330
1F
100
AcDbEntity
  8
0
  6
Continuous
 62
     7
370
    25
100
AcDbLine
 10
3.9293136333
 20
4.1185229324
 30
0.0
 11
3.9293136333
 21
4.0485229324
 31
0.0
  0
LINE
  5
8D
330
1F
100
AcDbEntity
  8
0
  6
Continuous
 62
     7
370
    25
100
AcDbLine
 10
3.9293136333
 20
4.0485229324
 30
0.0
 11
4.1583136333
 21
4.0485229324
 31
0.0
  0
LINE
  5
8E
330
1F
100
AcDbEntity
  8
0
  6
Continuous
 62
     7
370
    25
100
AcDbLine
 10
4.1583136333
 20
4.0485229324
 30
0.0
 11
4.1583136333
 21
3.8195229324
 31
0.0
  0
LINE
  5
8F
330
1F
100
AcDbEntity
  8
0
  6
Continuous
 62
     7
370
    25
100
AcDbLine
 10
4.2283136333
 20
3.8195229324
 30
0.0
 11
4.2283136333
 21
4.0485229324
 31
0.0
  0
LINE
  5
90
330
1F
100
AcDbEntity
  8
0
  6
Continuous
 62
     7
370
    25
100
AcDbLine
 10
4.2283136333
 20
4.0485229324
 30
0.0
 11
4.4573136333
 21
4.0485229324
 31
0.0
  0
LINE
  5
91
330
1F
100
AcDbEntity
  8
0
  6
Continuous
 62
     7
370
    25
100
AcDbLine
 10
4.4573136333
 20
4.0485229324
 30
0.0
 11
4.4573136333
 21
4.1185229324
 31
0.0
  0
LINE
  5
92
330
1F
100
AcDbEntity
  8
0
  6
Continuous
 62
     7
370
    25
100
AcDbLine
 10
4.4573136333
 20
4.1185229324
 30
0.0
 11
4.2283136333
 21
4.1185229324
 31
0.0
  0
LINE
  5
93
330
1F
100
AcDbEntity
  8
0
  6
Continuous
 62
     7
370
    25
100
AcDbLine
 10
4.2283136333
 20
4.3475229324
 30
0.0
 11
4.1583136333
 21
4.3475229324
 31
0.0
  0
LINE
  5
94
330
1F
100
AcDbEntity
  8
0
  6
Continuous
 62
     7
370
    25
100
AcDbLine
 10
4.1583136333
 20
3.8195229324
 30
0.0
 11
4.2283136333
 21
3.8195229324
 31
0.0
  0
LINE
  5
95
330
1F
100
AcDbEntity
  8
0
  6
Continuous
 62
     7
370
    25
100
AcDbLine
 10
4.2283136333
 20
4.1185229324
 30
0.0
 11
4.2283136333
 21
4.3475229324
 31
0.0
  0
LINE
  5
96
330
1F
100
AcDbEntity
  8
0
  6
Continuous
 62
     7
370
    25
100
AcDbLine
 10
4.1583136333
 20
5.7975229324
 30
0.0
 11
4.1583136333
 21
5.5685229324
 31
0.0
  0
LINE
  5
97
330
1F
100
AcDbEntity
  8
0
  6
Continuous
 62
     7
370
    25
100
AcDbLine
 10
4.1583136333
 20
5.5685229324
 30
0.0
 11
3.9293136333
 21
5.5685229324
 31
0.0
  0
LINE
  5
98
330
1F
100
AcDbEntity
  8
0
  6
Continuous
 62
     7
370
    25
100
AcDbLine
 10
3.9293136333
 20
5.5685229324
 30
0.0
 11
3.9293136333
 21
5.4985229324
 31
0.0
  0
LINE
  5
99
330
1F
100
AcDbEntity
  8
0
  6
Continuous
 62
     7
370
    25
100
AcDbLine
 10
4.1583136333
 20
5.4985229324
 30
0.0
 11
4.1583136333
 21
5.2695229324
 31
0.0
  0
LINE
  5
9A
330
1F
100
AcDbEntity
  8
0
  6
Continuous
 62
     7
370
    25
100
AcDbLine
 10
4.1583136333
 20
5.2695229324
 30
0.0
 11
4.2283136333
 21
5.2695229324
 31
0.0
  0
LINE
  5
9B
330
1F
100
AcDbEntity
  8
0
  6
Continuous
 62
     7
370
    25
100
AcDbLine
 10
4.2283136333
 20
5.2695229324
 30
0.0
 11
4.2283136333
 21
5.4985229324
 31
0.0
  0
LINE
  5
9C
330
1F
100
AcDbEntity
  8
0
  6
Continuous
 62
     7
370
    25
100
AcDbLine
 10
4.2283136333
 20
5.4985229324
 30
0.0
 11
4.4573136333
 21
5.4985229324
 31
0.0
  0
LINE
  5
9D
330
1F
100
AcDbEntity
  8
0
  6
Continuous
 62
     7
370
    25
100
AcDbLine
 10
4.4573136333
 20
5.4985229324
 30
0.0
 11
4.4573136333
 21
5.5685229324
 31
0.0
  0
LINE
  5
9E
330
1F
100
AcDbEntity
  8
0
  6
Continuous
 62
     7
370
    25
100
AcDbLine
 10
4.4573136333
 20
5.5685229324
 30
0.0
 11
4.2283136333
 21
5.5685229324
 31
0.0
  0
LINE
  5
9F
330
1F
100
AcDbEntity
  8
0
  6
Continuous
 62
     7
370
    25
100
AcDbLine
 10
4.2283136333
 20
5.5685229324
 30
0.0
 11
4.2283136333
 21
5.7975229324
 31
0.0
  0
LINE
  5
A0
330
1F
100
AcDbEntity
  8
0
  6
Continuous
 62
     7
370
    25
100
AcDbLine
 10
4.2283136333
 20
5.7975229324
 30
0.0
 11
4.1583136333
 21
5.7975229324
 31
0.0
  0
LINE
  5
A1
330
1F
100
AcDbEntity
  8
0
  6
Continuous
 62
     7
370
    25
100
AcDbLine
 10
3.9293136333
 20
5.4985229324
 30
0.0
 11
4.1583136333
 21
5.4985229324
 31
0.0
  0
LINE
  5
A2
330
1F
100
AcDbEntity
  8
0
  6
Continuous
 62
     7
370
    25
100
AcDbLine
 10
6.4833136333
 20
2.3085229324
 30
0.0
 11
6.8633136333
 21
2.3085229324
 31
0.0
  0
LINE
  5
A3
330
1F
100
AcDbEntity
  8
0
  6
Continuous
 62
     7
370
    25
100
AcDbLine
 10
6.4833136333
 20
2.3085229324
 30
0.0
 11
6.4833136333
 21
7.3085229324
 31
0.0
  0
LINE
  5
A4
330
1F
100
AcDbEntity
  8
0
  6
Continuous
 62
     7
370
    25
100
AcDbLine
 10
6.4833136333
 20
7.3085229324
 30
0.0
 11
6.8633136333
 21
7.3085229324
 31
0.0
  0
LINE
  5
A5
330
1F
100
AcDbEntity
  8
0
  6
Continuous
 62
     7
370
    25
100
AcDbLine
 10
6.8633136333
 20
2.3085229324
 30
0.0
 11
6.8633136333
 21
7.3085229324
 31
0.0
  0
LINE
  5
A6
330
1F
100
AcDbEntity
  8
0
  6
Continuous
 62
     7
370
    25
100
AcDbLine
 10
6.8688888175
 20
5.0140229324
 30
0.0
 11
6.8688888175
 21
4.6030229324
 31
0.0
  0
LINE
  5
A7
330
1F
100
AcDbEntity
  8
0
  6
Continuous
 62
     7
370
    25
100
AcDbLine
 10
6.8638888175
 20
5.0140229324
 30
0.0
 11
6.8638888175
 21
4.6030229324
 31
0.0
  0
LINE
  5
A8
330
1F
100
AcDbEntity
  8
0
  6
Continuous
 62
     7
370
    25
100
AcDbLine
 10
6.4833136333
 20
3.3385229324
 30
0.0
 11
6.3133136333
 21
3.3385229324
 31
0.0
  0
LINE
  5
A9
330
1F
100
AcDbEntity
  8
0
  6
Continuous
 62
     7
370
    25
100
AcDbLine
 10
6.3133136333
 20
3.5885229324
 30
0.0
 11
6.3133136333
 21
3.3385229324
 31
0.0
  0
LINE
  5
AA
330
1F
100
AcDbEntity
  8
0
  6
Continuous
 62
     7
370
    25
100
AcDbLine
 10
6.4833136333
 20
6.2785229324
 30
0.0
 11
6.3133136333
 21
6.2785229324
 31
0.0
  0
LINE
  5
AB
330
1F
100
AcDbEntity
  8
0
  6
Continuous
 62
     7
370
    25
100
AcDbLine
 10
6.3133136333
 20
6.2785229324
 30
0.0
 11
6.3133136333
 21
6.0285229324
 31
0.0
  0
LINE
  5
AC
330
1F
100
AcDbEntity
  8
0
  6
Continuous
 62
     7
370
    25
100
AcDbLine
 10
6.3133136333
 20
6.0285229324
 30
0.0
 11
6.3133136333
 21
3.5885229324
 31
0.0
  0
LINE
  5
AD
330
1F
100
AcDbEntity
  8
0
  6
Continuous
 62
     7
370
    25
100
AcDbLine
 10
3.7726384363
 20
3.4435229324
 30
0.0
 11
5.4758136333
 21
3.4435229324
 31
0.0
  0
LINE
  5
AE
330
1F
100
AcDbEntity
  8
0
  6
Continuous
 62
     7
370
    25
100
AcDbLine
 10
3.7726384363
 20
6.1735229324
 30
0.0
 11
5.4758136333
 21
6.1735229324
 31
0.0
  0
LINE
  5
AF
330
1F
100
AcDbEntity
  8
0
  6
Continuous
 62
     7
370
    25
100
AcDbLine
 10
6.4833136333
 20
3.5885229324
 30
0.0
 11
6.3133136333
 21
3.5885229324
 31
0.0
  0
LINE
  5
B0
330
1F
100
AcDbEntity
  8
0
  6
Continuous
 62
     7
370
    25
100
AcDbLine
 10
6.4833136333
 20
6.0285229324
 30
0.0
 11
6.3133136333
 21
6.0285229324
 31
0.0
  0
DIMENSION
  5
B1
330
1F
100
AcDbEntity
  8
0
  6
Continuous
 62
     7
370
    18
100
AcDbDimension
  2
_D
 10
6.8633136333
 20
8.0959245072
 30
0.0
 11
8.1052406891
 21
8.0959245072
 31
0.0
 70
   160
  1
<>
 71
     2
 42
-1.0
  3
SLDDIMSTYLE0
100
AcDbAlignedDimension
 13
6.4833136333
 23
7.3085229324
 33
0.0
 14
6.8633136333
 24
7.3085229324
 34
0.0
100
AcDbRotatedDimension
  0
DIMENSION
  5
C7
330
1F
100
AcDbEntity
  8
0
  6
Continuous
 62
     7
370
    18
100
AcDbDimension
  2
_D_1
 10
3.4595636333
 20
8.0959245072
 30
0.0
 11
4.9714386333
 21
8.0959245072
 31
0.0
 70
   160
  1
<>
 71
     2
 42
-1.0
  3
SLDDIMSTYLE1
100
AcDbAlignedDimension
 13
6.4833136333
 23
7.3085229324
 33
0.0
 14
3.4595636333
 24
6.1636813935
 34
0.0
100
AcDbRotatedDimension
  0
DIMENSION
  5
DC
330
1F
100
AcDbEntity
  8
0
  6
Continuous
 62
     7
370
    18
100
AcDbDimension
  2
_D_2
 10
2.2339653101
 20
3.4533644714
 30
0.0
 11
2.2339653101
 21
4.8085229324
 31
0.0
 70
   160
  1
<>
 71
     2
 42
-1.0
  3
SLDDIMSTYLE2
100
AcDbAlignedDimension
 13
3.4595636333
 23
6.1636813935
 33
0.0
 14
3.4595636333
 24
3.4533644714
 34
0.0
 50
90.0
100
AcDbRotatedDimension
  0
DIMENSION
  5
F1
330
1F
100
AcDbEntity
  8
0
  6
Continuous
 62
     7
370
    18
100
AcDbDimension
  2
_D_3
 10
6.8633136333
 20
4.8007229324
 30
0.0
 11
8.8947116756
 21
4.3144492626
 31
0.0
 70
   162
  1
<> LOUVER\PANGLE
 71
     1
 42
-1.0
  3
SLDDIMSTYLE3
100
AcDb2LineAngularDimension
 13
6.7431001347
 23
4.9090229324
 33
0.0
 14
6.6883136333
 24
4.9090229324
 34
0.0
 15
6.6333136333
 25
4.9335134944
 35
0.0
 16
8.5294378371
 26
3.5521283413
 36
0.0
  0
MTEXT
  5
FF
330
1F
100
AcDbEntity
  8
0
  6
Continuous
 62
     7
370
     0
100
AcDbMText
 10
5.615564629
 20
2.0013516031
 30
0.0
 40
0.25
 41
0.0
 71
     2
 72
     1
  1
5X 1/2" NPT
  7
SLDTEXTSTYLE0
 73
     1
 44
1.0
  0
MTEXT
  5
100
330
1F
100
AcDbEntity
  8
0
  6
Continuous
 62
     7
370
     0
100
AcDbMText
 10
5.6252867496
 20
1.6726114541
 30
0.0
 40
0.25
 41
0.0
 71
     2
 72
     1
  1
CONDUIT ENTRIES
  7
SLDTEXTSTYLE0
 73
     1
 44
1.0
  0
LEADER
  5
102
330
1F
100
AcDbEntity
  8
0
  6
Continuous
 62
     7
370
     0
100
AcDbLeader
  3
SLDDIMSTYLE4
 76
     3
 10
4.2016323449
 20
3.6804636957
 30
0.0
 10
4.1950767851
 20
1.8848561428
 30
0.0
 10
4.6950767851
 20
1.8848561428
 30
0.0
  0
LINE
  5
103
330
1F
100
AcDbEntity
  8
0
  6
Continuous
 62
     7
370
    25
100
AcDbLine
 10
18.221069833
 20
3.8285229324
 30
0.0
 11
19.751069833
 21
3.8285229324
 31
0.0
  0
LINE
  5
104
330
1F
100
AcDbEntity
  8
0
  6
Continuous
 62
     7
370
    25
100
AcDbLine
 10
19.751069833
 20
4.4385229324
 30
0.0
 11
18.144146756
 21
4.4385229324
 31
0.0
  0
LINE
  5
105
330
1F
100
AcDbEntity
  8
0
  6
Continuous
 62
     7
370
    25
100
AcDbLine
 10
18.1230461274
 20
4.1235229324
 30
0.0
 11
18.2234981367
 21
4.1235229324
 31
0.0
  0
ELLIPSE
  5
106
330
1F
100
AcDbEntity
  8
0
  6
Continuous
 62
     7
370
    25
100
AcDbEllipse
 10
18.4172236791
 20
4.0835229324
 30
0.0
 11
0.0
 21
0.2549999999999999
 31
0.0
210
0.0
220
0.0
230
1.0
 40
0.7692307692
 41
1.413283060588059
 42
1.728309593001724
  0
LINE
  5
107
330
1F
100
AcDbEntity
  8
0
  6
Continuous
 62
     7
370
    25
100
AcDbLine
 10
18.1230461274
 20
4.0435229324
 30
0.0
 11
18.2234981367
 21
4.0435229324
 31
0.0
  0
LINE
  5
108
330
1F
100
AcDbEntity
  8
0
  6
Continuous
 62
     7
370
    25
100
AcDbLine
 10
18.1230461274
 20
3.8413877795
 30
0.0
 11
18.2234981367
 21
3.9337271655
 31
0.0
  0
ELLIPSE
  5
109
330
1F
100
AcDbEntity
  8
0
  6
Continuous
 62
     7
370
    25
100
AcDbEllipse
 10
18.4172236791
 20
4.0835229324
 30
0.0
 11
0.1703968446426956
 21
0.2459542240120776
 31
0.0
210
0.0
220
0.0
230
1.0
 40
0.3950575694
 41
2.465834243643591
 42
2.780860776057258
  0
LINE
  5
10A
330
1F
100
AcDbEntity
  8
0
  6
Continuous
 62
     7
370
    25
100
AcDbLine
 10
18.1230461274
 20
3.784819237
 30
0.0
 11
18.2234981367
 21
3.877158623
 31
0.0
  0
LINE
  5
10B
330
1F
100
AcDbEntity
  8
0
  6
Continuous
 62
     7
370
    25
100
AcDbLine
 10
18.1230461274
 20
3.9337271655
 30
0.0
 11
18.2234981367
 21
3.9337271655
 31
0.0
  0
LINE
  5
10C
330
1F
100
AcDbEntity
  8
0
  6
Continuous
 62
     7
370
    25
100
AcDbLine
 10
18.1230461274
 20
4.3256580854
 30
0.0
 11
18.2234981367
 21
4.2333186994
 31
0.0
  0
LINE
  5
10D
330
1F
100
AcDbEntity
  8
0
  6
Continuous
 62
     7
370
    25
100
AcDbLine
 10
18.1230461274
 20
4.2333186994
 30
0.0
 11
18.2234981367
 21
4.2333186994
 31
0.0
  0
LINE
  5
10E
330
1F
100
AcDbEntity
  8
0
  6
Continuous
 62
     7
370
    25
100
AcDbLine
 10
18.1230461274
 20
4.3822266279
 30
0.0
 11
18.2234981367
 21
4.2898872419
 31
0.0
  0
ELLIPSE
  5
10F
330
1F
100
AcDbEntity
  8
0
  6
Continuous
 62
     7
370
    25
100
AcDbEllipse
 10
18.4172236791
 20
4.0835229324
 30
0.0
 11
-0.170396844642692
 21
0.2459542240120776
 31
0.0
210
0.0
220
0.0
230
1.0
 40
0.3950575694
 41
0.3607318775325461
 42
0.6757584099462012
  0
LINE
  5
110
330
1F
100
AcDbEntity
  8
0
  6
Continuous
 62
     7
370
    25
100
AcDbLine
 10
18.1740236204
 20
3.8316797272
 30
0.0
 11
18.2234981367
 21
3.8316797272
 31
0.0
  0
LINE
  5
111
330
1F
100
AcDbEntity
  8
0
  6
Continuous
 62
     7
370
    25
100
AcDbLine
 10
19.751069833
 20
4.3059142368
 30
0.0
 11
18.2060630647
 21
4.3059142368
 31
0.0
  0
LINE
  5
112
330
1F
100
AcDbEntity
  8
0
  6
Continuous
 62
     7
370
    25
100
AcDbLine
 10
19.751069833
 20
4.3059142368
 30
0.0
 11
19.751069833
 21
3.8285229324
 31
0.0
  0
LINE
  5
113
330
1F
100
AcDbEntity
  8
0
  6
Continuous
 62
     7
370
    25
100
AcDbLine
 10
18.1492027616
 20
4.4319501253
 30
0.0
 11
18.1230461274
 21
4.4319501253
 31
0.0
  0
LINE
  5
114
330
1F
100
AcDbEntity
  8
0
  6
Continuous
 62
     7
370
    25
100
AcDbLine
 10
19.751069833
 20
4.4385229324
 30
0.0
 11
19.751069833
 21
4.3059142368
 31
0.0
  0
LINE
  5
115
330
1F
100
AcDbEntity
  8
0
  6
Continuous
 62
     7
370
    25
100
AcDbLine
 10
18.1230461274
 20
3.7010921152
 30
0.0
 11
18.2234981367
 21
3.8316797272
 31
0.0
  0
LINE
  5
116
330
1F
100
AcDbEntity
  8
0
  6
Continuous
 62
     7
370
    25
100
AcDbLine
 10
18.1230461274
 20
4.4659537497
 30
0.0
 11
18.1492027616
 21
4.4319501253
 31
0.0
  0
LINE
  5
117
330
1F
100
AcDbEntity
  8
0
  6
Continuous
 62
     7
370
    25
100
AcDbLine
 10
18.1230461274
 20
2.3085229324
 30
0.0
 11
13.1230461274
 21
2.3085229324
 31
0.0
  0
LINE
  5
118
330
1F
100
AcDbEntity
  8
0
  6
Continuous
 62
     7
370
    25
100
AcDbLine
 10
13.1230461274
 20
2.3085229324
 30
0.0
 11
13.1230461274
 21
7.3085229324
 31
0.0
  0
LINE
  5
119
330
1F
100
AcDbEntity
  8
0
  6
Continuous
 62
     7
370
    25
100
AcDbLine
 10
13.1230461274
 20
7.3085229324
 30
0.0
 11
18.1230461274
 21
7.3085229324
 31
0.0
  0
LINE
  5
11A
330
1F
100
AcDbEntity
  8
0
  6
Continuous
 62
     7
370
    25
100
AcDbLine
 10
18.1230461274
 20
7.3085229324
 30
0.0
 11
18.1230461274
 21
2.3085229324
 31
0.0
  0
LINE
  5
11B
330
1F
100
AcDbEntity
  8
0
  6
Continuous
 62
     7
370
    25
100
AcDbLine
 10
15.0905461274
 20
5.4882229324
 30
0.0
 11
16.1555461274
 21
5.4882229324
 31
0.0
  0
SPLINE
  5
11C
330
1F
100
AcDbEntity
  8
0
  6
Continuous
 62
     7
370
    25
100
AcDbSpline
210
0.0
220
0.0
230
1.0
 70
     8
 71
     3
 72
    20
 73
    16
 74
     0
 42
0.00000001
 43
0.00000001
 40
0.0
 40
0.0
 40
0.0
 40
0.0
 40
0.1220208336415363
 40
0.2292653365593429
 40
0.336509839477149
 40
0.4437543423949554
 40
0.5509988453127621
 40
0.604043203516551
 40
0.6570875617203383
 40
0.710131919924126
 40
0.7631762781279139
 40
0.8162206363317013
 40
0.8692649945354886
 40
0.9223093527392761
 40
1.0
 40
1.0
 40
1.0
 40
1.0
 10
15.09054612740726
 20
5.363222932437572
 30
0.0
 10
15.08253646573345
 20
5.364116673473616
 30
0.0
 10
15.06748708666784
 20
5.365795926379126
 30
0.0
 10
15.0484628593786
 20
5.378000777041745
 30
0.0
 10
15.03500690720493
 20
5.394512560929154
 30
0.0
 10
15.02781169734204
 20
5.414676593879372
 30
0.0
 10
15.02772256770515
 20
5.432482144348875
 30
0.0
 10
15.03113253255704
 20
5.446028417159812
 30
0.0
 10
15.03531225382315
 20
5.455583704019163
 30
0.0
 10
15.0410160746301
 20
5.464313228990013
 30
0.0
 10
15.04808590864604
 20
5.471976348324291
 30
0.0
 10
15.05632655053207
 20
5.478374028269192
 30
0.0
 10
15.06551231826001
 20
5.483280381772194
 30
0.0
 10
15.0769124968609
 20
5.487282150143641
 30
0.0
 10
15.08546419258873
 20
5.487872255904279
 30
0.0
 10
15.09054612740726
 20
5.488222932437571
 30
0.0
  0
LINE
  5
11D
330
1F
100
AcDbEntity
  8
0
  6
Continuous
 62
     7
370
    25
100
AcDbLine
 10
16.1555461274
 20
5.3632229324
 30
0.0
 11
15.0905461274
 21
5.3632229324
 31
0.0
  0
SPLINE
  5
11E
330
1F
100
AcDbEntity
  8
0
  6
Continuous
 62
     7
370
    25
100
AcDbSpline
210
0.0
220
0.0
230
1.0
 70
     8
 71
     3
 72
    25
 73
    21
 74
     0
 42
0.00000001
 43
0.00000001
 40
0.0
 40
0.0
 40
0.0
 40
0.0
 40
0.0600333226356735
 40
0.1129709835186543
 40
0.1659086444016349
 40
0.2188463052846157
 40
0.2717839661675967
 40
0.3247216270505782
 40
0.3776592879335581
 40
0.4305969488165389
 40
0.4835346096995187
 40
0.536472270582498
 40
0.5894099314654789
 40
0.6423475923484592
 40
0.6952852532314389
 40
0.7482229141144191
 40
0.8011605749974001
 40
0.8540982358803807
 40
0.9070358967633613
 40
1.0
 40
1.0
 40
1.0
 40
1.0
 10
16.15554612740726
 20
5.488222932437571
 30
0.0
 10
16.15947595309598
 20
5.488010128792801
 30
0.0
 10
16.16687111720852
 20
5.487609673912235
 30
0.0
 10
16.17736379850282
 20
5.484577031429302
 30
0.0
 10
16.18680736662215
 20
5.480182021324102
 30
0.0
 10
16.195388331124
 20
5.474249798825863
 30
0.0
 10
16.2028704943349
 20
5.466988559651372
 30
0.0
 10
16.20904736021993
 20
5.458586634371861
 30
0.0
 10
16.21374859669417
 20
5.449278959602015
 30
0.0
 10
16.21684452802142
 20
5.439321397502214
 30
0.0
 10
16.21824976694296
 20
5.428988815658115
 30
0.0
 10
16.21792555338212
 20
5.418566158864319
 30
0.0
 10
16.21588083357203
 20
5.408340841034535
 30
0.0
 10
16.21217198940957
 20
5.398595160632116
 30
0.0
 10
16.2069013688811
 20
5.38959689263396
 30
0.0
 10
16.20021414500265
 20
5.381598047680641
 30
0.0
 10
16.19229549888933
 20
5.374804964151076
 30
0.0
 10
16.18336108181859
 20
5.369458300840547
 30
0.0
 10
16.17122450468563
 20
5.364510659455248
 30
0.0
 10
16.16164798825503
 20
5.363724102356644
 30
0.0
 10
16.15554612740726
 20
5.363222932437572
 30
0.0
  0
LINE
  5
11F
330
1F
100
AcDbEntity
  8
0
  6
Continuous
 62
     7
370
    25
100
AcDbLine
 10
16.1555461274
 20
5.1757229324
 30
0.0
 11
15.0905461274
 21
5.1757229324
 31
0.0
  0
SPLINE
  5
120
330
1F
100
AcDbEntity
  8
0
  6
Continuous
 62
     7
370
    25
100
AcDbSpline
210
0.0
220
0.0
230
1.0
 70
     8
 71
     3
 72
    25
 73
    21
 74
     0
 42
0.00000001
 43
0.00000001
 40
0.0
 40
0.0
 40
0.0
 40
0.0
 40
0.0600333226356732
 40
0.1129709835186541
 40
0.1659086444016347
 40
0.2188463052846151
 40
0.2717839661675964
 40
0.3247216270505766
 40
0.3776592879335564
 40
0.4305969488165365
 40
0.4835346096995163
 40
0.5364722705824952
 40
0.5894099314654753
 40
0.6423475923484555
 40
0.6952852532314361
 40
0.748222914114416
 40
0.8011605749973956
 40
0.8540982358803749
 40
0.9070358967633545
 40
1.0
 40
1.0
 40
1.0
 40
1.0
 10
16.15554612740726
 20
5.300722932437571
 30
0.0
 10
16.15947595309598
 20
5.300510128792801
 30
0.0
 10
16.16687111720852
 20
5.300109673912235
 30
0.0
 10
16.17736379850282
 20
5.297077031429303
 30
0.0
 10
16.18680736662215
 20
5.292682021324102
 30
0.0
 10
16.195388331124
 20
5.286749798825864
 30
0.0
 10
16.2028704943349
 20
5.279488559651372
 30
0.0
 10
16.20904736021993
 20
5.271086634371861
 30
0.0
 10
16.21374859669417
 20
5.261778959602015
 30
0.0
 10
16.21684452802142
 20
5.251821397502214
 30
0.0
 10
16.21824976694296
 20
5.241488815658116
 30
0.0
 10
16.21792555338212
 20
5.23106615886432
 30
0.0
 10
16.21588083357203
 20
5.220840841034536
 30
0.0
 10
16.21217198940957
 20
5.211095160632118
 30
0.0
 10
16.2069013688811
 20
5.20209689263396
 30
0.0
 10
16.20021414500265
 20
5.194098047680642
 30
0.0
 10
16.19229549888933
 20
5.187304964151077
 30
0.0
 10
16.18336108181859
 20
5.181958300840548
 30
0.0
 10
16.17122450468563
 20
5.177010659455249
 30
0.0
 10
16.16164798825503
 20
5.176224102356643
 30
0.0
 10
16.15554612740726
 20
5.175722932437572
 30
0.0
  0
LINE
  5
121
330
1F
100
AcDbEntity
  8
0
  6
Continuous
 62
     7
370
    25
100
AcDbLine
 10
15.0905461274
 20
5.3007229324
 30
0.0
 11
16.1555461274
 21
5.3007229324
 31
0.0
  0
SPLINE
  5
122
330
1F
100
AcDbEntity
  8
0
  6
Continuous
 62
     7
370
    25
100
AcDbSpline
210
0.0
220
0.0
230
1.0
 70
     8
 71
     3
 72
    20
 73
    16
 74
     0
 42
0.00000001
 43
0.00000001
 40
0.0
 40
0.0
 40
0.0
 40
0.0
 40
0.1220208336415363
 40
0.2292653365593433
 40
0.3365098394771496
 40
0.4437543423949559
 40
0.5509988453127637
 40
0.6040432035165526
 40
0.6570875617203406
 40
0.7101319199241283
 40
0.7631762781279161
 40
0.8162206363317043
 40
0.869264994535492
 40
0.9223093527392803
 40
1.0
 40
1.0
 40
1.0
 40
1.0
 10
15.09054612740726
 20
5.175722932437572
 30
0.0
 10
15.08253646573345
 20
5.176616673473615
 30
0.0
 10
15.06748708666784
 20
5.178295926379126
 30
0.0
 10
15.0484628593786
 20
5.190500777041745
 30
0.0
 10
15.03500690720493
 20
5.207012560929155
 30
0.0
 10
15.02781169734204
 20
5.227176593879372
 30
0.0
 10
15.02772256770515
 20
5.244982144348876
 30
0.0
 10
15.03113253255704
 20
5.258528417159812
 30
0.0
 10
15.03531225382315
 20
5.268083704019163
 30
0.0
 10
15.0410160746301
 20
5.276813228990014
 30
0.0
 10
15.04808590864604
 20
5.284476348324291
 30
0.0
 10
15.05632655053207
 20
5.290874028269192
 30
0.0
 10
15.06551231826001
 20
5.295780381772194
 30
0.0
 10
15.0769124968609
 20
5.29978215014364
 30
0.0
 10
15.08546419258873
 20
5.300372255904279
 30
0.0
 10
15.09054612740726
 20
5.300722932437573
 30
0.0
  0
LINE
  5
123
330
1F
100
AcDbEntity
  8
0
  6
Continuous
 62
     7
370
    25
100
AcDbLine
 10
15.0905461274
 20
5.1132229324
 30
0.0
 11
16.1555461274
 21
5.1132229324
 31
0.0
  0
SPLINE
  5
124
330
1F
100
AcDbEntity
  8
0
  6
Continuous
 62
     7
370
    25
100
AcDbSpline
210
0.0
220
0.0
230
1.0
 70
     8
 71
     3
 72
    20
 73
    16
 74
     0
 42
0.00000001
 43
0.00000001
 40
0.0
 40
0.0
 40
0.0
 40
0.0
 40
0.1220208336415358
 40
0.2292653365593428
 40
0.3365098394771504
 40
0.4437543423949567
 40
0.5509988453127631
 40
0.6040432035165522
 40
0.6570875617203413
 40
0.7101319199241298
 40
0.7631762781279182
 40
0.8162206363317065
 40
0.8692649945354949
 40
0.9223093527392834
 40
1.0
 40
1.0
 40
1.0
 40
1.0
 10
15.09054612740726
 20
4.988222932437572
 30
0.0
 10
15.08253646573345
 20
4.989116673473615
 30
0.0
 10
15.06748708666784
 20
4.990795926379125
 30
0.0
 10
15.0484628593786
 20
5.003000777041745
 30
0.0
 10
15.03500690720493
 20
5.019512560929154
 30
0.0
 10
15.02781169734204
 20
5.039676593879372
 30
0.0
 10
15.02772256770515
 20
5.057482144348875
 30
0.0
 10
15.03113253255704
 20
5.071028417159812
 30
0.0
 10
15.03531225382315
 20
5.080583704019164
 30
0.0
 10
15.0410160746301
 20
5.089313228990014
 30
0.0
 10
15.04808590864604
 20
5.096976348324291
 30
0.0
 10
15.05632655053208
 20
5.103374028269192
 30
0.0
 10
15.06551231826001
 20
5.108280381772195
 30
0.0
 10
15.0769124968609
 20
5.112282150143641
 30
0.0
 10
15.08546419258873
 20
5.112872255904279
 30
0.0
 10
15.09054612740726
 20
5.113222932437572
 30
0.0
  0
LINE
  5
125
330
1F
100
AcDbEntity
  8
0
  6
Continuous
 62
     7
370
    25
100
AcDbLine
 10
16.1555461274
 20
4.9882229324
 30
0.0
 11
15.0905461274
 21
4.9882229324
 31
0.0
  0
SPLINE
  5
126
330
1F
100
AcDbEntity
  8
0
  6
Continuous
 62
     7
370
    25
100
AcDbSpline
210
0.0
220
0.0
230
1.0
 70
     8
 71
     3
 72
    25
 73
    21
 74
     0
 42
0.00000001
 43
0.00000001
 40
0.0
 40
0.0
 40
0.0
 40
0.0
 40
0.0600333226356736
 40
0.1129709835186547
 40
0.1659086444016352
 40
0.2188463052846157
 40
0.2717839661675955
 40
0.3247216270505757
 40
0.3776592879335562
 40
0.4305969488165362
 40
0.4835346096995161
 40
0.5364722705824957
 40
0.5894099314654764
 40
0.6423475923484566
 40
0.6952852532314368
 40
0.7482229141144169
 40
0.8011605749973971
 40
0.8540982358803767
 40
0.9070358967633565
 40
1.0
 40
1.0
 40
1.0
 40
1.0
 10
16.15554612740726
 20
5.113222932437572
 30
0.0
 10
16.15947595309598
 20
5.113010128792802
 30
0.0
 10
16.16687111720852
 20
5.112609673912235
 30
0.0
 10
16.17736379850282
 20
5.109577031429303
 30
0.0
 10
16.18680736662215
 20
5.105182021324102
 30
0.0
 10
16.195388331124
 20
5.099249798825863
 30
0.0
 10
16.2028704943349
 20
5.091988559651372
 30
0.0
 10
16.20904736021993
 20
5.083586634371861
 30
0.0
 10
16.21374859669417
 20
5.074278959602015
 30
0.0
 10
16.21684452802142
 20
5.064321397502214
 30
0.0
 10
16.21824976694296
 20
5.053988815658116
 30
0.0
 10
16.21792555338212
 20
5.043566158864319
 30
0.0
 10
16.21588083357203
 20
5.033340841034536
 30
0.0
 10
16.21217198940957
 20
5.023595160632117
 30
0.0
 10
16.2069013688811
 20
5.01459689263396
 30
0.0
 10
16.20021414500265
 20
5.006598047680642
 30
0.0
 10
16.19229549888933
 20
4.999804964151076
 30
0.0
 10
16.18336108181859
 20
4.994458300840548
 30
0.0
 10
16.17122450468563
 20
4.989510659455248
 30
0.0
 10
16.16164798825503
 20
4.988724102356643
 30
0.0
 10
16.15554612740726
 20
4.988222932437572
 30
0.0
  0
LINE
  5
127
330
1F
100
AcDbEntity
  8
0
  6
Continuous
 62
     7
370
    25
100
AcDbLine
 10
16.1555461274
 20
4.8007229324
 30
0.0
 11
15.0905461274
 21
4.8007229324
 31
0.0
  0
SPLINE
  5
128
330
1F
100
AcDbEntity
  8
0
  6
Continuous
 62
     7
370
    25
100
AcDbSpline
210
0.0
220
0.0
230
1.0
 70
     8
 71
     3
 72
    25
 73
    21
 74
     0
 42
0.00000001
 43
0.00000001
 40
0.0
 40
0.0
 40
0.0
 40
0.0
 40
0.0600333226356737
 40
0.1129709835186548
 40
0.165908644401636
 40
0.2188463052846164
 40
0.2717839661675964
 40
0.3247216270505766
 40
0.3776592879335569
 40
0.4305969488165364
 40
0.4835346096995161
 40
0.5364722705824965
 40
0.5894099314654757
 40
0.6423475923484553
 40
0.6952852532314352
 40
0.7482229141144151
 40
0.8011605749973949
 40
0.8540982358803749
 40
0.9070358967633546
 40
1.0
 40
1.0
 40
1.0
 40
1.0
 10
16.15554612740726
 20
4.925722932437572
 30
0.0
 10
16.15947595309598
 20
4.925510128792802
 30
0.0
 10
16.16687111720852
 20
4.925109673912235
 30
0.0
 10
16.17736379850282
 20
4.922077031429303
 30
0.0
 10
16.18680736662215
 20
4.917682021324103
 30
0.0
 10
16.195388331124
 20
4.911749798825863
 30
0.0
 10
16.2028704943349
 20
4.904488559651373
 30
0.0
 10
16.20904736021993
 20
4.896086634371861
 30
0.0
 10
16.21374859669417
 20
4.886778959602016
 30
0.0
 10
16.21684452802142
 20
4.876821397502214
 30
0.0
 10
16.21824976694296
 20
4.866488815658116
 30
0.0
 10
16.21792555338212
 20
4.856066158864319
 30
0.0
 10
16.21588083357203
 20
4.845840841034536
 30
0.0
 10
16.21217198940957
 20
4.836095160632117
 30
0.0
 10
16.2069013688811
 20
4.82709689263396
 30
0.0
 10
16.20021414500265
 20
4.819098047680642
 30
0.0
 10
16.19229549888933
 20
4.812304964151077
 30
0.0
 10
16.18336108181859
 20
4.806958300840548
 30
0.0
 10
16.17122450468563
 20
4.802010659455249
 30
0.0
 10
16.16164798825503
 20
4.801224102356644
 30
0.0
 10
16.15554612740726
 20
4.800722932437572
 30
0.0
  0
LINE
  5
129
330
1F
100
AcDbEntity
  8
0
  6
Continuous
 62
     7
370
    25
100
AcDbLine
 10
15.0905461274
 20
4.9257229324
 30
0.0
 11
16.1555461274
 21
4.9257229324
 31
0.0
  0
SPLINE
  5
12A
330
1F
100
AcDbEntity
  8
0
  6
Continuous
 62
     7
370
    25
100
AcDbSpline
210
0.0
220
0.0
230
1.0
 70
     8
 71
     3
 72
    20
 73
    16
 74
     0
 42
0.00000001
 43
0.00000001
 40
0.0
 40
0.0
 40
0.0
 40
0.0
 40
0.1220208336415359
 40
0.2292653365593428
 40
0.3365098394771497
 40
0.4437543423949566
 40
0.5509988453127637
 40
0.6040432035165519
 40
0.6570875617203404
 40
0.7101319199241284
 40
0.7631762781279163
 40
0.8162206363317039
 40
0.8692649945354917
 40
0.9223093527392794
 40
1.0
 40
1.0
 40
1.0
 40
1.0
 10
15.09054612740726
 20
4.800722932437572
 30
0.0
 10
15.08253646573345
 20
4.801616673473616
 30
0.0
 10
15.06748708666784
 20
4.803295926379126
 30
0.0
 10
15.0484628593786
 20
4.815500777041745
 30
0.0
 10
15.03500690720493
 20
4.832012560929154
 30
0.0
 10
15.02781169734204
 20
4.852176593879372
 30
0.0
 10
15.02772256770515
 20
4.869982144348876
 30
0.0
 10
15.03113253255704
 20
4.883528417159812
 30
0.0
 10
15.03531225382315
 20
4.893083704019163
 30
0.0
 10
15.0410160746301
 20
4.901813228990013
 30
0.0
 10
15.04808590864604
 20
4.909476348324292
 30
0.0
 10
15.05632655053207
 20
4.915874028269192
 30
0.0
 10
15.06551231826001
 20
4.920780381772195
 30
0.0
 10
15.0769124968609
 20
4.924782150143641
 30
0.0
 10
15.08546419258873
 20
4.925372255904279
 30
0.0
 10
15.09054612740726
 20
4.925722932437572
 30
0.0
  0
LINE
  5
12B
330
1F
100
AcDbEntity
  8
0
  6
Continuous
 62
     7
370
    25
100
AcDbLine
 10
15.0905461274
 20
4.7382229324
 30
0.0
 11
16.1555461274
 21
4.7382229324
 31
0.0
  0
SPLINE
  5
12C
330
1F
100
AcDbEntity
  8
0
  6
Continuous
 62
     7
370
    25
100
AcDbSpline
210
0.0
220
0.0
230
1.0
 70
     8
 71
     3
 72
    20
 73
    16
 74
     0
 42
0.00000001
 43
0.00000001
 40
0.0
 40
0.0
 40
0.0
 40
0.0
 40
0.1220208336415362
 40
0.229265336559343
 40
0.3365098394771497
 40
0.4437543423949559
 40
0.5509988453127622
 40
0.6040432035165518
 40
0.6570875617203394
 40
0.7101319199241278
 40
0.7631762781279161
 40
0.8162206363317037
 40
0.8692649945354918
 40
0.9223093527392794
 40
1.0
 40
1.0
 40
1.0
 40
1.0
 10
15.09054612740726
 20
4.613222932437573
 30
0.0
 10
15.08253646573345
 20
4.614116673473616
 30
0.0
 10
15.06748708666784
 20
4.615795926379126
 30
0.0
 10
15.0484628593786
 20
4.628000777041746
 30
0.0
 10
15.03500690720493
 20
4.644512560929155
 30
0.0
 10
15.02781169734204
 20
4.664676593879372
 30
0.0
 10
15.02772256770515
 20
4.682482144348876
 30
0.0
 10
15.03113253255704
 20
4.696028417159813
 30
0.0
 10
15.03531225382315
 20
4.705583704019164
 30
0.0
 10
15.0410160746301
 20
4.714313228990014
 30
0.0
 10
15.04808590864604
 20
4.721976348324293
 30
0.0
 10
15.05632655053207
 20
4.728374028269193
 30
0.0
 10
15.06551231826001
 20
4.733280381772196
 30
0.0
 10
15.0769124968609
 20
4.737282150143641
 30
0.0
 10
15.08546419258873
 20
4.73787225590428
 30
0.0
 10
15.09054612740726
 20
4.738222932437573
 30
0.0
  0
LINE
  5
12D
330
1F
100
AcDbEntity
  8
0
  6
Continuous
 62
     7
370
    25
100
AcDbLine
 10
16.1555461274
 20
4.6132229324
 30
0.0
 11
15.0905461274
 21
4.6132229324
 31
0.0
  0
SPLINE
  5
12E
330
1F
100
AcDbEntity
  8
0
  6
Continuous
 62
     7
370
    25
100
AcDbSpline
210
0.0
220
0.0
230
1.0
 70
     8
 71
     3
 72
    25
 73
    21
 74
     0
 42
0.00000001
 43
0.00000001
 40
0.0
 40
0.0
 40
0.0
 40
0.0
 40
0.0600333226356735
 40
0.1129709835186545
 40
0.1659086444016354
 40
0.2188463052846157
 40
0.2717839661675962
 40
0.3247216270505763
 40
0.3776592879335567
 40
0.4305969488165366
 40
0.4835346096995163
 40
0.5364722705824966
 40
0.5894099314654766
 40
0.6423475923484568
 40
0.695285253231437
 40
0.7482229141144173
 40
0.8011605749973975
 40
0.8540982358803774
 40
0.9070358967633573
 40
1.0
 40
1.0
 40
1.0
 40
1.0
 10
16.15554612740726
 20
4.738222932437573
 30
0.0
 10
16.15947595309598
 20
4.738010128792802
 30
0.0
 10
16.16687111720852
 20
4.737609673912236
 30
0.0
 10
16.17736379850282
 20
4.734577031429303
 30
0.0
 10
16.18680736662215
 20
4.730182021324103
 30
0.0
 10
16.195388331124
 20
4.724249798825864
 30
0.0
 10
16.2028704943349
 20
4.716988559651373
 30
0.0
 10
16.20904736021993
 20
4.708586634371862
 30
0.0
 10
16.21374859669417
 20
4.699278959602016
 30
0.0
 10
16.21684452802142
 20
4.689321397502215
 30
0.0
 10
16.21824976694296
 20
4.678988815658117
 30
0.0
 10
16.21792555338212
 20
4.66856615886432
 30
0.0
 10
16.21588083357203
 20
4.658340841034536
 30
0.0
 10
16.21217198940957
 20
4.648595160632118
 30
0.0
 10
16.2069013688811
 20
4.639596892633961
 30
0.0
 10
16.20021414500265
 20
4.631598047680642
 30
0.0
 10
16.19229549888933
 20
4.624804964151077
 30
0.0
 10
16.18336108181859
 20
4.619458300840549
 30
0.0
 10
16.17122450468563
 20
4.614510659455249
 30
0.0
 10
16.16164798825503
 20
4.613724102356644
 30
0.0
 10
16.15554612740726
 20
4.613222932437573
 30
0.0
  0
LINE
  5
12F
330
1F
100
AcDbEntity
  8
0
  6
Continuous
 62
     7
370
    25
100
AcDbLine
 10
16.1555461274
 20
4.2382229324
 30
0.0
 11
15.0905461274
 21
4.2382229324
 31
0.0
  0
SPLINE
  5
130
330
1F
100
AcDbEntity
  8
0
  6
Continuous
 62
     7
370
    25
100
AcDbSpline
210
0.0
220
0.0
230
1.0
 70
     8
 71
     3
 72
    25
 73
    21
 74
     0
 42
0.00000001
 43
0.00000001
 40
0.0
 40
0.0
 40
0.0
 40
0.0
 40
0.0600333226356732
 40
0.112970983518654
 40
0.1659086444016349
 40
0.2188463052846154
 40
0.2717839661675959
 40
0.3247216270505766
 40
0.377659287933557
 40
0.4305969488165373
 40
0.483534609699517
 40
0.5364722705824969
 40
0.5894099314654777
 40
0.6423475923484577
 40
0.6952852532314383
 40
0.7482229141144183
 40
0.8011605749973987
 40
0.8540982358803785
 40
0.9070358967633587
 40
1.0
 40
1.0
 40
1.0
 40
1.0
 10
16.15554612740726
 20
4.363222932437571
 30
0.0
 10
16.15947595309598
 20
4.363010128792801
 30
0.0
 10
16.16687111720852
 20
4.362609673912235
 30
0.0
 10
16.17736379850282
 20
4.359577031429302
 30
0.0
 10
16.18680736662215
 20
4.355182021324103
 30
0.0
 10
16.195388331124
 20
4.349249798825863
 30
0.0
 10
16.2028704943349
 20
4.341988559651372
 30
0.0
 10
16.20904736021993
 20
4.333586634371861
 30
0.0
 10
16.21374859669417
 20
4.324278959602015
 30
0.0
 10
16.21684452802142
 20
4.314321397502214
 30
0.0
 10
16.21824976694296
 20
4.303988815658115
 30
0.0
 10
16.21792555338212
 20
4.293566158864318
 30
0.0
 10
16.21588083357203
 20
4.283340841034536
 30
0.0
 10
16.21217198940957
 20
4.273595160632117
 30
0.0
 10
16.2069013688811
 20
4.264596892633959
 30
0.0
 10
16.20021414500265
 20
4.256598047680641
 30
0.0
 10
16.19229549888933
 20
4.249804964151076
 30
0.0
 10
16.18336108181859
 20
4.244458300840547
 30
0.0
 10
16.17122450468563
 20
4.239510659455248
 30
0.0
 10
16.16164798825503
 20
4.238724102356644
 30
0.0
 10
16.15554612740726
 20
4.238222932437572
 30
0.0
  0
LINE
  5
131
330
1F
100
AcDbEntity
  8
0
  6
Continuous
 62
     7
370
    25
100
AcDbLine
 10
15.0905461274
 20
4.3632229324
 30
0.0
 11
16.1555461274
 21
4.3632229324
 31
0.0
  0
SPLINE
  5
132
330
1F
100
AcDbEntity
  8
0
  6
Continuous
 62
     7
370
    25
100
AcDbSpline
210
0.0
220
0.0
230
1.0
 70
     8
 71
     3
 72
    20
 73
    16
 74
     0
 42
0.00000001
 43
0.00000001
 40
0.0
 40
0.0
 40
0.0
 40
0.0
 40
0.1220208336415362
 40
0.2292653365593432
 40
0.3365098394771496
 40
0.4437543423949565
 40
0.5509988453127644
 40
0.6040432035165534
 40
0.6570875617203406
 40
0.7101319199241282
 40
0.7631762781279156
 40
0.8162206363317026
 40
0.8692649945354893
 40
0.9223093527392764
 40
1.0
 40
1.0
 40
1.0
 40
1.0
 10
15.09054612740726
 20
4.238222932437572
 30
0.0
 10
15.08253646573345
 20
4.239116673473615
 30
0.0
 10
15.06748708666784
 20
4.240795926379125
 30
0.0
 10
15.0484628593786
 20
4.253000777041745
 30
0.0
 10
15.03500690720493
 20
4.269512560929154
 30
0.0
 10
15.02781169734204
 20
4.289676593879372
 30
0.0
 10
15.02772256770515
 20
4.307482144348875
 30
0.0
 10
15.03113253255704
 20
4.321028417159812
 30
0.0
 10
15.03531225382315
 20
4.330583704019163
 30
0.0
 10
15.0410160746301
 20
4.339313228990013
 30
0.0
 10
15.04808590864604
 20
4.346976348324291
 30
0.0
 10
15.05632655053207
 20
4.353374028269191
 30
0.0
 10
15.06551231826001
 20
4.358280381772195
 30
0.0
 10
15.0769124968609
 20
4.36228215014364
 30
0.0
 10
15.08546419258873
 20
4.362872255904279
 30
0.0
 10
15.09054612740726
 20
4.363222932437572
 30
0.0
  0
LINE
  5
133
330
1F
100
AcDbEntity
  8
0
  6
Continuous
 62
     7
370
    25
100
AcDbLine
 10
16.1555461274
 20
4.4257229324
 30
0.0
 11
15.0905461274
 21
4.4257229324
 31
0.0
  0
SPLINE
  5
134
330
1F
100
AcDbEntity
  8
0
  6
Continuous
 62
     7
370
    25
100
AcDbSpline
210
0.0
220
0.0
230
1.0
 70
     8
 71
     3
 72
    25
 73
    21
 74
     0
 42
0.00000001
 43
0.00000001
 40
0.0
 40
0.0
 40
0.0
 40
0.0
 40
0.060033322635673
 40
0.1129709835186537
 40
0.1659086444016344
 40
0.218846305284615
 40
0.2717839661675961
 40
0.3247216270505764
 40
0.3776592879335565
 40
0.4305969488165371
 40
0.4835346096995166
 40
0.5364722705824968
 40
0.5894099314654768
 40
0.6423475923484568
 40
0.6952852532314371
 40
0.7482229141144175
 40
0.8011605749973978
 40
0.8540982358803771
 40
0.9070358967633569
 40
1.0
 40
1.0
 40
1.0
 40
1.0
 10
16.15554612740726
 20
4.550722932437572
 30
0.0
 10
16.15947595309598
 20
4.550510128792801
 30
0.0
 10
16.16687111720852
 20
4.550109673912235
 30
0.0
 10
16.17736379850282
 20
4.547077031429303
 30
0.0
 10
16.18680736662215
 20
4.542682021324103
 30
0.0
 10
16.195388331124
 20
4.536749798825863
 30
0.0
 10
16.2028704943349
 20
4.529488559651372
 30
0.0
 10
16.20904736021993
 20
4.521086634371862
 30
0.0
 10
16.21374859669417
 20
4.511778959602015
 30
0.0
 10
16.21684452802142
 20
4.501821397502214
 30
0.0
 10
16.21824976694296
 20
4.491488815658115
 30
0.0
 10
16.21792555338212
 20
4.481066158864318
 30
0.0
 10
16.21588083357203
 20
4.470840841034536
 30
0.0
 10
16.21217198940957
 20
4.461095160632117
 30
0.0
 10
16.2069013688811
 20
4.45209689263396
 30
0.0
 10
16.20021414500265
 20
4.444098047680641
 30
0.0
 10
16.19229549888933
 20
4.437304964151076
 30
0.0
 10
16.18336108181859
 20
4.431958300840548
 30
0.0
 10
16.17122450468563
 20
4.427010659455248
 30
0.0
 10
16.16164798825503
 20
4.426224102356644
 30
0.0
 10
16.15554612740726
 20
4.425722932437572
 30
0.0
  0
LINE
  5
135
330
1F
100
AcDbEntity
  8
0
  6
Continuous
 62
     7
370
    25
100
AcDbLine
 10
15.0905461274
 20
4.5507229324
 30
0.0
 11
16.1555461274
 21
4.5507229324
 31
0.0
  0
SPLINE
  5
136
330
1F
100
AcDbEntity
  8
0
  6
Continuous
 62
     7
370
    25
100
AcDbSpline
210
0.0
220
0.0
230
1.0
 70
     8
 71
     3
 72
    20
 73
    16
 74
     0
 42
0.00000001
 43
0.00000001
 40
0.0
 40
0.0
 40
0.0
 40
0.0
 40
0.1220208336415361
 40
0.2292653365593429
 40
0.3365098394771499
 40
0.443754342394956
 40
0.550998845312763
 40
0.6040432035165524
 40
0.6570875617203394
 40
0.7101319199241267
 40
0.763176278127914
 40
0.816220636331701
 40
0.8692649945354882
 40
0.9223093527392756
 40
1.0
 40
1.0
 40
1.0
 40
1.0
 10
15.09054612740726
 20
4.425722932437572
 30
0.0
 10
15.08253646573345
 20
4.426616673473616
 30
0.0
 10
15.06748708666784
 20
4.428295926379125
 30
0.0
 10
15.0484628593786
 20
4.440500777041745
 30
0.0
 10
15.03500690720493
 20
4.457012560929154
 30
0.0
 10
15.02781169734204
 20
4.477176593879372
 30
0.0
 10
15.02772256770515
 20
4.494982144348875
 30
0.0
 10
15.03113253255704
 20
4.508528417159812
 30
0.0
 10
15.03531225382315
 20
4.518083704019163
 30
0.0
 10
15.0410160746301
 20
4.526813228990013
 30
0.0
 10
15.04808590864604
 20
4.534476348324291
 30
0.0
 10
15.05632655053207
 20
4.540874028269191
 30
0.0
 10
15.06551231826001
 20
4.545780381772194
 30
0.0
 10
15.0769124968609
 20
4.549782150143641
 30
0.0
 10
15.08546419258873
 20
4.550372255904279
 30
0.0
 10
15.09054612740726
 20
4.550722932437572
 30
0.0
  0
LINE
  5
137
330
1F
100
AcDbEntity
  8
0
  6
Continuous
 62
     7
370
    25
100
AcDbLine
 10
15.0905461274
 20
4.1757229324
 30
0.0
 11
16.1555461274
 21
4.1757229324
 31
0.0
  0
SPLINE
  5
138
330
1F
100
AcDbEntity
  8
0
  6
Continuous
 62
     7
370
    25
100
AcDbSpline
210
0.0
220
0.0
230
1.0
 70
     8
 71
     3
 72
    20
 73
    16
 74
     0
 42
0.00000001
 43
0.00000001
 40
0.0
 40
0.0
 40
0.0
 40
0.0
 40
0.1220208336415366
 40
0.2292653365593426
 40
0.3365098394771492
 40
0.4437543423949568
 40
0.5509988453127646
 40
0.6040432035165528
 40
0.6570875617203414
 40
0.7101319199241299
 40
0.7631762781279177
 40
0.8162206363317052
 40
0.8692649945354923
 40
0.9223093527392798
 40
1.0
 40
1.0
 40
1.0
 40
1.0
 10
15.09054612740726
 20
4.050722932437572
 30
0.0
 10
15.08253646573345
 20
4.051616673473615
 30
0.0
 10
15.06748708666784
 20
4.053295926379126
 30
0.0
 10
15.0484628593786
 20
4.065500777041745
 30
0.0
 10
15.03500690720493
 20
4.082012560929154
 30
0.0
 10
15.02781169734204
 20
4.102176593879372
 30
0.0
 10
15.02772256770515
 20
4.119982144348875
 30
0.0
 10
15.03113253255704
 20
4.133528417159812
 30
0.0
 10
15.03531225382315
 20
4.143083704019163
 30
0.0
 10
15.0410160746301
 20
4.151813228990013
 30
0.0
 10
15.04808590864604
 20
4.159476348324292
 30
0.0
 10
15.05632655053207
 20
4.165874028269192
 30
0.0
 10
15.06551231826001
 20
4.170780381772195
 30
0.0
 10
15.0769124968609
 20
4.17478215014364
 30
0.0
 10
15.08546419258873
 20
4.175372255904279
 30
0.0
 10
15.09054612740726
 20
4.175722932437572
 30
0.0
  0
LINE
  5
139
330
1F
100
AcDbEntity
  8
0
  6
Continuous
 62
     7
370
    25
100
AcDbLine
 10
16.1555461274
 20
4.0507229324
 30
0.0
 11
15.0905461274
 21
4.0507229324
 31
0.0
  0
SPLINE
  5
13A
330
1F
100
AcDbEntity
  8
0
  6
Continuous
 62
     7
370
    25
100
AcDbSpline
210
0.0
220
0.0
230
1.0
 70
     8
 71
     3
 72
    25
 73
    21
 74
     0
 42
0.00000001
 43
0.00000001
 40
0.0
 40
0.0
 40
0.0
 40
0.0
 40
0.0600333226356737
 40
0.1129709835186545
 40
0.1659086444016341
 40
0.2188463052846149
 40
0.2717839661675951
 40
0.3247216270505758
 40
0.3776592879335564
 40
0.4305969488165364
 40
0.4835346096995162
 40
0.5364722705824971
 40
0.5894099314654773
 40
0.642347592348457
 40
0.6952852532314376
 40
0.7482229141144177
 40
0.8011605749973981
 40
0.8540982358803783
 40
0.9070358967633583
 40
1.0
 40
1.0
 40
1.0
 40
1.0
 10
16.15554612740726
 20
4.175722932437572
 30
0.0
 10
16.15947595309598
 20
4.175510128792801
 30
0.0
 10
16.16687111720852
 20
4.175109673912235
 30
0.0
 10
16.17736379850282
 20
4.172077031429302
 30
0.0
 10
16.18680736662215
 20
4.167682021324103
 30
0.0
 10
16.195388331124
 20
4.161749798825863
 30
0.0
 10
16.2028704943349
 20
4.154488559651373
 30
0.0
 10
16.20904736021993
 20
4.146086634371861
 30
0.0
 10
16.21374859669417
 20
4.136778959602016
 30
0.0
 10
16.21684452802142
 20
4.126821397502214
 30
0.0
 10
16.21824976694296
 20
4.116488815658116
 30
0.0
 10
16.21792555338212
 20
4.106066158864318
 30
0.0
 10
16.21588083357203
 20
4.095840841034535
 30
0.0
 10
16.21217198940957
 20
4.086095160632117
 30
0.0
 10
16.2069013688811
 20
4.07709689263396
 30
0.0
 10
16.20021414500265
 20
4.069098047680641
 30
0.0
 10
16.19229549888933
 20
4.062304964151076
 30
0.0
 10
16.18336108181859
 20
4.056958300840547
 30
0.0
 10
16.17122450468563
 20
4.052010659455249
 30
0.0
 10
16.16164798825503
 20
4.051224102356644
 30
0.0
 10
16.15554612740726
 20
4.050722932437571
 30
0.0
  0
LINE
  5
13B
330
1F
100
AcDbEntity
  8
0
  6
Continuous
 62
     7
370
    25
100
AcDbLine
 10
16.1555461274
 20
3.8632229324
 30
0.0
 11
15.0905461274
 21
3.8632229324
 31
0.0
  0
SPLINE
  5
13C
330
1F
100
AcDbEntity
  8
0
  6
Continuous
 62
     7
370
    25
100
AcDbSpline
210
0.0
220
0.0
230
1.0
 70
     8
 71
     3
 72
    25
 73
    21
 74
     0
 42
0.00000001
 43
0.00000001
 40
0.0
 40
0.0
 40
0.0
 40
0.0
 40
0.0600333226356734
 40
0.1129709835186545
 40
0.1659086444016351
 40
0.2188463052846153
 40
0.2717839661675951
 40
0.3247216270505747
 40
0.3776592879335549
 40
0.4305969488165348
 40
0.483534609699514
 40
0.5364722705824936
 40
0.5894099314654729
 40
0.642347592348453
 40
0.6952852532314335
 40
0.7482229141144139
 40
0.8011605749973941
 40
0.8540982358803738
 40
0.9070358967633536
 40
1.0
 40
1.0
 40
1.0
 40
1.0
 10
16.15554612740726
 20
3.988222932437572
 30
0.0
 10
16.15947595309598
 20
3.988010128792801
 30
0.0
 10
16.16687111720852
 20
3.987609673912235
 30
0.0
 10
16.17736379850282
 20
3.984577031429302
 30
0.0
 10
16.18680736662215
 20
3.980182021324102
 30
0.0
 10
16.195388331124
 20
3.974249798825862
 30
0.0
 10
16.2028704943349
 20
3.966988559651373
 30
0.0
 10
16.20904736021993
 20
3.958586634371861
 30
0.0
 10
16.21374859669417
 20
3.949278959602016
 30
0.0
 10
16.21684452802142
 20
3.939321397502214
 30
0.0
 10
16.21824976694296
 20
3.928988815658115
 30
0.0
 10
16.21792555338212
 20
3.91856615886432
 30
0.0
 10
16.21588083357203
 20
3.908340841034537
 30
0.0
 10
16.21217198940957
 20
3.898595160632117
 30
0.0
 10
16.2069013688811
 20
3.88959689263396
 30
0.0
 10
16.20021414500265
 20
3.881598047680642
 30
0.0
 10
16.19229549888933
 20
3.874804964151076
 30
0.0
 10
16.18336108181859
 20
3.869458300840548
 30
0.0
 10
16.17122450468563
 20
3.864510659455248
 30
0.0
 10
16.16164798825503
 20
3.863724102356643
 30
0.0
 10
16.15554612740726
 20
3.863222932437572
 30
0.0
  0
LINE
  5
13D
330
1F
100
AcDbEntity
  8
0
  6
Continuous
 62
     7
370
    25
100
AcDbLine
 10
15.0905461274
 20
3.9882229324
 30
0.0
 11
16.1555461274
 21
3.9882229324
 31
0.0
  0
SPLINE
  5
13E
330
1F
100
AcDbEntity
  8
0
  6
Continuous
 62
     7
370
    25
100
AcDbSpline
210
0.0
220
0.0
230
1.0
 70
     8
 71
     3
 72
    20
 73
    16
 74
     0
 42
0.00000001
 43
0.00000001
 40
0.0
 40
0.0
 40
0.0
 40
0.0
 40
0.1220208336415359
 40
0.2292653365593426
 40
0.3365098394771495
 40
0.4437543423949565
 40
0.5509988453127644
 40
0.6040432035165527
 40
0.6570875617203414
 40
0.7101319199241299
 40
0.7631762781279182
 40
0.8162206363317063
 40
0.869264994535494
 40
0.9223093527392816
 40
1.0
 40
1.0
 40
1.0
 40
1.0
 10
15.09054612740726
 20
3.863222932437572
 30
0.0
 10
15.08253646573345
 20
3.864116673473615
 30
0.0
 10
15.06748708666784
 20
3.865795926379125
 30
0.0
 10
15.0484628593786
 20
3.878000777041745
 30
0.0
 10
15.03500690720493
 20
3.894512560929154
 30
0.0
 10
15.02781169734204
 20
3.914676593879372
 30
0.0
 10
15.02772256770515
 20
3.932482144348875
 30
0.0
 10
15.03113253255704
 20
3.946028417159812
 30
0.0
 10
15.03531225382315
 20
3.955583704019163
 30
0.0
 10
15.0410160746301
 20
3.964313228990013
 30
0.0
 10
15.04808590864604
 20
3.971976348324291
 30
0.0
 10
15.05632655053208
 20
3.978374028269192
 30
0.0
 10
15.06551231826001
 20
3.983280381772194
 30
0.0
 10
15.0769124968609
 20
3.98728215014364
 30
0.0
 10
15.08546419258873
 20
3.987872255904279
 30
0.0
 10
15.09054612740726
 20
3.988222932437572
 30
0.0
  0
LINE
  5
13F
330
1F
100
AcDbEntity
  8
0
  6
Continuous
 62
     7
370
    25
100
AcDbLine
 10
17.2434617356
 20
4.8710229324
 30
0.0
 11
17.3156305192
 21
4.8710229324
 31
0.0
  0
LINE
  5
140
330
1F
100
AcDbEntity
  8
0
  6
Continuous
 62
     7
370
    25
100
AcDbLine
 10
17.2073773438
 20
4.8085229324
 30
0.0
 11
17.2434617356
 21
4.8710229324
 31
0.0
  0
LINE
  5
141
330
1F
100
AcDbEntity
  8
0
  6
Continuous
 62
     7
370
    25
100
AcDbLine
 10
17.2434617356
 20
4.7460229324
 30
0.0
 11
17.2073773438
 21
4.8085229324
 31
0.0
  0
LINE
  5
142
330
1F
100
AcDbEntity
  8
0
  6
Continuous
 62
     7
370
    25
100
AcDbLine
 10
17.3156305192
 20
4.7460229324
 30
0.0
 11
17.2434617356
 21
4.7460229324
 31
0.0
  0
LINE
  5
143
330
1F
100
AcDbEntity
  8
0
  6
Continuous
 62
     7
370
    25
100
AcDbLine
 10
17.3517149111
 20
4.8085229324
 30
0.0
 11
17.3156305192
 21
4.7460229324
 31
0.0
  0
LINE
  5
144
330
1F
100
AcDbEntity
  8
0
  6
Continuous
 62
     7
370
    25
100
AcDbLine
 10
17.3156305192
 20
4.8710229324
 30
0.0
 11
17.3517149111
 21
4.8085229324
 31
0.0
  0
CIRCLE
  5
145
330
1F
100
AcDbEntity
  8
0
  6
Continuous
 62
     7
370
    25
100
AcDbCircle
 10
17.2795461274
 20
4.8085229324
 30
0.0
 40
0.2055000000000016
  0
ARC
  5
146
330
1F
100
AcDbEntity
  8
0
  6
Continuous
 62
     7
370
    25
100
AcDbCircle
 10
17.2795461274
 20
4.8085229324
 30
0.0
 40
0.0625000000000095
100
AcDbArc
 50
330.0
 51
30.0
  0
ARC
  5
147
330
1F
100
AcDbEntity
  8
0
  6
Continuous
 62
     7
370
    25
100
AcDbCircle
 10
17.2795461274
 20
4.8085229324
 30
0.0
 40
0.0624999999999973
100
AcDbArc
 50
210.0
 51
270.0
  0
ARC
  5
148
330
1F
100
AcDbEntity
  8
0
  6
Continuous
 62
     7
370
    25
100
AcDbCircle
 10
17.2795461274
 20
4.8085229324
 30
0.0
 40
0.0624999999999998
100
AcDbArc
 50
270.0
 51
330.0
  0
ARC
  5
149
330
1F
100
AcDbEntity
  8
0
  6
Continuous
 62
     7
370
    25
100
AcDbCircle
 10
17.2795461274
 20
4.8085229324
 30
0.0
 40
0.0625000000000095
100
AcDbArc
 50
30.0
 51
90.0
  0
ARC
  5
14A
330
1F
100
AcDbEntity
  8
0
  6
Continuous
 62
     7
370
    25
100
AcDbCircle
 10
17.2795461274
 20
4.8085229324
 30
0.0
 40
0.0624999999999946
100
AcDbArc
 50
150.0
 51
210.0
  0
ARC
  5
14B
330
1F
100
AcDbEntity
  8
0
  6
Continuous
 62
     7
370
    25
100
AcDbCircle
 10
17.2795461274
 20
4.8085229324
 30
0.0
 40
0.0625000000000036
100
AcDbArc
 50
90.0
 51
150.0
  0
LINE
  5
14C
330
1F
100
AcDbEntity
  8
0
  6
Continuous
 62
     7
370
    25
100
AcDbLine
 10
13.9304617356
 20
4.8710229324
 30
0.0
 11
14.0026305192
 21
4.8710229324
 31
0.0
  0
LINE
  5
14D
330
1F
100
AcDbEntity
  8
0
  6
Continuous
 62
     7
370
    25
100
AcDbLine
 10
13.8943773438
 20
4.8085229324
 30
0.0
 11
13.9304617356
 21
4.8710229324
 31
0.0
  0
LINE
  5
14E
330
1F
100
AcDbEntity
  8
0
  6
Continuous
 62
     7
370
    25
100
AcDbLine
 10
13.9304617356
 20
4.7460229324
 30
0.0
 11
13.8943773438
 21
4.8085229324
 31
0.0
  0
LINE
  5
14F
330
1F
100
AcDbEntity
  8
0
  6
Continuous
 62
     7
370
    25
100
AcDbLine
 10
14.0026305192
 20
4.7460229324
 30
0.0
 11
13.9304617356
 21
4.7460229324
 31
0.0
  0
LINE
  5
150
330
1F
100
AcDbEntity
  8
0
  6
Continuous
 62
     7
370
    25
100
AcDbLine
 10
14.0387149111
 20
4.8085229324
 30
0.0
 11
14.0026305192
 21
4.7460229324
 31
0.0
  0
LINE
  5
151
330
1F
100
AcDbEntity
  8
0
  6
Continuous
 62
     7
370
    25
100
AcDbLine
 10
14.0026305192
 20
4.8710229324
 30
0.0
 11
14.0387149111
 21
4.8085229324
 31
0.0
  0
CIRCLE
  5
152
330
1F
100
AcDbEntity
  8
0
  6
Continuous
 62
     7
370
    25
100
AcDbCircle
 10
13.9665461274
 20
4.8085229324
 30
0.0
 40
0.2055000000000016
  0
ARC
  5
153
330
1F
100
AcDbEntity
  8
0
  6
Continuous
 62
     7
370
    25
100
AcDbCircle
 10
13.9665461274
 20
4.8085229324
 30
0.0
 40
0.0625000000000065
100
AcDbArc
 50
30.0
 51
90.0
  0
ARC
  5
154
330
1F
100
AcDbEntity
  8
0
  6
Continuous
 62
     7
370
    25
100
AcDbCircle
 10
13.9665461274
 20
4.8085229324
 30
0.0
 40
0.0625000000000065
100
AcDbArc
 50
330.0
 51
30.0
  0
ARC
  5
155
330
1F
100
AcDbEntity
  8
0
  6
Continuous
 62
     7
370
    25
100
AcDbCircle
 10
13.9665461274
 20
4.8085229324
 30
0.0
 40
0.0625000000000003
100
AcDbArc
 50
270.0
 51
330.0
  0
ARC
  5
156
330
1F
100
AcDbEntity
  8
0
  6
Continuous
 62
     7
370
    25
100
AcDbCircle
 10
13.9665461274
 20
4.8085229324
 30
0.0
 40
0.0624999999999981
100
AcDbArc
 50
210.0
 51
270.0
  0
ARC
  5
157
330
1F
100
AcDbEntity
  8
0
  6
Continuous
 62
     7
370
    25
100
AcDbCircle
 10
13.9665461274
 20
4.8085229324
 30
0.0
 40
0.0624999999999981
100
AcDbArc
 50
150.0
 51
210.0
  0
ARC
  5
158
330
1F
100
AcDbEntity
  8
0
  6
Continuous
 62
     7
370
    25
100
AcDbCircle
 10
13.9665461274
 20
4.8085229324
 30
0.0
 40
0.0625000000000036
100
AcDbArc
 50
90.0
 51
150.0
  0
LINE
  5
159
330
1F
100
AcDbEntity
  8
0
  6
Continuous
 62
     7
370
    25
100
AcDbLine
 10
15.0905461274
 20
5.1132229324
 30
0.0
 11
15.0905461274
 21
4.9882229324
 31
0.0
  0
LINE
  5
15A
330
1F
100
AcDbEntity
  8
0
  6
Continuous
 62
     7
370
    25
100
AcDbLine
 10
15.0905461274
 20
4.9257229324
 30
0.0
 11
15.0905461274
 21
4.8007229324
 31
0.0
  0
LINE
  5
15B
330
1F
100
AcDbEntity
  8
0
  6
Continuous
 62
     7
370
    25
100
AcDbLine
 10
15.0905461274
 20
4.7382229324
 30
0.0
 11
15.0905461274
 21
4.6132229324
 31
0.0
  0
LINE
  5
15C
330
1F
100
AcDbEntity
  8
0
  6
Continuous
 62
     7
370
    25
100
AcDbLine
 10
15.0905461274
 20
4.1757229324
 30
0.0
 11
15.0905461274
 21
4.0507229324
 31
0.0
  0
LINE
  5
15D
330
1F
100
AcDbEntity
  8
0
  6
Continuous
 62
     7
370
    25
100
AcDbLine
 10
15.0905461274
 20
4.3632229324
 30
0.0
 11
15.0905461274
 21
4.2382229324
 31
0.0
  0
LINE
  5
15E
330
1F
100
AcDbEntity
  8
0
  6
Continuous
 62
     7
370
    25
100
AcDbLine
 10
15.0905461274
 20
5.4882229324
 30
0.0
 11
15.0905461274
 21
5.3632229324
 31
0.0
  0
LINE
  5
15F
330
1F
100
AcDbEntity
  8
0
  6
Continuous
 62
     7
370
    25
100
AcDbLine
 10
15.0905461274
 20
3.9882229324
 30
0.0
 11
15.0905461274
 21
3.8632229324
 31
0.0
  0
LINE
  5
160
330
1F
100
AcDbEntity
  8
0
  6
Continuous
 62
     7
370
    25
100
AcDbLine
 10
15.0905461274
 20
5.3007229324
 30
0.0
 11
15.0905461274
 21
5.1757229324
 31
0.0
  0
LINE
  5
161
330
1F
100
AcDbEntity
  8
0
  6
Continuous
 62
     7
370
    25
100
AcDbLine
 10
15.0905461274
 20
4.5507229324
 30
0.0
 11
15.0905461274
 21
4.4257229324
 31
0.0
  0
LINE
  5
162
330
1F
100
AcDbEntity
  8
0
  6
Continuous
 62
     7
370
    25
100
AcDbLine
 10
16.1555461274
 20
5.1132229324
 30
0.0
 11
16.1555461274
 21
4.9882229324
 31
0.0
  0
LINE
  5
163
330
1F
100
AcDbEntity
  8
0
  6
Continuous
 62
     7
370
    25
100
AcDbLine
 10
16.1555461274
 20
4.7382229324
 30
0.0
 11
16.1555461274
 21
4.6132229324
 31
0.0
  0
LINE
  5
164
330
1F
100
AcDbEntity
  8
0
  6
Continuous
 62
     7
370
    25
100
AcDbLine
 10
16.1555461274
 20
5.4882229324
 30
0.0
 11
16.1555461274
 21
5.3632229324
 31
0.0
  0
LINE
  5
165
330
1F
100
AcDbEntity
  8
0
  6
Continuous
 62
     7
370
    25
100
AcDbLine
 10
16.1555461274
 20
4.1757229324
 30
0.0
 11
16.1555461274
 21
4.0507229324
 31
0.0
  0
LINE
  5
166
330
1F
100
AcDbEntity
  8
0
  6
Continuous
 62
     7
370
    25
100
AcDbLine
 10
16.1555461274
 20
4.3632229324
 30
0.0
 11
16.1555461274
 21
4.2382229324
 31
0.0
  0
LINE
  5
167
330
1F
100
AcDbEntity
  8
0
  6
Continuous
 62
     7
370
    25
100
AcDbLine
 10
16.1555461274
 20
5.3007229324
 30
0.0
 11
16.1555461274
 21
5.1757229324
 31
0.0
  0
LINE
  5
168
330
1F
100
AcDbEntity
  8
0
  6
Continuous
 62
     7
370
    25
100
AcDbLine
 10
16.1555461274
 20
4.9257229324
 30
0.0
 11
16.1555461274
 21
4.8007229324
 31
0.0
  0
LINE
  5
169
330
1F
100
AcDbEntity
  8
0
  6
Continuous
 62
     7
370
    25
100
AcDbLine
 10
16.1555461274
 20
4.5507229324
 30
0.0
 11
16.1555461274
 21
4.4257229324
 31
0.0
  0
LINE
  5
16A
330
1F
100
AcDbEntity
  8
0
  6
Continuous
 62
     7
370
    25
100
AcDbLine
 10
16.1555461274
 20
3.9882229324
 30
0.0
 11
16.1555461274
 21
3.8632229324
 31
0.0
  0
DIMENSION
  5
16B
330
1F
100
AcDbEntity
  8
0
  6
Continuous
 62
     7
370
    18
100
AcDbDimension
  2
_D_4
 10
17.2795461274
 20
8.0959245072
 30
0.0
 11
15.6230461274
 21
8.0959245072
 31
0.0
 70
   160
  1
<> O.C.
 71
     2
 42
-1.0
  3
SLDDIMSTYLE2
100
AcDbAlignedDimension
 13
13.9665461274
 23
4.8085229324
 33
0.0
 14
17.2795461274
 24
4.8085229324
 34
0.0
100
AcDbRotatedDimension
  0
DIMENSION
  5
17E
330
1F
100
AcDbEntity
  8
0
  6
Continuous
 62
     7
370
    18
100
AcDbDimension
  2
_D_5
 10
18.1230461274
 20
9.070806397
 30
0.0
 11
15.6230461274
 21
9.070806397
 31
0.0
 70
   160
  1
<>
 71
     2
 42
-1.0
  3
SLDDIMSTYLE1
100
AcDbAlignedDimension
 13
13.1230461274
 23
7.3085229324
 33
0.0
 14
18.1230461274
 24
7.3085229324
 34
0.0
100
AcDbRotatedDimension
  0
DIMENSION
  5
192
330
1F
100
AcDbEntity
  8
0
  6
Continuous
 62
     7
370
    18
100
AcDbDimension
  2
_D_6
 10
12.3056445526
 20
2.3085229324
 30
0.0
 11
12.3056445526
 21
4.8085229324
 31
0.0
 70
   160
  1
<>
 71
     2
 42
-1.0
  3
SLDDIMSTYLE1
100
AcDbAlignedDimension
 13
13.1230461274
 23
7.3085229324
 33
0.0
 14
13.1230461274
 24
2.3085229324
 34
0.0
 50
90.0
100
AcDbRotatedDimension
  0
MTEXT
  5
1A6
330
1F
100
AcDbEntity
  8
0
  6
Continuous
 62
     7
370
     0
100
AcDbMText
 10
16.6891049682
 20
1.9098809823
 30
0.0
 40
0.25
 41
0.0
 71
     2
 72
     1
  1
THERMAL PROTECTOR
  7
SLDTEXTSTYLE0
 73
     1
 44
1.0
  0
MTEXT
  5
1A7
330
1F
100
AcDbEntity
  8
0
  6
Continuous
 62
     7
370
     0
100
AcDbMText
 10
16.7088096875
 20
1.5811408333
 30
0.0
 40
0.25
 41
0.0
 71
     2
 72
     1
  1
(OPTIONAL)
  7
SLDTEXTSTYLE0
 73
     1
 44
1.0
  0
LEADER
  5
1A8
330
1F
100
AcDbEntity
  8
0
  6
Continuous
 62
     7
370
     0
100
AcDbLeader
  3
SLDDIMSTYLE4
 76
     3
 10
19.0007487324
 20
3.8285229324
 30
0.0
 10
18.9950412938
 20
1.6271182926
 30
0.0
 10
18.4950412938
 20
1.6271182926
 30
0.0
  0
LINE
  5
1A9
330
1F
100
AcDbEntity
  8
0
  6
Continuous
 62
     7
370
    25
100
AcDbLine
 10
20.8326887722
 20
12.2749065986
 30
0.0
 11
19.6558105174
 21
12.9543039538
 31
0.0
  0
LINE
  5
1AA
330
1F
100
AcDbEntity
  8
0
  6
Continuous
 62
     7
370
    25
100
AcDbLine
 10
19.5608308383
 20
12.3825558495
 30
0.0
 11
20.642704213
 21
11.7580036442
 31
0.0
  0
LINE
  5
1AB
330
1F
100
AcDbEntity
  8
0
  6
Continuous
 62
     7
370
    25
100
AcDbLine
 10
20.8976834899
 20
12.199688564
 30
0.0
 11
20.8584887108
 21
12.2223152283
 31
0.0
  0
LINE
  5
1AC
330
1F
100
AcDbEntity
  8
0
  6
Continuous
 62
     7
370
    25
100
AcDbLine
 10
19.2066387067
 20
12.2752659142
 30
0.0
 11
19.2844204527
 21
12.2303634681
 31
0.0
  0
LINE
  5
1AD
330
1F
100
AcDbEntity
  8
0
  6
Continuous
 62
     7
370
    25
100
AcDbLine
 10
19.8093777873
 20
13.1397147736
 30
0.0
 11
19.7315960414
 21
13.1846172197
 31
0.0
  0
LINE
  5
1AE
330
1F
100
AcDbEntity
  8
0
  6
Continuous
 62
     7
370
    25
100
AcDbLine
 10
18.6103756302
 20
11.6723195004
 30
0.0
 11
19.4783495196
 21
12.2241542415
 31
0.0
  0
LINE
  5
1AF
330
1F
100
AcDbEntity
  8
0
  6
Continuous
 62
     7
370
    25
100
AcDbLine
 10
16.5541767892
 20
16.4627138882
 30
0.0
 11
15.3837037735
 21
15.8521701796
 31
0.0
  0
LINE
  5
1B0
330
1F
100
AcDbEntity
  8
0
  6
Continuous
 62
     7
370
    25
100
AcDbLine
 10
17.2333869728
 20
12.3095705103
 30
0.0
 11
17.2369225067
 21
12.3116115306
 31
0.0
  0
LINE
  5
1B1
330
1F
100
AcDbEntity
  8
0
  6
Continuous
 62
     7
370
    25
100
AcDbLine
 10
17.0314392072
 20
12.667557613
 30
0.0
 11
17.0279036733
 21
12.6655165927
 31
0.0
  0
LINE
  5
1B2
330
1F
100
AcDbEntity
  8
0
  6
Continuous
 62
     7
370
    25
100
AcDbLine
 10
17.278385667
 20
12.3856767216
 30
0.0
 11
17.2784415204
 21
12.3861643312
 31
0.0
  0
LINE
  5
1B3
330
1F
100
AcDbEntity
  8
0
  6
Continuous
 62
     7
370
    25
100
AcDbLine
 10
17.116763209
 20
12.6662297266
 30
0.0
 11
17.1163130183
 21
12.6664252032
 31
0.0
  0
LINE
  5
1B4
330
1F
100
AcDbEntity
  8
0
  6
Continuous
 62
     7
370
    25
100
AcDbLine
 10
14.8907422068
 20
13.6619505475
 30
0.0
 11
14.8942777407
 21
13.6639915678
 31
0.0
  0
LINE
  5
1B5
330
1F
100
AcDbEntity
  8
0
  6
Continuous
 62
     7
370
    25
100
AcDbLine
 10
14.6887944411
 20
14.0199376503
 30
0.0
 11
14.6852589072
 21
14.01789663
 31
0.0
  0
LINE
  5
1B6
330
1F
100
AcDbEntity
  8
0
  6
Continuous
 62
     7
370
    25
100
AcDbLine
 10
14.9357409009
 20
13.7380567588
 30
0.0
 11
14.9357967543
 21
13.7385443685
 31
0.0
  0
LINE
  5
1B7
330
1F
100
AcDbEntity
  8
0
  6
Continuous
 62
     7
370
    25
100
AcDbLine
 10
14.774118443
 20
14.0186097638
 30
0.0
 11
14.7736682523
 21
14.0188052405
 31
0.0
  0
LWPOLYLINE
  5
1B8
330
1F
100
AcDbEntity
  8
0
  6
Continuous
 62
     7
370
    25
100
AcDbPolyline
 90
       12
 70
   128
 43
0.0
 10
20.8584183031
 20
12.2113685722
 10
20.856136994
 20
12.2401061793
 10
20.8463467099
 20
12.2624258582
 10
20.8299028421
 20
12.2763775067
 10
20.8082421146
 20
12.2807421494
 10
20.7832570561
 20
12.2751384413
 10
20.7571306468
 20
12.2600559862
 10
20.7321455883
 20
12.2368125599
 10
20.7104848608
 20
12.2074389735
 10
20.694040993
 20
12.1745016393
 10
20.6842507089
 20
12.1408783391
 10
20.6819693998
 20
12.1095067884
  0
LWPOLYLINE
  5
1B9
330
1F
100
AcDbEntity
  8
0
  6
Continuous
 62
     7
370
    25
100
AcDbPolyline
 90
       27
 70
   128
 43
0.0
 10
20.6819693998
 20
12.1095067884
 10
20.6521681287
 20
12.0681255866
 10
20.627182178
 20
12.0231018795
 10
20.6080309472
 20
11.9762725852
 10
20.5954957854
 20
11.9295482876
 10
20.5900881136
 20
11.884835287
 10
20.5920285589
 20
11.843957825
 10
20.6012379532
 20
11.8085836571
 10
20.6173405633
 20
11.7801560108
 10
20.6396794203
 20
11.7598347029
 10
20.6673431233
 20
11.7484488206
 10
20.6992030236
 20
11.7464628955
 10
20.7339592719
 20
11.753957951
 10
20.7701938514
 20
11.7706281971
 10
20.806428431
 20
11.795793506
 10
20.8411846793
 20
11.8284271607
 10
20.8730445795
 20
11.8671977437
 10
20.9007082826
 20
11.9105234576
 10
20.9230471396
 20
11.9566366608
 10
20.9391497497
 20
12.003655985
 10
20.948359144
 20
12.0496630932
 10
20.9502995893
 20
12.0927809457
 10
20.9448919175
 20
12.1312503813
 10
20.9323567557
 20
12.1635018891
 10
20.9132055248
 20
12.188219643
 10
20.8882195742
 20
12.2043951854
 10
20.8584183031
 20
12.2113685722
  0
LINE
  5
1BA
330
1F
100
AcDbEntity
  8
0
  6
Continuous
 62
     7
370
    25
100
AcDbLine
 10
20.6819693998
 20
12.1095067884
 30
0.0
 11
19.4586746683
 21
12.8156998052
 31
0.0
  0
ARC
  5
1BB
330
1F
100
AcDbEntity
  8
0
  6
Continuous
 62
     7
370
    25
100
AcDbCircle
 10
19.6508181437
 20
12.8137701951
 30
0.0
 40
0.1921531642931927
100
AcDbArc
 50
133.4727873638
 51
179.4246237333
  0
LINE
  5
1BC
330
1F
100
AcDbEntity
  8
0
  6
Continuous
 62
     7
370
    25
100
AcDbLine
 10
19.6092185114
 20
12.9009116004
 30
0.0
 11
19.5186148487
 21
12.9532159815
 31
0.0
  0
ELLIPSE
  5
1BD
330
1F
100
AcDbEntity
  8
0
  6
Continuous
 62
     7
370
    25
100
AcDbEllipse
 10
19.7019186836
 20
12.7833526184
 30
0.0
 11
-0.06034204352399897
 21
0.1450980612726038
 31
0.0
210
0.0
220
0.0
230
1.0
 40
0.6463005949
 41
6.041385109394642
 42
6.692844083989517
  0
ELLIPSE
  5
1BE
330
1F
100
AcDbEntity
  8
0
  6
Continuous
 62
     7
370
    25
100
AcDbEllipse
 10
19.827022191
 20
12.5233275141
 30
0.0
 11
0.2919796755316533
 21
0.1127494522241292
 31
0.0
210
0.0
220
0.0
230
1.0
 40
0.3832768703
 41
3.283816221520758
 42
3.441410751789705
  0
LINE
  5
1BF
330
1F
100
AcDbEntity
  8
0
  6
Continuous
 62
     7
370
    25
100
AcDbLine
 10
19.4314725199
 20
12.4608816253
 30
0.0
 11
19.5441159436
 21
12.395853961
 31
0.0
  0
ELLIPSE
  5
1C0
330
1F
100
AcDbEntity
  8
0
  6
Continuous
 62
     7
370
    25
100
AcDbEllipse
 10
19.827022191
 20
12.5233275141
 30
0.0
 11
0.3178894977984577
 21
0.0414034178060625
 31
0.0
210
0.0
220
0.0
230
1.0
 40
0.6463532555
 41
2.900093338936029
 42
3.215119871349707
  0
LINE
  5
1C1
330
1F
100
AcDbEntity
  8
0
  6
Continuous
 62
     7
370
    25
100
AcDbLine
 10
19.3688190818
 20
12.6148973355
 30
0.0
 11
19.5119575081
 21
12.5322652809
 31
0.0
  0
ARC
  5
1C2
330
1F
100
AcDbEntity
  8
0
  6
Continuous
 62
     7
370
    25
100
AcDbCircle
 10
19.7399994378
 20
12.5634823583
 30
0.0
 40
0.3747243741485251
100
AcDbArc
 50
154.7860592252
 51
172.1137143324
  0
LINE
  5
1C3
330
1F
100
AcDbEntity
  8
0
  6
Continuous
 62
     7
370
    25
100
AcDbLine
 10
19.4009775174
 20
12.7231147299
 30
0.0
 11
19.5441159436
 21
12.6404826753
 31
0.0
  0
ELLIPSE
  5
1C4
330
1F
100
AcDbEntity
  8
0
  6
Continuous
 62
     7
370
    25
100
AcDbEllipse
 10
19.827022191
 20
12.5233275141
 30
0.0
 11
0.266194762413118
 21
-0.1537109472412492
 31
0.0
210
0.0
220
0.0
230
1.0
 40
0.829573409
 41
2.984133912578132
 42
3.299160444991803
  0
ARC
  5
1C5
330
1F
100
AcDbEntity
  8
0
  6
Continuous
 62
     7
370
    25
100
AcDbCircle
 10
19.7851073413
 20
12.5494239068
 30
0.0
 40
0.4212613725778849
100
AcDbArc
 50
140.7953722293
 51
144.7759972787
  0
LINE
  5
1C6
330
1F
100
AcDbEntity
  8
0
  6
Continuous
 62
     7
370
    25
100
AcDbLine
 10
19.9110591123
 20
12.8626025771
 30
0.0
 11
19.9110591123
 21
12.9279258421
 31
0.0
  0
LINE
  5
1C7
330
1F
100
AcDbEntity
  8
0
  6
Continuous
 62
     7
370
    25
100
AcDbLine
 10
19.9110591123
 20
12.9279258421
 30
0.0
 11
19.8332036214
 21
12.8829808239
 31
0.0
  0
LINE
  5
1C8
330
1F
100
AcDbEntity
  8
0
  6
Continuous
 62
     7
370
    25
100
AcDbLine
 10
19.82439912
 20
13.1194926949
 30
0.0
 11
19.78439912
 21
13.14259171
 31
0.0
  0
LINE
  5
1C9
330
1F
100
AcDbEntity
  8
0
  6
Continuous
 62
     7
370
    25
100
AcDbLine
 10
19.78439912
 20
13.14259171
 30
0.0
 11
19.6707213829
 21
12.9456960943
 31
0.0
  0
LINE
  5
1CA
330
1F
100
AcDbEntity
  8
0
  6
Continuous
 62
     7
370
    25
100
AcDbLine
 10
19.5751833912
 20
13.1218858012
 30
0.0
 11
19.5186148487
 21
13.0892294767
 31
0.0
  0
LINE
  5
1CB
330
1F
100
AcDbEntity
  8
0
  6
Continuous
 62
     7
370
    25
100
AcDbLine
 10
19.5186148487
 20
12.9532159815
 30
0.0
 11
19.5186148487
 21
13.0892294767
 31
0.0
  0
LINE
  5
1CC
330
1F
100
AcDbEntity
  8
0
  6
Continuous
 62
     7
370
    25
100
AcDbLine
 10
19.30939912
 20
12.8683800468
 30
0.0
 11
19.26939912
 21
12.7990980147
 31
0.0
  0
LINE
  5
1CD
330
1F
100
AcDbEntity
  8
0
  6
Continuous
 62
     7
370
    25
100
AcDbLine
 10
19.26939912
 20
12.7990980147
 30
0.0
 11
19.4009775174
 21
12.7231147299
 31
0.0
  0
LINE
  5
1CE
330
1F
100
AcDbEntity
  8
0
  6
Continuous
 62
     7
370
    25
100
AcDbLine
 10
19.1827391277
 20
12.5074756645
 30
0.0
 11
19.3688190818
 21
12.6148973355
 31
0.0
  0
LINE
  5
1CF
330
1F
100
AcDbEntity
  8
0
  6
Continuous
 62
     7
370
    25
100
AcDbLine
 10
19.1827391277
 20
12.5074756645
 30
0.0
 11
19.1827391277
 21
12.4421523996
 31
0.0
  0
LINE
  5
1D0
330
1F
100
AcDbEntity
  8
0
  6
Continuous
 62
     7
370
    25
100
AcDbLine
 10
19.26939912
 20
12.2505855468
 30
0.0
 11
19.3889656954
 21
12.4576809296
 31
0.0
  0
LINE
  5
1D1
330
1F
100
AcDbEntity
  8
0
  6
Continuous
 62
     7
370
    25
100
AcDbLine
 10
19.26939912
 20
12.2505855468
 30
0.0
 11
19.30939912
 21
12.2274865316
 31
0.0
  0
LINE
  5
1D2
330
1F
100
AcDbEntity
  8
0
  6
Continuous
 62
     7
370
    25
100
AcDbLine
 10
19.5186148487
 20
12.2481924405
 30
0.0
 11
19.5186148487
 21
12.3381184061
 31
0.0
  0
LINE
  5
1D3
330
1F
100
AcDbEntity
  8
0
  6
Continuous
 62
     7
370
    25
100
AcDbLine
 10
19.5186148487
 20
12.2481924405
 30
0.0
 11
19.5751833912
 21
12.2808487649
 31
0.0
  0
LWPOLYLINE
  5
1D4
330
1F
100
AcDbEntity
  8
0
  6
Continuous
 62
     7
370
    25
100
AcDbPolyline
 90
        3
 70
   128
 43
0.0
 10
19.9181301801
 20
12.8993462502
 10
19.914517385
 20
12.8375993566
 10
19.9103218306
 20
12.8073777001
  0
LWPOLYLINE
  5
1D5
330
1F
100
AcDbEntity
  8
0
  6
Continuous
 62
     7
370
    25
100
AcDbPolyline
 90
       38
 70
   128
 43
0.0
 10
19.6519604854
 20
12.3345314816
 10
19.6113627171
 20
12.3000819091
 10
19.5598548971
 20
12.2640955482
 10
19.5080949078
 20
12.2363023751
 10
19.4570901982
 20
12.2172433523
 10
19.4078335172
 20
12.207289442
 10
19.3612835899
 20
12.2066343858
 10
19.3183464578
 20
12.2152909336
 10
19.2798578433
 20
12.2330905955
 10
19.2465668835
 20
12.2596869214
 10
19.2191215491
 20
12.294562244
 10
19.1980560322
 20
12.3370377549
 10
19.1837803492
 20
12.3862867165
 10
19.1765723601
 20
12.4413505538
 10
19.1765723601
 20
12.5011575119
 10
19.1837803492
 20
12.5645435164
 10
19.1980560322
 20
12.6302748307
 10
19.2191215491
 20
12.6970720696
 10
19.2465668835
 20
12.7636351009
 10
19.2798578433
 20
12.8286683508
 10
19.3183464578
 20
12.8909060212
 10
19.3612835899
 20
12.9491367265
 10
19.4078335172
 20
13.0022270723
 10
19.4570901982
 20
13.0491437154
 10
19.5080949078
 20
13.0889734768
 10
19.5598548971
 20
13.1209411154
 10
19.6113627171
 20
13.1444244175
 10
19.6616158264
 20
13.1589663073
 10
19.7096361055
 20
13.1642837435
 10
19.7544888944
 20
13.1602732283
 10
19.7953011843
 20
13.1470128218
 10
19.8312786107
 20
13.1247606226
 10
19.8617209138
 20
13.0939497447
 10
19.8860355687
 20
13.0551798865
 10
19.9037493184
 20
13.0092056594
 10
19.914517385
 20
12.9569218993
 10
19.9181301801
 20
12.8993462502
 10
19.9181301801
 20
12.8993462502
  0
LWPOLYLINE
  5
1D6
330
1F
100
AcDbEntity
  8
0
  6
Continuous
 62
     7
370
    25
100
AcDbPolyline
 90
       25
 70
   128
 43
0.0
 10
19.2066387067
 20
12.2752659142
 10
19.2020760974
 20
12.2779930417
 10
19.1687851376
 20
12.3045893676
 10
19.1413398031
 20
12.3394646902
 10
19.1202742863
 20
12.381940201
 10
19.1059986033
 20
12.4311891627
 10
19.0987906141
 20
12.486253
 10
19.0987906141
 20
12.5460599581
 10
19.1059986033
 20
12.6094459625
 10
19.1202742863
 20
12.6751772768
 10
19.1413398031
 20
12.7419745158
 10
19.1687851376
 20
12.8085375471
 10
19.2020760974
 20
12.873570797
 10
19.2405647119
 20
12.9358084673
 10
19.283501844
 20
12.9940391726
 10
19.3300517713
 20
13.0471295184
 10
19.3793084523
 20
13.0940461616
 10
19.4303131618
 20
13.1338759229
 10
19.4820731512
 20
13.1658435615
 10
19.5335809711
 20
13.1893268636
 10
19.5838340805
 20
13.2038687534
 10
19.6318543596
 20
13.2091861897
 10
19.6767071484
 20
13.2051756745
 10
19.7175194384
 20
13.1919152679
 10
19.7315960414
 20
13.1846172197
  0
LINE
  5
1D7
330
1F
100
AcDbEntity
  8
0
  6
Continuous
 62
     7
370
    25
100
AcDbLine
 10
19.30939912
 20
12.8683800468
 30
0.0
 11
19.5841159436
 21
12.7097647074
 31
0.0
  0
LINE
  5
1D8
330
1F
100
AcDbEntity
  8
0
  6
Continuous
 62
     7
370
    25
100
AcDbLine
 10
19.26939912
 20
12.7990980147
 30
0.0
 11
19.5441159436
 21
12.6404826753
 31
0.0
  0
LINE
  5
1D9
330
1F
100
AcDbEntity
  8
0
  6
Continuous
 62
     7
370
    25
100
AcDbLine
 10
19.1827391277
 20
12.5074756645
 30
0.0
 11
19.5119575081
 21
12.5322652809
 31
0.0
  0
LINE
  5
1DA
330
1F
100
AcDbEntity
  8
0
  6
Continuous
 62
     7
370
    25
100
AcDbLine
 10
19.1827391277
 20
12.4421523996
 30
0.0
 11
19.5119575081
 21
12.4669420159
 31
0.0
  0
LINE
  5
1DB
330
1F
100
AcDbEntity
  8
0
  6
Continuous
 62
     7
370
    25
100
AcDbLine
 10
19.5186148487
 20
13.0892294767
 30
0.0
 11
19.6092185114
 21
12.9009116004
 31
0.0
  0
LINE
  5
1DC
330
1F
100
AcDbEntity
  8
0
  6
Continuous
 62
     7
370
    25
100
AcDbLine
 10
19.5751833912
 20
13.1218858012
 30
0.0
 11
19.6657870539
 21
12.9335679248
 31
0.0
  0
LINE
  5
1DD
330
1F
100
AcDbEntity
  8
0
  6
Continuous
 62
     7
370
    25
100
AcDbLine
 10
19.26939912
 20
12.2505855468
 30
0.0
 11
19.5441159436
 21
12.395853961
 31
0.0
  0
LINE
  5
1DE
330
1F
100
AcDbEntity
  8
0
  6
Continuous
 62
     7
370
    25
100
AcDbLine
 10
19.30939912
 20
12.2274865316
 30
0.0
 11
19.5808238687
 21
12.3710141187
 31
0.0
  0
LINE
  5
1DF
330
1F
100
AcDbEntity
  8
0
  6
Continuous
 62
     7
370
    25
100
AcDbLine
 10
19.82439912
 20
13.1194926949
 30
0.0
 11
19.8343861723
 21
12.8512144225
 31
0.0
  0
LINE
  5
1E0
330
1F
100
AcDbEntity
  8
0
  6
Continuous
 62
     7
370
    25
100
AcDbLine
 10
19.78439912
 20
13.14259171
 30
0.0
 11
19.7943864579
 21
12.8743057661
 31
0.0
  0
LINE
  5
1E1
330
1F
100
AcDbEntity
  8
0
  6
Continuous
 62
     7
370
    25
100
AcDbLine
 10
19.5186148487
 20
12.2481924405
 30
0.0
 11
19.6243536078
 21
12.3458849352
 31
0.0
  0
LINE
  5
1E2
330
1F
100
AcDbEntity
  8
0
  6
Continuous
 62
     7
370
    25
100
AcDbLine
 10
19.5751833912
 20
12.2808487649
 30
0.0
 11
19.6374149585
 21
12.3383447779
 31
0.0
  0
LINE
  5
1E3
330
1F
100
AcDbEntity
  8
0
  6
Continuous
 62
     7
370
    25
100
AcDbLine
 10
19.9110591123
 20
12.8626025771
 30
0.0
 11
19.8999360423
 21
12.813373288
 31
0.0
  0
LINE
  5
1E4
330
1F
100
AcDbEntity
  8
0
  6
Continuous
 62
     7
370
    25
100
AcDbLine
 10
19.9110591123
 20
12.9279258421
 30
0.0
 11
19.8868796414
 21
12.8209105878
 31
0.0
  0
LINE
  5
1E5
330
1F
100
AcDbEntity
  8
0
  6
Continuous
 62
     7
370
    25
100
AcDbLine
 10
19.9355495827
 20
14.7327369615
 30
0.0
 11
19.7432283724
 21
14.621713596
 31
0.0
  0
LINE
  5
1E6
330
1F
100
AcDbEntity
  8
0
  6
Continuous
 62
     7
370
    25
100
AcDbLine
 10
19.9355495827
 20
12.7928140288
 30
0.0
 11
19.9355495827
 21
14.7327369615
 31
0.0
  0
ELLIPSE
  5
1E7
330
1F
100
AcDbEntity
  8
0
  6
Continuous
 62
     7
370
    25
100
AcDbEllipse
 10
19.4558182198
 20
13.92120183
 30
0.0
 11
0.1913211139093534
 21
0.3549790466869993
 31
0.0
210
0.0
220
0.0
230
1.0
 40
0.5568908039
 41
0.0
 42
6.283185307179586
  0
LINE
  5
1E8
330
1F
100
AcDbEntity
  8
0
  6
Continuous
 62
     7
370
    25
100
AcDbLine
 10
16.7604160375
 20
16.5657025415
 30
0.0
 11
16.5541767892
 21
16.4627138882
 31
0.0
  0
LINE
  5
1E9
330
1F
100
AcDbEntity
  8
0
  6
Continuous
 62
     7
370
    25
100
AcDbLine
 10
17.0822616718
 20
16.3799050116
 30
0.0
 11
16.7604160375
 21
16.5657025415
 31
0.0
  0
LINE
  5
1EA
330
1F
100
AcDbEntity
  8
0
  6
Continuous
 62
     7
370
    25
100
AcDbLine
 10
17.0822616718
 20
16.3799050116
 30
0.0
 11
17.1264558456
 21
16.3543922581
 31
0.0
  0
LINE
  5
1EB
330
1F
100
AcDbEntity
  8
0
  6
Continuous
 62
     7
370
    25
100
AcDbLine
 10
19.5695097746
 20
14.9440472449
 30
0.0
 11
17.1264558456
 21
16.3543922581
 31
0.0
  0
LINE
  5
1EC
330
1F
100
AcDbEntity
  8
0
  6
Continuous
 62
     7
370
    25
100
AcDbLine
 10
19.5695097746
 20
14.9440472449
 30
0.0
 11
19.6137039484
 21
14.9185344914
 31
0.0
  0
LINE
  5
1ED
330
1F
100
AcDbEntity
  8
0
  6
Continuous
 62
     7
370
    25
100
AcDbLine
 10
19.9355495827
 20
14.7327369615
 30
0.0
 11
19.6137039484
 21
14.9185344914
 31
0.0
  0
LINE
  5
1EE
330
1F
100
AcDbEntity
  8
0
  6
Continuous
 62
     7
370
    25
100
AcDbLine
 10
19.5916068615
 20
14.9568036217
 30
0.0
 11
19.5695097746
 21
14.9440472449
 31
0.0
  0
LINE
  5
1EF
330
1F
100
AcDbEntity
  8
0
  6
Continuous
 62
     7
370
    25
100
AcDbLine
 10
19.5916068615
 20
14.9568036217
 30
0.0
 11
19.6358010354
 21
14.9312908682
 31
0.0
  0
LINE
  5
1F0
330
1F
100
AcDbEntity
  8
0
  6
Continuous
 62
     7
370
    25
100
AcDbLine
 10
19.6358010354
 20
14.9312908682
 30
0.0
 11
19.6137039484
 21
14.9185344914
 31
0.0
  0
LINE
  5
1F1
330
1F
100
AcDbEntity
  8
0
  6
Continuous
 62
     7
370
    25
100
AcDbLine
 10
19.6358010354
 20
14.9312908682
 30
0.0
 11
19.6358010354
 21
14.9057781147
 31
0.0
  0
LINE
  5
1F2
330
1F
100
AcDbEntity
  8
0
  6
Continuous
 62
     7
370
    25
100
AcDbLine
 10
17.1043587587
 20
16.3926613883
 30
0.0
 11
17.0822616718
 21
16.3799050116
 31
0.0
  0
LINE
  5
1F3
330
1F
100
AcDbEntity
  8
0
  6
Continuous
 62
     7
370
    25
100
AcDbLine
 10
17.1043587587
 20
16.3926613883
 30
0.0
 11
17.1485529325
 21
16.3671486348
 31
0.0
  0
LINE
  5
1F4
330
1F
100
AcDbEntity
  8
0
  6
Continuous
 62
     7
370
    25
100
AcDbLine
 10
17.1485529325
 20
16.3671486348
 30
0.0
 11
17.1264558456
 21
16.3543922581
 31
0.0
  0
LINE
  5
1F5
330
1F
100
AcDbEntity
  8
0
  6
Continuous
 62
     7
370
    25
100
AcDbLine
 10
17.1485529325
 20
16.3671486348
 30
0.0
 11
17.1485529325
 21
16.3416358813
 31
0.0
  0
LINE
  5
1F6
330
1F
100
AcDbEntity
  8
0
  6
Continuous
 62
     7
370
    25
100
AcDbLine
 10
18.4073593887
 20
11.5904770704
 30
0.0
 11
17.9997327204
 21
11.3869225968
 31
0.0
  0
LINE
  5
1F7
330
1F
100
AcDbEntity
  8
0
  6
Continuous
 62
     7
370
    25
100
AcDbLine
 10
18.4073593887
 20
13.8505353578
 30
0.0
 11
17.9997327204
 21
13.6152149098
 31
0.0
  0
LINE
  5
1F8
330
1F
100
AcDbEntity
  8
0
  6
Continuous
 62
     7
370
    25
100
AcDbLine
 10
18.4146729258
 20
13.8632234446
 30
0.0
 11
18.4073593887
 21
13.8505353578
 31
0.0
  0
LINE
  5
1F9
330
1F
100
AcDbEntity
  8
0
  6
Continuous
 62
     7
370
    25
100
AcDbLine
 10
18.4146729258
 20
11.5856631691
 30
0.0
 11
18.4146729258
 21
13.8632234446
 31
0.0
  0
LINE
  5
1FA
330
1F
100
AcDbEntity
  8
0
  6
Continuous
 62
     7
370
    25
100
AcDbLine
 10
18.4073593887
 20
11.5904770704
 30
0.0
 11
18.4146729258
 21
11.5856631691
 31
0.0
  0
LINE
  5
1FB
330
1F
100
AcDbEntity
  8
0
  6
Continuous
 62
     7
370
    25
100
AcDbLine
 10
18.4073593887
 20
13.8505353578
 30
0.0
 11
17.9997327204
 21
14.0858532246
 31
0.0
  0
LINE
  5
1FC
330
1F
100
AcDbEntity
  8
0
  6
Continuous
 62
     7
370
    25
100
AcDbLine
 10
17.9997327204
 20
14.2211340392
 30
0.0
 11
18.5171874564
 21
13.9224137786
 31
0.0
  0
LINE
  5
1FD
330
1F
100
AcDbEntity
  8
0
  6
Continuous
 62
     7
370
    25
100
AcDbLine
 10
18.4146729258
 20
13.8632234446
 30
0.0
 11
18.5171874564
 21
13.9224137786
 31
0.0
  0
LINE
  5
1FE
330
1F
100
AcDbEntity
  8
0
  6
Continuous
 62
     7
370
    25
100
AcDbLine
 10
18.5171874564
 20
13.9224137786
 30
0.0
 11
18.5171874564
 21
11.5223395863
 31
0.0
  0
LINE
  5
1FF
330
1F
100
AcDbEntity
  8
0
  6
Continuous
 62
     7
370
    25
100
AcDbLine
 10
18.5171874564
 20
11.5223395863
 30
0.0
 11
18.4146729258
 21
11.5856631691
 31
0.0
  0
LINE
  5
200
330
1F
100
AcDbEntity
  8
0
  6
Continuous
 62
     7
370
    25
100
AcDbLine
 10
18.6103756302
 20
13.9759104497
 30
0.0
 11
18.5189006935
 21
13.9231025135
 31
0.0
  0
LINE
  5
201
330
1F
100
AcDbEntity
  8
0
  6
Continuous
 62
     7
370
    25
100
AcDbLine
 10
18.6103756302
 20
13.9759104497
 30
0.0
 11
18.6103756302
 21
11.5653521678
 31
0.0
  0
LINE
  5
202
330
1F
100
AcDbEntity
  8
0
  6
Continuous
 62
     7
370
    25
100
AcDbLine
 10
18.6103756302
 20
11.5653521678
 30
0.0
 11
18.5189006935
 21
11.51967279
 31
0.0
  0
LINE
  5
203
330
1F
100
AcDbEntity
  8
0
  6
Continuous
 62
     7
370
    25
100
AcDbLine
 10
18.5189006935
 20
13.9231025135
 30
0.0
 11
18.5189006935
 21
11.51967279
 31
0.0
  0
LINE
  5
204
330
1F
100
AcDbEntity
  8
0
  6
Continuous
 62
     7
370
    25
100
AcDbLine
 10
17.9997327204
 20
14.328427098
 30
0.0
 11
18.6103756302
 21
13.9759104497
 31
0.0
  0
LINE
  5
205
330
1F
100
AcDbEntity
  8
0
  6
Continuous
 62
     7
370
    25
100
AcDbLine
 10
17.9997327204
 20
14.2228118049
 30
0.0
 11
18.5189006935
 21
13.9231025135
 31
0.0
  0
LINE
  5
206
330
1F
100
AcDbEntity
  8
0
  6
Continuous
 62
     7
370
    25
100
AcDbLine
 10
18.5171874564
 20
11.5223395863
 30
0.0
 11
18.402961415
 21
11.5882808764
 31
0.0
  0
LINE
  5
207
330
1F
100
AcDbEntity
  8
0
  6
Continuous
 62
     7
370
    25
100
AcDbLine
 10
18.5189006935
 20
11.51967279
 30
0.0
 11
18.4014030984
 21
11.5875027078
 31
0.0
  0
LWPOLYLINE
  5
208
330
1F
100
AcDbEntity
  8
0
  6
Continuous
 62
     7
370
    25
100
AcDbPolyline
 90
        8
 70
   128
 43
0.0
 10
19.7309235751
 20
14.0183207768
 10
19.7364166275
 20
14.0608362761
 10
19.7373600182
 20
14.1155759317
 10
19.7307628108
 20
14.165435432
 10
19.7167958694
 20
14.209123442
 10
19.6958209307
 20
14.2455084653
 10
19.6683812343
 20
14.2736481488
 10
19.6524445677
 20
14.2843942783
  0
LINE
  5
209
330
1F
100
AcDbEntity
  8
0
  6
Continuous
 62
     7
370
    25
100
AcDbLine
 10
19.630364033
 20
13.9880203552
 30
0.0
 11
19.4778314973
 21
13.962730852
 31
0.0
  0
LINE
  5
20A
330
1F
100
AcDbEntity
  8
0
  6
Continuous
 62
     7
370
    25
100
AcDbLine
 10
19.4778314973
 20
13.962730852
 30
0.0
 11
19.5321852049
 21
14.1702475219
 31
0.0
  0
LINE
  5
20B
330
1F
100
AcDbEntity
  8
0
  6
Continuous
 62
     7
370
    25
100
AcDbLine
 10
19.5321852049
 20
14.1702475219
 30
0.0
 11
19.485559539
 21
14.1625171061
 31
0.0
  0
LINE
  5
20C
330
1F
100
AcDbEntity
  8
0
  6
Continuous
 62
     7
370
    25
100
AcDbLine
 10
19.485559539
 20
14.1625171061
 30
0.0
 11
19.4312058313
 21
13.9550004362
 31
0.0
  0
LINE
  5
20D
330
1F
100
AcDbEntity
  8
0
  6
Continuous
 62
     7
370
    25
100
AcDbLine
 10
19.4312058313
 20
13.9550004362
 30
0.0
 11
19.2786732956
 21
13.9297109331
 31
0.0
  0
LINE
  5
20E
330
1F
100
AcDbEntity
  8
0
  6
Continuous
 62
     7
370
    25
100
AcDbLine
 10
19.2786732956
 20
13.9297109331
 30
0.0
 11
19.2620586251
 21
13.8662778899
 31
0.0
  0
LINE
  5
20F
330
1F
100
AcDbEntity
  8
0
  6
Continuous
 62
     7
370
    25
100
AcDbLine
 10
19.2620586251
 20
13.8662778899
 30
0.0
 11
19.4145911609
 21
13.891567393
 31
0.0
  0
LINE
  5
210
330
1F
100
AcDbEntity
  8
0
  6
Continuous
 62
     7
370
    25
100
AcDbLine
 10
19.4145911609
 20
13.891567393
 30
0.0
 11
19.3602374532
 21
13.6840507231
 31
0.0
  0
LINE
  5
211
330
1F
100
AcDbEntity
  8
0
  6
Continuous
 62
     7
370
    25
100
AcDbLine
 10
19.3602374532
 20
13.6840507231
 30
0.0
 11
19.4068631191
 21
13.6917811389
 31
0.0
  0
LINE
  5
212
330
1F
100
AcDbEntity
  8
0
  6
Continuous
 62
     7
370
    25
100
AcDbLine
 10
19.4068631191
 20
13.6917811389
 30
0.0
 11
19.4612168268
 21
13.8992978088
 31
0.0
  0
LINE
  5
213
330
1F
100
AcDbEntity
  8
0
  6
Continuous
 62
     7
370
    25
100
AcDbLine
 10
19.4612168268
 20
13.8992978088
 30
0.0
 11
19.6137493626
 21
13.924587312
 31
0.0
  0
LINE
  5
214
330
1F
100
AcDbEntity
  8
0
  6
Continuous
 62
     7
370
    25
100
AcDbLine
 10
19.6137493626
 20
13.924587312
 30
0.0
 11
19.630364033
 21
13.9880203552
 31
0.0
  0
LINE
  5
215
330
1F
100
AcDbEntity
  8
0
  6
Continuous
 62
     7
370
    25
100
AcDbLine
 10
19.4117193521
 20
13.9278720927
 30
0.0
 11
19.4408435793
 21
13.9327008149
 31
0.0
  0
LINE
  5
216
330
1F
100
AcDbEntity
  8
0
  6
Continuous
 62
     7
370
    25
100
AcDbLine
 10
19.4040665725
 20
13.8986545947
 30
0.0
 11
19.4117193521
 21
13.9278720927
 31
0.0
  0
LINE
  5
217
330
1F
100
AcDbEntity
  8
0
  6
Continuous
 62
     7
370
    25
100
AcDbLine
 10
19.3868617872
 20
13.9075752197
 30
0.0
 11
19.4145911609
 21
13.891567393
 31
0.0
  0
LINE
  5
218
330
1F
100
AcDbEntity
  8
0
  6
Continuous
 62
     7
370
    25
100
AcDbLine
 10
19.4528500795
 20
13.9771523175
 30
0.0
 11
19.4778314973
 21
13.962730852
 31
0.0
  0
LINE
  5
219
330
1F
100
AcDbEntity
  8
0
  6
Continuous
 62
     7
370
    25
100
AcDbLine
 10
19.4117193521
 20
13.9278720927
 30
0.0
 11
19.4612168268
 21
13.8992978088
 31
0.0
  0
LINE
  5
21A
330
1F
100
AcDbEntity
  8
0
  6
Continuous
 62
     7
370
    25
100
AcDbLine
 10
19.6063451025
 20
13.9288617003
 30
0.0
 11
19.6137493626
 21
13.924587312
 31
0.0
  0
LINE
  5
21B
330
1F
100
AcDbEntity
  8
0
  6
Continuous
 62
     7
370
    25
100
AcDbLine
 10
19.399458859
 20
13.6960555273
 30
0.0
 11
19.4068631191
 21
13.6917811389
 31
0.0
  0
LINE
  5
21C
330
1F
100
AcDbEntity
  8
0
  6
Continuous
 62
     7
370
    25
100
AcDbLine
 10
19.4085847212
 20
13.8686354459
 30
0.0
 11
19.4253839658
 21
13.8863483255
 31
0.0
  0
LINE
  5
21D
330
1F
100
AcDbEntity
  8
0
  6
Continuous
 62
     7
370
    25
100
AcDbLine
 10
19.4253839658
 20
13.8863483255
 30
0.0
 11
19.4405131567
 21
13.8527964656
 31
0.0
  0
LINE
  5
21E
330
1F
100
AcDbEntity
  8
0
  6
Continuous
 62
     7
370
    25
100
AcDbLine
 10
19.4829367939
 20
13.9084009194
 30
0.0
 11
19.4711307491
 21
13.9345830701
 31
0.0
  0
LINE
  5
21F
330
1F
100
AcDbEntity
  8
0
  6
Continuous
 62
     7
370
    25
100
AcDbLine
 10
19.4711307491
 20
13.9345830701
 30
0.0
 11
19.5015574636
 21
13.9666645564
 31
0.0
  0
LINE
  5
220
330
1F
100
AcDbEntity
  8
0
  6
Continuous
 62
     7
370
    25
100
AcDbLine
 10
19.4808054147
 20
14.0066280173
 30
0.0
 11
19.4522301722
 21
13.9764986963
 31
0.0
  0
LINE
  5
221
330
1F
100
AcDbEntity
  8
0
  6
Continuous
 62
     7
370
    25
100
AcDbLine
 10
19.4522301722
 20
13.9764986963
 30
0.0
 11
19.4424928482
 21
13.9980930651
 31
0.0
  0
LINE
  5
222
330
1F
100
AcDbEntity
  8
0
  6
Continuous
 62
     7
370
    25
100
AcDbLine
 10
19.3969857242
 20
13.9493268302
 30
0.0
 11
19.4064833888
 21
13.9282639516
 31
0.0
  0
LINE
  5
223
330
1F
100
AcDbEntity
  8
0
  6
Continuous
 62
     7
370
    25
100
AcDbLine
 10
19.4064833888
 20
13.9282639516
 30
0.0
 11
19.3698648336
 21
13.8896538784
 31
0.0
  0
LINE
  5
224
330
1F
100
AcDbEntity
  8
0
  6
Continuous
 62
     7
370
    25
100
AcDbLine
 10
19.438858611
 20
13.9842179342
 30
0.0
 11
19.4522301722
 21
13.9764986963
 31
0.0
  0
LINE
  5
225
330
1F
100
AcDbEntity
  8
0
  6
Continuous
 62
     7
370
    25
100
AcDbLine
 10
19.3874816945
 20
13.908228841
 30
0.0
 11
19.4253839658
 21
13.8863483255
 31
0.0
  0
LINE
  5
226
330
1F
100
AcDbEntity
  8
0
  6
Continuous
 62
     7
370
    25
100
AcDbLine
 10
19.4318043956
 20
13.9572856908
 30
0.0
 11
19.4711307491
 21
13.9345830701
 31
0.0
  0
LINE
  5
227
330
1F
100
AcDbEntity
  8
0
  6
Continuous
 62
     7
370
    25
100
AcDbLine
 10
17.7310321435
 20
10.1041472135
 30
0.0
 11
14.1954982376
 21
12.145167493
 31
0.0
  0
LINE
  5
228
330
1F
100
AcDbEntity
  8
0
  6
Continuous
 62
     7
370
    25
100
AcDbLine
 10
14.1954982376
 20
12.145167493
 30
0.0
 11
14.1954982376
 21
16.2278715524
 31
0.0
  0
LINE
  5
229
330
1F
100
AcDbEntity
  8
0
  6
Continuous
 62
     7
370
    25
100
AcDbLine
 10
14.1954982376
 20
16.2278715524
 30
0.0
 11
17.7310321435
 21
14.1868512729
 31
0.0
  0
LINE
  5
22A
330
1F
100
AcDbEntity
  8
0
  6
Continuous
 62
     7
370
    25
100
AcDbLine
 10
17.7310321435
 20
14.1868512729
 30
0.0
 11
17.7310321435
 21
10.1041472135
 31
0.0
  0
ARC
  5
22B
330
1F
100
AcDbEntity
  8
0
  6
Continuous
 62
     7
370
    25
100
AcDbCircle
 10
14.6371347069
 20
13.7528305873
 30
0.0
 40
0.2990035361181178
100
AcDbArc
 50
357.261397595
 51
62.7332258723
  0
LWPOLYLINE
  5
22C
330
1F
100
AcDbEntity
  8
0
  6
Continuous
 62
     7
370
    25
100
AcDbPolyline
 90
       11
 70
   128
 43
0.0
 10
17.2795444637
 20
12.4061375329
 10
17.2759100919
 20
12.445483583
 10
17.2651892188
 20
12.4870528144
 10
17.2479194339
 20
12.5287607721
 10
17.2249667163
 20
12.5685160451
 10
17.1974820111
 20
12.6043251378
 10
17.1668435162
 20
12.634392433
 10
17.1345875736
 20
12.6572102308
 10
17.102331631
 20
12.6716343516
 10
17.0716931361
 20
12.6769415097
 10
17.0570199933
 20
12.6760072519
  0
ARC
  5
22D
330
1F
100
AcDbEntity
  8
0
  6
Continuous
 62
     7
370
    25
100
AcDbCircle
 10
17.1746601659
 20
12.3959031738
 30
0.0
 40
0.1053824370557474
100
AcDbArc
 50
313.1297803937
 51
5.5731418883
  0
LINE
  5
22E
330
1F
100
AcDbEntity
  8
0
  6
Continuous
 62
     7
370
    25
100
AcDbLine
 10
15.5867308296
 20
13.9383808326
 30
0.0
 11
16.3397995516
 21
13.503643513
 31
0.0
  0
SPLINE
  5
22F
330
1F
100
AcDbEntity
  8
0
  6
Continuous
 62
     7
370
    25
100
AcDbSpline
210
0.0
220
0.0
230
1.0
 70
     8
 71
     3
 72
    20
 73
    16
 74
     0
 42
0.00000001
 43
0.00000001
 40
0.0
 40
0.0
 40
0.0
 40
0.0
 40
0.1220208336415363
 40
0.2292653365593429
 40
0.336509839477149
 40
0.4437543423949554
 40
0.5509988453127621
 40
0.604043203516551
 40
0.6570875617203383
 40
0.710131919924126
 40
0.7631762781279139
 40
0.8162206363317013
 40
0.8692649945354886
 40
0.9223093527392761
 40
1.0
 40
1.0
 40
1.0
 40
1.0
 10
15.58673082958711
 20
13.83631323107239
 30
0.0
 10
15.58106714350255
 20
13.8403125834853
 30
0.0
 10
15.57042562551261
 20
13.84782697958966
 30
0.0
 10
15.55697346538956
 20
13.86555850499871
 30
0.0
 10
15.54745867036023
 20
13.88453382467326
 30
0.0
 10
15.54237088867412
 20
13.90393569435848
 30
0.0
 10
15.54230786450347
 20
13.9185110360742
 30
0.0
 10
15.54471907377385
 20
13.92818015919022
 30
0.0
 10
15.54767458302459
 20
13.93427626170674
 30
0.0
 10
15.55170779339585
 20
13.93907595232623
 30
0.0
 10
15.55670692097039
 20
13.9424472670891
 30
0.0
 10
15.56253393472933
 20
13.94430737042429
 30
0.0
 10
15.56902925338016
 20
13.94456394065383
 30
0.0
 10
15.57709039697559
 20
13.94317794870583
 30
0.0
 10
15.58313735901538
 20
13.94016895726171
 30
0.0
 10
15.58673082958711
 20
13.93838083255811
 30
0.0
  0
LINE
  5
230
330
1F
100
AcDbEntity
  8
0
  6
Continuous
 62
     7
370
    25
100
AcDbLine
 10
16.3397995516
 20
13.4015759115
 30
0.0
 11
15.5867308296
 21
13.8363132311
 31
0.0
  0
SPLINE
  5
231
330
1F
100
AcDbEntity
  8
0
  6
Continuous
 62
     7
370
    25
100
AcDbSpline
210
0.0
220
0.0
230
1.0
 70
     8
 71
     3
 72
    25
 73
    21
 74
     0
 42
0.00000001
 43
0.00000001
 40
0.0
 40
0.0
 40
0.0
 40
0.0
 40
0.0600333226356735
 40
0.1129709835186543
 40
0.1659086444016349
 40
0.2188463052846157
 40
0.2717839661675967
 40
0.3247216270505782
 40
0.3776592879335581
 40
0.4305969488165389
 40
0.4835346096995187
 40
0.536472270582498
 40
0.5894099314654789
 40
0.6423475923484592
 40
0.6952852532314389
 40
0.7482229141144191
 40
0.8011605749974001
 40
0.8540982358803807
 40
0.9070358967633613
 40
1.0
 40
1.0
 40
1.0
 40
1.0
 10
16.33979955155079
 20
13.50364351301252
 30
0.0
 10
16.34257835794417
 20
13.50186557936649
 30
0.0
 10
16.34780752863613
 20
13.49851985562831
 30
0.0
 10
16.35522697473215
 20
13.49176042421142
 30
0.0
 10
16.36190458578793
 20
13.48431681628329
 30
0.0
 10
16.36797224397631
 20
13.475970129995
 30
0.0
 10
16.37326293232069
 20
13.46698678249449
 30
0.0
 10
16.37763063607446
 20
13.45760484589826
 30
0.0
 10
16.38095491226537
 20
13.44808568578834
 30
0.0
 10
16.38314406630095
 20
13.43869115822236
 30
0.0
 10
16.38413772027156
 20
13.42968055922721
 30
0.0
 10
16.38390846666413
 20
13.42130237987731
 30
0.0
 10
16.38246263142079
 20
13.41378765347447
 30
0.0
 10
16.37984008256316
 20
13.40734387291616
 30
0.0
 10
16.37611319104641
 20
13.40214790853627
 30
0.0
 10
16.37138460969465
 20
13.39834627709391
 30
0.0
 10
16.3657852813301
 20
13.39603187061426
 30
0.0
 10
16.35946769443344
 20
13.39531316709928
 30
0.0
 10
16.35088583844232
 20
13.39622741599616
 30
0.0
 10
16.3441142187341
 20
13.39949433287275
 30
0.0
 10
16.33979955155079
 20
13.4015759115268
 30
0.0
  0
LINE
  5
232
330
1F
100
AcDbEntity
  8
0
  6
Continuous
 62
     7
370
    25
100
AcDbLine
 10
16.3397995516
 20
13.2484745093
 30
0.0
 11
15.5867308296
 21
13.6832118288
 31
0.0
  0
SPLINE
  5
233
330
1F
100
AcDbEntity
  8
0
  6
Continuous
 62
     7
370
    25
100
AcDbSpline
210
0.0
220
0.0
230
1.0
 70
     8
 71
     3
 72
    25
 73
    21
 74
     0
 42
0.00000001
 43
0.00000001
 40
0.0
 40
0.0
 40
0.0
 40
0.0
 40
0.0600333226356732
 40
0.1129709835186541
 40
0.1659086444016347
 40
0.2188463052846151
 40
0.2717839661675964
 40
0.3247216270505766
 40
0.3776592879335564
 40
0.4305969488165365
 40
0.4835346096995163
 40
0.5364722705824952
 40
0.5894099314654753
 40
0.6423475923484555
 40
0.6952852532314361
 40
0.748222914114416
 40
0.8011605749973956
 40
0.8540982358803749
 40
0.9070358967633545
 40
1.0
 40
1.0
 40
1.0
 40
1.0
 10
16.33979955155079
 20
13.35054211078394
 30
0.0
 10
16.34257835794417
 20
13.34876417713791
 30
0.0
 10
16.34780752863613
 20
13.34541845339974
 30
0.0
 10
16.35522697473215
 20
13.33865902198285
 30
0.0
 10
16.36190458578793
 20
13.33121541405471
 30
0.0
 10
16.36797224397631
 20
13.32286872776643
 30
0.0
 10
16.37326293232069
 20
13.31388538026591
 30
0.0
 10
16.37763063607447
 20
13.30450344366969
 30
0.0
 10
16.38095491226537
 20
13.29498428355976
 30
0.0
 10
16.38314406630095
 20
13.28558975599378
 30
0.0
 10
16.38413772027156
 20
13.27657915699863
 30
0.0
 10
16.38390846666413
 20
13.26820097764874
 30
0.0
 10
16.38246263142079
 20
13.26068625124589
 30
0.0
 10
16.37984008256316
 20
13.25424247068758
 30
0.0
 10
16.37611319104641
 20
13.24904650630769
 30
0.0
 10
16.37138460969465
 20
13.24524487486533
 30
0.0
 10
16.3657852813301
 20
13.24293046838568
 30
0.0
 10
16.35946769443344
 20
13.2422117648707
 30
0.0
 10
16.35088583844232
 20
13.24312601376758
 30
0.0
 10
16.3441142187341
 20
13.24639293064417
 30
0.0
 10
16.33979955155079
 20
13.24847450929822
 30
0.0
  0
LINE
  5
234
330
1F
100
AcDbEntity
  8
0
  6
Continuous
 62
     7
370
    25
100
AcDbLine
 10
15.5867308296
 20
13.7852794303
 30
0.0
 11
16.3397995516
 21
13.3505421108
 31
0.0
  0
SPLINE
  5
235
330
1F
100
AcDbEntity
  8
0
  6
Continuous
 62
     7
370
    25
100
AcDbSpline
210
0.0
220
0.0
230
1.0
 70
     8
 71
     3
 72
    20
 73
    16
 74
     0
 42
0.00000001
 43
0.00000001
 40
0.0
 40
0.0
 40
0.0
 40
0.0
 40
0.1220208336415363
 40
0.2292653365593433
 40
0.3365098394771496
 40
0.4437543423949559
 40
0.5509988453127637
 40
0.6040432035165526
 40
0.6570875617203406
 40
0.7101319199241283
 40
0.7631762781279161
 40
0.8162206363317043
 40
0.869264994535492
 40
0.9223093527392803
 40
1.0
 40
1.0
 40
1.0
 40
1.0
 10
15.58673082958711
 20
13.68321182884381
 30
0.0
 10
15.58106714350255
 20
13.68721118125673
 30
0.0
 10
15.57042562551261
 20
13.69472557736108
 30
0.0
 10
15.55697346538956
 20
13.71245710277013
 30
0.0
 10
15.54745867036023
 20
13.73143242244468
 30
0.0
 10
15.54237088867412
 20
13.75083429212991
 30
0.0
 10
15.54230786450347
 20
13.76540963384562
 30
0.0
 10
15.54471907377384
 20
13.77507875696164
 30
0.0
 10
15.54767458302459
 20
13.78117485947817
 30
0.0
 10
15.55170779339585
 20
13.78597455009765
 30
0.0
 10
15.55670692097039
 20
13.78934586486052
 30
0.0
 10
15.56253393472933
 20
13.79120596819572
 30
0.0
 10
15.56902925338016
 20
13.79146253842525
 30
0.0
 10
15.57709039697559
 20
13.79007654647726
 30
0.0
 10
15.58313735901538
 20
13.78706755503313
 30
0.0
 10
15.58673082958711
 20
13.78527943032953
 30
0.0
  0
LINE
  5
236
330
1F
100
AcDbEntity
  8
0
  6
Continuous
 62
     7
370
    25
100
AcDbLine
 10
15.5867308296
 20
13.6321780281
 30
0.0
 11
16.3397995516
 21
13.1974407086
 31
0.0
  0
SPLINE
  5
237
330
1F
100
AcDbEntity
  8
0
  6
Continuous
 62
     7
370
    25
100
AcDbSpline
210
0.0
220
0.0
230
1.0
 70
     8
 71
     3
 72
    20
 73
    16
 74
     0
 42
0.00000001
 43
0.00000001
 40
0.0
 40
0.0
 40
0.0
 40
0.0
 40
0.1220208336415358
 40
0.2292653365593428
 40
0.3365098394771504
 40
0.4437543423949567
 40
0.5509988453127631
 40
0.6040432035165522
 40
0.6570875617203413
 40
0.7101319199241298
 40
0.7631762781279182
 40
0.8162206363317065
 40
0.8692649945354949
 40
0.9223093527392834
 40
1.0
 40
1.0
 40
1.0
 40
1.0
 10
15.58673082958711
 20
13.53011042661523
 30
0.0
 10
15.58106714350255
 20
13.53410977902815
 30
0.0
 10
15.57042562551261
 20
13.5416241751325
 30
0.0
 10
15.55697346538956
 20
13.55935570054155
 30
0.0
 10
15.54745867036023
 20
13.5783310202161
 30
0.0
 10
15.54237088867412
 20
13.59773288990133
 30
0.0
 10
15.54230786450347
 20
13.61230823161705
 30
0.0
 10
15.54471907377384
 20
13.62197735473306
 30
0.0
 10
15.54767458302459
 20
13.62807345724959
 30
0.0
 10
15.55170779339585
 20
13.63287314786908
 30
0.0
 10
15.55670692097039
 20
13.63624446263194
 30
0.0
 10
15.56253393472933
 20
13.63810456596714
 30
0.0
 10
15.56902925338016
 20
13.63836113619668
 30
0.0
 10
15.57709039697559
 20
13.63697514424868
 30
0.0
 10
15.58313735901538
 20
13.63396615280455
 30
0.0
 10
15.58673082958711
 20
13.63217802810095
 30
0.0
  0
LINE
  5
238
330
1F
100
AcDbEntity
  8
0
  6
Continuous
 62
     7
370
    25
100
AcDbLine
 10
16.3397995516
 20
13.0953731071
 30
0.0
 11
15.5867308296
 21
13.5301104266
 31
0.0
  0
SPLINE
  5
239
330
1F
100
AcDbEntity
  8
0
  6
Continuous
 62
     7
370
    25
100
AcDbSpline
210
0.0
220
0.0
230
1.0
 70
     8
 71
     3
 72
    25
 73
    21
 74
     0
 42
0.00000001
 43
0.00000001
 40
0.0
 40
0.0
 40
0.0
 40
0.0
 40
0.0600333226356736
 40
0.1129709835186547
 40
0.1659086444016352
 40
0.2188463052846157
 40
0.2717839661675955
 40
0.3247216270505757
 40
0.3776592879335562
 40
0.4305969488165362
 40
0.4835346096995161
 40
0.5364722705824957
 40
0.5894099314654764
 40
0.6423475923484566
 40
0.6952852532314368
 40
0.7482229141144169
 40
0.8011605749973971
 40
0.8540982358803767
 40
0.9070358967633565
 40
1.0
 40
1.0
 40
1.0
 40
1.0
 10
16.33979955155079
 20
13.19744070855536
 30
0.0
 10
16.34257835794417
 20
13.19566277490933
 30
0.0
 10
16.34780752863613
 20
13.19231705117116
 30
0.0
 10
16.35522697473215
 20
13.18555761975427
 30
0.0
 10
16.36190458578793
 20
13.17811401182614
 30
0.0
 10
16.36797224397631
 20
13.16976732553785
 30
0.0
 10
16.37326293232069
 20
13.16078397803733
 30
0.0
 10
16.37763063607447
 20
13.15140204144111
 30
0.0
 10
16.38095491226537
 20
13.14188288133118
 30
0.0
 10
16.38314406630095
 20
13.1324883537652
 30
0.0
 10
16.38413772027156
 20
13.12347775477005
 30
0.0
 10
16.38390846666413
 20
13.11509957542016
 30
0.0
 10
16.38246263142079
 20
13.10758484901732
 30
0.0
 10
16.37984008256316
 20
13.10114106845901
 30
0.0
 10
16.37611319104641
 20
13.09594510407912
 30
0.0
 10
16.37138460969465
 20
13.09214347263676
 30
0.0
 10
16.3657852813301
 20
13.0898290661571
 30
0.0
 10
16.35946769443344
 20
13.08911036264212
 30
0.0
 10
16.35088583844232
 20
13.090024611539
 30
0.0
 10
16.3441142187341
 20
13.09329152841559
 30
0.0
 10
16.33979955155079
 20
13.09537310706964
 30
0.0
  0
LINE
  5
23A
330
1F
100
AcDbEntity
  8
0
  6
Continuous
 62
     7
370
    25
100
AcDbLine
 10
16.3397995516
 20
12.9422717048
 30
0.0
 11
15.5867308296
 21
13.3770090244
 31
0.0
  0
SPLINE
  5
23B
330
1F
100
AcDbEntity
  8
0
  6
Continuous
 62
     7
370
    25
100
AcDbSpline
210
0.0
220
0.0
230
1.0
 70
     8
 71
     3
 72
    25
 73
    21
 74
     0
 42
0.00000001
 43
0.00000001
 40
0.0
 40
0.0
 40
0.0
 40
0.0
 40
0.0600333226356737
 40
0.1129709835186548
 40
0.165908644401636
 40
0.2188463052846164
 40
0.2717839661675964
 40
0.3247216270505766
 40
0.3776592879335569
 40
0.4305969488165364
 40
0.4835346096995161
 40
0.5364722705824965
 40
0.5894099314654757
 40
0.6423475923484553
 40
0.6952852532314352
 40
0.7482229141144151
 40
0.8011605749973949
 40
0.8540982358803749
 40
0.9070358967633546
 40
1.0
 40
1.0
 40
1.0
 40
1.0
 10
16.33979955155079
 20
13.04433930632678
 30
0.0
 10
16.34257835794417
 20
13.04256137268075
 30
0.0
 10
16.34780752863613
 20
13.03921564894258
 30
0.0
 10
16.35522697473215
 20
13.03245621752569
 30
0.0
 10
16.36190458578793
 20
13.02501260959756
 30
0.0
 10
16.36797224397631
 20
13.01666592330927
 30
0.0
 10
16.37326293232069
 20
13.00768257580876
 30
0.0
 10
16.37763063607447
 20
12.99830063921253
 30
0.0
 10
16.38095491226537
 20
12.98878147910261
 30
0.0
 10
16.38314406630095
 20
12.97938695153663
 30
0.0
 10
16.38413772027156
 20
12.97037635254148
 30
0.0
 10
16.38390846666413
 20
12.96199817319158
 30
0.0
 10
16.38246263142079
 20
12.95448344678874
 30
0.0
 10
16.37984008256316
 20
12.94803966623043
 30
0.0
 10
16.37611319104641
 20
12.94284370185054
 30
0.0
 10
16.37138460969465
 20
12.93904207040818
 30
0.0
 10
16.3657852813301
 20
12.93672766392852
 30
0.0
 10
16.35946769443344
 20
12.93600896041354
 30
0.0
 10
16.35088583844232
 20
12.93692320931043
 30
0.0
 10
16.3441142187341
 20
12.94019012618701
 30
0.0
 10
16.33979955155079
 20
12.94227170484107
 30
0.0
  0
LINE
  5
23C
330
1F
100
AcDbEntity
  8
0
  6
Continuous
 62
     7
370
    25
100
AcDbLine
 10
15.5867308296
 20
13.4790766259
 30
0.0
 11
16.3397995516
 21
13.0443393063
 31
0.0
  0
SPLINE
  5
23D
330
1F
100
AcDbEntity
  8
0
  6
Continuous
 62
     7
370
    25
100
AcDbSpline
210
0.0
220
0.0
230
1.0
 70
     8
 71
     3
 72
    20
 73
    16
 74
     0
 42
0.00000001
 43
0.00000001
 40
0.0
 40
0.0
 40
0.0
 40
0.0
 40
0.1220208336415359
 40
0.2292653365593428
 40
0.3365098394771497
 40
0.4437543423949566
 40
0.5509988453127637
 40
0.6040432035165519
 40
0.6570875617203404
 40
0.7101319199241284
 40
0.7631762781279163
 40
0.8162206363317039
 40
0.8692649945354917
 40
0.9223093527392794
 40
1.0
 40
1.0
 40
1.0
 40
1.0
 10
15.58673082958711
 20
13.37700902438666
 30
0.0
 10
15.58106714350255
 20
13.38100837679957
 30
0.0
 10
15.57042562551261
 20
13.38852277290392
 30
0.0
 10
15.55697346538956
 20
13.40625429831297
 30
0.0
 10
15.54745867036023
 20
13.42522961798752
 30
0.0
 10
15.54237088867412
 20
13.44463148767275
 30
0.0
 10
15.54230786450347
 20
13.45920682938847
 30
0.0
 10
15.54471907377385
 20
13.46887595250448
 30
0.0
 10
15.54767458302459
 20
13.47497205502101
 30
0.0
 10
15.55170779339585
 20
13.4797717456405
 30
0.0
 10
15.55670692097039
 20
13.48314306040336
 30
0.0
 10
15.56253393472933
 20
13.48500316373856
 30
0.0
 10
15.56902925338016
 20
13.4852597339681
 30
0.0
 10
15.57709039697559
 20
13.4838737420201
 30
0.0
 10
15.58313735901538
 20
13.48086475057597
 30
0.0
 10
15.58673082958711
 20
13.47907662587237
 30
0.0
  0
LINE
  5
23E
330
1F
100
AcDbEntity
  8
0
  6
Continuous
 62
     7
370
    25
100
AcDbLine
 10
15.5867308296
 20
13.3259752236
 30
0.0
 11
16.3397995516
 21
12.8912379041
 31
0.0
  0
SPLINE
  5
23F
330
1F
100
AcDbEntity
  8
0
  6
Continuous
 62
     7
370
    25
100
AcDbSpline
210
0.0
220
0.0
230
1.0
 70
     8
 71
     3
 72
    20
 73
    16
 74
     0
 42
0.00000001
 43
0.00000001
 40
0.0
 40
0.0
 40
0.0
 40
0.0
 40
0.1220208336415362
 40
0.229265336559343
 40
0.3365098394771497
 40
0.4437543423949559
 40
0.5509988453127622
 40
0.6040432035165518
 40
0.6570875617203394
 40
0.7101319199241278
 40
0.7631762781279161
 40
0.8162206363317037
 40
0.8692649945354918
 40
0.9223093527392794
 40
1.0
 40
1.0
 40
1.0
 40
1.0
 10
15.58673082958711
 20
13.22390762215808
 30
0.0
 10
15.58106714350255
 20
13.22790697457099
 30
0.0
 10
15.57042562551261
 20
13.23542137067535
 30
0.0
 10
15.55697346538956
 20
13.25315289608439
 30
0.0
 10
15.54745867036023
 20
13.27212821575894
 30
0.0
 10
15.54237088867412
 20
13.29153008544417
 30
0.0
 10
15.54230786450347
 20
13.30610542715989
 30
0.0
 10
15.54471907377385
 20
13.3157745502759
 30
0.0
 10
15.54767458302459
 20
13.32187065279243
 30
0.0
 10
15.55170779339585
 20
13.32667034341192
 30
0.0
 10
15.55670692097039
 20
13.33004165817478
 30
0.0
 10
15.56253393472933
 20
13.33190176150998
 30
0.0
 10
15.56902925338016
 20
13.33215833173952
 30
0.0
 10
15.57709039697559
 20
13.33077233979152
 30
0.0
 10
15.58313735901538
 20
13.32776334834739
 30
0.0
 10
15.58673082958711
 20
13.3259752236438
 30
0.0
  0
LINE
  5
240
330
1F
100
AcDbEntity
  8
0
  6
Continuous
 62
     7
370
    25
100
AcDbLine
 10
16.3397995516
 20
12.7891703026
 30
0.0
 11
15.5867308296
 21
13.2239076222
 31
0.0
  0
SPLINE
  5
241
330
1F
100
AcDbEntity
  8
0
  6
Continuous
 62
     7
370
    25
100
AcDbSpline
210
0.0
220
0.0
230
1.0
 70
     8
 71
     3
 72
    25
 73
    21
 74
     0
 42
0.00000001
 43
0.00000001
 40
0.0
 40
0.0
 40
0.0
 40
0.0
 40
0.0600333226356735
 40
0.1129709835186545
 40
0.1659086444016354
 40
0.2188463052846157
 40
0.2717839661675962
 40
0.3247216270505763
 40
0.3776592879335567
 40
0.4305969488165366
 40
0.4835346096995163
 40
0.5364722705824966
 40
0.5894099314654766
 40
0.6423475923484568
 40
0.695285253231437
 40
0.7482229141144173
 40
0.8011605749973975
 40
0.8540982358803774
 40
0.9070358967633573
 40
1.0
 40
1.0
 40
1.0
 40
1.0
 10
16.33979955155079
 20
12.89123790409821
 30
0.0
 10
16.34257835794417
 20
12.88945997045217
 30
0.0
 10
16.34780752863613
 20
12.886114246714
 30
0.0
 10
16.35522697473215
 20
12.87935481529711
 30
0.0
 10
16.36190458578793
 20
12.87191120736898
 30
0.0
 10
16.36797224397631
 20
12.86356452108069
 30
0.0
 10
16.37326293232069
 20
12.85458117358018
 30
0.0
 10
16.37763063607447
 20
12.84519923698396
 30
0.0
 10
16.38095491226537
 20
12.83568007687403
 30
0.0
 10
16.38314406630095
 20
12.82628554930805
 30
0.0
 10
16.38413772027156
 20
12.8172749503129
 30
0.0
 10
16.38390846666413
 20
12.808896770963
 30
0.0
 10
16.38246263142079
 20
12.80138204456016
 30
0.0
 10
16.37984008256316
 20
12.79493826400185
 30
0.0
 10
16.37611319104641
 20
12.78974229962196
 30
0.0
 10
16.37138460969465
 20
12.7859406681796
 30
0.0
 10
16.3657852813301
 20
12.78362626169994
 30
0.0
 10
16.35946769443344
 20
12.78290755818497
 30
0.0
 10
16.35088583844232
 20
12.78382180708185
 30
0.0
 10
16.3441142187341
 20
12.78708872395844
 30
0.0
 10
16.33979955155079
 20
12.78917030261249
 30
0.0
  0
LINE
  5
242
330
1F
100
AcDbEntity
  8
0
  6
Continuous
 62
     7
370
    25
100
AcDbLine
 10
16.3397995516
 20
12.4829674982
 30
0.0
 11
15.5867308296
 21
12.9177048177
 31
0.0
  0
SPLINE
  5
243
330
1F
100
AcDbEntity
  8
0
  6
Continuous
 62
     7
370
    25
100
AcDbSpline
210
0.0
220
0.0
230
1.0
 70
     8
 71
     3
 72
    25
 73
    21
 74
     0
 42
0.00000001
 43
0.00000001
 40
0.0
 40
0.0
 40
0.0
 40
0.0
 40
0.0600333226356732
 40
0.112970983518654
 40
0.1659086444016349
 40
0.2188463052846154
 40
0.2717839661675959
 40
0.3247216270505766
 40
0.377659287933557
 40
0.4305969488165373
 40
0.483534609699517
 40
0.5364722705824969
 40
0.5894099314654777
 40
0.6423475923484577
 40
0.6952852532314383
 40
0.7482229141144183
 40
0.8011605749973987
 40
0.8540982358803785
 40
0.9070358967633587
 40
1.0
 40
1.0
 40
1.0
 40
1.0
 10
16.33979955155079
 20
12.58503509964105
 30
0.0
 10
16.34257835794417
 20
12.58325716599501
 30
0.0
 10
16.34780752863613
 20
12.57991144225685
 30
0.0
 10
16.35522697473215
 20
12.57315201083995
 30
0.0
 10
16.36190458578793
 20
12.56570840291182
 30
0.0
 10
16.36797224397631
 20
12.55736171662354
 30
0.0
 10
16.37326293232069
 20
12.54837836912302
 30
0.0
 10
16.37763063607447
 20
12.5389964325268
 30
0.0
 10
16.38095491226537
 20
12.52947727241687
 30
0.0
 10
16.38314406630095
 20
12.52008274485089
 30
0.0
 10
16.38413772027156
 20
12.51107214585574
 30
0.0
 10
16.38390846666413
 20
12.50269396650584
 30
0.0
 10
16.38246263142079
 20
12.49517924010301
 30
0.0
 10
16.37984008256316
 20
12.48873545954469
 30
0.0
 10
16.37611319104641
 20
12.4835394951648
 30
0.0
 10
16.37138460969465
 20
12.47973786372244
 30
0.0
 10
16.3657852813301
 20
12.47742345724279
 30
0.0
 10
16.35946769443343
 20
12.47670475372781
 30
0.0
 10
16.35088583844232
 20
12.47761900262469
 30
0.0
 10
16.3441142187341
 20
12.48088591950128
 30
0.0
 10
16.33979955155079
 20
12.48296749815533
 30
0.0
  0
LINE
  5
244
330
1F
100
AcDbEntity
  8
0
  6
Continuous
 62
     7
370
    25
100
AcDbLine
 10
15.5867308296
 20
13.0197724192
 30
0.0
 11
16.3397995516
 21
12.5850350996
 31
0.0
  0
SPLINE
  5
245
330
1F
100
AcDbEntity
  8
0
  6
Continuous
 62
     7
370
    25
100
AcDbSpline
210
0.0
220
0.0
230
1.0
 70
     8
 71
     3
 72
    20
 73
    16
 74
     0
 42
0.00000001
 43
0.00000001
 40
0.0
 40
0.0
 40
0.0
 40
0.0
 40
0.1220208336415362
 40
0.2292653365593432
 40
0.3365098394771496
 40
0.4437543423949565
 40
0.5509988453127644
 40
0.6040432035165534
 40
0.6570875617203406
 40
0.7101319199241282
 40
0.7631762781279156
 40
0.8162206363317026
 40
0.8692649945354893
 40
0.9223093527392764
 40
1.0
 40
1.0
 40
1.0
 40
1.0
 10
15.58673082958711
 20
12.91770481770092
 30
0.0
 10
15.58106714350255
 20
12.92170417011383
 30
0.0
 10
15.57042562551261
 20
12.92921856621819
 30
0.0
 10
15.55697346538956
 20
12.94695009162724
 30
0.0
 10
15.54745867036023
 20
12.96592541130178
 30
0.0
 10
15.54237088867412
 20
12.98532728098701
 30
0.0
 10
15.54230786450347
 20
12.99990262270273
 30
0.0
 10
15.54471907377385
 20
13.00957174581875
 30
0.0
 10
15.54767458302459
 20
13.01566784833527
 30
0.0
 10
15.55170779339585
 20
13.02046753895476
 30
0.0
 10
15.55670692097039
 20
13.02383885371763
 30
0.0
 10
15.56253393472933
 20
13.02569895705283
 30
0.0
 10
15.56902925338016
 20
13.02595552728236
 30
0.0
 10
15.57709039697559
 20
13.02456953533436
 30
0.0
 10
15.58313735901538
 20
13.02156054389024
 30
0.0
 10
15.58673082958711
 20
13.01977241918664
 30
0.0
  0
LINE
  5
246
330
1F
100
AcDbEntity
  8
0
  6
Continuous
 62
     7
370
    25
100
AcDbLine
 10
16.3397995516
 20
12.6360689004
 30
0.0
 11
15.5867308296
 21
13.0708062199
 31
0.0
  0
SPLINE
  5
247
330
1F
100
AcDbEntity
  8
0
  6
Continuous
 62
     7
370
    25
100
AcDbSpline
210
0.0
220
0.0
230
1.0
 70
     8
 71
     3
 72
    25
 73
    21
 74
     0
 42
0.00000001
 43
0.00000001
 40
0.0
 40
0.0
 40
0.0
 40
0.0
 40
0.060033322635673
 40
0.1129709835186537
 40
0.1659086444016344
 40
0.218846305284615
 40
0.2717839661675961
 40
0.3247216270505764
 40
0.3776592879335565
 40
0.4305969488165371
 40
0.4835346096995166
 40
0.5364722705824968
 40
0.5894099314654768
 40
0.6423475923484568
 40
0.6952852532314371
 40
0.7482229141144175
 40
0.8011605749973978
 40
0.8540982358803771
 40
0.9070358967633569
 40
1.0
 40
1.0
 40
1.0
 40
1.0
 10
16.33979955155079
 20
12.73813650186963
 30
0.0
 10
16.34257835794417
 20
12.73635856822359
 30
0.0
 10
16.34780752863613
 20
12.73301284448542
 30
0.0
 10
16.35522697473215
 20
12.72625341306853
 30
0.0
 10
16.36190458578793
 20
12.7188098051404
 30
0.0
 10
16.36797224397631
 20
12.71046311885211
 30
0.0
 10
16.37326293232069
 20
12.7014797713516
 30
0.0
 10
16.37763063607447
 20
12.69209783475538
 30
0.0
 10
16.38095491226537
 20
12.68257867464545
 30
0.0
 10
16.38314406630095
 20
12.67318414707947
 30
0.0
 10
16.38413772027156
 20
12.66417354808432
 30
0.0
 10
16.38390846666413
 20
12.65579536873442
 30
0.0
 10
16.38246263142079
 20
12.64828064233158
 30
0.0
 10
16.37984008256316
 20
12.64183686177327
 30
0.0
 10
16.37611319104641
 20
12.63664089739338
 30
0.0
 10
16.37138460969465
 20
12.63283926595102
 30
0.0
 10
16.3657852813301
 20
12.63052485947136
 30
0.0
 10
16.35946769443344
 20
12.62980615595639
 30
0.0
 10
16.35088583844232
 20
12.63072040485327
 30
0.0
 10
16.3441142187341
 20
12.63398732172985
 30
0.0
 10
16.33979955155079
 20
12.63606890038391
 30
0.0
  0
LINE
  5
248
330
1F
100
AcDbEntity
  8
0
  6
Continuous
 62
     7
370
    25
100
AcDbLine
 10
15.5867308296
 20
13.1728738214
 30
0.0
 11
16.3397995516
 21
12.7381365019
 31
0.0
  0
SPLINE
  5
249
330
1F
100
AcDbEntity
  8
0
  6
Continuous
 62
     7
370
    25
100
AcDbSpline
210
0.0
220
0.0
230
1.0
 70
     8
 71
     3
 72
    20
 73
    16
 74
     0
 42
0.00000001
 43
0.00000001
 40
0.0
 40
0.0
 40
0.0
 40
0.0
 40
0.1220208336415361
 40
0.2292653365593429
 40
0.3365098394771499
 40
0.443754342394956
 40
0.550998845312763
 40
0.6040432035165524
 40
0.6570875617203394
 40
0.7101319199241267
 40
0.763176278127914
 40
0.816220636331701
 40
0.8692649945354882
 40
0.9223093527392756
 40
1.0
 40
1.0
 40
1.0
 40
1.0
 10
15.58673082958711
 20
13.0708062199295
 30
0.0
 10
15.58106714350255
 20
13.07480557234241
 30
0.0
 10
15.57042562551261
 20
13.08231996844677
 30
0.0
 10
15.55697346538956
 20
13.10005149385582
 30
0.0
 10
15.54745867036023
 20
13.11902681353036
 30
0.0
 10
15.54237088867412
 20
13.13842868321559
 30
0.0
 10
15.54230786450347
 20
13.15300402493131
 30
0.0
 10
15.54471907377385
 20
13.16267314804733
 30
0.0
 10
15.54767458302459
 20
13.16876925056385
 30
0.0
 10
15.55170779339585
 20
13.17356894118334
 30
0.0
 10
15.55670692097039
 20
13.1769402559462
 30
0.0
 10
15.56253393472933
 20
13.17880035928141
 30
0.0
 10
15.56902925338016
 20
13.17905692951094
 30
0.0
 10
15.57709039697559
 20
13.17767093756294
 30
0.0
 10
15.58313735901538
 20
13.17466194611882
 30
0.0
 10
15.58673082958711
 20
13.17287382141522
 30
0.0
  0
LINE
  5
24A
330
1F
100
AcDbEntity
  8
0
  6
Continuous
 62
     7
370
    25
100
AcDbLine
 10
15.5867308296
 20
12.866671017
 30
0.0
 11
16.3397995516
 21
12.4319336974
 31
0.0
  0
SPLINE
  5
24B
330
1F
100
AcDbEntity
  8
0
  6
Continuous
 62
     7
370
    25
100
AcDbSpline
210
0.0
220
0.0
230
1.0
 70
     8
 71
     3
 72
    20
 73
    16
 74
     0
 42
0.00000001
 43
0.00000001
 40
0.0
 40
0.0
 40
0.0
 40
0.0
 40
0.1220208336415366
 40
0.2292653365593426
 40
0.3365098394771492
 40
0.4437543423949568
 40
0.5509988453127646
 40
0.6040432035165528
 40
0.6570875617203414
 40
0.7101319199241299
 40
0.7631762781279177
 40
0.8162206363317052
 40
0.8692649945354923
 40
0.9223093527392798
 40
1.0
 40
1.0
 40
1.0
 40
1.0
 10
15.58673082958711
 20
12.76460341547234
 30
0.0
 10
15.58106714350255
 20
12.76860276788526
 30
0.0
 10
15.57042562551261
 20
12.77611716398961
 30
0.0
 10
15.55697346538955
 20
12.79384868939866
 30
0.0
 10
15.54745867036023
 20
12.81282400907321
 30
0.0
 10
15.54237088867412
 20
12.83222587875844
 30
0.0
 10
15.54230786450347
 20
12.84680122047416
 30
0.0
 10
15.54471907377385
 20
12.85647034359017
 30
0.0
 10
15.54767458302459
 20
12.8625664461067
 30
0.0
 10
15.55170779339585
 20
12.86736613672618
 30
0.0
 10
15.55670692097039
 20
12.87073745148905
 30
0.0
 10
15.56253393472933
 20
12.87259755482425
 30
0.0
 10
15.56902925338016
 20
12.87285412505378
 30
0.0
 10
15.57709039697559
 20
12.87146813310579
 30
0.0
 10
15.58313735901538
 20
12.86845914166166
 30
0.0
 10
15.58673082958711
 20
12.86667101695806
 30
0.0
  0
LINE
  5
24C
330
1F
100
AcDbEntity
  8
0
  6
Continuous
 62
     7
370
    25
100
AcDbLine
 10
16.3397995516
 20
12.3298660959
 30
0.0
 11
15.5867308296
 21
12.7646034155
 31
0.0
  0
SPLINE
  5
24D
330
1F
100
AcDbEntity
  8
0
  6
Continuous
 62
     7
370
    25
100
AcDbSpline
210
0.0
220
0.0
230
1.0
 70
     8
 71
     3
 72
    25
 73
    21
 74
     0
 42
0.00000001
 43
0.00000001
 40
0.0
 40
0.0
 40
0.0
 40
0.0
 40
0.0600333226356737
 40
0.1129709835186545
 40
0.1659086444016341
 40
0.2188463052846149
 40
0.2717839661675951
 40
0.3247216270505758
 40
0.3776592879335564
 40
0.4305969488165364
 40
0.4835346096995162
 40
0.5364722705824971
 40
0.5894099314654773
 40
0.642347592348457
 40
0.6952852532314376
 40
0.7482229141144177
 40
0.8011605749973981
 40
0.8540982358803783
 40
0.9070358967633583
 40
1.0
 40
1.0
 40
1.0
 40
1.0
 10
16.33979955155079
 20
12.43193369741247
 30
0.0
 10
16.34257835794417
 20
12.43015576376644
 30
0.0
 10
16.34780752863613
 20
12.42681004002827
 30
0.0
 10
16.35522697473215
 20
12.42005060861138
 30
0.0
 10
16.36190458578793
 20
12.41260700068324
 30
0.0
 10
16.36797224397631
 20
12.40426031439496
 30
0.0
 10
16.37326293232069
 20
12.39527696689444
 30
0.0
 10
16.37763063607446
 20
12.38589503029822
 30
0.0
 10
16.38095491226537
 20
12.3763758701883
 30
0.0
 10
16.38314406630095
 20
12.36698134262232
 30
0.0
 10
16.38413772027156
 20
12.35797074362716
 30
0.0
 10
16.38390846666413
 20
12.34959256427727
 30
0.0
 10
16.38246263142079
 20
12.34207783787443
 30
0.0
 10
16.37984008256316
 20
12.33563405731612
 30
0.0
 10
16.37611319104641
 20
12.33043809293622
 30
0.0
 10
16.37138460969465
 20
12.32663646149386
 30
0.0
 10
16.3657852813301
 20
12.32432205501421
 30
0.0
 10
16.35946769443344
 20
12.32360335149923
 30
0.0
 10
16.35088583844232
 20
12.32451760039612
 30
0.0
 10
16.3441142187341
 20
12.3277845172727
 30
0.0
 10
16.33979955155079
 20
12.32986609592675
 30
0.0
  0
LINE
  5
24E
330
1F
100
AcDbEntity
  8
0
  6
Continuous
 62
     7
370
    25
100
AcDbLine
 10
16.3397995516
 20
12.1767646937
 30
0.0
 11
15.5867308296
 21
12.6115020132
 31
0.0
  0
SPLINE
  5
24F
330
1F
100
AcDbEntity
  8
0
  6
Continuous
 62
     7
370
    25
100
AcDbSpline
210
0.0
220
0.0
230
1.0
 70
     8
 71
     3
 72
    25
 73
    21
 74
     0
 42
0.00000001
 43
0.00000001
 40
0.0
 40
0.0
 40
0.0
 40
0.0
 40
0.0600333226356734
 40
0.1129709835186545
 40
0.1659086444016351
 40
0.2188463052846153
 40
0.2717839661675951
 40
0.3247216270505747
 40
0.3776592879335549
 40
0.4305969488165348
 40
0.483534609699514
 40
0.5364722705824936
 40
0.5894099314654729
 40
0.642347592348453
 40
0.6952852532314335
 40
0.7482229141144139
 40
0.8011605749973941
 40
0.8540982358803738
 40
0.9070358967633536
 40
1.0
 40
1.0
 40
1.0
 40
1.0
 10
16.33979955155079
 20
12.27883229518389
 30
0.0
 10
16.34257835794417
 20
12.27705436153786
 30
0.0
 10
16.34780752863613
 20
12.27370863779969
 30
0.0
 10
16.35522697473215
 20
12.2669492063828
 30
0.0
 10
16.36190458578793
 20
12.25950559845467
 30
0.0
 10
16.36797224397631
 20
12.25115891216638
 30
0.0
 10
16.37326293232069
 20
12.24217556466587
 30
0.0
 10
16.37763063607447
 20
12.23279362806964
 30
0.0
 10
16.38095491226537
 20
12.22327446795972
 30
0.0
 10
16.38314406630095
 20
12.21387994039374
 30
0.0
 10
16.38413772027156
 20
12.20486934139858
 30
0.0
 10
16.38390846666413
 20
12.19649116204869
 30
0.0
 10
16.38246263142079
 20
12.18897643564585
 30
0.0
 10
16.37984008256316
 20
12.18253265508754
 30
0.0
 10
16.37611319104641
 20
12.17733669070765
 30
0.0
 10
16.37138460969465
 20
12.17353505926529
 30
0.0
 10
16.3657852813301
 20
12.17122065278563
 30
0.0
 10
16.35946769443344
 20
12.17050194927065
 30
0.0
 10
16.35088583844232
 20
12.17141619816754
 30
0.0
 10
16.3441142187341
 20
12.17468311504412
 30
0.0
 10
16.33979955155079
 20
12.17676469369817
 30
0.0
  0
LINE
  5
250
330
1F
100
AcDbEntity
  8
0
  6
Continuous
 62
     7
370
    25
100
AcDbLine
 10
15.5867308296
 20
12.7135696147
 30
0.0
 11
16.3397995516
 21
12.2788322952
 31
0.0
  0
SPLINE
  5
251
330
1F
100
AcDbEntity
  8
0
  6
Continuous
 62
     7
370
    25
100
AcDbSpline
210
0.0
220
0.0
230
1.0
 70
     8
 71
     3
 72
    20
 73
    16
 74
     0
 42
0.00000001
 43
0.00000001
 40
0.0
 40
0.0
 40
0.0
 40
0.0
 40
0.1220208336415359
 40
0.2292653365593426
 40
0.3365098394771495
 40
0.4437543423949565
 40
0.5509988453127644
 40
0.6040432035165527
 40
0.6570875617203414
 40
0.7101319199241299
 40
0.7631762781279182
 40
0.8162206363317063
 40
0.869264994535494
 40
0.9223093527392816
 40
1.0
 40
1.0
 40
1.0
 40
1.0
 10
15.58673082958711
 20
12.61150201324376
 30
0.0
 10
15.58106714350255
 20
12.61550136565668
 30
0.0
 10
15.57042562551261
 20
12.62301576176103
 30
0.0
 10
15.55697346538956
 20
12.64074728717008
 30
0.0
 10
15.54745867036023
 20
12.65972260684463
 30
0.0
 10
15.54237088867412
 20
12.67912447652986
 30
0.0
 10
15.54230786450347
 20
12.69369981824558
 30
0.0
 10
15.54471907377385
 20
12.70336894136159
 30
0.0
 10
15.54767458302459
 20
12.70946504387812
 30
0.0
 10
15.55170779339585
 20
12.71426473449761
 30
0.0
 10
15.55670692097039
 20
12.71763604926047
 30
0.0
 10
15.56253393472933
 20
12.71949615259567
 30
0.0
 10
15.56902925338016
 20
12.71975272282521
 30
0.0
 10
15.57709039697559
 20
12.71836673087721
 30
0.0
 10
15.58313735901538
 20
12.71535773943308
 30
0.0
 10
15.58673082958711
 20
12.71356961472948
 30
0.0
  0
LINE
  5
252
330
1F
100
AcDbEntity
  8
0
  6
Continuous
 62
     7
370
    25
100
AcDbLine
 10
14.4641988145
 20
16.3829890937
 30
0.0
 11
14.1954982376
 21
16.2278715524
 31
0.0
  0
LINE
  5
253
330
1F
100
AcDbEntity
  8
0
  6
Continuous
 62
     7
370
    25
100
AcDbLine
 10
14.4641988145
 20
16.3829890937
 30
0.0
 11
17.9997327204
 21
14.3419688141
 31
0.0
  0
LINE
  5
254
330
1F
100
AcDbEntity
  8
0
  6
Continuous
 62
     7
370
    25
100
AcDbLine
 10
17.9997327204
 20
14.3419688141
 30
0.0
 11
17.7310321435
 21
14.1868512729
 31
0.0
  0
LINE
  5
255
330
1F
100
AcDbEntity
  8
0
  6
Continuous
 62
     7
370
    25
100
AcDbLine
 10
17.9997327204
 20
14.3419688141
 30
0.0
 11
17.9997327204
 21
10.2592647547
 31
0.0
  0
LINE
  5
256
330
1F
100
AcDbEntity
  8
0
  6
Continuous
 62
     7
370
    25
100
AcDbLine
 10
17.9997327204
 20
10.2592647547
 30
0.0
 11
17.7310321435
 21
10.1041472135
 31
0.0
  0
LINE
  5
257
330
1F
100
AcDbEntity
  8
0
  6
Continuous
 62
     7
370
    25
100
AcDbLine
 10
17.1051298049
 20
12.5533071474
 30
0.0
 11
17.1561608412
 21
12.5238475572
 31
0.0
  0
LINE
  5
258
330
1F
100
AcDbEntity
  8
0
  6
Continuous
 62
     7
370
    25
100
AcDbLine
 10
17.0796142867
 20
12.5170031417
 30
0.0
 11
17.1051298049
 21
12.5533071474
 31
0.0
  0
LINE
  5
259
330
1F
100
AcDbEntity
  8
0
  6
Continuous
 62
     7
370
    25
100
AcDbLine
 10
17.1051298049
 20
12.4512395459
 30
0.0
 11
17.0796142867
 21
12.5170031417
 31
0.0
  0
LINE
  5
25A
330
1F
100
AcDbEntity
  8
0
  6
Continuous
 62
     7
370
    25
100
AcDbLine
 10
17.1561608412
 20
12.4217799557
 30
0.0
 11
17.1051298049
 21
12.4512395459
 31
0.0
  0
LINE
  5
25B
330
1F
100
AcDbEntity
  8
0
  6
Continuous
 62
     7
370
    25
100
AcDbLine
 10
17.1816763594
 20
12.4580839613
 30
0.0
 11
17.1561608412
 21
12.4217799557
 31
0.0
  0
LINE
  5
25C
330
1F
100
AcDbEntity
  8
0
  6
Continuous
 62
     7
370
    25
100
AcDbLine
 10
17.1561608412
 20
12.5238475572
 30
0.0
 11
17.1816763594
 21
12.4580839613
 31
0.0
  0
LWPOLYLINE
  5
25D
330
1F
100
AcDbEntity
  8
0
  6
Continuous
 62
     7
370
    25
100
AcDbPolyline
 90
       29
 70
   128
 43
0.0
 10
17.130645323
 20
12.6553426884
 10
17.0983107074
 20
12.6698019899
 10
17.0675974845
 20
12.6751220924
 10
17.0400457434
 20
12.6710362235
 10
17.0170370436
 20
12.6577492658
 10
16.9997251372
 20
12.635927483
 10
16.9889781157
 20
12.6066651102
 10
16.9853348795
 20
12.571429485
 10
16.9889781157
 20
12.5319874689
 10
16.9997251372
 20
12.4903168491
 10
17.0170370436
 20
12.4485071647
 10
17.0400457434
 20
12.4086549277
 10
17.0675974845
 20
12.3727584957
 10
17.0983107074
 20
12.3426178656
 10
17.130645323
 20
12.3197444147
 10
17.1629799387
 20
12.3052851131
 10
17.1936931616
 20
12.2999650107
 10
17.2212449027
 20
12.3040508796
 10
17.2442536025
 20
12.3173378372
 10
17.2615655089
 20
12.3391596201
 10
17.2723125304
 20
12.3684219929
 10
17.2759557666
 20
12.403657618
 10
17.2723125304
 20
12.4430996342
 10
17.2615655089
 20
12.4847702539
 10
17.2442536025
 20
12.5265799384
 10
17.2212449027
 20
12.5664321754
 10
17.1936931616
 20
12.6023286074
 10
17.1629799387
 20
12.6324692374
 10
17.130645323
 20
12.6553426884
  0
ARC
  5
25E
330
1F
100
AcDbEntity
  8
0
  6
Continuous
 62
     7
370
    25
100
AcDbCircle
 10
17.0742553532
 20
12.5760808357
 30
0.0
 40
0.1010011046812957
100
AcDbArc
 50
53.6073712523
 51
115.0821703186
  0
LWPOLYLINE
  5
25F
330
1F
100
AcDbEntity
  8
0
  6
Continuous
 62
     7
370
    25
100
AcDbPolyline
 90
       12
 70
   128
 43
0.0
 10
17.2369225067
 20
12.3116115306
 10
17.2477891364
 20
12.3193788575
 10
17.2651010428
 20
12.3412006404
 10
17.2758480643
 20
12.3704630132
 10
17.2794913005
 20
12.4056986383
 10
17.2758480643
 20
12.4451406545
 10
17.2651010428
 20
12.4868112742
 10
17.2477891364
 20
12.5286209586
 10
17.2247804366
 20
12.5684731957
 10
17.1972286955
 20
12.6043696277
 10
17.1665154726
 20
12.6345102577
 10
17.134180857
 20
12.6573837086
  0
ARC
  5
260
330
1F
100
AcDbEntity
  8
0
  6
Continuous
 62
     7
370
    25
100
AcDbCircle
 10
17.253641517
 20
12.5585308743
 30
0.0
 40
0.1070662396192333
100
AcDbArc
 50
201.3022023723
 51
216.1900440244
  0
LINE
  5
261
330
1F
100
AcDbEntity
  8
0
  6
Continuous
 62
     7
370
    25
100
AcDbLine
 10
17.1515022517
 20
12.5265369036
 30
0.0
 11
17.1538903358
 21
12.5196350967
 31
0.0
  0
LINE
  5
262
330
1F
100
AcDbEntity
  8
0
  6
Continuous
 62
     7
370
    25
100
AcDbLine
 10
17.1238156439
 20
12.5425200421
 30
0.0
 11
17.0796142867
 21
12.5170031417
 31
0.0
  0
LINE
  5
263
330
1F
100
AcDbEntity
  8
0
  6
Continuous
 62
     7
370
    25
100
AcDbLine
 10
17.1666480949
 20
12.4867532987
 30
0.0
 11
17.1051298049
 21
12.4512395459
 31
0.0
  0
LINE
  5
264
330
1F
100
AcDbEntity
  8
0
  6
Continuous
 62
     7
370
    25
100
AcDbLine
 10
17.1716800484
 20
12.4838484138
 30
0.0
 11
17.1666480949
 21
12.4867532987
 31
0.0
  0
LINE
  5
265
330
1F
100
AcDbEntity
  8
0
  6
Continuous
 62
     7
370
    25
100
AcDbLine
 10
17.1538903358
 20
12.5196350967
 30
0.0
 11
17.1511288877
 21
12.5267524421
 31
0.0
  0
LINE
  5
266
330
1F
100
AcDbEntity
  8
0
  6
Continuous
 62
     7
370
    25
100
AcDbLine
 10
17.1666480949
 20
12.4867532987
 30
0.0
 11
17.1538903358
 21
12.5196350967
 31
0.0
  0
LINE
  5
267
330
1F
100
AcDbEntity
  8
0
  6
Continuous
 62
     7
370
    25
100
AcDbLine
 10
14.7624850388
 20
13.9056871846
 30
0.0
 11
14.8135160751
 21
13.8762275944
 31
0.0
  0
LINE
  5
268
330
1F
100
AcDbEntity
  8
0
  6
Continuous
 62
     7
370
    25
100
AcDbLine
 10
14.7369695207
 20
13.869383179
 30
0.0
 11
14.7624850388
 21
13.9056871846
 31
0.0
  0
LINE
  5
269
330
1F
100
AcDbEntity
  8
0
  6
Continuous
 62
     7
370
    25
100
AcDbLine
 10
14.7624850388
 20
13.8036195831
 30
0.0
 11
14.7369695207
 21
13.869383179
 31
0.0
  0
LINE
  5
26A
330
1F
100
AcDbEntity
  8
0
  6
Continuous
 62
     7
370
    25
100
AcDbLine
 10
14.8135160751
 20
13.7741599929
 30
0.0
 11
14.7624850388
 21
13.8036195831
 31
0.0
  0
LINE
  5
26B
330
1F
100
AcDbEntity
  8
0
  6
Continuous
 62
     7
370
    25
100
AcDbLine
 10
14.8390315933
 20
13.8104639986
 30
0.0
 11
14.8135160751
 21
13.7741599929
 31
0.0
  0
LINE
  5
26C
330
1F
100
AcDbEntity
  8
0
  6
Continuous
 62
     7
370
    25
100
AcDbLine
 10
14.8135160751
 20
13.8762275944
 30
0.0
 11
14.8390315933
 21
13.8104639986
 31
0.0
  0
LWPOLYLINE
  5
26D
330
1F
100
AcDbEntity
  8
0
  6
Continuous
 62
     7
370
    25
100
AcDbPolyline
 90
       29
 70
   128
 43
0.0
 10
14.788000557
 20
14.0077227256
 10
14.7556659414
 20
14.0221820272
 10
14.7249527184
 20
14.0275021296
 10
14.6974009773
 20
14.0234162607
 10
14.6743922775
 20
14.0101293031
 10
14.6570803712
 20
13.9883075202
 10
14.6463333496
 20
13.9590451474
 10
14.6426901134
 20
13.9238095222
 10
14.6463333496
 20
13.8843675061
 10
14.6570803712
 20
13.8426968864
 10
14.6743922775
 20
13.8008872019
 10
14.6974009773
 20
13.7610349649
 10
14.7249527184
 20
13.7251385329
 10
14.7556659414
 20
13.6949979029
 10
14.788000557
 20
13.6721244519
 10
14.8203351726
 20
13.6576651503
 10
14.8510483955
 20
13.6523450479
 10
14.8786001366
 20
13.6564309168
 10
14.9016088365
 20
13.6697178744
 10
14.9189207428
 20
13.6915396573
 10
14.9296677643
 20
13.7208020301
 10
14.9333110005
 20
13.7560376553
 10
14.9296677643
 20
13.7954796714
 10
14.9189207428
 20
13.8371502911
 10
14.9016088365
 20
13.8789599756
 10
14.8786001366
 20
13.9188122126
 10
14.8510483955
 20
13.9547086446
 10
14.8203351726
 20
13.9848492746
 10
14.788000557
 20
14.0077227256
  0
ARC
  5
26E
330
1F
100
AcDbEntity
  8
0
  6
Continuous
 62
     7
370
    25
100
AcDbCircle
 10
14.7316105871
 20
13.928460873
 30
0.0
 40
0.1010011046812853
100
AcDbArc
 50
53.6073712523
 51
115.0821703186
  0
LWPOLYLINE
  5
26F
330
1F
100
AcDbEntity
  8
0
  6
Continuous
 62
     7
370
    25
100
AcDbPolyline
 90
       12
 70
   128
 43
0.0
 10
14.8942777407
 20
13.6639915678
 10
14.9051443704
 20
13.6717588947
 10
14.9224562767
 20
13.6935806776
 10
14.9332032982
 20
13.7228430504
 10
14.9368465344
 20
13.7580786755
 10
14.9332032982
 20
13.7975206917
 10
14.9224562767
 20
13.8391913114
 10
14.9051443704
 20
13.8810009959
 10
14.8821356705
 20
13.9208532329
 10
14.8545839295
 20
13.9567496649
 10
14.8238707065
 20
13.9868902949
 10
14.7915360909
 20
14.0097637459
  0
ARC
  5
270
330
1F
100
AcDbEntity
  8
0
  6
Continuous
 62
     7
370
    25
100
AcDbCircle
 10
14.9109967509
 20
13.9109109115
 30
0.0
 40
0.1070662396195921
100
AcDbArc
 50
201.3022023724
 51
216.1900440244
  0
LINE
  5
271
330
1F
100
AcDbEntity
  8
0
  6
Continuous
 62
     7
370
    25
100
AcDbLine
 10
14.8088574857
 20
13.8789169409
 30
0.0
 11
14.8112455697
 21
13.8720151339
 31
0.0
  0
LINE
  5
272
330
1F
100
AcDbEntity
  8
0
  6
Continuous
 62
     7
370
    25
100
AcDbLine
 10
14.7811708779
 20
13.8949000793
 30
0.0
 11
14.7369695207
 21
13.869383179
 31
0.0
  0
LINE
  5
273
330
1F
100
AcDbEntity
  8
0
  6
Continuous
 62
     7
370
    25
100
AcDbLine
 10
14.8240033288
 20
13.839133336
 30
0.0
 11
14.7624850388
 21
13.8036195831
 31
0.0
  0
LINE
  5
274
330
1F
100
AcDbEntity
  8
0
  6
Continuous
 62
     7
370
    25
100
AcDbLine
 10
14.8290352823
 20
13.836228451
 30
0.0
 11
14.8240033288
 21
13.839133336
 31
0.0
  0
LINE
  5
275
330
1F
100
AcDbEntity
  8
0
  6
Continuous
 62
     7
370
    25
100
AcDbLine
 10
14.8112455697
 20
13.8720151339
 30
0.0
 11
14.8084841216
 21
13.8791324793
 31
0.0
  0
LINE
  5
276
330
1F
100
AcDbEntity
  8
0
  6
Continuous
 62
     7
370
    25
100
AcDbLine
 10
14.8240033288
 20
13.839133336
 30
0.0
 11
14.8112455697
 21
13.8720151339
 31
0.0
  0
LINE
  5
277
330
1F
100
AcDbEntity
  8
0
  6
Continuous
 62
     7
370
    25
100
AcDbLine
 10
19.7432283724
 20
14.621713596
 30
0.0
 11
18.5767173823
 21
13.9953409427
 31
0.0
  0
LINE
  5
278
330
1F
100
AcDbEntity
  8
0
  6
Continuous
 62
     7
370
    25
100
AcDbLine
 10
19.7432283724
 20
14.621713596
 30
0.0
 11
18.6103756302
 21
13.920403797
 31
0.0
  0
LINE
  5
279
330
1F
100
AcDbEntity
  8
0
  6
Continuous
 62
     7
370
    25
100
AcDbLine
 10
19.4627909648
 20
12.2189481176
 30
0.0
 11
18.6103756302
 21
11.6912473805
 31
0.0
  0
LINE
  5
27A
330
1F
100
AcDbEntity
  8
0
  6
Continuous
 62
     7
370
    25
100
AcDbLine
 10
16.5541767892
 20
16.4627138882
 30
0.0
 11
15.3998190085
 21
15.8428670525
 31
0.0
  0
LINE
  5
27B
330
1F
100
AcDbEntity
  8
0
  6
Continuous
 62
     7
370
    25
100
AcDbLine
 10
16.3796869852
 20
13.4511954998
 30
0.0
 11
16.3397995516
 21
13.4015759115
 31
0.0
  0
LINE
  5
27C
330
1F
100
AcDbEntity
  8
0
  6
Continuous
 62
     7
370
    25
100
AcDbLine
 10
16.3796869852
 20
13.2980940975
 30
0.0
 11
16.3397995516
 21
13.2484745093
 31
0.0
  0
LINE
  5
27D
330
1F
100
AcDbEntity
  8
0
  6
Continuous
 62
     7
370
    25
100
AcDbLine
 10
15.6427725706
 20
13.9060286241
 30
0.0
 11
15.5867308296
 21
13.8363132311
 31
0.0
  0
LINE
  5
27E
330
1F
100
AcDbEntity
  8
0
  6
Continuous
 62
     7
370
    25
100
AcDbLine
 10
16.3796869852
 20
13.1449926953
 30
0.0
 11
16.3397995516
 21
13.0953731071
 31
0.0
  0
LINE
  5
27F
330
1F
100
AcDbEntity
  8
0
  6
Continuous
 62
     7
370
    25
100
AcDbLine
 10
15.6427725706
 20
13.7529272219
 30
0.0
 11
15.5867308296
 21
13.6832118288
 31
0.0
  0
LINE
  5
280
330
1F
100
AcDbEntity
  8
0
  6
Continuous
 62
     7
370
    25
100
AcDbLine
 10
16.3796869852
 20
12.9918912931
 30
0.0
 11
16.3397995516
 21
12.9422717048
 31
0.0
  0
LINE
  5
281
330
1F
100
AcDbEntity
  8
0
  6
Continuous
 62
     7
370
    25
100
AcDbLine
 10
15.6427725706
 20
13.5998258197
 30
0.0
 11
15.5867308296
 21
13.5301104266
 31
0.0
  0
LINE
  5
282
330
1F
100
AcDbEntity
  8
0
  6
Continuous
 62
     7
370
    25
100
AcDbLine
 10
16.3796869852
 20
12.8387898908
 30
0.0
 11
16.3397995516
 21
12.7891703026
 31
0.0
  0
LINE
  5
283
330
1F
100
AcDbEntity
  8
0
  6
Continuous
 62
     7
370
    25
100
AcDbLine
 10
15.6427725706
 20
13.4467244174
 30
0.0
 11
15.5867308296
 21
13.3770090244
 31
0.0
  0
LINE
  5
284
330
1F
100
AcDbEntity
  8
0
  6
Continuous
 62
     7
370
    25
100
AcDbLine
 10
16.3796869852
 20
12.6856884886
 30
0.0
 11
16.3397995516
 21
12.6360689004
 31
0.0
  0
LINE
  5
285
330
1F
100
AcDbEntity
  8
0
  6
Continuous
 62
     7
370
    25
100
AcDbLine
 10
15.6427725706
 20
13.2936230152
 30
0.0
 11
15.5867308296
 21
13.2239076222
 31
0.0
  0
LINE
  5
286
330
1F
100
AcDbEntity
  8
0
  6
Continuous
 62
     7
370
    25
100
AcDbLine
 10
16.3796869852
 20
12.5325870864
 30
0.0
 11
16.3397995516
 21
12.4829674982
 31
0.0
  0
LINE
  5
287
330
1F
100
AcDbEntity
  8
0
  6
Continuous
 62
     7
370
    25
100
AcDbLine
 10
15.6427725706
 20
13.140521613
 30
0.0
 11
15.5867308296
 21
13.0708062199
 31
0.0
  0
LINE
  5
288
330
1F
100
AcDbEntity
  8
0
  6
Continuous
 62
     7
370
    25
100
AcDbLine
 10
16.3796869852
 20
12.3794856842
 30
0.0
 11
16.3397995516
 21
12.3298660959
 31
0.0
  0
LINE
  5
289
330
1F
100
AcDbEntity
  8
0
  6
Continuous
 62
     7
370
    25
100
AcDbLine
 10
15.6427725706
 20
12.9874202107
 30
0.0
 11
15.5867308296
 21
12.9177048177
 31
0.0
  0
LINE
  5
28A
330
1F
100
AcDbEntity
  8
0
  6
Continuous
 62
     7
370
    25
100
AcDbLine
 10
16.3796869852
 20
12.2263842819
 30
0.0
 11
16.3397995516
 21
12.1767646937
 31
0.0
  0
LINE
  5
28B
330
1F
100
AcDbEntity
  8
0
  6
Continuous
 62
     7
370
    25
100
AcDbLine
 10
15.6427725706
 20
12.8343188085
 30
0.0
 11
15.5867308296
 21
12.7646034155
 31
0.0
  0
LINE
  5
28C
330
1F
100
AcDbEntity
  8
0
  6
Continuous
 62
     7
370
    25
100
AcDbLine
 10
15.6427725706
 20
12.6812174063
 30
0.0
 11
15.5867308296
 21
12.6115020132
 31
0.0
  0
ARC
  5
28D
330
1F
100
AcDbEntity
  8
0
  6
Continuous
 62
     7
370
    25
100
AcDbCircle
 10
3.3233136333
 20
14.1602786382
 30
0.0
 40
0.1240000000000073
100
AcDbArc
 50
98.3466192632
 51
261.6533807368
  0
LINE
  5
28E
330
1F
100
AcDbEntity
  8
0
  6
Continuous
 62
     7
370
    25
100
AcDbLine
 10
3.3053136333
 20
14.2829652308
 30
0.0
 11
3.3053136333
 21
14.0375920456
 31
0.0
  0
LINE
  5
28F
330
1F
100
AcDbEntity
  8
0
  6
Continuous
 62
     7
370
    25
100
AcDbLine
 10
3.3413136333
 20
14.0375920456
 30
0.0
 11
3.3413136333
 21
14.2829652308
 31
0.0
  0
ARC
  5
290
330
1F
100
AcDbEntity
  8
0
  6
Continuous
 62
     7
370
    25
100
AcDbCircle
 10
3.3233136333
 20
14.1602786382
 30
0.0
 40
0.1240000000000035
100
AcDbArc
 50
278.3466192632
 51
81.6533807368
  0
ARC
  5
291
330
1F
100
AcDbEntity
  8
0
  6
Continuous
 62
     7
370
    25
100
AcDbCircle
 10
3.3233136333
 20
14.1602786382
 30
0.0
 40
0.0848820967982646
100
AcDbArc
 50
77.756966423
 51
102.243033577
  0
ARC
  5
292
330
1F
100
AcDbEntity
  8
0
  6
Continuous
 62
     7
370
    25
100
AcDbCircle
 10
3.3233136333
 20
14.1602786382
 30
0.0
 40
0.0848820967982733
100
AcDbArc
 50
257.756966423
 51
282.243033577
  0
ARC
  5
293
330
1F
100
AcDbEntity
  8
0
  6
Continuous
 62
     7
370
    25
100
AcDbCircle
 10
7.2233136333
 20
14.1602786382
 30
0.0
 40
0.1240000000000053
100
AcDbArc
 50
98.3466192632
 51
261.6533807368
  0
LINE
  5
294
330
1F
100
AcDbEntity
  8
0
  6
Continuous
 62
     7
370
    25
100
AcDbLine
 10
7.2053136333
 20
14.2829652308
 30
0.0
 11
7.2053136333
 21
14.0375920456
 31
0.0
  0
ARC
  5
295
330
1F
100
AcDbEntity
  8
0
  6
Continuous
 62
     7
370
    25
100
AcDbCircle
 10
7.2233136333
 20
14.1602786382
 30
0.0
 40
0.1240000000000036
100
AcDbArc
 50
278.3466192632
 51
81.6533807368
  0
LINE
  5
296
330
1F
100
AcDbEntity
  8
0
  6
Continuous
 62
     7
370
    25
100
AcDbLine
 10
7.2413136333
 20
14.0375920456
 30
0.0
 11
7.2413136333
 21
14.2829652308
 31
0.0
  0
ARC
  5
297
330
1F
100
AcDbEntity
  8
0
  6
Continuous
 62
     7
370
    25
100
AcDbCircle
 10
7.2233136333
 20
14.1602786382
 30
0.0
 40
0.0848820967982662
100
AcDbArc
 50
77.756966423
 51
102.243033577
  0
ARC
  5
298
330
1F
100
AcDbEntity
  8
0
  6
Continuous
 62
     7
370
    25
100
AcDbCircle
 10
7.2233136333
 20
14.1602786382
 30
0.0
 40
0.0848820967982732
100
AcDbArc
 50
257.756966423
 51
282.243033577
  0
ARC
  5
299
330
1F
100
AcDbEntity
  8
0
  6
Continuous
 62
     7
370
    25
100
AcDbCircle
 10
3.3233136333
 20
12.1602786382
 30
0.0
 40
0.1240000000000035
100
AcDbArc
 50
278.3466192632
 51
81.6533807368
  0
LINE
  5
29A
330
1F
100
AcDbEntity
  8
0
  6
Continuous
 62
     7
370
    25
100
AcDbLine
 10
3.3413136333
 20
12.0375920456
 30
0.0
 11
3.3413136333
 21
12.2829652308
 31
0.0
  0
ARC
  5
29B
330
1F
100
AcDbEntity
  8
0
  6
Continuous
 62
     7
370
    25
100
AcDbCircle
 10
3.3233136333
 20
12.1602786382
 30
0.0
 40
0.1240000000000037
100
AcDbArc
 50
98.3466192632
 51
261.6533807368
  0
LINE
  5
29C
330
1F
100
AcDbEntity
  8
0
  6
Continuous
 62
     7
370
    25
100
AcDbLine
 10
3.3053136333
 20
12.2829652308
 30
0.0
 11
3.3053136333
 21
12.0375920456
 31
0.0
  0
ARC
  5
29D
330
1F
100
AcDbEntity
  8
0
  6
Continuous
 62
     7
370
    25
100
AcDbCircle
 10
3.3233136333
 20
12.1602786382
 30
0.0
 40
0.0848820967982645
100
AcDbArc
 50
77.756966423
 51
102.243033577
  0
ARC
  5
29E
330
1F
100
AcDbEntity
  8
0
  6
Continuous
 62
     7
370
    25
100
AcDbCircle
 10
3.3233136333
 20
12.1602786382
 30
0.0
 40
0.0848820967982732
100
AcDbArc
 50
257.756966423
 51
282.243033577
  0
ARC
  5
29F
330
1F
100
AcDbEntity
  8
0
  6
Continuous
 62
     7
370
    25
100
AcDbCircle
 10
7.2233136333
 20
12.1602786382
 30
0.0
 40
0.1240000000000036
100
AcDbArc
 50
98.3466192632
 51
261.6533807368
  0
LINE
  5
2A0
330
1F
100
AcDbEntity
  8
0
  6
Continuous
 62
     7
370
    25
100
AcDbLine
 10
7.2053136333
 20
12.2829652308
 30
0.0
 11
7.2053136333
 21
12.0375920456
 31
0.0
  0
ARC
  5
2A1
330
1F
100
AcDbEntity
  8
0
  6
Continuous
 62
     7
370
    25
100
AcDbCircle
 10
7.2233136333
 20
12.1602786382
 30
0.0
 40
0.1240000000000036
100
AcDbArc
 50
278.3466192632
 51
81.6533807368
  0
LINE
  5
2A2
330
1F
100
AcDbEntity
  8
0
  6
Continuous
 62
     7
370
    25
100
AcDbLine
 10
7.2413136333
 20
12.0375920456
 30
0.0
 11
7.2413136333
 21
12.2829652308
 31
0.0
  0
ARC
  5
2A3
330
1F
100
AcDbEntity
  8
0
  6
Continuous
 62
     7
370
    25
100
AcDbCircle
 10
7.2233136333
 20
12.1602786382
 30
0.0
 40
0.0848820967982664
100
AcDbArc
 50
77.756966423
 51
102.243033577
  0
ARC
  5
2A4
330
1F
100
AcDbEntity
  8
0
  6
Continuous
 62
     7
370
    25
100
AcDbCircle
 10
7.2233136333
 20
12.1602786382
 30
0.0
 40
0.0848820967982734
100
AcDbArc
 50
257.756966423
 51
282.243033577
  0
LINE
  5
2A5
330
1F
100
AcDbEntity
  8
0
  6
Continuous
 62
     7
370
    25
100
AcDbLine
 10
3.0280279371
 20
14.5155643343
 30
0.0
 11
7.5185993294
 21
14.5155643343
 31
0.0
  0
LINE
  5
2A6
330
1F
100
AcDbEntity
  8
0
  6
Continuous
 62
     7
370
    25
100
AcDbLine
 10
2.9993912043
 20
14.5442010671
 30
0.0
 11
3.0280279371
 21
14.5155643343
 31
0.0
  0
LINE
  5
2A7
330
1F
100
AcDbEntity
  8
0
  6
Continuous
 62
     7
370
    25
100
AcDbLine
 10
7.5472360622
 20
14.5442010671
 30
0.0
 11
2.9993912043
 21
14.5442010671
 31
0.0
  0
LINE
  5
2A8
330
1F
100
AcDbEntity
  8
0
  6
Continuous
 62
     7
370
    25
100
AcDbLine
 10
7.5472360622
 20
14.5442010671
 30
0.0
 11
7.5185993294
 21
14.5155643343
 31
0.0
  0
LINE
  5
2A9
330
1F
100
AcDbEntity
  8
0
  6
Continuous
 62
     7
370
    25
100
AcDbLine
 10
3.0280279371
 20
11.8049929421
 30
0.0
 11
3.0280279371
 21
14.5155643343
 31
0.0
  0
LINE
  5
2AA
330
1F
100
AcDbEntity
  8
0
  6
Continuous
 62
     7
370
    25
100
AcDbLine
 10
2.9993912043
 20
11.7763562093
 30
0.0
 11
3.0280279371
 21
11.8049929421
 31
0.0
  0
LINE
  5
2AB
330
1F
100
AcDbEntity
  8
0
  6
Continuous
 62
     7
370
    25
100
AcDbLine
 10
2.9990422094
 20
11.7656390548
 30
0.0
 11
2.9993912043
 21
11.7763562093
 31
0.0
  0
LINE
  5
2AC
330
1F
100
AcDbEntity
  8
0
  6
Continuous
 62
     7
370
    25
100
AcDbLine
 10
2.9990422094
 20
14.5549182216
 30
0.0
 11
2.9990422094
 21
11.7656390548
 31
0.0
  0
LINE
  5
2AD
330
1F
100
AcDbEntity
  8
0
  6
Continuous
 62
     7
370
    25
100
AcDbLine
 10
2.9993912043
 20
14.5442010671
 30
0.0
 11
2.9990422094
 21
14.5549182216
 31
0.0
  0
LINE
  5
2AE
330
1F
100
AcDbEntity
  8
0
  6
Continuous
 62
     7
370
    25
100
AcDbLine
 10
7.5472360622
 20
11.7763562093
 30
0.0
 11
7.5185993294
 21
11.8049929421
 31
0.0
  0
LINE
  5
2AF
330
1F
100
AcDbEntity
  8
0
  6
Continuous
 62
     7
370
    25
100
AcDbLine
 10
7.5185993294
 20
14.5155643343
 30
0.0
 11
7.5185993294
 21
11.8049929421
 31
0.0
  0
LINE
  5
2B0
330
1F
100
AcDbEntity
  8
0
  6
Continuous
 62
     7
370
    25
100
AcDbLine
 10
7.5475850571
 20
14.5549182216
 30
0.0
 11
7.5472360622
 21
14.5442010671
 31
0.0
  0
LINE
  5
2B1
330
1F
100
AcDbEntity
  8
0
  6
Continuous
 62
     7
370
    25
100
AcDbLine
 10
7.5475850571
 20
11.7656390548
 30
0.0
 11
7.5475850571
 21
14.5549182216
 31
0.0
  0
LINE
  5
2B2
330
1F
100
AcDbEntity
  8
0
  6
Continuous
 62
     7
370
    25
100
AcDbLine
 10
7.5472360622
 20
11.7763562093
 30
0.0
 11
7.5475850571
 21
11.7656390548
 31
0.0
  0
LINE
  5
2B3
330
1F
100
AcDbEntity
  8
0
  6
Continuous
 62
     7
370
    25
100
AcDbLine
 10
7.5185993294
 20
11.8049929421
 30
0.0
 11
3.0280279371
 21
11.8049929421
 31
0.0
  0
LINE
  5
2B4
330
1F
100
AcDbEntity
  8
0
  6
Continuous
 62
     7
370
    25
100
AcDbLine
 10
2.9993912043
 20
11.7763562093
 30
0.0
 11
7.5472360622
 21
11.7763562093
 31
0.0
  0
LINE
  5
2B5
330
1F
100
AcDbEntity
  8
0
  6
Continuous
 62
     7
370
    25
100
AcDbLine
 10
7.4233136333
 20
14.4205643343
 30
0.0
 11
6.7383136333
 21
14.4205643343
 31
0.0
  0
LINE
  5
2B6
330
1F
100
AcDbEntity
  8
0
  6
Continuous
 62
     7
370
    25
100
AcDbLine
 10
3.8083136333
 20
14.4205643343
 30
0.0
 11
3.1233136333
 21
14.4205643343
 31
0.0
  0
LINE
  5
2B7
330
1F
100
AcDbEntity
  8
0
  6
Continuous
 62
     7
370
    25
100
AcDbLine
 10
7.4233136333
 20
11.8999929421
 30
0.0
 11
7.4233136333
 21
14.4205643343
 31
0.0
  0
LINE
  5
2B8
330
1F
100
AcDbEntity
  8
0
  6
Continuous
 62
     7
370
    25
100
AcDbLine
 10
6.7383136333
 20
11.8999929421
 30
0.0
 11
7.4233136333
 21
11.8999929421
 31
0.0
  0
LINE
  5
2B9
330
1F
100
AcDbEntity
  8
0
  6
Continuous
 62
     7
370
    25
100
AcDbLine
 10
3.1233136333
 20
14.4205643343
 30
0.0
 11
3.1233136333
 21
11.8999929421
 31
0.0
  0
LINE
  5
2BA
330
1F
100
AcDbEntity
  8
0
  6
Continuous
 62
     7
370
    25
100
AcDbLine
 10
3.1233136333
 20
11.8999929421
 30
0.0
 11
3.8083136333
 21
11.8999929421
 31
0.0
  0
LINE
  5
2BB
330
1F
100
AcDbEntity
  8
0
  6
Continuous
 62
     7
370
    25
100
AcDbLine
 10
3.8083136333
 20
14.4205643343
 30
0.0
 11
6.7383136333
 21
14.4205643343
 31
0.0
  0
LINE
  5
2BC
330
1F
100
AcDbEntity
  8
0
  6
Continuous
 62
     7
370
    25
100
AcDbLine
 10
6.7383136333
 20
11.8999929421
 30
0.0
 11
3.8083136333
 21
11.8999929421
 31
0.0
  0
CIRCLE
  5
2BD
330
1F
100
AcDbEntity
  8
0
  6
Continuous
 62
     7
370
    25
100
AcDbCircle
 10
3.3233136333
 20
12.1602786382
 30
0.0
 40
0.1395000000000017
  0
CIRCLE
  5
2BE
330
1F
100
AcDbEntity
  8
0
  6
Continuous
 62
     7
370
    25
100
AcDbCircle
 10
7.2233136333
 20
12.1602786382
 30
0.0
 40
0.1395
  0
CIRCLE
  5
2BF
330
1F
100
AcDbEntity
  8
0
  6
Continuous
 62
     7
370
    25
100
AcDbCircle
 10
3.3233136333
 20
14.1602786382
 30
0.0
 40
0.1395000000000017
  0
CIRCLE
  5
2C0
330
1F
100
AcDbEntity
  8
0
  6
Continuous
 62
     7
370
    25
100
AcDbCircle
 10
7.2233136333
 20
14.1602786382
 30
0.0
 40
0.1395000000000017
  0
CIRCLE
  5
2C1
330
1F
100
AcDbEntity
  8
0
  6
Continuous
 62
     7
370
    25
100
AcDbCircle
 10
3.3683136333
 20
13.1602786382
 30
0.0
 40
0.097999999999999
  0
CIRCLE
  5
2C2
330
1F
100
AcDbEntity
  8
0
  6
Continuous
 62
     7
370
    25
100
AcDbCircle
 10
3.6183136333
 20
12.2227786382
 30
0.0
 40
0.0689999999999991
  0
CIRCLE
  5
2C3
330
1F
100
AcDbEntity
  8
0
  6
Continuous
 62
     7
370
    25
100
AcDbCircle
 10
3.6183136333
 20
13.1602786382
 30
0.0
 40
0.0690000000000008
  0
CIRCLE
  5
2C4
330
1F
100
AcDbEntity
  8
0
  6
Continuous
 62
     7
370
    25
100
AcDbCircle
 10
3.6183136333
 20
14.0977786382
 30
0.0
 40
0.0689999999999991
  0
LINE
  5
2C5
330
1F
100
AcDbEntity
  8
0
  6
Continuous
 62
     7
370
    25
100
AcDbLine
 10
3.8083136333
 20
14.4205643343
 30
0.0
 11
3.8083136333
 21
11.8999929421
 31
0.0
  0
CIRCLE
  5
2C6
330
1F
100
AcDbEntity
  8
0
  6
Continuous
 62
     7
370
    25
100
AcDbCircle
 10
6.9283136333
 20
14.0977786382
 30
0.0
 40
0.0689999999999991
  0
CIRCLE
  5
2C7
330
1F
100
AcDbEntity
  8
0
  6
Continuous
 62
     7
370
    25
100
AcDbCircle
 10
6.9283136333
 20
13.1602786382
 30
0.0
 40
0.0690000000000008
  0
CIRCLE
  5
2C8
330
1F
100
AcDbEntity
  8
0
  6
Continuous
 62
     7
370
    25
100
AcDbCircle
 10
7.1783136333
 20
13.1602786382
 30
0.0
 40
0.097999999999999
  0
CIRCLE
  5
2C9
330
1F
100
AcDbEntity
  8
0
  6
Continuous
 62
     7
370
    25
100
AcDbCircle
 10
6.9283136333
 20
12.2227786382
 30
0.0
 40
0.0689999999999991
  0
LINE
  5
2CA
330
1F
100
AcDbEntity
  8
0
  6
Continuous
 62
     7
370
    25
100
AcDbLine
 10
6.7383136333
 20
11.8999929421
 30
0.0
 11
6.7383136333
 21
14.4205643343
 31
0.0
  0
LINE
  5
2CB
330
1F
100
AcDbEntity
  8
0
  6
Continuous
 62
     7
370
    25
100
AcDbLine
 10
7.6226051388
 20
11.6906189731
 30
0.0
 11
7.5475850571
 21
11.7656390548
 31
0.0
  0
LINE
  5
2CC
330
1F
100
AcDbEntity
  8
0
  6
Continuous
 62
     7
370
    25
100
AcDbLine
 10
7.6226051388
 20
11.6906189731
 30
0.0
 11
2.9240221277
 21
11.6906189731
 31
0.0
  0
LINE
  5
2CD
330
1F
100
AcDbEntity
  8
0
  6
Continuous
 62
     7
370
    25
100
AcDbLine
 10
2.9990422094
 20
11.7656390548
 30
0.0
 11
2.9240221277
 21
11.6906189731
 31
0.0
  0
LINE
  5
2CE
330
1F
100
AcDbEntity
  8
0
  6
Continuous
 62
     7
370
    25
100
AcDbLine
 10
2.9240221277
 20
14.6299383033
 30
0.0
 11
2.9990422094
 21
14.5549182216
 31
0.0
  0
LINE
  5
2CF
330
1F
100
AcDbEntity
  8
0
  6
Continuous
 62
     7
370
    25
100
AcDbLine
 10
2.9240221277
 20
14.6299383033
 30
0.0
 11
7.6226051388
 21
14.6299383033
 31
0.0
  0
LINE
  5
2D0
330
1F
100
AcDbEntity
  8
0
  6
Continuous
 62
     7
370
    25
100
AcDbLine
 10
7.5475850571
 20
14.5549182216
 30
0.0
 11
7.6226051388
 21
14.6299383033
 31
0.0
  0
LINE
  5
2D1
330
1F
100
AcDbEntity
  8
0
  6
Continuous
 62
     7
370
    25
100
AcDbLine
 10
2.9240221277
 20
11.6906189731
 30
0.0
 11
2.9240221277
 21
14.6299383033
 31
0.0
  0
LINE
  5
2D2
330
1F
100
AcDbEntity
  8
0
  6
Continuous
 62
     7
370
    25
100
AcDbLine
 10
7.6226051388
 20
14.6299383033
 30
0.0
 11
7.6226051388
 21
11.6906189731
 31
0.0
  0
LINE
  5
2D3
330
1F
100
AcDbEntity
  8
0
  6
Continuous
 62
     7
370
    25
100
AcDbLine
 10
7.6293931181
 20
14.636358123
 30
0.0
 11
7.6250280219
 21
14.6319930269
 31
0.0
  0
LINE
  5
2D4
330
1F
100
AcDbEntity
  8
0
  6
Continuous
 62
     7
370
    25
100
AcDbLine
 10
7.6293931181
 20
14.636358123
 30
0.0
 11
7.6293931181
 21
11.6841991534
 31
0.0
  0
LINE
  5
2D5
330
1F
100
AcDbEntity
  8
0
  6
Continuous
 62
     7
370
    25
100
AcDbLine
 10
7.6293931181
 20
11.6841991534
 30
0.0
 11
7.6250280219
 21
11.6885642495
 31
0.0
  0
LINE
  5
2D6
330
1F
100
AcDbEntity
  8
0
  6
Continuous
 62
     7
370
    25
100
AcDbLine
 10
7.6250280219
 20
14.6319930269
 30
0.0
 11
7.6250280219
 21
11.6885642495
 31
0.0
  0
LINE
  5
2D7
330
1F
100
AcDbEntity
  8
0
  6
Continuous
 62
     7
370
    25
100
AcDbLine
 10
7.6250280219
 20
11.6885642495
 30
0.0
 11
2.9215992446
 21
11.6885642495
 31
0.0
  0
LINE
  5
2D8
330
1F
100
AcDbEntity
  8
0
  6
Continuous
 62
     7
370
    25
100
AcDbLine
 10
2.9215992446
 20
11.6885642495
 30
0.0
 11
2.9215992446
 21
14.6319930269
 31
0.0
  0
LINE
  5
2D9
330
1F
100
AcDbEntity
  8
0
  6
Continuous
 62
     7
370
    25
100
AcDbLine
 10
2.9215992446
 20
14.6319930269
 30
0.0
 11
7.6250280219
 21
14.6319930269
 31
0.0
  0
LINE
  5
2DA
330
1F
100
AcDbEntity
  8
0
  6
Continuous
 62
     7
370
    25
100
AcDbLine
 10
2.9172341484
 20
11.6841991534
 30
0.0
 11
2.9215992446
 21
11.6885642495
 31
0.0
  0
LINE
  5
2DB
330
1F
100
AcDbEntity
  8
0
  6
Continuous
 62
     7
370
    25
100
AcDbLine
 10
2.9172341484
 20
11.6841991534
 30
0.0
 11
2.9172341484
 21
14.636358123
 31
0.0
  0
LINE
  5
2DC
330
1F
100
AcDbEntity
  8
0
  6
Continuous
 62
     7
370
    25
100
AcDbLine
 10
2.9172341484
 20
14.636358123
 30
0.0
 11
2.9215992446
 21
14.6319930269
 31
0.0
  0
LINE
  5
2DD
330
1F
100
AcDbEntity
  8
0
  6
Continuous
 62
     7
370
    25
100
AcDbLine
 10
7.6293931181
 20
11.6841991534
 30
0.0
 11
2.9172341484
 21
11.6841991534
 31
0.0
  0
LINE
  5
2DE
330
1F
100
AcDbEntity
  8
0
  6
Continuous
 62
     7
370
    25
100
AcDbLine
 10
2.9172341484
 20
14.636358123
 30
0.0
 11
7.6293931181
 21
14.636358123
 31
0.0
  0
CIRCLE
  5
2DF
330
1F
100
AcDbEntity
  8
0
  6
Continuous
 62
     7
370
    25
100
AcDbCircle
 10
3.3658136333
 20
13.1602786382
 30
0.0
 40
0.0700000000000003
  0
CIRCLE
  5
2E0
330
1F
100
AcDbEntity
  8
0
  6
Continuous
 62
     7
370
    25
100
AcDbCircle
 10
7.1783136333
 20
13.1602786382
 30
0.0
 40
0.0700000000000003
  0
ARC
  5
2E1
330
1F
100
AcDbEntity
  8
0
  6
Continuous
 62
     7
370
    25
100
AcDbCircle
 10
3.6158136333
 20
12.2227786382
 30
0.0
 40
0.0700000000000015
100
AcDbArc
 50
294.519313735
 51
65.4806856101
  0
ARC
  5
2E2
330
1F
100
AcDbEntity
  8
0
  6
Continuous
 62
     7
370
    25
100
AcDbCircle
 10
3.6158136333
 20
14.0977786382
 30
0.0
 40
0.0700000000000019
100
AcDbArc
 50
294.5193212481
 51
65.4806772617
  0
ARC
  5
2E3
330
1F
100
AcDbEntity
  8
0
  6
Continuous
 62
     7
370
    25
100
AcDbCircle
 10
3.6158136333
 20
13.1602786382
 30
0.0
 40
0.0700000000000011
100
AcDbArc
 50
294.5193164833
 51
65.4806835168
  0
LINE
  5
2E4
330
1F
100
AcDbEntity
  8
0
  6
Continuous
 62
     7
370
    25
100
AcDbLine
 10
3.9470636333
 20
11.9602786382
 30
0.0
 11
6.5970636333
 21
11.9602786382
 31
0.0
  0
LINE
  5
2E5
330
1F
100
AcDbEntity
  8
0
  6
Continuous
 62
     7
370
    25
100
AcDbLine
 10
6.5970636333
 20
11.9602786382
 30
0.0
 11
6.5970636333
 21
14.3602786382
 31
0.0
  0
LINE
  5
2E6
330
1F
100
AcDbEntity
  8
0
  6
Continuous
 62
     7
370
    25
100
AcDbLine
 10
6.5970636333
 20
14.3602786382
 30
0.0
 11
3.9470636333
 21
14.3602786382
 31
0.0
  0
LINE
  5
2E7
330
1F
100
AcDbEntity
  8
0
  6
Continuous
 62
     7
370
    25
100
AcDbLine
 10
3.9470636333
 20
14.3602786382
 30
0.0
 11
3.9470636333
 21
11.9602786382
 31
0.0
  0
ARC
  5
2E8
330
1F
100
AcDbEntity
  8
0
  6
Continuous
 62
     7
370
    25
100
AcDbCircle
 10
4.4932136333
 20
14.0600691146
 30
0.0
 40
0.1250000004097027
100
AcDbArc
 50
205.7814061433
 51
253.3072043244
  0
SPLINE
  5
2E9
330
1F
100
AcDbEntity
  8
0
  6
Continuous
 62
     7
370
    25
100
AcDbSpline
210
0.0
220
0.0
230
1.0
 70
    24
 71
     3
 72
     9
 73
     5
 74
     0
 42
0.00000001
 43
0.00000001
 40
0.0
 40
0.0
 40
0.0
 40
0.0
 40
0.4954579638440885
 40
1.0
 40
1.0
 40
1.0
 40
1.0
 10
4.388181131802227
 20
13.9610665539603
 30
0.0
 10
4.399407740276476
 20
13.95769994862882
 30
0.0
 10
4.422066793704833
 20
13.95090501227265
 30
0.0
 10
4.445490419211893
 20
13.9438807980858
 30
0.0
 10
4.457308622919378
 20
13.94033678675757
 30
0.0
  0
LINE
  5
2EA
330
1F
100
AcDbEntity
  8
0
  6
Continuous
 62
     7
370
    25
100
AcDbLine
 10
4.3777845378
 20
14.0050225533
 30
0.0
 11
4.3881811318
 21
13.961066554
 31
0.0
  0
LINE
  5
2EB
330
1F
100
AcDbEntity
  8
0
  6
Continuous
 62
     7
370
    25
100
AcDbLine
 10
4.3777845378
 20
14.0050225533
 30
0.0
 11
4.3806561374
 21
14.0057017519
 31
0.0
  0
ARC
  5
2EC
330
1F
100
AcDbEntity
  8
0
  6
Continuous
 62
     7
370
    25
100
AcDbCircle
 10
4.4932136333
 20
14.0600691146
 30
0.0
 40
0.1250000004096765
100
AcDbArc
 50
133.3072045412
 51
180.8330027223
  0
ARC
  5
2ED
330
1F
100
AcDbEntity
  8
0
  6
Continuous
 62
     7
370
    25
100
AcDbCircle
 10
4.4932136333
 20
14.0600691146
 30
0.0
 40
0.1250000004096765
100
AcDbArc
 50
73.3072043244
 51
133.3072045412
  0
ARC
  5
2EE
330
1F
100
AcDbEntity
  8
0
  6
Continuous
 62
     7
370
    25
100
AcDbCircle
 10
4.4932136333
 20
14.0600691146
 30
0.0
 40
0.1250000004096469
100
AcDbArc
 50
25.7814061433
 51
73.3072043244
  0
ARC
  5
2EF
330
1F
100
AcDbEntity
  8
0
  6
Continuous
 62
     7
370
    25
100
AcDbCircle
 10
4.4932136333
 20
14.0600691146
 30
0.0
 40
0.109375000000025
100
AcDbArc
 50
27.5988161346
 51
179.015592731
  0
LINE
  5
2F0
330
1F
100
AcDbEntity
  8
0
  6
Continuous
 62
     7
370
    25
100
AcDbLine
 10
4.6057711291
 20
14.1144364773
 30
0.0
 11
4.5901431967
 21
14.1107401157
 31
0.0
  0
LINE
  5
2F1
330
1F
100
AcDbEntity
  8
0
  6
Continuous
 62
     7
370
    25
100
AcDbLine
 10
4.3838547762
 20
14.0619482102
 30
0.0
 11
4.3682268438
 21
14.0582518486
 31
0.0
  0
LINE
  5
2F2
330
1F
100
AcDbEntity
  8
0
  6
Continuous
 62
     7
370
    25
100
AcDbLine
 10
4.6314686164
 20
14.0186095799
 30
0.0
 11
4.6210720224
 21
14.0625655793
 31
0.0
  0
SPLINE
  5
2F3
330
1F
100
AcDbEntity
  8
0
  6
Continuous
 62
     7
370
    25
100
AcDbSpline
210
0.0
220
0.0
230
1.0
 70
    24
 71
     3
 72
    10
 73
     6
 74
     0
 42
0.00000001
 43
0.00000001
 40
0.0
 40
0.0
 40
0.0
 40
0.0
 40
0.0700274472315509
 40
0.5307521380675436
 40
1.0
 40
1.0
 40
1.0
 40
1.0
 10
4.578952366014609
 20
13.96910829993676
 30
0.0
 10
4.580196058831588
 20
13.9702805920544
 30
0.0
 10
4.589622257383823
 20
13.97916563031408
 30
0.0
 10
4.607396006935151
 20
13.99591898469216
 30
0.0
 10
4.623395534842785
 20
14.01099997591139
 30
0.0
 10
4.631468616397973
 20
14.0186095799415
 30
0.0
  0
ARC
  5
2F4
330
1F
100
AcDbEntity
  8
0
  6
Continuous
 62
     7
370
    25
100
AcDbCircle
 10
4.4932136333
 20
14.0600691146
 30
0.0
 40
0.1250000004096851
100
AcDbArc
 50
313.3072045412
 51
0.8330027223
  0
LINE
  5
2F5
330
1F
100
AcDbEntity
  8
0
  6
Continuous
 62
     7
370
    25
100
AcDbLine
 10
4.6182004227
 20
14.0618863806
 30
0.0
 11
4.6210720224
 21
14.0625655793
 31
0.0
  0
SPLINE
  5
2F6
330
1F
100
AcDbEntity
  8
0
  6
Continuous
 62
     7
370
    25
100
AcDbSpline
210
0.0
220
0.0
230
1.0
 70
    24
 71
     3
 72
     9
 73
     5
 74
     0
 42
0.00000001
 43
0.00000001
 40
0.0
 40
0.0
 40
0.0
 40
0.0
 40
0.4078861665961805
 40
1.0
 40
1.0
 40
1.0
 40
1.0
 10
4.354958650116767
 20
14.1015286492959
 30
0.0
 10
4.35635288866825
 20
14.09563391601888
 30
0.0
 10
4.359771093710895
 20
14.08118200820792
 30
0.0
 10
4.363278475108806
 20
14.0663530696307
 30
0.0
 10
4.365355244153533
 20
14.05757264996444
 30
0.0
  0
SPLINE
  5
2F7
330
1F
100
AcDbEntity
  8
0
  6
Continuous
 62
     7
370
    25
100
AcDbSpline
210
0.0
220
0.0
230
1.0
 70
    24
 71
     3
 72
    10
 73
     6
 74
     0
 42
0.00000001
 43
0.00000001
 40
0.0
 40
0.0
 40
0.0
 40
0.0
 40
0.0700274472314692
 40
0.5307521380675455
 40
1.0
 40
1.0
 40
1.0
 40
1.0
 10
4.407474900500129
 20
14.15102992930065
 30
0.0
 10
4.406231207683152
 20
14.149857637183
 30
0.0
 10
4.39680500913092
 20
14.14097259892332
 30
0.0
 10
4.37903125957958
 20
14.12421924454527
 30
0.0
 10
4.363031731671951
 20
14.10913825332602
 30
0.0
 10
4.354958650116767
 20
14.1015286492959
 30
0.0
  0
LINE
  5
2F8
330
1F
100
AcDbEntity
  8
0
  6
Continuous
 62
     7
370
    25
100
AcDbLine
 10
4.3682268438
 20
14.0582518486
 30
0.0
 11
4.3653552442
 21
14.05757265
 31
0.0
  0
ARC
  5
2F9
330
1F
100
AcDbEntity
  8
0
  6
Continuous
 62
     7
370
    25
100
AcDbCircle
 10
4.4932136333
 20
14.0600691146
 30
0.0
 40
0.1250000004097027
100
AcDbArc
 50
253.3072043244
 51
313.3072045412
  0
ARC
  5
2FA
330
1F
100
AcDbEntity
  8
0
  6
Continuous
 62
     7
370
    25
100
AcDbCircle
 10
4.4932136333
 20
14.0600691146
 30
0.0
 40
0.1093750000000413
100
AcDbArc
 50
207.5988161346
 51
359.015592731
  0
LINE
  5
2FB
330
1F
100
AcDbEntity
  8
0
  6
Continuous
 62
     7
370
    25
100
AcDbLine
 10
4.3806561374
 20
14.0057017519
 30
0.0
 11
4.3962840698
 21
14.0093981136
 31
0.0
  0
LINE
  5
2FC
330
1F
100
AcDbEntity
  8
0
  6
Continuous
 62
     7
370
    25
100
AcDbLine
 10
4.6025724904
 20
14.058190019
 30
0.0
 11
4.6182004227
 21
14.0618863806
 31
0.0
  0
SPLINE
  5
2FD
330
1F
100
AcDbEntity
  8
0
  6
Continuous
 62
     7
370
    25
100
AcDbSpline
210
0.0
220
0.0
230
1.0
 70
    24
 71
     3
 72
     9
 73
     5
 74
     0
 42
0.00000001
 43
0.00000001
 40
0.0
 40
0.0
 40
0.0
 40
0.0
 40
0.4954579637694498
 40
1.0
 40
1.0
 40
1.0
 40
1.0
 10
4.526436114942797
 20
13.91960701928308
 30
0.0
 10
4.534964984998597
 20
13.927646244888
 30
0.0
 10
4.552179099372525
 20
13.94387209287672
 30
0.0
 10
4.569974060229293
 20
13.96064544081406
 30
0.0
 10
4.578952366014609
 20
13.96910829993676
 30
0.0
  0
SPLINE
  5
2FE
330
1F
100
AcDbEntity
  8
0
  6
Continuous
 62
     7
370
    25
100
AcDbSpline
210
0.0
220
0.0
230
1.0
 70
    24
 71
     3
 72
    10
 73
     6
 74
     0
 42
0.00000001
 43
0.00000001
 40
0.0
 40
0.0
 40
0.0
 40
0.0
 40
0.0700274563532697
 40
0.5307521426902454
 40
1.0
 40
1.0
 40
1.0
 40
1.0
 10
4.457308622919378
 20
13.94033678675757
 30
0.0
 10
4.458945704315797
 20
13.93984586316565
 30
0.0
 10
4.471353472699161
 20
13.93612505475877
 30
0.0
 10
4.494749178243555
 20
13.92910921313579
 30
0.0
 10
4.515809463744269
 20
13.92279371103091
 30
0.0
 10
4.526436114942797
 20
13.91960701928308
 30
0.0
  0
SPLINE
  5
2FF
330
1F
100
AcDbEntity
  8
0
  6
Continuous
 62
     7
370
    25
100
AcDbSpline
210
0.0
220
0.0
230
1.0
 70
    24
 71
     3
 72
     9
 73
     5
 74
     0
 42
0.00000001
 43
0.00000001
 40
0.0
 40
0.0
 40
0.0
 40
0.0
 40
0.4954579638440538
 40
0.9999999999999999
 40
0.9999999999999999
 40
0.9999999999999999
 40
0.9999999999999999
 10
4.598246134712553
 20
14.15907167527714
 30
0.0
 10
4.587019526238306
 20
14.16243828060863
 30
0.0
 10
4.56436047280995
 20
14.16923321696483
 30
0.0
 10
4.540936847302864
 20
14.17625743115164
 30
0.0
 10
4.529118643595364
 20
14.17980144247985
 30
0.0
  0
SPLINE
  5
300
330
1F
100
AcDbEntity
  8
0
  6
Continuous
 62
     7
370
    25
100
AcDbSpline
210
0.0
220
0.0
230
1.0
 70
    24
 71
     3
 72
     9
 73
     5
 74
     0
 42
0.00000001
 43
0.00000001
 40
0.0
 40
0.0
 40
0.0
 40
0.0
 40
0.5921138334028485
 40
1.0
 40
1.0
 40
1.0
 40
1.0
 10
4.608642728749293
 20
14.11511567594565
 30
0.0
 10
4.60656595970456
 20
14.1238960956119
 30
0.0
 10
4.603058578306633
 20
14.13872503418911
 30
0.0
 10
4.599640373264024
 20
14.1531769420001
 30
0.0
 10
4.598246134712553
 20
14.15907167527714
 30
0.0
  0
LINE
  5
301
330
1F
100
AcDbEntity
  8
0
  6
Continuous
 62
     7
370
    25
100
AcDbLine
 10
4.6086427287
 20
14.1151156759
 30
0.0
 11
4.6057711291
 21
14.1144364773
 31
0.0
  0
SPLINE
  5
302
330
1F
100
AcDbEntity
  8
0
  6
Continuous
 62
     7
370
    25
100
AcDbSpline
210
0.0
220
0.0
230
1.0
 70
    24
 71
     3
 72
     9
 73
     5
 74
     0
 42
0.00000001
 43
0.00000001
 40
0.0
 40
0.0
 40
0.0
 40
0.0
 40
0.495457963769428
 40
1.0
 40
1.0
 40
1.0
 40
1.0
 10
4.459991151571949
 20
14.20053120995434
 30
0.0
 10
4.451462281516146
 20
14.19249198434942
 30
0.0
 10
4.43424816714221
 20
14.1762661363607
 30
0.0
 10
4.416453206285444
 20
14.15949278842336
 30
0.0
 10
4.407474900500129
 20
14.15102992930065
 30
0.0
  0
SPLINE
  5
303
330
1F
100
AcDbEntity
  8
0
  6
Continuous
 62
     7
370
    25
100
AcDbSpline
210
0.0
220
0.0
230
1.0
 70
    24
 71
     3
 72
    10
 73
     6
 74
     0
 42
0.00000001
 43
0.00000001
 40
0.0
 40
0.0
 40
0.0
 40
0.0
 40
0.0700274563525828
 40
0.5307521426899461
 40
1.0
 40
1.0
 40
1.0
 40
1.0
 10
4.529118643595364
 20
14.17980144247985
 30
0.0
 10
4.527481562198961
 20
14.18029236607177
 30
0.0
 10
4.515073793815597
 20
14.18401317447862
 30
0.0
 10
4.491678088271247
 20
14.19102901610172
 30
0.0
 10
4.470617802770495
 20
14.19734451820654
 30
0.0
 10
4.459991151571949
 20
14.20053120995434
 30
0.0
  0
LINE
  5
304
330
1F
100
AcDbEntity
  8
0
  6
Continuous
 62
     7
370
    25
100
AcDbLine
 10
4.6025724904
 20
14.058190019
 30
0.0
 11
4.3962840698
 21
14.0093981136
 31
0.0
  0
LINE
  5
305
330
1F
100
AcDbEntity
  8
0
  6
Continuous
 62
     7
370
    25
100
AcDbLine
 10
4.3838547762
 20
14.0619482102
 30
0.0
 11
4.5901431967
 21
14.1107401157
 31
0.0
  0
LINE
  5
306
330
1F
100
AcDbEntity
  8
0
  6
Continuous
 62
     7
370
    25
100
AcDbLine
 10
4.6210720224
 20
14.0625655793
 30
0.0
 11
4.6086427287
 21
14.1151156759
 31
0.0
  0
LINE
  5
307
330
1F
100
AcDbEntity
  8
0
  6
Continuous
 62
     7
370
    25
100
AcDbLine
 10
4.3653552442
 20
14.05757265
 30
0.0
 11
4.3777845378
 21
14.0050225533
 31
0.0
  0
CIRCLE
  5
308
330
1F
100
AcDbEntity
  8
0
  6
Continuous
 62
     7
370
    25
100
AcDbCircle
 10
4.4932136333
 20
14.0600691146
 30
0.0
 40
0.1740000000000107
  0
CIRCLE
  5
309
330
1F
100
AcDbEntity
  8
0
  6
Continuous
 62
     7
370
    25
100
AcDbCircle
 10
5.2733136333
 20
13.1602786382
 30
0.0
 40
0.3500000000000014
  0
CIRCLE
  5
30A
330
1F
100
AcDbEntity
  8
0
  6
Continuous
 62
     7
370
    25
100
AcDbCircle
 10
5.2733136333
 20
13.1602786382
 30
0.0
 40
0.3125
  0
LINE
  5
30B
330
1F
100
AcDbEntity
  8
0
  6
Continuous
 62
     7
370
    25
100
AcDbLine
 10
5.2733136333
 20
13.5102786382
 30
0.0
 11
5.2733136333
 21
13.5702786382
 31
0.0
  0
LWPOLYLINE
  5
30C
330
1F
100
AcDbEntity
  8
0
  6
Continuous
 62
     7
370
    25
100
AcDbPolyline
 90
       34
 70
   128
 43
0.0
 10
5.2733136333
 20
13.5702786382
 10
5.351446947
 20
13.562764893
 10
5.4291241533
 20
13.5395187756
 10
5.5016127555
 20
13.500836285
 10
5.5645474678
 20
13.4488663261
 10
5.6147716191
 20
13.3872289498
 10
5.6514828799
 20
13.3186706231
 10
5.6751173217
 20
13.2418494417
 10
5.6833136333
 20
13.1602786382
 10
5.6751173217
 20
13.0787078347
 10
5.6514828799
 20
13.0018866533
 10
5.6147716191
 20
12.9333283267
 10
5.5645474678
 20
12.8716909503
 10
5.5016127555
 20
12.8197209914
 10
5.4291241533
 20
12.7810385008
 10
5.351446947
 20
12.7577923834
 10
5.2733136333
 20
12.7502786382
 10
5.1951803195
 20
12.7577923834
 10
5.1175031132
 20
12.7810385008
 10
5.0450145111
 20
12.8197209914
 10
4.9820797987
 20
12.8716909503
 10
4.9318556474
 20
12.9333283267
 10
4.8951443866
 20
13.0018866533
 10
4.8715099449
 20
13.0787078347
 10
4.8633136333
 20
13.1602786382
 10
4.8715099449
 20
13.2418494417
 10
4.8951443866
 20
13.3186706231
 10
4.9318556474
 20
13.3872289498
 10
4.9820797987
 20
13.4488663261
 10
5.0450145111
 20
13.500836285
 10
5.1175031132
 20
13.5395187756
 10
5.1951803195
 20
13.562764893
 10
5.2733136333
 20
13.5702786382
 10
5.2733136333
 20
13.5702786382
  0
CIRCLE
  5
30D
330
1F
100
AcDbEntity
  8
0
  6
Continuous
 62
     7
370
    25
100
AcDbCircle
 10
5.2733136333
 20
13.1602786382
 30
0.0
 40
0.4125000000000014
  0
CIRCLE
  5
30E
330
1F
100
AcDbEntity
  8
0
  6
Continuous
 62
     7
370
    25
100
AcDbCircle
 10
6.9295636333
 20
13.1602786382
 30
0.0
 40
0.0625000000000018
  0
ARC
  5
30F
330
1F
100
AcDbEntity
  8
0
  6
Continuous
 62
     7
370
    25
100
AcDbCircle
 10
6.9295636333
 20
12.2227786382
 30
0.0
 40
0.07
100
AcDbArc
 50
143.4381217125
 51
216.5618837305
  0
ARC
  5
310
330
1F
100
AcDbEntity
  8
0
  6
Continuous
 62
     7
370
    25
100
AcDbCircle
 10
6.9295636333
 20
14.0977786382
 30
0.0
 40
0.0700000000000015
100
AcDbArc
 50
143.438165137
 51
216.5618373895
  0
ELLIPSE
  5
311
330
1F
100
AcDbEntity
  8
0
  6
Continuous
 62
     7
370
    25
100
AcDbEllipse
 10
3.6735783851
 20
13.8852786382
 30
0.0
 11
0.0
 21
0.3124999999999982
 31
0.0
210
0.0
220
0.0
230
1.0
 40
0.0349207695
 41
5.367521780887217
 42
5.583046380915395
  0
ELLIPSE
  5
312
330
1F
100
AcDbEntity
  8
0
  6
Continuous
 62
     7
370
    25
100
AcDbEllipse
 10
3.6735783851
 20
13.8852786382
 30
0.0
 11
0.0
 21
0.3124999999999982
 31
0.0
210
0.0
220
0.0
230
1.0
 40
0.0349207695
 41
0.5898334252476808
 42
1.030422299014558
  0
ELLIPSE
  5
313
330
1F
100
AcDbEntity
  8
0
  6
Continuous
 62
     7
370
    25
100
AcDbEllipse
 10
3.6735783851
 20
12.4352786382
 30
0.0
 11
0.0
 21
0.3125
 31
0.0
210
0.0
220
0.0
230
1.0
 40
0.0349207695
 41
2.111170354575254
 42
2.55175922834216
  0
ELLIPSE
  5
314
330
1F
100
AcDbEntity
  8
0
  6
Continuous
 62
     7
370
    25
100
AcDbEllipse
 10
3.6735783851
 20
12.4352786382
 30
0.0
 11
0.0
 21
0.3125
 31
0.0
210
0.0
220
0.0
230
1.0
 40
0.0349207695
 41
3.841731579854434
 42
4.057256179882422
  0
ELLIPSE
  5
315
330
1F
100
AcDbEntity
  8
0
  6
Continuous
 62
     7
370
    25
100
AcDbEllipse
 10
3.6735264049
 20
13.8852786382
 30
0.0
 11
0.0
 21
0.5680388654535022
 31
0.0
210
0.0
220
0.0
230
1.0
 40
0.0349207955
 41
1.074239411602524
 42
1.29752299545664
  0
ELLIPSE
  5
316
330
1F
100
AcDbEntity
  8
0
  6
Continuous
 62
     7
370
    25
100
AcDbEllipse
 10
3.6735264049
 20
12.4352786382
 30
0.0
 11
0.0
 21
0.5680388654535022
 31
0.0
210
0.0
220
0.0
230
1.0
 40
0.0349207955
 41
1.844069658138488
 42
2.067353241981492
  0
ELLIPSE
  5
317
330
1F
100
AcDbEntity
  8
0
  6
Continuous
 62
     7
370
    25
100
AcDbEllipse
 10
6.8730488815
 20
13.8852786382
 30
0.0
 11
0.0
 21
0.3124999999999982
 31
0.0
210
0.0
220
0.0
230
1.0
 40
0.0349207695
 41
0.6842996622907273
 42
0.9286413182927146
  0
ELLIPSE
  5
318
330
1F
100
AcDbEntity
  8
0
  6
Continuous
 62
     7
370
    25
100
AcDbEllipse
 10
6.8730488815
 20
13.8852786382
 30
0.0
 11
0.0
 21
0.3124999999999982
 31
0.0
210
0.0
220
0.0
230
1.0
 40
0.0349207695
 41
5.252763008165244
 42
5.700666625610843
  0
ELLIPSE
  5
319
330
1F
100
AcDbEntity
  8
0
  6
Continuous
 62
     7
370
    25
100
AcDbEllipse
 10
6.8730488815
 20
12.4352786382
 30
0.0
 11
0.0
 21
0.3125
 31
0.0
210
0.0
220
0.0
230
1.0
 40
0.0349207695
 41
3.724111335158833
 42
4.172014952604449
  0
ELLIPSE
  5
31A
330
1F
100
AcDbEntity
  8
0
  6
Continuous
 62
     7
370
    25
100
AcDbEllipse
 10
6.8730488815
 20
12.4352786382
 30
0.0
 11
0.0
 21
0.3125
 31
0.0
210
0.0
220
0.0
230
1.0
 40
0.0349207695
 41
2.212951335296856
 42
2.457292991299438
  0
ELLIPSE
  5
31B
330
1F
100
AcDbEntity
  8
0
  6
Continuous
 62
     7
370
    25
100
AcDbEllipse
 10
6.8731008616
 20
13.8852786382
 30
0.0
 11
0.0
 21
0.5680388654535022
 31
0.0
210
0.0
220
0.0
230
1.0
 40
0.0349207955
 41
4.985662311727933
 42
5.208945895571706
  0
ELLIPSE
  5
31C
330
1F
100
AcDbEntity
  8
0
  6
Continuous
 62
     7
370
    25
100
AcDbEllipse
 10
6.8731008616
 20
12.4352786382
 30
0.0
 11
0.0
 21
0.5680388654535022
 31
0.0
210
0.0
220
0.0
230
1.0
 40
0.0349207955
 41
4.215832065192334
 42
4.439115649046481
  0
LINE
  5
31D
330
1F
100
AcDbEntity
  8
0
  6
Continuous
 62
     7
370
    25
100
AcDbLine
 10
4.6183136333
 20
14.1810070739
 30
0.0
 11
4.6183136333
 21
14.3602786382
 31
0.0
  0
LINE
  5
31E
330
1F
100
AcDbEntity
  8
0
  6
Continuous
 62
     7
370
    25
100
AcDbLine
 10
4.3683136333
 20
14.3602786382
 30
0.0
 11
4.3683136333
 21
14.1812136151
 31
0.0
  0
CIRCLE
  5
31F
330
1F
100
AcDbEntity
  8
0
  6
Continuous
 62
     7
370
    25
100
AcDbCircle
 10
5.2733136333
 20
13.1602786382
 30
0.0
 40
0.5250000000000004
  0
CIRCLE
  5
320
330
1F
100
AcDbEntity
  8
0
  6
Continuous
 62
     7
370
    25
100
AcDbCircle
 10
5.2733136333
 20
13.1602786382
 30
0.0
 40
0.5197618845762371
  0
CIRCLE
  5
321
330
1F
100
AcDbEntity
  8
0
  6
Continuous
 62
     7
370
    25
100
AcDbCircle
 10
5.2733136333
 20
13.1602786382
 30
0.0
 40
0.4250000000000007
  0
CIRCLE
  5
322
330
1F
100
AcDbEntity
  8
0
  6
Continuous
 62
     7
370
    25
100
AcDbCircle
 10
3.6170636333
 20
13.1602786382
 30
0.0
 40
0.0625000000000018
  0
SPLINE
  5
323
330
1F
100
AcDbEntity
  8
0
  6
Continuous
 62
     7
370
    25
100
AcDbSpline
210
0.0
220
0.0
230
1.0
 70
     8
 71
     3
 72
    11
 73
     7
 74
     0
 42
0.00000001
 43
0.00000001
 40
0.0
 40
0.0
 40
0.0
 40
0.0
 40
0.0155630702889711
 40
0.4094443507067391
 40
0.9013483182710033
 40
1.0
 40
1.0
 40
1.0
 40
1.0
 10
6.957015657732688
 20
12.28627463708283
 30
0.0
 10
6.957011270575332
 20
12.28557854194476
 30
0.0
 10
6.956895850111263
 20
12.26726517468859
 30
0.0
 10
6.956486908882812
 20
12.22816367357492
 30
0.0
 10
6.956011621340118
 20
12.18569725644621
 30
0.0
 10
6.955607518267435
 20
12.16201025506861
 30
0.0
 10
6.955540013286729
 20
12.15805336713805
 30
0.0
  0
SPLINE
  5
324
330
1F
100
AcDbEntity
  8
0
  6
Continuous
 62
     7
370
    25
100
AcDbSpline
210
0.0
220
0.0
230
1.0
 70
     8
 71
     3
 72
    11
 73
     7
 74
     0
 42
0.00000001
 43
0.00000001
 40
0.0
 40
0.0
 40
0.0
 40
0.0
 40
0.012098513417151
 40
0.4096683761390508
 40
0.9061788796325336
 40
1.0
 40
1.0
 40
1.0
 40
1.0
 10
3.589614656993744
 20
14.03476239945053
 30
0.0
 10
3.589618041633507
 20
14.03529846854404
 30
0.0
 10
3.589732649092096
 20
14.05345033129482
 30
0.0
 10
3.590140797529941
 20
14.09238866291514
 30
0.0
 10
3.590612285693397
 20
14.13462314672586
 30
0.0
 10
3.591012185940868
 20
14.15808607551288
 30
0.0
 10
3.591075741894397
 20
14.16181502747297
 30
0.0
  0
SPLINE
  5
325
330
1F
100
AcDbEntity
  8
0
  6
Continuous
 62
     7
370
    25
100
AcDbSpline
210
0.0
220
0.0
230
1.0
 70
     8
 71
     3
 72
    11
 73
     7
 74
     0
 42
0.00000001
 43
0.00000001
 40
0.0
 40
0.0
 40
0.0
 40
0.0
 40
0.0542904942833012
 40
0.5152190599336424
 40
0.8972039596702824
 40
1.0
 40
1.0
 40
1.0
 40
1.0
 10
6.955554617216444
 20
14.16214495509854
 30
0.0
 10
6.955591884816614
 20
14.1599642721777
 30
0.0
 10
6.955945555899905
 20
14.1392695001128
 30
0.0
 10
6.956396751328133
 20
14.10067958890307
 30
0.0
 10
6.956835167785334
 20
14.05969936782064
 30
0.0
 10
6.956980436455161
 20
14.03801932947695
 30
0.0
 10
6.957011240149796
 20
14.03342215596674
 30
0.0
  0
SPLINE
  5
326
330
1F
100
AcDbEntity
  8
0
  6
Continuous
 62
     7
370
    25
100
AcDbSpline
210
0.0
220
0.0
230
1.0
 70
     8
 71
     3
 72
    11
 73
     7
 74
     0
 42
0.00000001
 43
0.00000001
 40
0.0
 40
0.0
 40
0.0
 40
0.0
 40
0.0497704376214493
 40
0.5155268526892186
 40
0.9015127315646912
 40
1.0
 40
1.0
 40
1.0
 40
1.0
 10
3.591062375935558
 20
12.15902066767869
 30
0.0
 10
3.591028591028904
 20
12.16099947371727
 30
0.0
 10
3.590678643802639
 20
12.18149613193258
 30
0.0
 10
3.590230921893696
 20
12.21988250687641
 30
0.0
 10
3.589794139962601
 20
12.26062325761396
 30
0.0
 10
3.589650253207642
 20
12.28206317772685
 30
0.0
 10
3.589621002848693
 20
12.28642164254396
 30
0.0
  0
LINE
  5
327
330
1F
100
AcDbEntity
  8
0
  6
Continuous
 62
     7
370
    25
100
AcDbLine
 10
6.9263329741
 20
13.2226950851
 30
0.0
 11
6.9263329741
 21
13.0978621913
 31
0.0
  0
DIMENSION
  5
328
330
1F
100
AcDbEntity
  8
0
  6
Continuous
 62
     7
370
    18
100
AcDbDimension
  2
_D_7
 10
7.6293931181
 20
15.4237596979
 30
0.0
 11
5.2733136333
 21
15.4237596979
 31
0.0
 70
   160
  1
<>
 71
     2
 42
-1.0
  3
SLDDIMSTYLE2
100
AcDbAlignedDimension
 13
2.9172341484
 23
14.636358123
 33
0.0
 14
7.6293931181
 24
14.636358123
 34
0.0
100
AcDbRotatedDimension
  0
DIMENSION
  5
33C
330
1F
100
AcDbEntity
  8
0
  6
Continuous
 62
     7
370
    18
100
AcDbDimension
  2
_D_8
 10
2.1298325736
 20
11.6841991534
 30
0.0
 11
2.1298325736
 21
13.1602786382
 31
0.0
 70
   160
  1
<>
 71
     2
 42
-1.0
  3
SLDDIMSTYLE2
100
AcDbAlignedDimension
 13
2.9172341484
 23
14.636358123
 33
0.0
 14
2.9172341484
 24
11.6841991534
 34
0.0
 50
90.0
100
AcDbRotatedDimension
  0
MTEXT
  5
350
330
1F
100
AcDbEntity
  8
0
  6
Continuous
 62
     7
370
     0
100
AcDbMText
 10
5.2706686817
 20
11.3360718296
 30
0.0
 40
0.25
 41
0.0
 71
     2
 72
     1
  1
BACK BOX DETAIL
  7
SLDTEXTSTYLE0
 73
     1
 44
1.0
  0
ENDSEC
  0
SECTION
  2
OBJECTS
  0
DICTIONARY
  5
C
330
0
100
AcDbDictionary
281
     1
  3
ACAD_GROUP
350
D
  3
ACAD_LAYOUT
350
1A
  3
ACAD_MLINESTYLE
350
17
  3
ACAD_PLOTSETTINGS
350
19
  3
ACAD_PLOTSTYLENAME
350
E
  3
ACAD_SCALELIST
350
47
  3
DWGPROPS
350
351
  0
DICTIONARY
  5
D
102
{ACAD_REACTORS
330
C
102
}
330
C
100
AcDbDictionary
281
     1
  0
DICTIONARY
  5
1A
102
{ACAD_REACTORS
330
C
102
}
330
C
100
AcDbDictionary
281
     1
  3
Layout1
350
1E
  3
Layout2
350
26
  3
Model
350
22
  0
DICTIONARY
  5
17
102
{ACAD_REACTORS
330
C
102
}
330
C
100
AcDbDictionary
281
     1
  3
Standard
350
18
  0
DICTIONARY
  5
19
102
{ACAD_REACTORS
330
C
102
}
330
C
100
AcDbDictionary
281
     1
  0
ACDBDICTIONARYWDFLT
  5
E
102
{ACAD_REACTORS
330
C
102
}
330
C
100
AcDbDictionary
281
     1
  3
Normal
350
F
100
AcDbDictionaryWithDefault
340
F
  0
DICTIONARY
  5
47
102
{ACAD_REACTORS
330
C
102
}
330
C
100
AcDbDictionary
281
     1
  3
A0
350
48
  3
A1
350
49
  3
A2
350
4A
  3
A3
350
4B
  3
A4
350
4C
  3
A5
350
4D
  3
A6
350
4E
  3
A7
350
4F
  3
A8
350
50
  3
A9
350
51
  3
B1
350
52
  3
B2
350
53
  3
B3
350
54
  3
B4
350
55
  3
B5
350
56
  3
B6
350
57
  3
B7
350
58
  0
XRECORD
  5
351
102
{ACAD_REACTORS
330
C
102
}
330
C
100
AcDbXrecord
280
     1
  1
DWGPROPS COOKIE
  2

  3

  4

  6

  7

  8
alekseyb
  9

300
=
301
=
302
=
303
=
304
=
305
=
306
=
307
=
308
=
309
=
 40
0.0
 41
2460538.422613183
 42
2460538.422614051
  1

 90
        0
  0
LAYOUT
  5
1E
102
{ACAD_REACTORS
330
1A
102
}
330
1A
100
AcDbPlotSettings
  1

  2
none_device
  4

  6

 40
0.0
 41
0.0
 42
0.0
 43
0.0
 44
0.0
 45
0.0
 46
0.0
 47
0.0
 48
0.0
 49
0.0
140
0.0
141
0.0
142
1.0
143
1.0
 70
   688
 72
     0
 73
     0
 74
     5
  7

 75
    16
147
1.0
148
0.0
149
0.0
100
AcDbLayout
  1
Layout1
 70
     1
 71
     1
 10
0.0
 20
0.0
 11
12.0
 21
9.0
 12
0.0
 22
0.0
 32
0.0
 14
1.0000000000E+20
 24
1.0000000000E+20
 34
1.0000000000E+20
 15
-1.0000000000E+20
 25
-1.0000000000E+20
 35
-1.0000000000E+20
146
0.0
 13
0.0
 23
0.0
 33
0.0
 16
1.0
 26
0.0
 36
0.0
 17
0.0
 27
1.0
 37
0.0
 76
     0
330
1B
  0
LAYOUT
  5
26
102
{ACAD_REACTORS
330
1A
102
}
330
1A
100
AcDbPlotSettings
  1

  2
none_device
  4

  6

 40
0.0
 41
0.0
 42
0.0
 43
0.0
 44
0.0
 45
0.0
 46
0.0
 47
0.0
 48
0.0
 49
0.0
140
0.0
141
0.0
142
1.0
143
1.0
 70
   688
 72
     0
 73
     0
 74
     5
  7

 75
    16
147
1.0
148
0.0
149
0.0
100
AcDbLayout
  1
Layout2
 70
     1
 71
     2
 10
0.0
 20
0.0
 11
0.0
 21
0.0
 12
0.0
 22
0.0
 32
0.0
 14
0.0
 24
0.0
 34
0.0
 15
0.0
 25
0.0
 35
0.0
146
0.0
 13
0.0
 23
0.0
 33
0.0
 16
1.0
 26
0.0
 36
0.0
 17
0.0
 27
1.0
 37
0.0
 76
     0
330
23
  0
LAYOUT
  5
22
102
{ACAD_REACTORS
330
1A
102
}
330
1A
100
AcDbPlotSettings
  1

  2
none_device
  4
Letter_(8.50_x_11.00_Inches)
  6

 40
6.35
 41
6.35
 42
6.35000508
 43
6.35000508
 44
215.9
 45
279.4
 46
0.0
 47
0.0
 48
0.0
 49
0.0
140
0.0
141
0.0
142
1.0
143
1.0
 70
  1712
 72
     0
 73
     0
 74
     0
  7

 75
     0
147
1.0
148
0.0
149
0.0
100
AcDbLayout
  1
Model
 70
     1
 71
     0
 10
0.0
 20
0.0
 11
22.0
 21
17.0
 12
0.0
 22
0.0
 32
0.0
 14
0.0
 24
0.0
 34
0.0
 15
22.0
 25
17.0
 35
0.0
146
0.0
 13
0.0
 23
0.0
 33
0.0
 16
1.0
 26
0.0
 36
0.0
 17
0.0
 27
1.0
 37
0.0
 76
     0
330
1F
331
29
  0
MLINESTYLE
  5
18
102
{ACAD_REACTORS
330
17
102
}
330
17
100
AcDbMlineStyle
  2
Standard
 70
     0
  3

 62
   256
 51
90.0
 52
90.0
 71
     2
 49
0.5
 62
   256
  6
BYLAYER
 49
-0.5
 62
   256
  6
BYLAYER
  0
ACDBPLACEHOLDER
  5
F
102
{ACAD_REACTORS
330
E
102
}
330
E
  0
SCALE
  5
48
102
{ACAD_REACTORS
330
47
102
}
330
47
100
AcDbScale
 70
     0
300
1:1
140
1.0
141
1.0
290
     1
  0
SCALE
  5
49
102
{ACAD_REACTORS
330
47
102
}
330
47
100
AcDbScale
 70
     0
300
1/128" = 1'-0"
140
0.0078125
141
12.0
290
     0
  0
SCALE
  5
4A
102
{ACAD_REACTORS
330
47
102
}
330
47
100
AcDbScale
 70
     0
300
1/64" = 1'-0"
140
0.015625
141
12.0
290
     0
  0
SCALE
  5
4B
102
{ACAD_REACTORS
330
47
102
}
330
47
100
AcDbScale
 70
     0
300
1/32" = 1'-0"
140
0.03125
141
12.0
290
     0
  0
SCALE
  5
4C
102
{ACAD_REACTORS
330
47
102
}
330
47
100
AcDbScale
 70
     0
300
1/16" = 1'-0"
140
0.0625
141
12.0
290
     0
  0
SCALE
  5
4D
102
{ACAD_REACTORS
330
47
102
}
330
47
100
AcDbScale
 70
     0
300
3/32" = 1'-0"
140
0.09375
141
12.0
290
     0
  0
SCALE
  5
4E
102
{ACAD_REACTORS
330
47
102
}
330
47
100
AcDbScale
 70
     0
300
1/8" = 1'-0"
140
0.125
141
12.0
290
     0
  0
SCALE
  5
4F
102
{ACAD_REACTORS
330
47
102
}
330
47
100
AcDbScale
 70
     0
300
3/16" = 1'-0"
140
0.1875
141
12.0
290
     0
  0
SCALE
  5
50
102
{ACAD_REACTORS
330
47
102
}
330
47
100
AcDbScale
 70
     0
300
1/4" = 1'-0"
140
0.25
141
12.0
290
     0
  0
SCALE
  5
51
102
{ACAD_REACTORS
330
47
102
}
330
47
100
AcDbScale
 70
     0
300
3/8" = 1'-0"
140
0.375
141
12.0
290
     0
  0
SCALE
  5
52
102
{ACAD_REACTORS
330
47
102
}
330
47
100
AcDbScale
 70
     0
300
1/2" = 1'-0"
140
0.5
141
12.0
290
     0
  0
SCALE
  5
53
102
{ACAD_REACTORS
330
47
102
}
330
47
100
AcDbScale
 70
     0
300
3/4" = 1'-0"
140
0.75
141
12.0
290
     0
  0
SCALE
  5
54
102
{ACAD_REACTORS
330
47
102
}
330
47
100
AcDbScale
 70
     0
300
1" = 1'-0"
140
1.0
141
12.0
290
     0
  0
SCALE
  5
55
102
{ACAD_REACTORS
330
47
102
}
330
47
100
AcDbScale
 70
     0
300
1-1/2" = 1'-0"
140
1.5
141
12.0
290
     0
  0
SCALE
  5
56
102
{ACAD_REACTORS
330
47
102
}
330
47
100
AcDbScale
 70
     0
300
3" = 1'-0"
140
3.0
141
12.0
290
     0
  0
SCALE
  5
57
102
{ACAD_REACTORS
330
47
102
}
330
47
100
AcDbScale
 70
     0
300
6" = 1'-0"
140
6.0
141
12.0
290
     0
  0
SCALE
  5
58
102
{ACAD_REACTORS
330
47
102
}
330
47
100
AcDbScale
 70
     0
300
1'-0" = 1'-0"
140
12.0
141
12.0
290
     0
  0
ENDSEC
  0
EOF
