  0
SECTION
  2
HEADER
  9
$ACADVER
  1
AC1015
  9
$ACADMAINTVER
 70
     6
  9
$DWGCODEPAGE
  3
ANSI_1252
  9
$INSBASE
 10
0.0
 20
0.0
 30
0.0
  9
$EXTMIN
 10
0.0
 20
0.0
 30
0.0
  9
$EXTMAX
 10
22.0
 20
17.0
 30
0.0
  9
$LIMMIN
 10
0.0
 20
0.0
  9
$LIMMAX
 10
22.0
 20
17.0
  9
$ORTHOMODE
 70
     0
  9
$REGENMODE
 70
     1
  9
$FILLMODE
 70
     1
  9
$QTEXTMODE
 70
     0
  9
$MIRRTEXT
 70
     1
  9
$LTSCALE
 40
2.0
  9
$ATTMODE
 70
     1
  9
$TEXTSIZE
 40
0.25
  9
$TRACEWID
 40
0.05
  9
$TEXTSTYLE
  7
Standard
  9
$CLAYER
  8
0
  9
$CELTYPE
  6
ByLayer
  9
$CECOLOR
 62
   256
  9
$CELTSCALE
 40
1.0
  9
$DISPSILH
 70
     0
  9
$DIMSCALE
 40
1.0
  9
$DIMASZ
 40
0.26
  9
$DIMEXO
 40
0.1
  9
$DIMDLI
 40
0.38
  9
$DIMRND
 40
0.0
  9
$DIMDLE
 40
0.0
  9
$DIMEXE
 40
0.25
  9
$DIMTP
 40
0.0
  9
$DIMTM
 40
0.0
  9
$DIMTXT
 40
0.25
  9
$DIMCEN
 40
0.09
  9
$DIMTSZ
 40
0.0
  9
$DIMTOL
 70
     0
  9
$DIMLIM
 70
     0
  9
$DIMTIH
 70
     1
  9
$DIMTOH
 70
     1
  9
$DIMSE1
 70
     0
  9
$DIMSE2
 70
     0
  9
$DIMTAD
 70
     0
  9
$DIMZIN
 70
     1
  9
$DIMBLK
  1

  9
$DIMASO
 70
     1
  9
$DIMSHO
 70
     1
  9
$DIMPOST
  1

  9
$DIMAPOST
  1

  9
$DIMALT
 70
     0
  9
$DIMALTD
 70
     2
  9
$DIMALTF
 40
25.4
  9
$DIMLFAC
 40
1.0
  9
$DIMTOFL
 70
     0
  9
$DIMTVP
 40
0.0
  9
$DIMTIX
 70
     0
  9
$DIMSOXD
 70
     0
  9
$DIMSAH
 70
     0
  9
$DIMBLK1
  1

  9
$DIMBLK2
  1

  9
$DIMSTYLE
  2
Standard
  9
$DIMCLRD
 70
     0
  9
$DIMCLRE
 70
     0
  9
$DIMCLRT
 70
     0
  9
$DIMTFAC
 40
1.0
  9
$DIMGAP
 40
0.12
  9
$DIMJUST
 70
     0
  9
$DIMSD1
 70
     0
  9
$DIMSD2
 70
     0
  9
$DIMTOLJ
 70
     1
  9
$DIMTZIN
 70
     1
  9
$DIMALTZ
 70
     0
  9
$DIMALTTZ
 70
     0
  9
$DIMUPT
 70
     0
  9
$DIMDEC
 70
     0
  9
$DIMTDEC
 70
     0
  9
$DIMALTU
 70
     2
  9
$DIMALTTD
 70
     2
  9
$DIMTXSTY
  7
Standard
  9
$DIMAUNIT
 70
     0
  9
$DIMADEC
 70
     0
  9
$DIMALTRND
 40
0.0
  9
$DIMAZIN
 70
     0
  9
$DIMDSEP
 70
    46
  9
$DIMATFIT
 70
     3
  9
$DIMFRAC
 70
     0
  9
$DIMLDRBLK
  1

  9
$DIMLUNIT
 70
     2
  9
$DIMLWD
 70
    -2
  9
$DIMLWE
 70
    -2
  9
$DIMTMOVE
 70
     0
  9
$LUNITS
 70
     2
  9
$LUPREC
 70
     6
  9
$SKETCHINC
 40
0.1
  9
$FILLETRAD
 40
0.0
  9
$AUNITS
 70
     0
  9
$AUPREC
 70
     2
  9
$MENU
  1
.
  9
$ELEVATION
 40
0.0
  9
$PELEVATION
 40
0.0
  9
$THICKNESS
 40
0.0
  9
$LIMCHECK
 70
     0
  9
$CHAMFERA
 40
0.0
  9
$CHAMFERB
 40
0.0
  9
$CHAMFERC
 40
0.0
  9
$CHAMFERD
 40
0.0
  9
$SKPOLY
 70
     0
  9
$TDCREATE
 40
2460507.806316274
  9
$TDUCREATE
 40
2460508.09798294
  9
$TDUPDATE
 40
2460507.806317014
  9
$TDUUPDATE
 40
2460508.097983681
  9
$TDINDWG
 40
0.0000000116
  9
$TDUSRTIMER
 40
0.0000000116
  9
$USRTIMER
 70
     1
  9
$ANGBASE
 50
0.0
  9
$ANGDIR
 70
     0
  9
$PDMODE
 70
     0
  9
$PDSIZE
 40
-1.0
  9
$PLINEWID
 40
0.0
  9
$SPLFRAME
 70
     0
  9
$SPLINETYPE
 70
     6
  9
$SPLINESEGS
 70
     8
  9
$HANDSEED
  5
384
  9
$SURFTAB1
 70
     6
  9
$SURFTAB2
 70
     6
  9
$SURFTYPE
 70
     6
  9
$SURFU
 70
     6
  9
$SURFV
 70
     6
  9
$UCSBASE
  2

  9
$UCSNAME
  2

  9
$UCSORG
 10
0.0
 20
0.0
 30
0.0
  9
$UCSXDIR
 10
1.0
 20
0.0
 30
0.0
  9
$UCSYDIR
 10
0.0
 20
1.0
 30
0.0
  9
$UCSORTHOREF
  2

  9
$UCSORTHOVIEW
 70
     0
  9
$UCSORGTOP
 10
0.0
 20
0.0
 30
0.0
  9
$UCSORGBOTTOM
 10
0.0
 20
0.0
 30
0.0
  9
$UCSORGLEFT
 10
0.0
 20
0.0
 30
0.0
  9
$UCSORGRIGHT
 10
0.0
 20
0.0
 30
0.0
  9
$UCSORGFRONT
 10
0.0
 20
0.0
 30
0.0
  9
$UCSORGBACK
 10
0.0
 20
0.0
 30
0.0
  9
$PUCSBASE
  2

  9
$PUCSNAME
  2

  9
$PUCSORG
 10
0.0
 20
0.0
 30
0.0
  9
$PUCSXDIR
 10
1.0
 20
0.0
 30
0.0
  9
$PUCSYDIR
 10
0.0
 20
1.0
 30
0.0
  9
$PUCSORTHOREF
  2

  9
$PUCSORTHOVIEW
 70
     0
  9
$PUCSORGTOP
 10
0.0
 20
0.0
 30
0.0
  9
$PUCSORGBOTTOM
 10
0.0
 20
0.0
 30
0.0
  9
$PUCSORGLEFT
 10
0.0
 20
0.0
 30
0.0
  9
$PUCSORGRIGHT
 10
0.0
 20
0.0
 30
0.0
  9
$PUCSORGFRONT
 10
0.0
 20
0.0
 30
0.0
  9
$PUCSORGBACK
 10
0.0
 20
0.0
 30
0.0
  9
$USERI1
 70
     0
  9
$USERI2
 70
     0
  9
$USERI3
 70
     0
  9
$USERI4
 70
     0
  9
$USERI5
 70
     0
  9
$USERR1
 40
0.0
  9
$USERR2
 40
0.0
  9
$USERR3
 40
0.0
  9
$USERR4
 40
0.0
  9
$USERR5
 40
0.0
  9
$WORLDVIEW
 70
     1
  9
$SHADEDGE
 70
     3
  9
$SHADEDIF
 70
    70
  9
$TILEMODE
 70
     1
  9
$MAXACTVP
 70
    64
  9
$PINSBASE
 10
0.0
 20
0.0
 30
0.0
  9
$PLIMCHECK
 70
     0
  9
$PEXTMIN
 10
1.0000000000E+20
 20
1.0000000000E+20
 30
1.0000000000E+20
  9
$PEXTMAX
 10
-1.0000000000E+20
 20
-1.0000000000E+20
 30
-1.0000000000E+20
  9
$PLIMMIN
 10
0.0
 20
0.0
  9
$PLIMMAX
 10
12.0
 20
9.0
  9
$UNITMODE
 70
     0
  9
$VISRETAIN
 70
     1
  9
$PLINEGEN
 70
     0
  9
$PSLTSCALE
 70
     1
  9
$TREEDEPTH
 70
  3020
  9
$CMLSTYLE
  2
Standard
  9
$CMLJUST
 70
     0
  9
$CMLSCALE
 40
1.0
  9
$PROXYGRAPHICS
 70
     1
  9
$MEASUREMENT
 70
     0
  9
$CELWEIGHT
370
    -1
  9
$ENDCAPS
280
     0
  9
$JOINSTYLE
280
     0
  9
$LWDISPLAY
290
     1
  9
$INSUNITS
 70
     1
  9
$HYPERLINKBASE
  1

  9
$STYLESHEET
  1

  9
$XEDIT
290
     1
  9
$CEPSNTYPE
380
     0
  9
$PSTYLEMODE
290
     1
  9
$FINGERPRINTGUID
  2
{0c06a7c2-513e-4a6c-a67f-0c82a8fd5d95}
  9
$VERSIONGUID
  2
{FAEB1C32-E019-11D5-929B-00C0DF256EC4}
  9
$EXTNAMES
290
     1
  9
$PSVPSCALE
 40
0.0
  9
$OLESTARTUP
290
     0
  0
ENDSEC
  0
SECTION
  2
CLASSES
  0
CLASS
  1
ACDBDICTIONARYWDFLT
  2
AcDbDictionaryWithDefault
  3
ObjectDBX Classes
 90
        0
280
     0
281
     0
  0
CLASS
  1
VISUALSTYLE
  2
AcDbVisualStyle
  3
ObjectDBX Classes
 90
     4095
280
     0
281
     0
  0
CLASS
  1
MATERIAL
  2
AcDbMaterial
  3
ObjectDBX Classes
 90
     1153
280
     0
281
     0
  0
CLASS
  1
SCALE
  2
AcDbScale
  3
ObjectDBX Classes
 90
     1153
280
     0
281
     0
  0
CLASS
  1
TABLESTYLE
  2
AcDbTableStyle
  3
ObjectDBX Classes
 90
     4095
280
     0
281
     0
  0
CLASS
  1
MLEADERSTYLE
  2
AcDbMLeaderStyle
  3
ACDB_MLEADERSTYLE_CLASS
 90
     4095
280
     0
281
     0
  0
CLASS
  1
SUN
  2
AcDbSun
  3
SCENEOE
 90
     1153
280
     0
281
     0
  0
CLASS
  1
ACDBPLACEHOLDER
  2
AcDbPlaceHolder
  3
ObjectDBX Classes
 90
        0
280
     0
281
     0
  0
CLASS
  1
LAYOUT
  2
AcDbLayout
  3
ObjectDBX Classes
 90
        0
280
     0
281
     0
  0
ENDSEC
  0
SECTION
  2
TABLES
  0
TABLE
  2
VPORT
  5
8
330
0
100
AcDbSymbolTable
 70
     1
  0
VPORT
  5
29
330
8
100
AcDbSymbolTableRecord
100
AcDbViewportTableRecord
  2
*Active
 70
     0
 10
0.0
 20
0.0
 11
1.0
 21
1.0
 12
11.0
 22
8.5
 13
0.0
 23
0.0
 14
0.5
 24
0.5
 15
0.5
 25
0.5
 16
0.0
 26
0.0
 36
1.0
 17
0.0
 27
0.0
 37
0.0
 40
17.0
 41
1.2941176471
 42
50.0
 43
0.0
 44
0.0
 50
0.0
 51
0.0
 71
     0
 72
  2000
 73
     1
 74
     3
 75
     0
 76
     0
 77
     0
 78
     0
281
     0
 65
     1
110
0.0
120
0.0
130
0.0
111
1.0
121
0.0
131
0.0
112
0.0
122
1.0
132
0.0
 79
     0
146
0.0
  0
ENDTAB
  0
TABLE
  2
LTYPE
  5
5
330
0
100
AcDbSymbolTable
 70
     6
  0
LTYPE
  5
14
330
5
100
AcDbSymbolTableRecord
100
AcDbLinetypeTableRecord
  2
ByBlock
 70
     0
  3

 72
    65
 73
     0
 40
0.0
  0
LTYPE
  5
15
330
5
100
AcDbSymbolTableRecord
100
AcDbLinetypeTableRecord
  2
ByLayer
 70
     0
  3

 72
    65
 73
     0
 40
0.0
  0
LTYPE
  5
16
330
5
100
AcDbSymbolTableRecord
100
AcDbLinetypeTableRecord
  2
Continuous
 70
     0
  3
Solid line
 72
    65
 73
     0
 40
0.0
  0
LTYPE
  5
5E
330
5
100
AcDbSymbolTableRecord
100
AcDbLinetypeTableRecord
  2
HIDDEN
 70
     0
  3
Hidden __ __ __ __ __ __ __ __ __ __ __ __ __ __
 72
    65
 73
     2
 40
0.075
 49
0.05
 74
     0
 49
-0.025
 74
     0
  0
LTYPE
  5
5F
330
5
100
AcDbSymbolTableRecord
100
AcDbLinetypeTableRecord
  2
PHANTOM
 70
     0
  3
Phantom ______  __  __  ______  __  __  ______
 72
    65
 73
     6
 40
0.5
 49
0.25
 74
     0
 49
-0.05
 74
     0
 49
0.05
 74
     0
 49
-0.05
 74
     0
 49
0.05
 74
     0
 49
-0.05
 74
     0
  0
LTYPE
  5
60
330
5
100
AcDbSymbolTableRecord
100
AcDbLinetypeTableRecord
  2
CENTER
 70
     0
  3
Center ____ _ ____ _ ____ _ ____ _ ____ _ ____
 72
    65
 73
     4
 40
0.4
 49
0.25
 74
     0
 49
-0.05
 74
     0
 49
0.05
 74
     0
 49
-0.05
 74
     0
  0
LTYPE
  5
61
330
5
100
AcDbSymbolTableRecord
100
AcDbLinetypeTableRecord
  2
CENTERX2
 70
     0
  3
Center (2x) ________  __  ________  __  _____
 72
    65
 73
     4
 40
0.8
 49
0.5
 74
     0
 49
-0.1
 74
     0
 49
0.1
 74
     0
 49
-0.1
 74
     0
  0
LTYPE
  5
62
330
5
100
AcDbSymbolTableRecord
100
AcDbLinetypeTableRecord
  2
DOT2
 70
     0
  3
Dot (.5x) ........................................
 72
    65
 73
     2
 40
0.025
 49
0.0
 74
     0
 49
-0.025
 74
     0
  0
ENDTAB
  0
TABLE
  2
LAYER
  5
2
330
0
100
AcDbSymbolTable
 70
    12
  0
LAYER
  5
10
330
2
100
AcDbSymbolTableRecord
100
AcDbLayerTableRecord
  2
0
 70
     0
 62
     7
  6
Continuous
370
    -3
390
F
  0
LAYER
  5
63
330
2
100
AcDbSymbolTableRecord
100
AcDbLayerTableRecord
  2
SLD-0
 70
     0
 62
     7
  6
Continuous
370
    -3
390
F
  0
LAYER
  5
64
330
2
100
AcDbSymbolTableRecord
100
AcDbLayerTableRecord
  2
DIM
 70
     0
 62
     7
  6
Continuous
370
    -3
390
F
  0
LAYER
  5
65
330
2
100
AcDbSymbolTableRecord
100
AcDbLayerTableRecord
  2
CEN
 70
     0
 62
     1
  6
CENTER
370
    -3
390
F
  0
LAYER
  5
66
330
2
100
AcDbSymbolTableRecord
100
AcDbLayerTableRecord
  2
HAT
 70
     0
 62
     4
  6
Continuous
370
    -3
390
F
  0
LAYER
  5
67
330
2
100
AcDbSymbolTableRecord
100
AcDbLayerTableRecord
  2
OBJ
 70
     0
 62
     5
  6
Continuous
370
    -3
390
F
  0
LAYER
  5
68
330
2
100
AcDbSymbolTableRecord
100
AcDbLayerTableRecord
  2
SLD-DEFPOINTS
 70
     0
 62
     7
  6
Continuous
370
    -3
390
F
  0
LAYER
  5
69
330
2
100
AcDbSymbolTableRecord
100
AcDbLayerTableRecord
  2
HID
 70
     0
 62
     4
  6
HIDDEN
370
    -3
390
F
  0
LAYER
  5
6A
330
2
100
AcDbSymbolTableRecord
100
AcDbLayerTableRecord
  2
NOTE
 70
     0
 62
     7
  6
Continuous
370
    -3
390
F
  0
LAYER
  5
6B
330
2
100
AcDbSymbolTableRecord
100
AcDbLayerTableRecord
  2
VP
 70
     0
 62
    -5
  6
Continuous
290
     0
370
    -3
390
F
  0
LAYER
  5
6C
330
2
100
AcDbSymbolTableRecord
100
AcDbLayerTableRecord
  2
TITLE
 70
     0
 62
     7
  6
Continuous
370
    -3
390
F
  0
LAYER
  5
6D
330
2
100
AcDbSymbolTableRecord
100
AcDbLayerTableRecord
  2
THICK_TITLE
 70
     0
 62
     7
  6
Continuous
370
   100
390
F
  0
ENDTAB
  0
TABLE
  2
STYLE
  5
3
330
0
100
AcDbSymbolTable
 70
     2
  0
STYLE
  5
11
330
3
100
AcDbSymbolTableRecord
100
AcDbTextStyleTableRecord
  2
Standard
 70
     0
 40
0.0
 41
1.0
 50
0.0
 71
     0
 42
0.25
  3
txt
  4

  0
STYLE
  5
CC
330
3
100
AcDbSymbolTableRecord
100
AcDbTextStyleTableRecord
  2
SLDTEXTSTYLE0
 70
     0
 40
0.0
 41
0.75
 50
0.0
 71
     0
 42
0.25
  3
TXT
  4

  0
ENDTAB
  0
TABLE
  2
VIEW
  5
6
330
0
100
AcDbSymbolTable
 70
     0
  0
ENDTAB
  0
TABLE
  2
UCS
  5
7
330
0
100
AcDbSymbolTable
 70
     0
  0
ENDTAB
  0
TABLE
  2
APPID
  5
9
330
0
100
AcDbSymbolTable
 70
     1
  0
APPID
  5
12
330
9
100
AcDbSymbolTableRecord
100
AcDbRegAppTableRecord
  2
ACAD
 70
     0
  0
ENDTAB
  0
TABLE
  2
DIMSTYLE
  5
A
330
0
100
AcDbSymbolTable
 70
     6
100
AcDbDimStyleTable
  0
DIMSTYLE
105
27
330
A
100
AcDbSymbolTableRecord
100
AcDbDimStyleTableRecord
  2
Standard
 70
     0
178
     0
340
11
  0
DIMSTYLE
105
CD
102
{ACAD_REACTORS
330
CB
330
19C
102
}
330
A
100
AcDbSymbolTableRecord
100
AcDbDimStyleTableRecord
  2
SLDDIMSTYLE0
 70
     0
 41
0.26
 44
0.0
 45
0.000000001
 78
    12
 79
     3
140
0.25
147
0.0625
148
0.000000001
170
     1
173
     1
178
     0
271
     0
272
     0
276
     2
277
     5
284
    12
340
CC
  0
DIMSTYLE
105
E2
102
{ACAD_REACTORS
330
E1
102
}
330
A
100
AcDbSymbolTableRecord
100
AcDbDimStyleTableRecord
  2
SLDDIMSTYLE1
 70
     0
 41
0.26
 44
0.0
 45
0.000000001
 78
    12
 79
     3
140
0.25
147
0.0625
148
0.000000001
170
     1
172
     1
173
     1
178
     0
271
     6
272
     0
276
     2
277
     5
284
    12
289
     0
340
CC
  0
DIMSTYLE
105
F7
102
{ACAD_REACTORS
330
F6
330
189
330
1B0
330
35A
330
36E
102
}
330
A
100
AcDbSymbolTableRecord
100
AcDbDimStyleTableRecord
  2
SLDDIMSTYLE2
 70
     0
 41
0.26
 44
0.0
 45
0.000000001
 78
    12
 79
     3
140
0.25
147
0.0625
148
0.000000001
170
     1
173
     1
178
     0
271
     6
272
     0
276
     2
277
     5
284
    12
340
CC
  0
DIMSTYLE
105
10C
102
{ACAD_REACTORS
330
10B
102
}
330
A
100
AcDbSymbolTableRecord
100
AcDbDimStyleTableRecord
  2
SLDDIMSTYLE3
 70
     0
 41
0.26
 44
0.0
 78
    12
 79
     3
140
0.25
144
2.0
147
0.0625
148
0.000000001
170
     1
173
     1
178
     0
179
     2
272
     2
276
     2
277
     5
284
    12
340
CC
  0
DIMSTYLE
105
11B
330
A
100
AcDbSymbolTableRecord
100
AcDbDimStyleTableRecord
  2
SLDDIMSTYLE4
 70
     0
 41
0.26
 44
0.0
 45
0.000000001
146
0.26
147
0.0
173
     1
178
     0
271
     0
272
     0
276
     2
277
     5
340
11
  0
ENDTAB
  0
TABLE
  2
BLOCK_RECORD
  5
1
330
0
100
AcDbSymbolTable
 70
    10
  0
BLOCK_RECORD
  5
1F
330
1
100
AcDbSymbolTableRecord
100
AcDbBlockTableRecord
  2
*Model_Space
340
22
  0
BLOCK_RECORD
  5
1B
330
1
100
AcDbSymbolTableRecord
100
AcDbBlockTableRecord
  2
*Paper_Space
340
1E
  0
BLOCK_RECORD
  5
23
330
1
100
AcDbSymbolTableRecord
100
AcDbBlockTableRecord
  2
*Paper_Space0
340
26
  0
BLOCK_RECORD
  5
CE
330
1
100
AcDbSymbolTableRecord
100
AcDbBlockTableRecord
  2
_D
340
0
  0
BLOCK_RECORD
  5
E3
330
1
100
AcDbSymbolTableRecord
100
AcDbBlockTableRecord
  2
_D_1
340
0
  0
BLOCK_RECORD
  5
F8
330
1
100
AcDbSymbolTableRecord
100
AcDbBlockTableRecord
  2
_D_2
340
0
  0
BLOCK_RECORD
  5
10D
330
1
100
AcDbSymbolTableRecord
100
AcDbBlockTableRecord
  2
_D_3
340
0
  0
BLOCK_RECORD
  5
18A
330
1
100
AcDbSymbolTableRecord
100
AcDbBlockTableRecord
  2
_D_4
340
0
  0
BLOCK_RECORD
  5
19D
330
1
100
AcDbSymbolTableRecord
100
AcDbBlockTableRecord
  2
_D_5
340
0
  0
BLOCK_RECORD
  5
1B1
330
1
100
AcDbSymbolTableRecord
100
AcDbBlockTableRecord
  2
_D_6
340
0
  0
BLOCK_RECORD
  5
35B
330
1
100
AcDbSymbolTableRecord
100
AcDbBlockTableRecord
  2
_D_7
340
0
  0
BLOCK_RECORD
  5
36F
330
1
100
AcDbSymbolTableRecord
100
AcDbBlockTableRecord
  2
_D_8
340
0
  0
ENDTAB
  0
ENDSEC
  0
SECTION
  2
BLOCKS
  0
BLOCK
  5
20
330
1F
100
AcDbEntity
  8
0
100
AcDbBlockBegin
  2
*Model_Space
 70
     0
 10
0.0
 20
0.0
 30
0.0
  3
*Model_Space
  1

  0
ENDBLK
  5
21
330
1F
100
AcDbEntity
  8
0
100
AcDbBlockEnd
  0
BLOCK
  5
1C
330
1B
100
AcDbEntity
 67
     1
  8
0
100
AcDbBlockBegin
  2
*Paper_Space
 70
     0
 10
0.0
 20
0.0
 30
0.0
  3
*Paper_Space
  1

  0
ENDBLK
  5
1D
330
1B
100
AcDbEntity
 67
     1
  8
0
100
AcDbBlockEnd
  0
BLOCK
  5
24
330
23
100
AcDbEntity
  8
0
100
AcDbBlockBegin
  2
*Paper_Space0
 70
     0
 10
0.0
 20
0.0
 30
0.0
  3
*Paper_Space0
  1

  0
ENDBLK
  5
25
330
23
100
AcDbEntity
  8
0
100
AcDbBlockEnd
  0
BLOCK
  5
CF
330
CE
100
AcDbEntity
  8
0
100
AcDbBlockBegin
  2
_D
 70
     0
 10
0.0
 20
0.0
 30
0.0
  3
_D
  1

  0
SOLID
  5
D1
330
CE
100
AcDbEntity
  8
0
  6
Continuous
 62
     7
370
    18
100
AcDbTrace
 10
7.9928543809
 20
7.9773762732
 30
0.0
 11
7.7328543809
 21
8.0173762732
 31
0.0
 12
7.7328543809
 22
7.9373762732
 32
0.0
 13
7.7328543809
 23
7.9373762732
 33
0.0
  0
SOLID
  5
D2
330
CE
100
AcDbEntity
  8
0
  6
Continuous
 62
     7
370
    18
100
AcDbTrace
 10
5.0003543809
 20
7.9773762732
 30
0.0
 11
5.2603543809
 21
7.9373762732
 31
0.0
 12
5.2603543809
 22
8.0173762732
 32
0.0
 13
5.2603543809
 23
8.0173762732
 33
0.0
  0
LINE
  5
D3
330
CE
100
AcDbEntity
  8
0
  6
Continuous
 62
     7
370
     0
100
AcDbLine
 10
5.9993821848
 20
7.9754665119
 30
0.0
 11
5.9232103106
 21
7.9754665119
 31
0.0
  0
LINE
  5
D4
330
CE
100
AcDbEntity
  8
0
  6
Continuous
 62
     7
370
     0
100
AcDbLine
 10
5.9232103106
 20
7.9754665119
 30
0.0
 11
5.9232103106
 21
7.5785915
 31
0.0
  0
LINE
  5
D5
330
CE
100
AcDbEntity
  8
0
  6
Continuous
 62
     7
370
     0
100
AcDbLine
 10
5.9232103106
 20
7.5785915
 30
0.0
 11
5.9993821848
 21
7.5785915
 31
0.0
  0
LINE
  5
D6
330
CE
100
AcDbEntity
  8
0
  6
Continuous
 62
     7
370
     0
100
AcDbLine
 10
6.9938266503
 20
7.9754665119
 30
0.0
 11
7.0699985245
 21
7.9754665119
 31
0.0
  0
LINE
  5
D7
330
CE
100
AcDbEntity
  8
0
  6
Continuous
 62
     7
370
     0
100
AcDbLine
 10
7.0699985245
 20
7.9754665119
 30
0.0
 11
7.0699985245
 21
7.5785915
 31
0.0
  0
LINE
  5
D8
330
CE
100
AcDbEntity
  8
0
  6
Continuous
 62
     7
370
     0
100
AcDbLine
 10
7.0699985245
 20
7.5785915
 30
0.0
 11
6.9938266503
 21
7.5785915
 31
0.0
  0
LINE
  5
D9
330
CE
100
AcDbEntity
  8
0
  6
Continuous
 62
     7
370
     0
100
AcDbLine
 10
7.9928543809
 20
5.6619509928
 30
0.0
 11
7.9928543809
 21
8.2273762732
 31
0.0
  0
LINE
  5
DA
330
CE
100
AcDbEntity
  8
0
  6
Continuous
 62
     7
370
     0
100
AcDbLine
 10
5.0003543809
 20
5.4071094539
 30
0.0
 11
5.0003543809
 21
8.2273762732
 31
0.0
  0
LINE
  5
DB
330
CE
100
AcDbEntity
  8
0
  6
Continuous
 62
     7
370
     0
100
AcDbLine
 10
7.9928543809
 20
7.9773762732
 30
0.0
 11
7.2892649206
 21
7.9773762732
 31
0.0
  0
LINE
  5
DC
330
CE
100
AcDbEntity
  8
0
  6
Continuous
 62
     7
370
     0
100
AcDbLine
 10
5.0003543809
 20
7.9773762732
 30
0.0
 11
5.7039438412
 21
7.9773762732
 31
0.0
  0
MTEXT
  5
DD
330
CE
100
AcDbEntity
  8
0
  6
Continuous
 62
     7
370
    18
100
AcDbMText
 10
5.848427325
 20
8.352334167
 30
0.0
 40
0.25
 41
0.0
 71
     1
 72
     1
  1

  7
SLDTEXTSTYLE0
 73
     1
 44
1.0
  0
MTEXT
  5
DE
330
CE
100
AcDbEntity
  8
0
  6
Continuous
 62
     7
370
    18
100
AcDbMText
 10
6.3526807877
 20
8.348514704
 30
0.0
 40
0.25
 41
0.0
 71
     1
 72
     1
  1
3"
  7
SLDTEXTSTYLE0
 73
     1
 44
1.0
  0
MTEXT
  5
DF
330
CE
100
AcDbEntity
  8
0
  6
Continuous
 62
     7
370
    18
100
AcDbMText
 10
5.9993821848
 20
7.9008584624
 30
0.0
 40
0.25
 41
0.0
 71
     1
 72
     1
  1
76mm
  7
SLDTEXTSTYLE0
 73
     1
 44
1.0
  0
MTEXT
  5
E0
330
CE
100
AcDbEntity
  8
0
  6
Continuous
 62
     7
370
    18
100
AcDbMText
 10
7.2399203437
 20
8.352334167
 30
0.0
 40
0.25
 41
0.0
 71
     1
 72
     1
  1

  7
SLDTEXTSTYLE0
 73
     1
 44
1.0
  0
ENDBLK
  5
D0
330
CE
100
AcDbEntity
  8
0
100
AcDbBlockEnd
  0
BLOCK
  5
E4
330
E3
100
AcDbEntity
  8
0
100
AcDbBlockBegin
  2
_D_1
 70
     0
 10
0.0
 20
0.0
 30
0.0
  3
_D_1
  1

  0
SOLID
  5
E6
330
E3
100
AcDbEntity
  8
0
  6
Continuous
 62
     7
370
    18
100
AcDbTrace
 10
7.9928543809
 20
7.9773762732
 30
0.0
 11
7.7328543809
 21
8.0173762732
 31
0.0
 12
7.7328543809
 22
7.9373762732
 32
0.0
 13
7.7328543809
 23
7.9373762732
 33
0.0
  0
SOLID
  5
E7
330
E3
100
AcDbEntity
  8
0
  6
Continuous
 62
     7
370
    18
100
AcDbTrace
 10
8.3728543809
 20
7.9773762732
 30
0.0
 11
8.6328543809
 21
7.9373762732
 31
0.0
 12
8.6328543809
 22
8.0173762732
 32
0.0
 13
8.6328543809
 23
8.0173762732
 33
0.0
  0
LINE
  5
E8
330
E3
100
AcDbEntity
  8
0
  6
Continuous
 62
     7
370
     0
100
AcDbLine
 10
9.1175592407
 20
7.9754665119
 30
0.0
 11
9.0413873665
 21
7.9754665119
 31
0.0
  0
LINE
  5
E9
330
E3
100
AcDbEntity
  8
0
  6
Continuous
 62
     7
370
     0
100
AcDbLine
 10
9.0413873665
 20
7.9754665119
 30
0.0
 11
9.0413873665
 21
7.5785915
 31
0.0
  0
LINE
  5
EA
330
E3
100
AcDbEntity
  8
0
  6
Continuous
 62
     7
370
     0
100
AcDbLine
 10
9.0413873665
 20
7.5785915
 30
0.0
 11
9.1175592407
 21
7.5785915
 31
0.0
  0
LINE
  5
EB
330
E3
100
AcDbEntity
  8
0
  6
Continuous
 62
     7
370
     0
100
AcDbLine
 10
10.1120037061
 20
7.9754665119
 30
0.0
 11
10.1881755804
 21
7.9754665119
 31
0.0
  0
LINE
  5
EC
330
E3
100
AcDbEntity
  8
0
  6
Continuous
 62
     7
370
     0
100
AcDbLine
 10
10.1881755804
 20
7.9754665119
 30
0.0
 11
10.1881755804
 21
7.5785915
 31
0.0
  0
LINE
  5
ED
330
E3
100
AcDbEntity
  8
0
  6
Continuous
 62
     7
370
     0
100
AcDbLine
 10
10.1881755804
 20
7.5785915
 30
0.0
 11
10.1120037061
 21
7.5785915
 31
0.0
  0
LINE
  5
EE
330
E3
100
AcDbEntity
  8
0
  6
Continuous
 62
     7
370
     0
100
AcDbLine
 10
7.9928543809
 20
5.6619509928
 30
0.0
 11
7.9928543809
 21
8.2273762732
 31
0.0
  0
LINE
  5
EF
330
E3
100
AcDbEntity
  8
0
  6
Continuous
 62
     7
370
     0
100
AcDbLine
 10
8.3728543809
 20
5.6619509928
 30
0.0
 11
8.3728543809
 21
8.2273762732
 31
0.0
  0
LINE
  5
F0
330
E3
100
AcDbEntity
  8
0
  6
Continuous
 62
     7
370
     0
100
AcDbLine
 10
7.9928543809
 20
7.9773762732
 30
0.0
 11
7.4928543809
 21
7.9773762732
 31
0.0
  0
LINE
  5
F1
330
E3
100
AcDbEntity
  8
0
  6
Continuous
 62
     7
370
     0
100
AcDbLine
 10
8.3728543809
 20
7.9773762732
 30
0.0
 11
8.822120897
 21
7.9773762732
 31
0.0
  0
MTEXT
  5
F2
330
E3
100
AcDbEntity
  8
0
  6
Continuous
 62
     7
370
    18
100
AcDbMText
 10
8.9666043809
 20
8.352334167
 30
0.0
 40
0.25
 41
0.0
 71
     1
 72
     1
  1

  7
SLDTEXTSTYLE0
 73
     1
 44
1.0
  0
MTEXT
  5
F3
330
E3
100
AcDbEntity
  8
0
  6
Continuous
 62
     7
370
    18
100
AcDbMText
 10
9.3055800503
 20
8.348514704
 30
0.0
 40
0.25
 41
0.0
 71
     1
 72
     1
  1
3/8"
  7
SLDTEXTSTYLE0
 73
     1
 44
1.0
  0
MTEXT
  5
F4
330
E3
100
AcDbEntity
  8
0
  6
Continuous
 62
     7
370
    18
100
AcDbMText
 10
9.1175592407
 20
7.9008584624
 30
0.0
 40
0.25
 41
0.0
 71
     1
 72
     1
  1
10mm
  7
SLDTEXTSTYLE0
 73
     1
 44
1.0
  0
MTEXT
  5
F5
330
E3
100
AcDbEntity
  8
0
  6
Continuous
 62
     7
370
    18
100
AcDbMText
 10
10.3580973996
 20
8.352334167
 30
0.0
 40
0.25
 41
0.0
 71
     1
 72
     1
  1

  7
SLDTEXTSTYLE0
 73
     1
 44
1.0
  0
ENDBLK
  5
E5
330
E3
100
AcDbEntity
  8
0
100
AcDbBlockEnd
  0
BLOCK
  5
F9
330
F8
100
AcDbEntity
  8
0
100
AcDbBlockBegin
  2
_D_2
 70
     0
 10
0.0
 20
0.0
 30
0.0
  3
_D_2
  1

  0
SOLID
  5
FB
330
F8
100
AcDbEntity
  8
0
  6
Continuous
 62
     7
370
    18
100
AcDbTrace
 10
3.7092618612
 20
0.8167925318
 30
0.0
 11
3.7492618612
 21
1.0767925318
 31
0.0
 12
3.6692618612
 22
1.0767925318
 32
0.0
 13
3.6692618612
 23
1.0767925318
 33
0.0
  0
SOLID
  5
FC
330
F8
100
AcDbEntity
  8
0
  6
Continuous
 62
     7
370
    18
100
AcDbTrace
 10
3.7092618612
 20
5.3071094539
 30
0.0
 11
3.6692618612
 21
5.0471094539
 31
0.0
 12
3.7492618612
 22
5.0471094539
 32
0.0
 13
3.7492618612
 23
5.0471094539
 33
0.0
  0
LINE
  5
FD
330
F8
100
AcDbEntity
  8
0
  6
Continuous
 62
     7
370
     0
100
AcDbLine
 10
3.1196785721
 20
3.0600412316
 30
0.0
 11
3.0435066979
 21
3.0600412316
 31
0.0
  0
LINE
  5
FE
330
F8
100
AcDbEntity
  8
0
  6
Continuous
 62
     7
370
     0
100
AcDbLine
 10
3.0435066979
 20
3.0600412316
 30
0.0
 11
3.0435066979
 21
2.6631662196
 31
0.0
  0
LINE
  5
FF
330
F8
100
AcDbEntity
  8
0
  6
Continuous
 62
     7
370
     0
100
AcDbLine
 10
3.0435066979
 20
2.6631662196
 30
0.0
 11
3.1196785721
 21
2.6631662196
 31
0.0
  0
LINE
  5
100
330
F8
100
AcDbEntity
  8
0
  6
Continuous
 62
     7
370
     0
100
AcDbLine
 10
4.2988452236
 20
3.0600412316
 30
0.0
 11
4.3750170978
 21
3.0600412316
 31
0.0
  0
LINE
  5
101
330
F8
100
AcDbEntity
  8
0
  6
Continuous
 62
     7
370
     0
100
AcDbLine
 10
4.3750170978
 20
3.0600412316
 30
0.0
 11
4.3750170978
 21
2.6631662196
 31
0.0
  0
LINE
  5
102
330
F8
100
AcDbEntity
  8
0
  6
Continuous
 62
     7
370
     0
100
AcDbLine
 10
4.3750170978
 20
2.6631662196
 30
0.0
 11
4.2988452236
 21
2.6631662196
 31
0.0
  0
LINE
  5
103
330
F8
100
AcDbEntity
  8
0
  6
Continuous
 62
     7
370
     0
100
AcDbLine
 10
4.9003543809
 20
0.8167925318
 30
0.0
 11
3.4592618612
 21
0.8167925318
 31
0.0
  0
LINE
  5
104
330
F8
100
AcDbEntity
  8
0
  6
Continuous
 62
     7
370
     0
100
AcDbLine
 10
4.9003543809
 20
5.3071094539
 30
0.0
 11
3.4592618612
 21
5.3071094539
 31
0.0
  0
LINE
  5
105
330
F8
100
AcDbEntity
  8
0
  6
Continuous
 62
     7
370
     0
100
AcDbLine
 10
3.7092618612
 20
0.8167925318
 30
0.0
 11
3.7092618612
 21
2.6123850496
 31
0.0
  0
LINE
  5
106
330
F8
100
AcDbEntity
  8
0
  6
Continuous
 62
     7
370
     0
100
AcDbLine
 10
3.7092618612
 20
5.3071094539
 30
0.0
 11
3.7092618612
 21
3.5115169361
 31
0.0
  0
MTEXT
  5
107
330
F8
100
AcDbEntity
  8
0
  6
Continuous
 62
     7
370
    18
100
AcDbMText
 10
2.9687237123
 20
3.4369088866
 30
0.0
 40
0.25
 41
0.0
 71
     1
 72
     1
  1

  7
SLDTEXTSTYLE0
 73
     1
 44
1.0
  0
MTEXT
  5
108
330
F8
100
AcDbEntity
  8
0
  6
Continuous
 62
     7
370
    18
100
AcDbMText
 10
3.2615188352
 20
3.4330894236
 30
0.0
 40
0.25
 41
0.0
 71
     1
 72
     1
  1
4 1/2"
  7
SLDTEXTSTYLE0
 73
     1
 44
1.0
  0
MTEXT
  5
109
330
F8
100
AcDbEntity
  8
0
  6
Continuous
 62
     7
370
    18
100
AcDbMText
 10
3.1196785721
 20
2.9854331821
 30
0.0
 40
0.25
 41
0.0
 71
     1
 72
     1
  1
114mm
  7
SLDTEXTSTYLE0
 73
     1
 44
1.0
  0
MTEXT
  5
10A
330
F8
100
AcDbEntity
  8
0
  6
Continuous
 62
     7
370
    18
100
AcDbMText
 10
4.5449389171
 20
3.4369088866
 30
0.0
 40
0.25
 41
0.0
 71
     1
 72
     1
  1

  7
SLDTEXTSTYLE0
 73
     1
 44
1.0
  0
ENDBLK
  5
FA
330
F8
100
AcDbEntity
  8
0
100
AcDbBlockEnd
  0
BLOCK
  5
10E
330
10D
100
AcDbEntity
  8
0
100
AcDbBlockBegin
  2
_D_3
 70
     0
 10
0.0
 20
0.0
 30
0.0
  3
_D_3
  1

  0
ARC
  5
110
330
10D
100
AcDbEntity
  8
0
  6
Continuous
 62
     7
370
    18
100
AcDbCircle
 10
7.6360399674
 20
4.1709509928
 30
0.0
 40
2.518410285762904
100
AcDbArc
 50
318.672428939
 51
330.0
  0
ARC
  5
111
330
10D
100
AcDbEntity
  8
0
  6
Continuous
 62
     7
370
    18
100
AcDbCircle
 10
7.6360399674
 20
4.1709509928
 30
0.0
 40
2.518410285762904
100
AcDbArc
 50
0.0
 51
11.327571061
  0
SOLID
  5
112
330
10D
100
AcDbEntity
  8
0
  6
Continuous
 62
     7
370
    18
100
AcDbTrace
 10
9.817047252
 20
2.91174585
 30
0.0
 11
9.6420753623
 21
2.7153156134
 31
0.0
 12
9.7092091624
 22
2.6718063858
 32
0.0
 13
9.7092091624
 23
2.6718063858
 33
0.0
  0
SOLID
  5
113
330
10D
100
AcDbEntity
  8
0
  6
Continuous
 62
     7
370
    18
100
AcDbTrace
 10
10.1544502531
 20
4.1709509928
 30
0.0
 11
10.1810294601
 21
4.4326637089
 31
0.0
 12
10.10113527
 22
4.4285505126
 32
0.0
 13
10.10113527
 23
4.4285505126
 33
0.0
  0
LINE
  5
114
330
10D
100
AcDbEntity
  8
0
  6
Continuous
 62
     7
370
     0
100
AcDbLine
 10
8.4594569213
 20
3.6955509928
 30
0.0
 11
10.0335536029
 21
2.78674585
 31
0.0
  0
LINE
  5
115
330
10D
100
AcDbEntity
  8
0
  6
Continuous
 62
     7
370
     0
100
AcDbLine
 10
8.4633485687
 20
4.1709509928
 30
0.0
 11
10.4044502531
 21
4.1709509928
 31
0.0
  0
MTEXT
  5
116
330
10D
100
AcDbEntity
  8
0
  6
Continuous
 62
     7
370
    18
100
AcDbMText
 10
9.1325264643
 20
3.8414054099
 30
0.0
 40
0.25
 41
0.0
 71
     1
 72
     1
  1
30°
  7
SLDTEXTSTYLE0
 73
     1
 44
1.0
  0
MTEXT
  5
117
330
10D
100
AcDbEntity
  8
0
  6
Continuous
 62
     7
370
    18
100
AcDbMText
 10
9.7290542561
 20
3.8414054099
 30
0.0
 40
0.25
 41
0.0
 71
     1
 72
     1
  1
LOUVER
  7
SLDTEXTSTYLE0
 73
     1
 44
1.0
  0
MTEXT
  5
118
330
10D
100
AcDbEntity
  8
0
  6
Continuous
 62
     7
370
    18
100
AcDbMText
 10
9.5104778081
 20
3.444530398
 30
0.0
 40
0.25
 41
0.0
 71
     1
 72
     1
  1
ANGLE
  7
SLDTEXTSTYLE0
 73
     1
 44
1.0
  0
ENDBLK
  5
10F
330
10D
100
AcDbEntity
  8
0
100
AcDbBlockEnd
  0
BLOCK
  5
18B
330
18A
100
AcDbEntity
  8
0
100
AcDbBlockBegin
  2
_D_4
 70
     0
 10
0.0
 20
0.0
 30
0.0
  3
_D_4
  1

  0
SOLID
  5
18D
330
18A
100
AcDbEntity
  8
0
  6
Continuous
 62
     7
370
    18
100
AcDbTrace
 10
15.536658635
 20
1.4054509928
 30
0.0
 11
15.576658635
 21
1.6654509928
 31
0.0
 12
15.496658635
 22
1.6654509928
 32
0.0
 13
15.496658635
 23
1.6654509928
 33
0.0
  0
SOLID
  5
18E
330
18A
100
AcDbEntity
  8
0
  6
Continuous
 62
     7
370
    18
100
AcDbTrace
 10
15.536658635
 20
4.7184509928
 30
0.0
 11
15.496658635
 21
4.4584509928
 31
0.0
 12
15.576658635
 22
4.4584509928
 32
0.0
 13
15.576658635
 23
4.4584509928
 33
0.0
  0
LINE
  5
18F
330
18A
100
AcDbEntity
  8
0
  6
Continuous
 62
     7
370
     0
100
AcDbLine
 10
14.6206864381
 20
3.0600412316
 30
0.0
 11
14.5445145638
 21
3.0600412316
 31
0.0
  0
LINE
  5
190
330
18A
100
AcDbEntity
  8
0
  6
Continuous
 62
     7
370
     0
100
AcDbLine
 10
14.5445145638
 20
3.0600412316
 30
0.0
 11
14.5445145638
 21
2.6631662196
 31
0.0
  0
LINE
  5
191
330
18A
100
AcDbEntity
  8
0
  6
Continuous
 62
     7
370
     0
100
AcDbLine
 10
14.5445145638
 20
2.6631662196
 30
0.0
 11
14.6206864381
 21
2.6631662196
 31
0.0
  0
LINE
  5
192
330
18A
100
AcDbEntity
  8
0
  6
Continuous
 62
     7
370
     0
100
AcDbLine
 10
15.6151309035
 20
3.0600412316
 30
0.0
 11
15.6913027777
 21
3.0600412316
 31
0.0
  0
LINE
  5
193
330
18A
100
AcDbEntity
  8
0
  6
Continuous
 62
     7
370
     0
100
AcDbLine
 10
15.6913027777
 20
3.0600412316
 30
0.0
 11
15.6913027777
 21
2.6631662196
 31
0.0
  0
LINE
  5
194
330
18A
100
AcDbEntity
  8
0
  6
Continuous
 62
     7
370
     0
100
AcDbLine
 10
15.6913027777
 20
2.6631662196
 30
0.0
 11
15.6151309035
 21
2.6631662196
 31
0.0
  0
LINE
  5
195
330
18A
100
AcDbEntity
  8
0
  6
Continuous
 62
     7
370
     0
100
AcDbLine
 10
18.3215011547
 20
1.4054509928
 30
0.0
 11
15.286658635
 21
1.4054509928
 31
0.0
  0
LINE
  5
196
330
18A
100
AcDbEntity
  8
0
  6
Continuous
 62
     7
370
     0
100
AcDbLine
 10
18.3215011547
 20
4.7184509928
 30
0.0
 11
15.286658635
 21
4.7184509928
 31
0.0
  0
LINE
  5
197
330
18A
100
AcDbEntity
  8
0
  6
Continuous
 62
     7
370
     0
100
AcDbLine
 10
15.536658635
 20
1.4054509928
 30
0.0
 11
15.536658635
 21
2.6123850496
 31
0.0
  0
LINE
  5
198
330
18A
100
AcDbEntity
  8
0
  6
Continuous
 62
     7
370
     0
100
AcDbLine
 10
15.536658635
 20
4.7184509928
 30
0.0
 11
15.536658635
 21
3.5115169361
 31
0.0
  0
MTEXT
  5
199
330
18A
100
AcDbEntity
  8
0
  6
Continuous
 62
     7
370
    18
100
AcDbMText
 10
14.5778044784
 20
3.4330894236
 30
0.0
 40
0.25
 41
0.0
 71
     1
 72
     1
  1
3 5/16"
  7
SLDTEXTSTYLE0
 73
     1
 44
1.0
  0
MTEXT
  5
19A
330
18A
100
AcDbEntity
  8
0
  6
Continuous
 62
     7
370
    18
100
AcDbMText
 10
14.6206864381
 20
2.9854331821
 30
0.0
 40
0.25
 41
0.0
 71
     1
 72
     1
  1
84mm
  7
SLDTEXTSTYLE0
 73
     1
 44
1.0
  0
MTEXT
  5
19B
330
18A
100
AcDbEntity
  8
0
  6
Continuous
 62
     7
370
    18
100
AcDbMText
 10
15.8612246153
 20
3.4369088866
 30
0.0
 40
0.25
 41
0.0
 71
     1
 72
     1
  1
O.C.
  7
SLDTEXTSTYLE0
 73
     1
 44
1.0
  0
ENDBLK
  5
18C
330
18A
100
AcDbEntity
  8
0
100
AcDbBlockEnd
  0
BLOCK
  5
19E
330
19D
100
AcDbEntity
  8
0
100
AcDbBlockBegin
  2
_D_5
 70
     0
 10
0.0
 20
0.0
 30
0.0
  3
_D_5
  1

  0
SOLID
  5
1A0
330
19D
100
AcDbEntity
  8
0
  6
Continuous
 62
     7
370
    18
100
AcDbTrace
 10
13.1744539106
 20
5.5619509928
 30
0.0
 11
13.1344539106
 21
5.3019509928
 31
0.0
 12
13.2144539106
 22
5.3019509928
 32
0.0
 13
13.2144539106
 23
5.3019509928
 33
0.0
  0
SOLID
  5
1A1
330
19D
100
AcDbEntity
  8
0
  6
Continuous
 62
     7
370
    18
100
AcDbTrace
 10
13.1744539106
 20
0.5619509928
 30
0.0
 11
13.2144539106
 21
0.8219509928
 31
0.0
 12
13.1344539106
 22
0.8219509928
 32
0.0
 13
13.1344539106
 23
0.8219509928
 33
0.0
  0
LINE
  5
1A2
330
19D
100
AcDbEntity
  8
0
  6
Continuous
 62
     7
370
     0
100
AcDbLine
 10
12.5848706215
 20
3.0600412316
 30
0.0
 11
12.5086987473
 21
3.0600412316
 31
0.0
  0
LINE
  5
1A3
330
19D
100
AcDbEntity
  8
0
  6
Continuous
 62
     7
370
     0
100
AcDbLine
 10
12.5086987473
 20
3.0600412316
 30
0.0
 11
12.5086987473
 21
2.6631662196
 31
0.0
  0
LINE
  5
1A4
330
19D
100
AcDbEntity
  8
0
  6
Continuous
 62
     7
370
     0
100
AcDbLine
 10
12.5086987473
 20
2.6631662196
 30
0.0
 11
12.5848706215
 21
2.6631662196
 31
0.0
  0
LINE
  5
1A5
330
19D
100
AcDbEntity
  8
0
  6
Continuous
 62
     7
370
     0
100
AcDbLine
 10
13.764037273
 20
3.0600412316
 30
0.0
 11
13.8402091472
 21
3.0600412316
 31
0.0
  0
LINE
  5
1A6
330
19D
100
AcDbEntity
  8
0
  6
Continuous
 62
     7
370
     0
100
AcDbLine
 10
13.8402091472
 20
3.0600412316
 30
0.0
 11
13.8402091472
 21
2.6631662196
 31
0.0
  0
LINE
  5
1A7
330
19D
100
AcDbEntity
  8
0
  6
Continuous
 62
     7
370
     0
100
AcDbLine
 10
13.8402091472
 20
2.6631662196
 30
0.0
 11
13.764037273
 21
2.6631662196
 31
0.0
  0
LINE
  5
1A8
330
19D
100
AcDbEntity
  8
0
  6
Continuous
 62
     7
370
     0
100
AcDbLine
 10
16.7265011547
 20
5.5619509928
 30
0.0
 11
12.9244539106
 21
5.5619509928
 31
0.0
  0
LINE
  5
1A9
330
19D
100
AcDbEntity
  8
0
  6
Continuous
 62
     7
370
     0
100
AcDbLine
 10
16.7265011547
 20
0.5619509928
 30
0.0
 11
12.9244539106
 21
0.5619509928
 31
0.0
  0
LINE
  5
1AA
330
19D
100
AcDbEntity
  8
0
  6
Continuous
 62
     7
370
     0
100
AcDbLine
 10
13.1744539106
 20
5.5619509928
 30
0.0
 11
13.1744539106
 21
3.5115169361
 31
0.0
  0
LINE
  5
1AB
330
19D
100
AcDbEntity
  8
0
  6
Continuous
 62
     7
370
     0
100
AcDbLine
 10
13.1744539106
 20
0.5619509928
 30
0.0
 11
13.1744539106
 21
2.6123850496
 31
0.0
  0
MTEXT
  5
1AC
330
19D
100
AcDbEntity
  8
0
  6
Continuous
 62
     7
370
    18
100
AcDbMText
 10
12.4339157617
 20
3.4369088866
 30
0.0
 40
0.25
 41
0.0
 71
     1
 72
     1
  1

  7
SLDTEXTSTYLE0
 73
     1
 44
1.0
  0
MTEXT
  5
1AD
330
19D
100
AcDbEntity
  8
0
  6
Continuous
 62
     7
370
    18
100
AcDbMText
 10
13.0305303174
 20
3.4330894236
 30
0.0
 40
0.25
 41
0.0
 71
     1
 72
     1
  1
5"
  7
SLDTEXTSTYLE0
 73
     1
 44
1.0
  0
MTEXT
  5
1AE
330
19D
100
AcDbEntity
  8
0
  6
Continuous
 62
     7
370
    18
100
AcDbMText
 10
12.5848706215
 20
2.9854331821
 30
0.0
 40
0.25
 41
0.0
 71
     1
 72
     1
  1
127mm
  7
SLDTEXTSTYLE0
 73
     1
 44
1.0
  0
MTEXT
  5
1AF
330
19D
100
AcDbEntity
  8
0
  6
Continuous
 62
     7
370
    18
100
AcDbMText
 10
14.0101309665
 20
3.4369088866
 30
0.0
 40
0.25
 41
0.0
 71
     1
 72
     1
  1

  7
SLDTEXTSTYLE0
 73
     1
 44
1.0
  0
ENDBLK
  5
19F
330
19D
100
AcDbEntity
  8
0
100
AcDbBlockEnd
  0
BLOCK
  5
1B2
330
1B1
100
AcDbEntity
  8
0
100
AcDbBlockBegin
  2
_D_6
 70
     0
 10
0.0
 20
0.0
 30
0.0
  3
_D_6
  1

  0
SOLID
  5
1B4
330
1B1
100
AcDbEntity
  8
0
  6
Continuous
 62
     7
370
    18
100
AcDbTrace
 10
16.7965011547
 20
7.9773762732
 30
0.0
 11
17.0565011547
 21
7.9373762732
 31
0.0
 12
17.0565011547
 22
8.0173762732
 32
0.0
 13
17.0565011547
 23
8.0173762732
 33
0.0
  0
SOLID
  5
1B5
330
1B1
100
AcDbEntity
  8
0
  6
Continuous
 62
     7
370
    18
100
AcDbTrace
 10
20.0465011547
 20
7.9773762732
 30
0.0
 11
19.7865011547
 21
8.0173762732
 31
0.0
 12
19.7865011547
 22
7.9373762732
 32
0.0
 13
19.7865011547
 23
7.9373762732
 33
0.0
  0
LINE
  5
1B6
330
1B1
100
AcDbEntity
  8
0
  6
Continuous
 62
     7
370
     0
100
AcDbLine
 10
17.9242789587
 20
7.9754665119
 30
0.0
 11
17.8481070844
 21
7.9754665119
 31
0.0
  0
LINE
  5
1B7
330
1B1
100
AcDbEntity
  8
0
  6
Continuous
 62
     7
370
     0
100
AcDbLine
 10
17.8481070844
 20
7.9754665119
 30
0.0
 11
17.8481070844
 21
7.5785915
 31
0.0
  0
LINE
  5
1B8
330
1B1
100
AcDbEntity
  8
0
  6
Continuous
 62
     7
370
     0
100
AcDbLine
 10
17.8481070844
 20
7.5785915
 30
0.0
 11
17.9242789587
 21
7.5785915
 31
0.0
  0
LINE
  5
1B9
330
1B1
100
AcDbEntity
  8
0
  6
Continuous
 62
     7
370
     0
100
AcDbLine
 10
18.9187234241
 20
7.9754665119
 30
0.0
 11
18.9948952983
 21
7.9754665119
 31
0.0
  0
LINE
  5
1BA
330
1B1
100
AcDbEntity
  8
0
  6
Continuous
 62
     7
370
     0
100
AcDbLine
 10
18.9948952983
 20
7.9754665119
 30
0.0
 11
18.9948952983
 21
7.5785915
 31
0.0
  0
LINE
  5
1BB
330
1B1
100
AcDbEntity
  8
0
  6
Continuous
 62
     7
370
     0
100
AcDbLine
 10
18.9948952983
 20
7.5785915
 30
0.0
 11
18.9187234241
 21
7.5785915
 31
0.0
  0
LINE
  5
1BC
330
1B1
100
AcDbEntity
  8
0
  6
Continuous
 62
     7
370
     0
100
AcDbLine
 10
16.7965011547
 20
5.6319509928
 30
0.0
 11
16.7965011547
 21
8.2273762732
 31
0.0
  0
LINE
  5
1BD
330
1B1
100
AcDbEntity
  8
0
  6
Continuous
 62
     7
370
     0
100
AcDbLine
 10
20.0465011547
 20
5.6319509928
 30
0.0
 11
20.0465011547
 21
8.2273762732
 31
0.0
  0
LINE
  5
1BE
330
1B1
100
AcDbEntity
  8
0
  6
Continuous
 62
     7
370
     0
100
AcDbLine
 10
16.7965011547
 20
7.9773762732
 30
0.0
 11
17.628840615
 21
7.9773762732
 31
0.0
  0
LINE
  5
1BF
330
1B1
100
AcDbEntity
  8
0
  6
Continuous
 62
     7
370
     0
100
AcDbLine
 10
20.0465011547
 20
7.9773762732
 30
0.0
 11
19.2141616944
 21
7.9773762732
 31
0.0
  0
MTEXT
  5
1C0
330
1B1
100
AcDbEntity
  8
0
  6
Continuous
 62
     7
370
    18
100
AcDbMText
 10
17.7733240988
 20
8.352334167
 30
0.0
 40
0.25
 41
0.0
 71
     1
 72
     1
  1

  7
SLDTEXTSTYLE0
 73
     1
 44
1.0
  0
MTEXT
  5
1C1
330
1B1
100
AcDbEntity
  8
0
  6
Continuous
 62
     7
370
    18
100
AcDbMText
 10
17.9737581287
 20
8.348514704
 30
0.0
 40
0.25
 41
0.0
 71
     1
 72
     1
  1
3 1/4"
  7
SLDTEXTSTYLE0
 73
     1
 44
1.0
  0
MTEXT
  5
1C2
330
1B1
100
AcDbEntity
  8
0
  6
Continuous
 62
     7
370
    18
100
AcDbMText
 10
17.9242789587
 20
7.9008584624
 30
0.0
 40
0.25
 41
0.0
 71
     1
 72
     1
  1
83mm
  7
SLDTEXTSTYLE0
 73
     1
 44
1.0
  0
MTEXT
  5
1C3
330
1B1
100
AcDbEntity
  8
0
  6
Continuous
 62
     7
370
    18
100
AcDbMText
 10
19.1648171175
 20
8.352334167
 30
0.0
 40
0.25
 41
0.0
 71
     1
 72
     1
  1

  7
SLDTEXTSTYLE0
 73
     1
 44
1.0
  0
ENDBLK
  5
1B3
330
1B1
100
AcDbEntity
  8
0
100
AcDbBlockEnd
  0
BLOCK
  5
35C
330
35B
100
AcDbEntity
  8
0
100
AcDbBlockBegin
  2
_D_7
 70
     0
 10
0.0
 20
0.0
 30
0.0
  3
_D_7
  1

  0
SOLID
  5
35E
330
35B
100
AcDbEntity
  8
0
  6
Continuous
 62
     7
370
    18
100
AcDbTrace
 10
3.8290709677
 20
14.9516697936
 30
0.0
 11
3.7890709677
 21
14.6916697936
 31
0.0
 12
3.8690709677
 22
14.6916697936
 32
0.0
 13
3.8690709677
 23
14.6916697936
 33
0.0
  0
SOLID
  5
35F
330
35B
100
AcDbEntity
  8
0
  6
Continuous
 62
     7
370
    18
100
AcDbTrace
 10
3.8290709677
 20
10.2395108239
 30
0.0
 11
3.8690709677
 21
10.4995108239
 31
0.0
 12
3.7890709677
 22
10.4995108239
 32
0.0
 13
3.7890709677
 23
10.4995108239
 33
0.0
  0
LINE
  5
360
330
35B
100
AcDbEntity
  8
0
  6
Continuous
 62
     7
370
     0
100
AcDbLine
 10
3.2394876787
 20
12.5936805474
 30
0.0
 11
3.1633158044
 21
12.5936805474
 31
0.0
  0
LINE
  5
361
330
35B
100
AcDbEntity
  8
0
  6
Continuous
 62
     7
370
     0
100
AcDbLine
 10
3.1633158044
 20
12.5936805474
 30
0.0
 11
3.1633158044
 21
12.1968055355
 31
0.0
  0
LINE
  5
362
330
35B
100
AcDbEntity
  8
0
  6
Continuous
 62
     7
370
     0
100
AcDbLine
 10
3.1633158044
 20
12.1968055355
 30
0.0
 11
3.2394876787
 21
12.1968055355
 31
0.0
  0
LINE
  5
363
330
35B
100
AcDbEntity
  8
0
  6
Continuous
 62
     7
370
     0
100
AcDbLine
 10
4.4186543302
 20
12.5936805474
 30
0.0
 11
4.4948262044
 21
12.5936805474
 31
0.0
  0
LINE
  5
364
330
35B
100
AcDbEntity
  8
0
  6
Continuous
 62
     7
370
     0
100
AcDbLine
 10
4.4948262044
 20
12.5936805474
 30
0.0
 11
4.4948262044
 21
12.1968055355
 31
0.0
  0
LINE
  5
365
330
35B
100
AcDbEntity
  8
0
  6
Continuous
 62
     7
370
     0
100
AcDbLine
 10
4.4948262044
 20
12.1968055355
 30
0.0
 11
4.4186543302
 21
12.1968055355
 31
0.0
  0
LINE
  5
366
330
35B
100
AcDbEntity
  8
0
  6
Continuous
 62
     7
370
     0
100
AcDbLine
 10
5.206774896
 20
14.9516697936
 30
0.0
 11
3.5790709677
 21
14.9516697936
 31
0.0
  0
LINE
  5
367
330
35B
100
AcDbEntity
  8
0
  6
Continuous
 62
     7
370
     0
100
AcDbLine
 10
5.206774896
 20
10.2395108239
 30
0.0
 11
3.5790709677
 21
10.2395108239
 31
0.0
  0
LINE
  5
368
330
35B
100
AcDbEntity
  8
0
  6
Continuous
 62
     7
370
     0
100
AcDbLine
 10
3.8290709677
 20
14.9516697936
 30
0.0
 11
3.8290709677
 21
13.045156252
 31
0.0
  0
LINE
  5
369
330
35B
100
AcDbEntity
  8
0
  6
Continuous
 62
     7
370
     0
100
AcDbLine
 10
3.8290709677
 20
10.2395108239
 30
0.0
 11
3.8290709677
 21
12.1460243655
 31
0.0
  0
MTEXT
  5
36A
330
35B
100
AcDbEntity
  8
0
  6
Continuous
 62
     7
370
    18
100
AcDbMText
 10
3.0885328188
 20
12.9705482025
 30
0.0
 40
0.25
 41
0.0
 71
     1
 72
     1
  1

  7
SLDTEXTSTYLE0
 73
     1
 44
1.0
  0
MTEXT
  5
36B
330
35B
100
AcDbEntity
  8
0
  6
Continuous
 62
     7
370
    18
100
AcDbMText
 10
3.196605719
 20
12.9667287395
 30
0.0
 40
0.25
 41
0.0
 71
     1
 72
     1
  1
4 11/16"
  7
SLDTEXTSTYLE0
 73
     1
 44
1.0
  0
MTEXT
  5
36C
330
35B
100
AcDbEntity
  8
0
  6
Continuous
 62
     7
370
    18
100
AcDbMText
 10
3.2394876787
 20
12.519072498
 30
0.0
 40
0.25
 41
0.0
 71
     1
 72
     1
  1
120mm
  7
SLDTEXTSTYLE0
 73
     1
 44
1.0
  0
MTEXT
  5
36D
330
35B
100
AcDbEntity
  8
0
  6
Continuous
 62
     7
370
    18
100
AcDbMText
 10
4.6647480236
 20
12.9705482025
 30
0.0
 40
0.25
 41
0.0
 71
     1
 72
     1
  1

  7
SLDTEXTSTYLE0
 73
     1
 44
1.0
  0
ENDBLK
  5
35D
330
35B
100
AcDbEntity
  8
0
100
AcDbBlockEnd
  0
BLOCK
  5
370
330
36F
100
AcDbEntity
  8
0
100
AcDbBlockBegin
  2
_D_8
 70
     0
 10
0.0
 20
0.0
 30
0.0
  3
_D_8
  1

  0
SOLID
  5
372
330
36F
100
AcDbEntity
  8
0
  6
Continuous
 62
     7
370
    18
100
AcDbTrace
 10
5.306774896
 20
15.7390713684
 30
0.0
 11
5.566774896
 21
15.6990713684
 31
0.0
 12
5.566774896
 22
15.7790713684
 32
0.0
 13
5.566774896
 23
15.7790713684
 33
0.0
  0
SOLID
  5
373
330
36F
100
AcDbEntity
  8
0
  6
Continuous
 62
     7
370
    18
100
AcDbTrace
 10
8.2589338657
 20
15.7390713684
 30
0.0
 11
7.9989338657
 21
15.7790713684
 31
0.0
 12
7.9989338657
 22
15.6990713684
 32
0.0
 13
7.9989338657
 23
15.6990713684
 33
0.0
  0
LINE
  5
374
330
36F
100
AcDbEntity
  8
0
  6
Continuous
 62
     7
370
     0
100
AcDbLine
 10
6.2856321848
 20
15.7371616071
 30
0.0
 11
6.2094603106
 21
15.7371616071
 31
0.0
  0
LINE
  5
375
330
36F
100
AcDbEntity
  8
0
  6
Continuous
 62
     7
370
     0
100
AcDbLine
 10
6.2094603106
 20
15.7371616071
 30
0.0
 11
6.2094603106
 21
15.3402865952
 31
0.0
  0
LINE
  5
376
330
36F
100
AcDbEntity
  8
0
  6
Continuous
 62
     7
370
     0
100
AcDbLine
 10
6.2094603106
 20
15.3402865952
 30
0.0
 11
6.2856321848
 21
15.3402865952
 31
0.0
  0
LINE
  5
377
330
36F
100
AcDbEntity
  8
0
  6
Continuous
 62
     7
370
     0
100
AcDbLine
 10
7.2800766503
 20
15.7371616071
 30
0.0
 11
7.3562485245
 21
15.7371616071
 31
0.0
  0
LINE
  5
378
330
36F
100
AcDbEntity
  8
0
  6
Continuous
 62
     7
370
     0
100
AcDbLine
 10
7.3562485245
 20
15.7371616071
 30
0.0
 11
7.3562485245
 21
15.3402865952
 31
0.0
  0
LINE
  5
379
330
36F
100
AcDbEntity
  8
0
  6
Continuous
 62
     7
370
     0
100
AcDbLine
 10
7.3562485245
 20
15.3402865952
 30
0.0
 11
7.2800766503
 21
15.3402865952
 31
0.0
  0
LINE
  5
37A
330
36F
100
AcDbEntity
  8
0
  6
Continuous
 62
     7
370
     0
100
AcDbLine
 10
5.306774896
 20
15.0516697936
 30
0.0
 11
5.306774896
 21
15.9890713684
 31
0.0
  0
LINE
  5
37B
330
36F
100
AcDbEntity
  8
0
  6
Continuous
 62
     7
370
     0
100
AcDbLine
 10
8.2589338657
 20
15.0516697936
 30
0.0
 11
8.2589338657
 21
15.9890713684
 31
0.0
  0
LINE
  5
37C
330
36F
100
AcDbEntity
  8
0
  6
Continuous
 62
     7
370
     0
100
AcDbLine
 10
5.306774896
 20
15.7390713684
 30
0.0
 11
5.9901938412
 21
15.7390713684
 31
0.0
  0
LINE
  5
37D
330
36F
100
AcDbEntity
  8
0
  6
Continuous
 62
     7
370
     0
100
AcDbLine
 10
8.2589338657
 20
15.7390713684
 30
0.0
 11
7.5755149206
 21
15.7390713684
 31
0.0
  0
MTEXT
  5
37E
330
36F
100
AcDbEntity
  8
0
  6
Continuous
 62
     7
370
    18
100
AcDbMText
 10
6.134677325
 20
16.1140292621
 30
0.0
 40
0.25
 41
0.0
 71
     1
 72
     1
  1

  7
SLDTEXTSTYLE0
 73
     1
 44
1.0
  0
MTEXT
  5
37F
330
36F
100
AcDbEntity
  8
0
  6
Continuous
 62
     7
370
    18
100
AcDbMText
 10
6.1503891322
 20
16.1102097992
 30
0.0
 40
0.25
 41
0.0
 71
     1
 72
     1
  1
2 15/16"
  7
SLDTEXTSTYLE0
 73
     1
 44
1.0
  0
MTEXT
  5
380
330
36F
100
AcDbEntity
  8
0
  6
Continuous
 62
     7
370
    18
100
AcDbMText
 10
6.2856321848
 20
15.6625535576
 30
0.0
 40
0.25
 41
0.0
 71
     1
 72
     1
  1
75mm
  7
SLDTEXTSTYLE0
 73
     1
 44
1.0
  0
MTEXT
  5
381
330
36F
100
AcDbEntity
  8
0
  6
Continuous
 62
     7
370
    18
100
AcDbMText
 10
7.5261703437
 20
16.1140292621
 30
0.0
 40
0.25
 41
0.0
 71
     1
 72
     1
  1

  7
SLDTEXTSTYLE0
 73
     1
 44
1.0
  0
ENDBLK
  5
371
330
36F
100
AcDbEntity
  8
0
100
AcDbBlockEnd
  0
ENDSEC
  0
SECTION
  2
ENTITIES
  0
LINE
  5
6E
330
1F
100
AcDbEntity
  8
0
  6
Continuous
 62
     7
370
    25
100
AcDbLine
 10
6.2278543809
 20
5.3499746984
 30
0.0
 11
6.2278543809
 21
5.4599746984
 31
0.0
  0
LINE
  5
6F
330
1F
100
AcDbEntity
  8
0
  6
Continuous
 62
     7
370
    25
100
AcDbLine
 10
5.1778543809
 20
5.4599746984
 30
0.0
 11
5.1778543809
 21
5.3499746984
 31
0.0
  0
LINE
  5
70
330
1F
100
AcDbEntity
  8
0
  6
Continuous
 62
     7
370
    25
100
AcDbLine
 10
5.5778543809
 20
7.1899746984
 30
0.0
 11
5.5778543809
 21
5.4599746984
 31
0.0
  0
LINE
  5
71
330
1F
100
AcDbEntity
  8
0
  6
Continuous
 62
     7
370
    25
100
AcDbLine
 10
5.8278543809
 20
5.4599746984
 30
0.0
 11
5.8278543809
 21
7.1899746984
 31
0.0
  0
LINE
  5
72
330
1F
100
AcDbEntity
  8
0
  6
Continuous
 62
     7
370
    25
100
AcDbLine
 10
5.9578543809
 20
5.6599746984
 30
0.0
 11
5.9578543809
 21
7.1899746984
 31
0.0
  0
LINE
  5
73
330
1F
100
AcDbEntity
  8
0
  6
Continuous
 62
     7
370
    25
100
AcDbLine
 10
5.4478543809
 20
7.1899746984
 30
0.0
 11
5.4478543809
 21
5.6599746984
 31
0.0
  0
LINE
  5
74
330
1F
100
AcDbEntity
  8
0
  6
Continuous
 62
     7
370
    25
100
AcDbLine
 10
5.2903543809
 20
5.3175806589
 30
0.0
 11
5.2903543809
 21
5.317236477
 31
0.0
  0
LINE
  5
75
330
1F
100
AcDbEntity
  8
0
  6
Continuous
 62
     7
370
    25
100
AcDbLine
 10
8.3734295651
 20
1.6109509928
 30
0.0
 11
8.3728543809
 21
1.6104509928
 31
0.0
  0
LINE
  5
76
330
1F
100
AcDbEntity
  8
0
  6
Continuous
 62
     7
370
    25
100
AcDbLine
 10
8.3728543809
 20
1.2004509928
 30
0.0
 11
8.3734295651
 21
1.1999509928
 31
0.0
  0
LINE
  5
77
330
1F
100
AcDbEntity
  8
0
  6
Continuous
 62
     7
370
    25
100
AcDbLine
 10
8.3784295651
 20
1.6109509928
 30
0.0
 11
8.3734295651
 21
1.6109509928
 31
0.0
  0
LINE
  5
78
330
1F
100
AcDbEntity
  8
0
  6
Continuous
 62
     7
370
    25
100
AcDbLine
 10
8.3734295651
 20
1.1999509928
 30
0.0
 11
8.3784295651
 21
1.1999509928
 31
0.0
  0
LINE
  5
79
330
1F
100
AcDbEntity
  8
0
  6
Continuous
 62
     7
370
    25
100
AcDbLine
 10
8.3734295651
 20
4.9239509928
 30
0.0
 11
8.3728543809
 21
4.9234509928
 31
0.0
  0
LINE
  5
7A
330
1F
100
AcDbEntity
  8
0
  6
Continuous
 62
     7
370
    25
100
AcDbLine
 10
8.3728543809
 20
4.5134509928
 30
0.0
 11
8.3734295651
 21
4.5129509928
 31
0.0
  0
LINE
  5
7B
330
1F
100
AcDbEntity
  8
0
  6
Continuous
 62
     7
370
    25
100
AcDbLine
 10
8.3784295651
 20
4.9239509928
 30
0.0
 11
8.3734295651
 21
4.9239509928
 31
0.0
  0
LINE
  5
7C
330
1F
100
AcDbEntity
  8
0
  6
Continuous
 62
     7
370
    25
100
AcDbLine
 10
8.3734295651
 20
4.5129509928
 30
0.0
 11
8.3784295651
 21
4.5129509928
 31
0.0
  0
LINE
  5
7D
330
1F
100
AcDbEntity
  8
0
  6
Continuous
 62
     7
370
    25
100
AcDbLine
 10
7.9928543809
 20
0.5919509928
 30
0.0
 11
8.3728543809
 21
0.5919509928
 31
0.0
  0
LINE
  5
7E
330
1F
100
AcDbEntity
  8
0
  6
Continuous
 62
     7
370
    25
100
AcDbLine
 10
8.3728543809
 20
0.5919509928
 30
0.0
 11
8.3728543809
 21
0.5619509928
 31
0.0
  0
LINE
  5
7F
330
1F
100
AcDbEntity
  8
0
  6
Continuous
 62
     7
370
    25
100
AcDbLine
 10
8.3728543809
 20
0.5619509928
 30
0.0
 11
7.9928543809
 21
0.5619509928
 31
0.0
  0
LINE
  5
80
330
1F
100
AcDbEntity
  8
0
  6
Continuous
 62
     7
370
    25
100
AcDbLine
 10
7.9928543809
 20
0.5619509928
 30
0.0
 11
7.9928543809
 21
0.5919509928
 31
0.0
  0
LINE
  5
81
330
1F
100
AcDbEntity
  8
0
  6
Continuous
 62
     7
370
    25
100
AcDbLine
 10
8.3728543809
 20
5.5319509928
 30
0.0
 11
7.9928543809
 21
5.5319509928
 31
0.0
  0
LINE
  5
82
330
1F
100
AcDbEntity
  8
0
  6
Continuous
 62
     7
370
    25
100
AcDbLine
 10
8.3728543809
 20
0.5919509928
 30
0.0
 11
8.3728543809
 21
5.5319509928
 31
0.0
  0
LINE
  5
83
330
1F
100
AcDbEntity
  8
0
  6
Continuous
 62
     7
370
    25
100
AcDbLine
 10
7.9928543809
 20
0.5919509928
 30
0.0
 11
7.9928543809
 21
5.5319509928
 31
0.0
  0
LINE
  5
84
330
1F
100
AcDbEntity
  8
0
  6
Continuous
 62
     7
370
    25
100
AcDbLine
 10
7.9928543809
 20
5.5619509928
 30
0.0
 11
8.3728543809
 21
5.5619509928
 31
0.0
  0
LINE
  5
85
330
1F
100
AcDbEntity
  8
0
  6
Continuous
 62
     7
370
    25
100
AcDbLine
 10
8.3728543809
 20
5.5619509928
 30
0.0
 11
8.3728543809
 21
5.5319509928
 31
0.0
  0
LINE
  5
86
330
1F
100
AcDbEntity
  8
0
  6
Continuous
 62
     7
370
    25
100
AcDbLine
 10
7.9928543809
 20
5.5319509928
 30
0.0
 11
7.9928543809
 21
5.5619509928
 31
0.0
  0
LINE
  5
87
330
1F
100
AcDbEntity
  8
0
  6
Continuous
 62
     7
370
    25
100
AcDbLine
 10
6.2278543809
 20
5.4599746984
 30
0.0
 11
5.1778543809
 21
5.4599746984
 31
0.0
  0
LINE
  5
88
330
1F
100
AcDbEntity
  8
0
  6
Continuous
 62
     7
370
    25
100
AcDbLine
 10
6.2278543809
 20
5.3499746984
 30
0.0
 11
5.1778543809
 21
5.3499746984
 31
0.0
  0
LINE
  5
89
330
1F
100
AcDbEntity
  8
0
  6
Continuous
 62
     7
370
    25
100
AcDbLine
 10
5.6628543809
 20
5.4599746984
 30
0.0
 11
5.6628543809
 21
5.588107627
 31
0.0
  0
ELLIPSE
  5
8A
330
1F
100
AcDbEntity
  8
0
  6
Continuous
 62
     7
370
    25
100
AcDbEllipse
 10
5.7028543809
 20
5.6792054676
 30
0.0
 11
0.1249999999999991
 21
8.881784197001252E-16
 31
0.0
210
0.0
220
0.0
230
1.0
 40
0.7692307692
 41
4.386659493083269
 42
5.038118467686075
  0
LINE
  5
8B
330
1F
100
AcDbEntity
  8
0
  6
Continuous
 62
     7
370
    25
100
AcDbLine
 10
5.7428543809
 20
5.4599746984
 30
0.0
 11
5.7428543809
 21
5.588107627
 31
0.0
  0
LINE
  5
8C
330
1F
100
AcDbEntity
  8
0
  6
Continuous
 62
     7
370
    25
100
AcDbLine
 10
6.038730102
 20
5.4599746984
 30
0.0
 11
5.8526501478
 21
5.6624030021
 31
0.0
  0
LINE
  5
8D
330
1F
100
AcDbEntity
  8
0
  6
Continuous
 62
     7
370
    25
100
AcDbLine
 10
5.8526501478
 20
5.4599746984
 30
0.0
 11
5.8526501478
 21
5.6624030021
 31
0.0
  0
ELLIPSE
  5
8E
330
1F
100
AcDbEntity
  8
0
  6
Continuous
 62
     7
370
    25
100
AcDbEllipse
 10
5.7028543809
 20
5.8561285446
 30
0.0
 11
0.2459542240120767
 21
-0.1703968446426938
 31
0.0
210
0.0
220
0.0
230
1.0
 40
0.3950575694
 41
5.6074268972334
 42
5.92245342964706
  0
LINE
  5
8F
330
1F
100
AcDbEntity
  8
0
  6
Continuous
 62
     7
370
    25
100
AcDbLine
 10
6.0952986445
 20
5.4599746984
 30
0.0
 11
5.9092186903
 21
5.6624030021
 31
0.0
  0
LINE
  5
90
330
1F
100
AcDbEntity
  8
0
  6
Continuous
 62
     7
370
    25
100
AcDbLine
 10
5.3104101173
 20
5.4599746984
 30
0.0
 11
5.4964900715
 21
5.6624030021
 31
0.0
  0
ELLIPSE
  5
91
330
1F
100
AcDbEntity
  8
0
  6
Continuous
 62
     7
370
    25
100
AcDbEllipse
 10
5.7028543809
 20
5.8561285446
 30
0.0
 11
0.2459542240120776
 21
0.1703968446426947
 31
0.0
210
0.0
220
0.0
230
1.0
 40
0.3950575694
 41
3.502324531122361
 42
3.817351063536018
  0
LINE
  5
92
330
1F
100
AcDbEntity
  8
0
  6
Continuous
 62
     7
370
    25
100
AcDbLine
 10
5.3669786598
 20
5.4599746984
 30
0.0
 11
5.553058614
 21
5.6624030021
 31
0.0
  0
LINE
  5
93
330
1F
100
AcDbEntity
  8
0
  6
Continuous
 62
     7
370
    25
100
AcDbLine
 10
5.553058614
 20
5.4599746984
 30
0.0
 11
5.553058614
 21
5.6624030021
 31
0.0
  0
LINE
  5
94
330
1F
100
AcDbEntity
  8
0
  6
Continuous
 62
     7
370
    25
100
AcDbLine
 10
5.5498837955
 20
5.3499746984
 30
0.0
 11
5.5498837955
 21
5.3262994439
 31
0.0
  0
LINE
  5
95
330
1F
100
AcDbEntity
  8
0
  6
Continuous
 62
     7
370
    25
100
AcDbLine
 10
5.8558249663
 20
5.3499746984
 30
0.0
 11
5.8558249663
 21
5.336983145
 31
0.0
  0
LINE
  5
96
330
1F
100
AcDbEntity
  8
0
  6
Continuous
 62
     7
370
    25
100
AcDbLine
 10
6.0778543809
 20
5.3499746984
 30
0.0
 11
6.0778543809
 21
5.344736583
 31
0.0
  0
LINE
  5
97
330
1F
100
AcDbEntity
  8
0
  6
Continuous
 62
     7
370
    25
100
AcDbLine
 10
5.3278543809
 20
5.3499746984
 30
0.0
 11
5.3278543809
 21
5.3185460059
 31
0.0
  0
LINE
  5
98
330
1F
100
AcDbEntity
  8
0
  6
Continuous
 62
     7
370
    25
100
AcDbLine
 10
5.5778543809
 20
7.1899746984
 30
0.0
 11
5.8278543809
 21
7.1899746984
 31
0.0
  0
LINE
  5
99
330
1F
100
AcDbEntity
  8
0
  6
Continuous
 62
     7
370
    25
100
AcDbLine
 10
5.9546975861
 20
5.6129284858
 30
0.0
 11
5.9546975861
 21
5.6624030021
 31
0.0
  0
LINE
  5
9A
330
1F
100
AcDbEntity
  8
0
  6
Continuous
 62
     7
370
    25
100
AcDbLine
 10
5.4510111757
 20
5.6129284858
 30
0.0
 11
5.4510111757
 21
5.6624030021
 31
0.0
  0
LINE
  5
9B
330
1F
100
AcDbEntity
  8
0
  6
Continuous
 62
     7
370
    25
100
AcDbLine
 10
5.827622597
 20
7.1899746984
 30
0.0
 11
5.9578543809
 21
7.1899746984
 31
0.0
  0
LINE
  5
9C
330
1F
100
AcDbEntity
  8
0
  6
Continuous
 62
     7
370
    25
100
AcDbLine
 10
5.4478543809
 20
7.1899746984
 30
0.0
 11
5.5780861648
 21
7.1899746984
 31
0.0
  0
LINE
  5
9D
330
1F
100
AcDbEntity
  8
0
  6
Continuous
 62
     7
370
    25
100
AcDbLine
 10
6.2178543809
 20
5.4599746984
 30
0.0
 11
5.9546975861
 21
5.6624030021
 31
0.0
  0
LINE
  5
9E
330
1F
100
AcDbEntity
  8
0
  6
Continuous
 62
     7
370
    25
100
AcDbLine
 10
5.1878543809
 20
5.4599746984
 30
0.0
 11
5.4510111757
 21
5.6624030021
 31
0.0
  0
LINE
  5
9F
330
1F
100
AcDbEntity
  8
0
  6
Continuous
 62
     7
370
    25
100
AcDbLine
 10
5.2821791839
 20
5.3169509928
 30
0.0
 11
6.9853543809
 21
5.3764271813
 31
0.0
  0
LINE
  5
A0
330
1F
100
AcDbEntity
  8
0
  6
Continuous
 62
     7
370
    25
100
AcDbLine
 10
5.2821791839
 20
0.8069509928
 30
0.0
 11
6.9853543809
 21
0.7474748044
 31
0.0
  0
LINE
  5
A1
330
1F
100
AcDbEntity
  8
0
  6
Continuous
 62
     7
370
    25
100
AcDbLine
 10
5.0003543809
 20
0.8167925318
 30
0.0
 11
5.2821791839
 21
0.8069509928
 31
0.0
  0
LINE
  5
A2
330
1F
100
AcDbEntity
  8
0
  6
Continuous
 62
     7
370
    25
100
AcDbLine
 10
5.0003543809
 20
1.2719509928
 30
0.0
 11
5.0003543809
 21
0.8167925318
 31
0.0
  0
LINE
  5
A3
330
1F
100
AcDbEntity
  8
0
  6
Continuous
 62
     7
370
    25
100
AcDbLine
 10
5.0003543809
 20
1.2719509928
 30
0.0
 11
5.0003543809
 21
1.3344509928
 31
0.0
  0
LINE
  5
A4
330
1F
100
AcDbEntity
  8
0
  6
Continuous
 62
     7
370
    25
100
AcDbLine
 10
5.0003543809
 20
4.7894509928
 30
0.0
 11
5.0003543809
 21
1.3344509928
 31
0.0
  0
LINE
  5
A5
330
1F
100
AcDbEntity
  8
0
  6
Continuous
 62
     7
370
    25
100
AcDbLine
 10
5.0003543809
 20
4.7894509928
 30
0.0
 11
5.0003543809
 21
4.8519509928
 31
0.0
  0
LINE
  5
A6
330
1F
100
AcDbEntity
  8
0
  6
Continuous
 62
     7
370
    25
100
AcDbLine
 10
5.0003543809
 20
5.3071094539
 30
0.0
 11
5.0003543809
 21
4.8519509928
 31
0.0
  0
LINE
  5
A7
330
1F
100
AcDbEntity
  8
0
  6
Continuous
 62
     7
370
    25
100
AcDbLine
 10
5.0003543809
 20
5.3071094539
 30
0.0
 11
5.2821791839
 21
5.3169509928
 31
0.0
  0
LINE
  5
A8
330
1F
100
AcDbEntity
  8
0
  6
Continuous
 62
     7
370
    25
100
AcDbLine
 10
4.9691043809
 20
4.7894509928
 30
0.0
 11
5.0003543809
 21
4.7894509928
 31
0.0
  0
LINE
  5
A9
330
1F
100
AcDbEntity
  8
0
  6
Continuous
 62
     7
370
    25
100
AcDbLine
 10
4.9691043809
 20
4.7894509928
 30
0.0
 11
4.9691043809
 21
4.8519509928
 31
0.0
  0
LINE
  5
AA
330
1F
100
AcDbEntity
  8
0
  6
Continuous
 62
     7
370
    25
100
AcDbLine
 10
4.9691043809
 20
4.8519509928
 30
0.0
 11
5.0003543809
 21
4.8519509928
 31
0.0
  0
LINE
  5
AB
330
1F
100
AcDbEntity
  8
0
  6
Continuous
 62
     7
370
    25
100
AcDbLine
 10
4.9691043809
 20
1.2719509928
 30
0.0
 11
4.9691043809
 21
1.3344509928
 31
0.0
  0
LINE
  5
AC
330
1F
100
AcDbEntity
  8
0
  6
Continuous
 62
     7
370
    25
100
AcDbLine
 10
4.9691043809
 20
1.3344509928
 30
0.0
 11
5.0003543809
 21
1.3344509928
 31
0.0
  0
LINE
  5
AD
330
1F
100
AcDbEntity
  8
0
  6
Continuous
 62
     7
370
    25
100
AcDbLine
 10
4.9691043809
 20
1.2719509928
 30
0.0
 11
5.0003543809
 21
1.2719509928
 31
0.0
  0
LINE
  5
AE
330
1F
100
AcDbEntity
  8
0
  6
Continuous
 62
     7
370
    25
100
AcDbLine
 10
6.9853543809
 20
0.705871508
 30
0.0
 11
7.1103543809
 21
0.7102366042
 31
0.0
  0
LINE
  5
AF
330
1F
100
AcDbEntity
  8
0
  6
Continuous
 62
     7
370
    25
100
AcDbLine
 10
7.1103543809
 20
0.7102366042
 30
0.0
 11
7.1103543809
 21
5.4136653815
 31
0.0
  0
LINE
  5
B0
330
1F
100
AcDbEntity
  8
0
  6
Continuous
 62
     7
370
    25
100
AcDbLine
 10
6.9853543809
 20
0.705871508
 30
0.0
 11
6.9853543809
 21
5.4180304777
 31
0.0
  0
LINE
  5
B1
330
1F
100
AcDbEntity
  8
0
  6
Continuous
 62
     7
370
    25
100
AcDbLine
 10
6.9853543809
 20
5.4180304777
 30
0.0
 11
7.1103543809
 21
5.4136653815
 31
0.0
  0
LINE
  5
B2
330
1F
100
AcDbEntity
  8
0
  6
Continuous
 62
     7
370
    25
100
AcDbLine
 10
7.1103543809
 20
0.7126594873
 30
0.0
 11
7.1803117388
 21
0.7876795689
 31
0.0
  0
LINE
  5
B3
330
1F
100
AcDbEntity
  8
0
  6
Continuous
 62
     7
370
    25
100
AcDbLine
 10
7.1803117388
 20
5.3362224167
 30
0.0
 11
7.1903056471
 21
5.3358734218
 31
0.0
  0
LINE
  5
B4
330
1F
100
AcDbEntity
  8
0
  6
Continuous
 62
     7
370
    25
100
AcDbLine
 10
7.1903056471
 20
5.3358734218
 30
0.0
 11
7.1903056471
 21
0.7880285639
 31
0.0
  0
LINE
  5
B5
330
1F
100
AcDbEntity
  8
0
  6
Continuous
 62
     7
370
    25
100
AcDbLine
 10
7.1903056471
 20
0.7880285639
 30
0.0
 11
7.1803117388
 21
0.7876795689
 31
0.0
  0
LINE
  5
B6
330
1F
100
AcDbEntity
  8
0
  6
Continuous
 62
     7
370
    25
100
AcDbLine
 10
7.1803117388
 20
5.3362224167
 30
0.0
 11
7.1103543809
 21
5.4112424984
 31
0.0
  0
LINE
  5
B7
330
1F
100
AcDbEntity
  8
0
  6
Continuous
 62
     7
370
    25
100
AcDbLine
 10
7.1903056471
 20
0.7880285639
 30
0.0
 11
7.8228543809
 21
0.8101176524
 31
0.0
  0
LINE
  5
B8
330
1F
100
AcDbEntity
  8
0
  6
Continuous
 62
     7
370
    25
100
AcDbLine
 10
7.1903056471
 20
5.3358734218
 30
0.0
 11
7.8228543809
 21
5.3137843332
 31
0.0
  0
LINE
  5
B9
330
1F
100
AcDbEntity
  8
0
  6
Continuous
 62
     7
370
    25
100
AcDbLine
 10
5.2903543809
 20
5.3175806589
 30
0.0
 11
5.3002104612
 21
5.3175806589
 31
0.0
  0
LINE
  5
BA
330
1F
100
AcDbEntity
  8
0
  6
Continuous
 62
     7
370
    25
100
AcDbLine
 10
8.3734295651
 20
1.4054509928
 30
0.0
 11
8.3734295651
 21
1.1999509928
 31
0.0
  0
LINE
  5
BB
330
1F
100
AcDbEntity
  8
0
  6
Continuous
 62
     7
370
    25
100
AcDbLine
 10
8.3734295651
 20
1.6109509928
 30
0.0
 11
8.3734295651
 21
1.4054509928
 31
0.0
  0
LINE
  5
BC
330
1F
100
AcDbEntity
  8
0
  6
Continuous
 62
     7
370
    25
100
AcDbLine
 10
8.3784295651
 20
1.4054509928
 30
0.0
 11
8.3784295651
 21
1.1999509928
 31
0.0
  0
LINE
  5
BD
330
1F
100
AcDbEntity
  8
0
  6
Continuous
 62
     7
370
    25
100
AcDbLine
 10
8.3784295651
 20
1.6109509928
 30
0.0
 11
8.3784295651
 21
1.4054509928
 31
0.0
  0
LINE
  5
BE
330
1F
100
AcDbEntity
  8
0
  6
Continuous
 62
     7
370
    25
100
AcDbLine
 10
8.3734295651
 20
4.7184509928
 30
0.0
 11
8.3734295651
 21
4.5129509928
 31
0.0
  0
LINE
  5
BF
330
1F
100
AcDbEntity
  8
0
  6
Continuous
 62
     7
370
    25
100
AcDbLine
 10
8.3734295651
 20
4.9239509928
 30
0.0
 11
8.3734295651
 21
4.7184509928
 31
0.0
  0
LINE
  5
C0
330
1F
100
AcDbEntity
  8
0
  6
Continuous
 62
     7
370
    25
100
AcDbLine
 10
8.3784295651
 20
4.7184509928
 30
0.0
 11
8.3784295651
 21
4.5129509928
 31
0.0
  0
LINE
  5
C1
330
1F
100
AcDbEntity
  8
0
  6
Continuous
 62
     7
370
    25
100
AcDbLine
 10
8.3784295651
 20
4.9239509928
 30
0.0
 11
8.3784295651
 21
4.7184509928
 31
0.0
  0
LINE
  5
C2
330
1F
100
AcDbEntity
  8
0
  6
Continuous
 62
     7
370
    25
100
AcDbLine
 10
7.9928543809
 20
5.3769509928
 30
0.0
 11
7.8228543809
 21
5.3769509928
 31
0.0
  0
LINE
  5
C3
330
1F
100
AcDbEntity
  8
0
  6
Continuous
 62
     7
370
    25
100
AcDbLine
 10
7.8228543809
 20
5.3769509928
 30
0.0
 11
7.8228543809
 21
5.1269509928
 31
0.0
  0
LINE
  5
C4
330
1F
100
AcDbEntity
  8
0
  6
Continuous
 62
     7
370
    25
100
AcDbLine
 10
7.9928543809
 20
0.7469509928
 30
0.0
 11
7.8228543809
 21
0.7469509928
 31
0.0
  0
LINE
  5
C5
330
1F
100
AcDbEntity
  8
0
  6
Continuous
 62
     7
370
    25
100
AcDbLine
 10
7.8228543809
 20
0.9969509928
 30
0.0
 11
7.8228543809
 21
0.7469509928
 31
0.0
  0
LINE
  5
C6
330
1F
100
AcDbEntity
  8
0
  6
Continuous
 62
     7
370
    25
100
AcDbLine
 10
7.8228543809
 20
5.1269509928
 30
0.0
 11
7.8228543809
 21
0.9969509928
 31
0.0
  0
LINE
  5
C7
330
1F
100
AcDbEntity
  8
0
  6
Continuous
 62
     7
370
    25
100
AcDbLine
 10
5.2821791839
 20
5.3169509928
 30
0.0
 11
6.9853543809
 21
5.3169509928
 31
0.0
  0
LINE
  5
C8
330
1F
100
AcDbEntity
  8
0
  6
Continuous
 62
     7
370
    25
100
AcDbLine
 10
5.2821791839
 20
0.8069509928
 30
0.0
 11
6.9853543809
 21
0.8069509928
 31
0.0
  0
LINE
  5
C9
330
1F
100
AcDbEntity
  8
0
  6
Continuous
 62
     7
370
    25
100
AcDbLine
 10
7.9928543809
 20
5.1269509928
 30
0.0
 11
7.8228543809
 21
5.1269509928
 31
0.0
  0
LINE
  5
CA
330
1F
100
AcDbEntity
  8
0
  6
Continuous
 62
     7
370
    25
100
AcDbLine
 10
7.9928543809
 20
0.9969509928
 30
0.0
 11
7.8228543809
 21
0.9969509928
 31
0.0
  0
DIMENSION
  5
CB
330
1F
100
AcDbEntity
  8
0
  6
Continuous
 62
     7
370
    18
100
AcDbDimension
  2
_D
 10
5.0003543809
 20
7.9773762732
 30
0.0
 11
6.4966043809
 21
7.9773762732
 31
0.0
 70
   160
  1
<>
 71
     2
 42
-1.0
  3
SLDDIMSTYLE0
100
AcDbAlignedDimension
 13
7.9928543809
 23
5.5619509928
 33
0.0
 14
5.0003543809
 24
5.3071094539
 34
0.0
100
AcDbRotatedDimension
  0
DIMENSION
  5
E1
330
1F
100
AcDbEntity
  8
0
  6
Continuous
 62
     7
370
    18
100
AcDbDimension
  2
_D_1
 10
8.3728543809
 20
7.9773762732
 30
0.0
 11
9.6147814368
 21
7.9773762732
 31
0.0
 70
   160
  1
<>
 71
     2
 42
-1.0
  3
SLDDIMSTYLE1
100
AcDbAlignedDimension
 13
7.9928543809
 23
5.5619509928
 33
0.0
 14
8.3728543809
 24
5.5619509928
 34
0.0
100
AcDbRotatedDimension
  0
DIMENSION
  5
F6
330
1F
100
AcDbEntity
  8
0
  6
Continuous
 62
     7
370
    18
100
AcDbDimension
  2
_D_2
 10
3.7092618612
 20
5.3071094539
 30
0.0
 11
3.7092618612
 21
3.0619509928
 31
0.0
 70
   160
  1
<>
 71
     2
 42
-1.0
  3
SLDDIMSTYLE2
100
AcDbAlignedDimension
 13
5.0003543809
 23
0.8167925318
 33
0.0
 14
5.0003543809
 24
5.3071094539
 34
0.0
 50
90.0
100
AcDbRotatedDimension
  0
DIMENSION
  5
10B
330
1F
100
AcDbEntity
  8
0
  6
Continuous
 62
     7
370
    18
100
AcDbDimension
  2
_D_3
 10
8.3728543809
 20
3.7455509928
 30
0.0
 11
10.0686375036
 21
3.5191384475
 31
0.0
 70
   162
  1
<> LOUVER\PANGLE
 71
     1
 42
-1.0
  3
SLDDIMSTYLE3
100
AcDb2LineAngularDimension
 13
8.1428543809
 23
4.1709509928
 33
0.0
 14
7.9328543809
 24
4.1709509928
 34
0.0
 15
8.1428543809
 25
3.8783415547
 35
0.0
 16
9.6821279413
 26
2.7026477645
 36
0.0
  0
MTEXT
  5
119
330
1F
100
AcDbEntity
  8
0
  6
Continuous
 62
     7
370
     0
100
AcDbMText
 10
2.4107653483
 20
7.5047903978
 30
0.0
 40
0.25
 41
0.0
 71
     2
 72
     1
  1
THERMAL PROTECTOR
  7
SLDTEXTSTYLE0
 73
     1
 44
1.0
  0
MTEXT
  5
11A
330
1F
100
AcDbEntity
  8
0
  6
Continuous
 62
     7
370
     0
100
AcDbMText
 10
2.4304700676
 20
7.1760502488
 30
0.0
 40
0.25
 41
0.0
 71
     2
 72
     1
  1
(OPTIONAL)
  7
SLDTEXTSTYLE0
 73
     1
 44
1.0
  0
LEADER
  5
11C
330
1F
100
AcDbEntity
  8
0
  6
Continuous
 62
     7
370
     0
100
AcDbLeader
  3
SLDDIMSTYLE4
 76
     3
 10
5.4478543809
 20
6.4892173322
 30
0.0
 10
4.7103940683
 20
7.2192256033
 30
0.0
 10
4.2103940683
 20
7.2192256033
 30
0.0
  0
LINE
  5
11D
330
1F
100
AcDbEntity
  8
0
  6
Continuous
 62
     7
370
    25
100
AcDbLine
 10
19.4015011547
 20
5.6599746984
 30
0.0
 11
19.4015011547
 21
7.1899746984
 31
0.0
  0
LINE
  5
11E
330
1F
100
AcDbEntity
  8
0
  6
Continuous
 62
     7
370
    25
100
AcDbLine
 10
18.7915011547
 20
7.1899746984
 30
0.0
 11
18.7915011547
 21
5.5830516215
 31
0.0
  0
ARC
  5
11F
330
1F
100
AcDbEntity
  8
0
  6
Continuous
 62
     7
370
    25
100
AcDbCircle
 10
16.8265011547
 20
0.5919509928
 30
0.0
 40
0.0300000000000011
100
AcDbArc
 50
180.0
 51
270.0
  0
LINE
  5
120
330
1F
100
AcDbEntity
  8
0
  6
Continuous
 62
     7
370
    25
100
AcDbLine
 10
16.7965011547
 20
0.5919509928
 30
0.0
 11
16.7965011547
 21
5.5319509928
 31
0.0
  0
ARC
  5
121
330
1F
100
AcDbEntity
  8
0
  6
Continuous
 62
     7
370
    25
100
AcDbCircle
 10
16.8265011547
 20
5.5319509928
 30
0.0
 40
0.0300000000000011
100
AcDbArc
 50
90.0
 51
180.0
  0
ARC
  5
122
330
1F
100
AcDbEntity
  8
0
  6
Continuous
 62
     7
370
    25
100
AcDbCircle
 10
20.0165011547
 20
5.5319509928
 30
0.0
 40
0.0300000000000011
100
AcDbArc
 50
0.0
 51
90.0
  0
LINE
  5
123
330
1F
100
AcDbEntity
  8
0
  6
Continuous
 62
     7
370
    25
100
AcDbLine
 10
20.0465011547
 20
5.5319509928
 30
0.0
 11
20.0465011547
 21
0.5919509928
 31
0.0
  0
ARC
  5
124
330
1F
100
AcDbEntity
  8
0
  6
Continuous
 62
     7
370
    25
100
AcDbCircle
 10
20.0165011547
 20
0.5919509928
 30
0.0
 40
0.0299999999999999
100
AcDbArc
 50
270.0
 51
360.0
  0
LINE
  5
125
330
1F
100
AcDbEntity
  8
0
  6
Continuous
 62
     7
370
    25
100
AcDbLine
 10
20.0165011547
 20
0.5619509928
 30
0.0
 11
16.8265011547
 21
0.5619509928
 31
0.0
  0
LINE
  5
126
330
1F
100
AcDbEntity
  8
0
  6
Continuous
 62
     7
370
    25
100
AcDbLine
 10
17.8890011547
 20
3.7455509928
 30
0.0
 11
18.9540011547
 21
3.7455509928
 31
0.0
  0
SPLINE
  5
127
330
1F
100
AcDbEntity
  8
0
  6
Continuous
 62
     7
370
    25
100
AcDbSpline
210
0.0
220
0.0
230
1.0
 70
     8
 71
     3
 72
    20
 73
    16
 74
     0
 42
0.00000001
 43
0.00000001
 40
0.0
 40
0.0
 40
0.0
 40
0.0
 40
0.1220208336415365
 40
0.2292653365593426
 40
0.336509839477149
 40
0.4437543423949573
 40
0.5509988453127638
 40
0.6040432035165528
 40
0.6570875617203407
 40
0.7101319199241289
 40
0.7631762781279178
 40
0.816220636331706
 40
0.8692649945354939
 40
0.9223093527392819
 40
1.0
 40
1.0
 40
1.0
 40
1.0
 10
17.88900115469996
 20
3.620550992835927
 30
0.0
 10
17.88099149302615
 20
3.62144473387197
 30
0.0
 10
17.86594211396054
 20
3.623123986777479
 30
0.0
 10
17.8469178866713
 20
3.635328837440099
 30
0.0
 10
17.83346193449763
 20
3.651840621327509
 30
0.0
 10
17.82626672463474
 20
3.672004654277726
 30
0.0
 10
17.82617759499785
 20
3.68981020474723
 30
0.0
 10
17.82958755984974
 20
3.703356477558166
 30
0.0
 10
17.83376728111586
 20
3.712911764417518
 30
0.0
 10
17.8394711019228
 20
3.721641289388368
 30
0.0
 10
17.84654093593874
 20
3.729304408722646
 30
0.0
 10
17.85478157782478
 20
3.735702088667546
 30
0.0
 10
17.86396734555272
 20
3.740608442170549
 30
0.0
 10
17.87536752415361
 20
3.744610210541995
 30
0.0
 10
17.88391921988143
 20
3.745200316302634
 30
0.0
 10
17.88900115469996
 20
3.745550992835926
 30
0.0
  0
LINE
  5
128
330
1F
100
AcDbEntity
  8
0
  6
Continuous
 62
     7
370
    25
100
AcDbLine
 10
18.9540011547
 20
3.6205509928
 30
0.0
 11
17.8890011547
 21
3.6205509928
 31
0.0
  0
SPLINE
  5
129
330
1F
100
AcDbEntity
  8
0
  6
Continuous
 62
     7
370
    25
100
AcDbSpline
210
0.0
220
0.0
230
1.0
 70
     8
 71
     3
 72
    25
 73
    21
 74
     0
 42
0.00000001
 43
0.00000001
 40
0.0
 40
0.0
 40
0.0
 40
0.0
 40
0.0600333226356735
 40
0.1129709835186544
 40
0.1659086444016346
 40
0.2188463052846152
 40
0.2717839661675944
 40
0.3247216270505744
 40
0.3776592879335545
 40
0.4305969488165352
 40
0.4835346096995143
 40
0.5364722705824931
 40
0.589409931465473
 40
0.6423475923484531
 40
0.695285253231432
 40
0.7482229141144112
 40
0.801160574997391
 40
0.8540982358803697
 40
0.9070358967633492
 40
1.0
 40
1.0
 40
1.0
 40
1.0
 10
18.95400115469996
 20
3.745550992835926
 30
0.0
 10
18.95793098038869
 20
3.745338189191155
 30
0.0
 10
18.96532614450122
 20
3.744937734310589
 30
0.0
 10
18.97581882579552
 20
3.741905091827657
 30
0.0
 10
18.98526239391486
 20
3.737510081722457
 30
0.0
 10
18.9938433584167
 20
3.731577859224217
 30
0.0
 10
19.00132552162761
 20
3.724316620049727
 30
0.0
 10
19.00750238751263
 20
3.715914694770215
 30
0.0
 10
19.01220362398688
 20
3.70660702000037
 30
0.0
 10
19.01529955531413
 20
3.696649457900569
 30
0.0
 10
19.01670479423566
 20
3.68631687605647
 30
0.0
 10
19.01638058067482
 20
3.675894219262674
 30
0.0
 10
19.01433586086473
 20
3.665668901432891
 30
0.0
 10
19.01062701670227
 20
3.655923221030472
 30
0.0
 10
19.00535639617381
 20
3.646924953032315
 30
0.0
 10
18.99866917229536
 20
3.638926108078997
 30
0.0
 10
18.99075052618204
 20
3.632133024549431
 30
0.0
 10
18.9818161091113
 20
3.626786361238902
 30
0.0
 10
18.96967953197833
 20
3.621838719853602
 30
0.0
 10
18.96010301554773
 20
3.621052162754997
 30
0.0
 10
18.95400115469996
 20
3.620550992835926
 30
0.0
  0
LINE
  5
12A
330
1F
100
AcDbEntity
  8
0
  6
Continuous
 62
     7
370
    25
100
AcDbLine
 10
18.9540011547
 20
3.4330509928
 30
0.0
 11
17.8890011547
 21
3.4330509928
 31
0.0
  0
SPLINE
  5
12B
330
1F
100
AcDbEntity
  8
0
  6
Continuous
 62
     7
370
    25
100
AcDbSpline
210
0.0
220
0.0
230
1.0
 70
     8
 71
     3
 72
    25
 73
    21
 74
     0
 42
0.00000001
 43
0.00000001
 40
0.0
 40
0.0
 40
0.0
 40
0.0
 40
0.0600333226356734
 40
0.1129709835186543
 40
0.1659086444016346
 40
0.2188463052846152
 40
0.2717839661675945
 40
0.3247216270505744
 40
0.3776592879335544
 40
0.4305969488165352
 40
0.483534609699515
 40
0.5364722705824946
 40
0.5894099314654733
 40
0.6423475923484532
 40
0.6952852532314328
 40
0.7482229141144124
 40
0.8011605749973919
 40
0.8540982358803711
 40
0.9070358967633508
 40
1.0
 40
1.0
 40
1.0
 40
1.0
 10
18.95400115469996
 20
3.558050992835926
 30
0.0
 10
18.95793098038869
 20
3.557838189191155
 30
0.0
 10
18.96532614450123
 20
3.557437734310589
 30
0.0
 10
18.97581882579552
 20
3.554405091827657
 30
0.0
 10
18.98526239391486
 20
3.550010081722457
 30
0.0
 10
18.99384335841671
 20
3.544077859224217
 30
0.0
 10
19.00132552162761
 20
3.536816620049727
 30
0.0
 10
19.00750238751263
 20
3.528414694770216
 30
0.0
 10
19.01220362398688
 20
3.51910702000037
 30
0.0
 10
19.01529955531413
 20
3.509149457900568
 30
0.0
 10
19.01670479423566
 20
3.49881687605647
 30
0.0
 10
19.01638058067482
 20
3.488394219262673
 30
0.0
 10
19.01433586086473
 20
3.478168901432891
 30
0.0
 10
19.01062701670227
 20
3.468423221030472
 30
0.0
 10
19.00535639617381
 20
3.459424953032315
 30
0.0
 10
18.99866917229536
 20
3.451426108078996
 30
0.0
 10
18.99075052618204
 20
3.444633024549431
 30
0.0
 10
18.9818161091113
 20
3.439286361238902
 30
0.0
 10
18.96967953197833
 20
3.434338719853602
 30
0.0
 10
18.96010301554773
 20
3.433552162754998
 30
0.0
 10
18.95400115469996
 20
3.433050992835926
 30
0.0
  0
LINE
  5
12C
330
1F
100
AcDbEntity
  8
0
  6
Continuous
 62
     7
370
    25
100
AcDbLine
 10
17.8890011547
 20
3.5580509928
 30
0.0
 11
18.9540011547
 21
3.5580509928
 31
0.0
  0
SPLINE
  5
12D
330
1F
100
AcDbEntity
  8
0
  6
Continuous
 62
     7
370
    25
100
AcDbSpline
210
0.0
220
0.0
230
1.0
 70
     8
 71
     3
 72
    20
 73
    16
 74
     0
 42
0.00000001
 43
0.00000001
 40
0.0
 40
0.0
 40
0.0
 40
0.0
 40
0.1220208336415366
 40
0.2292653365593429
 40
0.3365098394771506
 40
0.4437543423949575
 40
0.5509988453127639
 40
0.6040432035165523
 40
0.6570875617203409
 40
0.7101319199241288
 40
0.7631762781279166
 40
0.8162206363317052
 40
0.8692649945354937
 40
0.9223093527392817
 40
1.0
 40
1.0
 40
1.0
 40
1.0
 10
17.88900115469996
 20
3.433050992835926
 30
0.0
 10
17.88099149302615
 20
3.433944733871969
 30
0.0
 10
17.86594211396054
 20
3.435623986777479
 30
0.0
 10
17.8469178866713
 20
3.4478288374401
 30
0.0
 10
17.83346193449763
 20
3.464340621327509
 30
0.0
 10
17.82626672463474
 20
3.484504654277726
 30
0.0
 10
17.82617759499785
 20
3.50231020474723
 30
0.0
 10
17.82958755984974
 20
3.515856477558166
 30
0.0
 10
17.83376728111586
 20
3.525411764417518
 30
0.0
 10
17.8394711019228
 20
3.534141289388367
 30
0.0
 10
17.84654093593874
 20
3.541804408722646
 30
0.0
 10
17.85478157782478
 20
3.548202088667546
 30
0.0
 10
17.86396734555272
 20
3.553108442170549
 30
0.0
 10
17.87536752415361
 20
3.557110210541995
 30
0.0
 10
17.88391921988143
 20
3.557700316302634
 30
0.0
 10
17.88900115469996
 20
3.558050992835926
 30
0.0
  0
LINE
  5
12E
330
1F
100
AcDbEntity
  8
0
  6
Continuous
 62
     7
370
    25
100
AcDbLine
 10
17.8890011547
 20
3.3705509928
 30
0.0
 11
18.9540011547
 21
3.3705509928
 31
0.0
  0
SPLINE
  5
12F
330
1F
100
AcDbEntity
  8
0
  6
Continuous
 62
     7
370
    25
100
AcDbSpline
210
0.0
220
0.0
230
1.0
 70
     8
 71
     3
 72
    20
 73
    16
 74
     0
 42
0.00000001
 43
0.00000001
 40
0.0
 40
0.0
 40
0.0
 40
0.0
 40
0.1220208336415363
 40
0.2292653365593432
 40
0.3365098394771502
 40
0.443754342394957
 40
0.5509988453127633
 40
0.604043203516553
 40
0.6570875617203416
 40
0.7101319199241286
 40
0.7631762781279162
 40
0.8162206363317036
 40
0.8692649945354911
 40
0.9223093527392785
 40
1.0
 40
1.0
 40
1.0
 40
1.0
 10
17.88900115469996
 20
3.245550992835926
 30
0.0
 10
17.88099149302615
 20
3.246444733871969
 30
0.0
 10
17.86594211396054
 20
3.248123986777479
 30
0.0
 10
17.8469178866713
 20
3.260328837440099
 30
0.0
 10
17.83346193449763
 20
3.276840621327509
 30
0.0
 10
17.82626672463474
 20
3.297004654277726
 30
0.0
 10
17.82617759499785
 20
3.31481020474723
 30
0.0
 10
17.82958755984974
 20
3.328356477558166
 30
0.0
 10
17.83376728111586
 20
3.337911764417517
 30
0.0
 10
17.8394711019228
 20
3.346641289388368
 30
0.0
 10
17.84654093593874
 20
3.354304408722646
 30
0.0
 10
17.85478157782478
 20
3.360702088667546
 30
0.0
 10
17.86396734555272
 20
3.365608442170549
 30
0.0
 10
17.87536752415361
 20
3.369610210541995
 30
0.0
 10
17.88391921988143
 20
3.370200316302634
 30
0.0
 10
17.88900115469996
 20
3.370550992835926
 30
0.0
  0
LINE
  5
130
330
1F
100
AcDbEntity
  8
0
  6
Continuous
 62
     7
370
    25
100
AcDbLine
 10
18.9540011547
 20
3.2455509928
 30
0.0
 11
17.8890011547
 21
3.2455509928
 31
0.0
  0
SPLINE
  5
131
330
1F
100
AcDbEntity
  8
0
  6
Continuous
 62
     7
370
    25
100
AcDbSpline
210
0.0
220
0.0
230
1.0
 70
     8
 71
     3
 72
    25
 73
    21
 74
     0
 42
0.00000001
 43
0.00000001
 40
0.0
 40
0.0
 40
0.0
 40
0.0
 40
0.0600333226356737
 40
0.1129709835186543
 40
0.1659086444016354
 40
0.2188463052846158
 40
0.2717839661675961
 40
0.3247216270505763
 40
0.3776592879335567
 40
0.430596948816536
 40
0.4835346096995158
 40
0.5364722705824954
 40
0.5894099314654754
 40
0.642347592348455
 40
0.6952852532314349
 40
0.7482229141144148
 40
0.8011605749973943
 40
0.8540982358803739
 40
0.9070358967633536
 40
1.0
 40
1.0
 40
1.0
 40
1.0
 10
18.95400115469996
 20
3.370550992835926
 30
0.0
 10
18.95793098038869
 20
3.370338189191156
 30
0.0
 10
18.96532614450123
 20
3.369937734310589
 30
0.0
 10
18.97581882579552
 20
3.366905091827657
 30
0.0
 10
18.98526239391486
 20
3.362510081722457
 30
0.0
 10
18.99384335841671
 20
3.356577859224217
 30
0.0
 10
19.00132552162761
 20
3.349316620049727
 30
0.0
 10
19.00750238751263
 20
3.340914694770216
 30
0.0
 10
19.01220362398688
 20
3.33160702000037
 30
0.0
 10
19.01529955531413
 20
3.321649457900568
 30
0.0
 10
19.01670479423566
 20
3.31131687605647
 30
0.0
 10
19.01638058067482
 20
3.300894219262673
 30
0.0
 10
19.01433586086473
 20
3.29066890143289
 30
0.0
 10
19.01062701670227
 20
3.280923221030471
 30
0.0
 10
19.00535639617381
 20
3.271924953032314
 30
0.0
 10
18.99866917229536
 20
3.263926108078996
 30
0.0
 10
18.99075052618204
 20
3.257133024549431
 30
0.0
 10
18.9818161091113
 20
3.251786361238902
 30
0.0
 10
18.96967953197833
 20
3.246838719853602
 30
0.0
 10
18.96010301554773
 20
3.246052162754998
 30
0.0
 10
18.95400115469996
 20
3.245550992835926
 30
0.0
  0
LINE
  5
132
330
1F
100
AcDbEntity
  8
0
  6
Continuous
 62
     7
370
    25
100
AcDbLine
 10
18.9540011547
 20
3.0580509928
 30
0.0
 11
17.8890011547
 21
3.0580509928
 31
0.0
  0
SPLINE
  5
133
330
1F
100
AcDbEntity
  8
0
  6
Continuous
 62
     7
370
    25
100
AcDbSpline
210
0.0
220
0.0
230
1.0
 70
     8
 71
     3
 72
    25
 73
    21
 74
     0
 42
0.00000001
 43
0.00000001
 40
0.0
 40
0.0
 40
0.0
 40
0.0
 40
0.0600333226356737
 40
0.1129709835186544
 40
0.1659086444016353
 40
0.218846305284616
 40
0.271783966167597
 40
0.3247216270505772
 40
0.3776592879335575
 40
0.4305969488165377
 40
0.4835346096995174
 40
0.5364722705824971
 40
0.5894099314654778
 40
0.6423475923484576
 40
0.6952852532314377
 40
0.7482229141144177
 40
0.801160574997398
 40
0.8540982358803775
 40
0.9070358967633572
 40
1.0
 40
1.0
 40
1.0
 40
1.0
 10
18.95400115469996
 20
3.183050992835927
 30
0.0
 10
18.95793098038869
 20
3.182838189191156
 30
0.0
 10
18.96532614450123
 20
3.18243773431059
 30
0.0
 10
18.97581882579552
 20
3.179405091827657
 30
0.0
 10
18.98526239391486
 20
3.175010081722456
 30
0.0
 10
18.99384335841671
 20
3.169077859224217
 30
0.0
 10
19.00132552162761
 20
3.161816620049727
 30
0.0
 10
19.00750238751263
 20
3.153414694770216
 30
0.0
 10
19.01220362398688
 20
3.14410702000037
 30
0.0
 10
19.01529955531413
 20
3.134149457900568
 30
0.0
 10
19.01670479423566
 20
3.12381687605647
 30
0.0
 10
19.01638058067482
 20
3.113394219262673
 30
0.0
 10
19.01433586086473
 20
3.10316890143289
 30
0.0
 10
19.01062701670227
 20
3.093423221030471
 30
0.0
 10
19.0053563961738
 20
3.084424953032314
 30
0.0
 10
18.99866917229535
 20
3.076426108078996
 30
0.0
 10
18.99075052618204
 20
3.069633024549431
 30
0.0
 10
18.98181610911129
 20
3.064286361238902
 30
0.0
 10
18.96967953197833
 20
3.059338719853603
 30
0.0
 10
18.96010301554773
 20
3.058552162754998
 30
0.0
 10
18.95400115469996
 20
3.058050992835927
 30
0.0
  0
LINE
  5
134
330
1F
100
AcDbEntity
  8
0
  6
Continuous
 62
     7
370
    25
100
AcDbLine
 10
17.8890011547
 20
3.1830509928
 30
0.0
 11
18.9540011547
 21
3.1830509928
 31
0.0
  0
SPLINE
  5
135
330
1F
100
AcDbEntity
  8
0
  6
Continuous
 62
     7
370
    25
100
AcDbSpline
210
0.0
220
0.0
230
1.0
 70
     8
 71
     3
 72
    20
 73
    16
 74
     0
 42
0.00000001
 43
0.00000001
 40
0.0
 40
0.0
 40
0.0
 40
0.0
 40
0.1220208336415363
 40
0.2292653365593432
 40
0.33650983947715
 40
0.4437543423949568
 40
0.5509988453127631
 40
0.6040432035165523
 40
0.6570875617203408
 40
0.7101319199241287
 40
0.7631762781279163
 40
0.8162206363317037
 40
0.8692649945354914
 40
0.9223093527392792
 40
1.0
 40
1.0
 40
1.0
 40
1.0
 10
17.88900115469996
 20
3.058050992835927
 30
0.0
 10
17.88099149302615
 20
3.05894473387197
 30
0.0
 10
17.86594211396054
 20
3.06062398677748
 30
0.0
 10
17.8469178866713
 20
3.0728288374401
 30
0.0
 10
17.83346193449763
 20
3.089340621327509
 30
0.0
 10
17.82626672463474
 20
3.109504654277726
 30
0.0
 10
17.82617759499785
 20
3.12731020474723
 30
0.0
 10
17.82958755984974
 20
3.140856477558166
 30
0.0
 10
17.83376728111586
 20
3.150411764417518
 30
0.0
 10
17.8394711019228
 20
3.159141289388368
 30
0.0
 10
17.84654093593874
 20
3.166804408722646
 30
0.0
 10
17.85478157782478
 20
3.173202088667546
 30
0.0
 10
17.86396734555272
 20
3.178108442170549
 30
0.0
 10
17.87536752415361
 20
3.182110210541995
 30
0.0
 10
17.88391921988143
 20
3.182700316302634
 30
0.0
 10
17.88900115469996
 20
3.183050992835927
 30
0.0
  0
LINE
  5
136
330
1F
100
AcDbEntity
  8
0
  6
Continuous
 62
     7
370
    25
100
AcDbLine
 10
17.8890011547
 20
2.9955509928
 30
0.0
 11
18.9540011547
 21
2.9955509928
 31
0.0
  0
SPLINE
  5
137
330
1F
100
AcDbEntity
  8
0
  6
Continuous
 62
     7
370
    25
100
AcDbSpline
210
0.0
220
0.0
230
1.0
 70
     8
 71
     3
 72
    20
 73
    16
 74
     0
 42
0.00000001
 43
0.00000001
 40
0.0
 40
0.0
 40
0.0
 40
0.0
 40
0.1220208336415363
 40
0.2292653365593434
 40
0.33650983947715
 40
0.4437543423949569
 40
0.5509988453127633
 40
0.6040432035165515
 40
0.65708756172034
 40
0.7101319199241283
 40
0.7631762781279156
 40
0.8162206363317027
 40
0.8692649945354899
 40
0.9223093527392774
 40
1.0
 40
1.0
 40
1.0
 40
1.0
 10
17.88900115469996
 20
2.870550992835927
 30
0.0
 10
17.88099149302615
 20
2.87144473387197
 30
0.0
 10
17.86594211396054
 20
2.87312398677748
 30
0.0
 10
17.8469178866713
 20
2.8853288374401
 30
0.0
 10
17.83346193449763
 20
2.901840621327509
 30
0.0
 10
17.82626672463474
 20
2.922004654277726
 30
0.0
 10
17.82617759499785
 20
2.939810204747231
 30
0.0
 10
17.82958755984974
 20
2.953356477558167
 30
0.0
 10
17.83376728111586
 20
2.962911764417518
 30
0.0
 10
17.8394711019228
 20
2.971641289388368
 30
0.0
 10
17.84654093593874
 20
2.979304408722646
 30
0.0
 10
17.85478157782478
 20
2.985702088667546
 30
0.0
 10
17.86396734555272
 20
2.990608442170549
 30
0.0
 10
17.87536752415361
 20
2.994610210541996
 30
0.0
 10
17.88391921988143
 20
2.995200316302634
 30
0.0
 10
17.88900115469996
 20
2.995550992835927
 30
0.0
  0
LINE
  5
138
330
1F
100
AcDbEntity
  8
0
  6
Continuous
 62
     7
370
    25
100
AcDbLine
 10
18.9540011547
 20
2.8705509928
 30
0.0
 11
17.8890011547
 21
2.8705509928
 31
0.0
  0
SPLINE
  5
139
330
1F
100
AcDbEntity
  8
0
  6
Continuous
 62
     7
370
    25
100
AcDbSpline
210
0.0
220
0.0
230
1.0
 70
     8
 71
     3
 72
    25
 73
    21
 74
     0
 42
0.00000001
 43
0.00000001
 40
0.0
 40
0.0
 40
0.0
 40
0.0
 40
0.0600333226356738
 40
0.1129709835186543
 40
0.1659086444016355
 40
0.2188463052846157
 40
0.271783966167596
 40
0.3247216270505762
 40
0.3776592879335572
 40
0.4305969488165372
 40
0.4835346096995162
 40
0.5364722705824958
 40
0.589409931465475
 40
0.6423475923484547
 40
0.6952852532314346
 40
0.7482229141144146
 40
0.8011605749973943
 40
0.8540982358803739
 40
0.9070358967633531
 40
1.0
 40
1.0
 40
1.0
 40
1.0
 10
18.95400115469996
 20
2.995550992835927
 30
0.0
 10
18.95793098038869
 20
2.995338189191157
 30
0.0
 10
18.96532614450122
 20
2.99493773431059
 30
0.0
 10
18.97581882579552
 20
2.991905091827658
 30
0.0
 10
18.98526239391486
 20
2.987510081722457
 30
0.0
 10
18.99384335841671
 20
2.981577859224218
 30
0.0
 10
19.00132552162761
 20
2.974316620049728
 30
0.0
 10
19.00750238751263
 20
2.965914694770217
 30
0.0
 10
19.01220362398688
 20
2.95660702000037
 30
0.0
 10
19.01529955531413
 20
2.946649457900569
 30
0.0
 10
19.01670479423566
 20
2.93631687605647
 30
0.0
 10
19.01638058067482
 20
2.925894219262674
 30
0.0
 10
19.01433586086473
 20
2.915668901432891
 30
0.0
 10
19.01062701670227
 20
2.905923221030472
 30
0.0
 10
19.00535639617381
 20
2.896924953032315
 30
0.0
 10
18.99866917229536
 20
2.888926108078997
 30
0.0
 10
18.99075052618204
 20
2.882133024549432
 30
0.0
 10
18.9818161091113
 20
2.876786361238903
 30
0.0
 10
18.96967953197833
 20
2.871838719853603
 30
0.0
 10
18.96010301554773
 20
2.871052162754998
 30
0.0
 10
18.95400115469996
 20
2.870550992835927
 30
0.0
  0
LINE
  5
13A
330
1F
100
AcDbEntity
  8
0
  6
Continuous
 62
     7
370
    25
100
AcDbLine
 10
18.9540011547
 20
2.4955509928
 30
0.0
 11
17.8890011547
 21
2.4955509928
 31
0.0
  0
SPLINE
  5
13B
330
1F
100
AcDbEntity
  8
0
  6
Continuous
 62
     7
370
    25
100
AcDbSpline
210
0.0
220
0.0
230
1.0
 70
     8
 71
     3
 72
    25
 73
    21
 74
     0
 42
0.00000001
 43
0.00000001
 40
0.0
 40
0.0
 40
0.0
 40
0.0
 40
0.0600333226356733
 40
0.1129709835186545
 40
0.165908644401635
 40
0.2188463052846155
 40
0.2717839661675959
 40
0.3247216270505762
 40
0.3776592879335566
 40
0.4305969488165372
 40
0.4835346096995176
 40
0.5364722705824975
 40
0.5894099314654779
 40
0.6423475923484578
 40
0.6952852532314379
 40
0.7482229141144179
 40
0.8011605749973981
 40
0.8540982358803784
 40
0.9070358967633584
 40
1.0
 40
1.0
 40
1.0
 40
1.0
 10
18.95400115469996
 20
2.620550992835927
 30
0.0
 10
18.95793098038869
 20
2.620338189191156
 30
0.0
 10
18.96532614450123
 20
2.61993773431059
 30
0.0
 10
18.97581882579552
 20
2.616905091827657
 30
0.0
 10
18.98526239391486
 20
2.612510081722457
 30
0.0
 10
18.99384335841671
 20
2.606577859224217
 30
0.0
 10
19.00132552162761
 20
2.599316620049727
 30
0.0
 10
19.00750238751263
 20
2.590914694770216
 30
0.0
 10
19.01220362398688
 20
2.58160702000037
 30
0.0
 10
19.01529955531413
 20
2.571649457900568
 30
0.0
 10
19.01670479423566
 20
2.56131687605647
 30
0.0
 10
19.01638058067482
 20
2.550894219262673
 30
0.0
 10
19.01433586086473
 20
2.54066890143289
 30
0.0
 10
19.01062701670227
 20
2.530923221030471
 30
0.0
 10
19.00535639617381
 20
2.521924953032314
 30
0.0
 10
18.99866917229535
 20
2.513926108078996
 30
0.0
 10
18.99075052618204
 20
2.507133024549431
 30
0.0
 10
18.98181610911129
 20
2.501786361238902
 30
0.0
 10
18.96967953197833
 20
2.496838719853602
 30
0.0
 10
18.96010301554773
 20
2.496052162754998
 30
0.0
 10
18.95400115469996
 20
2.495550992835926
 30
0.0
  0
LINE
  5
13C
330
1F
100
AcDbEntity
  8
0
  6
Continuous
 62
     7
370
    25
100
AcDbLine
 10
17.8890011547
 20
2.6205509928
 30
0.0
 11
18.9540011547
 21
2.6205509928
 31
0.0
  0
SPLINE
  5
13D
330
1F
100
AcDbEntity
  8
0
  6
Continuous
 62
     7
370
    25
100
AcDbSpline
210
0.0
220
0.0
230
1.0
 70
     8
 71
     3
 72
    20
 73
    16
 74
     0
 42
0.00000001
 43
0.00000001
 40
0.0
 40
0.0
 40
0.0
 40
0.0
 40
0.1220208336415366
 40
0.2292653365593431
 40
0.3365098394771497
 40
0.443754342394956
 40
0.5509988453127634
 40
0.6040432035165526
 40
0.6570875617203401
 40
0.7101319199241268
 40
0.7631762781279134
 40
0.8162206363317003
 40
0.8692649945354877
 40
0.9223093527392753
 40
1.0
 40
1.0
 40
1.0
 40
1.0
 10
17.88900115469996
 20
2.495550992835927
 30
0.0
 10
17.88099149302615
 20
2.496444733871969
 30
0.0
 10
17.86594211396054
 20
2.498123986777479
 30
0.0
 10
17.8469178866713
 20
2.5103288374401
 30
0.0
 10
17.83346193449763
 20
2.526840621327509
 30
0.0
 10
17.82626672463474
 20
2.547004654277726
 30
0.0
 10
17.82617759499785
 20
2.56481020474723
 30
0.0
 10
17.82958755984974
 20
2.578356477558166
 30
0.0
 10
17.83376728111586
 20
2.587911764417518
 30
0.0
 10
17.8394711019228
 20
2.596641289388367
 30
0.0
 10
17.84654093593874
 20
2.604304408722646
 30
0.0
 10
17.85478157782478
 20
2.610702088667546
 30
0.0
 10
17.86396734555272
 20
2.615608442170549
 30
0.0
 10
17.87536752415361
 20
2.619610210541995
 30
0.0
 10
17.88391921988143
 20
2.620200316302634
 30
0.0
 10
17.88900115469996
 20
2.620550992835926
 30
0.0
  0
LINE
  5
13E
330
1F
100
AcDbEntity
  8
0
  6
Continuous
 62
     7
370
    25
100
AcDbLine
 10
18.9540011547
 20
2.6830509928
 30
0.0
 11
17.8890011547
 21
2.6830509928
 31
0.0
  0
SPLINE
  5
13F
330
1F
100
AcDbEntity
  8
0
  6
Continuous
 62
     7
370
    25
100
AcDbSpline
210
0.0
220
0.0
230
1.0
 70
     8
 71
     3
 72
    25
 73
    21
 74
     0
 42
0.00000001
 43
0.00000001
 40
0.0
 40
0.0
 40
0.0
 40
0.0
 40
0.0600333226356738
 40
0.1129709835186548
 40
0.165908644401636
 40
0.2188463052846163
 40
0.2717839661675973
 40
0.3247216270505771
 40
0.3776592879335575
 40
0.4305969488165374
 40
0.4835346096995172
 40
0.5364722705824975
 40
0.5894099314654776
 40
0.6423475923484574
 40
0.6952852532314376
 40
0.7482229141144182
 40
0.8011605749973986
 40
0.8540982358803787
 40
0.9070358967633589
 40
1.0
 40
1.0
 40
1.0
 40
1.0
 10
18.95400115469996
 20
2.808050992835926
 30
0.0
 10
18.95793098038869
 20
2.807838189191156
 30
0.0
 10
18.96532614450123
 20
2.80743773431059
 30
0.0
 10
18.97581882579552
 20
2.804405091827657
 30
0.0
 10
18.98526239391486
 20
2.800010081722457
 30
0.0
 10
18.99384335841671
 20
2.794077859224217
 30
0.0
 10
19.00132552162761
 20
2.786816620049727
 30
0.0
 10
19.00750238751263
 20
2.778414694770215
 30
0.0
 10
19.01220362398688
 20
2.76910702000037
 30
0.0
 10
19.01529955531413
 20
2.759149457900569
 30
0.0
 10
19.01670479423566
 20
2.74881687605647
 30
0.0
 10
19.01638058067482
 20
2.738394219262674
 30
0.0
 10
19.01433586086473
 20
2.72816890143289
 30
0.0
 10
19.01062701670227
 20
2.718423221030471
 30
0.0
 10
19.0053563961738
 20
2.709424953032314
 30
0.0
 10
18.99866917229535
 20
2.701426108078996
 30
0.0
 10
18.99075052618204
 20
2.694633024549431
 30
0.0
 10
18.98181610911129
 20
2.689286361238902
 30
0.0
 10
18.96967953197833
 20
2.684338719853602
 30
0.0
 10
18.96010301554773
 20
2.683552162754998
 30
0.0
 10
18.95400115469996
 20
2.683050992835927
 30
0.0
  0
LINE
  5
140
330
1F
100
AcDbEntity
  8
0
  6
Continuous
 62
     7
370
    25
100
AcDbLine
 10
17.8890011547
 20
2.8080509928
 30
0.0
 11
18.9540011547
 21
2.8080509928
 31
0.0
  0
SPLINE
  5
141
330
1F
100
AcDbEntity
  8
0
  6
Continuous
 62
     7
370
    25
100
AcDbSpline
210
0.0
220
0.0
230
1.0
 70
     8
 71
     3
 72
    20
 73
    16
 74
     0
 42
0.00000001
 43
0.00000001
 40
0.0
 40
0.0
 40
0.0
 40
0.0
 40
0.1220208336415366
 40
0.2292653365593435
 40
0.3365098394771496
 40
0.4437543423949557
 40
0.5509988453127628
 40
0.6040432035165517
 40
0.6570875617203403
 40
0.7101319199241287
 40
0.7631762781279173
 40
0.8162206363317052
 40
0.8692649945354936
 40
0.9223093527392819
 40
1.0
 40
1.0
 40
1.0
 40
1.0
 10
17.88900115469996
 20
2.683050992835927
 30
0.0
 10
17.88099149302615
 20
2.683944733871969
 30
0.0
 10
17.86594211396054
 20
2.685623986777479
 30
0.0
 10
17.8469178866713
 20
2.6978288374401
 30
0.0
 10
17.83346193449763
 20
2.714340621327509
 30
0.0
 10
17.82626672463474
 20
2.734504654277726
 30
0.0
 10
17.82617759499785
 20
2.75231020474723
 30
0.0
 10
17.82958755984974
 20
2.765856477558166
 30
0.0
 10
17.83376728111586
 20
2.775411764417518
 30
0.0
 10
17.8394711019228
 20
2.784141289388368
 30
0.0
 10
17.84654093593874
 20
2.791804408722646
 30
0.0
 10
17.85478157782478
 20
2.798202088667546
 30
0.0
 10
17.86396734555272
 20
2.803108442170549
 30
0.0
 10
17.87536752415361
 20
2.807110210541995
 30
0.0
 10
17.88391921988143
 20
2.807700316302634
 30
0.0
 10
17.88900115469996
 20
2.808050992835926
 30
0.0
  0
LINE
  5
142
330
1F
100
AcDbEntity
  8
0
  6
Continuous
 62
     7
370
    25
100
AcDbLine
 10
17.8890011547
 20
2.4330509928
 30
0.0
 11
18.9540011547
 21
2.4330509928
 31
0.0
  0
SPLINE
  5
143
330
1F
100
AcDbEntity
  8
0
  6
Continuous
 62
     7
370
    25
100
AcDbSpline
210
0.0
220
0.0
230
1.0
 70
     8
 71
     3
 72
    20
 73
    16
 74
     0
 42
0.00000001
 43
0.00000001
 40
0.0
 40
0.0
 40
0.0
 40
0.0
 40
0.122020833641536
 40
0.2292653365593428
 40
0.3365098394771495
 40
0.4437543423949562
 40
0.5509988453127632
 40
0.6040432035165515
 40
0.6570875617203406
 40
0.7101319199241288
 40
0.7631762781279174
 40
0.8162206363317059
 40
0.8692649945354943
 40
0.9223093527392826
 40
0.9999999999999999
 40
0.9999999999999999
 40
0.9999999999999999
 40
0.9999999999999999
 10
17.88900115469996
 20
2.308050992835926
 30
0.0
 10
17.88099149302615
 20
2.308944733871969
 30
0.0
 10
17.86594211396054
 20
2.310623986777479
 30
0.0
 10
17.8469178866713
 20
2.322828837440099
 30
0.0
 10
17.83346193449763
 20
2.339340621327509
 30
0.0
 10
17.82626672463474
 20
2.359504654277726
 30
0.0
 10
17.82617759499785
 20
2.37731020474723
 30
0.0
 10
17.82958755984974
 20
2.390856477558166
 30
0.0
 10
17.83376728111586
 20
2.400411764417518
 30
0.0
 10
17.8394711019228
 20
2.409141289388368
 30
0.0
 10
17.84654093593874
 20
2.416804408722646
 30
0.0
 10
17.85478157782478
 20
2.423202088667547
 30
0.0
 10
17.86396734555272
 20
2.428108442170549
 30
0.0
 10
17.87536752415361
 20
2.432110210541995
 30
0.0
 10
17.88391921988143
 20
2.432700316302634
 30
0.0
 10
17.88900115469996
 20
2.433050992835927
 30
0.0
  0
LINE
  5
144
330
1F
100
AcDbEntity
  8
0
  6
Continuous
 62
     7
370
    25
100
AcDbLine
 10
18.9540011547
 20
2.3080509928
 30
0.0
 11
17.8890011547
 21
2.3080509928
 31
0.0
  0
SPLINE
  5
145
330
1F
100
AcDbEntity
  8
0
  6
Continuous
 62
     7
370
    25
100
AcDbSpline
210
0.0
220
0.0
230
1.0
 70
     8
 71
     3
 72
    25
 73
    21
 74
     0
 42
0.00000001
 43
0.00000001
 40
0.0
 40
0.0
 40
0.0
 40
0.0
 40
0.0600333226356733
 40
0.1129709835186539
 40
0.1659086444016351
 40
0.2188463052846158
 40
0.2717839661675963
 40
0.3247216270505763
 40
0.3776592879335561
 40
0.4305969488165368
 40
0.4835346096995165
 40
0.5364722705824976
 40
0.5894099314654769
 40
0.6423475923484565
 40
0.6952852532314364
 40
0.7482229141144152
 40
0.8011605749973945
 40
0.854098235880374
 40
0.9070358967633537
 40
1.0
 40
1.0
 40
1.0
 40
1.0
 10
18.95400115469996
 20
2.433050992835926
 30
0.0
 10
18.95793098038869
 20
2.432838189191156
 30
0.0
 10
18.96532614450123
 20
2.432437734310589
 30
0.0
 10
18.97581882579552
 20
2.429405091827657
 30
0.0
 10
18.98526239391486
 20
2.425010081722457
 30
0.0
 10
18.99384335841671
 20
2.419077859224217
 30
0.0
 10
19.00132552162761
 20
2.411816620049727
 30
0.0
 10
19.00750238751263
 20
2.403414694770216
 30
0.0
 10
19.01220362398688
 20
2.39410702000037
 30
0.0
 10
19.01529955531413
 20
2.384149457900568
 30
0.0
 10
19.01670479423566
 20
2.37381687605647
 30
0.0
 10
19.01638058067482
 20
2.363394219262673
 30
0.0
 10
19.01433586086473
 20
2.353168901432891
 30
0.0
 10
19.01062701670227
 20
2.343423221030471
 30
0.0
 10
19.00535639617381
 20
2.334424953032314
 30
0.0
 10
18.99866917229535
 20
2.326426108078996
 30
0.0
 10
18.99075052618204
 20
2.319633024549431
 30
0.0
 10
18.9818161091113
 20
2.314286361238902
 30
0.0
 10
18.96967953197833
 20
2.309338719853602
 30
0.0
 10
18.96010301554773
 20
2.308552162754998
 30
0.0
 10
18.95400115469996
 20
2.308050992835927
 30
0.0
  0
LINE
  5
146
330
1F
100
AcDbEntity
  8
0
  6
Continuous
 62
     7
370
    25
100
AcDbLine
 10
18.9540011547
 20
2.1205509928
 30
0.0
 11
17.8890011547
 21
2.1205509928
 31
0.0
  0
SPLINE
  5
147
330
1F
100
AcDbEntity
  8
0
  6
Continuous
 62
     7
370
    25
100
AcDbSpline
210
0.0
220
0.0
230
1.0
 70
     8
 71
     3
 72
    25
 73
    21
 74
     0
 42
0.00000001
 43
0.00000001
 40
0.0
 40
0.0
 40
0.0
 40
0.0
 40
0.0600333226356726
 40
0.112970983518654
 40
0.1659086444016351
 40
0.2188463052846155
 40
0.2717839661675959
 40
0.3247216270505766
 40
0.377659287933557
 40
0.4305969488165369
 40
0.4835346096995166
 40
0.5364722705824968
 40
0.5894099314654768
 40
0.6423475923484564
 40
0.6952852532314371
 40
0.7482229141144177
 40
0.8011605749973971
 40
0.8540982358803769
 40
0.9070358967633566
 40
1.0
 40
1.0
 40
1.0
 40
1.0
 10
18.95400115469996
 20
2.245550992835926
 30
0.0
 10
18.95793098038869
 20
2.245338189191156
 30
0.0
 10
18.96532614450123
 20
2.24493773431059
 30
0.0
 10
18.97581882579552
 20
2.241905091827657
 30
0.0
 10
18.98526239391486
 20
2.237510081722457
 30
0.0
 10
18.99384335841671
 20
2.231577859224217
 30
0.0
 10
19.00132552162761
 20
2.224316620049727
 30
0.0
 10
19.00750238751263
 20
2.215914694770216
 30
0.0
 10
19.01220362398688
 20
2.20660702000037
 30
0.0
 10
19.01529955531413
 20
2.196649457900568
 30
0.0
 10
19.01670479423566
 20
2.18631687605647
 30
0.0
 10
19.01638058067482
 20
2.175894219262673
 30
0.0
 10
19.01433586086473
 20
2.165668901432891
 30
0.0
 10
19.01062701670227
 20
2.155923221030471
 30
0.0
 10
19.0053563961738
 20
2.146924953032314
 30
0.0
 10
18.99866917229536
 20
2.138926108078996
 30
0.0
 10
18.99075052618204
 20
2.132133024549431
 30
0.0
 10
18.9818161091113
 20
2.126786361238902
 30
0.0
 10
18.96967953197833
 20
2.121838719853602
 30
0.0
 10
18.96010301554773
 20
2.121052162754998
 30
0.0
 10
18.95400115469996
 20
2.120550992835926
 30
0.0
  0
LINE
  5
148
330
1F
100
AcDbEntity
  8
0
  6
Continuous
 62
     7
370
    25
100
AcDbLine
 10
17.8890011547
 20
2.2455509928
 30
0.0
 11
18.9540011547
 21
2.2455509928
 31
0.0
  0
SPLINE
  5
149
330
1F
100
AcDbEntity
  8
0
  6
Continuous
 62
     7
370
    25
100
AcDbSpline
210
0.0
220
0.0
230
1.0
 70
     8
 71
     3
 72
    20
 73
    16
 74
     0
 42
0.00000001
 43
0.00000001
 40
0.0
 40
0.0
 40
0.0
 40
0.0
 40
0.1220208336415365
 40
0.229265336559343
 40
0.3365098394771501
 40
0.4437543423949566
 40
0.5509988453127636
 40
0.6040432035165526
 40
0.6570875617203396
 40
0.7101319199241269
 40
0.7631762781279148
 40
0.8162206363317024
 40
0.8692649945354892
 40
0.9223093527392762
 40
1.0
 40
1.0
 40
1.0
 40
1.0
 10
17.88900115469996
 20
2.120550992835927
 30
0.0
 10
17.88099149302615
 20
2.12144473387197
 30
0.0
 10
17.86594211396054
 20
2.123123986777479
 30
0.0
 10
17.8469178866713
 20
2.135328837440099
 30
0.0
 10
17.83346193449763
 20
2.151840621327509
 30
0.0
 10
17.82626672463474
 20
2.172004654277726
 30
0.0
 10
17.82617759499785
 20
2.18981020474723
 30
0.0
 10
17.82958755984974
 20
2.203356477558166
 30
0.0
 10
17.83376728111586
 20
2.212911764417518
 30
0.0
 10
17.8394711019228
 20
2.221641289388368
 30
0.0
 10
17.84654093593874
 20
2.229304408722646
 30
0.0
 10
17.85478157782478
 20
2.235702088667546
 30
0.0
 10
17.86396734555272
 20
2.240608442170549
 30
0.0
 10
17.87536752415361
 20
2.244610210541995
 30
0.0
 10
17.88391921988143
 20
2.245200316302634
 30
0.0
 10
17.88900115469996
 20
2.245550992835927
 30
0.0
  0
LINE
  5
14A
330
1F
100
AcDbEntity
  8
0
  6
Continuous
 62
     7
370
    25
100
AcDbLine
 10
16.8265011547
 20
5.5619509928
 30
0.0
 11
20.0165011547
 21
5.5619509928
 31
0.0
  0
LINE
  5
14B
330
1F
100
AcDbEntity
  8
0
  6
Continuous
 62
     7
370
    25
100
AcDbLine
 10
19.1065011547
 20
5.5619509928
 30
0.0
 11
19.1065011547
 21
5.6624030021
 31
0.0
  0
ELLIPSE
  5
14C
330
1F
100
AcDbEntity
  8
0
  6
Continuous
 62
     7
370
    25
100
AcDbEllipse
 10
19.1465011547
 20
5.8561285446
 30
0.0
 11
0.254999999999999
 21
1.776356839400250E-15
 31
0.0
210
0.0
220
0.0
230
1.0
 40
0.7692307692
 41
4.554875714177854
 42
4.86990224659151
  0
LINE
  5
14D
330
1F
100
AcDbEntity
  8
0
  6
Continuous
 62
     7
370
    25
100
AcDbLine
 10
19.1865011547
 20
5.5619509928
 30
0.0
 11
19.1865011547
 21
5.6624030021
 31
0.0
  0
LINE
  5
14E
330
1F
100
AcDbEntity
  8
0
  6
Continuous
 62
     7
370
    25
100
AcDbLine
 10
19.3886363077
 20
5.5619509928
 30
0.0
 11
19.2962969216
 21
5.6624030021
 31
0.0
  0
ELLIPSE
  5
14F
330
1F
100
AcDbEntity
  8
0
  6
Continuous
 62
     7
370
    25
100
AcDbEllipse
 10
19.1465011547
 20
5.8561285446
 30
0.0
 11
0.2459542240120776
 21
-0.1703968446426947
 31
0.0
210
0.0
220
0.0
230
1.0
 40
0.3950575694
 41
5.607426897233393
 42
5.922453429647052
  0
LINE
  5
150
330
1F
100
AcDbEntity
  8
0
  6
Continuous
 62
     7
370
    25
100
AcDbLine
 10
19.4452048502
 20
5.5619509928
 30
0.0
 11
19.3528654641
 21
5.6624030021
 31
0.0
  0
LINE
  5
151
330
1F
100
AcDbEntity
  8
0
  6
Continuous
 62
     7
370
    25
100
AcDbLine
 10
19.2962969216
 20
5.5619509928
 30
0.0
 11
19.2962969216
 21
5.6624030021
 31
0.0
  0
LINE
  5
152
330
1F
100
AcDbEntity
  8
0
  6
Continuous
 62
     7
370
    25
100
AcDbLine
 10
18.8477974592
 20
5.5619509928
 30
0.0
 11
18.9401368453
 21
5.6624030021
 31
0.0
  0
ELLIPSE
  5
153
330
1F
100
AcDbEntity
  8
0
  6
Continuous
 62
     7
370
    25
100
AcDbEllipse
 10
19.1465011547
 20
5.8561285446
 30
0.0
 11
0.2459542240120776
 21
0.1703968446426947
 31
0.0
210
0.0
220
0.0
230
1.0
 40
0.3950575694
 41
3.502324531122373
 42
3.817351063536017
  0
LINE
  5
154
330
1F
100
AcDbEntity
  8
0
  6
Continuous
 62
     7
370
    25
100
AcDbLine
 10
18.9043660017
 20
5.5619509928
 30
0.0
 11
18.9967053878
 21
5.6624030021
 31
0.0
  0
LINE
  5
155
330
1F
100
AcDbEntity
  8
0
  6
Continuous
 62
     7
370
    25
100
AcDbLine
 10
18.9967053878
 20
5.5619509928
 30
0.0
 11
18.9967053878
 21
5.6624030021
 31
0.0
  0
LINE
  5
156
330
1F
100
AcDbEntity
  8
0
  6
Continuous
 62
     7
370
    25
100
AcDbLine
 10
19.3983443599
 20
5.6129284858
 30
0.0
 11
19.3983443599
 21
5.6624030021
 31
0.0
  0
LINE
  5
157
330
1F
100
AcDbEntity
  8
0
  6
Continuous
 62
     7
370
    25
100
AcDbLine
 10
18.9241098504
 20
7.1899746984
 30
0.0
 11
18.9241098504
 21
5.6449679301
 31
0.0
  0
LINE
  5
158
330
1F
100
AcDbEntity
  8
0
  6
Continuous
 62
     7
370
    25
100
AcDbLine
 10
18.9241098504
 20
7.1899746984
 30
0.0
 11
19.4015011547
 21
7.1899746984
 31
0.0
  0
LINE
  5
159
330
1F
100
AcDbEntity
  8
0
  6
Continuous
 62
     7
370
    25
100
AcDbLine
 10
18.7980739619
 20
5.588107627
 30
0.0
 11
18.7980739619
 21
5.5619509928
 31
0.0
  0
LINE
  5
15A
330
1F
100
AcDbEntity
  8
0
  6
Continuous
 62
     7
370
    25
100
AcDbLine
 10
18.7915011547
 20
7.1899746984
 30
0.0
 11
18.9241098504
 21
7.1899746984
 31
0.0
  0
LINE
  5
15B
330
1F
100
AcDbEntity
  8
0
  6
Continuous
 62
     7
370
    25
100
AcDbLine
 10
19.5289319719
 20
5.5619509928
 30
0.0
 11
19.3983443599
 21
5.6624030021
 31
0.0
  0
LINE
  5
15C
330
1F
100
AcDbEntity
  8
0
  6
Continuous
 62
     7
370
    25
100
AcDbLine
 10
18.7640703375
 20
5.5619509928
 30
0.0
 11
18.7980739619
 21
5.588107627
 31
0.0
  0
LINE
  5
15D
330
1F
100
AcDbEntity
  8
0
  6
Continuous
 62
     7
370
    25
100
AcDbLine
 10
18.3590011547
 20
1.369366601
 30
0.0
 11
18.3590011547
 21
1.4415353847
 31
0.0
  0
LINE
  5
15E
330
1F
100
AcDbEntity
  8
0
  6
Continuous
 62
     7
370
    25
100
AcDbLine
 10
18.4215011547
 20
1.3332822092
 30
0.0
 11
18.3590011547
 21
1.369366601
 31
0.0
  0
LINE
  5
15F
330
1F
100
AcDbEntity
  8
0
  6
Continuous
 62
     7
370
    25
100
AcDbLine
 10
18.4840011547
 20
1.369366601
 30
0.0
 11
18.4215011547
 21
1.3332822092
 31
0.0
  0
LINE
  5
160
330
1F
100
AcDbEntity
  8
0
  6
Continuous
 62
     7
370
    25
100
AcDbLine
 10
18.4840011547
 20
1.4415353847
 30
0.0
 11
18.4840011547
 21
1.369366601
 31
0.0
  0
LINE
  5
161
330
1F
100
AcDbEntity
  8
0
  6
Continuous
 62
     7
370
    25
100
AcDbLine
 10
18.4215011547
 20
1.4776197765
 30
0.0
 11
18.4840011547
 21
1.4415353847
 31
0.0
  0
LINE
  5
162
330
1F
100
AcDbEntity
  8
0
  6
Continuous
 62
     7
370
    25
100
AcDbLine
 10
18.3590011547
 20
1.4415353847
 30
0.0
 11
18.4215011547
 21
1.4776197765
 31
0.0
  0
CIRCLE
  5
163
330
1F
100
AcDbEntity
  8
0
  6
Continuous
 62
     7
370
    25
100
AcDbCircle
 10
18.4215011547
 20
1.4054509928
 30
0.0
 40
0.2055000000000007
  0
ARC
  5
164
330
1F
100
AcDbEntity
  8
0
  6
Continuous
 62
     7
370
    25
100
AcDbCircle
 10
18.4215011547
 20
1.4054509928
 30
0.0
 40
0.0625
100
AcDbArc
 50
300.0
 51
0.0
  0
ARC
  5
165
330
1F
100
AcDbEntity
  8
0
  6
Continuous
 62
     7
370
    25
100
AcDbCircle
 10
18.4215011547
 20
1.4054509928
 30
0.0
 40
0.062500000000001
100
AcDbArc
 50
0.0
 51
60.0
  0
ARC
  5
166
330
1F
100
AcDbEntity
  8
0
  6
Continuous
 62
     7
370
    25
100
AcDbCircle
 10
18.4215011547
 20
1.4054509928
 30
0.0
 40
0.0625000000000088
100
AcDbArc
 50
120.0
 51
180.0
  0
ARC
  5
167
330
1F
100
AcDbEntity
  8
0
  6
Continuous
 62
     7
370
    25
100
AcDbCircle
 10
18.4215011547
 20
1.4054509928
 30
0.0
 40
0.0625000000000088
100
AcDbArc
 50
60.0
 51
120.0
  0
ARC
  5
168
330
1F
100
AcDbEntity
  8
0
  6
Continuous
 62
     7
370
    25
100
AcDbCircle
 10
18.4215011547
 20
1.4054509928
 30
0.0
 40
0.0624999999999974
100
AcDbArc
 50
240.0
 51
300.0
  0
ARC
  5
169
330
1F
100
AcDbEntity
  8
0
  6
Continuous
 62
     7
370
    25
100
AcDbCircle
 10
18.4215011547
 20
1.4054509928
 30
0.0
 40
0.0625
100
AcDbArc
 50
180.0
 51
240.0
  0
LINE
  5
16A
330
1F
100
AcDbEntity
  8
0
  6
Continuous
 62
     7
370
    25
100
AcDbLine
 10
18.3590011547
 20
4.682366601
 30
0.0
 11
18.3590011547
 21
4.7545353847
 31
0.0
  0
LINE
  5
16B
330
1F
100
AcDbEntity
  8
0
  6
Continuous
 62
     7
370
    25
100
AcDbLine
 10
18.4215011547
 20
4.6462822092
 30
0.0
 11
18.3590011547
 21
4.682366601
 31
0.0
  0
LINE
  5
16C
330
1F
100
AcDbEntity
  8
0
  6
Continuous
 62
     7
370
    25
100
AcDbLine
 10
18.4840011547
 20
4.682366601
 30
0.0
 11
18.4215011547
 21
4.6462822092
 31
0.0
  0
LINE
  5
16D
330
1F
100
AcDbEntity
  8
0
  6
Continuous
 62
     7
370
    25
100
AcDbLine
 10
18.4840011547
 20
4.7545353847
 30
0.0
 11
18.4840011547
 21
4.682366601
 31
0.0
  0
LINE
  5
16E
330
1F
100
AcDbEntity
  8
0
  6
Continuous
 62
     7
370
    25
100
AcDbLine
 10
18.4215011547
 20
4.7906197765
 30
0.0
 11
18.4840011547
 21
4.7545353847
 31
0.0
  0
LINE
  5
16F
330
1F
100
AcDbEntity
  8
0
  6
Continuous
 62
     7
370
    25
100
AcDbLine
 10
18.3590011547
 20
4.7545353847
 30
0.0
 11
18.4215011547
 21
4.7906197765
 31
0.0
  0
CIRCLE
  5
170
330
1F
100
AcDbEntity
  8
0
  6
Continuous
 62
     7
370
    25
100
AcDbCircle
 10
18.4215011547
 20
4.7184509928
 30
0.0
 40
0.2055000000000007
  0
ARC
  5
171
330
1F
100
AcDbEntity
  8
0
  6
Continuous
 62
     7
370
    25
100
AcDbCircle
 10
18.4215011547
 20
4.7184509928
 30
0.0
 40
0.0625000000000067
100
AcDbArc
 50
120.0
 51
180.0
  0
ARC
  5
172
330
1F
100
AcDbEntity
  8
0
  6
Continuous
 62
     7
370
    25
100
AcDbCircle
 10
18.4215011547
 20
4.7184509928
 30
0.0
 40
0.0625000000000067
100
AcDbArc
 50
60.0
 51
120.0
  0
ARC
  5
173
330
1F
100
AcDbEntity
  8
0
  6
Continuous
 62
     7
370
    25
100
AcDbCircle
 10
18.4215011547
 20
4.7184509928
 30
0.0
 40
0.0625000000000021
100
AcDbArc
 50
0.0
 51
60.0
  0
ARC
  5
174
330
1F
100
AcDbEntity
  8
0
  6
Continuous
 62
     7
370
    25
100
AcDbCircle
 10
18.4215011547
 20
4.7184509928
 30
0.0
 40
0.0625
100
AcDbArc
 50
300.0
 51
0.0
  0
ARC
  5
175
330
1F
100
AcDbEntity
  8
0
  6
Continuous
 62
     7
370
    25
100
AcDbCircle
 10
18.4215011547
 20
4.7184509928
 30
0.0
 40
0.0624999999999974
100
AcDbArc
 50
240.0
 51
300.0
  0
ARC
  5
176
330
1F
100
AcDbEntity
  8
0
  6
Continuous
 62
     7
370
    25
100
AcDbCircle
 10
18.4215011547
 20
4.7184509928
 30
0.0
 40
0.0625
100
AcDbArc
 50
180.0
 51
240.0
  0
LINE
  5
177
330
1F
100
AcDbEntity
  8
0
  6
Continuous
 62
     7
370
    25
100
AcDbLine
 10
17.8890011547
 20
3.7455509928
 30
0.0
 11
17.8890011547
 21
3.6205509928
 31
0.0
  0
LINE
  5
178
330
1F
100
AcDbEntity
  8
0
  6
Continuous
 62
     7
370
    25
100
AcDbLine
 10
18.9540011547
 20
3.7455509928
 30
0.0
 11
18.9540011547
 21
3.6205509928
 31
0.0
  0
LINE
  5
179
330
1F
100
AcDbEntity
  8
0
  6
Continuous
 62
     7
370
    25
100
AcDbLine
 10
17.8890011547
 20
2.4330509928
 30
0.0
 11
17.8890011547
 21
2.3080509928
 31
0.0
  0
LINE
  5
17A
330
1F
100
AcDbEntity
  8
0
  6
Continuous
 62
     7
370
    25
100
AcDbLine
 10
18.9540011547
 20
2.4330509928
 30
0.0
 11
18.9540011547
 21
2.3080509928
 31
0.0
  0
LINE
  5
17B
330
1F
100
AcDbEntity
  8
0
  6
Continuous
 62
     7
370
    25
100
AcDbLine
 10
18.9540011547
 20
3.5580509928
 30
0.0
 11
18.9540011547
 21
3.4330509928
 31
0.0
  0
LINE
  5
17C
330
1F
100
AcDbEntity
  8
0
  6
Continuous
 62
     7
370
    25
100
AcDbLine
 10
17.8890011547
 20
3.3705509928
 30
0.0
 11
17.8890011547
 21
3.2455509928
 31
0.0
  0
LINE
  5
17D
330
1F
100
AcDbEntity
  8
0
  6
Continuous
 62
     7
370
    25
100
AcDbLine
 10
18.9540011547
 20
3.3705509928
 30
0.0
 11
18.9540011547
 21
3.2455509928
 31
0.0
  0
LINE
  5
17E
330
1F
100
AcDbEntity
  8
0
  6
Continuous
 62
     7
370
    25
100
AcDbLine
 10
18.9540011547
 20
2.8080509928
 30
0.0
 11
18.9540011547
 21
2.6830509928
 31
0.0
  0
LINE
  5
17F
330
1F
100
AcDbEntity
  8
0
  6
Continuous
 62
     7
370
    25
100
AcDbLine
 10
17.8890011547
 20
2.8080509928
 30
0.0
 11
17.8890011547
 21
2.6830509928
 31
0.0
  0
LINE
  5
180
330
1F
100
AcDbEntity
  8
0
  6
Continuous
 62
     7
370
    25
100
AcDbLine
 10
18.9540011547
 20
3.1830509928
 30
0.0
 11
18.9540011547
 21
3.0580509928
 31
0.0
  0
LINE
  5
181
330
1F
100
AcDbEntity
  8
0
  6
Continuous
 62
     7
370
    25
100
AcDbLine
 10
17.8890011547
 20
2.9955509928
 30
0.0
 11
17.8890011547
 21
2.8705509928
 31
0.0
  0
LINE
  5
182
330
1F
100
AcDbEntity
  8
0
  6
Continuous
 62
     7
370
    25
100
AcDbLine
 10
18.9540011547
 20
2.9955509928
 30
0.0
 11
18.9540011547
 21
2.8705509928
 31
0.0
  0
LINE
  5
183
330
1F
100
AcDbEntity
  8
0
  6
Continuous
 62
     7
370
    25
100
AcDbLine
 10
17.8890011547
 20
2.2455509928
 30
0.0
 11
17.8890011547
 21
2.1205509928
 31
0.0
  0
LINE
  5
184
330
1F
100
AcDbEntity
  8
0
  6
Continuous
 62
     7
370
    25
100
AcDbLine
 10
17.8890011547
 20
2.6205509928
 30
0.0
 11
17.8890011547
 21
2.4955509928
 31
0.0
  0
LINE
  5
185
330
1F
100
AcDbEntity
  8
0
  6
Continuous
 62
     7
370
    25
100
AcDbLine
 10
18.9540011547
 20
2.6205509928
 30
0.0
 11
18.9540011547
 21
2.4955509928
 31
0.0
  0
LINE
  5
186
330
1F
100
AcDbEntity
  8
0
  6
Continuous
 62
     7
370
    25
100
AcDbLine
 10
17.8890011547
 20
3.1830509928
 30
0.0
 11
17.8890011547
 21
3.0580509928
 31
0.0
  0
LINE
  5
187
330
1F
100
AcDbEntity
  8
0
  6
Continuous
 62
     7
370
    25
100
AcDbLine
 10
17.8890011547
 20
3.5580509928
 30
0.0
 11
17.8890011547
 21
3.4330509928
 31
0.0
  0
LINE
  5
188
330
1F
100
AcDbEntity
  8
0
  6
Continuous
 62
     7
370
    25
100
AcDbLine
 10
18.9540011547
 20
2.2455509928
 30
0.0
 11
18.9540011547
 21
2.1205509928
 31
0.0
  0
DIMENSION
  5
189
330
1F
100
AcDbEntity
  8
0
  6
Continuous
 62
     7
370
    18
100
AcDbDimension
  2
_D_4
 10
15.536658635
 20
4.7184509928
 30
0.0
 11
15.536658635
 21
3.0619509928
 31
0.0
 70
   160
  1
<> O.C.
 71
     2
 42
-1.0
  3
SLDDIMSTYLE2
100
AcDbAlignedDimension
 13
18.4215011547
 23
1.4054509928
 33
0.0
 14
18.4215011547
 24
4.7184509928
 34
0.0
 50
90.0
100
AcDbRotatedDimension
  0
DIMENSION
  5
19C
330
1F
100
AcDbEntity
  8
0
  6
Continuous
 62
     7
370
    18
100
AcDbDimension
  2
_D_5
 10
13.1744539106
 20
0.5619509928
 30
0.0
 11
13.1744539106
 21
3.0619509928
 31
0.0
 70
   160
  1
<>
 71
     2
 42
-1.0
  3
SLDDIMSTYLE0
100
AcDbAlignedDimension
 13
16.8265011547
 23
5.5619509928
 33
0.0
 14
16.8265011547
 24
0.5619509928
 34
0.0
 50
90.0
100
AcDbRotatedDimension
  0
DIMENSION
  5
1B0
330
1F
100
AcDbEntity
  8
0
  6
Continuous
 62
     7
370
    18
100
AcDbDimension
  2
_D_6
 10
20.0465011547
 20
7.9773762732
 30
0.0
 11
18.4215011547
 21
7.9773762732
 31
0.0
 70
   160
  1
<>
 71
     2
 42
-1.0
  3
SLDDIMSTYLE2
100
AcDbAlignedDimension
 13
16.7965011547
 23
5.5319509928
 33
0.0
 14
20.0465011547
 24
5.5319509928
 34
0.0
 50
0.0
100
AcDbRotatedDimension
  0
LINE
  5
1C4
330
1F
100
AcDbEntity
  8
0
  6
Continuous
 62
     7
370
    25
100
AcDbLine
 10
13.380448546
 20
14.2946323302
 30
0.0
 11
13.1117479691
 21
14.139514789
 31
0.0
  0
LINE
  5
1C5
330
1F
100
AcDbEntity
  8
0
  6
Continuous
 62
     7
370
    25
100
AcDbLine
 10
15.3974161631
 20
8.7516693081
 30
0.0
 11
15.66611674
 21
8.9067868494
 31
0.0
  0
LINE
  5
1C6
330
1F
100
AcDbEntity
  8
0
  6
Continuous
 62
     7
370
    25
100
AcDbLine
 10
16.9102095883
 20
14.3609413231
 30
0.0
 11
16.9102095883
 21
15.6102487653
 31
0.0
  0
LINE
  5
1C7
330
1F
100
AcDbEntity
  8
0
  6
Continuous
 62
     7
370
    25
100
AcDbLine
 10
16.4002095883
 20
15.6102487653
 30
0.0
 11
16.4002095883
 21
14.3609413231
 31
0.0
  0
LINE
  5
1C8
330
1F
100
AcDbEntity
  8
0
  6
Continuous
 62
     7
370
    25
100
AcDbLine
 10
16.3675750286
 20
15.7041356982
 30
0.0
 11
16.3675750286
 21
14.3635347933
 31
0.0
  0
LINE
  5
1C9
330
1F
100
AcDbEntity
  8
0
  6
Continuous
 62
     7
370
    25
100
AcDbLine
 10
17.1802095883
 20
14.1078136715
 30
0.0
 11
17.1802095883
 21
14.1976331608
 31
0.0
  0
LINE
  5
1CA
330
1F
100
AcDbEntity
  8
0
  6
Continuous
 62
     7
370
    25
100
AcDbLine
 10
16.1302095883
 20
14.1976331608
 30
0.0
 11
16.1302095883
 21
14.1078136715
 31
0.0
  0
LINE
  5
1CB
330
1F
100
AcDbEntity
  8
0
  6
Continuous
 62
     7
370
    25
100
AcDbLine
 10
15.4748187
 20
15.1057162666
 30
0.0
 11
14.2845923443
 21
14.4848687943
 31
0.0
  0
LINE
  5
1CC
330
1F
100
AcDbEntity
  8
0
  6
Continuous
 62
     7
370
    25
100
AcDbLine
 10
16.2794385383
 20
9.5929780503
 30
0.0
 11
17.4052202127
 21
10.3087201323
 31
0.0
  0
LINE
  5
1CD
330
1F
100
AcDbEntity
  8
0
  6
Continuous
 62
     7
370
    25
100
AcDbLine
 10
14.3533814653
 20
9.9127433396
 30
0.0
 11
14.3569169993
 21
9.9147843599
 31
0.0
  0
LINE
  5
1CE
330
1F
100
AcDbEntity
  8
0
  6
Continuous
 62
     7
370
    25
100
AcDbLine
 10
14.1514336997
 20
10.2707304424
 30
0.0
 11
14.1478981658
 21
10.2686894221
 31
0.0
  0
LINE
  5
1CF
330
1F
100
AcDbEntity
  8
0
  6
Continuous
 62
     7
370
    25
100
AcDbLine
 10
14.3983801595
 20
9.9888495509
 30
0.0
 11
14.3984360129
 21
9.9893371606
 31
0.0
  0
LINE
  5
1D0
330
1F
100
AcDbEntity
  8
0
  6
Continuous
 62
     7
370
    25
100
AcDbLine
 10
14.2367577016
 20
10.2694025559
 30
0.0
 11
14.2363075109
 21
10.2695980326
 31
0.0
  0
LINE
  5
1D1
330
1F
100
AcDbEntity
  8
0
  6
Continuous
 62
     7
370
    25
100
AcDbLine
 10
14.3533814653
 20
12.6179430494
 30
0.0
 11
14.3569169993
 21
12.6199840697
 31
0.0
  0
LINE
  5
1D2
330
1F
100
AcDbEntity
  8
0
  6
Continuous
 62
     7
370
    25
100
AcDbLine
 10
14.1514336997
 20
12.9759301521
 30
0.0
 11
14.1478981658
 21
12.9738891318
 31
0.0
  0
LINE
  5
1D3
330
1F
100
AcDbEntity
  8
0
  6
Continuous
 62
     7
370
    25
100
AcDbLine
 10
14.3983801595
 20
12.6940492607
 30
0.0
 11
14.3984360129
 21
12.6945368703
 31
0.0
  0
LINE
  5
1D4
330
1F
100
AcDbEntity
  8
0
  6
Continuous
 62
     7
370
    25
100
AcDbLine
 10
14.2367577016
 20
12.9746022657
 30
0.0
 11
14.2363075109
 21
12.9747977423
 31
0.0
  0
LINE
  5
1D5
330
1F
100
AcDbEntity
  8
0
  6
Continuous
 62
     7
370
    25
100
AcDbLine
 10
15.6723311624
 20
12.9542338043
 30
0.0
 11
15.4036305856
 21
12.799116263
 31
0.0
  0
ARC
  5
1D6
330
1F
100
AcDbEntity
  8
0
  6
Continuous
 62
     7
370
    25
100
AcDbCircle
 10
15.3575741025
 20
12.7970204375
 30
0.0
 40
0.0461041442271554
100
AcDbArc
 50
2.6054784856
 51
57.39452166
  0
LINE
  5
1D7
330
1F
100
AcDbEntity
  8
0
  6
Continuous
 62
     7
370
    25
100
AcDbLine
 10
15.3824173821
 20
12.8358586091
 30
0.0
 11
15.651117959
 21
12.9909761503
 31
0.0
  0
ARC
  5
1D8
330
1F
100
AcDbEntity
  8
0
  6
Continuous
 62
     7
370
    25
100
AcDbCircle
 10
15.6262746794
 20
12.9521379787
 30
0.0
 40
0.0461041442271545
100
AcDbArc
 50
2.6054784857
 51
57.39452166
  0
ARC
  5
1D9
330
1F
100
AcDbEntity
  8
0
  6
Continuous
 62
     7
370
    25
100
AcDbCircle
 10
13.1515900297
 20
10.0941636596
 30
0.0
 40
0.046104144227158
100
AcDbArc
 50
182.6054784857
 51
237.39452166
  0
LINE
  5
1DA
330
1F
100
AcDbEntity
  8
0
  6
Continuous
 62
     7
370
    25
100
AcDbLine
 10
13.1055335467
 20
10.092067834
 30
0.0
 11
13.1055335467
 21
14.1257794448
 31
0.0
  0
ARC
  5
1DB
330
1F
100
AcDbEntity
  8
0
  6
Continuous
 62
     7
370
    25
100
AcDbCircle
 10
13.1184657777
 20
14.1278772607
 30
0.0
 40
0.0131012759228565
100
AcDbArc
 50
50.7967147643
 51
189.2140369905
  0
LINE
  5
1DC
330
1F
100
AcDbEntity
  8
0
  6
Continuous
 62
     7
370
    25
100
AcDbLine
 10
13.1267467501
 20
14.1380295474
 30
0.0
 11
15.3824173821
 21
12.8358586091
 31
0.0
  0
LINE
  5
1DD
330
1F
100
AcDbEntity
  8
0
  6
Continuous
 62
     7
370
    25
100
AcDbLine
 10
15.4036305856
 20
12.799116263
 30
0.0
 11
15.4036305856
 21
8.7654046523
 31
0.0
  0
ARC
  5
1DE
330
1F
100
AcDbEntity
  8
0
  6
Continuous
 62
     7
370
    25
100
AcDbCircle
 10
15.3906983545
 20
8.7633068364
 30
0.0
 40
0.0131012759228518
100
AcDbArc
 50
230.7967147643
 51
9.2140369905
  0
LINE
  5
1DF
330
1F
100
AcDbEntity
  8
0
  6
Continuous
 62
     7
370
    25
100
AcDbLine
 10
15.3824173821
 20
8.7531545497
 30
0.0
 11
13.1267467501
 21
10.055325488
 31
0.0
  0
LWPOLYLINE
  5
1E0
330
1F
100
AcDbEntity
  8
0
  6
Continuous
 62
     7
370
    25
100
AcDbPolyline
 90
       13
 70
   128
 43
0.0
 10
14.3995389563
 20
10.0093103622
 10
14.3965716802
 20
10.0447188679
 10
14.3877913327
 20
10.0821036892
 10
14.3735573821
 20
10.1199342872
 10
14.3544525681
 20
10.1566618727
 10
14.3312590441
 20
10.1907828141
 10
14.3049263555
 20
10.2209001959
 10
14.2765325658
 20
10.2457810092
 10
14.2472401201
 20
10.2644066303
 10
14.2182482545
 20
10.2760145243
 10
14.1907438995
 20
10.2801294626
 10
14.1658530865
 20
10.2765829791
 10
14.1620053735
 20
10.2752424337
  0
ARC
  5
1E1
330
1F
100
AcDbEntity
  8
0
  6
Continuous
 62
     7
370
    25
100
AcDbCircle
 10
14.2939388493
 20
9.9996127841
 30
0.0
 40
0.1060444511053891
100
AcDbArc
 50
311.4824519402
 51
5.2469285647
  0
LWPOLYLINE
  5
1E2
330
1F
100
AcDbEntity
  8
0
  6
Continuous
 62
     7
370
    25
100
AcDbPolyline
 90
       13
 70
   128
 43
0.0
 10
14.3995389563
 20
12.714510072
 10
14.3965716802
 20
12.7499185777
 10
14.3877913327
 20
12.787303399
 10
14.3735573821
 20
12.825133997
 10
14.3544525681
 20
12.8618615825
 10
14.3312590441
 20
12.8959825238
 10
14.3049263555
 20
12.9260999057
 10
14.2765325658
 20
12.9509807189
 10
14.2472401201
 20
12.9696063401
 10
14.2182482545
 20
12.9812142341
 10
14.1907438995
 20
12.9853291724
 10
14.1658530865
 20
12.9817826889
 10
14.1620053735
 20
12.9804421435
  0
ARC
  5
1E3
330
1F
100
AcDbEntity
  8
0
  6
Continuous
 62
     7
370
    25
100
AcDbCircle
 10
14.2939388493
 20
12.7048124939
 30
0.0
 40
0.106044451105396
100
AcDbArc
 50
311.4824519402
 51
5.2469285647
  0
LINE
  5
1E4
330
1F
100
AcDbEntity
  8
0
  6
Continuous
 62
     7
370
    25
100
AcDbLine
 10
13.8780477051
 20
12.2211480073
 30
0.0
 11
14.6311164271
 21
11.7864106878
 31
0.0
  0
SPLINE
  5
1E5
330
1F
100
AcDbEntity
  8
0
  6
Continuous
 62
     7
370
    25
100
AcDbSpline
210
0.0
220
0.0
230
1.0
 70
     8
 71
     3
 72
    20
 73
    16
 74
     0
 42
0.00000001
 43
0.00000001
 40
0.0
 40
0.0
 40
0.0
 40
0.0
 40
0.1220208336415365
 40
0.2292653365593426
 40
0.336509839477149
 40
0.4437543423949573
 40
0.5509988453127638
 40
0.6040432035165528
 40
0.6570875617203407
 40
0.7101319199241289
 40
0.7631762781279178
 40
0.816220636331706
 40
0.8692649945354939
 40
0.9223093527392819
 40
1.0
 40
1.0
 40
1.0
 40
1.0
 10
13.87804770514651
 20
12.1190804058374
 30
0.0
 10
13.87238401906195
 20
12.12307975825032
 30
0.0
 10
13.86174250107201
 20
12.13059415435467
 30
0.0
 10
13.84829034094895
 20
12.14832567976372
 30
0.0
 10
13.83877554591963
 20
12.16730099943827
 30
0.0
 10
13.83368776423352
 20
12.1867028691235
 30
0.0
 10
13.83362474006287
 20
12.20127821083921
 30
0.0
 10
13.83603594933325
 20
12.21094733395523
 30
0.0
 10
13.83899145858399
 20
12.21704343647176
 30
0.0
 10
13.84302466895525
 20
12.22184312709124
 30
0.0
 10
13.84802379652979
 20
12.22521444185411
 30
0.0
 10
13.85385081028873
 20
12.22707454518931
 30
0.0
 10
13.86034612893956
 20
12.22733111541884
 30
0.0
 10
13.86840727253499
 20
12.22594512347085
 30
0.0
 10
13.87445423457478
 20
12.22293613202672
 30
0.0
 10
13.87804770514651
 20
12.22114800732312
 30
0.0
  0
LINE
  5
1E6
330
1F
100
AcDbEntity
  8
0
  6
Continuous
 62
     7
370
    25
100
AcDbLine
 10
14.6311164271
 20
11.6843430863
 30
0.0
 11
13.8780477051
 21
12.1190804058
 31
0.0
  0
SPLINE
  5
1E7
330
1F
100
AcDbEntity
  8
0
  6
Continuous
 62
     7
370
    25
100
AcDbSpline
210
0.0
220
0.0
230
1.0
 70
     8
 71
     3
 72
    25
 73
    21
 74
     0
 42
0.00000001
 43
0.00000001
 40
0.0
 40
0.0
 40
0.0
 40
0.0
 40
0.0600333226356735
 40
0.1129709835186544
 40
0.1659086444016346
 40
0.2188463052846152
 40
0.2717839661675944
 40
0.3247216270505744
 40
0.3776592879335545
 40
0.4305969488165352
 40
0.4835346096995143
 40
0.5364722705824931
 40
0.589409931465473
 40
0.6423475923484531
 40
0.695285253231432
 40
0.7482229141144112
 40
0.801160574997391
 40
0.8540982358803697
 40
0.9070358967633492
 40
1.0
 40
1.0
 40
1.0
 40
1.0
 10
14.63111642711018
 20
11.78641068777753
 30
0.0
 10
14.63389523350356
 20
11.78463275413149
 30
0.0
 10
14.63912440419552
 20
11.78128703039332
 30
0.0
 10
14.64654385029155
 20
11.77452759897643
 30
0.0
 10
14.65322146134733
 20
11.7670839910483
 30
0.0
 10
14.65928911953571
 20
11.75873730476001
 30
0.0
 10
14.66457980788008
 20
11.7497539572595
 30
0.0
 10
14.66894751163386
 20
11.74037202066327
 30
0.0
 10
14.67227178782476
 20
11.73085286055335
 30
0.0
 10
14.67446094186035
 20
11.72145833298737
 30
0.0
 10
14.67545459583095
 20
11.71244773399222
 30
0.0
 10
14.67522534222353
 20
11.70406955464232
 30
0.0
 10
14.67377950698019
 20
11.69655482823948
 30
0.0
 10
14.67115695812255
 20
11.69011104768117
 30
0.0
 10
14.66743006660581
 20
11.68491508330128
 30
0.0
 10
14.66270148525405
 20
11.68111345185892
 30
0.0
 10
14.6571021568895
 20
11.67879904537926
 30
0.0
 10
14.65078456999283
 20
11.67808034186429
 30
0.0
 10
14.64220271400172
 20
11.67899459076117
 30
0.0
 10
14.63543109429349
 20
11.68226150763775
 30
0.0
 10
14.63111642711018
 20
11.68434308629181
 30
0.0
  0
LINE
  5
1E8
330
1F
100
AcDbEntity
  8
0
  6
Continuous
 62
     7
370
    25
100
AcDbLine
 10
14.6311164271
 20
11.5312416841
 30
0.0
 11
13.8780477051
 21
11.9659790036
 31
0.0
  0
SPLINE
  5
1E9
330
1F
100
AcDbEntity
  8
0
  6
Continuous
 62
     7
370
    25
100
AcDbSpline
210
0.0
220
0.0
230
1.0
 70
     8
 71
     3
 72
    25
 73
    21
 74
     0
 42
0.00000001
 43
0.00000001
 40
0.0
 40
0.0
 40
0.0
 40
0.0
 40
0.0600333226356734
 40
0.1129709835186543
 40
0.1659086444016346
 40
0.2188463052846152
 40
0.2717839661675945
 40
0.3247216270505744
 40
0.3776592879335544
 40
0.4305969488165352
 40
0.483534609699515
 40
0.5364722705824946
 40
0.5894099314654733
 40
0.6423475923484532
 40
0.6952852532314328
 40
0.7482229141144124
 40
0.8011605749973919
 40
0.8540982358803711
 40
0.9070358967633508
 40
1.0
 40
1.0
 40
1.0
 40
1.0
 10
14.63111642711018
 20
11.63330928554895
 30
0.0
 10
14.63389523350356
 20
11.63153135190291
 30
0.0
 10
14.63912440419552
 20
11.62818562816474
 30
0.0
 10
14.64654385029155
 20
11.62142619674785
 30
0.0
 10
14.65322146134733
 20
11.61398258881972
 30
0.0
 10
14.65928911953571
 20
11.60563590253143
 30
0.0
 10
14.66457980788008
 20
11.59665255503092
 30
0.0
 10
14.66894751163386
 20
11.5872706184347
 30
0.0
 10
14.67227178782476
 20
11.57775145832477
 30
0.0
 10
14.67446094186035
 20
11.56835693075879
 30
0.0
 10
14.67545459583095
 20
11.55934633176364
 30
0.0
 10
14.67522534222353
 20
11.55096815241374
 30
0.0
 10
14.67377950698019
 20
11.54345342601091
 30
0.0
 10
14.67115695812255
 20
11.53700964545259
 30
0.0
 10
14.66743006660581
 20
11.5318136810727
 30
0.0
 10
14.66270148525405
 20
11.52801204963034
 30
0.0
 10
14.6571021568895
 20
11.52569764315069
 30
0.0
 10
14.65078456999283
 20
11.52497893963571
 30
0.0
 10
14.64220271400172
 20
11.52589318853259
 30
0.0
 10
14.63543109429349
 20
11.52916010540918
 30
0.0
 10
14.63111642711018
 20
11.53124168406323
 30
0.0
  0
LINE
  5
1EA
330
1F
100
AcDbEntity
  8
0
  6
Continuous
 62
     7
370
    25
100
AcDbLine
 10
13.8780477051
 20
12.0680466051
 30
0.0
 11
14.6311164271
 21
11.6333092855
 31
0.0
  0
SPLINE
  5
1EB
330
1F
100
AcDbEntity
  8
0
  6
Continuous
 62
     7
370
    25
100
AcDbSpline
210
0.0
220
0.0
230
1.0
 70
     8
 71
     3
 72
    20
 73
    16
 74
     0
 42
0.00000001
 43
0.00000001
 40
0.0
 40
0.0
 40
0.0
 40
0.0
 40
0.1220208336415366
 40
0.2292653365593429
 40
0.3365098394771506
 40
0.4437543423949575
 40
0.5509988453127639
 40
0.6040432035165523
 40
0.6570875617203409
 40
0.7101319199241288
 40
0.7631762781279166
 40
0.8162206363317052
 40
0.8692649945354937
 40
0.9223093527392817
 40
1.0
 40
1.0
 40
1.0
 40
1.0
 10
13.87804770514651
 20
11.96597900360882
 30
0.0
 10
13.87238401906195
 20
11.96997835602174
 30
0.0
 10
13.86174250107201
 20
11.97749275212609
 30
0.0
 10
13.84829034094895
 20
11.99522427753514
 30
0.0
 10
13.83877554591963
 20
12.01419959720969
 30
0.0
 10
13.83368776423352
 20
12.03360146689492
 30
0.0
 10
13.83362474006287
 20
12.04817680861064
 30
0.0
 10
13.83603594933325
 20
12.05784593172665
 30
0.0
 10
13.83899145858399
 20
12.06394203424318
 30
0.0
 10
13.84302466895525
 20
12.06874172486267
 30
0.0
 10
13.84802379652979
 20
12.07211303962553
 30
0.0
 10
13.85385081028873
 20
12.07397314296073
 30
0.0
 10
13.86034612893956
 20
12.07422971319026
 30
0.0
 10
13.86840727253499
 20
12.07284372124227
 30
0.0
 10
13.87445423457478
 20
12.06983472979814
 30
0.0
 10
13.87804770514651
 20
12.06804660509454
 30
0.0
  0
LINE
  5
1EC
330
1F
100
AcDbEntity
  8
0
  6
Continuous
 62
     7
370
    25
100
AcDbLine
 10
13.8780477051
 20
11.9149452029
 30
0.0
 11
14.6311164271
 21
11.4802078833
 31
0.0
  0
SPLINE
  5
1ED
330
1F
100
AcDbEntity
  8
0
  6
Continuous
 62
     7
370
    25
100
AcDbSpline
210
0.0
220
0.0
230
1.0
 70
     8
 71
     3
 72
    20
 73
    16
 74
     0
 42
0.00000001
 43
0.00000001
 40
0.0
 40
0.0
 40
0.0
 40
0.0
 40
0.1220208336415363
 40
0.2292653365593432
 40
0.3365098394771502
 40
0.443754342394957
 40
0.5509988453127633
 40
0.604043203516553
 40
0.6570875617203416
 40
0.7101319199241286
 40
0.7631762781279162
 40
0.8162206363317036
 40
0.8692649945354911
 40
0.9223093527392785
 40
1.0
 40
1.0
 40
1.0
 40
1.0
 10
13.87804770514651
 20
11.81287760138025
 30
0.0
 10
13.87238401906195
 20
11.81687695379316
 30
0.0
 10
13.86174250107201
 20
11.82439134989751
 30
0.0
 10
13.84829034094895
 20
11.84212287530656
 30
0.0
 10
13.83877554591963
 20
11.86109819498111
 30
0.0
 10
13.83368776423352
 20
11.88050006466634
 30
0.0
 10
13.83362474006287
 20
11.89507540638206
 30
0.0
 10
13.83603594933325
 20
11.90474452949807
 30
0.0
 10
13.83899145858399
 20
11.9108406320146
 30
0.0
 10
13.84302466895525
 20
11.91564032263409
 30
0.0
 10
13.84802379652979
 20
11.91901163739695
 30
0.0
 10
13.85385081028873
 20
11.92087174073215
 30
0.0
 10
13.86034612893956
 20
11.92112831096169
 30
0.0
 10
13.86840727253499
 20
11.91974231901369
 30
0.0
 10
13.87445423457478
 20
11.91673332756956
 30
0.0
 10
13.87804770514651
 20
11.91494520286597
 30
0.0
  0
LINE
  5
1EE
330
1F
100
AcDbEntity
  8
0
  6
Continuous
 62
     7
370
    25
100
AcDbLine
 10
14.6311164271
 20
11.3781402818
 30
0.0
 11
13.8780477051
 21
11.8128776014
 31
0.0
  0
SPLINE
  5
1EF
330
1F
100
AcDbEntity
  8
0
  6
Continuous
 62
     7
370
    25
100
AcDbSpline
210
0.0
220
0.0
230
1.0
 70
     8
 71
     3
 72
    25
 73
    21
 74
     0
 42
0.00000001
 43
0.00000001
 40
0.0
 40
0.0
 40
0.0
 40
0.0
 40
0.0600333226356737
 40
0.1129709835186543
 40
0.1659086444016354
 40
0.2188463052846158
 40
0.2717839661675961
 40
0.3247216270505763
 40
0.3776592879335567
 40
0.430596948816536
 40
0.4835346096995158
 40
0.5364722705824954
 40
0.5894099314654754
 40
0.642347592348455
 40
0.6952852532314349
 40
0.7482229141144148
 40
0.8011605749973943
 40
0.8540982358803739
 40
0.9070358967633536
 40
1.0
 40
1.0
 40
1.0
 40
1.0
 10
14.63111642711018
 20
11.48020788332037
 30
0.0
 10
14.63389523350356
 20
11.47842994967434
 30
0.0
 10
14.63912440419552
 20
11.47508422593617
 30
0.0
 10
14.64654385029155
 20
11.46832479451928
 30
0.0
 10
14.65322146134733
 20
11.46088118659114
 30
0.0
 10
14.65928911953571
 20
11.45253450030286
 30
0.0
 10
14.66457980788008
 20
11.44355115280234
 30
0.0
 10
14.66894751163386
 20
11.43416921620612
 30
0.0
 10
14.67227178782476
 20
11.4246500560962
 30
0.0
 10
14.67446094186035
 20
11.41525552853022
 30
0.0
 10
14.67545459583095
 20
11.40624492953506
 30
0.0
 10
14.67522534222353
 20
11.39786675018517
 30
0.0
 10
14.67377950698019
 20
11.39035202378233
 30
0.0
 10
14.67115695812255
 20
11.38390824322402
 30
0.0
 10
14.66743006660581
 20
11.37871227884412
 30
0.0
 10
14.66270148525404
 20
11.37491064740176
 30
0.0
 10
14.6571021568895
 20
11.37259624092211
 30
0.0
 10
14.65078456999283
 20
11.37187753740713
 30
0.0
 10
14.64220271400172
 20
11.37279178630401
 30
0.0
 10
14.63543109429349
 20
11.3760587031806
 30
0.0
 10
14.63111642711018
 20
11.37814028183465
 30
0.0
  0
LINE
  5
1F0
330
1F
100
AcDbEntity
  8
0
  6
Continuous
 62
     7
370
    25
100
AcDbLine
 10
14.6311164271
 20
11.2250388796
 30
0.0
 11
13.8780477051
 21
11.6597761992
 31
0.0
  0
SPLINE
  5
1F1
330
1F
100
AcDbEntity
  8
0
  6
Continuous
 62
     7
370
    25
100
AcDbSpline
210
0.0
220
0.0
230
1.0
 70
     8
 71
     3
 72
    25
 73
    21
 74
     0
 42
0.00000001
 43
0.00000001
 40
0.0
 40
0.0
 40
0.0
 40
0.0
 40
0.0600333226356737
 40
0.1129709835186544
 40
0.1659086444016353
 40
0.218846305284616
 40
0.271783966167597
 40
0.3247216270505772
 40
0.3776592879335575
 40
0.4305969488165377
 40
0.4835346096995174
 40
0.5364722705824971
 40
0.5894099314654778
 40
0.6423475923484576
 40
0.6952852532314377
 40
0.7482229141144177
 40
0.801160574997398
 40
0.8540982358803775
 40
0.9070358967633572
 40
1.0
 40
1.0
 40
1.0
 40
1.0
 10
14.63111642711018
 20
11.32710648109179
 30
0.0
 10
14.63389523350356
 20
11.32532854744576
 30
0.0
 10
14.63912440419552
 20
11.32198282370759
 30
0.0
 10
14.64654385029155
 20
11.3152233922907
 30
0.0
 10
14.65322146134733
 20
11.30777978436256
 30
0.0
 10
14.65928911953571
 20
11.29943309807428
 30
0.0
 10
14.66457980788008
 20
11.29044975057376
 30
0.0
 10
14.66894751163386
 20
11.28106781397754
 30
0.0
 10
14.67227178782476
 20
11.27154865386762
 30
0.0
 10
14.67446094186035
 20
11.26215412630164
 30
0.0
 10
14.67545459583095
 20
11.25314352730648
 30
0.0
 10
14.67522534222353
 20
11.24476534795659
 30
0.0
 10
14.67377950698019
 20
11.23725062155375
 30
0.0
 10
14.67115695812255
 20
11.23080684099544
 30
0.0
 10
14.66743006660581
 20
11.22561087661555
 30
0.0
 10
14.66270148525405
 20
11.22180924517319
 30
0.0
 10
14.6571021568895
 20
11.21949483869353
 30
0.0
 10
14.65078456999283
 20
11.21877613517855
 30
0.0
 10
14.64220271400172
 20
11.21969038407544
 30
0.0
 10
14.63543109429349
 20
11.22295730095202
 30
0.0
 10
14.63111642711018
 20
11.22503887960607
 30
0.0
  0
LINE
  5
1F2
330
1F
100
AcDbEntity
  8
0
  6
Continuous
 62
     7
370
    25
100
AcDbLine
 10
13.8780477051
 20
11.7618438006
 30
0.0
 11
14.6311164271
 21
11.3271064811
 31
0.0
  0
SPLINE
  5
1F3
330
1F
100
AcDbEntity
  8
0
  6
Continuous
 62
     7
370
    25
100
AcDbSpline
210
0.0
220
0.0
230
1.0
 70
     8
 71
     3
 72
    20
 73
    16
 74
     0
 42
0.00000001
 43
0.00000001
 40
0.0
 40
0.0
 40
0.0
 40
0.0
 40
0.1220208336415363
 40
0.2292653365593432
 40
0.33650983947715
 40
0.4437543423949568
 40
0.5509988453127631
 40
0.6040432035165523
 40
0.6570875617203408
 40
0.7101319199241287
 40
0.7631762781279163
 40
0.8162206363317037
 40
0.8692649945354914
 40
0.9223093527392792
 40
1.0
 40
1.0
 40
1.0
 40
1.0
 10
13.87804770514651
 20
11.65977619915167
 30
0.0
 10
13.87238401906195
 20
11.66377555156458
 30
0.0
 10
13.86174250107201
 20
11.67128994766894
 30
0.0
 10
13.84829034094895
 20
11.68902147307798
 30
0.0
 10
13.83877554591963
 20
11.70799679275253
 30
0.0
 10
13.83368776423352
 20
11.72739866243776
 30
0.0
 10
13.83362474006287
 20
11.74197400415348
 30
0.0
 10
13.83603594933325
 20
11.7516431272695
 30
0.0
 10
13.83899145858399
 20
11.75773922978602
 30
0.0
 10
13.84302466895525
 20
11.76253892040551
 30
0.0
 10
13.84802379652979
 20
11.76591023516837
 30
0.0
 10
13.85385081028873
 20
11.76777033850357
 30
0.0
 10
13.86034612893956
 20
11.76802690873311
 30
0.0
 10
13.86840727253499
 20
11.76664091678511
 30
0.0
 10
13.87445423457478
 20
11.76363192534099
 30
0.0
 10
13.87804770514651
 20
11.76184380063739
 30
0.0
  0
LINE
  5
1F4
330
1F
100
AcDbEntity
  8
0
  6
Continuous
 62
     7
370
    25
100
AcDbLine
 10
13.8780477051
 20
11.6087423984
 30
0.0
 11
14.6311164271
 21
11.1740050789
 31
0.0
  0
SPLINE
  5
1F5
330
1F
100
AcDbEntity
  8
0
  6
Continuous
 62
     7
370
    25
100
AcDbSpline
210
0.0
220
0.0
230
1.0
 70
     8
 71
     3
 72
    20
 73
    16
 74
     0
 42
0.00000001
 43
0.00000001
 40
0.0
 40
0.0
 40
0.0
 40
0.0
 40
0.1220208336415363
 40
0.2292653365593434
 40
0.33650983947715
 40
0.4437543423949569
 40
0.5509988453127633
 40
0.6040432035165515
 40
0.65708756172034
 40
0.7101319199241283
 40
0.7631762781279156
 40
0.8162206363317027
 40
0.8692649945354899
 40
0.9223093527392774
 40
1.0
 40
1.0
 40
1.0
 40
1.0
 10
13.87804770514651
 20
11.50667479692309
 30
0.0
 10
13.87238401906195
 20
11.510674149336
 30
0.0
 10
13.86174250107201
 20
11.51818854544036
 30
0.0
 10
13.84829034094895
 20
11.53592007084941
 30
0.0
 10
13.83877554591963
 20
11.55489539052395
 30
0.0
 10
13.83368776423352
 20
11.57429726020918
 30
0.0
 10
13.83362474006287
 20
11.5888726019249
 30
0.0
 10
13.83603594933325
 20
11.59854172504092
 30
0.0
 10
13.83899145858399
 20
11.60463782755744
 30
0.0
 10
13.84302466895525
 20
11.60943751817693
 30
0.0
 10
13.84802379652979
 20
11.61280883293979
 30
0.0
 10
13.85385081028873
 20
11.614668936275
 30
0.0
 10
13.86034612893956
 20
11.61492550650453
 30
0.0
 10
13.86840727253499
 20
11.61353951455653
 30
0.0
 10
13.87445423457478
 20
11.61053052311241
 30
0.0
 10
13.87804770514651
 20
11.60874239840881
 30
0.0
  0
LINE
  5
1F6
330
1F
100
AcDbEntity
  8
0
  6
Continuous
 62
     7
370
    25
100
AcDbLine
 10
14.6311164271
 20
11.0719374774
 30
0.0
 11
13.8780477051
 21
11.5066747969
 31
0.0
  0
SPLINE
  5
1F7
330
1F
100
AcDbEntity
  8
0
  6
Continuous
 62
     7
370
    25
100
AcDbSpline
210
0.0
220
0.0
230
1.0
 70
     8
 71
     3
 72
    25
 73
    21
 74
     0
 42
0.00000001
 43
0.00000001
 40
0.0
 40
0.0
 40
0.0
 40
0.0
 40
0.0600333226356738
 40
0.1129709835186543
 40
0.1659086444016355
 40
0.2188463052846157
 40
0.271783966167596
 40
0.3247216270505762
 40
0.3776592879335572
 40
0.4305969488165372
 40
0.4835346096995162
 40
0.5364722705824958
 40
0.589409931465475
 40
0.6423475923484547
 40
0.6952852532314346
 40
0.7482229141144146
 40
0.8011605749973943
 40
0.8540982358803739
 40
0.9070358967633531
 40
1.0
 40
1.0
 40
1.0
 40
1.0
 10
14.63111642711018
 20
11.17400507886322
 30
0.0
 10
14.63389523350356
 20
11.17222714521718
 30
0.0
 10
14.63912440419552
 20
11.16888142147901
 30
0.0
 10
14.64654385029155
 20
11.16212199006212
 30
0.0
 10
14.65322146134733
 20
11.15467838213399
 30
0.0
 10
14.65928911953571
 20
11.1463316958457
 30
0.0
 10
14.66457980788008
 20
11.13734834834518
 30
0.0
 10
14.66894751163386
 20
11.12796641174896
 30
0.0
 10
14.67227178782476
 20
11.11844725163904
 30
0.0
 10
14.67446094186035
 20
11.10905272407306
 30
0.0
 10
14.67545459583095
 20
11.10004212507791
 30
0.0
 10
14.67522534222353
 20
11.09166394572801
 30
0.0
 10
14.67377950698019
 20
11.08414921932517
 30
0.0
 10
14.67115695812255
 20
11.07770543876686
 30
0.0
 10
14.66743006660581
 20
11.07250947438697
 30
0.0
 10
14.66270148525405
 20
11.06870784294461
 30
0.0
 10
14.6571021568895
 20
11.06639343646495
 30
0.0
 10
14.65078456999283
 20
11.06567473294997
 30
0.0
 10
14.64220271400172
 20
11.06658898184686
 30
0.0
 10
14.63543109429349
 20
11.06985589872344
 30
0.0
 10
14.63111642711018
 20
11.0719374773775
 30
0.0
  0
LINE
  5
1F8
330
1F
100
AcDbEntity
  8
0
  6
Continuous
 62
     7
370
    25
100
AcDbLine
 10
14.6311164271
 20
10.7657346729
 30
0.0
 11
13.8780477051
 21
11.2004719925
 31
0.0
  0
SPLINE
  5
1F9
330
1F
100
AcDbEntity
  8
0
  6
Continuous
 62
     7
370
    25
100
AcDbSpline
210
0.0
220
0.0
230
1.0
 70
     8
 71
     3
 72
    25
 73
    21
 74
     0
 42
0.00000001
 43
0.00000001
 40
0.0
 40
0.0
 40
0.0
 40
0.0
 40
0.0600333226356733
 40
0.1129709835186545
 40
0.165908644401635
 40
0.2188463052846155
 40
0.2717839661675959
 40
0.3247216270505762
 40
0.3776592879335566
 40
0.4305969488165372
 40
0.4835346096995176
 40
0.5364722705824975
 40
0.5894099314654779
 40
0.6423475923484578
 40
0.6952852532314379
 40
0.7482229141144179
 40
0.8011605749973981
 40
0.8540982358803784
 40
0.9070358967633584
 40
1.0
 40
1.0
 40
1.0
 40
1.0
 10
14.63111642711018
 20
10.86780227440606
 30
0.0
 10
14.63389523350356
 20
10.86602434076003
 30
0.0
 10
14.63912440419552
 20
10.86267861702185
 30
0.0
 10
14.64654385029155
 20
10.85591918560497
 30
0.0
 10
14.65322146134733
 20
10.84847557767683
 30
0.0
 10
14.65928911953571
 20
10.84012889138854
 30
0.0
 10
14.66457980788008
 20
10.83114554388803
 30
0.0
 10
14.66894751163386
 20
10.82176360729181
 30
0.0
 10
14.67227178782476
 20
10.81224444718188
 30
0.0
 10
14.67446094186035
 20
10.8028499196159
 30
0.0
 10
14.67545459583095
 20
10.79383932062075
 30
0.0
 10
14.67522534222353
 20
10.78546114127085
 30
0.0
 10
14.67377950698019
 20
10.77794641486801
 30
0.0
 10
14.67115695812255
 20
10.7715026343097
 30
0.0
 10
14.66743006660581
 20
10.76630666992981
 30
0.0
 10
14.66270148525405
 20
10.76250503848745
 30
0.0
 10
14.6571021568895
 20
10.7601906320078
 30
0.0
 10
14.65078456999283
 20
10.75947192849282
 30
0.0
 10
14.64220271400172
 20
10.7603861773897
 30
0.0
 10
14.63543109429349
 20
10.76365309426629
 30
0.0
 10
14.63111642711018
 20
10.76573467292034
 30
0.0
  0
LINE
  5
1FA
330
1F
100
AcDbEntity
  8
0
  6
Continuous
 62
     7
370
    25
100
AcDbLine
 10
13.8780477051
 20
11.302539594
 30
0.0
 11
14.6311164271
 21
10.8678022744
 31
0.0
  0
SPLINE
  5
1FB
330
1F
100
AcDbEntity
  8
0
  6
Continuous
 62
     7
370
    25
100
AcDbSpline
210
0.0
220
0.0
230
1.0
 70
     8
 71
     3
 72
    20
 73
    16
 74
     0
 42
0.00000001
 43
0.00000001
 40
0.0
 40
0.0
 40
0.0
 40
0.0
 40
0.1220208336415366
 40
0.2292653365593431
 40
0.3365098394771497
 40
0.443754342394956
 40
0.5509988453127634
 40
0.6040432035165526
 40
0.6570875617203401
 40
0.7101319199241268
 40
0.7631762781279134
 40
0.8162206363317003
 40
0.8692649945354877
 40
0.9223093527392753
 40
1.0
 40
1.0
 40
1.0
 40
1.0
 10
13.87804770514651
 20
11.20047199246593
 30
0.0
 10
13.87238401906195
 20
11.20447134487885
 30
0.0
 10
13.86174250107201
 20
11.2119857409832
 30
0.0
 10
13.84829034094895
 20
11.22971726639225
 30
0.0
 10
13.83877554591963
 20
11.2486925860668
 30
0.0
 10
13.83368776423352
 20
11.26809445575203
 30
0.0
 10
13.83362474006287
 20
11.28266979746775
 30
0.0
 10
13.83603594933325
 20
11.29233892058376
 30
0.0
 10
13.83899145858399
 20
11.29843502310029
 30
0.0
 10
13.84302466895525
 20
11.30323471371977
 30
0.0
 10
13.84802379652979
 20
11.30660602848264
 30
0.0
 10
13.85385081028873
 20
11.30846613181784
 30
0.0
 10
13.86034612893956
 20
11.30872270204738
 30
0.0
 10
13.86840727253499
 20
11.30733671009938
 30
0.0
 10
13.87445423457478
 20
11.30432771865525
 30
0.0
 10
13.87804770514651
 20
11.30253959395165
 30
0.0
  0
LINE
  5
1FC
330
1F
100
AcDbEntity
  8
0
  6
Continuous
 62
     7
370
    25
100
AcDbLine
 10
14.6311164271
 20
10.9188360751
 30
0.0
 11
13.8780477051
 21
11.3535733947
 31
0.0
  0
SPLINE
  5
1FD
330
1F
100
AcDbEntity
  8
0
  6
Continuous
 62
     7
370
    25
100
AcDbSpline
210
0.0
220
0.0
230
1.0
 70
     8
 71
     3
 72
    25
 73
    21
 74
     0
 42
0.00000001
 43
0.00000001
 40
0.0
 40
0.0
 40
0.0
 40
0.0
 40
0.0600333226356738
 40
0.1129709835186548
 40
0.165908644401636
 40
0.2188463052846163
 40
0.2717839661675973
 40
0.3247216270505771
 40
0.3776592879335575
 40
0.4305969488165374
 40
0.4835346096995172
 40
0.5364722705824975
 40
0.5894099314654776
 40
0.6423475923484574
 40
0.6952852532314376
 40
0.7482229141144182
 40
0.8011605749973986
 40
0.8540982358803787
 40
0.9070358967633589
 40
1.0
 40
1.0
 40
1.0
 40
1.0
 10
14.63111642711018
 20
11.02090367663464
 30
0.0
 10
14.63389523350356
 20
11.0191257429886
 30
0.0
 10
14.63912440419552
 20
11.01578001925043
 30
0.0
 10
14.64654385029155
 20
11.00902058783354
 30
0.0
 10
14.65322146134733
 20
11.00157697990541
 30
0.0
 10
14.65928911953571
 20
10.99323029361712
 30
0.0
 10
14.66457980788008
 20
10.98424694611661
 30
0.0
 10
14.66894751163386
 20
10.97486500952039
 30
0.0
 10
14.67227178782476
 20
10.96534584941046
 30
0.0
 10
14.67446094186035
 20
10.95595132184448
 30
0.0
 10
14.67545459583095
 20
10.94694072284933
 30
0.0
 10
14.67522534222353
 20
10.93856254349943
 30
0.0
 10
14.67377950698019
 20
10.93104781709659
 30
0.0
 10
14.67115695812255
 20
10.92460403653828
 30
0.0
 10
14.66743006660581
 20
10.91940807215839
 30
0.0
 10
14.66270148525405
 20
10.91560644071603
 30
0.0
 10
14.6571021568895
 20
10.91329203423638
 30
0.0
 10
14.65078456999283
 20
10.9125733307214
 30
0.0
 10
14.64220271400172
 20
10.91348757961828
 30
0.0
 10
14.63543109429349
 20
10.91675449649487
 30
0.0
 10
14.63111642711018
 20
10.91883607514892
 30
0.0
  0
LINE
  5
1FE
330
1F
100
AcDbEntity
  8
0
  6
Continuous
 62
     7
370
    25
100
AcDbLine
 10
13.8780477051
 20
11.4556409962
 30
0.0
 11
14.6311164271
 21
11.0209036766
 31
0.0
  0
SPLINE
  5
1FF
330
1F
100
AcDbEntity
  8
0
  6
Continuous
 62
     7
370
    25
100
AcDbSpline
210
0.0
220
0.0
230
1.0
 70
     8
 71
     3
 72
    20
 73
    16
 74
     0
 42
0.00000001
 43
0.00000001
 40
0.0
 40
0.0
 40
0.0
 40
0.0
 40
0.1220208336415366
 40
0.2292653365593435
 40
0.3365098394771496
 40
0.4437543423949557
 40
0.5509988453127628
 40
0.6040432035165517
 40
0.6570875617203403
 40
0.7101319199241287
 40
0.7631762781279173
 40
0.8162206363317052
 40
0.8692649945354936
 40
0.9223093527392819
 40
1.0
 40
1.0
 40
1.0
 40
1.0
 10
13.87804770514651
 20
11.35357339469451
 30
0.0
 10
13.87238401906195
 20
11.35757274710743
 30
0.0
 10
13.86174250107201
 20
11.36508714321178
 30
0.0
 10
13.84829034094895
 20
11.38281866862083
 30
0.0
 10
13.83877554591963
 20
11.40179398829538
 30
0.0
 10
13.83368776423352
 20
11.4211958579806
 30
0.0
 10
13.83362474006287
 20
11.43577119969632
 30
0.0
 10
13.83603594933325
 20
11.44544032281234
 30
0.0
 10
13.83899145858399
 20
11.45153642532886
 30
0.0
 10
13.84302466895525
 20
11.45633611594835
 30
0.0
 10
13.84802379652979
 20
11.45970743071122
 30
0.0
 10
13.85385081028873
 20
11.46156753404642
 30
0.0
 10
13.86034612893956
 20
11.46182410427595
 30
0.0
 10
13.86840727253499
 20
11.46043811232795
 30
0.0
 10
13.87445423457478
 20
11.45742912088383
 30
0.0
 10
13.87804770514651
 20
11.45564099618023
 30
0.0
  0
LINE
  5
200
330
1F
100
AcDbEntity
  8
0
  6
Continuous
 62
     7
370
    25
100
AcDbLine
 10
13.8780477051
 20
11.1494381917
 30
0.0
 11
14.6311164271
 21
10.7147008722
 31
0.0
  0
SPLINE
  5
201
330
1F
100
AcDbEntity
  8
0
  6
Continuous
 62
     7
370
    25
100
AcDbSpline
210
0.0
220
0.0
230
1.0
 70
     8
 71
     3
 72
    20
 73
    16
 74
     0
 42
0.00000001
 43
0.00000001
 40
0.0
 40
0.0
 40
0.0
 40
0.0
 40
0.122020833641536
 40
0.2292653365593428
 40
0.3365098394771495
 40
0.4437543423949562
 40
0.5509988453127632
 40
0.6040432035165515
 40
0.6570875617203406
 40
0.7101319199241288
 40
0.7631762781279174
 40
0.8162206363317059
 40
0.8692649945354943
 40
0.9223093527392826
 40
0.9999999999999999
 40
0.9999999999999999
 40
0.9999999999999999
 40
0.9999999999999999
 10
13.87804770514651
 20
11.04737059023736
 30
0.0
 10
13.87238401906195
 20
11.05136994265027
 30
0.0
 10
13.86174250107201
 20
11.05888433875463
 30
0.0
 10
13.84829034094895
 20
11.07661586416367
 30
0.0
 10
13.83877554591963
 20
11.09559118383822
 30
0.0
 10
13.83368776423352
 20
11.11499305352345
 30
0.0
 10
13.83362474006287
 20
11.12956839523917
 30
0.0
 10
13.83603594933325
 20
11.13923751835518
 30
0.0
 10
13.83899145858399
 20
11.14533362087171
 30
0.0
 10
13.84302466895525
 20
11.1501333114912
 30
0.0
 10
13.84802379652979
 20
11.15350462625406
 30
0.0
 10
13.85385081028873
 20
11.15536472958926
 30
0.0
 10
13.86034612893956
 20
11.1556212998188
 30
0.0
 10
13.86840727253499
 20
11.1542353078708
 30
0.0
 10
13.87445423457478
 20
11.15122631642667
 30
0.0
 10
13.87804770514651
 20
11.14943819172307
 30
0.0
  0
LINE
  5
202
330
1F
100
AcDbEntity
  8
0
  6
Continuous
 62
     7
370
    25
100
AcDbLine
 10
14.6311164271
 20
10.6126332707
 30
0.0
 11
13.8780477051
 21
11.0473705902
 31
0.0
  0
SPLINE
  5
203
330
1F
100
AcDbEntity
  8
0
  6
Continuous
 62
     7
370
    25
100
AcDbSpline
210
0.0
220
0.0
230
1.0
 70
     8
 71
     3
 72
    25
 73
    21
 74
     0
 42
0.00000001
 43
0.00000001
 40
0.0
 40
0.0
 40
0.0
 40
0.0
 40
0.0600333226356733
 40
0.1129709835186539
 40
0.1659086444016351
 40
0.2188463052846158
 40
0.2717839661675963
 40
0.3247216270505763
 40
0.3776592879335561
 40
0.4305969488165368
 40
0.4835346096995165
 40
0.5364722705824976
 40
0.5894099314654769
 40
0.6423475923484565
 40
0.6952852532314364
 40
0.7482229141144152
 40
0.8011605749973945
 40
0.854098235880374
 40
0.9070358967633537
 40
1.0
 40
1.0
 40
1.0
 40
1.0
 10
14.63111642711018
 20
10.71470087217748
 30
0.0
 10
14.63389523350356
 20
10.71292293853145
 30
0.0
 10
14.63912440419552
 20
10.70957721479328
 30
0.0
 10
14.64654385029155
 20
10.70281778337639
 30
0.0
 10
14.65322146134733
 20
10.69537417544825
 30
0.0
 10
14.65928911953571
 20
10.68702748915997
 30
0.0
 10
14.66457980788008
 20
10.67804414165945
 30
0.0
 10
14.66894751163386
 20
10.66866220506323
 30
0.0
 10
14.67227178782476
 20
10.6591430449533
 30
0.0
 10
14.67446094186035
 20
10.64974851738732
 30
0.0
 10
14.67545459583095
 20
10.64073791839217
 30
0.0
 10
14.67522534222353
 20
10.63235973904228
 30
0.0
 10
14.67377950698019
 20
10.62484501263944
 30
0.0
 10
14.67115695812255
 20
10.61840123208112
 30
0.0
 10
14.66743006660581
 20
10.61320526770123
 30
0.0
 10
14.66270148525405
 20
10.60940363625887
 30
0.0
 10
14.6571021568895
 20
10.60708922977922
 30
0.0
 10
14.65078456999283
 20
10.60637052626424
 30
0.0
 10
14.64220271400172
 20
10.60728477516112
 30
0.0
 10
14.63543109429349
 20
10.61055169203771
 30
0.0
 10
14.63111642711018
 20
10.61263327069176
 30
0.0
  0
LINE
  5
204
330
1F
100
AcDbEntity
  8
0
  6
Continuous
 62
     7
370
    25
100
AcDbLine
 10
14.6311164271
 20
10.4595318685
 30
0.0
 11
13.8780477051
 21
10.894269188
 31
0.0
  0
SPLINE
  5
205
330
1F
100
AcDbEntity
  8
0
  6
Continuous
 62
     7
370
    25
100
AcDbSpline
210
0.0
220
0.0
230
1.0
 70
     8
 71
     3
 72
    25
 73
    21
 74
     0
 42
0.00000001
 43
0.00000001
 40
0.0
 40
0.0
 40
0.0
 40
0.0
 40
0.0600333226356726
 40
0.112970983518654
 40
0.1659086444016351
 40
0.2188463052846155
 40
0.2717839661675959
 40
0.3247216270505766
 40
0.377659287933557
 40
0.4305969488165369
 40
0.4835346096995166
 40
0.5364722705824968
 40
0.5894099314654768
 40
0.6423475923484564
 40
0.6952852532314371
 40
0.7482229141144177
 40
0.8011605749973971
 40
0.8540982358803769
 40
0.9070358967633566
 40
1.0
 40
1.0
 40
1.0
 40
1.0
 10
14.63111642711018
 20
10.5615994699489
 30
0.0
 10
14.63389523350356
 20
10.55982153630287
 30
0.0
 10
14.63912440419552
 20
10.5564758125647
 30
0.0
 10
14.64654385029155
 20
10.54971638114781
 30
0.0
 10
14.65322146134733
 20
10.54227277321968
 30
0.0
 10
14.65928911953571
 20
10.53392608693139
 30
0.0
 10
14.66457980788008
 20
10.52494273943087
 30
0.0
 10
14.66894751163386
 20
10.51556080283465
 30
0.0
 10
14.67227178782476
 20
10.50604164272473
 30
0.0
 10
14.67446094186035
 20
10.49664711515874
 30
0.0
 10
14.67545459583095
 20
10.48763651616359
 30
0.0
 10
14.67522534222353
 20
10.4792583368137
 30
0.0
 10
14.67377950698019
 20
10.47174361041086
 30
0.0
 10
14.67115695812255
 20
10.46529982985255
 30
0.0
 10
14.66743006660581
 20
10.46010386547266
 30
0.0
 10
14.66270148525405
 20
10.45630223403029
 30
0.0
 10
14.6571021568895
 20
10.45398782755064
 30
0.0
 10
14.65078456999283
 20
10.45326912403566
 30
0.0
 10
14.64220271400172
 20
10.45418337293254
 30
0.0
 10
14.63543109429349
 20
10.45745028980913
 30
0.0
 10
14.63111642711018
 20
10.45953186846319
 30
0.0
  0
LINE
  5
206
330
1F
100
AcDbEntity
  8
0
  6
Continuous
 62
     7
370
    25
100
AcDbLine
 10
13.8780477051
 20
10.9963367895
 30
0.0
 11
14.6311164271
 21
10.5615994699
 31
0.0
  0
SPLINE
  5
207
330
1F
100
AcDbEntity
  8
0
  6
Continuous
 62
     7
370
    25
100
AcDbSpline
210
0.0
220
0.0
230
1.0
 70
     8
 71
     3
 72
    20
 73
    16
 74
     0
 42
0.00000001
 43
0.00000001
 40
0.0
 40
0.0
 40
0.0
 40
0.0
 40
0.1220208336415365
 40
0.229265336559343
 40
0.3365098394771501
 40
0.4437543423949566
 40
0.5509988453127636
 40
0.6040432035165526
 40
0.6570875617203396
 40
0.7101319199241269
 40
0.7631762781279148
 40
0.8162206363317024
 40
0.8692649945354892
 40
0.9223093527392762
 40
1.0
 40
1.0
 40
1.0
 40
1.0
 10
13.87804770514651
 20
10.89426918800878
 30
0.0
 10
13.87238401906195
 20
10.89826854042169
 30
0.0
 10
13.86174250107201
 20
10.90578293652605
 30
0.0
 10
13.84829034094895
 20
10.92351446193509
 30
0.0
 10
13.83877554591963
 20
10.94248978160964
 30
0.0
 10
13.83368776423352
 20
10.96189165129487
 30
0.0
 10
13.83362474006287
 20
10.97646699301059
 30
0.0
 10
13.83603594933325
 20
10.9861361161266
 30
0.0
 10
13.83899145858399
 20
10.99223221864313
 30
0.0
 10
13.84302466895525
 20
10.99703190926262
 30
0.0
 10
13.84802379652979
 20
11.00040322402548
 30
0.0
 10
13.85385081028873
 20
11.00226332736068
 30
0.0
 10
13.86034612893956
 20
11.00251989759022
 30
0.0
 10
13.86840727253499
 20
11.00113390564222
 30
0.0
 10
13.87445423457478
 20
10.99812491419809
 30
0.0
 10
13.87804770514651
 20
10.9963367894945
 30
0.0
  0
LINE
  5
208
330
1F
100
AcDbEntity
  8
0
  6
Continuous
 62
     7
370
    25
100
AcDbLine
 10
15.6723311624
 20
12.9542338043
 30
0.0
 11
15.6723311624
 21
8.9205221936
 31
0.0
  0
LINE
  5
209
330
1F
100
AcDbEntity
  8
0
  6
Continuous
 62
     7
370
    25
100
AcDbLine
 10
15.4036305856
 20
8.7654046523
 30
0.0
 11
15.6723311624
 21
8.9205221936
 31
0.0
  0
LINE
  5
20A
330
1F
100
AcDbEntity
  8
0
  6
Continuous
 62
     7
370
    25
100
AcDbLine
 10
13.395447327
 20
14.2931470887
 30
0.0
 11
13.1267467501
 21
14.1380295474
 31
0.0
  0
LINE
  5
20B
330
1F
100
AcDbEntity
  8
0
  6
Continuous
 62
     7
370
    25
100
AcDbLine
 10
13.395447327
 20
14.2931470887
 30
0.0
 11
15.651117959
 21
12.9909761503
 31
0.0
  0
ARC
  5
20C
330
1F
100
AcDbEntity
  8
0
  6
Continuous
 62
     7
370
    25
100
AcDbCircle
 10
13.3866597253
 20
14.2808806488
 30
0.0
 40
0.0150893170770573
100
AcDbArc
 50
54.3824225248
 51
114.3071190461
  0
ARC
  5
20D
330
1F
100
AcDbEntity
  8
0
  6
Continuous
 62
     7
370
    25
100
AcDbCircle
 10
15.6580605957
 20
8.9187052727
 30
0.0
 40
0.0143857663862043
100
AcDbArc
 50
304.0563508163
 51
7.2558295771
  0
ELLIPSE
  5
20E
330
1F
100
AcDbEntity
  8
0
  6
Continuous
 62
     7
370
    25
100
AcDbEllipse
 10
16.6552095883
 20
14.5211089439
 30
0.0
 11
-0.1948108062646376
 21
0.2545899111386429
 31
0.0
210
0.0
220
0.0
230
1.0
 40
0.6462983033
 41
2.900043390619516
 42
3.215069923033206
  0
LINE
  5
20F
330
1F
100
AcDbEntity
  8
0
  6
Continuous
 62
     7
370
    25
100
AcDbLine
 10
16.8050053552
 20
14.0785015807
 30
0.0
 11
16.8050053552
 21
14.2437925522
 31
0.0
  0
ARC
  5
210
330
1F
100
AcDbEntity
  8
0
  6
Continuous
 62
     7
370
    25
100
AcDbCircle
 10
16.6639482256
 20
14.4256917994
 30
0.0
 40
0.3747507995254873
100
AcDbArc
 50
274.7851212768
 51
292.1110210927
  0
ELLIPSE
  5
211
330
1F
100
AcDbEntity
  8
0
  6
Continuous
 62
     7
370
    25
100
AcDbEllipse
 10
16.6552095883
 20
14.5211089439
 30
0.0
 11
0.0
 21
0.3073759873747868
 31
0.0
210
0.0
220
0.0
230
1.0
 40
0.8296028658
 41
2.984079387382952
 42
3.299105919796637
  0
ARC
  5
212
330
1F
100
AcDbEntity
  8
0
  6
Continuous
 62
     7
370
    25
100
AcDbCircle
 10
16.6464709509
 20
14.4256917994
 30
0.0
 40
0.3747507995252329
100
AcDbArc
 50
247.8889789073
 51
265.2148787232
  0
LINE
  5
213
330
1F
100
AcDbEntity
  8
0
  6
Continuous
 62
     7
370
    25
100
AcDbLine
 10
16.5054138213
 20
14.0785015807
 30
0.0
 11
16.5054138213
 21
14.2437925522
 31
0.0
  0
ELLIPSE
  5
214
330
1F
100
AcDbEntity
  8
0
  6
Continuous
 62
     7
370
    25
100
AcDbEllipse
 10
16.6552095883
 20
14.5211089439
 30
0.0
 11
0.1948108062646376
 21
0.2545899111386412
 31
0.0
210
0.0
220
0.0
230
1.0
 40
0.6462983033
 41
3.068115384146407
 42
3.383141916560089
  0
LINE
  5
215
330
1F
100
AcDbEntity
  8
0
  6
Continuous
 62
     7
370
    25
100
AcDbLine
 10
16.4033663831
 20
14.2097965073
 30
0.0
 11
16.4033663831
 21
14.3398326237
 31
0.0
  0
ELLIPSE
  5
216
330
1F
100
AcDbEntity
  8
0
  6
Continuous
 62
     7
370
    25
100
AcDbEllipse
 10
16.6552095883
 20
14.5211089439
 30
0.0
 11
0.2436313090882508
 21
0.1964916144076377
 31
0.0
210
0.0
220
0.0
230
1.0
 40
0.3831783658
 41
2.841864867314035
 42
2.999378133520888
  0
LWPOLYLINE
  5
217
330
1F
100
AcDbEntity
  8
0
  6
Continuous
 62
     7
370
    25
100
AcDbPolyline
 90
       30
 70
   128
 43
0.0
 10
16.4097307372
 20
15.6500989059
 10
16.4013050289
 20
15.6238790493
 10
16.4012115377
 20
15.5972118968
 10
16.4094533318
 20
15.5709725665
 10
16.4257599456
 20
15.5460221372
 10
16.4495962558
 20
15.5231793904
 10
16.4801800421
 20
15.5031939414
 10
16.5165076567
 20
15.4867216394
 10
16.5573869604
 20
15.474303045
 10
16.6014764442
 20
15.4663456909
 10
16.6473292529
 20
15.4631107084
 10
16.6934406654
 20
15.4647042578
 10
16.738297474
 20
15.4710740445
 10
16.7804276426
 20
15.4820110355
 10
16.8184486136
 20
15.4971563188
 10
16.851112678
 20
15.5160128818
 10
16.877347921
 20
15.5379619212
 10
16.8962933979
 20
15.5622831499
 10
16.9073273876
 20
15.5881784343
 10
16.9100877951
 20
15.6147979861
 10
16.9044840339
 20
15.6412682491
 10
16.8906999988
 20
15.6667205664
 10
16.8691880315
 20
15.6903196861
 10
16.8406540758
 20
15.7112911716
 10
16.8060345117
 20
15.7289468156
 10
16.7664654262
 20
15.7427072246
 10
16.7232453319
 20
15.7521208323
 10
16.6777925538
 20
15.7568787188
 10
16.6315986855
 20
15.7568247475
 10
16.5861796406
 20
15.7519606896
  0
ELLIPSE
  5
218
330
1F
100
AcDbEntity
  8
0
  6
Continuous
 62
     7
370
    25
100
AcDbEllipse
 10
16.6552095883
 20
14.5211089439
 30
0.0
 11
0.2436313090882507
 21
-0.1964916144076394
 31
0.0
210
0.0
220
0.0
230
1.0
 40
0.3831783658
 41
0.1422145200688907
 42
0.2997277862757366
  0
LINE
  5
219
330
1F
100
AcDbEntity
  8
0
  6
Continuous
 62
     7
370
    25
100
AcDbLine
 10
16.9070527934
 20
14.2097965073
 30
0.0
 11
16.9070527934
 21
14.3398326237
 31
0.0
  0
LWPOLYLINE
  5
21A
330
1F
100
AcDbEntity
  8
0
  6
Continuous
 62
     7
370
    25
100
AcDbPolyline
 90
       13
 70
   128
 43
0.0
 10
16.5861796406
 20
15.7519606896
 10
16.5604866813
 20
15.7647179315
 10
16.5298020497
 20
15.7730222314
 10
16.4963811412
 20
15.7762632029
 10
16.4626804742
 20
15.7742026268
 10
16.4311771298
 20
15.7669919603
 10
16.4041866809
 20
15.7551612052
 10
16.3836929914
 20
15.7395799507
 10
16.3712023973
 20
15.7213934571
 10
16.367632988
 20
15.7019384761
 10
16.3732471236
 20
15.6826449963
 10
16.3876321516
 20
15.6649311356
 10
16.4097307372
 20
15.6500989059
  0
LWPOLYLINE
  5
21B
330
1F
100
AcDbEntity
  8
0
  6
Continuous
 62
     7
370
    25
100
AcDbPolyline
 90
       27
 70
   128
 43
0.0
 10
17.1802095883
 20
14.1078136715
 10
17.1778796197
 20
14.0792916957
 10
17.1675658883
 20
14.0416996798
 10
17.149171992
 20
14.005150321
 10
17.1229880135
 20
13.9702200246
 10
17.0894268898
 20
13.9374596622
 10
17.0490178998
 20
13.9073858843
 10
17.0023983176
 20
13.8804729723
 10
16.9503033616
 20
13.8571453589
 10
16.8935546006
 20
13.8377709346
 10
16.8330469964
 20
13.8226552456
 10
16.76973479
 20
13.8120366752
 10
16.7046164527
 20
13.8060826848
 10
16.6387189397
 20
13.8048871723
 10
16.5730814941
 20
13.8084689917
 10
16.5087392576
 20
13.8167716555
 10
16.4467069457
 20
13.8296642257
 10
16.387962845
 20
13.8469433788
 10
16.3334333851
 20
13.8683366123
 10
16.2839785281
 20
13.8935065421
 10
16.2403782068
 20
13.9220562233
 10
16.2033200241
 20
13.9535354105
 10
16.1733884098
 20
13.987447658
 10
16.1510554033
 20
14.0232581494
 10
16.1366732094
 20
14.0604021319
 10
16.1304686441
 20
14.0982938227
 10
16.1302095883
 20
14.1078136715
  0
LWPOLYLINE
  5
21C
330
1F
100
AcDbEntity
  8
0
  6
Continuous
 62
     7
370
    25
100
AcDbPolyline
 90
       41
 70
   128
 43
0.0
 10
17.0264406484
 20
14.4119402901
 10
17.0700409698
 20
14.3833906089
 10
17.1070991524
 20
14.3519114217
 10
17.1370307667
 20
14.3179991743
 10
17.1593637732
 20
14.2821886828
 10
17.1737459671
 20
14.2450447003
 10
17.1799505324
 20
14.2071530095
 10
17.1778796197
 20
14.169111185
 10
17.1675658883
 20
14.1315191691
 10
17.149171992
 20
14.0949698103
 10
17.1229880135
 20
14.0600395139
 10
17.0894268898
 20
14.0272791515
 10
17.0490178998
 20
13.9972053736
 10
17.0023983176
 20
13.9702924616
 10
16.9503033616
 20
13.9469648482
 10
16.8935546006
 20
13.9275904239
 10
16.8330469964
 20
13.9124747349
 10
16.76973479
 20
13.9018561645
 10
16.7046164527
 20
13.8959021741
 10
16.6387189397
 20
13.8947066616
 10
16.5730814941
 20
13.898288481
 10
16.5087392576
 20
13.9065911448
 10
16.4467069457
 20
13.919483715
 10
16.387962845
 20
13.9367628681
 10
16.3334333851
 20
13.9581561016
 10
16.2839785281
 20
13.9833260314
 10
16.2403782068
 20
14.0118757126
 10
16.2033200241
 20
14.0433548998
 10
16.1733884098
 20
14.0772671473
 10
16.1510554033
 20
14.1130776387
 10
16.1366732094
 20
14.1502216212
 10
16.1304686441
 20
14.188113312
 10
16.1325395568
 20
14.2261551365
 10
16.1428532882
 20
14.2637471524
 10
16.1612471846
 20
14.3002965112
 10
16.1874311631
 20
14.3352268076
 10
16.2209922868
 20
14.36798717
 10
16.2614012767
 20
14.398060948
 10
16.308020859
 20
14.4249738599
 10
16.3601158149
 20
14.4483014733
 10
16.3675750286
 20
14.4511744539
  0
ARC
  5
21D
330
1F
100
AcDbEntity
  8
0
  6
Continuous
 62
     7
370
    25
100
AcDbCircle
 10
16.7257440522
 20
13.8802133828
 30
0.0
 40
0.6108616429994324
100
AcDbArc
 50
60.5114299964
 51
72.4236769232
  0
LINE
  5
21E
330
1F
100
AcDbEntity
  8
0
  6
Continuous
 62
     7
370
    25
100
AcDbLine
 10
17.0476538518
 20
14.3915300873
 30
0.0
 11
16.969814587
 21
14.3465944362
 31
0.0
  0
LINE
  5
21F
330
1F
100
AcDbEntity
  8
0
  6
Continuous
 62
     7
370
    25
100
AcDbLine
 10
17.0476538518
 20
14.3915300873
 30
0.0
 11
16.9910853093
 21
14.4241864118
 31
0.0
  0
LINE
  5
220
330
1F
100
AcDbEntity
  8
0
  6
Continuous
 62
     7
370
    25
100
AcDbLine
 10
16.3193338672
 20
14.4241864118
 30
0.0
 11
16.2627653247
 21
14.3915300873
 31
0.0
  0
LINE
  5
221
330
1F
100
AcDbEntity
  8
0
  6
Continuous
 62
     7
370
    25
100
AcDbLine
 10
16.3406045895
 20
14.3465944362
 30
0.0
 11
16.2627653247
 21
14.3915300873
 31
0.0
  0
LINE
  5
222
330
1F
100
AcDbEntity
  8
0
  6
Continuous
 62
     7
370
    25
100
AcDbLine
 10
16.1402095883
 20
14.2207246692
 30
0.0
 11
16.1402095883
 21
14.1745416523
 31
0.0
  0
LINE
  5
223
330
1F
100
AcDbEntity
  8
0
  6
Continuous
 62
     7
370
    25
100
AcDbLine
 10
16.1402095883
 20
14.1745416523
 30
0.0
 11
16.379310946
 21
14.1745416523
 31
0.0
  0
LINE
  5
224
330
1F
100
AcDbEntity
  8
0
  6
Continuous
 62
     7
370
    25
100
AcDbLine
 10
16.2627653247
 20
14.0037362342
 30
0.0
 11
16.3193338672
 21
13.9710799097
 31
0.0
  0
LINE
  5
225
330
1F
100
AcDbEntity
  8
0
  6
Continuous
 62
     7
370
    25
100
AcDbLine
 10
16.3193338672
 20
13.9710799097
 30
0.0
 11
16.5054138213
 21
14.0785015807
 31
0.0
  0
LINE
  5
226
330
1F
100
AcDbEntity
  8
0
  6
Continuous
 62
     7
370
    25
100
AcDbLine
 10
16.6152095883
 20
13.900329989
 30
0.0
 11
16.6952095883
 21
13.900329989
 31
0.0
  0
LINE
  5
227
330
1F
100
AcDbEntity
  8
0
  6
Continuous
 62
     7
370
    25
100
AcDbLine
 10
16.9910853093
 20
13.9710799097
 30
0.0
 11
16.8050053552
 21
14.0785015807
 31
0.0
  0
LINE
  5
228
330
1F
100
AcDbEntity
  8
0
  6
Continuous
 62
     7
370
    25
100
AcDbLine
 10
16.9910853093
 20
13.9710799097
 30
0.0
 11
17.0476538518
 21
14.0037362342
 31
0.0
  0
LINE
  5
229
330
1F
100
AcDbEntity
  8
0
  6
Continuous
 62
     7
370
    25
100
AcDbLine
 10
17.1702095883
 20
14.1745416523
 30
0.0
 11
16.9311082305
 21
14.1745416523
 31
0.0
  0
LINE
  5
22A
330
1F
100
AcDbEntity
  8
0
  6
Continuous
 62
     7
370
    25
100
AcDbLine
 10
17.1702095883
 20
14.1745416523
 30
0.0
 11
17.1702095883
 21
14.2207246692
 31
0.0
  0
LINE
  5
22B
330
1F
100
AcDbEntity
  8
0
  6
Continuous
 62
     7
370
    25
100
AcDbLine
 10
16.6152095883
 20
13.900329989
 30
0.0
 11
16.6152095883
 21
14.2175381445
 31
0.0
  0
LINE
  5
22C
330
1F
100
AcDbEntity
  8
0
  6
Continuous
 62
     7
370
    25
100
AcDbLine
 10
16.6952095883
 20
13.900329989
 30
0.0
 11
16.6952095883
 21
14.2175381445
 31
0.0
  0
LINE
  5
22D
330
1F
100
AcDbEntity
  8
0
  6
Continuous
 62
     7
370
    25
100
AcDbLine
 10
16.9910853093
 20
13.9710799097
 30
0.0
 11
16.8050053552
 21
14.2437925522
 31
0.0
  0
LINE
  5
22E
330
1F
100
AcDbEntity
  8
0
  6
Continuous
 62
     7
370
    25
100
AcDbLine
 10
17.0476538518
 20
14.0037362342
 30
0.0
 11
16.8615738977
 21
14.2764488766
 31
0.0
  0
LINE
  5
22F
330
1F
100
AcDbEntity
  8
0
  6
Continuous
 62
     7
370
    25
100
AcDbLine
 10
16.2627653247
 20
14.0037362342
 30
0.0
 11
16.4488452788
 21
14.2764488766
 31
0.0
  0
LINE
  5
230
330
1F
100
AcDbEntity
  8
0
  6
Continuous
 62
     7
370
    25
100
AcDbLine
 10
16.3193338672
 20
13.9710799097
 30
0.0
 11
16.5054138213
 21
14.2437925522
 31
0.0
  0
LINE
  5
231
330
1F
100
AcDbEntity
  8
0
  6
Continuous
 62
     7
370
    25
100
AcDbLine
 10
17.1702095883
 20
14.1745416523
 30
0.0
 11
16.9070527934
 21
14.3398326237
 31
0.0
  0
LINE
  5
232
330
1F
100
AcDbEntity
  8
0
  6
Continuous
 62
     7
370
    25
100
AcDbLine
 10
17.1702095883
 20
14.2207246692
 30
0.0
 11
16.9102095883
 21
14.3840328316
 31
0.0
  0
LINE
  5
233
330
1F
100
AcDbEntity
  8
0
  6
Continuous
 62
     7
370
    25
100
AcDbLine
 10
16.1402095883
 20
14.2207246692
 30
0.0
 11
16.4002095883
 21
14.3840328316
 31
0.0
  0
LINE
  5
234
330
1F
100
AcDbEntity
  8
0
  6
Continuous
 62
     7
370
    25
100
AcDbLine
 10
16.1402095883
 20
14.1745416523
 30
0.0
 11
16.4033663831
 21
14.3398326237
 31
0.0
  0
LINE
  5
235
330
1F
100
AcDbEntity
  8
0
  6
Continuous
 62
     7
370
    25
100
AcDbLine
 10
17.0476538518
 20
14.3915300873
 30
0.0
 11
16.9102095883
 21
14.4342740971
 31
0.0
  0
LINE
  5
236
330
1F
100
AcDbEntity
  8
0
  6
Continuous
 62
     7
370
    25
100
AcDbLine
 10
16.9910853093
 20
14.4241864118
 30
0.0
 11
16.9102095883
 21
14.4493380807
 31
0.0
  0
LINE
  5
237
330
1F
100
AcDbEntity
  8
0
  6
Continuous
 62
     7
370
    25
100
AcDbLine
 10
16.2627653247
 20
14.3915300873
 30
0.0
 11
16.3675750286
 21
14.4241250236
 31
0.0
  0
LINE
  5
238
330
1F
100
AcDbEntity
  8
0
  6
Continuous
 62
     7
370
    25
100
AcDbLine
 10
16.3193338672
 20
14.4241864118
 30
0.0
 11
16.3675750286
 21
14.4391890072
 31
0.0
  0
LINE
  5
239
330
1F
100
AcDbEntity
  8
0
  6
Continuous
 62
     7
370
    25
100
AcDbLine
 10
17.597541423
 20
14.1023425595
 30
0.0
 11
17.4052202127
 21
13.9913191939
 31
0.0
  0
LINE
  5
23A
330
1F
100
AcDbEntity
  8
0
  6
Continuous
 62
     7
370
    25
100
AcDbLine
 10
17.597541423
 20
13.7306871002
 30
0.0
 11
17.597541423
 21
14.1023425595
 31
0.0
  0
LINE
  5
23B
330
1F
100
AcDbEntity
  8
0
  6
Continuous
 62
     7
370
    25
100
AcDbLine
 10
17.597541423
 20
13.7306871002
 30
0.0
 11
17.597541423
 21
13.6796532994
 31
0.0
  0
LINE
  5
23C
330
1F
100
AcDbEntity
  8
0
  6
Continuous
 62
     7
370
    25
100
AcDbLine
 10
17.597541423
 20
10.8585047944
 30
0.0
 11
17.597541423
 21
13.6796532994
 31
0.0
  0
LINE
  5
23D
330
1F
100
AcDbEntity
  8
0
  6
Continuous
 62
     7
370
    25
100
AcDbLine
 10
17.597541423
 20
10.8585047944
 30
0.0
 11
17.597541423
 21
10.8074709936
 31
0.0
  0
LINE
  5
23E
330
1F
100
AcDbEntity
  8
0
  6
Continuous
 62
     7
370
    25
100
AcDbLine
 10
17.597541423
 20
10.4358155343
 30
0.0
 11
17.597541423
 21
10.8074709936
 31
0.0
  0
LINE
  5
23F
330
1F
100
AcDbEntity
  8
0
  6
Continuous
 62
     7
370
    25
100
AcDbLine
 10
17.597541423
 20
10.4358155343
 30
0.0
 11
17.4052202127
 21
10.3087201323
 31
0.0
  0
LINE
  5
240
330
1F
100
AcDbEntity
  8
0
  6
Continuous
 62
     7
370
    25
100
AcDbLine
 10
15.6810579483
 20
15.2087049199
 30
0.0
 11
15.4748187
 21
15.1057162666
 31
0.0
  0
LINE
  5
241
330
1F
100
AcDbEntity
  8
0
  6
Continuous
 62
     7
370
    25
100
AcDbLine
 10
17.597541423
 20
14.1023425595
 30
0.0
 11
16.9102095883
 21
14.4991307818
 31
0.0
  0
LINE
  5
242
330
1F
100
AcDbEntity
  8
0
  6
Continuous
 62
     7
370
    25
100
AcDbLine
 10
16.3675750286
 20
14.8123870453
 30
0.0
 11
15.6810579483
 21
15.2087049199
 31
0.0
  0
ELLIPSE
  5
243
330
1F
100
AcDbEntity
  8
0
  6
Continuous
 62
     7
370
    25
100
AcDbEllipse
 10
15.6295571364
 20
14.6845529215
 30
0.0
 11
0.4030819992666732
 21
-0.01178179606421281
 31
0.0
210
0.0
220
0.0
230
1.0
 40
0.5567969691
 41
0.0
 42
6.283185307179586
  0
LINE
  5
244
330
1F
100
AcDbEntity
  8
0
  6
Continuous
 62
     7
370
    25
100
AcDbLine
 10
17.61963851
 20
13.7434434769
 30
0.0
 11
17.597541423
 21
13.7306871002
 31
0.0
  0
LINE
  5
245
330
1F
100
AcDbEntity
  8
0
  6
Continuous
 62
     7
370
    25
100
AcDbLine
 10
17.61963851
 20
13.7434434769
 30
0.0
 11
17.61963851
 21
13.6924096762
 31
0.0
  0
LINE
  5
246
330
1F
100
AcDbEntity
  8
0
  6
Continuous
 62
     7
370
    25
100
AcDbLine
 10
17.61963851
 20
13.6924096762
 30
0.0
 11
17.597541423
 21
13.6796532994
 31
0.0
  0
LINE
  5
247
330
1F
100
AcDbEntity
  8
0
  6
Continuous
 62
     7
370
    25
100
AcDbLine
 10
17.597541423
 20
13.7561998537
 30
0.0
 11
17.61963851
 21
13.7434434769
 31
0.0
  0
LINE
  5
248
330
1F
100
AcDbEntity
  8
0
  6
Continuous
 62
     7
370
    25
100
AcDbLine
 10
17.61963851
 20
10.8712611711
 30
0.0
 11
17.597541423
 21
10.8585047944
 31
0.0
  0
LINE
  5
249
330
1F
100
AcDbEntity
  8
0
  6
Continuous
 62
     7
370
    25
100
AcDbLine
 10
17.61963851
 20
10.8712611711
 30
0.0
 11
17.61963851
 21
10.8202273704
 31
0.0
  0
LINE
  5
24A
330
1F
100
AcDbEntity
  8
0
  6
Continuous
 62
     7
370
    25
100
AcDbLine
 10
17.61963851
 20
10.8202273704
 30
0.0
 11
17.597541423
 21
10.8074709936
 31
0.0
  0
LINE
  5
24B
330
1F
100
AcDbEntity
  8
0
  6
Continuous
 62
     7
370
    25
100
AcDbLine
 10
17.597541423
 20
10.8840175479
 30
0.0
 11
17.61963851
 21
10.8712611711
 31
0.0
  0
LINE
  5
24C
330
1F
100
AcDbEntity
  8
0
  6
Continuous
 62
     7
370
    25
100
AcDbLine
 10
16.069351229
 20
13.2201409557
 30
0.0
 11
15.6598651039
 21
12.9837470544
 31
0.0
  0
LINE
  5
24D
330
1F
100
AcDbEntity
  8
0
  6
Continuous
 62
     7
370
    25
100
AcDbLine
 10
14.1121893608
 20
14.3499864528
 30
0.0
 11
13.7320976582
 21
14.0988029892
 31
0.0
  0
LINE
  5
24E
330
1F
100
AcDbEntity
  8
0
  6
Continuous
 62
     7
370
    25
100
AcDbLine
 10
14.1116779485
 20
14.3587257613
 30
0.0
 11
14.1121893608
 21
14.3499864528
 31
0.0
  0
LINE
  5
24F
330
1F
100
AcDbEntity
  8
0
  6
Continuous
 62
     7
370
    25
100
AcDbLine
 10
16.083996162
 20
13.2201306923
 30
0.0
 11
14.1116779485
 21
14.3587257613
 31
0.0
  0
LINE
  5
250
330
1F
100
AcDbEntity
  8
0
  6
Continuous
 62
     7
370
    25
100
AcDbLine
 10
16.069351229
 20
13.2201409557
 30
0.0
 11
16.083996162
 21
13.2201306923
 31
0.0
  0
LINE
  5
251
330
1F
100
AcDbEntity
  8
0
  6
Continuous
 62
     7
370
    25
100
AcDbLine
 10
16.069351229
 20
9.5066400232
 30
0.0
 11
16.069351229
 21
13.2201409557
 31
0.0
  0
LINE
  5
252
330
1F
100
AcDbEntity
  8
0
  6
Continuous
 62
     7
370
    25
100
AcDbLine
 10
16.069351229
 20
9.5066400232
 30
0.0
 11
15.6723311624
 21
9.3083821148
 31
0.0
  0
LINE
  5
253
330
1F
100
AcDbEntity
  8
0
  6
Continuous
 62
     7
370
    25
100
AcDbLine
 10
16.1865106926
 20
13.2793210263
 30
0.0
 11
16.083996162
 21
13.2201306923
 31
0.0
  0
LINE
  5
254
330
1F
100
AcDbEntity
  8
0
  6
Continuous
 62
     7
370
    25
100
AcDbLine
 10
16.1865106926
 20
13.2793210263
 30
0.0
 11
16.1865106926
 21
9.4427362398
 31
0.0
  0
LINE
  5
255
330
1F
100
AcDbEntity
  8
0
  6
Continuous
 62
     7
370
    25
100
AcDbLine
 10
16.083996162
 20
9.5060598225
 30
0.0
 11
16.1865106926
 21
9.4427362398
 31
0.0
  0
LINE
  5
256
330
1F
100
AcDbEntity
  8
0
  6
Continuous
 62
     7
370
    25
100
AcDbLine
 10
16.083996162
 20
9.5060598225
 30
0.0
 11
16.069351229
 21
9.5066400232
 31
0.0
  0
LINE
  5
257
330
1F
100
AcDbEntity
  8
0
  6
Continuous
 62
     7
370
    25
100
AcDbLine
 10
14.1080980622
 20
14.4791630985
 30
0.0
 11
16.1865106926
 21
13.2793210263
 31
0.0
  0
LINE
  5
258
330
1F
100
AcDbEntity
  8
0
  6
Continuous
 62
     7
370
    25
100
AcDbLine
 10
14.1116779485
 20
14.3587257613
 30
0.0
 11
14.1080980622
 21
14.4791630985
 31
0.0
  0
LINE
  5
259
330
1F
100
AcDbEntity
  8
0
  6
Continuous
 62
     7
370
    25
100
AcDbLine
 10
16.2794385383
 20
13.333268599
 30
0.0
 11
16.1879636016
 21
13.2804606628
 31
0.0
  0
LINE
  5
25A
330
1F
100
AcDbEntity
  8
0
  6
Continuous
 62
     7
370
    25
100
AcDbLine
 10
16.2794385383
 20
13.333268599
 30
0.0
 11
16.2794385383
 21
9.4855984881
 31
0.0
  0
LINE
  5
25B
330
1F
100
AcDbEntity
  8
0
  6
Continuous
 62
     7
370
    25
100
AcDbLine
 10
16.2794385383
 20
9.4855984881
 30
0.0
 11
16.1879636016
 21
9.4399191103
 31
0.0
  0
LINE
  5
25C
330
1F
100
AcDbEntity
  8
0
  6
Continuous
 62
     7
370
    25
100
AcDbLine
 10
16.1879636016
 20
13.2804606628
 30
0.0
 11
16.1879636016
 21
9.4399191103
 31
0.0
  0
LINE
  5
25D
330
1F
100
AcDbEntity
  8
0
  6
Continuous
 62
     7
370
    25
100
AcDbLine
 10
14.1919469117
 20
14.5383518641
 30
0.0
 11
14.1066451532
 21
14.481980228
 31
0.0
  0
LINE
  5
25E
330
1F
100
AcDbEntity
  8
0
  6
Continuous
 62
     7
370
    25
100
AcDbLine
 10
14.1919469117
 20
14.5383518641
 30
0.0
 11
16.2794385383
 21
13.333268599
 31
0.0
  0
LINE
  5
25F
330
1F
100
AcDbEntity
  8
0
  6
Continuous
 62
     7
370
    25
100
AcDbLine
 10
14.1066451532
 20
14.481980228
 30
0.0
 11
16.1879636016
 21
13.2804606628
 31
0.0
  0
LINE
  5
260
330
1F
100
AcDbEntity
  8
0
  6
Continuous
 62
     7
370
    25
100
AcDbLine
 10
14.1080980622
 20
14.3472827196
 30
0.0
 11
14.1080980622
 21
14.4791630985
 31
0.0
  0
LINE
  5
261
330
1F
100
AcDbEntity
  8
0
  6
Continuous
 62
     7
370
    25
100
AcDbLine
 10
16.1865106926
 20
9.4427362398
 30
0.0
 11
16.0762903109
 21
9.5063651117
 31
0.0
  0
LINE
  5
262
330
1F
100
AcDbEntity
  8
0
  6
Continuous
 62
     7
370
    25
100
AcDbLine
 10
16.1879636016
 20
9.4399191103
 30
0.0
 11
16.0726107613
 21
9.5065108875
 31
0.0
  0
LINE
  5
263
330
1F
100
AcDbEntity
  8
0
  6
Continuous
 62
     7
370
    25
100
AcDbLine
 10
14.1066451532
 20
14.3463225653
 30
0.0
 11
14.1066451532
 21
14.481980228
 31
0.0
  0
LWPOLYLINE
  5
264
330
1F
100
AcDbEntity
  8
0
  6
Continuous
 62
     7
370
    25
100
AcDbPolyline
 90
        9
 70
   128
 43
0.0
 10
16.0424047555
 20
14.6732584972
 10
16.0423602732
 20
14.6767555439
 10
16.0372999675
 20
14.710605895
 10
16.02394627
 20
14.7436959608
 10
16.0025710237
 20
14.775352123
 10
15.9736093668
 20
14.8049299534
 10
15.9376508752
 20
14.8318273326
 10
15.8954275601
 20
14.8554967076
 10
15.8512367053
 20
14.8742080446
  0
LINE
  5
265
330
1F
100
AcDbEntity
  8
0
  6
Continuous
 62
     7
370
    25
100
AcDbLine
 10
15.8534056694
 20
14.7568523523
 30
0.0
 11
15.646519426
 21
14.7001749212
 31
0.0
  0
LINE
  5
266
330
1F
100
AcDbEntity
  8
0
  6
Continuous
 62
     7
370
    25
100
AcDbLine
 10
15.646519426
 20
14.7001749212
 30
0.0
 11
15.5483405979
 21
14.8196078074
 31
0.0
  0
LINE
  5
267
330
1F
100
AcDbEntity
  8
0
  6
Continuous
 62
     7
370
    25
100
AcDbLine
 10
15.5483405979
 20
14.8196078074
 30
0.0
 11
15.4851002615
 21
14.8022828284
 31
0.0
  0
LINE
  5
268
330
1F
100
AcDbEntity
  8
0
  6
Continuous
 62
     7
370
    25
100
AcDbLine
 10
15.4851002615
 20
14.8022828284
 30
0.0
 11
15.5832790896
 21
14.6828499423
 31
0.0
  0
LINE
  5
269
330
1F
100
AcDbEntity
  8
0
  6
Continuous
 62
     7
370
    25
100
AcDbLine
 10
15.5832790896
 20
14.6828499423
 30
0.0
 11
15.3763928462
 21
14.6261725113
 31
0.0
  0
LINE
  5
26A
330
1F
100
AcDbEntity
  8
0
  6
Continuous
 62
     7
370
    25
100
AcDbLine
 10
15.3763928462
 20
14.6261725113
 30
0.0
 11
15.4064038417
 21
14.5896646422
 31
0.0
  0
LINE
  5
26B
330
1F
100
AcDbEntity
  8
0
  6
Continuous
 62
     7
370
    25
100
AcDbLine
 10
15.4064038417
 20
14.5896646422
 30
0.0
 11
15.6132900851
 21
14.6463420732
 31
0.0
  0
LINE
  5
26C
330
1F
100
AcDbEntity
  8
0
  6
Continuous
 62
     7
370
    25
100
AcDbLine
 10
15.6132900851
 20
14.6463420732
 30
0.0
 11
15.7114689132
 21
14.5269091871
 31
0.0
  0
LINE
  5
26D
330
1F
100
AcDbEntity
  8
0
  6
Continuous
 62
     7
370
    25
100
AcDbLine
 10
15.7114689132
 20
14.5269091871
 30
0.0
 11
15.7747092496
 21
14.544234166
 31
0.0
  0
LINE
  5
26E
330
1F
100
AcDbEntity
  8
0
  6
Continuous
 62
     7
370
    25
100
AcDbLine
 10
15.7747092496
 20
14.544234166
 30
0.0
 11
15.6765304215
 21
14.6636670521
 31
0.0
  0
LINE
  5
26F
330
1F
100
AcDbEntity
  8
0
  6
Continuous
 62
     7
370
    25
100
AcDbLine
 10
15.6765304215
 20
14.6636670521
 30
0.0
 11
15.8834166649
 21
14.7203444832
 31
0.0
  0
LINE
  5
270
330
1F
100
AcDbEntity
  8
0
  6
Continuous
 62
     7
370
    25
100
AcDbLine
 10
15.8834166649
 20
14.7203444832
 30
0.0
 11
15.8534056694
 21
14.7568523523
 31
0.0
  0
LINE
  5
271
330
1F
100
AcDbEntity
  8
0
  6
Continuous
 62
     7
370
    25
100
AcDbLine
 10
15.646519426
 20
14.6430170644
 30
0.0
 11
15.6277733763
 21
14.6658213172
 31
0.0
  0
LINE
  5
272
330
1F
100
AcDbEntity
  8
0
  6
Continuous
 62
     7
370
    25
100
AcDbLine
 10
15.6756515389
 20
14.6509979398
 30
0.0
 11
15.646519426
 21
14.6430170644
 31
0.0
  0
LINE
  5
273
330
1F
100
AcDbEntity
  8
0
  6
Continuous
 62
     7
370
    25
100
AcDbLine
 10
15.6765304215
 20
14.631652708
 30
0.0
 11
15.6765304215
 21
14.6636670521
 31
0.0
  0
LINE
  5
274
330
1F
100
AcDbEntity
  8
0
  6
Continuous
 62
     7
370
    25
100
AcDbLine
 10
15.5832790896
 20
14.6540079556
 30
0.0
 11
15.5832790896
 21
14.6828499423
 31
0.0
  0
LINE
  5
275
330
1F
100
AcDbEntity
  8
0
  6
Continuous
 62
     7
370
    25
100
AcDbLine
 10
15.8534056694
 20
14.748302186
 30
0.0
 11
15.8534056694
 21
14.7568523523
 31
0.0
  0
LINE
  5
276
330
1F
100
AcDbEntity
  8
0
  6
Continuous
 62
     7
370
    25
100
AcDbLine
 10
15.646519426
 20
14.6430170644
 30
0.0
 11
15.646519426
 21
14.7001749212
 31
0.0
  0
LINE
  5
277
330
1F
100
AcDbEntity
  8
0
  6
Continuous
 62
     7
370
    25
100
AcDbLine
 10
15.5483405979
 20
14.8110576411
 30
0.0
 11
15.5483405979
 21
14.8196078074
 31
0.0
  0
LINE
  5
278
330
1F
100
AcDbEntity
  8
0
  6
Continuous
 62
     7
370
    25
100
AcDbLine
 10
15.6353162979
 20
14.6195475573
 30
0.0
 11
15.6488053325
 21
14.638299275
 31
0.0
  0
LINE
  5
279
330
1F
100
AcDbEntity
  8
0
  6
Continuous
 62
     7
370
    25
100
AcDbLine
 10
15.6488053325
 20
14.638299275
 30
0.0
 11
15.7005530787
 21
14.6258937291
 31
0.0
  0
LINE
  5
27A
330
1F
100
AcDbEntity
  8
0
  6
Continuous
 62
     7
370
    25
100
AcDbLine
 10
15.6993880835
 20
14.669929013
 30
0.0
 11
15.6756515389
 21
14.6756194018
 31
0.0
  0
LINE
  5
27B
330
1F
100
AcDbEntity
  8
0
  6
Continuous
 62
     7
370
    25
100
AcDbLine
 10
15.6756515389
 20
14.6756194018
 30
0.0
 11
15.6971409032
 21
14.7054927398
 31
0.0
  0
LINE
  5
27C
330
1F
100
AcDbEntity
  8
0
  6
Continuous
 62
     7
370
    25
100
AcDbLine
 10
15.6277733763
 20
14.7144290078
 30
0.0
 11
15.6110041786
 21
14.6911173868
 31
0.0
  0
LINE
  5
27D
330
1F
100
AcDbEntity
  8
0
  6
Continuous
 62
     7
370
    25
100
AcDbLine
 10
15.6110041786
 20
14.6911173868
 30
0.0
 11
15.5680101043
 21
14.7014244051
 31
0.0
  0
LINE
  5
27E
330
1F
100
AcDbEntity
  8
0
  6
Continuous
 62
     7
370
    25
100
AcDbLine
 10
15.5437766849
 20
14.6634779119
 30
0.0
 11
15.5841579722
 21
14.6537972601
 31
0.0
  0
LINE
  5
27F
330
1F
100
AcDbEntity
  8
0
  6
Continuous
 62
     7
370
    25
100
AcDbLine
 10
15.5841579722
 20
14.6537972601
 30
0.0
 11
15.5703287383
 21
14.6345726161
 31
0.0
  0
LINE
  5
280
330
1F
100
AcDbEntity
  8
0
  6
Continuous
 62
     7
370
    25
100
AcDbLine
 10
15.5841579722
 20
14.6383611978
 30
0.0
 11
15.5841579722
 21
14.6537972601
 31
0.0
  0
LINE
  5
281
330
1F
100
AcDbEntity
  8
0
  6
Continuous
 62
     7
370
    25
100
AcDbLine
 10
15.6756515389
 20
14.6318634035
 30
0.0
 11
15.6756515389
 21
14.6756194018
 31
0.0
  0
LINE
  5
282
330
1F
100
AcDbEntity
  8
0
  6
Continuous
 62
     7
370
    25
100
AcDbLine
 10
15.6110041786
 20
14.6457158387
 30
0.0
 11
15.6110041786
 21
14.6911173868
 31
0.0
  0
LINE
  5
283
330
1F
100
AcDbEntity
  8
0
  6
Continuous
 62
     7
370
    25
100
AcDbLine
 10
14.2064456417
 20
10.0867647557
 30
0.0
 11
14.2064456417
 21
10.1456935129
 31
0.0
  0
LINE
  5
284
330
1F
100
AcDbEntity
  8
0
  6
Continuous
 62
     7
370
    25
100
AcDbLine
 10
14.2506398156
 20
10.0317876237
 30
0.0
 11
14.2064456417
 21
10.0867647557
 31
0.0
  0
LINE
  5
285
330
1F
100
AcDbEntity
  8
0
  6
Continuous
 62
     7
370
    25
100
AcDbLine
 10
14.2948339894
 20
10.0357392488
 30
0.0
 11
14.2506398156
 21
10.0317876237
 31
0.0
  0
LINE
  5
286
330
1F
100
AcDbEntity
  8
0
  6
Continuous
 62
     7
370
    25
100
AcDbLine
 10
14.2948339894
 20
10.094668006
 30
0.0
 11
14.2948339894
 21
10.0357392488
 31
0.0
  0
LINE
  5
287
330
1F
100
AcDbEntity
  8
0
  6
Continuous
 62
     7
370
    25
100
AcDbLine
 10
14.2506398156
 20
10.149645138
 30
0.0
 11
14.2948339894
 21
10.094668006
 31
0.0
  0
LINE
  5
288
330
1F
100
AcDbEntity
  8
0
  6
Continuous
 62
     7
370
    25
100
AcDbLine
 10
14.2064456417
 20
10.1456935129
 30
0.0
 11
14.2506398156
 21
10.149645138
 31
0.0
  0
LWPOLYLINE
  5
289
330
1F
100
AcDbEntity
  8
0
  6
Continuous
 62
     7
370
    25
100
AcDbPolyline
 90
       32
 70
   128
 43
0.0
 10
14.105329372
 20
10.1746023143
 10
14.1083038854
 20
10.1391074464
 10
14.1171056484
 20
10.1016314426
 10
14.1313743159
 20
10.0637085749
 10
14.150525727
 20
10.0268914099
 10
14.1737758206
 20
9.9926872467
 10
14.2001727352
 20
9.9624964078
 10
14.2286357781
 20
9.9375549097
 10
14.2579996688
 20
9.9188838602
 10
14.2870622462
 20
9.9072476543
 10
14.3146336851
 20
9.9031226796
 10
14.3395852074
 20
9.906677813
 10
14.3608952949
 20
9.9177675071
 10
14.3776915102
 20
9.9359377483
 10
14.3892862141
 20
9.960444645
 10
14.3952047182
 20
9.9902848819
 10
14.3952047182
 20
10.0242367961
 10
14.3892862141
 20
10.0609103923
 10
14.3776915102
 20
10.0988042492
 10
14.3608952949
 20
10.1363669878
 10
14.3395852074
 20
10.1720607852
 10
14.3146336851
 20
10.2044243331
 10
14.2870622462
 20
10.2321326641
 10
14.2579996688
 20
10.2540513959
 10
14.2286357781
 20
10.2692831729
 10
14.2001727352
 20
10.2772044045
 10
14.1737758206
 20
10.2774907945
 10
14.150525727
 20
10.2701306181
 10
14.1313743159
 20
10.2554252017
 10
14.1171056484
 20
10.2339765868
 10
14.1083038854
 20
10.2066628823
 10
14.105329372
 20
10.1746023143
  0
LWPOLYLINE
  5
28A
330
1F
100
AcDbEntity
  8
0
  6
Continuous
 62
     7
370
    25
100
AcDbPolyline
 90
       18
 70
   128
 43
0.0
 10
14.3569169993
 20
9.9147843599
 10
14.3644308288
 20
9.9198085274
 10
14.3812270441
 20
9.9379787686
 10
14.392821748
 20
9.9624856653
 10
14.3987402521
 20
9.9923259021
 10
14.3987402521
 20
10.0262778163
 10
14.392821748
 20
10.0629514126
 10
14.3812270441
 20
10.1008452695
 10
14.3644308288
 20
10.1384080081
 10
14.3431207413
 20
10.1741018055
 10
14.318169219
 20
10.2064653534
 10
14.2905977801
 20
10.2341736844
 10
14.2615352027
 20
10.2560924162
 10
14.232171312
 20
10.2713241932
 10
14.2037082691
 20
10.2792454248
 10
14.1773113545
 20
10.2795318148
 10
14.1540612609
 20
10.2721716384
 10
14.1514336997
 20
10.2707304424
  0
LINE
  5
28B
330
1F
100
AcDbEntity
  8
0
  6
Continuous
 62
     7
370
    25
100
AcDbLine
 10
14.2900610186
 20
10.0947899426
 30
0.0
 11
14.2948339894
 21
10.0892818115
 31
0.0
  0
ARC
  5
28C
330
1F
100
AcDbEntity
  8
0
  6
Continuous
 62
     7
370
    25
100
AcDbCircle
 10
14.3736202955
 20
10.1617284107
 30
0.0
 40
0.1070649861855078
100
AcDbArc
 50
203.8035782277
 51
218.6978549682
  0
LINE
  5
28D
330
1F
100
AcDbEntity
  8
0
  6
Continuous
 62
     7
370
    25
100
AcDbLine
 10
14.2948339894
 20
10.0573003772
 30
0.0
 11
14.2506398156
 21
10.0317876237
 31
0.0
  0
LINE
  5
28E
330
1F
100
AcDbEntity
  8
0
  6
Continuous
 62
     7
370
    25
100
AcDbLine
 10
14.2679639317
 20
10.1222785086
 30
0.0
 11
14.2679639317
 21
10.1280941023
 31
0.0
  0
LINE
  5
28F
330
1F
100
AcDbEntity
  8
0
  6
Continuous
 62
     7
370
    25
100
AcDbLine
 10
14.2679639317
 20
10.1222785086
 30
0.0
 11
14.2064456417
 21
10.0867647557
 31
0.0
  0
LINE
  5
290
330
1F
100
AcDbEntity
  8
0
  6
Continuous
 62
     7
370
    25
100
AcDbLine
 10
14.2900610186
 20
10.0947899426
 30
0.0
 11
14.2679639317
 21
10.1222785086
 31
0.0
  0
LINE
  5
291
330
1F
100
AcDbEntity
  8
0
  6
Continuous
 62
     7
370
    25
100
AcDbLine
 10
14.2948339894
 20
10.0888524123
 30
0.0
 11
14.2900610186
 21
10.0947899426
 31
0.0
  0
LINE
  5
292
330
1F
100
AcDbEntity
  8
0
  6
Continuous
 62
     7
370
    25
100
AcDbLine
 10
14.2064456417
 20
12.7919644655
 30
0.0
 11
14.2064456417
 21
12.8508932227
 31
0.0
  0
LINE
  5
293
330
1F
100
AcDbEntity
  8
0
  6
Continuous
 62
     7
370
    25
100
AcDbLine
 10
14.2506398156
 20
12.7369873334
 30
0.0
 11
14.2064456417
 21
12.7919644655
 31
0.0
  0
LINE
  5
294
330
1F
100
AcDbEntity
  8
0
  6
Continuous
 62
     7
370
    25
100
AcDbLine
 10
14.2948339894
 20
12.7409389585
 30
0.0
 11
14.2506398156
 21
12.7369873334
 31
0.0
  0
LINE
  5
295
330
1F
100
AcDbEntity
  8
0
  6
Continuous
 62
     7
370
    25
100
AcDbLine
 10
14.2948339894
 20
12.7998677157
 30
0.0
 11
14.2948339894
 21
12.7409389585
 31
0.0
  0
LINE
  5
296
330
1F
100
AcDbEntity
  8
0
  6
Continuous
 62
     7
370
    25
100
AcDbLine
 10
14.2506398156
 20
12.8548448478
 30
0.0
 11
14.2948339894
 21
12.7998677157
 31
0.0
  0
LINE
  5
297
330
1F
100
AcDbEntity
  8
0
  6
Continuous
 62
     7
370
    25
100
AcDbLine
 10
14.2064456417
 20
12.8508932227
 30
0.0
 11
14.2506398156
 21
12.8548448478
 31
0.0
  0
LWPOLYLINE
  5
298
330
1F
100
AcDbEntity
  8
0
  6
Continuous
 62
     7
370
    25
100
AcDbPolyline
 90
       32
 70
   128
 43
0.0
 10
14.105329372
 20
12.8798020241
 10
14.1083038854
 20
12.8443071562
 10
14.1171056484
 20
12.8068311524
 10
14.1313743159
 20
12.7689082847
 10
14.150525727
 20
12.7320911197
 10
14.1737758206
 20
12.6978869565
 10
14.2001727352
 20
12.6676961176
 10
14.2286357781
 20
12.6427546195
 10
14.2579996688
 20
12.62408357
 10
14.2870622462
 20
12.612447364
 10
14.3146336851
 20
12.6083223893
 10
14.3395852074
 20
12.6118775228
 10
14.3608952949
 20
12.6229672169
 10
14.3776915102
 20
12.6411374581
 10
14.3892862141
 20
12.6656443548
 10
14.3952047182
 20
12.6954845916
 10
14.3952047182
 20
12.7294365058
 10
14.3892862141
 20
12.7661101021
 10
14.3776915102
 20
12.804003959
 10
14.3608952949
 20
12.8415666976
 10
14.3395852074
 20
12.877260495
 10
14.3146336851
 20
12.9096240429
 10
14.2870622462
 20
12.9373323739
 10
14.2579996688
 20
12.9592511057
 10
14.2286357781
 20
12.9744828827
 10
14.2001727352
 20
12.9824041143
 10
14.1737758206
 20
12.9826905043
 10
14.150525727
 20
12.9753303279
 10
14.1313743159
 20
12.9606249115
 10
14.1171056484
 20
12.9391762966
 10
14.1083038854
 20
12.9118625921
 10
14.105329372
 20
12.8798020241
  0
LWPOLYLINE
  5
299
330
1F
100
AcDbEntity
  8
0
  6
Continuous
 62
     7
370
    25
100
AcDbPolyline
 90
       18
 70
   128
 43
0.0
 10
14.3569169993
 20
12.6199840697
 10
14.3644308288
 20
12.6250082371
 10
14.3812270441
 20
12.6431784784
 10
14.392821748
 20
12.6676853751
 10
14.3987402521
 20
12.6975256119
 10
14.3987402521
 20
12.7314775261
 10
14.392821748
 20
12.7681511223
 10
14.3812270441
 20
12.8060449792
 10
14.3644308288
 20
12.8436077179
 10
14.3431207413
 20
12.8793015153
 10
14.318169219
 20
12.9116650632
 10
14.2905977801
 20
12.9393733942
 10
14.2615352027
 20
12.961292126
 10
14.232171312
 20
12.976523903
 10
14.2037082691
 20
12.9844451346
 10
14.1773113545
 20
12.9847315246
 10
14.1540612609
 20
12.9773713481
 10
14.1514336997
 20
12.9759301521
  0
LINE
  5
29A
330
1F
100
AcDbEntity
  8
0
  6
Continuous
 62
     7
370
    25
100
AcDbLine
 10
14.2900610186
 20
12.7999896523
 30
0.0
 11
14.2948339894
 21
12.7944815213
 31
0.0
  0
ARC
  5
29B
330
1F
100
AcDbEntity
  8
0
  6
Continuous
 62
     7
370
    25
100
AcDbCircle
 10
14.3736202955
 20
12.8669281205
 30
0.0
 40
0.1070649861853436
100
AcDbArc
 50
203.8035782277
 51
218.6978549682
  0
LINE
  5
29C
330
1F
100
AcDbEntity
  8
0
  6
Continuous
 62
     7
370
    25
100
AcDbLine
 10
14.2948339894
 20
12.7625000869
 30
0.0
 11
14.2506398156
 21
12.7369873334
 31
0.0
  0
LINE
  5
29D
330
1F
100
AcDbEntity
  8
0
  6
Continuous
 62
     7
370
    25
100
AcDbLine
 10
14.2679639317
 20
12.8274782184
 30
0.0
 11
14.2679639317
 21
12.833293812
 31
0.0
  0
LINE
  5
29E
330
1F
100
AcDbEntity
  8
0
  6
Continuous
 62
     7
370
    25
100
AcDbLine
 10
14.2679639317
 20
12.8274782184
 30
0.0
 11
14.2064456417
 21
12.7919644655
 31
0.0
  0
LINE
  5
29F
330
1F
100
AcDbEntity
  8
0
  6
Continuous
 62
     7
370
    25
100
AcDbLine
 10
14.2900610186
 20
12.7999896523
 30
0.0
 11
14.2679639317
 21
12.8274782184
 31
0.0
  0
LINE
  5
2A0
330
1F
100
AcDbEntity
  8
0
  6
Continuous
 62
     7
370
    25
100
AcDbLine
 10
14.2948339894
 20
12.7940521221
 30
0.0
 11
14.2900610186
 21
12.7999896523
 31
0.0
  0
LWPOLYLINE
  5
2A1
330
1F
100
AcDbEntity
  8
0
  6
Continuous
 62
     7
370
    25
100
AcDbPolyline
 90
        3
 70
   128
 43
0.0
 10
15.6829377641
 20
12.7562010937
 10
15.6795410495
 20
12.7979867778
 10
15.6723311624
 20
12.8319698685
  0
LINE
  5
2A2
330
1F
100
AcDbEntity
  8
0
  6
Continuous
 62
     7
370
    25
100
AcDbLine
 10
15.6829377641
 20
9.3838875406
 30
0.0
 11
15.6829377641
 21
12.7562010937
 31
0.0
  0
LWPOLYLINE
  5
2A3
330
1F
100
AcDbEntity
  8
0
  6
Continuous
 62
     7
370
    25
100
AcDbPolyline
 90
        3
 70
   128
 43
0.0
 10
15.6723311624
 20
9.3203648874
 10
15.6795410495
 20
9.3460236197
 10
15.6829377641
 20
9.3838875406
  0
LINE
  5
2A4
330
1F
100
AcDbEntity
  8
0
  6
Continuous
 62
     7
370
    25
100
AcDbLine
 10
14.6710038607
 20
11.7339626745
 30
0.0
 11
14.6311164271
 21
11.6843430863
 31
0.0
  0
LINE
  5
2A5
330
1F
100
AcDbEntity
  8
0
  6
Continuous
 62
     7
370
    25
100
AcDbLine
 10
14.6710038607
 20
11.5808612723
 30
0.0
 11
14.6311164271
 21
11.5312416841
 31
0.0
  0
LINE
  5
2A6
330
1F
100
AcDbEntity
  8
0
  6
Continuous
 62
     7
370
    25
100
AcDbLine
 10
13.9340894462
 20
12.1887957989
 30
0.0
 11
13.8780477051
 21
12.1190804058
 31
0.0
  0
LINE
  5
2A7
330
1F
100
AcDbEntity
  8
0
  6
Continuous
 62
     7
370
    25
100
AcDbLine
 10
14.6710038607
 20
11.4277598701
 30
0.0
 11
14.6311164271
 21
11.3781402818
 31
0.0
  0
LINE
  5
2A8
330
1F
100
AcDbEntity
  8
0
  6
Continuous
 62
     7
370
    25
100
AcDbLine
 10
13.9340894462
 20
12.0356943966
 30
0.0
 11
13.8780477051
 21
11.9659790036
 31
0.0
  0
LINE
  5
2A9
330
1F
100
AcDbEntity
  8
0
  6
Continuous
 62
     7
370
    25
100
AcDbLine
 10
14.6710038607
 20
11.2746584678
 30
0.0
 11
14.6311164271
 21
11.2250388796
 31
0.0
  0
LINE
  5
2AA
330
1F
100
AcDbEntity
  8
0
  6
Continuous
 62
     7
370
    25
100
AcDbLine
 10
13.9340894462
 20
11.8825929944
 30
0.0
 11
13.8780477051
 21
11.8128776014
 31
0.0
  0
LINE
  5
2AB
330
1F
100
AcDbEntity
  8
0
  6
Continuous
 62
     7
370
    25
100
AcDbLine
 10
14.6710038607
 20
11.1215570656
 30
0.0
 11
14.6311164271
 21
11.0719374774
 31
0.0
  0
LINE
  5
2AC
330
1F
100
AcDbEntity
  8
0
  6
Continuous
 62
     7
370
    25
100
AcDbLine
 10
13.9340894462
 20
11.7294915922
 30
0.0
 11
13.8780477051
 21
11.6597761992
 31
0.0
  0
LINE
  5
2AD
330
1F
100
AcDbEntity
  8
0
  6
Continuous
 62
     7
370
    25
100
AcDbLine
 10
14.6710038607
 20
10.9684556634
 30
0.0
 11
14.6311164271
 21
10.9188360751
 31
0.0
  0
LINE
  5
2AE
330
1F
100
AcDbEntity
  8
0
  6
Continuous
 62
     7
370
    25
100
AcDbLine
 10
13.9340894462
 20
11.57639019
 30
0.0
 11
13.8780477051
 21
11.5066747969
 31
0.0
  0
LINE
  5
2AF
330
1F
100
AcDbEntity
  8
0
  6
Continuous
 62
     7
370
    25
100
AcDbLine
 10
14.6710038607
 20
10.8153542611
 30
0.0
 11
14.6311164271
 21
10.7657346729
 31
0.0
  0
LINE
  5
2B0
330
1F
100
AcDbEntity
  8
0
  6
Continuous
 62
     7
370
    25
100
AcDbLine
 10
13.9340894462
 20
11.4232887877
 30
0.0
 11
13.8780477051
 21
11.3535733947
 31
0.0
  0
LINE
  5
2B1
330
1F
100
AcDbEntity
  8
0
  6
Continuous
 62
     7
370
    25
100
AcDbLine
 10
14.6710038607
 20
10.6622528589
 30
0.0
 11
14.6311164271
 21
10.6126332707
 31
0.0
  0
LINE
  5
2B2
330
1F
100
AcDbEntity
  8
0
  6
Continuous
 62
     7
370
    25
100
AcDbLine
 10
13.9340894462
 20
11.2701873855
 30
0.0
 11
13.8780477051
 21
11.2004719925
 31
0.0
  0
LINE
  5
2B3
330
1F
100
AcDbEntity
  8
0
  6
Continuous
 62
     7
370
    25
100
AcDbLine
 10
14.6710038607
 20
10.5091514567
 30
0.0
 11
14.6311164271
 21
10.4595318685
 31
0.0
  0
LINE
  5
2B4
330
1F
100
AcDbEntity
  8
0
  6
Continuous
 62
     7
370
    25
100
AcDbLine
 10
13.9340894462
 20
11.1170859833
 30
0.0
 11
13.8780477051
 21
11.0473705902
 31
0.0
  0
LINE
  5
2B5
330
1F
100
AcDbEntity
  8
0
  6
Continuous
 62
     7
370
    25
100
AcDbLine
 10
13.9340894462
 20
10.963984581
 30
0.0
 11
13.8780477051
 21
10.894269188
 31
0.0
  0
LINE
  5
2B6
330
1F
100
AcDbEntity
  8
0
  6
Continuous
 62
     7
370
    25
100
AcDbLine
 10
17.4052202127
 20
13.9913191939
 30
0.0
 11
16.2313810587
 21
13.3610115915
 31
0.0
  0
LINE
  5
2B7
330
1F
100
AcDbEntity
  8
0
  6
Continuous
 62
     7
370
    25
100
AcDbLine
 10
17.4052202127
 20
13.9913191939
 30
0.0
 11
16.2794385383
 21
13.2943868475
 31
0.0
  0
LINE
  5
2B8
330
1F
100
AcDbEntity
  8
0
  6
Continuous
 62
     7
370
    25
100
AcDbLine
 10
17.4052202127
 20
10.3087201323
 30
0.0
 11
16.2794385383
 21
9.6117877859
 31
0.0
  0
LINE
  5
2B9
330
1F
100
AcDbEntity
  8
0
  6
Continuous
 62
     7
370
    25
100
AcDbLine
 10
15.4748187
 20
15.1057162666
 30
0.0
 11
14.300979546
 21
14.4754086641
 31
0.0
  0
LINE
  5
2BA
330
1F
100
AcDbEntity
  8
0
  6
Continuous
 62
     7
370
    25
100
AcDbLine
 10
15.6723311624
 20
12.7500780328
 30
0.0
 11
15.6829377641
 21
12.7562010937
 31
0.0
  0
LINE
  5
2BB
330
1F
100
AcDbEntity
  8
0
  6
Continuous
 62
     7
370
    25
100
AcDbLine
 10
15.6723311624
 20
9.3777644797
 30
0.0
 11
15.6829377641
 21
9.3838875406
 31
0.0
  0
MTEXT
  5
2BC
330
1F
100
AcDbEntity
  8
0
  6
Continuous
 62
     7
370
     0
100
AcDbMText
 10
12.8358658386
 20
15.9012125682
 30
0.0
 40
0.25
 41
0.0
 71
     2
 72
     1
  1
5X 1/2" NPT
  7
SLDTEXTSTYLE0
 73
     1
 44
1.0
  0
MTEXT
  5
2BD
330
1F
100
AcDbEntity
  8
0
  6
Continuous
 62
     7
370
     0
100
AcDbMText
 10
12.8455879592
 20
15.5724724192
 30
0.0
 40
0.25
 41
0.0
 71
     2
 72
     1
  1
CONDUIT ENTRIES
  7
SLDTEXTSTYLE0
 73
     1
 44
1.0
  0
LEADER
  5
2BE
330
1F
100
AcDbEntity
  8
0
  6
Continuous
 62
     7
370
     0
100
AcDbLeader
  3
SLDDIMSTYLE4
 76
     3
 10
15.3661078556
 20
14.85986779
 30
0.0
 10
14.7724045251
 20
15.4442613985
 30
0.0
 10
14.2724045251
 20
15.4442613985
 30
0.0
  0
ARC
  5
2BF
330
1F
100
AcDbEntity
  8
0
  6
Continuous
 62
     7
370
    25
100
AcDbCircle
 10
5.8830639045
 20
11.8154903087
 30
0.0
 40
0.1250000004097044
100
AcDbArc
 50
295.7814061433
 51
343.3072043244
  0
SPLINE
  5
2C0
330
1F
100
AcDbEntity
  8
0
  6
Continuous
 62
     7
370
    25
100
AcDbSpline
210
0.0
220
0.0
230
1.0
 70
    24
 71
     3
 72
     9
 73
     5
 74
     0
 42
0.00000001
 43
0.00000001
 40
0.0
 40
0.0
 40
0.0
 40
0.0
 40
0.4954579638440888
 40
1.0
 40
1.0
 40
1.0
 40
1.0
 10
5.982066465132331
 20
11.71045780726199
 30
0.0
 10
5.985433070463809
 20
11.72168441573623
 30
0.0
 10
5.992228006819975
 20
11.74434346916459
 30
0.0
 10
5.999252221006827
 20
11.76776709467165
 30
0.0
 10
6.002796232335058
 20
11.77958529837914
 30
0.0
  0
LINE
  5
2C1
330
1F
100
AcDbEntity
  8
0
  6
Continuous
 62
     7
370
    25
100
AcDbLine
 10
5.9381104658
 20
11.7000612132
 30
0.0
 11
5.9820664651
 21
11.7104578073
 31
0.0
  0
LINE
  5
2C2
330
1F
100
AcDbEntity
  8
0
  6
Continuous
 62
     7
370
    25
100
AcDbLine
 10
5.9381104658
 20
11.7000612132
 30
0.0
 11
5.9374312671
 21
11.7029328128
 31
0.0
  0
LINE
  5
2C3
330
1F
100
AcDbEntity
  8
0
  6
Continuous
 62
     7
370
    25
100
AcDbLine
 10
5.8811848089
 20
11.7061314516
 30
0.0
 11
5.8848811705
 21
11.6905035192
 31
0.0
  0
ARC
  5
2C4
330
1F
100
AcDbEntity
  8
0
  6
Continuous
 62
     7
370
    25
100
AcDbCircle
 10
5.8830639045
 20
11.8154903087
 30
0.0
 40
0.1250000004096758
100
AcDbArc
 50
223.3072045412
 51
270.8330027223
  0
ARC
  5
2C5
330
1F
100
AcDbEntity
  8
0
  6
Continuous
 62
     7
370
    25
100
AcDbCircle
 10
5.8830639045
 20
11.8154903087
 30
0.0
 40
0.1250000004096758
100
AcDbArc
 50
163.3072043244
 51
223.3072045412
  0
ARC
  5
2C6
330
1F
100
AcDbEntity
  8
0
  6
Continuous
 62
     7
370
    25
100
AcDbCircle
 10
5.8830639045
 20
11.8154903087
 30
0.0
 40
0.1250000004096464
100
AcDbArc
 50
115.7814061433
 51
163.3072043244
  0
LINE
  5
2C7
330
1F
100
AcDbEntity
  8
0
  6
Continuous
 62
     7
370
    25
100
AcDbLine
 10
5.8286965418
 20
11.9280478046
 30
0.0
 11
5.8323929034
 21
11.9124198722
 31
0.0
  0
ARC
  5
2C8
330
1F
100
AcDbEntity
  8
0
  6
Continuous
 62
     7
370
    25
100
AcDbCircle
 10
5.8830639045
 20
11.8154903087
 30
0.0
 40
0.109375000000025
100
AcDbArc
 50
117.5988161346
 51
269.015592731
  0
LINE
  5
2C9
330
1F
100
AcDbEntity
  8
0
  6
Continuous
 62
     7
370
    25
100
AcDbLine
 10
5.8849430001
 20
11.9248491658
 30
0.0
 11
5.8812466385
 21
11.9404770982
 31
0.0
  0
ARC
  5
2CA
330
1F
100
AcDbEntity
  8
0
  6
Continuous
 62
     7
370
    25
100
AcDbCircle
 10
5.8830639045
 20
11.8154903087
 30
0.0
 40
0.1250000004096833
100
AcDbArc
 50
43.3072045412
 51
90.8330027223
  0
ARC
  5
2CB
330
1F
100
AcDbEntity
  8
0
  6
Continuous
 62
     7
370
    25
100
AcDbCircle
 10
5.8830639045
 20
11.8154903087
 30
0.0
 40
0.1250000004097044
100
AcDbArc
 50
343.3072043244
 51
43.3072045412
  0
LINE
  5
2CC
330
1F
100
AcDbEntity
  8
0
  6
Continuous
 62
     7
370
    25
100
AcDbLine
 10
5.9374312671
 20
11.7029328128
 30
0.0
 11
5.9337349055
 21
11.7185607452
 31
0.0
  0
ARC
  5
2CD
330
1F
100
AcDbEntity
  8
0
  6
Continuous
 62
     7
370
    25
100
AcDbCircle
 10
5.8830639045
 20
11.8154903087
 30
0.0
 40
0.1093750000000441
100
AcDbArc
 50
297.5988161346
 51
89.015592731
  0
SPLINE
  5
2CE
330
1F
100
AcDbEntity
  8
0
  6
Continuous
 62
     7
370
    25
100
AcDbSpline
210
0.0
220
0.0
230
1.0
 70
    24
 71
     3
 72
     9
 73
     5
 74
     0
 42
0.00000001
 43
0.00000001
 40
0.0
 40
0.0
 40
0.0
 40
0.0
 40
0.4954579637694506
 40
0.9999999999999999
 40
0.9999999999999999
 40
0.9999999999999999
 40
0.9999999999999999
 10
6.023525999809549
 20
11.84871279040255
 30
0.0
 10
6.015486774204626
 20
11.85724166045836
 30
0.0
 10
5.999260926215907
 20
11.87445577483228
 30
0.0
 10
5.982487578278572
 20
11.89225073568905
 30
0.0
 10
5.974024719155867
 20
11.90122904147437
 30
0.0
  0
SPLINE
  5
2CF
330
1F
100
AcDbEntity
  8
0
  6
Continuous
 62
     7
370
    25
100
AcDbSpline
210
0.0
220
0.0
230
1.0
 70
    24
 71
     3
 72
    10
 73
     6
 74
     0
 42
0.00000001
 43
0.00000001
 40
0.0
 40
0.0
 40
0.0
 40
0.0
 40
0.07002745635327
 40
0.5307521426902455
 40
1.0
 40
1.0
 40
1.0
 40
1.0
 10
6.002796232335058
 20
11.77958529837914
 30
0.0
 10
6.003287155926984
 20
11.78122237977555
 30
0.0
 10
6.00700796433386
 20
11.79363014815892
 30
0.0
 10
6.014023805956842
 20
11.81702585370331
 30
0.0
 10
6.020339308061718
 20
11.83808613920403
 30
0.0
 10
6.023525999809549
 20
11.84871279040255
 30
0.0
  0
SPLINE
  5
2D0
330
1F
100
AcDbEntity
  8
0
  6
Continuous
 62
     7
370
    25
100
AcDbSpline
210
0.0
220
0.0
230
1.0
 70
    24
 71
     3
 72
     9
 73
     5
 74
     0
 42
0.00000001
 43
0.00000001
 40
0.0
 40
0.0
 40
0.0
 40
0.0
 40
0.4078861665961656
 40
1.0
 40
1.0
 40
1.0
 40
1.0
 10
5.84160436979673
 20
11.67723532557652
 30
0.0
 10
5.847499103073747
 20
11.67862956412801
 30
0.0
 10
5.861951010884712
 20
11.68204776917065
 30
0.0
 10
5.876779949461923
 20
11.68555515056856
 30
0.0
 10
5.885560369128186
 20
11.68763191961329
 30
0.0
  0
SPLINE
  5
2D1
330
1F
100
AcDbEntity
  8
0
  6
Continuous
 62
     7
370
    25
100
AcDbSpline
210
0.0
220
0.0
230
1.0
 70
    24
 71
     3
 72
    10
 73
     6
 74
     0
 42
0.00000001
 43
0.00000001
 40
0.0
 40
0.0
 40
0.0
 40
0.0
 40
0.0700274472314775
 40
0.5307521380675458
 40
1.0
 40
1.0
 40
1.0
 40
1.0
 10
5.792103089791983
 20
11.72975157595989
 30
0.0
 10
5.793275381909627
 20
11.72850788314291
 30
0.0
 10
5.80216042016931
 20
11.71908168459068
 30
0.0
 10
5.818913774547361
 20
11.70130793503934
 30
0.0
 10
5.833994765766605
 20
11.68530840713171
 30
0.0
 10
5.84160436979673
 20
11.67723532557652
 30
0.0
  0
LINE
  5
2D2
330
1F
100
AcDbEntity
  8
0
  6
Continuous
 62
     7
370
    25
100
AcDbLine
 10
5.8848811705
 20
11.6905035192
 30
0.0
 11
5.8855603691
 21
11.6876319196
 31
0.0
  0
LINE
  5
2D3
330
1F
100
AcDbEntity
  8
0
  6
Continuous
 62
     7
370
    25
100
AcDbLine
 10
5.9245234392
 20
11.9537452919
 30
0.0
 11
5.8805674398
 21
11.9433486978
 31
0.0
  0
SPLINE
  5
2D4
330
1F
100
AcDbEntity
  8
0
  6
Continuous
 62
     7
370
    25
100
AcDbSpline
210
0.0
220
0.0
230
1.0
 70
    24
 71
     3
 72
    10
 73
     6
 74
     0
 42
0.00000001
 43
0.00000001
 40
0.0
 40
0.0
 40
0.0
 40
0.0
 40
0.0700274472315523
 40
0.5307521380675454
 40
1.0
 40
1.0
 40
1.0
 40
1.0
 10
5.974024719155867
 20
11.90122904147437
 30
0.0
 10
5.972852427038223
 20
11.90247273429135
 30
0.0
 10
5.963967388778545
 20
11.91189893284358
 30
0.0
 10
5.947214034400475
 20
11.92967268239491
 30
0.0
 10
5.932133043181243
 20
11.94567221030254
 30
0.0
 10
5.924523439151125
 20
11.95374529185773
 30
0.0
  0
LINE
  5
2D5
330
1F
100
AcDbEntity
  8
0
  6
Continuous
 62
     7
370
    25
100
AcDbLine
 10
5.8812466385
 20
11.9404770982
 30
0.0
 11
5.8805674398
 21
11.9433486978
 31
0.0
  0
SPLINE
  5
2D6
330
1F
100
AcDbEntity
  8
0
  6
Continuous
 62
     7
370
    25
100
AcDbSpline
210
0.0
220
0.0
230
1.0
 70
    24
 71
     3
 72
     9
 73
     5
 74
     0
 42
0.00000001
 43
0.00000001
 40
0.0
 40
0.0
 40
0.0
 40
0.0
 40
0.4954579637694226
 40
1.0
 40
1.0
 40
1.0
 40
1.0
 10
5.742601809138286
 20
11.78226782703171
 30
0.0
 10
5.750641034743209
 20
11.7737389569759
 30
0.0
 10
5.76686688273193
 20
11.75652484260197
 30
0.0
 10
5.783640230669271
 20
11.7387298817452
 30
0.0
 10
5.792103089791983
 20
11.72975157595989
 30
0.0
  0
SPLINE
  5
2D7
330
1F
100
AcDbEntity
  8
0
  6
Continuous
 62
     7
370
    25
100
AcDbSpline
210
0.0
220
0.0
230
1.0
 70
    24
 71
     3
 72
    10
 73
     6
 74
     0
 42
0.00000001
 43
0.00000001
 40
0.0
 40
0.0
 40
0.0
 40
0.0
 40
0.0700274563525857
 40
0.5307521426899435
 40
1.0
 40
1.0
 40
1.0
 40
1.0
 10
5.763331576612778
 20
11.85139531905512
 30
0.0
 10
5.762840653020861
 20
11.84975823765872
 30
0.0
 10
5.759119844614007
 20
11.83735046927536
 30
0.0
 10
5.752104002990908
 20
11.813954763731
 30
0.0
 10
5.745788500886088
 20
11.79289447823025
 30
0.0
 10
5.742601809138286
 20
11.78226782703171
 30
0.0
  0
SPLINE
  5
2D8
330
1F
100
AcDbEntity
  8
0
  6
Continuous
 62
     7
370
    25
100
AcDbSpline
210
0.0
220
0.0
230
1.0
 70
    24
 71
     3
 72
     9
 73
     5
 74
     0
 42
0.00000001
 43
0.00000001
 40
0.0
 40
0.0
 40
0.0
 40
0.0
 40
0.4954579638440481
 40
1.0
 40
1.0
 40
1.0
 40
1.0
 10
5.784061343815487
 20
11.92052281017231
 30
0.0
 10
5.780694738483994
 20
11.90929620169806
 30
0.0
 10
5.773899802127795
 20
11.88663714826971
 30
0.0
 10
5.766875587940986
 20
11.86321352276262
 30
0.0
 10
5.763331576612778
 20
11.85139531905512
 30
0.0
  0
SPLINE
  5
2D9
330
1F
100
AcDbEntity
  8
0
  6
Continuous
 62
     7
370
    25
100
AcDbSpline
210
0.0
220
0.0
230
1.0
 70
    24
 71
     3
 72
     9
 73
     5
 74
     0
 42
0.00000001
 43
0.00000001
 40
0.0
 40
0.0
 40
0.0
 40
0.0
 40
0.5921138334028522
 40
1.0
 40
1.0
 40
1.0
 40
1.0
 10
5.828017343146979
 20
11.93091940420905
 30
0.0
 10
5.819236923480729
 20
11.92884263516432
 30
0.0
 10
5.804407984903516
 20
11.92533525376639
 30
0.0
 10
5.789956077092527
 20
11.92191704872378
 30
0.0
 10
5.784061343815487
 20
11.92052281017231
 30
0.0
  0
LINE
  5
2DA
330
1F
100
AcDbEntity
  8
0
  6
Continuous
 62
     7
370
    25
100
AcDbLine
 10
5.8280173431
 20
11.9309194042
 30
0.0
 11
5.8286965418
 21
11.9280478046
 31
0.0
  0
LINE
  5
2DB
330
1F
100
AcDbEntity
  8
0
  6
Continuous
 62
     7
370
    25
100
AcDbLine
 10
5.8849430001
 20
11.9248491658
 30
0.0
 11
5.9337349055
 21
11.7185607452
 31
0.0
  0
LINE
  5
2DC
330
1F
100
AcDbEntity
  8
0
  6
Continuous
 62
     7
370
    25
100
AcDbLine
 10
5.8811848089
 20
11.7061314516
 30
0.0
 11
5.8323929034
 21
11.9124198722
 31
0.0
  0
LINE
  5
2DD
330
1F
100
AcDbEntity
  8
0
  6
Continuous
 62
     7
370
    25
100
AcDbLine
 10
5.8805674398
 20
11.9433486978
 30
0.0
 11
5.8280173431
 21
11.9309194042
 31
0.0
  0
LINE
  5
2DE
330
1F
100
AcDbEntity
  8
0
  6
Continuous
 62
     7
370
    25
100
AcDbLine
 10
5.8855603691
 20
11.6876319196
 30
0.0
 11
5.9381104658
 21
11.7000612132
 31
0.0
  0
CIRCLE
  5
2DF
330
1F
100
AcDbEntity
  8
0
  6
Continuous
 62
     7
370
    25
100
AcDbCircle
 10
5.8830639045
 20
11.8154903087
 30
0.0
 40
0.1740000000000116
  0
CIRCLE
  5
2E0
330
1F
100
AcDbEntity
  8
0
  6
Continuous
 62
     7
370
    25
100
AcDbCircle
 10
6.7828543809
 20
14.2518403087
 30
0.0
 40
0.0625000000000009
  0
ARC
  5
2E1
330
1F
100
AcDbEntity
  8
0
  6
Continuous
 62
     7
370
    25
100
AcDbCircle
 10
7.7203543809
 20
14.2518403087
 30
0.0
 40
0.07
100
AcDbArc
 50
233.4383767636
 51
306.5615789793
  0
ARC
  5
2E2
330
1F
100
AcDbEntity
  8
0
  6
Continuous
 62
     7
370
    25
100
AcDbCircle
 10
5.8453543809
 20
14.2518403087
 30
0.0
 40
0.0700000000000014
100
AcDbArc
 50
233.4380231216
 51
306.5619562444
  0
ELLIPSE
  5
2E3
330
1F
100
AcDbEntity
  8
0
  6
Continuous
 62
     7
370
    25
100
AcDbEllipse
 10
6.0578543809
 20
10.9958550605
 30
0.0
 11
0.3125
 21
0.0
 31
0.0
210
0.0
220
0.0
230
1.0
 40
0.0349207695
 41
2.225929127297318
 42
2.441453727325579
  0
ELLIPSE
  5
2E4
330
1F
100
AcDbEntity
  8
0
  6
Continuous
 62
     7
370
    25
100
AcDbEllipse
 10
6.0578543809
 20
10.9958550605
 30
0.0
 11
0.3125
 21
0.0
 31
0.0
210
0.0
220
0.0
230
1.0
 40
0.0349207695
 41
3.731426078837695
 42
4.167561680899256
  0
ELLIPSE
  5
2E5
330
1F
100
AcDbEntity
  8
0
  6
Continuous
 62
     7
370
    25
100
AcDbEllipse
 10
7.5078543809
 20
10.9958550605
 30
0.0
 11
0.3125
 21
0.0
 31
0.0
210
0.0
220
0.0
230
1.0
 40
0.0349207695
 41
5.257216279870326
 42
5.693351881932213
  0
ELLIPSE
  5
2E6
330
1F
100
AcDbEntity
  8
0
  6
Continuous
 62
     7
370
    25
100
AcDbEllipse
 10
7.5078543809
 20
10.9958550605
 30
0.0
 11
0.3125
 21
0.0
 31
0.0
210
0.0
220
0.0
230
1.0
 40
0.0349207695
 41
0.7001389262642471
 42
0.9156635262924884
  0
ELLIPSE
  5
2E7
330
1F
100
AcDbEntity
  8
0
  6
Continuous
 62
     7
370
    25
100
AcDbEllipse
 10
6.0578543809
 20
10.9958030803
 30
0.0
 11
0.568038865453504
 21
0.0
 31
0.0
210
0.0
220
0.0
230
1.0
 40
0.0349207955
 41
4.217528949903731
 42
4.43762902168247
  0
ELLIPSE
  5
2E8
330
1F
100
AcDbEntity
  8
0
  6
Continuous
 62
     7
370
    25
100
AcDbEllipse
 10
7.5078543809
 20
10.9958030803
 30
0.0
 11
0.568038865453504
 21
0.0
 31
0.0
210
0.0
220
0.0
230
1.0
 40
0.0349207955
 41
4.987148939057599
 42
5.207249010897876
  0
ELLIPSE
  5
2E9
330
1F
100
AcDbEntity
  8
0
  6
Continuous
 62
     7
370
    25
100
AcDbEllipse
 10
6.0578543809
 20
14.1953255569
 30
0.0
 11
0.3125
 21
0.0
 31
0.0
210
0.0
220
0.0
230
1.0
 40
0.0349207695
 41
3.824214959665281
 42
4.071890184360896
  0
ELLIPSE
  5
2EA
330
1F
100
AcDbEntity
  8
0
  6
Continuous
 62
     7
370
    25
100
AcDbEllipse
 10
6.0578543809
 20
14.1953255569
 30
0.0
 11
0.3125
 21
0.0
 31
0.0
210
0.0
220
0.0
230
1.0
 40
0.0349207695
 41
2.112005568479102
 42
2.558259901854894
  0
ELLIPSE
  5
2EB
330
1F
100
AcDbEntity
  8
0
  6
Continuous
 62
     7
370
    25
100
AcDbEllipse
 10
7.5078543809
 20
14.1953255569
 30
0.0
 11
0.3125
 21
0.0
 31
0.0
210
0.0
220
0.0
230
1.0
 40
0.0349207695
 41
0.5833327517348664
 42
1.029587085110912
  0
ELLIPSE
  5
2EC
330
1F
100
AcDbEntity
  8
0
  6
Continuous
 62
     7
370
    25
100
AcDbEllipse
 10
7.5078543809
 20
14.1953255569
 30
0.0
 11
0.3125
 21
0.0
 31
0.0
210
0.0
220
0.0
230
1.0
 40
0.0349207695
 41
5.352887776408466
 42
5.60056300110492
  0
ELLIPSE
  5
2ED
330
1F
100
AcDbEntity
  8
0
  6
Continuous
 62
     7
370
    25
100
AcDbEllipse
 10
6.0578543809
 20
14.1953775371
 30
0.0
 11
0.568038865453504
 21
0.0
 31
0.0
210
0.0
220
0.0
230
1.0
 40
0.0349207955
 41
1.844804857369539
 42
2.066619209700871
  0
ELLIPSE
  5
2EE
330
1F
100
AcDbEntity
  8
0
  6
Continuous
 62
     7
370
    25
100
AcDbEllipse
 10
7.5078543809
 20
14.1953775371
 30
0.0
 11
0.568038865453504
 21
0.0
 31
0.0
210
0.0
220
0.0
230
1.0
 40
0.0349207955
 41
1.074973443776849
 42
1.296787796322769
  0
LINE
  5
2EF
330
1F
100
AcDbEntity
  8
0
  6
Continuous
 62
     7
370
    25
100
AcDbLine
 10
5.7621259452
 20
11.9405903087
 30
0.0
 11
5.5828543809
 21
11.9405903087
 31
0.0
  0
LINE
  5
2F0
330
1F
100
AcDbEntity
  8
0
  6
Continuous
 62
     7
370
    25
100
AcDbLine
 10
5.5828543809
 20
11.6905903087
 30
0.0
 11
5.761919404
 21
11.6905903087
 31
0.0
  0
CIRCLE
  5
2F1
330
1F
100
AcDbEntity
  8
0
  6
Continuous
 62
     7
370
    25
100
AcDbCircle
 10
6.7828543809
 20
12.5955903087
 30
0.0
 40
0.5249999999999995
  0
CIRCLE
  5
2F2
330
1F
100
AcDbEntity
  8
0
  6
Continuous
 62
     7
370
    25
100
AcDbCircle
 10
6.7828543809
 20
12.5955903087
 30
0.0
 40
0.5197618845762371
  0
CIRCLE
  5
2F3
330
1F
100
AcDbEntity
  8
0
  6
Continuous
 62
     7
370
    25
100
AcDbCircle
 10
6.7828543809
 20
12.5955903087
 30
0.0
 40
0.4249999999999998
  0
CIRCLE
  5
2F4
330
1F
100
AcDbEntity
  8
0
  6
Continuous
 62
     7
370
    25
100
AcDbCircle
 10
6.7828543809
 20
10.9393403087
 30
0.0
 40
0.0625
  0
LINE
  5
2F5
330
1F
100
AcDbEntity
  8
0
  6
Continuous
 62
     7
370
    25
100
AcDbLine
 10
7.6601677883
 20
10.6275903087
 30
0.0
 11
7.9055409735
 21
10.6275903087
 31
0.0
  0
ARC
  5
2F6
330
1F
100
AcDbEntity
  8
0
  6
Continuous
 62
     7
370
    25
100
AcDbCircle
 10
7.7828543809
 20
10.6455903087
 30
0.0
 40
0.1240000000000038
100
AcDbArc
 50
188.3466192632
 51
351.6533807368
  0
LINE
  5
2F7
330
1F
100
AcDbEntity
  8
0
  6
Continuous
 62
     7
370
    25
100
AcDbLine
 10
7.9055409735
 20
10.6635903087
 30
0.0
 11
7.6601677883
 21
10.6635903087
 31
0.0
  0
ARC
  5
2F8
330
1F
100
AcDbEntity
  8
0
  6
Continuous
 62
     7
370
    25
100
AcDbCircle
 10
7.7828543809
 20
10.6455903087
 30
0.0
 40
0.1240000000000027
100
AcDbArc
 50
8.3466192632
 51
171.6533807368
  0
ARC
  5
2F9
330
1F
100
AcDbEntity
  8
0
  6
Continuous
 62
     7
370
    25
100
AcDbCircle
 10
7.7828543809
 20
10.6455903087
 30
0.0
 40
0.0848820967982658
100
AcDbArc
 50
167.756966423
 51
192.243033577
  0
ARC
  5
2FA
330
1F
100
AcDbEntity
  8
0
  6
Continuous
 62
     7
370
    25
100
AcDbCircle
 10
7.7828543809
 20
10.6455903087
 30
0.0
 40
0.0848820967982709
100
AcDbArc
 50
347.756966423
 51
12.243033577
  0
LINE
  5
2FB
330
1F
100
AcDbEntity
  8
0
  6
Continuous
 62
     7
370
    25
100
AcDbLine
 10
7.6601677883
 20
14.5275903087
 30
0.0
 11
7.9055409735
 21
14.5275903087
 31
0.0
  0
ARC
  5
2FC
330
1F
100
AcDbEntity
  8
0
  6
Continuous
 62
     7
370
    25
100
AcDbCircle
 10
7.7828543809
 20
14.5455903087
 30
0.0
 40
0.1240000000000036
100
AcDbArc
 50
188.3466192632
 51
351.6533807368
  0
LINE
  5
2FD
330
1F
100
AcDbEntity
  8
0
  6
Continuous
 62
     7
370
    25
100
AcDbLine
 10
7.9055409735
 20
14.5635903087
 30
0.0
 11
7.6601677883
 21
14.5635903087
 31
0.0
  0
ARC
  5
2FE
330
1F
100
AcDbEntity
  8
0
  6
Continuous
 62
     7
370
    25
100
AcDbCircle
 10
7.7828543809
 20
14.5455903087
 30
0.0
 40
0.1240000000000027
100
AcDbArc
 50
8.3466192632
 51
171.6533807368
  0
ARC
  5
2FF
330
1F
100
AcDbEntity
  8
0
  6
Continuous
 62
     7
370
    25
100
AcDbCircle
 10
7.7828543809
 20
14.5455903087
 30
0.0
 40
0.0848820967982658
100
AcDbArc
 50
167.756966423
 51
192.243033577
  0
ARC
  5
300
330
1F
100
AcDbEntity
  8
0
  6
Continuous
 62
     7
370
    25
100
AcDbCircle
 10
7.7828543809
 20
14.5455903087
 30
0.0
 40
0.0848820967982702
100
AcDbArc
 50
347.756966423
 51
12.243033577
  0
LINE
  5
301
330
1F
100
AcDbEntity
  8
0
  6
Continuous
 62
     7
370
    25
100
AcDbLine
 10
5.6601677883
 20
14.5275903087
 30
0.0
 11
5.9055409735
 21
14.5275903087
 31
0.0
  0
ARC
  5
302
330
1F
100
AcDbEntity
  8
0
  6
Continuous
 62
     7
370
    25
100
AcDbCircle
 10
5.7828543809
 20
14.5455903087
 30
0.0
 40
0.1240000000000042
100
AcDbArc
 50
188.3466192632
 51
351.6533807368
  0
LINE
  5
303
330
1F
100
AcDbEntity
  8
0
  6
Continuous
 62
     7
370
    25
100
AcDbLine
 10
5.9055409735
 20
14.5635903087
 30
0.0
 11
5.6601677883
 21
14.5635903087
 31
0.0
  0
ARC
  5
304
330
1F
100
AcDbEntity
  8
0
  6
Continuous
 62
     7
370
    25
100
AcDbCircle
 10
5.7828543809
 20
14.5455903087
 30
0.0
 40
0.124000000000003
100
AcDbArc
 50
8.3466192632
 51
171.6533807368
  0
ARC
  5
305
330
1F
100
AcDbEntity
  8
0
  6
Continuous
 62
     7
370
    25
100
AcDbCircle
 10
5.7828543809
 20
14.5455903087
 30
0.0
 40
0.084882096798265
100
AcDbArc
 50
167.756966423
 51
192.243033577
  0
ARC
  5
306
330
1F
100
AcDbEntity
  8
0
  6
Continuous
 62
     7
370
    25
100
AcDbCircle
 10
5.7828543809
 20
14.5455903087
 30
0.0
 40
0.0848820967982711
100
AcDbArc
 50
347.756966423
 51
12.243033577
  0
LINE
  5
307
330
1F
100
AcDbEntity
  8
0
  6
Continuous
 62
     7
370
    25
100
AcDbLine
 10
5.6601677883
 20
10.6275903087
 30
0.0
 11
5.9055409735
 21
10.6275903087
 31
0.0
  0
ARC
  5
308
330
1F
100
AcDbEntity
  8
0
  6
Continuous
 62
     7
370
    25
100
AcDbCircle
 10
5.7828543809
 20
10.6455903087
 30
0.0
 40
0.1240000000000047
100
AcDbArc
 50
188.3466192632
 51
351.6533807368
  0
LINE
  5
309
330
1F
100
AcDbEntity
  8
0
  6
Continuous
 62
     7
370
    25
100
AcDbLine
 10
5.9055409735
 20
10.6635903087
 30
0.0
 11
5.6601677883
 21
10.6635903087
 31
0.0
  0
ARC
  5
30A
330
1F
100
AcDbEntity
  8
0
  6
Continuous
 62
     7
370
    25
100
AcDbCircle
 10
5.7828543809
 20
10.6455903087
 30
0.0
 40
0.1240000000000027
100
AcDbArc
 50
8.3466192632
 51
171.6533807368
  0
ARC
  5
30B
330
1F
100
AcDbEntity
  8
0
  6
Continuous
 62
     7
370
    25
100
AcDbCircle
 10
5.7828543809
 20
10.6455903087
 30
0.0
 40
0.0848820967982654
100
AcDbArc
 50
167.756966423
 51
192.243033577
  0
ARC
  5
30C
330
1F
100
AcDbEntity
  8
0
  6
Continuous
 62
     7
370
    25
100
AcDbCircle
 10
5.7828543809
 20
10.6455903087
 30
0.0
 40
0.0848820967982714
100
AcDbArc
 50
347.756966423
 51
12.243033577
  0
LINE
  5
30D
330
1F
100
AcDbEntity
  8
0
  6
Continuous
 62
     7
370
    25
100
AcDbLine
 10
5.398931952
 20
10.3216678798
 30
0.0
 11
5.4275686848
 21
10.3503046126
 31
0.0
  0
LINE
  5
30E
330
1F
100
AcDbEntity
  8
0
  6
Continuous
 62
     7
370
    25
100
AcDbLine
 10
8.138140077
 20
10.3503046126
 30
0.0
 11
5.4275686848
 21
10.3503046126
 31
0.0
  0
LINE
  5
30F
330
1F
100
AcDbEntity
  8
0
  6
Continuous
 62
     7
370
    25
100
AcDbLine
 10
8.1667768098
 20
10.3216678798
 30
0.0
 11
8.138140077
 21
10.3503046126
 31
0.0
  0
LINE
  5
310
330
1F
100
AcDbEntity
  8
0
  6
Continuous
 62
     7
370
    25
100
AcDbLine
 10
8.1774939643
 20
10.3213188848
 30
0.0
 11
8.1667768098
 21
10.3216678798
 31
0.0
  0
LINE
  5
311
330
1F
100
AcDbEntity
  8
0
  6
Continuous
 62
     7
370
    25
100
AcDbLine
 10
5.3882147974
 20
10.3213188848
 30
0.0
 11
8.1774939643
 21
10.3213188848
 31
0.0
  0
LINE
  5
312
330
1F
100
AcDbEntity
  8
0
  6
Continuous
 62
     7
370
    25
100
AcDbLine
 10
5.398931952
 20
10.3216678798
 30
0.0
 11
5.3882147974
 21
10.3213188848
 31
0.0
  0
LINE
  5
313
330
1F
100
AcDbEntity
  8
0
  6
Continuous
 62
     7
370
    25
100
AcDbLine
 10
8.138140077
 20
14.8408760048
 30
0.0
 11
8.138140077
 21
10.3503046126
 31
0.0
  0
LINE
  5
314
330
1F
100
AcDbEntity
  8
0
  6
Continuous
 62
     7
370
    25
100
AcDbLine
 10
8.1667768098
 20
14.8695127376
 30
0.0
 11
8.138140077
 21
14.8408760048
 31
0.0
  0
LINE
  5
315
330
1F
100
AcDbEntity
  8
0
  6
Continuous
 62
     7
370
    25
100
AcDbLine
 10
8.1667768098
 20
10.3216678798
 30
0.0
 11
8.1667768098
 21
14.8695127376
 31
0.0
  0
LINE
  5
316
330
1F
100
AcDbEntity
  8
0
  6
Continuous
 62
     7
370
    25
100
AcDbLine
 10
5.5225686848
 20
11.1305903087
 30
0.0
 11
5.5225686848
 21
10.4455903087
 31
0.0
  0
LINE
  5
317
330
1F
100
AcDbEntity
  8
0
  6
Continuous
 62
     7
370
    25
100
AcDbLine
 10
5.5225686848
 20
10.4455903087
 30
0.0
 11
8.043140077
 21
10.4455903087
 31
0.0
  0
LINE
  5
318
330
1F
100
AcDbEntity
  8
0
  6
Continuous
 62
     7
370
    25
100
AcDbLine
 10
8.043140077
 20
10.4455903087
 30
0.0
 11
8.043140077
 21
11.1305903087
 31
0.0
  0
LINE
  5
319
330
1F
100
AcDbEntity
  8
0
  6
Continuous
 62
     7
370
    25
100
AcDbLine
 10
8.043140077
 20
14.0605903087
 30
0.0
 11
8.043140077
 21
11.1305903087
 31
0.0
  0
LINE
  5
31A
330
1F
100
AcDbEntity
  8
0
  6
Continuous
 62
     7
370
    25
100
AcDbLine
 10
8.043140077
 20
14.0605903087
 30
0.0
 11
8.043140077
 21
14.7455903087
 31
0.0
  0
LINE
  5
31B
330
1F
100
AcDbEntity
  8
0
  6
Continuous
 62
     7
370
    25
100
AcDbLine
 10
8.043140077
 20
14.7455903087
 30
0.0
 11
5.5225686848
 21
14.7455903087
 31
0.0
  0
LINE
  5
31C
330
1F
100
AcDbEntity
  8
0
  6
Continuous
 62
     7
370
    25
100
AcDbLine
 10
5.5225686848
 20
14.7455903087
 30
0.0
 11
5.5225686848
 21
14.0605903087
 31
0.0
  0
LINE
  5
31D
330
1F
100
AcDbEntity
  8
0
  6
Continuous
 62
     7
370
    25
100
AcDbLine
 10
5.5225686848
 20
11.1305903087
 30
0.0
 11
5.5225686848
 21
14.0605903087
 31
0.0
  0
LINE
  5
31E
330
1F
100
AcDbEntity
  8
0
  6
Continuous
 62
     7
370
    25
100
AcDbLine
 10
5.4275686848
 20
10.3503046126
 30
0.0
 11
5.4275686848
 21
14.8408760048
 31
0.0
  0
LINE
  5
31F
330
1F
100
AcDbEntity
  8
0
  6
Continuous
 62
     7
370
    25
100
AcDbLine
 10
5.4275686848
 20
14.8408760048
 30
0.0
 11
8.138140077
 21
14.8408760048
 31
0.0
  0
LINE
  5
320
330
1F
100
AcDbEntity
  8
0
  6
Continuous
 62
     7
370
    25
100
AcDbLine
 10
5.398931952
 20
14.8695127376
 30
0.0
 11
5.398931952
 21
10.3216678798
 31
0.0
  0
LINE
  5
321
330
1F
100
AcDbEntity
  8
0
  6
Continuous
 62
     7
370
    25
100
AcDbLine
 10
5.398931952
 20
14.8695127376
 30
0.0
 11
5.4275686848
 21
14.8408760048
 31
0.0
  0
LINE
  5
322
330
1F
100
AcDbEntity
  8
0
  6
Continuous
 62
     7
370
    25
100
AcDbLine
 10
5.3882147974
 20
14.8698617326
 30
0.0
 11
5.398931952
 21
14.8695127376
 31
0.0
  0
LINE
  5
323
330
1F
100
AcDbEntity
  8
0
  6
Continuous
 62
     7
370
    25
100
AcDbLine
 10
8.1774939643
 20
14.8698617326
 30
0.0
 11
5.3882147974
 21
14.8698617326
 31
0.0
  0
LINE
  5
324
330
1F
100
AcDbEntity
  8
0
  6
Continuous
 62
     7
370
    25
100
AcDbLine
 10
8.1667768098
 20
14.8695127376
 30
0.0
 11
8.1774939643
 21
14.8698617326
 31
0.0
  0
CIRCLE
  5
325
330
1F
100
AcDbEntity
  8
0
  6
Continuous
 62
     7
370
    25
100
AcDbCircle
 10
7.7828543809
 20
10.6455903087
 30
0.0
 40
0.1395
  0
CIRCLE
  5
326
330
1F
100
AcDbEntity
  8
0
  6
Continuous
 62
     7
370
    25
100
AcDbCircle
 10
5.7828543809
 20
10.6455903087
 30
0.0
 40
0.1395
  0
CIRCLE
  5
327
330
1F
100
AcDbEntity
  8
0
  6
Continuous
 62
     7
370
    25
100
AcDbCircle
 10
6.7828543809
 20
10.6905903087
 30
0.0
 40
0.0979999999999999
  0
CIRCLE
  5
328
330
1F
100
AcDbEntity
  8
0
  6
Continuous
 62
     7
370
    25
100
AcDbCircle
 10
6.7828543809
 20
10.9405903087
 30
0.0
 40
0.069
  0
CIRCLE
  5
329
330
1F
100
AcDbEntity
  8
0
  6
Continuous
 62
     7
370
    25
100
AcDbCircle
 10
5.8453543809
 20
10.9405903087
 30
0.0
 40
0.069
  0
CIRCLE
  5
32A
330
1F
100
AcDbEntity
  8
0
  6
Continuous
 62
     7
370
    25
100
AcDbCircle
 10
7.7203543809
 20
10.9405903087
 30
0.0
 40
0.0689999999999991
  0
LINE
  5
32B
330
1F
100
AcDbEntity
  8
0
  6
Continuous
 62
     7
370
    25
100
AcDbLine
 10
5.5225686848
 20
11.1305903087
 30
0.0
 11
8.043140077
 21
11.1305903087
 31
0.0
  0
CIRCLE
  5
32C
330
1F
100
AcDbEntity
  8
0
  6
Continuous
 62
     7
370
    25
100
AcDbCircle
 10
5.7828543809
 20
14.5455903087
 30
0.0
 40
0.1395
  0
CIRCLE
  5
32D
330
1F
100
AcDbEntity
  8
0
  6
Continuous
 62
     7
370
    25
100
AcDbCircle
 10
7.7828543809
 20
14.5455903087
 30
0.0
 40
0.1395
  0
CIRCLE
  5
32E
330
1F
100
AcDbEntity
  8
0
  6
Continuous
 62
     7
370
    25
100
AcDbCircle
 10
6.7828543809
 20
14.5005903087
 30
0.0
 40
0.0979999999999999
  0
CIRCLE
  5
32F
330
1F
100
AcDbEntity
  8
0
  6
Continuous
 62
     7
370
    25
100
AcDbCircle
 10
5.8453543809
 20
14.2505903087
 30
0.0
 40
0.069
  0
CIRCLE
  5
330
330
1F
100
AcDbEntity
  8
0
  6
Continuous
 62
     7
370
    25
100
AcDbCircle
 10
6.7828543809
 20
14.2505903087
 30
0.0
 40
0.069
  0
CIRCLE
  5
331
330
1F
100
AcDbEntity
  8
0
  6
Continuous
 62
     7
370
    25
100
AcDbCircle
 10
7.7203543809
 20
14.2505903087
 30
0.0
 40
0.0689999999999991
  0
LINE
  5
332
330
1F
100
AcDbEntity
  8
0
  6
Continuous
 62
     7
370
    25
100
AcDbLine
 10
8.043140077
 20
14.0605903087
 30
0.0
 11
5.5225686848
 21
14.0605903087
 31
0.0
  0
LINE
  5
333
330
1F
100
AcDbEntity
  8
0
  6
Continuous
 62
     7
370
    25
100
AcDbLine
 10
8.252514046
 20
14.9448818142
 30
0.0
 11
8.1774939643
 21
14.8698617326
 31
0.0
  0
LINE
  5
334
330
1F
100
AcDbEntity
  8
0
  6
Continuous
 62
     7
370
    25
100
AcDbLine
 10
8.252514046
 20
14.9448818142
 30
0.0
 11
8.252514046
 21
10.2462988032
 31
0.0
  0
LINE
  5
335
330
1F
100
AcDbEntity
  8
0
  6
Continuous
 62
     7
370
    25
100
AcDbLine
 10
8.1774939643
 20
10.3213188848
 30
0.0
 11
8.252514046
 21
10.2462988032
 31
0.0
  0
LINE
  5
336
330
1F
100
AcDbEntity
  8
0
  6
Continuous
 62
     7
370
    25
100
AcDbLine
 10
5.3131947158
 20
10.2462988032
 30
0.0
 11
5.3882147974
 21
10.3213188848
 31
0.0
  0
LINE
  5
337
330
1F
100
AcDbEntity
  8
0
  6
Continuous
 62
     7
370
    25
100
AcDbLine
 10
5.3131947158
 20
10.2462988032
 30
0.0
 11
5.3131947158
 21
14.9448818142
 31
0.0
  0
LINE
  5
338
330
1F
100
AcDbEntity
  8
0
  6
Continuous
 62
     7
370
    25
100
AcDbLine
 10
5.3882147974
 20
14.8698617326
 30
0.0
 11
5.3131947158
 21
14.9448818142
 31
0.0
  0
LINE
  5
339
330
1F
100
AcDbEntity
  8
0
  6
Continuous
 62
     7
370
    25
100
AcDbLine
 10
8.252514046
 20
10.2462988032
 30
0.0
 11
5.3131947158
 21
10.2462988032
 31
0.0
  0
LINE
  5
33A
330
1F
100
AcDbEntity
  8
0
  6
Continuous
 62
     7
370
    25
100
AcDbLine
 10
5.3131947158
 20
14.9448818142
 30
0.0
 11
8.252514046
 21
14.9448818142
 31
0.0
  0
LINE
  5
33B
330
1F
100
AcDbEntity
  8
0
  6
Continuous
 62
     7
370
    25
100
AcDbLine
 10
8.2589338657
 20
14.9516697936
 30
0.0
 11
8.2545687696
 21
14.9473046974
 31
0.0
  0
LINE
  5
33C
330
1F
100
AcDbEntity
  8
0
  6
Continuous
 62
     7
370
    25
100
AcDbLine
 10
8.2589338657
 20
14.9516697936
 30
0.0
 11
8.2589338657
 21
10.2395108239
 31
0.0
  0
LINE
  5
33D
330
1F
100
AcDbEntity
  8
0
  6
Continuous
 62
     7
370
    25
100
AcDbLine
 10
8.2589338657
 20
10.2395108239
 30
0.0
 11
8.2545687696
 21
10.2438759201
 31
0.0
  0
LINE
  5
33E
330
1F
100
AcDbEntity
  8
0
  6
Continuous
 62
     7
370
    25
100
AcDbLine
 10
8.2545687696
 20
14.9473046974
 30
0.0
 11
8.2545687696
 21
10.2438759201
 31
0.0
  0
LINE
  5
33F
330
1F
100
AcDbEntity
  8
0
  6
Continuous
 62
     7
370
    25
100
AcDbLine
 10
8.2589338657
 20
10.2395108239
 30
0.0
 11
5.306774896
 21
10.2395108239
 31
0.0
  0
LINE
  5
340
330
1F
100
AcDbEntity
  8
0
  6
Continuous
 62
     7
370
    25
100
AcDbLine
 10
5.306774896
 20
10.2395108239
 30
0.0
 11
5.3111399922
 21
10.2438759201
 31
0.0
  0
LINE
  5
341
330
1F
100
AcDbEntity
  8
0
  6
Continuous
 62
     7
370
    25
100
AcDbLine
 10
8.2545687696
 20
10.2438759201
 30
0.0
 11
5.3111399922
 21
10.2438759201
 31
0.0
  0
LINE
  5
342
330
1F
100
AcDbEntity
  8
0
  6
Continuous
 62
     7
370
    25
100
AcDbLine
 10
5.3111399922
 20
10.2438759201
 30
0.0
 11
5.3111399922
 21
14.9473046974
 31
0.0
  0
LINE
  5
343
330
1F
100
AcDbEntity
  8
0
  6
Continuous
 62
     7
370
    25
100
AcDbLine
 10
5.3111399922
 20
14.9473046974
 30
0.0
 11
8.2545687696
 21
14.9473046974
 31
0.0
  0
LINE
  5
344
330
1F
100
AcDbEntity
  8
0
  6
Continuous
 62
     7
370
    25
100
AcDbLine
 10
5.306774896
 20
10.2395108239
 30
0.0
 11
5.306774896
 21
14.9516697936
 31
0.0
  0
LINE
  5
345
330
1F
100
AcDbEntity
  8
0
  6
Continuous
 62
     7
370
    25
100
AcDbLine
 10
5.306774896
 20
14.9516697936
 30
0.0
 11
5.3111399922
 21
14.9473046974
 31
0.0
  0
LINE
  5
346
330
1F
100
AcDbEntity
  8
0
  6
Continuous
 62
     7
370
    25
100
AcDbLine
 10
5.306774896
 20
14.9516697936
 30
0.0
 11
8.2589338657
 21
14.9516697936
 31
0.0
  0
CIRCLE
  5
347
330
1F
100
AcDbEntity
  8
0
  6
Continuous
 62
     7
370
    25
100
AcDbCircle
 10
6.7828543809
 20
10.6880903087
 30
0.0
 40
0.0700000000000003
  0
CIRCLE
  5
348
330
1F
100
AcDbEntity
  8
0
  6
Continuous
 62
     7
370
    25
100
AcDbCircle
 10
6.7828543809
 20
14.5005903087
 30
0.0
 40
0.0700000000000003
  0
ARC
  5
349
330
1F
100
AcDbEntity
  8
0
  6
Continuous
 62
     7
370
    25
100
AcDbCircle
 10
7.7203543809
 20
10.9380903087
 30
0.0
 40
0.0699999999999992
100
AcDbArc
 50
24.5193230197
 51
155.480678538
  0
ARC
  5
34A
330
1F
100
AcDbEntity
  8
0
  6
Continuous
 62
     7
370
    25
100
AcDbCircle
 10
5.8453543809
 20
10.9380903087
 30
0.0
 40
0.070000000000001
100
AcDbArc
 50
24.5193211267
 51
155.4806774209
  0
ARC
  5
34B
330
1F
100
AcDbEntity
  8
0
  6
Continuous
 62
     7
370
    25
100
AcDbCircle
 10
6.7828543809
 20
10.9380903087
 30
0.0
 40
0.0700000000000001
100
AcDbArc
 50
24.5193164766
 51
155.4806835235
  0
LINE
  5
34C
330
1F
100
AcDbEntity
  8
0
  6
Continuous
 62
     7
370
    25
100
AcDbLine
 10
7.9828543809
 20
11.2693403087
 30
0.0
 11
7.9828543809
 21
13.9193403087
 31
0.0
  0
LINE
  5
34D
330
1F
100
AcDbEntity
  8
0
  6
Continuous
 62
     7
370
    25
100
AcDbLine
 10
7.9828543809
 20
13.9193403087
 30
0.0
 11
5.5828543809
 21
13.9193403087
 31
0.0
  0
LINE
  5
34E
330
1F
100
AcDbEntity
  8
0
  6
Continuous
 62
     7
370
    25
100
AcDbLine
 10
5.5828543809
 20
13.9193403087
 30
0.0
 11
5.5828543809
 21
11.2693403087
 31
0.0
  0
LINE
  5
34F
330
1F
100
AcDbEntity
  8
0
  6
Continuous
 62
     7
370
    25
100
AcDbLine
 10
5.5828543809
 20
11.2693403087
 30
0.0
 11
7.9828543809
 21
11.2693403087
 31
0.0
  0
LINE
  5
350
330
1F
100
AcDbEntity
  8
0
  6
Continuous
 62
     7
370
    25
100
AcDbLine
 10
6.4328543809
 20
12.5955903087
 30
0.0
 11
6.3728543809
 21
12.5955903087
 31
0.0
  0
LWPOLYLINE
  5
351
330
1F
100
AcDbEntity
  8
0
  6
Continuous
 62
     7
370
    25
100
AcDbPolyline
 90
       34
 70
   128
 43
0.0
 10
6.3728543809
 20
12.5955903087
 10
6.3803681261
 20
12.6737236224
 10
6.4036142435
 20
12.7514008288
 10
6.4422967341
 20
12.8238894309
 10
6.4942666929
 20
12.8868241432
 10
6.5559040693
 20
12.9370482945
 10
6.624462396
 20
12.9737595554
 10
6.7012835774
 20
12.9973939971
 10
6.7828543809
 20
13.0055903087
 10
6.8644251844
 20
12.9973939971
 10
6.9412463658
 20
12.9737595554
 10
7.0098046924
 20
12.9370482945
 10
7.0714420688
 20
12.8868241432
 10
7.1234120277
 20
12.8238894309
 10
7.1620945183
 20
12.7514008288
 10
7.1853406357
 20
12.6737236224
 10
7.1928543809
 20
12.5955903087
 10
7.1853406357
 20
12.517456995
 10
7.1620945183
 20
12.4397797886
 10
7.1234120277
 20
12.3672911865
 10
7.0714420688
 20
12.3043564742
 10
7.0098046924
 20
12.2541323229
 10
6.9412463658
 20
12.217421062
 10
6.8644251844
 20
12.1937866203
 10
6.7828543809
 20
12.1855903087
 10
6.7012835774
 20
12.1937866203
 10
6.624462396
 20
12.217421062
 10
6.5559040693
 20
12.2541323229
 10
6.4942666929
 20
12.3043564742
 10
6.4422967341
 20
12.3672911865
 10
6.4036142435
 20
12.4397797886
 10
6.3803681261
 20
12.517456995
 10
6.3728543809
 20
12.5955903087
 10
6.3728543809
 20
12.5955903087
  0
CIRCLE
  5
352
330
1F
100
AcDbEntity
  8
0
  6
Continuous
 62
     7
370
    25
100
AcDbCircle
 10
6.7828543809
 20
12.5955903087
 30
0.0
 40
0.3125
  0
CIRCLE
  5
353
330
1F
100
AcDbEntity
  8
0
  6
Continuous
 62
     7
370
    25
100
AcDbCircle
 10
6.7828543809
 20
12.5955903087
 30
0.0
 40
0.3500000000000005
  0
CIRCLE
  5
354
330
1F
100
AcDbEntity
  8
0
  6
Continuous
 62
     7
370
    25
100
AcDbCircle
 10
6.7828543809
 20
12.5955903087
 30
0.0
 40
0.4125000000000005
  0
SPLINE
  5
355
330
1F
100
AcDbEntity
  8
0
  6
Continuous
 62
     7
370
    25
100
AcDbSpline
210
0.0
220
0.0
230
1.0
 70
     8
 71
     3
 72
    11
 73
     7
 74
     0
 42
0.00000001
 43
0.00000001
 40
0.0
 40
0.0
 40
0.0
 40
0.0
 40
0.0213371440619497
 40
0.419768658426014
 40
0.9173552472338065
 40
1.0
 40
1.0
 40
1.0
 40
1.0
 10
5.909592176880694
 20
10.91188357114788
 30
0.0
 10
5.908648597418975
 20
10.91188950166999
 30
0.0
 10
5.890085424971257
 20
10.91200617367182
 30
0.0
 10
5.850746112119098
 20
10.9124173105288
 30
0.0
 10
5.808977425409523
 20
10.91288236005093
 30
0.0
 10
5.785956341705446
 20
10.91327392934737
 30
0.0
 10
5.78267735342127
 20
10.91332970218378
 30
0.0
  0
SPLINE
  5
356
330
1F
100
AcDbEntity
  8
0
  6
Continuous
 62
     7
370
    25
100
AcDbSpline
210
0.0
220
0.0
230
1.0
 70
     8
 71
     3
 72
    11
 73
     7
 74
     0
 42
0.00000001
 43
0.00000001
 40
0.0
 40
0.0
 40
0.0
 40
0.0
 40
0.0016016632901095
 40
0.4059007602174156
 40
0.9108151589170779
 40
1.0
 40
1.0
 40
1.0
 40
1.0
 10
7.658736574184183
 20
14.27928039988058
 30
0.0
 10
7.658806342596419
 20
14.27927995697197
 30
0.0
 10
7.676487369401774
 20
14.27916771306727
 30
0.0
 10
7.714955448475921
 20
14.27876221059909
 30
0.0
 10
7.756947130411228
 20
14.27829524991468
 30
0.0
 10
7.780171629553275
 20
14.27789980712447
 30
0.0
 10
7.78365803910662
 20
14.2778404441426
 30
0.0
  0
SPLINE
  5
357
330
1F
100
AcDbEntity
  8
0
  6
Continuous
 62
     7
370
    25
100
AcDbSpline
210
0.0
220
0.0
230
1.0
 70
     8
 71
     3
 72
    11
 73
     7
 74
     0
 42
0.00000001
 43
0.00000001
 40
0.0
 40
0.0
 40
0.0
 40
0.0
 40
0.0359707132784513
 40
0.5136158038848376
 40
0.9094541737362447
 40
1.0
 40
1.0
 40
1.0
 40
1.0
 10
7.782355583171343
 20
10.91330938422177
 30
0.0
 10
7.780960172053399
 20
10.91328562989818
 30
0.0
 10
7.76103548505751
 20
10.91294644852268
 30
0.0
 10
7.72323779003425
 20
10.91250860725295
 30
0.0
 10
7.682954147760672
 20
10.91207466429331
 30
0.0
 10
7.661968719121412
 20
10.91193339756854
 30
0.0
 10
7.65806204824103
 20
10.91190709919696
 30
0.0
  0
SPLINE
  5
358
330
1F
100
AcDbEntity
  8
0
  6
Continuous
 62
     7
370
    25
100
AcDbSpline
210
0.0
220
0.0
230
1.0
 70
     8
 71
     3
 72
    11
 73
     7
 74
     0
 42
0.00000001
 43
0.00000001
 40
0.0
 40
0.0
 40
0.0
 40
0.0
 40
0.0397564508530762
 40
0.5154163866421992
 40
0.9096096009958924
 40
1.0
 40
1.0
 40
1.0
 40
1.0
 10
5.782892522594044
 20
14.27786345394963
 30
0.0
 10
5.784440972467965
 20
14.27788983453827
 30
0.0
 10
5.804515612477006
 20
14.27823184161842
 30
0.0
 10
5.842468420995099
 20
14.27867217917097
 30
0.0
 10
5.882764136123492
 20
14.27910602864215
 30
0.0
 10
5.903759128523919
 20
14.27924735601362
 30
0.0
 10
5.907675368544941
 20
14.279273718105
 30
0.0
  0
LINE
  5
359
330
1F
100
AcDbEntity
  8
0
  6
Continuous
 62
     7
370
    25
100
AcDbLine
 10
6.720437934
 20
14.2486096495
 30
0.0
 11
6.8452708278
 21
14.2486096495
 31
0.0
  0
DIMENSION
  5
35A
330
1F
100
AcDbEntity
  8
0
  6
Continuous
 62
     7
370
    18
100
AcDbDimension
  2
_D_7
 10
3.8290709677
 20
10.2395108239
 30
0.0
 11
3.8290709677
 21
12.5955903087
 31
0.0
 70
   160
  1
<>
 71
     2
 42
-1.0
  3
SLDDIMSTYLE2
100
AcDbAlignedDimension
 13
5.306774896
 23
14.9516697936
 33
0.0
 14
5.306774896
 24
10.2395108239
 34
0.0
 50
90.0
100
AcDbRotatedDimension
  0
DIMENSION
  5
36E
330
1F
100
AcDbEntity
  8
0
  6
Continuous
 62
     7
370
    18
100
AcDbDimension
  2
_D_8
 10
8.2589338657
 20
15.7390713684
 30
0.0
 11
6.7828543809
 21
15.7390713684
 31
0.0
 70
   160
  1
<>
 71
     2
 42
-1.0
  3
SLDDIMSTYLE2
100
AcDbAlignedDimension
 13
5.306774896
 23
14.9516697936
 33
0.0
 14
8.2589338657
 24
14.9516697936
 34
0.0
 50
0.0
100
AcDbRotatedDimension
  0
MTEXT
  5
382
330
1F
100
AcDbEntity
  8
0
  6
Continuous
 62
     7
370
     0
100
AcDbMText
 10
6.769370915
 20
9.8240112745
 30
0.0
 40
0.25
 41
0.0
 71
     2
 72
     1
  1
BACK BOX DETAIL
  7
SLDTEXTSTYLE0
 73
     1
 44
1.0
  0
ENDSEC
  0
SECTION
  2
OBJECTS
  0
DICTIONARY
  5
C
330
0
100
AcDbDictionary
281
     1
  3
ACAD_GROUP
350
D
  3
ACAD_LAYOUT
350
1A
  3
ACAD_MLINESTYLE
350
17
  3
ACAD_PLOTSETTINGS
350
19
  3
ACAD_PLOTSTYLENAME
350
E
  3
ACAD_SCALELIST
350
47
  3
DWGPROPS
350
383
  0
DICTIONARY
  5
D
102
{ACAD_REACTORS
330
C
102
}
330
C
100
AcDbDictionary
281
     1
  0
DICTIONARY
  5
1A
102
{ACAD_REACTORS
330
C
102
}
330
C
100
AcDbDictionary
281
     1
  3
Layout1
350
1E
  3
Layout2
350
26
  3
Model
350
22
  0
DICTIONARY
  5
17
102
{ACAD_REACTORS
330
C
102
}
330
C
100
AcDbDictionary
281
     1
  3
Standard
350
18
  0
DICTIONARY
  5
19
102
{ACAD_REACTORS
330
C
102
}
330
C
100
AcDbDictionary
281
     1
  0
ACDBDICTIONARYWDFLT
  5
E
102
{ACAD_REACTORS
330
C
102
}
330
C
100
AcDbDictionary
281
     1
  3
Normal
350
F
100
AcDbDictionaryWithDefault
340
F
  0
DICTIONARY
  5
47
102
{ACAD_REACTORS
330
C
102
}
330
C
100
AcDbDictionary
281
     1
  3
A0
350
48
  3
A1
350
49
  3
A2
350
4A
  3
A3
350
4B
  3
A4
350
4C
  3
A5
350
4D
  3
A6
350
4E
  3
A7
350
4F
  3
A8
350
50
  3
A9
350
51
  3
B1
350
52
  3
B2
350
53
  3
B3
350
54
  3
B4
350
55
  3
B5
350
56
  3
B6
350
57
  3
B7
350
58
  0
XRECORD
  5
383
102
{ACAD_REACTORS
330
C
102
}
330
C
100
AcDbXrecord
280
     1
  1
DWGPROPS COOKIE
  2

  3

  4

  6

  7

  8
alekseyb
  9

300
=
301
=
302
=
303
=
304
=
305
=
306
=
307
=
308
=
309
=
 40
0.0
 41
2460508.09798294
 42
2460508.097983681
  1

 90
        0
  0
LAYOUT
  5
1E
102
{ACAD_REACTORS
330
1A
102
}
330
1A
100
AcDbPlotSettings
  1

  2
none_device
  4

  6

 40
0.0
 41
0.0
 42
0.0
 43
0.0
 44
0.0
 45
0.0
 46
0.0
 47
0.0
 48
0.0
 49
0.0
140
0.0
141
0.0
142
1.0
143
1.0
 70
   688
 72
     0
 73
     0
 74
     5
  7

 75
    16
147
1.0
148
0.0
149
0.0
100
AcDbLayout
  1
Layout1
 70
     1
 71
     1
 10
0.0
 20
0.0
 11
12.0
 21
9.0
 12
0.0
 22
0.0
 32
0.0
 14
1.0000000000E+20
 24
1.0000000000E+20
 34
1.0000000000E+20
 15
-1.0000000000E+20
 25
-1.0000000000E+20
 35
-1.0000000000E+20
146
0.0
 13
0.0
 23
0.0
 33
0.0
 16
1.0
 26
0.0
 36
0.0
 17
0.0
 27
1.0
 37
0.0
 76
     0
330
1B
  0
LAYOUT
  5
26
102
{ACAD_REACTORS
330
1A
102
}
330
1A
100
AcDbPlotSettings
  1

  2
none_device
  4

  6

 40
0.0
 41
0.0
 42
0.0
 43
0.0
 44
0.0
 45
0.0
 46
0.0
 47
0.0
 48
0.0
 49
0.0
140
0.0
141
0.0
142
1.0
143
1.0
 70
   688
 72
     0
 73
     0
 74
     5
  7

 75
    16
147
1.0
148
0.0
149
0.0
100
AcDbLayout
  1
Layout2
 70
     1
 71
     2
 10
0.0
 20
0.0
 11
0.0
 21
0.0
 12
0.0
 22
0.0
 32
0.0
 14
0.0
 24
0.0
 34
0.0
 15
0.0
 25
0.0
 35
0.0
146
0.0
 13
0.0
 23
0.0
 33
0.0
 16
1.0
 26
0.0
 36
0.0
 17
0.0
 27
1.0
 37
0.0
 76
     0
330
23
  0
LAYOUT
  5
22
102
{ACAD_REACTORS
330
1A
102
}
330
1A
100
AcDbPlotSettings
  1

  2
none_device
  4
Letter_(8.50_x_11.00_Inches)
  6

 40
6.35
 41
6.35
 42
6.35000508
 43
6.35000508
 44
215.9
 45
279.4
 46
0.0
 47
0.0
 48
0.0
 49
0.0
140
0.0
141
0.0
142
1.0
143
1.0
 70
  1712
 72
     0
 73
     0
 74
     0
  7

 75
     0
147
1.0
148
0.0
149
0.0
100
AcDbLayout
  1
Model
 70
     1
 71
     0
 10
0.0
 20
0.0
 11
22.0
 21
17.0
 12
0.0
 22
0.0
 32
0.0
 14
0.0
 24
0.0
 34
0.0
 15
22.0
 25
17.0
 35
0.0
146
0.0
 13
0.0
 23
0.0
 33
0.0
 16
1.0
 26
0.0
 36
0.0
 17
0.0
 27
1.0
 37
0.0
 76
     0
330
1F
331
29
  0
MLINESTYLE
  5
18
102
{ACAD_REACTORS
330
17
102
}
330
17
100
AcDbMlineStyle
  2
Standard
 70
     0
  3

 62
   256
 51
90.0
 52
90.0
 71
     2
 49
0.5
 62
   256
  6
BYLAYER
 49
-0.5
 62
   256
  6
BYLAYER
  0
ACDBPLACEHOLDER
  5
F
102
{ACAD_REACTORS
330
E
102
}
330
E
  0
SCALE
  5
48
102
{ACAD_REACTORS
330
47
102
}
330
47
100
AcDbScale
 70
     0
300
1:1
140
1.0
141
1.0
290
     1
  0
SCALE
  5
49
102
{ACAD_REACTORS
330
47
102
}
330
47
100
AcDbScale
 70
     0
300
1/128" = 1'-0"
140
0.0078125
141
12.0
290
     0
  0
SCALE
  5
4A
102
{ACAD_REACTORS
330
47
102
}
330
47
100
AcDbScale
 70
     0
300
1/64" = 1'-0"
140
0.015625
141
12.0
290
     0
  0
SCALE
  5
4B
102
{ACAD_REACTORS
330
47
102
}
330
47
100
AcDbScale
 70
     0
300
1/32" = 1'-0"
140
0.03125
141
12.0
290
     0
  0
SCALE
  5
4C
102
{ACAD_REACTORS
330
47
102
}
330
47
100
AcDbScale
 70
     0
300
1/16" = 1'-0"
140
0.0625
141
12.0
290
     0
  0
SCALE
  5
4D
102
{ACAD_REACTORS
330
47
102
}
330
47
100
AcDbScale
 70
     0
300
3/32" = 1'-0"
140
0.09375
141
12.0
290
     0
  0
SCALE
  5
4E
102
{ACAD_REACTORS
330
47
102
}
330
47
100
AcDbScale
 70
     0
300
1/8" = 1'-0"
140
0.125
141
12.0
290
     0
  0
SCALE
  5
4F
102
{ACAD_REACTORS
330
47
102
}
330
47
100
AcDbScale
 70
     0
300
3/16" = 1'-0"
140
0.1875
141
12.0
290
     0
  0
SCALE
  5
50
102
{ACAD_REACTORS
330
47
102
}
330
47
100
AcDbScale
 70
     0
300
1/4" = 1'-0"
140
0.25
141
12.0
290
     0
  0
SCALE
  5
51
102
{ACAD_REACTORS
330
47
102
}
330
47
100
AcDbScale
 70
     0
300
3/8" = 1'-0"
140
0.375
141
12.0
290
     0
  0
SCALE
  5
52
102
{ACAD_REACTORS
330
47
102
}
330
47
100
AcDbScale
 70
     0
300
1/2" = 1'-0"
140
0.5
141
12.0
290
     0
  0
SCALE
  5
53
102
{ACAD_REACTORS
330
47
102
}
330
47
100
AcDbScale
 70
     0
300
3/4" = 1'-0"
140
0.75
141
12.0
290
     0
  0
SCALE
  5
54
102
{ACAD_REACTORS
330
47
102
}
330
47
100
AcDbScale
 70
     0
300
1" = 1'-0"
140
1.0
141
12.0
290
     0
  0
SCALE
  5
55
102
{ACAD_REACTORS
330
47
102
}
330
47
100
AcDbScale
 70
     0
300
1-1/2" = 1'-0"
140
1.5
141
12.0
290
     0
  0
SCALE
  5
56
102
{ACAD_REACTORS
330
47
102
}
330
47
100
AcDbScale
 70
     0
300
3" = 1'-0"
140
3.0
141
12.0
290
     0
  0
SCALE
  5
57
102
{ACAD_REACTORS
330
47
102
}
330
47
100
AcDbScale
 70
     0
300
6" = 1'-0"
140
6.0
141
12.0
290
     0
  0
SCALE
  5
58
102
{ACAD_REACTORS
330
47
102
}
330
47
100
AcDbScale
 70
     0
300
1'-0" = 1'-0"
140
12.0
141
12.0
290
     0
  0
ENDSEC
  0
EOF
